  0
SECTION
  2
HEADER
  9
$ACADVER
  1
AC1018
  9
$ACADMAINTVER
 70
     0
  9
$DWGCODEPAGE
  3
ANSI_1252
  9
$INSBASE
 10
-2901.632619392039
 20
3946.880769652257
 30
0.0
  9
$EXTMIN
 10
1.000000000000000E+20
 20
1.000000000000000E+20
 30
1.000000000000000E+20
  9
$EXTMAX
 10
0.0
 20
0.0
 30
0.0
  9
$LIMMIN
 10
0.0
 20
0.0
  9
$LIMMAX
 10
420.0
 20
297.0
  9
$ORTHOMODE
 70
     1
  9
$REGENMODE
 70
     1
  9
$FILLMODE
 70
     1
  9
$QTEXTMODE
 70
     0
  9
$MIRRTEXT
 70
     1
  9
$LTSCALE
 40
1.0
  9
$ATTMODE
 70
     1
  9
$TEXTSIZE
 40
2.5
  9
$TRACEWID
 40
1.0
  9
$TEXTSTYLE
  7
STANDARD
  9
$CLAYER
  8
-SYSTEM
  9
$CELTYPE
  6
BYLAYER
  9
$CECOLOR
 62
   256
  9
$CELTSCALE
 40
1.0
  9
$DISPSILH
 70
     0
  9
$DIMSCALE
 40
1.0
  9
$DIMASZ
 40
3.0
  9
$DIMEXO
 40
1.0
  9
$DIMDLI
 40
3.75
  9
$DIMRND
 40
0.0
  9
$DIMDLE
 40
0.0
  9
$DIMEXE
 40
1.25
  9
$DIMTP
 40
0.0
  9
$DIMTM
 40
0.0
  9
$DIMTXT
 40
7.0
  9
$DIMCEN
 40
2.5
  9
$DIMTSZ
 40
0.0
  9
$DIMTOL
 70
     0
  9
$DIMLIM
 70
     0
  9
$DIMTIH
 70
     0
  9
$DIMTOH
 70
     0
  9
$DIMSE1
 70
     0
  9
$DIMSE2
 70
     0
  9
$DIMTAD
 70
     1
  9
$DIMZIN
 70
     8
  9
$DIMBLK
  1

  9
$DIMASO
 70
     1
  9
$DIMSHO
 70
     1
  9
$DIMPOST
  1

  9
$DIMAPOST
  1

  9
$DIMALT
 70
     0
  9
$DIMALTD
 70
     4
  9
$DIMALTF
 40
0.0394
  9
$DIMLFAC
 40
1.0
  9
$DIMTOFL
 70
     1
  9
$DIMTVP
 40
0.0
  9
$DIMTIX
 70
     0
  9
$DIMSOXD
 70
     0
  9
$DIMSAH
 70
     0
  9
$DIMBLK1
  1

  9
$DIMBLK2
  1

  9
$DIMSTYLE
  2
1-1-0
  9
$DIMCLRD
 70
     2
  9
$DIMCLRE
 70
     2
  9
$DIMCLRT
 70
     3
  9
$DIMTFAC
 40
1.0
  9
$DIMGAP
 40
1.0
  9
$DIMJUST
 70
     0
  9
$DIMSD1
 70
     0
  9
$DIMSD2
 70
     0
  9
$DIMTOLJ
 70
     1
  9
$DIMTZIN
 70
     8
  9
$DIMALTZ
 70
     0
  9
$DIMALTTZ
 70
     0
  9
$DIMUPT
 70
     0
  9
$DIMDEC
 70
     0
  9
$DIMTDEC
 70
     0
  9
$DIMALTU
 70
     8
  9
$DIMALTTD
 70
     4
  9
$DIMTXSTY
  7
STANDARD
  9
$DIMAUNIT
 70
     0
  9
$DIMADEC
 70
     0
  9
$DIMALTRND
 40
0.0
  9
$DIMAZIN
 70
     0
  9
$DIMDSEP
 70
    46
  9
$DIMATFIT
 70
     3
  9
$DIMFRAC
 70
     0
  9
$DIMLDRBLK
  1

  9
$DIMLUNIT
 70
     2
  9
$DIMLWD
 70
    -2
  9
$DIMLWE
 70
    -2
  9
$DIMTMOVE
 70
     0
  9
$LUNITS
 70
     2
  9
$LUPREC
 70
     4
  9
$SKETCHINC
 40
1.0
  9
$FILLETRAD
 40
0.0
  9
$AUNITS
 70
     0
  9
$AUPREC
 70
     0
  9
$MENU
  1
.
  9
$ELEVATION
 40
0.0
  9
$PELEVATION
 40
0.0
  9
$THICKNESS
 40
0.0
  9
$LIMCHECK
 70
     0
  9
$CHAMFERA
 40
0.0
  9
$CHAMFERB
 40
0.0
  9
$CHAMFERC
 40
20.0
  9
$CHAMFERD
 40
0.0
  9
$SKPOLY
 70
     0
  9
$TDCREATE
 40
2451456.639347917
  9
$TDUCREATE
 40
2451456.556014584
  9
$TDUPDATE
 40
2455701.674986829
  9
$TDUUPDATE
 40
2455701.591653496
  9
$TDINDWG
 40
1.5930679514
  9
$TDUSRTIMER
 40
1.5930679514
  9
$USRTIMER
 70
     1
  9
$ANGBASE
 50
0.0
  9
$ANGDIR
 70
     0
  9
$PDMODE
 70
     2
  9
$PDSIZE
 40
5.0
  9
$PLINEWID
 40
0.0
  9
$SPLFRAME
 70
     0
  9
$SPLINETYPE
 70
     6
  9
$SPLINESEGS
 70
     8
  9
$HANDSEED
  5
F1
  9
$SURFTAB1
 70
     6
  9
$SURFTAB2
 70
     6
  9
$SURFTYPE
 70
     6
  9
$SURFU
 70
     6
  9
$SURFV
 70
     6
  9
$UCSBASE
  2

  9
$UCSNAME
  2

  9
$UCSORG
 10
0.0
 20
0.0
 30
0.0
  9
$UCSXDIR
 10
1.0
 20
0.0
 30
0.0
  9
$UCSYDIR
 10
0.0
 20
1.0
 30
0.0
  9
$UCSORTHOREF
  2

  9
$UCSORTHOVIEW
 70
     0
  9
$UCSORGTOP
 10
0.0
 20
0.0
 30
0.0
  9
$UCSORGBOTTOM
 10
0.0
 20
0.0
 30
0.0
  9
$UCSORGLEFT
 10
0.0
 20
0.0
 30
0.0
  9
$UCSORGRIGHT
 10
0.0
 20
0.0
 30
0.0
  9
$UCSORGFRONT
 10
0.0
 20
0.0
 30
0.0
  9
$UCSORGBACK
 10
0.0
 20
0.0
 30
0.0
  9
$PUCSBASE
  2

  9
$PUCSNAME
  2

  9
$PUCSORG
 10
0.0
 20
0.0
 30
0.0
  9
$PUCSXDIR
 10
1.0
 20
0.0
 30
0.0
  9
$PUCSYDIR
 10
0.0
 20
1.0
 30
0.0
  9
$PUCSORTHOREF
  2

  9
$PUCSORTHOVIEW
 70
     0
  9
$PUCSORGTOP
 10
0.0
 20
0.0
 30
0.0
  9
$PUCSORGBOTTOM
 10
0.0
 20
0.0
 30
0.0
  9
$PUCSORGLEFT
 10
0.0
 20
0.0
 30
0.0
  9
$PUCSORGRIGHT
 10
0.0
 20
0.0
 30
0.0
  9
$PUCSORGFRONT
 10
0.0
 20
0.0
 30
0.0
  9
$PUCSORGBACK
 10
0.0
 20
0.0
 30
0.0
  9
$USERI1
 70
     0
  9
$USERI2
 70
     0
  9
$USERI3
 70
     0
  9
$USERI4
 70
     0
  9
$USERI5
 70
     0
  9
$USERR1
 40
0.0
  9
$USERR2
 40
0.0
  9
$USERR3
 40
0.0
  9
$USERR4
 40
0.0
  9
$USERR5
 40
0.0
  9
$WORLDVIEW
 70
     1
  9
$SHADEDGE
 70
     3
  9
$SHADEDIF
 70
    70
  9
$TILEMODE
 70
     1
  9
$MAXACTVP
 70
    48
  9
$PINSBASE
 10
0.0
 20
0.0
 30
0.0
  9
$PLIMCHECK
 70
     0
  9
$PEXTMIN
 10
1.000000000000000E+20
 20
1.000000000000000E+20
 30
1.000000000000000E+20
  9
$PEXTMAX
 10
-1.000000000000000E+20
 20
-1.000000000000000E+20
 30
-1.000000000000000E+20
  9
$PLIMMIN
 10
0.0
 20
0.0
  9
$PLIMMAX
 10
420.0
 20
297.0
  9
$UNITMODE
 70
     0
  9
$VISRETAIN
 70
     1
  9
$PLINEGEN
 70
     0
  9
$PSLTSCALE
 70
     1
  9
$TREEDEPTH
 70
  3020
  9
$CMLSTYLE
  2
STANDARD
  9
$CMLJUST
 70
     0
  9
$CMLSCALE
 40
1.0
  9
$PROXYGRAPHICS
 70
     1
  9
$MEASUREMENT
 70
     0
  9
$CELWEIGHT
370
    -1
  9
$ENDCAPS
280
     0
  9
$JOINSTYLE
280
     0
  9
$LWDISPLAY
290
     0
  9
$INSUNITS
 70
     0
  9
$HYPERLINKBASE
  1

  9
$STYLESHEET
  1

  9
$XEDIT
290
     1
  9
$CEPSNTYPE
380
     0
  9
$PSTYLEMODE
290
     1
  9
$FINGERPRINTGUID
  2
{9FD983A3-3281-11D5-9C1F-CF26F17F5F5C}
  9
$VERSIONGUID
  2
{5987380C-6B52-412E-AFD5-E75EAA0CB0A2}
  9
$EXTNAMES
290
     1
  9
$PSVPSCALE
 40
0.0
  9
$OLESTARTUP
290
     0
  9
$SORTENTS
280
   127
  9
$INDEXCTL
280
     0
  9
$HIDETEXT
280
     1
  9
$XCLIPFRAME
290
     0
  9
$HALOGAP
280
     0
  9
$OBSCOLOR
 70
   257
  9
$OBSLTYPE
280
     0
  9
$INTERSECTIONDISPLAY
280
     0
  9
$INTERSECTIONCOLOR
 70
   257
  9
$DIMASSOC
280
     1
  9
$PROJECTNAME
  1

  0
ENDSEC
  0
SECTION
  2
CLASSES
  0
CLASS
  1
DICTIONARYVAR
  2
AcDbDictionaryVar
  3
ObjectDBX Classes
 90
        0
 91
        0
280
     0
281
     0
  0
CLASS
  1
IMAGE
  2
AcDbRasterImage
  3
ISM
 90
      127
 91
        0
280
     0
281
     1
  0
CLASS
  1
IMAGEDEF_REACTOR
  2
AcDbRasterImageDefReactor
  3
ISM
 90
        1
 91
        0
280
     0
281
     0
  0
CLASS
  1
IMAGEDEF
  2
AcDbRasterImageDef
  3
ISM
 90
        0
 91
        0
280
     0
281
     0
  0
CLASS
  1
ACDBDICTIONARYWDFLT
  2
AcDbDictionaryWithDefault
  3
ObjectDBX Classes
 90
        0
 91
        1
280
     0
281
     0
  0
ENDSEC
  0
SECTION
  2
TABLES
  0
TABLE
  2
VPORT
  5
E6
330
0
100
AcDbSymbolTable
 70
     1
  0
VPORT
  5
E7
330
E6
100
AcDbSymbolTableRecord
100
AcDbViewportTableRecord
  2
*Active
 70
     0
 10
0.0
 20
0.0
 11
1.0
 21
1.0
 12
98.39264000811693
 22
99.363304772488
 13
0.0
 23
0.0
 14
10.0
 24
10.0
 15
10.0
 25
10.0
 16
0.0
 26
0.0
 36
1.0
 17
0.0
 27
0.0
 37
0.0
 40
655.329609186899
 41
2.024081115335868
 42
50.0
 43
0.0
 44
0.0
 50
0.0
 51
0.0
 71
     0
 72
   100
 73
     1
 74
     1
 75
     0
 76
     0
 77
     0
 78
     0
281
     0
 65
     1
110
0.0
120
0.0
130
0.0
111
1.0
121
0.0
131
0.0
112
0.0
122
1.0
132
0.0
 79
     0
146
0.0
  0
ENDTAB
  0
TABLE
  2
LTYPE
  5
E1
330
0
100
AcDbSymbolTable
 70
     4
  0
LTYPE
  5
E2
330
E1
100
AcDbSymbolTableRecord
100
AcDbLinetypeTableRecord
  2
BYBLOCK
 70
     0
  3

 72
    65
 73
     0
 40
0.0
  0
LTYPE
  5
E3
330
E1
100
AcDbSymbolTableRecord
100
AcDbLinetypeTableRecord
  2
BYLAYER
 70
     0
  3

 72
    65
 73
     0
 40
0.0
  0
LTYPE
  5
8
330
E1
100
AcDbSymbolTableRecord
100
AcDbLinetypeTableRecord
  2
CONTINUOUS
 70
     0
  3
Solid line
 72
    65
 73
     0
 40
0.0
  0
LTYPE
  5
52
330
E1
100
AcDbSymbolTableRecord
100
AcDbLinetypeTableRecord
  2
MITTE
 70
     0
  3
Mitte ____ _ ____ _ ____ _ ____ _ ____ _ ____
 72
    65
 73
     4
 40
50.8
 49
31.75
 74
     0
 49
-6.349999999999999
 74
     0
 49
6.349999999999999
 74
     0
 49
-6.349999999999999
 74
     0
  0
LTYPE
  5
95
330
E1
100
AcDbSymbolTableRecord
100
AcDbLinetypeTableRecord
  2
VERDECKT
 70
     0
  3
Verdeckt __ __ __ __ __ __ __ __ __ __ __ __ __
 72
    65
 73
     2
 40
9.524999999999998
 49
6.349999999999999
 74
     0
 49
-3.174999999999999
 74
     0
  0
LTYPE
  5
13
330
E1
100
AcDbSymbolTableRecord
100
AcDbLinetypeTableRecord
  2
AUSGEZOGEN
 70
     0
  3
AUSGEZOGEN
 72
    65
 73
     2
 40
2.0
 49
1.0
 74
     0
 49
1.0
 74
     0
  0
ENDTAB
  0
TABLE
  2
LAYER
  5
DE
330
0
100
AcDbSymbolTable
 70
     9
  0
LAYER
  5
4
330
DE
100
AcDbSymbolTableRecord
100
AcDbLayerTableRecord
  2
0
 70
     0
 62
     7
  6
CONTINUOUS
370
    -3
390
5
  0
LAYER
  5
3E
330
DE
100
AcDbSymbolTableRecord
100
AcDbLayerTableRecord
  2
-PROFILAUSSENKANTE
 70
     0
 62
     4
  6
CONTINUOUS
370
    -3
390
5
  0
LAYER
  5
51
330
DE
100
AcDbSymbolTableRecord
100
AcDbLayerTableRecord
  2
-SYSTEM
 70
     0
 62
     2
  6
MITTE
370
    -3
390
5
  0
LAYER
  5
94
330
DE
100
AcDbSymbolTableRecord
100
AcDbLayerTableRecord
  2
-VERDECKT
 70
     0
 62
     9
  6
VERDECKT
370
    -3
390
5
  0
LAYER
  5
27
330
DE
100
AcDbSymbolTableRecord
100
AcDbLayerTableRecord
  2
DEFPOINTS
 70
     0
 62
     7
  6
CONTINUOUS
290
     0
370
    -3
390
5
  0
LAYER
  5
E
330
DE
100
AcDbSymbolTableRecord
100
AcDbLayerTableRecord
  2
-TEXT2
 70
     0
 62
     3
  6
CONTINUOUS
370
    -3
390
5
  0
LAYER
  5
12
330
DE
100
AcDbSymbolTableRecord
100
AcDbLayerTableRecord
  2
-TEXT
 70
     0
 62
     7
  6
AUSGEZOGEN
370
    -3
390
5
  0
LAYER
  5
A
330
DE
100
AcDbSymbolTableRecord
100
AcDbLayerTableRecord
  2
-TEXT3
 70
     0
 62
     2
  6
CONTINUOUS
370
    -3
390
5
  0
LAYER
  5
98
330
DE
100
AcDbSymbolTableRecord
100
AcDbLayerTableRecord
  2
-TEXT1
 70
     0
 62
     4
  6
CONTINUOUS
370
    -3
390
5
  0
ENDTAB
  0
TABLE
  2
STYLE
  5
DF
330
0
100
AcDbSymbolTable
 70
     1
  0
STYLE
  5
F
330
DF
100
AcDbSymbolTableRecord
100
AcDbTextStyleTableRecord
  2
STANDARD
 70
     0
 40
0.0
 41
1.0
 50
0.0
 71
     0
 42
2.5
  3
ARIAL.TTF
  4

1001
ACAD
1000
Arial
1071
       34
  0
ENDTAB
  0
TABLE
  2
VIEW
  5
E4
330
0
100
AcDbSymbolTable
 70
     0
  0
ENDTAB
  0
TABLE
  2
UCS
  5
E5
330
0
100
AcDbSymbolTable
 70
     0
  0
ENDTAB
  0
TABLE
  2
APPID
  5
E8
330
0
100
AcDbSymbolTable
 70
     1
  0
APPID
  5
10
330
E8
100
AcDbSymbolTableRecord
100
AcDbRegAppTableRecord
  2
ACAD
 70
     0
  0
ENDTAB
  0
TABLE
  2
DIMSTYLE
  5
E9
330
0
100
AcDbSymbolTable
 70
     3
100
AcDbDimStyleTable
 71
     0
  0
DIMSTYLE
105
9B
102
{ACAD_REACTORS
330
9A
330
B9
330
C8
102
}
330
E9
100
AcDbSymbolTableRecord
100
AcDbDimStyleTableRecord
  2
1-1
 70
     0
 41
3.0
 42
1.0
 43
3.75
 44
1.25
 73
     0
 74
     0
 77
     1
 78
     8
140
7.0
141
2.5
143
0.0394
147
1.0
171
     4
172
     1
176
     2
177
     2
178
     3
271
     1
272
     1
273
     8
274
     4
284
     8
340
F
  0
DIMSTYLE
105
19
102
{ACAD_REACTORS
330
18
330
2B
330
A8
330
3F
330
55
102
}
330
E9
100
AcDbSymbolTableRecord
100
AcDbDimStyleTableRecord
  2
1-1SOLL
 70
     0
 41
3.0
 42
1.0
 43
3.75
 44
1.25
 73
     0
 74
     0
 77
     1
 78
     8
140
7.0
141
2.5
143
0.0394
147
-1.0
171
     4
172
     1
176
     2
177
     2
178
     3
271
     0
272
     0
273
     8
274
     4
284
     8
340
F
  0
DIMSTYLE
105
6D
102
{ACAD_REACTORS
330
7A
330
6C
102
}
330
E9
100
AcDbSymbolTableRecord
100
AcDbDimStyleTableRecord
  2
1-1-0
 70
     0
 41
3.0
 42
1.0
 43
3.75
 44
1.25
 73
     0
 74
     0
 77
     1
 78
     8
140
7.0
141
2.5
143
0.0394
147
1.0
171
     4
172
     1
176
     2
177
     2
178
     3
271
     0
272
     0
273
     8
274
     4
284
     8
340
F
  0
ENDTAB
  0
TABLE
  2
BLOCK_RECORD
  5
1
330
0
100
AcDbSymbolTable
 70
    10
  0
BLOCK_RECORD
  5
2
330
1
100
AcDbSymbolTableRecord
100
AcDbBlockTableRecord
  2
*MODEL_SPACE
340
D8
  0
BLOCK_RECORD
  5
DA
330
1
100
AcDbSymbolTableRecord
100
AcDbBlockTableRecord
  2
*PAPER_SPACE
340
DD
  0
BLOCK_RECORD
  5
56
330
1
100
AcDbSymbolTableRecord
100
AcDbBlockTableRecord
  2
*D0
340
0
  0
BLOCK_RECORD
  5
2C
330
1
100
AcDbSymbolTableRecord
100
AcDbBlockTableRecord
  2
*D1
340
0
  0
BLOCK_RECORD
  5
1A
330
1
100
AcDbSymbolTableRecord
100
AcDbBlockTableRecord
  2
*D2
340
0
  0
BLOCK_RECORD
  5
7B
330
1
100
AcDbSymbolTableRecord
100
AcDbBlockTableRecord
  2
*D3
340
0
  0
BLOCK_RECORD
  5
40
330
1
100
AcDbSymbolTableRecord
100
AcDbBlockTableRecord
  2
*D4
340
0
  0
BLOCK_RECORD
  5
BA
330
1
100
AcDbSymbolTableRecord
100
AcDbBlockTableRecord
  2
*D5
340
0
  0
BLOCK_RECORD
  5
A9
330
1
100
AcDbSymbolTableRecord
100
AcDbBlockTableRecord
  2
*D6
340
0
  0
BLOCK_RECORD
  5
6E
330
1
100
AcDbSymbolTableRecord
100
AcDbBlockTableRecord
  2
*D7
340
0
  0
BLOCK_RECORD
  5
9C
330
1
100
AcDbSymbolTableRecord
100
AcDbBlockTableRecord
  2
*D8
340
0
  0
BLOCK_RECORD
  5
C9
330
1
100
AcDbSymbolTableRecord
100
AcDbBlockTableRecord
  2
*D9
340
0
  0
ENDTAB
  0
ENDSEC
  0
SECTION
  2
BLOCKS
  0
BLOCK
  5
3
330
2
100
AcDbEntity
  8
0
100
AcDbBlockBegin
  2
*MODEL_SPACE
 70
     0
 10
0.0
 20
0.0
 30
0.0
  3
*MODEL_SPACE
  1

  0
ENDBLK
  5
D7
330
2
100
AcDbEntity
  8
0
100
AcDbBlockEnd
  0
BLOCK
  5
DB
330
DA
100
AcDbEntity
 67
     1
  8
0
100
AcDbBlockBegin
  2
*PAPER_SPACE
 70
     0
 10
0.0
 20
0.0
 30
0.0
  3
*PAPER_SPACE
  1

  0
ENDBLK
  5
DC
330
DA
100
AcDbEntity
 67
     1
  8
0
100
AcDbBlockEnd
  0
BLOCK
  5
57
330
56
100
AcDbEntity
  8
0
100
AcDbBlockBegin
  2
*D0
 70
     1
 10
0.0
 20
0.0
 30
0.0
  3
*D0
  1

  0
LINE
  5
58
330
56
100
AcDbEntity
  8
-TEXT3
 62
     2
370
    -2
100
AcDbLine
 10
-54.07438387495131
 20
0.0000000000000003
 30
0.0
 11
-158.8312270058268
 21
0.00000000000003
 31
0.0
  0
LINE
  5
59
330
56
100
AcDbEntity
  8
-TEXT3
 62
     2
370
    -2
100
AcDbLine
 10
-105.9999999999991
 20
105.0
 30
0.0
 11
-158.8312270058268
 21
105.0
 31
0.0
  0
LINE
  5
5A
330
56
100
AcDbEntity
  8
-TEXT3
 62
     2
370
    -2
100
AcDbLine
 10
-157.5812270058268
 20
3.000000000000029
 30
0.0
 11
-157.5812270058268
 21
102.0
 31
0.0
  0
SOLID
  5
5B
330
56
100
AcDbEntity
  8
-TEXT3
 62
     2
100
AcDbTrace
 10
-158.0812270058268
 20
3.000000000000029
 30
0.0
 11
-157.0812270058268
 21
3.000000000000029
 31
0.0
 12
-157.5812270058268
 22
0.0000000000000296
 32
0.0
 13
-157.5812270058268
 23
0.0000000000000296
 33
0.0
  0
SOLID
  5
5C
330
56
100
AcDbEntity
  8
-TEXT3
 62
     2
100
AcDbTrace
 10
-158.0812270058268
 20
102.0
 30
0.0
 11
-157.0812270058268
 21
102.0
 31
0.0
 12
-157.5812270058268
 22
105.0
 32
0.0
 13
-157.5812270058268
 23
105.0
 33
0.0
  0
MTEXT
  5
5D
330
56
100
AcDbEntity
  8
-TEXT3
 62
     3
100
AcDbMText
 10
-163.0812270058268
 20
52.5
 30
0.0
 40
7.0
 41
0.0
 71
     5
 72
     1
  1
\A1;105
 11
0.0000000000000001
 21
1.0
 31
0.0
 73
     1
 44
1.0
  0
LINE
  5
5E
330
56
100
AcDbEntity
  8
-TEXT3
 62
     2
370
    -2
100
AcDbLine
 10
-158.5812270058268
 20
45.75502525316943
 30
0.0
 11
-158.5812270058268
 21
59.24497474683061
 31
0.0
  0
LINE
  5
5F
330
56
100
AcDbEntity
  8
-TEXT3
 62
     2
370
    -2
100
AcDbLine
 10
-158.5812270058268
 20
59.24497474683061
 30
0.0
 11
-167.5812270058268
 21
59.24497474683061
 31
0.0
  0
LINE
  5
60
330
56
100
AcDbEntity
  8
-TEXT3
 62
     2
370
    -2
100
AcDbLine
 10
-167.5812270058268
 20
59.24497474683061
 30
0.0
 11
-167.5812270058268
 21
45.75502525316943
 31
0.0
  0
LINE
  5
61
330
56
100
AcDbEntity
  8
-TEXT3
 62
     2
370
    -2
100
AcDbLine
 10
-167.5812270058268
 20
45.75502525316943
 30
0.0
 11
-158.5812270058268
 21
45.75502525316943
 31
0.0
  0
POINT
  5
62
330
56
100
AcDbEntity
  8
DEFPOINTS
 62
     0
100
AcDbPoint
 10
-53.07438387495131
 20
0.0
 30
0.0
  0
POINT
  5
63
330
56
100
AcDbEntity
  8
DEFPOINTS
 62
     0
100
AcDbPoint
 10
-104.9999999999991
 20
105.0
 30
0.0
  0
POINT
  5
64
330
56
100
AcDbEntity
  8
DEFPOINTS
 62
     0
100
AcDbPoint
 10
-157.5812270058268
 20
105.0
 30
0.0
  0
ENDBLK
  5
65
330
56
100
AcDbEntity
  8
0
100
AcDbBlockEnd
  0
BLOCK
  5
2D
330
2C
100
AcDbEntity
  8
0
100
AcDbBlockBegin
  2
*D1
 70
     1
 10
0.0
 20
0.0
 30
0.0
  3
*D1
  1

  0
LINE
  5
2E
330
2C
100
AcDbEntity
  8
-TEXT3
 62
     2
370
    -2
100
AcDbLine
 10
79.0085707294137
 20
289.0085707294128
 30
0.0
 11
90.88395733585661
 21
300.8839573358555
 31
0.0
  0
LINE
  5
2F
330
2C
100
AcDbEntity
  8
-TEXT3
 62
     2
370
    -2
100
AcDbLine
 10
211.443479179486
 20
156.5736622793382
 30
0.0
 11
223.3188657859288
 21
168.4490488857809
 31
0.0
  0
LINE
  5
30
330
2C
100
AcDbEntity
  8
-TEXT3
 62
     2
370
    -2
100
AcDbLine
 10
92.12139420293304
 20
297.8787535158126
 30
0.0
 11
220.313661965886
 21
169.6864857528573
 31
0.0
  0
SOLID
  5
31
330
2C
100
AcDbEntity
  8
-TEXT3
 62
     2
100
AcDbTrace
 10
92.47494759352631
 20
298.2323069064059
 30
0.0
 11
91.76784081233977
 21
297.5252001252194
 31
0.0
 12
90.00007385937342
 22
300.0000738593723
 32
0.0
 13
90.00007385937342
 23
300.0000738593723
 33
0.0
  0
SOLID
  5
32
330
2C
100
AcDbEntity
  8
-TEXT3
 62
     2
100
AcDbTrace
 10
220.6672153564793
 20
170.0400391434506
 30
0.0
 11
219.9601085752928
 21
169.3329323622641
 31
0.0
 12
222.4349823094457
 22
167.5651654092977
 32
0.0
 13
222.4349823094457
 23
167.5651654092977
 33
0.0
  0
MTEXT
  5
33
330
2C
100
AcDbEntity
  8
-TEXT3
 62
     3
100
AcDbMText
 10
160.1066153809355
 20
237.671706930861
 30
0.0
 40
7.0
 41
0.0
 71
     5
 72
     1
  1
\A1;187
 11
0.7071067811865413
 21
-0.7071067811865538
 31
0.0
 73
     1
 44
1.0
  0
LINE
  5
34
330
2C
100
AcDbEntity
  8
-TEXT3
 62
     2
370
    -2
100
AcDbLine
 10
152.2577301097649
 20
239.1566311713528
 30
0.0
 11
161.5915396214272
 21
229.8228216596903
 31
0.0
  0
LINE
  5
35
330
2C
100
AcDbEntity
  8
-TEXT3
 62
     2
370
    -2
100
AcDbLine
 10
161.5915396214272
 20
229.8228216596903
 30
0.0
 11
167.9555006521062
 21
236.1867826903692
 31
0.0
  0
LINE
  5
36
330
2C
100
AcDbEntity
  8
-TEXT3
 62
     2
370
    -2
100
AcDbLine
 10
167.9555006521062
 20
236.1867826903692
 30
0.0
 11
158.6216911404439
 21
245.5205922020317
 31
0.0
  0
LINE
  5
37
330
2C
100
AcDbEntity
  8
-TEXT3
 62
     2
370
    -2
100
AcDbLine
 10
158.6216911404439
 20
245.5205922020317
 30
0.0
 11
152.2577301097649
 21
239.1566311713528
 31
0.0
  0
POINT
  5
38
330
2C
100
AcDbEntity
  8
DEFPOINTS
 62
     0
100
AcDbPoint
 10
78.30146394822715
 20
288.3014639482262
 30
0.0
  0
POINT
  5
39
330
2C
100
AcDbEntity
  8
DEFPOINTS
 62
     0
100
AcDbPoint
 10
210.7363723982994
 20
155.8665554981517
 30
0.0
  0
POINT
  5
3A
330
2C
100
AcDbEntity
  8
DEFPOINTS
 62
     0
100
AcDbPoint
 10
222.4349823094457
 20
167.5651654092977
 30
0.0
  0
ENDBLK
  5
3B
330
2C
100
AcDbEntity
  8
0
100
AcDbBlockEnd
  0
BLOCK
  5
1B
330
1A
100
AcDbEntity
  8
0
100
AcDbBlockBegin
  2
*D2
 70
     1
 10
0.0
 20
0.0
 30
0.0
  3
*D2
  1

  0
LINE
  5
1C
330
1A
100
AcDbEntity
  8
-TEXT3
 62
     2
370
    -2
100
AcDbLine
 10
224.0259725671129
 20
169.1561556669647
 30
0.0
 11
236.579813848842
 21
181.7099969486937
 31
0.0
  0
LINE
  5
1D
330
1A
100
AcDbEntity
  8
-TEXT3
 62
     2
370
    -2
100
AcDbLine
 10
73.91339458737583
 20
319.2687336467023
 30
0.0
 11
86.46723586910489
 21
331.8225749284314
 31
0.0
  0
LINE
  5
1E
330
1A
100
AcDbEntity
  8
-TEXT3
 62
     2
370
    -2
100
AcDbLine
 10
233.5746100287992
 20
182.9474338157702
 30
0.0
 11
87.70467273618136
 21
328.8173711083886
 31
0.0
  0
SOLID
  5
1F
330
1A
100
AcDbEntity
  8
-TEXT3
 62
     2
100
AcDbTrace
 10
233.9281634193925
 20
183.3009872063635
 30
0.0
 11
233.2210566382059
 21
182.5938804251769
 31
0.0
 12
235.6959303723588
 22
180.8261134722106
 32
0.0
 13
235.6959303723588
 23
180.8261134722106
 33
0.0
  0
SOLID
  5
20
330
1A
100
AcDbEntity
  8
-TEXT3
 62
     2
100
AcDbTrace
 10
88.05822612677463
 20
329.1709244989818
 30
0.0
 11
87.35111934558807
 21
328.4638177177953
 31
0.0
 12
85.5833523926217
 22
330.9386914519482
 32
0.0
 13
85.5833523926217
 23
330.9386914519482
 33
0.0
  0
MTEXT
  5
21
330
1A
100
AcDbEntity
  8
-TEXT3
 62
     3
100
AcDbMText
 10
164.5292158588852
 20
259.7719769384743
 30
0.0
 40
7.0
 41
0.0
 71
     5
 72
     1
  1
\A1;212
 11
0.7071067811865463
 21
-0.7071067811865488
 31
0.0
 73
     1
 44
1.0
  0
LINE
  5
22
330
1A
100
AcDbEntity
  8
-TEXT3
 62
     2
370
    -2
100
AcDbLine
 10
156.4683586267441
 20
261.4678987801986
 30
0.0
 11
166.2251377006095
 21
251.7111197063332
 31
0.0
  0
LINE
  5
23
330
1A
100
AcDbEntity
  8
-TEXT3
 62
     2
370
    -2
100
AcDbLine
 10
166.2251377006095
 20
251.7111197063332
 30
0.0
 11
172.5900730910263
 21
258.0760550967499
 31
0.0
  0
LINE
  5
24
330
1A
100
AcDbEntity
  8
-TEXT3
 62
     2
370
    -2
100
AcDbLine
 10
172.5900730910263
 20
258.0760550967499
 30
0.0
 11
162.8332940171608
 21
267.8328341706154
 31
0.0
  0
LINE
  5
25
330
1A
100
AcDbEntity
  8
-TEXT3
 62
     2
370
    -2
100
AcDbLine
 10
162.8332940171608
 20
267.8328341706154
 30
0.0
 11
156.4683586267441
 21
261.4678987801986
 31
0.0
  0
POINT
  5
26
330
1A
100
AcDbEntity
  8
DEFPOINTS
 62
     0
100
AcDbPoint
 10
223.3188657859264
 20
168.4490488857782
 30
0.0
  0
POINT
  5
28
330
1A
100
AcDbEntity
  8
DEFPOINTS
 62
     0
100
AcDbPoint
 10
73.20628780618928
 20
318.5616268655158
 30
0.0
  0
POINT
  5
29
330
1A
100
AcDbEntity
  8
DEFPOINTS
 62
     0
100
AcDbPoint
 10
85.5833523926217
 20
330.9386914519482
 30
0.0
  0
ENDBLK
  5
2A
330
1A
100
AcDbEntity
  8
0
100
AcDbBlockEnd
  0
BLOCK
  5
7C
330
7B
100
AcDbEntity
  8
0
100
AcDbBlockBegin
  2
*D3
 70
     1
 10
0.0
 20
0.0
 30
0.0
  3
*D3
  1

  0
LINE
  5
7D
330
7B
100
AcDbEntity
  8
-PROFILAUSSENKANTE
 62
     2
370
    -2
100
AcDbLine
 10
6.999999999999545
 20
-30.0
 30
0.0
 11
61.66249987962509
 21
-30.00000000000002
 31
0.0
  0
LINE
  5
7E
330
7B
100
AcDbEntity
  8
-PROFILAUSSENKANTE
 62
     2
370
    -2
100
AcDbLine
 10
1.0
 20
-0.0000000000000003
 30
0.0
 11
61.6624998796251
 21
-0.0000000000000175
 31
0.0
  0
LINE
  5
7F
330
7B
100
AcDbEntity
  8
-PROFILAUSSENKANTE
 62
     2
370
    -2
100
AcDbLine
 10
60.41249987962509
 20
-27.00000000000002
 30
0.0
 11
60.4124998796251
 21
-3.000000000000016
 31
0.0
  0
SOLID
  5
80
330
7B
100
AcDbEntity
  8
-PROFILAUSSENKANTE
 62
     2
100
AcDbTrace
 10
59.91249987962509
 20
-27.00000000000002
 30
0.0
 11
60.91249987962509
 21
-27.00000000000002
 31
0.0
 12
60.41249987962509
 22
-30.00000000000002
 32
0.0
 13
60.41249987962509
 23
-30.00000000000002
 33
0.0
  0
SOLID
  5
81
330
7B
100
AcDbEntity
  8
-PROFILAUSSENKANTE
 62
     2
100
AcDbTrace
 10
59.9124998796251
 20
-3.000000000000016
 30
0.0
 11
60.9124998796251
 21
-3.000000000000016
 31
0.0
 12
60.4124998796251
 22
-0.0000000000000171
 32
0.0
 13
60.4124998796251
 23
-0.0000000000000171
 33
0.0
  0
MTEXT
  5
82
330
7B
100
AcDbEntity
  8
-PROFILAUSSENKANTE
 62
     3
100
AcDbMText
 10
55.9124998796251
 20
-15.00000000000001
 30
0.0
 40
7.0
 41
0.0
 71
     5
 72
     1
  1
\A1;30
 11
0.0000000000000001
 21
1.0
 31
0.0
 73
     1
 44
1.0
  0
POINT
  5
83
330
7B
100
AcDbEntity
  8
DEFPOINTS
 62
     0
100
AcDbPoint
 10
5.999999999999545
 20
-30.0
 30
0.0
  0
POINT
  5
84
330
7B
100
AcDbEntity
  8
DEFPOINTS
 62
     0
100
AcDbPoint
 10
0.0
 20
0.0
 30
0.0
  0
POINT
  5
85
330
7B
100
AcDbEntity
  8
DEFPOINTS
 62
     0
100
AcDbPoint
 10
60.4124998796251
 20
-0.0000000000000171
 30
0.0
  0
ENDBLK
  5
86
330
7B
100
AcDbEntity
  8
0
100
AcDbBlockEnd
  0
BLOCK
  5
41
330
40
100
AcDbEntity
  8
0
100
AcDbBlockBegin
  2
*D4
 70
     1
 10
0.0
 20
0.0
 30
0.0
  3
*D4
  1

  0
LINE
  5
42
330
40
100
AcDbEntity
  8
-TEXT3
 62
     2
370
    -2
100
AcDbLine
 10
-104.9999999999991
 20
104.0
 30
0.0
 11
-104.9999999999991
 21
-84.38486262947117
 31
0.0
  0
LINE
  5
43
330
40
100
AcDbEntity
  8
-TEXT3
 62
     2
370
    -2
100
AcDbLine
 10
-0.0000000000000001
 20
-1.0
 30
0.0
 11
-0.0000000000000052
 21
-84.38486262947117
 31
0.0
  0
LINE
  5
44
330
40
100
AcDbEntity
  8
-TEXT3
 62
     2
370
    -2
100
AcDbLine
 10
-101.9999999999991
 20
-83.13486262947117
 30
0.0
 11
-3.000000000000004
 21
-83.13486262947117
 31
0.0
  0
SOLID
  5
45
330
40
100
AcDbEntity
  8
-TEXT3
 62
     2
100
AcDbTrace
 10
-101.9999999999991
 20
-82.63486262947116
 30
0.0
 11
-101.9999999999991
 21
-83.63486262947118
 31
0.0
 12
-104.9999999999991
 22
-83.13486262947117
 32
0.0
 13
-104.9999999999991
 23
-83.13486262947117
 33
0.0
  0
SOLID
  5
46
330
40
100
AcDbEntity
  8
-TEXT3
 62
     2
100
AcDbTrace
 10
-3.000000000000004
 20
-82.63486262947116
 30
0.0
 11
-3.000000000000004
 21
-83.63486262947118
 31
0.0
 12
-0.0000000000000051
 22
-83.13486262947117
 32
0.0
 13
-0.0000000000000051
 23
-83.13486262947117
 33
0.0
  0
MTEXT
  5
47
330
40
100
AcDbEntity
  8
-TEXT3
 62
     3
100
AcDbMText
 10
-52.49999999999955
 20
-77.63486262947117
 30
0.0
 40
7.0
 41
0.0
 71
     5
 72
     1
  1
\A1;105
 73
     1
 44
1.0
  0
LINE
  5
48
330
40
100
AcDbEntity
  8
-TEXT3
 62
     2
370
    -2
100
AcDbLine
 10
-59.24497474683014
 20
-82.13486262947117
 30
0.0
 11
-45.75502525316896
 21
-82.13486262947117
 31
0.0
  0
LINE
  5
49
330
40
100
AcDbEntity
  8
-TEXT3
 62
     2
370
    -2
100
AcDbLine
 10
-45.75502525316896
 20
-82.13486262947117
 30
0.0
 11
-45.75502525316896
 21
-73.13486262947117
 31
0.0
  0
LINE
  5
4A
330
40
100
AcDbEntity
  8
-TEXT3
 62
     2
370
    -2
100
AcDbLine
 10
-45.75502525316896
 20
-73.13486262947117
 30
0.0
 11
-59.24497474683014
 21
-73.13486262947117
 31
0.0
  0
LINE
  5
4B
330
40
100
AcDbEntity
  8
-TEXT3
 62
     2
370
    -2
100
AcDbLine
 10
-59.24497474683014
 20
-73.13486262947117
 30
0.0
 11
-59.24497474683014
 21
-82.13486262947117
 31
0.0
  0
POINT
  5
4C
330
40
100
AcDbEntity
  8
DEFPOINTS
 62
     0
100
AcDbPoint
 10
-104.9999999999991
 20
105.0
 30
0.0
  0
POINT
  5
4D
330
40
100
AcDbEntity
  8
DEFPOINTS
 62
     0
100
AcDbPoint
 10
0.0
 20
0.0
 30
0.0
  0
POINT
  5
4E
330
40
100
AcDbEntity
  8
DEFPOINTS
 62
     0
100
AcDbPoint
 10
-0.0000000000000051
 20
-83.13486262947117
 30
0.0
  0
ENDBLK
  5
4F
330
40
100
AcDbEntity
  8
0
100
AcDbBlockEnd
  0
BLOCK
  5
BB
330
BA
100
AcDbEntity
  8
0
100
AcDbBlockBegin
  2
*D5
 70
     1
 10
0.0
 20
0.0
 30
0.0
  3
*D5
  1

  0
LINE
  5
BC
330
BA
100
AcDbEntity
  8
-TEXT3
 62
     2
370
    -2
100
AcDbLine
 10
46.66894447365315
 20
293.4384970953532
 30
0.0
 11
32.63145025195539
 21
307.4759913170516
 31
0.0
  0
LINE
  5
BD
330
BA
100
AcDbEntity
  8
-TEXT3
 62
     2
370
    -2
100
AcDbLine
 10
26.25652992422614
 20
273.0260825459271
 30
0.0
 11
12.21903570252837
 21
287.0635767676255
 31
0.0
  0
LINE
  5
BE
330
BA
100
AcDbEntity
  8
-TEXT3
 62
     2
370
    -2
100
AcDbLine
 10
31.39401338487886
 20
304.4707874970088
 30
0.0
 11
15.22423952257122
 21
288.3010136347019
 31
0.0
  0
SOLID
  5
BF
330
BA
100
AcDbEntity
  8
-TEXT3
 62
     2
100
AcDbTrace
 10
31.04045999428559
 20
304.8243408876022
 30
0.0
 11
31.74756677547214
 21
304.1172341064156
 31
0.0
 12
33.51533372843855
 22
306.5921078405684
 32
0.0
 13
33.51533372843855
 23
306.5921078405684
 33
0.0
  0
SOLID
  5
C0
330
BA
100
AcDbEntity
  8
-TEXT3
 62
     2
100
AcDbTrace
 10
14.87068613197795
 20
288.6545670252953
 30
0.0
 11
15.5777929131645
 21
287.9474602441086
 31
0.0
 12
13.10291917901153
 22
286.1796932911423
 32
0.0
 13
13.10291917901153
 23
286.1796932911423
 33
0.0
  0
MTEXT
  5
C1
330
BA
100
AcDbEntity
  8
-TEXT3
 62
     3
100
AcDbMText
 10
20.1266587585167
 20
299.5683682610638
 30
0.0
 40
7.0
 41
0.0
 71
     5
 72
     1
  1
\A1;29
 11
0.7071067811865632
 21
0.7071067811865319
 31
0.0
 73
     1
 44
1.0
  0
POINT
  5
C2
330
BA
100
AcDbEntity
  8
DEFPOINTS
 62
     0
100
AcDbPoint
 10
47.37605125483969
 20
292.7313903141667
 30
0.0
  0
POINT
  5
C3
330
BA
100
AcDbEntity
  8
DEFPOINTS
 62
     0
100
AcDbPoint
 10
26.96363670541269
 20
272.3189757647406
 30
0.0
  0
POINT
  5
C4
330
BA
100
AcDbEntity
  8
DEFPOINTS
 62
     0
100
AcDbPoint
 10
13.10291917901153
 20
286.1796932911423
 30
0.0
  0
ENDBLK
  5
C5
330
BA
100
AcDbEntity
  8
0
100
AcDbBlockEnd
  0
BLOCK
  5
AA
330
A9
100
AcDbEntity
  8
0
100
AcDbBlockBegin
  2
*D6
 70
     1
 10
0.0
 20
0.0
 30
0.0
  3
*D6
  1

  0
LINE
  5
AB
330
A9
100
AcDbEntity
  8
-TEXT3
 62
     2
370
    -2
100
AcDbLine
 10
11.51192892134179
 20
287.7706835488124
 30
0.0
 11
-0.528365418385846
 21
299.8109778885403
 31
0.0
  0
LINE
  5
AC
330
A9
100
AcDbEntity
  8
-TEXT3
 62
     2
370
    -2
100
AcDbLine
 10
36.16698415788747
 20
312.4257387853575
 30
0.0
 11
24.12668981815983
 21
324.4660331250855
 31
0.0
  0
LINE
  5
AD
330
A9
100
AcDbEntity
  8
-TEXT3
 62
     2
370
    -2
100
AcDbLine
 10
2.476838401656976
 20
301.0484147556167
 30
0.0
 11
22.88925295108334
 21
321.4608293050427
 31
0.0
  0
SOLID
  5
AE
330
A9
100
AcDbEntity
  8
-TEXT3
 62
     2
100
AcDbTrace
 10
2.123285011063728
 20
301.4019681462099
 30
0.0
 11
2.830391792250253
 21
300.6948613650234
 31
0.0
 12
0.3555180580973172
 22
298.9270944120571
 32
0.0
 13
0.3555180580973172
 23
298.9270944120571
 33
0.0
  0
SOLID
  5
AF
330
A9
100
AcDbEntity
  8
-TEXT3
 62
     2
100
AcDbTrace
 10
22.53569956049009
 20
321.8143826956359
 30
0.0
 11
23.24280634167661
 21
321.1072759144494
 31
0.0
 12
25.010573294643
 22
323.5821496486023
 32
0.0
 13
25.010573294643
 23
323.5821496486023
 33
0.0
  0
MTEXT
  5
B0
330
A9
100
AcDbEntity
  8
-TEXT3
 62
     3
100
AcDbMText
 10
8.793958379844184
 20
315.1437093268557
 30
0.0
 40
7.0
 41
0.0
 71
     5
 72
     1
  1
\A1;35
 11
0.7071067811865541
 21
0.707106781186541
 31
0.0
 73
     1
 44
1.0
  0
LINE
  5
B1
330
A9
100
AcDbEntity
  8
-TEXT3
 62
     2
370
    -2
100
AcDbLine
 10
8.443958379844161
 20
308.4297482961767
 30
0.0
 11
15.50791941052316
 21
315.4937093268557
 31
0.0
  0
LINE
  5
B2
330
A9
100
AcDbEntity
  8
-TEXT3
 62
     2
370
    -2
100
AcDbLine
 10
15.50791941052316
 20
315.4937093268557
 30
0.0
 11
9.143958379844264
 21
321.8576703575346
 31
0.0
  0
LINE
  5
B3
330
A9
100
AcDbEntity
  8
-TEXT3
 62
     2
370
    -2
100
AcDbLine
 10
9.143958379844264
 20
321.8576703575346
 30
0.0
 11
2.079997349165267
 21
314.7937093268557
 31
0.0
  0
LINE
  5
B4
330
A9
100
AcDbEntity
  8
-TEXT3
 62
     2
370
    -2
100
AcDbLine
 10
2.079997349165267
 20
314.7937093268557
 30
0.0
 11
8.443958379844161
 21
308.4297482961767
 31
0.0
  0
POINT
  5
B5
330
A9
100
AcDbEntity
  8
DEFPOINTS
 62
     0
100
AcDbPoint
 10
12.21903570252832
 20
287.0635767676258
 30
0.0
  0
POINT
  5
B6
330
A9
100
AcDbEntity
  8
DEFPOINTS
 62
     0
100
AcDbPoint
 10
36.874090939074
 20
311.718632004171
 30
0.0
  0
POINT
  5
B7
330
A9
100
AcDbEntity
  8
DEFPOINTS
 62
     0
100
AcDbPoint
 10
25.010573294643
 20
323.5821496486023
 30
0.0
  0
ENDBLK
  5
B8
330
A9
100
AcDbEntity
  8
0
100
AcDbBlockEnd
  0
BLOCK
  5
6F
330
6E
100
AcDbEntity
  8
0
100
AcDbBlockBegin
  2
*D7
 70
     1
 10
0.0
 20
0.0
 30
0.0
  3
*D7
  1

  0
LINE
  5
70
330
6E
100
AcDbEntity
  8
-PROFILAUSSENKANTE
 62
     2
370
    -2
100
AcDbLine
 10
1.0
 20
-0.0000000000000003
 30
0.0
 11
61.66249987962509
 21
-0.0000000000000175
 31
0.0
  0
LINE
  5
71
330
6E
100
AcDbEntity
  8
-PROFILAUSSENKANTE
 62
     2
370
    -2
100
AcDbLine
 10
7.0
 20
30.0
 30
0.0
 11
61.6624998796251
 21
29.99999999999998
 31
0.0
  0
LINE
  5
72
330
6E
100
AcDbEntity
  8
-PROFILAUSSENKANTE
 62
     2
370
    -2
100
AcDbLine
 10
60.41249987962509
 20
2.999999999999983
 30
0.0
 11
60.4124998796251
 21
26.99999999999998
 31
0.0
  0
SOLID
  5
73
330
6E
100
AcDbEntity
  8
-PROFILAUSSENKANTE
 62
     2
100
AcDbTrace
 10
59.91249987962509
 20
2.999999999999983
 30
0.0
 11
60.91249987962509
 21
2.999999999999983
 31
0.0
 12
60.41249987962509
 22
-0.0000000000000171
 32
0.0
 13
60.41249987962509
 23
-0.0000000000000171
 33
0.0
  0
SOLID
  5
74
330
6E
100
AcDbEntity
  8
-PROFILAUSSENKANTE
 62
     2
100
AcDbTrace
 10
59.9124998796251
 20
26.99999999999998
 30
0.0
 11
60.9124998796251
 21
26.99999999999998
 31
0.0
 12
60.4124998796251
 22
29.99999999999998
 32
0.0
 13
60.4124998796251
 23
29.99999999999998
 33
0.0
  0
MTEXT
  5
75
330
6E
100
AcDbEntity
  8
-PROFILAUSSENKANTE
 62
     3
100
AcDbMText
 10
55.91249987962509
 20
14.99999999999999
 30
0.0
 40
7.0
 41
0.0
 71
     5
 72
     1
  1
\A1;30
 11
0.0000000000000001
 21
1.0
 31
0.0
 73
     1
 44
1.0
  0
POINT
  5
76
330
6E
100
AcDbEntity
  8
DEFPOINTS
 62
     0
100
AcDbPoint
 10
0.0
 20
0.0
 30
0.0
  0
POINT
  5
77
330
6E
100
AcDbEntity
  8
DEFPOINTS
 62
     0
100
AcDbPoint
 10
6.0
 20
30.0
 30
0.0
  0
POINT
  5
78
330
6E
100
AcDbEntity
  8
DEFPOINTS
 62
     0
100
AcDbPoint
 10
60.4124998796251
 20
29.99999999999998
 30
0.0
  0
ENDBLK
  5
79
330
6E
100
AcDbEntity
  8
0
100
AcDbBlockEnd
  0
BLOCK
  5
9D
330
9C
100
AcDbEntity
  8
0
100
AcDbBlockBegin
  2
*D8
 70
     1
 10
0.0
 20
0.0
 30
0.0
  3
*D8
  1

  0
LINE
  5
9E
330
9C
100
AcDbEntity
  8
-TEXT3
 62
     2
370
    -2
100
AcDbLine
 10
79.00857072941366
 20
289.0085707294128
 30
0.0
 11
90.88395733585434
 21
300.8839573358541
 31
0.0
  0
LINE
  5
9F
330
9C
100
AcDbEntity
  8
-TEXT3
 62
     2
370
    -2
100
AcDbLine
 10
61.33090119974973
 20
306.6862402590758
 30
0.0
 11
73.20628780619042
 21
318.5616268655171
 31
0.0
  0
LINE
  5
A0
330
9C
100
AcDbEntity
  8
-TEXT3
 62
     2
370
    -2
100
AcDbLine
 10
87.87875351581147
 20
302.1213942029305
 30
0.0
 11
74.44372467326695
 21
315.5564230454743
 31
0.0
  0
SOLID
  5
A1
330
9C
100
AcDbEntity
  8
-TEXT3
 62
     2
100
AcDbTrace
 10
88.23230690640473
 20
302.4749475935237
 30
0.0
 11
87.5252001252182
 21
301.7678408123372
 31
0.0
 12
90.00007385937118
 22
300.0000738593709
 32
0.0
 13
90.00007385937118
 23
300.0000738593709
 33
0.0
  0
SOLID
  5
A2
330
9C
100
AcDbEntity
  8
-TEXT3
 62
     2
100
AcDbTrace
 10
74.7972780638602
 20
315.9099764360676
 30
0.0
 11
74.09017128267368
 21
315.2028696548811
 31
0.0
 12
72.32240432970725
 22
317.6777433890339
 32
0.0
 13
72.32240432970725
 23
317.6777433890339
 33
0.0
  0
MTEXT
  5
A3
330
9C
100
AcDbEntity
  8
-TEXT3
 62
     3
100
AcDbMText
 10
84.34370678974751
 20
312.0213763194108
 30
0.0
 40
7.0
 41
0.0
 71
     5
 72
     1
  1
\A1;25
 11
0.7071067811865658
 21
-0.7071067811865293
 31
0.0
 73
     1
 44
1.0
  0
POINT
  5
A4
330
9C
100
AcDbEntity
  8
DEFPOINTS
 62
     0
100
AcDbPoint
 10
78.30146394822714
 20
288.3014639482262
 30
0.0
  0
POINT
  5
A5
330
9C
100
AcDbEntity
  8
DEFPOINTS
 62
     0
100
AcDbPoint
 10
60.62379441856321
 20
305.9791334778893
 30
0.0
  0
POINT
  5
A6
330
9C
100
AcDbEntity
  8
DEFPOINTS
 62
     0
100
AcDbPoint
 10
72.32240432970725
 20
317.6777433890339
 30
0.0
  0
ENDBLK
  5
A7
330
9C
100
AcDbEntity
  8
0
100
AcDbBlockEnd
  0
BLOCK
  5
CA
330
C9
100
AcDbEntity
  8
0
100
AcDbBlockBegin
  2
*D9
 70
     1
 10
0.0
 20
0.0
 30
0.0
  3
*D9
  1

  0
LINE
  5
CB
330
C9
100
AcDbEntity
  8
-TEXT3
 62
     2
370
    -2
100
AcDbLine
 10
50.9115851607727
 20
297.6811377824723
 30
0.0
 11
36.87409093907462
 21
311.7186320041704
 31
0.0
  0
LINE
  5
CC
330
C9
100
AcDbEntity
  8
-TEXT3
 62
     2
370
    -2
100
AcDbLine
 10
46.66894447365358
 20
293.4384970953532
 30
0.0
 11
32.6314502519555
 21
307.4759913170513
 31
0.0
  0
LINE
  5
CD
330
C9
100
AcDbEntity
  8
-TEXT3
 62
     2
370
    -2
100
AcDbLine
 10
39.87929475911741
 20
312.9560688712469
 30
0.0
 11
42.00061510267707
 21
315.0773892148066
 31
0.0
  0
LINE
  5
CE
330
C9
100
AcDbEntity
  8
-TEXT3
 62
     2
370
    -2
100
AcDbLine
 10
31.39401338487903
 20
304.4707874970085
 30
0.0
 11
29.2726930413194
 21
302.3494671534488
 31
0.0
  0
LINE
  5
CF
330
C9
100
AcDbEntity
  8
-TEXT3
 62
     2
370
    -2
100
AcDbLine
 10
37.75797441555778
 20
310.8347485276872
 30
0.0
 11
33.51533372843866
 21
306.5921078405681
 31
0.0
  0
SOLID
  5
D0
330
C9
100
AcDbEntity
  8
-TEXT3
 62
     2
100
AcDbTrace
 10
39.52574136852414
 20
313.3096222618401
 30
0.0
 11
40.23284814971069
 21
312.6025154806535
 31
0.0
 12
37.75797441555778
 22
310.8347485276872
 32
0.0
 13
37.75797441555778
 23
310.8347485276872
 33
0.0
  0
SOLID
  5
D1
330
C9
100
AcDbEntity
  8
-TEXT3
 62
     2
100
AcDbTrace
 10
31.04045999428576
 20
304.8243408876018
 30
0.0
 11
31.74756677547231
 21
304.1172341064152
 31
0.0
 12
33.51533372843866
 22
306.5921078405681
 32
0.0
 13
33.51533372843866
 23
306.5921078405681
 33
0.0
  0
MTEXT
  5
D2
330
C9
100
AcDbEntity
  8
-TEXT3
 62
     3
100
AcDbMText
 10
32.4546735566588
 20
311.8954086994671
 30
0.0
 40
7.0
 41
0.0
 71
     5
 72
     1
  1
\A1;6
 11
0.7071067811865476
 21
0.7071067811865475
 31
0.0
 73
     1
 44
1.0
  0
POINT
  5
D3
330
C9
100
AcDbEntity
  8
DEFPOINTS
 62
     0
100
AcDbPoint
 10
51.61869194195924
 20
296.9740310012858
 30
0.0
  0
POINT
  5
D4
330
C9
100
AcDbEntity
  8
DEFPOINTS
 62
     0
100
AcDbPoint
 10
47.37605125484011
 20
292.7313903141667
 30
0.0
  0
POINT
  5
D5
330
C9
100
AcDbEntity
  8
DEFPOINTS
 62
     0
100
AcDbPoint
 10
33.51533372843866
 20
306.5921078405681
 30
0.0
  0
ENDBLK
  5
D6
330
C9
100
AcDbEntity
  8
0
100
AcDbBlockEnd
  0
ENDSEC
  0
SECTION
  2
ENTITIES
  0
LINE
  5
9
330
2
100
AcDbEntity
  8
-TEXT3
100
AcDbLine
 10
111.1519846102856
 20
-124.8093583549189
 30
0.0
 11
111.1519846102856
 21
-225.8205112822588
 31
0.0
  0
LINE
  5
B
330
2
100
AcDbEntity
  8
-TEXT3
100
AcDbLine
 10
200.1927848655141
 20
-124.8093583549189
 30
0.0
 11
200.1927848655141
 21
-225.8205112822588
 31
0.0
  0
LINE
  5
C
330
2
100
AcDbEntity
  8
-TEXT3
100
AcDbLine
 10
276.2276410731538
 20
-124.8093583549189
 30
0.0
 11
276.2276410731538
 21
-225.8205112822588
 31
0.0
  0
MTEXT
  5
D
330
2
100
AcDbEntity
  8
-TEXT2
100
AcDbMText
 10
54.22817510855111
 20
-99.80935835491891
 30
0.0
 40
10.0
 41
611.6399
 71
     1
 72
     5
  3
{\H0.95x;Die Bohrung "B" ist abhänig von der Einbausituation:}\P\PGewinde     Fest-Lager     Vertikal-     Los-lager\P                                         Lager\P\P{\H0.75x;    M12                      %%c13                 LL13x20               
  1
  %%c20\P\P    M16                      %%c17                 LL17x24                 %%c24}
 73
     1
 44
1.0
  0
LWPOLYLINE
  5
11
330
2
100
AcDbEntity
  8
-TEXT
100
AcDbPolyline
 90
        4
 70
     1
 43
0.0
 10
365.267685532554
 20
-94.80935835491891
 10
49.22817510855111
 20
-94.80935835491891
 10
49.22817510855111
 20
-225.8205112822588
 10
365.267685532554
 20
-225.8205112822588
  0
LWPOLYLINE
  5
14
330
2
100
AcDbEntity
  8
-TEXT
100
AcDbPolyline
 90
        4
 70
     1
 43
0.0
 10
49.22817510855111
 20
-124.8093583549189
 10
365.267685532554
 20
-124.8093583549189
 10
365.267685532554
 20
-94.80935835491891
 10
49.22817510855111
 20
-94.80935835491891
  0
LWPOLYLINE
  5
15
330
2
100
AcDbEntity
  8
-TEXT3
100
AcDbPolyline
 90
        4
 70
     1
 43
0.0
 10
49.22817510855111
 20
-169.8093583549189
 10
365.267685532554
 20
-169.8093583549189
 10
365.267685532554
 20
-124.8093583549189
 10
49.22817510855111
 20
-124.8093583549189
  0
LINE
  5
16
330
2
100
AcDbEntity
  8
-TEXT3
100
AcDbLine
 10
49.22817510855111
 20
-197.8093583549189
 30
0.0
 11
365.267685532554
 21
-197.8093583549189
 31
0.0
  0
LINE
  5
17
330
2
100
AcDbEntity
  8
-TEXT3
100
AcDbLine
 10
181.3188553722702
 20
126.449038472122
 30
0.0
 11
211.4434791794861
 21
156.5736622793383
 31
0.0
  0
DIMENSION
  5
18
330
2
100
AcDbEntity
  8
-TEXT3
100
AcDbDimension
  2
*D2
 10
85.5833523926217
 20
330.9386914519482
 30
0.0
 11
164.5292158588852
 21
259.7719769384743
 31
0.0
 70
     1
 71
     5
 42
212.2912436617334
  3
1-1SOLL
100
AcDbAlignedDimension
 13
223.3188657859264
 23
168.4490488857782
 33
0.0
 14
73.20628780618926
 24
318.5616268655158
 34
0.0
1001
ACAD
1000
DSTYLE
1002
{
1002
}
  0
DIMENSION
  5
2B
330
2
100
AcDbEntity
  8
-TEXT3
100
AcDbDimension
  2
*D1
 10
222.4349823094457
 20
167.5651654092977
 30
0.0
 11
160.1066153809355
 21
237.671706930861
 31
0.0
 70
     1
 71
     5
 42
187.291243661733
  3
1-1SOLL
100
AcDbAlignedDimension
 13
78.30146394822714
 23
288.3014639482262
 33
0.0
 14
210.7363723982994
 24
155.8665554981517
 34
0.0
1001
ACAD
1000
DSTYLE
1002
{
1002
}
  0
LINE
  5
3C
330
2
100
AcDbEntity
  8
-TEXT3
100
AcDbLine
 10
22.32809684844688
 20
276.9545156217073
 30
0.0
 11
99.86176455531222
 21
199.420847914841
 31
0.0
  0
LWPOLYLINE
  5
3D
330
2
100
AcDbEntity
  8
-PROFILAUSSENKANTE
100
AcDbPolyline
 90
       12
 70
     1
 43
0.0
 10
47.37605125483969
 20
292.7313903141667
 10
83.92108711023411
 20
256.1863544587732
 42
-0.1316524975873961
 10
86.50927756125929
 20
251.7034770979326
 10
99.64909290945115
 20
202.6650186164052
 42
0.1316524975873966
 10
103.7901976310913
 20
195.492414839061
 10
177.0762146851502
 20
122.2063977850025
 10
181.3188553722698
 20
126.449038472122
 10
108.0328383182109
 20
199.73505552618
 42
-0.131652497587396
 10
105.4446478671857
 20
204.2179328870215
 10
92.30483251899295
 20
253.2563913685481
 42
0.1316524975873961
 10
88.16372779735321
 20
260.4289951458923
 10
51.61869194195924
 20
296.9740310012858
  0
DIMENSION
  5
3F
330
2
100
AcDbEntity
  8
-TEXT3
100
AcDbDimension
  2
*D4
 10
-0.0000000000000051
 20
-83.13486262947117
 30
0.0
 11
-52.49999999999955
 21
-77.63486262947117
 31
0.0
 71
     5
 42
104.9999999999991
  3
1-1SOLL
100
AcDbAlignedDimension
 13
-104.9999999999991
 23
105.0
 33
0.0
 14
0.0
 24
0.0
 34
0.0
100
AcDbRotatedDimension
1001
ACAD
1000
DSTYLE
1002
{
1002
}
  0
LINE
  5
50
330
2
100
AcDbEntity
  8
-SYSTEM
100
AcDbLine
 10
-48.4314575050762
 20
-48.43145750507574
 30
0.0
 11
48.4314575050762
 21
48.43145750507574
 31
0.0
  0
LINE
  5
53
330
2
100
AcDbEntity
  8
-SYSTEM
100
AcDbLine
 10
-126.2132034355963
 20
126.2132034355963
 30
0.0
 11
48.4314575050762
 21
-48.43145750507574
 31
0.0
  0
LWPOLYLINE
  5
54
330
2
100
AcDbEntity
  8
-PROFILAUSSENKANTE
100
AcDbPolyline
 90
        7
 70
     0
 43
0.0
 10
-61.60332316695122
 20
33.88826783812465
 42
0.0278112551143578
 10
-36.70001807215113
 20
-17.66809909841822
 42
1.359284445031722
 10
17.66809901773376
 20
36.70001803565447
 42
0.0278112551143578
 10
-33.888267939049
 20
61.6033230885514
 10
-86.17318478554579
 20
121.4484354538904
 42
1.069693849353423
 10
-121.4484355988152
 20
86.17318491216201
 10
-61.6033229581908
 20
33.88826701284961
  0
DIMENSION
  5
55
330
2
100
AcDbEntity
  8
-TEXT3
100
AcDbDimension
  2
*D0
 10
-157.5812270058268
 20
105.0
 30
0.0
 11
-163.0812270058268
 21
52.5
 31
0.0
 71
     5
 42
105.0
  3
1-1SOLL
100
AcDbAlignedDimension
 13
-53.07438387495131
 23
0.0
 33
0.0
 14
-104.9999999999991
 24
105.0
 34
0.0
 50
90.0
100
AcDbRotatedDimension
1001
ACAD
1000
DSTYLE
1002
{
1002
}
  0
MTEXT
  5
66
330
2
100
AcDbEntity
  8
-TEXT2
100
AcDbMText
 10
-62.20240724410178
 20
134.1449147200183
 30
0.0
 40
7.0
 41
24.6056
 71
     1
 72
     5
  1
\Ftxt.shx|c0;B
 73
     1
 44
1.0
  0
LINE
  5
67
330
2
100
AcDbEntity
  8
-TEXT3
100
AcDbLine
 10
-70.09451485571481
 20
125.0182807088858
 30
0.0
 11
-103.5936953251475
 21
104.999999566593
 31
0.0
  0
LINE
  5
68
330
2
100
AcDbEntity
  8
-PROFILAUSSENKANTE
100
AcDbLine
 10
-99.34244129331137
 20
66.85982670550856
 30
0.0
 11
-66.85982744306102
 21
99.3424417940696
 31
0.0
  0
LINE
  5
69
330
2
100
AcDbEntity
  8
-SYSTEM
100
AcDbLine
 10
-126.2132034355963
 20
83.78679656440363
 30
0.0
 11
-83.78679656440317
 21
126.2132034355963
 31
0.0
  0
LINE
  5
6A
330
2
100
AcDbEntity
  8
-PROFILAUSSENKANTE
100
AcDbLine
 10
-61.6033229581908
 20
33.88826701284961
 30
0.0
 11
-33.888267939049
 21
61.6033230885514
 31
0.0
  0
LINE
  5
6B
330
2
100
AcDbEntity
  8
-TEXT3
100
AcDbLine
 10
-45.48888362832622
 20
125.0182807088858
 30
0.0
 11
-70.09451485571481
 21
125.0182807088858
 31
0.0
  0
DIMENSION
  5
6C
330
2
100
AcDbEntity
  8
-PROFILAUSSENKANTE
100
AcDbDimension
  2
*D7
 10
60.4124998796251
 20
29.99999999999998
 30
0.0
 11
55.91249987962509
 21
14.99999999999999
 31
0.0
 71
     5
 42
30.0
  3
1-1-0
100
AcDbAlignedDimension
 13
0.0
 23
0.0
 33
0.0
 14
6.0
 24
30.0
 34
0.0
 50
90.0
100
AcDbRotatedDimension
  0
DIMENSION
  5
7A
330
2
100
AcDbEntity
  8
-PROFILAUSSENKANTE
100
AcDbDimension
  2
*D3
 10
60.4124998796251
 20
-0.0000000000000171
 30
0.0
 11
55.9124998796251
 21
-15.00000000000001
 31
0.0
 71
     5
 42
30.0
  3
1-1-0
100
AcDbAlignedDimension
 13
5.999999999999545
 23
-30.0
 33
0.0
 14
0.0
 24
0.0
 34
0.0
 50
90.0
100
AcDbRotatedDimension
  0
CIRCLE
  5
87
330
2
100
AcDbEntity
  8
-PROFILAUSSENKANTE
100
AcDbCircle
 10
0.0
 20
0.0
 30
0.0
 40
8.5
  0
LINE
  5
88
330
2
100
AcDbEntity
  8
-SYSTEM
100
AcDbLine
 10
-6.0
 20
-30.0
 30
0.0
 11
5.999999999999545
 21
-30.0
 31
0.0
  0
CIRCLE
  5
89
330
2
100
AcDbEntity
  8
-PROFILAUSSENKANTE
100
AcDbCircle
 10
0.0
 20
-30.0
 30
0.0
 40
2.0
  0
LINE
  5
8A
330
2
100
AcDbEntity
  8
-SYSTEM
100
AcDbLine
 10
0.0
 20
-36.0
 30
0.0
 11
0.0
 21
-24.0
 31
0.0
  0
MTEXT
  5
8B
330
2
100
AcDbEntity
  8
-TEXT2
100
AcDbMText
 10
-27.68124208123481
 20
-1.762934406262502
 30
0.0
 40
7.0
 41
24.6056
 71
     1
 72
     5
  1
\Ftxt.shx|c0;%%c17
 73
     1
 44
1.0
  0
MTEXT
  5
8C
330
2
100
AcDbEntity
  8
-TEXT2
100
AcDbMText
 10
-16.9898008277305
 20
-20.15327430126126
 30
0.0
 40
7.0
 41
24.6056
 71
     1
 72
     5
  1
\Ftxt.shx|c0;%%c4
 73
     1
 44
1.0
  0
LINE
  5
8D
330
2
100
AcDbEntity
  8
-SYSTEM
100
AcDbLine
 10
-6.0
 20
30.0
 30
0.0
 11
6.0
 21
30.0
 31
0.0
  0
CIRCLE
  5
8E
330
2
100
AcDbEntity
  8
-PROFILAUSSENKANTE
100
AcDbCircle
 10
0.0
 20
30.0
 30
0.0
 40
2.0
  0
LINE
  5
8F
330
2
100
AcDbEntity
  8
-SYSTEM
100
AcDbLine
 10
0.0
 20
24.0
 30
0.0
 11
0.0
 21
36.0
 31
0.0
  0
MTEXT
  5
90
330
2
100
AcDbEntity
  8
-TEXT2
100
AcDbMText
 10
-16.9898008277305
 20
42.04207976818179
 30
0.0
 40
7.0
 41
24.6056
 71
     1
 72
     5
  1
\Ftxt.shx|c0;%%c4
 73
     1
 44
1.0
  0
LINE
  5
91
330
2
100
AcDbEntity
  8
-PROFILAUSSENKANTE
100
AcDbLine
 10
29.48556835566888
 20
29.48556835566888
 30
0.0
 11
29.48556835566888
 21
29.48556835566888
 31
0.0
  0
LINE
  5
92
330
2
100
AcDbEntity
  8
-SYSTEM
100
AcDbLine
 10
141.6758459632033
 20
141.6758459632037
 30
0.0
 11
162.8890493987996
 21
162.8890493988001
 31
0.0
  0
LINE
  5
93
330
2
100
AcDbEntity
  8
-VERDECKT
100
AcDbLine
 10
143.6308985949899
 20
155.6517138751633
 30
0.0
 11
147.873539282109
 21
159.8943545622824
 31
0.0
  0
LINE
  5
96
330
2
100
AcDbEntity
  8
-VERDECKT
100
AcDbLine
 10
155.651713875161
 20
143.6308985949918
 30
0.0
 11
159.8943545622806
 21
147.8735392821108
 31
0.0
  0
MTEXT
  5
97
330
2
100
AcDbEntity
  8
-TEXT1
100
AcDbMText
 10
-66.15764654277882
 20
419.089924287361
 30
0.0
 40
22.04296875
 41
292.29
 71
     1
 72
     5
  1
Spider-KS1-D
 73
     1
 44
1.0
  0
MTEXT
  5
99
330
2
100
AcDbEntity
  8
-TEXT2
100
AcDbMText
 10
-65.84177642847771
 20
385.4617175932663
 30
0.0
 40
15.43007812499999
 41
258.4445027246052
 71
     1
 72
     5
  1
1-Arm Spider (diagonal)
 73
     1
 44
1.0
  0
DIMENSION
  5
9A
330
2
100
AcDbEntity
  8
-TEXT3
100
AcDbDimension
  2
*D8
 10
72.32240432970725
 20
317.6777433890339
 30
0.0
 11
84.34370678974751
 21
312.0213763194108
 31
0.0
 70
     1
 71
     5
 42
24.99999999999969
  3
1-1
100
AcDbAlignedDimension
 13
78.30146394822714
 23
288.3014639482262
 33
0.0
 14
60.62379441856319
 24
305.9791334778893
 34
0.0
1001
ACAD
1000
DSTYLE
1002
{
1070
   272
1070
     0
1070
   271
1070
     0
1002
}
  0
DIMENSION
  5
A8
330
2
100
AcDbEntity
  8
-TEXT3
100
AcDbDimension
  2
*D6
 10
25.010573294643
 20
323.5821496486023
 30
0.0
 11
8.793958379844184
 21
315.1437093268557
 31
0.0
 70
     1
 71
     5
 42
34.86751349658036
  3
1-1SOLL
100
AcDbAlignedDimension
 13
12.21903570252834
 23
287.0635767676258
 33
0.0
 14
36.874090939074
 24
311.718632004171
 34
0.0
1001
ACAD
1000
DSTYLE
1002
{
1002
}
  0
DIMENSION
  5
B9
330
2
100
AcDbEntity
  8
-TEXT3
100
AcDbDimension
  2
*D5
 10
13.10291917901153
 20
286.1796932911423
 30
0.0
 11
20.1266587585167
 21
299.5683682610638
 31
0.0
 70
     1
 71
     5
 42
28.86751349658093
  3
1-1
100
AcDbAlignedDimension
 13
47.37605125483969
 23
292.7313903141667
 33
0.0
 14
26.96363670541269
 24
272.3189757647406
 34
0.0
1001
ACAD
1000
DSTYLE
1002
{
1070
   272
1070
     0
1070
   271
1070
     0
1002
}
  0
LINE
  5
C6
330
2
100
AcDbEntity
  8
-TEXT3
100
AcDbLine
 10
26.25652992422647
 20
273.0260825459272
 30
0.0
 11
26.25652992422647
 21
273.0260825459272
 31
0.0
  0
LINE
  5
C7
330
2
100
AcDbEntity
  8
-SYSTEM
100
AcDbLine
 10
57.08826051263031
 20
267.0882605126299
 30
0.0
 11
78.30146394822668
 21
288.3014639482262
 31
0.0
  0
DIMENSION
  5
C8
330
2
100
AcDbEntity
  8
-TEXT3
100
AcDbDimension
  2
*D9
 10
33.51533372843866
 20
306.5921078405681
 30
0.0
 11
32.4546735566588
 21
311.8954086994671
 31
0.0
 70
     1
 71
     5
 42
5.999999999999744
  3
1-1
100
AcDbAlignedDimension
 13
51.61869194195924
 23
296.9740310012858
 33
0.0
 14
47.37605125484015
 24
292.7313903141667
 34
0.0
1001
ACAD
1000
DSTYLE
1002
{
1070
   272
1070
     0
1070
   271
1070
     0
1002
}
  0
ENDSEC
  0
SECTION
  2
OBJECTS
  0
DICTIONARY
  5
7
330
0
100
AcDbDictionary
281
     1
  3
ACAD_COLOR
350
EF
  3
ACAD_GROUP
350
EB
  3
ACAD_LAYOUT
350
D9
  3
ACAD_MATERIAL
350
EE
  3
ACAD_MLINESTYLE
350
EC
  3
ACAD_PLOTSETTINGS
350
ED
  3
ACAD_PLOTSTYLENAME
350
6
  0
DICTIONARY
  5
EF
102
{ACAD_REACTORS
330
7
102
}
330
7
100
AcDbDictionary
281
     1
  0
DICTIONARY
  5
EB
102
{ACAD_REACTORS
330
7
102
}
330
7
100
AcDbDictionary
281
     1
  0
DICTIONARY
  5
D9
102
{ACAD_REACTORS
330
7
102
}
330
7
100
AcDbDictionary
281
     1
  3
Layout1
350
DD
  3
Model
350
D8
  0
DICTIONARY
  5
EE
102
{ACAD_REACTORS
330
7
102
}
330
7
100
AcDbDictionary
281
     1
  0
DICTIONARY
  5
EC
102
{ACAD_REACTORS
330
7
102
}
330
7
100
AcDbDictionary
281
     1
  3
STANDARD
350
F0
  0
DICTIONARY
  5
ED
102
{ACAD_REACTORS
330
7
102
}
330
7
100
AcDbDictionary
281
     1
  0
ACDBDICTIONARYWDFLT
  5
6
102
{ACAD_REACTORS
330
7
102
}
330
7
100
AcDbDictionary
281
     1
  3
Normal
350
5
100
AcDbDictionaryWithDefault
340
5
  0
LAYOUT
  5
DD
102
{ACAD_REACTORS
330
D9
102
}
330
D9
100
AcDbPlotSettings
  1

  2
HP DeskJet 1120C Printer
  4

  6

 40
0.0
 41
0.0
 42
0.0
 43
0.0
 44
0.0
 45
0.0
 46
0.0
 47
0.0
 48
0.0
 49
0.0
140
0.0
141
0.0
142
1.0
143
1.0
 70
   688
 72
     0
 73
     0
 74
     5
  7
monochrome.ctb
 75
    16
147
1.0
 76
     0
 77
     2
 78
   300
148
0.0
149
0.0
100
AcDbLayout
  1
Layout1
 70
     1
 71
     1
 10
0.0
 20
0.0
 11
420.0
 21
297.0
 12
0.0
 22
0.0
 32
0.0
 14
1.000000000000000E+20
 24
1.000000000000000E+20
 34
1.000000000000000E+20
 15
-1.000000000000000E+20
 25
-1.000000000000000E+20
 35
-1.000000000000000E+20
146
0.0
 13
0.0
 23
0.0
 33
0.0
 16
1.0
 26
0.0
 36
0.0
 17
0.0
 27
1.0
 37
0.0
 76
     0
330
DA
  0
LAYOUT
  5
D8
102
{ACAD_REACTORS
330
D9
102
}
330
D9
100
AcDbPlotSettings
  1

  2
hp deskjet 840c series-schoenig.pc3
  4
A4
  6

 40
4.265083312988281
 41
12.39309406280517
 42
4.180419921875
 43
3.17498779296875
 44
209.9733276367187
 45
296.9259948730469
 46
10.08
 47
0.0
 48
-740.8089871292597
 49
10.0
140
-130.308987129259
141
957.1000000000001
142
1.0
143
3.366175096493043
 70
 11956
 72
     1
 73
     2
 74
     4
  7
monochrome.ctb
 75
     0
147
0.2970730788905849
 76
     0
 77
     2
 78
   300
148
740.8089871292597
149
-10.0
100
AcDbLayout
  1
Model
 70
     1
 71
     0
 10
0.0
 20
0.0
 11
12.0
 21
9.0
 12
0.0
 22
0.0
 32
0.0
 14
0.0
 24
0.0
 34
0.0
 15
0.0
 25
0.0
 35
0.0
146
0.0
 13
0.0
 23
0.0
 33
0.0
 16
1.0
 26
0.0
 36
0.0
 17
0.0
 27
1.0
 37
0.0
 76
     0
330
2
  0
MLINESTYLE
  5
F0
102
{ACAD_REACTORS
330
EC
102
}
330
EC
100
AcDbMlineStyle
  2
STANDARD
 70
     0
  3

 62
     0
 51
90.0
 52
90.0
 71
     2
 49
0.5
 62
   256
  6
BYLAYER
 49
-0.5
 62
   256
  6
BYLAYER
  0
ACDBPLACEHOLDER
  5
5
102
{ACAD_REACTORS
330
6
102
}
330
6
  0
ENDSEC
  0
EOF
