  0
SECTION
  2
HEADER
  9
$ACADVER
  1
AC1015
  9
$ACADMAINTVER
 70
    18
  9
$DWGCODEPAGE
  3
ANSI_1252
  9
$INSBASE
 10
-166.6457402984818
 20
909.4790984012657
 30
0.0
  9
$EXTMIN
 10
1.000000000000000E+20
 20
1.000000000000000E+20
 30
1.000000000000000E+20
  9
$EXTMAX
 10
0.0
 20
0.0
 30
0.0
  9
$LIMMIN
 10
0.0
 20
0.0
  9
$LIMMAX
 10
420.0
 20
297.0
  9
$ORTHOMODE
 70
     1
  9
$REGENMODE
 70
     1
  9
$FILLMODE
 70
     1
  9
$QTEXTMODE
 70
     0
  9
$MIRRTEXT
 70
     1
  9
$LTSCALE
 40
0.25
  9
$ATTMODE
 70
     1
  9
$TEXTSIZE
 40
2.5
  9
$TRACEWID
 40
1.0
  9
$TEXTSTYLE
  7
STANDARD
  9
$CLAYER
  8
-PROFILAUSSENKANT
  9
$CELTYPE
  6
BYLAYER
  9
$CECOLOR
 62
   256
  9
$CELTSCALE
 40
1.0
  9
$DISPSILH
 70
     0
  9
$DIMSCALE
 40
96.0
  9
$DIMASZ
 40
3.0
  9
$DIMEXO
 40
1.0
  9
$DIMDLI
 40
3.75
  9
$DIMRND
 40
0.0
  9
$DIMDLE
 40
0.0
  9
$DIMEXE
 40
1.25
  9
$DIMTP
 40
0.0
  9
$DIMTM
 40
0.0
  9
$DIMTXT
 40
3.5
  9
$DIMCEN
 40
2.5
  9
$DIMTSZ
 40
0.0
  9
$DIMTOL
 70
     0
  9
$DIMLIM
 70
     0
  9
$DIMTIH
 70
     0
  9
$DIMTOH
 70
     0
  9
$DIMSE1
 70
     0
  9
$DIMSE2
 70
     0
  9
$DIMTAD
 70
     1
  9
$DIMZIN
 70
     8
  9
$DIMBLK
  1

  9
$DIMASO
 70
     1
  9
$DIMSHO
 70
     1
  9
$DIMPOST
  1

  9
$DIMAPOST
  1

  9
$DIMALT
 70
     0
  9
$DIMALTD
 70
     4
  9
$DIMALTF
 40
0.0394
  9
$DIMLFAC
 40
1.0
  9
$DIMTOFL
 70
     1
  9
$DIMTVP
 40
0.0
  9
$DIMTIX
 70
     0
  9
$DIMSOXD
 70
     0
  9
$DIMSAH
 70
     0
  9
$DIMBLK1
  1

  9
$DIMBLK2
  1

  9
$DIMSTYLE
  2
1-1
  9
$DIMCLRD
 70
   256
  9
$DIMCLRE
 70
   256
  9
$DIMCLRT
 70
   256
  9
$DIMTFAC
 40
1.0
  9
$DIMGAP
 40
1.0
  9
$DIMJUST
 70
     0
  9
$DIMSD1
 70
     0
  9
$DIMSD2
 70
     0
  9
$DIMTOLJ
 70
     1
  9
$DIMTZIN
 70
     8
  9
$DIMALTZ
 70
     0
  9
$DIMALTTZ
 70
     0
  9
$DIMUPT
 70
     0
  9
$DIMDEC
 70
     1
  9
$DIMTDEC
 70
     1
  9
$DIMALTU
 70
     8
  9
$DIMALTTD
 70
     4
  9
$DIMTXSTY
  7
STANDARD
  9
$DIMAUNIT
 70
     0
  9
$DIMADEC
 70
     0
  9
$DIMALTRND
 40
0.0
  9
$DIMAZIN
 70
     0
  9
$DIMDSEP
 70
    46
  9
$DIMATFIT
 70
     3
  9
$DIMFRAC
 70
     0
  9
$DIMLDRBLK
  1

  9
$DIMLUNIT
 70
     2
  9
$DIMLWD
 70
    -2
  9
$DIMLWE
 70
    -2
  9
$DIMTMOVE
 70
     0
  9
$LUNITS
 70
     2
  9
$LUPREC
 70
     4
  9
$SKETCHINC
 40
1.0
  9
$FILLETRAD
 40
0.0
  9
$AUNITS
 70
     0
  9
$AUPREC
 70
     2
  9
$MENU
  1
.
  9
$ELEVATION
 40
0.0
  9
$PELEVATION
 40
0.0
  9
$THICKNESS
 40
0.0
  9
$LIMCHECK
 70
     0
  9
$CHAMFERA
 40
10.0
  9
$CHAMFERB
 40
10.0
  9
$CHAMFERC
 40
20.0
  9
$CHAMFERD
 40
0.0
  9
$SKPOLY
 70
     0
  9
$TDCREATE
 40
2451456.639347917
  9
$TDUCREATE
 40
2451456.597681250
  9
$TDUPDATE
 40
2454162.617377014
  9
$TDUUPDATE
 40
2454162.575710348
  9
$TDINDWG
 40
1.3424792477
  9
$TDUSRTIMER
 40
1.3424792477
  9
$USRTIMER
 70
     1
  9
$ANGBASE
 50
0.0
  9
$ANGDIR
 70
     0
  9
$PDMODE
 70
     2
  9
$PDSIZE
 40
5.0
  9
$PLINEWID
 40
0.0
  9
$SPLFRAME
 70
     0
  9
$SPLINETYPE
 70
     6
  9
$SPLINESEGS
 70
    50
  9
$HANDSEED
  5
169
  9
$SURFTAB1
 70
     6
  9
$SURFTAB2
 70
     6
  9
$SURFTYPE
 70
     6
  9
$SURFU
 70
     6
  9
$SURFV
 70
     6
  9
$UCSBASE
  2

  9
$UCSNAME
  2

  9
$UCSORG
 10
0.0
 20
0.0
 30
0.0
  9
$UCSXDIR
 10
1.0
 20
0.0
 30
0.0
  9
$UCSYDIR
 10
0.0
 20
1.0
 30
0.0
  9
$UCSORTHOREF
  2

  9
$UCSORTHOVIEW
 70
     0
  9
$UCSORGTOP
 10
0.0
 20
0.0
 30
0.0
  9
$UCSORGBOTTOM
 10
0.0
 20
0.0
 30
0.0
  9
$UCSORGLEFT
 10
0.0
 20
0.0
 30
0.0
  9
$UCSORGRIGHT
 10
0.0
 20
0.0
 30
0.0
  9
$UCSORGFRONT
 10
0.0
 20
0.0
 30
0.0
  9
$UCSORGBACK
 10
0.0
 20
0.0
 30
0.0
  9
$PUCSBASE
  2

  9
$PUCSNAME
  2

  9
$PUCSORG
 10
0.0
 20
0.0
 30
0.0
  9
$PUCSXDIR
 10
1.0
 20
0.0
 30
0.0
  9
$PUCSYDIR
 10
0.0
 20
1.0
 30
0.0
  9
$PUCSORTHOREF
  2

  9
$PUCSORTHOVIEW
 70
     0
  9
$PUCSORGTOP
 10
0.0
 20
0.0
 30
0.0
  9
$PUCSORGBOTTOM
 10
0.0
 20
0.0
 30
0.0
  9
$PUCSORGLEFT
 10
0.0
 20
0.0
 30
0.0
  9
$PUCSORGRIGHT
 10
0.0
 20
0.0
 30
0.0
  9
$PUCSORGFRONT
 10
0.0
 20
0.0
 30
0.0
  9
$PUCSORGBACK
 10
0.0
 20
0.0
 30
0.0
  9
$USERI1
 70
     0
  9
$USERI2
 70
     0
  9
$USERI3
 70
     0
  9
$USERI4
 70
     0
  9
$USERI5
 70
     0
  9
$USERR1
 40
0.0
  9
$USERR2
 40
0.0
  9
$USERR3
 40
0.0
  9
$USERR4
 40
0.0
  9
$USERR5
 40
0.0
  9
$WORLDVIEW
 70
     1
  9
$SHADEDGE
 70
     3
  9
$SHADEDIF
 70
    70
  9
$TILEMODE
 70
     1
  9
$MAXACTVP
 70
    48
  9
$PINSBASE
 10
0.0
 20
0.0
 30
0.0
  9
$PLIMCHECK
 70
     0
  9
$PEXTMIN
 10
1.000000000000000E+20
 20
1.000000000000000E+20
 30
1.000000000000000E+20
  9
$PEXTMAX
 10
-1.000000000000000E+20
 20
-1.000000000000000E+20
 30
-1.000000000000000E+20
  9
$PLIMMIN
 10
0.0
 20
0.0
  9
$PLIMMAX
 10
420.0
 20
297.0
  9
$UNITMODE
 70
     0
  9
$VISRETAIN
 70
     1
  9
$PLINEGEN
 70
     0
  9
$PSLTSCALE
 70
     1
  9
$TREEDEPTH
 70
  3020
  9
$CMLSTYLE
  2
STANDARD
  9
$CMLJUST
 70
     0
  9
$CMLSCALE
 40
1.0
  9
$PROXYGRAPHICS
 70
     1
  9
$MEASUREMENT
 70
     0
  9
$CELWEIGHT
370
    -1
  9
$ENDCAPS
280
     0
  9
$JOINSTYLE
280
     0
  9
$LWDISPLAY
290
     0
  9
$INSUNITS
 70
     4
  9
$HYPERLINKBASE
  1

  9
$STYLESHEET
  1

  9
$XEDIT
290
     1
  9
$CEPSNTYPE
380
     0
  9
$PSTYLEMODE
290
     1
  9
$FINGERPRINTGUID
  2
{33E2B856-3AEA-4507-92D3-101399A48CBC}
  9
$VERSIONGUID
  2
{945060AA-3022-439C-8B05-3B3F9139A576}
  9
$EXTNAMES
290
     1
  9
$PSVPSCALE
 40
0.0
  9
$OLESTARTUP
290
     0
  0
ENDSEC
  0
SECTION
  2
CLASSES
  0
CLASS
  1
DICTIONARYVAR
  2
AcDbDictionaryVar
  3
ObjectDBX Classes
 90
        0
280
     0
281
     0
  0
CLASS
  1
IMAGE
  2
AcDbRasterImage
  3
ISM
 90
    32895
280
     0
281
     1
  0
CLASS
  1
IMAGEDEF_REACTOR
  2
AcDbRasterImageDefReactor
  3
ISM
 90
    32769
280
     0
281
     0
  0
CLASS
  1
IMAGEDEF
  2
AcDbRasterImageDef
  3
ISM
 90
    32768
280
     0
281
     0
  0
CLASS
  1
ACDBDICTIONARYWDFLT
  2
AcDbDictionaryWithDefault
  3
ObjectDBX Classes
 90
        0
280
     0
281
     0
  0
CLASS
  1
ACDBPLACEHOLDER
  2
AcDbPlaceHolder
  3
ObjectDBX Classes
 90
        0
280
     0
281
     0
  0
CLASS
  1
LAYOUT
  2
AcDbLayout
  3
ObjectDBX Classes
 90
        0
280
     0
281
     0
  0
CLASS
  1
AEC_VARS_DWG_SETUP
  2
AecDbVarsDwgSetup
  3
AecBase40|Product Desc: Autodesk Architectural Desktop 2004 |Company: Autodesk,Inc. |WEB Address: www.autodesk.com
 90
    32897
280
     0
281
     0
  0
CLASS
  1
AEC_DISP_REP_CONFIG
  2
AecDbDispRepConfig
  3
AecBase40|Product Desc: Autodesk Architectural Desktop 2004 |Company: Autodesk,Inc. |WEB Address: www.autodesk.com
 90
    32897
280
     0
281
     0
  0
CLASS
  1
AEC_DISP_REP_SET
  2
AecDbDispRepSet
  3
AecBase40|Product Desc: Autodesk Architectural Desktop 2004 |Company: Autodesk,Inc. |WEB Address: www.autodesk.com
 90
    32897
280
     0
281
     0
  0
CLASS
  1
AEC_DISP_REP_2D_SECTION
  2
AecDbDispRep2dSection
  3
AecBase40|Product Desc: Autodesk Architectural Desktop 2004 |Company: Autodesk,Inc. |WEB Address: www.autodesk.com
 90
    32897
280
     0
281
     0
  0
CLASS
  1
AEC_DISP_REP_ANCHOR_BUB_TO_GRID
  2
AecDbDispRepAnchorBubToGrid
  3
AecStructureBase40|Product Desc: Autodesk Architectural Desktop 2004 |Company: Autodesk,Inc. |WEB Address: www.autodesk.com
 90
    32897
280
     0
281
     0
  0
CLASS
  1
AEC_DISP_REP_ANCHOR_BUB_TO_GRID_MODEL
  2
AecDbDispRepAnchorBubToGridMdl
  3
AecStructureBase40|Product Desc: Autodesk Architectural Desktop 2004 |Company: Autodesk,Inc. |WEB Address: www.autodesk.com
 90
    32897
280
     0
281
     0
  0
CLASS
  1
AEC_DISP_REP_ANCHOR_ENT_TO_NODE
  2
AecDbDispRepAnchorEntToNode
  3
AecBase40|Product Desc: Autodesk Architectural Desktop 2004 |Company: Autodesk,Inc. |WEB Address: www.autodesk.com
 90
    32897
280
     0
281
     0
  0
CLASS
  1
AEC_DISP_REP_AREA
  2
AecDbDispRepArea
  3
AecAreaCalculationBase40|Product Desc: Autodesk Architectural Desktop 2004 |Company: Autodesk,Inc. |WEB Address: www.autodesk.com
 90
    32897
280
     0
281
     0
  0
CLASS
  1
AEC_DISP_REP_AREAGROUP
  2
AecDbDispRepAreaGroup
  3
AecAreaCalculationBase40|Product Desc: Autodesk Architectural Desktop 2004 |Company: Autodesk,Inc. |WEB Address: www.autodesk.com
 90
    32897
280
     0
281
     0
  0
CLASS
  1
AEC_DISP_REP_BDG_ELEVLINE_MODEL
  2
AecDbDispRepBdgElevLineModel
  3
AecArchBase40|Product Desc: Autodesk Architectural Desktop 2004 |Company: Autodesk,Inc. |WEB Address: www.autodesk.com
 90
    32897
280
     0
281
     0
  0
CLASS
  1
AEC_DISP_REP_BDG_ELEVLINE_PLAN
  2
AecDbDispRepBdgElevLinePlan
  3
AecArchBase40|Product Desc: Autodesk Architectural Desktop 2004 |Company: Autodesk,Inc. |WEB Address: www.autodesk.com
 90
    32897
280
     0
281
     0
  0
CLASS
  1
AEC_DISP_REP_BDG_SECTIONLINE_MODEL
  2
AecDbDispRepBdgSectionLineModel
  3
AecArchBase40|Product Desc: Autodesk Architectural Desktop 2004 |Company: Autodesk,Inc. |WEB Address: www.autodesk.com
 90
    32897
280
     0
281
     0
  0
CLASS
  1
AEC_DISP_REP_BDG_SECTIONLINE_PLAN
  2
AecDbDispRepBdgSectionLinePlan
  3
AecArchBase40|Product Desc: Autodesk Architectural Desktop 2004 |Company: Autodesk,Inc. |WEB Address: www.autodesk.com
 90
    32897
280
     0
281
     0
  0
CLASS
  1
AEC_DISP_REP_BDG_SECTION_SUBDIV
  2
AecDbDispRepBdgSectionSubDiv
  3
AecArchBase40|Product Desc: Autodesk Architectural Desktop 2004 |Company: Autodesk,Inc. |WEB Address: www.autodesk.com
 90
    32897
280
     0
281
     0
  0
CLASS
  1
AEC_DISP_REP_CAMERA
  2
AecDbDispRepCamera
  3
AecBase40|Product Desc: Autodesk Architectural Desktop 2004 |Company: Autodesk,Inc. |WEB Address: www.autodesk.com
 90
    32897
280
     0
281
     0
  0
CLASS
  1
AEC_DISP_REP_CEILING_GRID
  2
AecDbDispRepCeilingGrid
  3
AecArchBase40|Product Desc: Autodesk Architectural Desktop 2004 |Company: Autodesk,Inc. |WEB Address: www.autodesk.com
 90
    33661
280
     0
281
     0
  0
CLASS
  1
AEC_DISP_REP_CEILING_GRID_MODEL
  2
AecDbDispRepCeilingGridModel
  3
AecArchBase40|Product Desc: Autodesk Architectural Desktop 2004 |Company: Autodesk,Inc. |WEB Address: www.autodesk.com
 90
    32897
280
     0
281
     0
  0
CLASS
  1
AEC_DISP_REP_CLIP_VOLUME_MODEL
  2
AecDbDispRepClipVolModel
  3
AecBase40|Product Desc: Autodesk Architectural Desktop 2004 |Company: Autodesk,Inc. |WEB Address: www.autodesk.com
 90
    32897
280
     0
281
     0
  0
CLASS
  1
AEC_DISP_REP_CLIP_VOLUME_PLAN
  2
AecDbDispRepClipVolPlan
  3
AecBase40|Product Desc: Autodesk Architectural Desktop 2004 |Company: Autodesk,Inc. |WEB Address: www.autodesk.com
 90
    32897
280
     0
281
     0
  0
CLASS
  1
AEC_DISP_REP_CLIP_VOLUME_RESULT_SUBDIV
  2
AecDbDispRepClipVolResSubDiv
  3
AecBase40|Product Desc: Autodesk Architectural Desktop 2004 |Company: Autodesk,Inc. |WEB Address: www.autodesk.com
 90
    32897
280
     0
281
     0
  0
CLASS
  1
AEC_DISP_REP_COLUMN_GRID
  2
AecDbDispRepColumnGrid
  3
AecStructureBase40|Product Desc: Autodesk Architectural Desktop 2004 |Company: Autodesk,Inc. |WEB Address: www.autodesk.com
 90
    32897
280
     0
281
     0
  0
CLASS
  1
AEC_DISP_REP_COLUMN_GRID_MODEL
  2
AecDbDispRepColumnGridModel
  3
AecStructureBase40|Product Desc: Autodesk Architectural Desktop 2004 |Company: Autodesk,Inc. |WEB Address: www.autodesk.com
 90
    32897
280
     0
281
     0
  0
CLASS
  1
AEC_DISP_REP_CURTAIN_WALL_LAYOUT_MODEL
  2
AecDbDispRepCurtainWallLayoutModel
  3
AecArchBase40|Product Desc: Autodesk Architectural Desktop 2004 |Company: Autodesk,Inc. |WEB Address: www.autodesk.com
 90
    32897
280
     0
281
     0
  0
CLASS
  1
AEC_DISP_REP_CURTAIN_WALL_LAYOUT_PLAN
  2
AecDbDispRepCurtainWallLayoutPlan
  3
AecArchBase40|Product Desc: Autodesk Architectural Desktop 2004 |Company: Autodesk,Inc. |WEB Address: www.autodesk.com
 90
    32897
280
     0
281
     0
  0
CLASS
  1
AEC_DISP_REP_CURTAIN_WALL_UNIT_MODEL
  2
AecDbDispRepCurtainWallUnitModel
  3
AecArchBase40|Product Desc: Autodesk Architectural Desktop 2004 |Company: Autodesk,Inc. |WEB Address: www.autodesk.com
 90
    32897
280
     0
281
     0
  0
CLASS
  1
AEC_DISP_REP_CURTAIN_WALL_UNIT_PLAN
  2
AecDbDispRepCurtainWallUnitPlan
  3
AecArchBase40|Product Desc: Autodesk Architectural Desktop 2004 |Company: Autodesk,Inc. |WEB Address: www.autodesk.com
 90
    32897
280
     0
281
     0
  0
CLASS
  1
AEC_DB_DISP_REP_DIM_GROUP_PLAN
  2
AecDbDispRepDimGroupPlan
  3
AecArchDACHBase40|Product Desc: Autodesk Architectural Desktop 2004 |Company: Autodesk,Inc. |WEB Address: www.autodesk.com
 90
    32897
280
     0
281
     0
  0
CLASS
  1
AEC_DISP_REP_DOOR_MODEL
  2
AecDbDispRepDoorModel
  3
AecArchBase40|Product Desc: Autodesk Architectural Desktop 2004 |Company: Autodesk,Inc. |WEB Address: www.autodesk.com
 90
    32897
280
     0
281
     0
  0
CLASS
  1
AEC_DISP_REP_DOOR_PLAN
  2
AecDbDispRepDoorPlan
  3
AecArchBase40|Product Desc: Autodesk Architectural Desktop 2004 |Company: Autodesk,Inc. |WEB Address: www.autodesk.com
 90
    32897
280
     0
281
     0
  0
CLASS
  1
AEC_DISP_REP_DOOR_THRESHOLD_PLAN
  2
AecDbDispRepDoorThresholdPlan
  3
AecArchBase40|Product Desc: Autodesk Architectural Desktop 2004 |Company: Autodesk,Inc. |WEB Address: www.autodesk.com
 90
    32897
280
     0
281
     0
  0
CLASS
  1
AEC_DISP_REP_EDITINPLACEPROFILE
  2
AecDbDispRepEditInPlaceProfile
  3
AecBase40|Product Desc: Autodesk Architectural Desktop 2004 |Company: Autodesk,Inc. |WEB Address: www.autodesk.com
 90
    32897
280
     0
281
     0
  0
CLASS
  1
AEC_DISP_REP_ENT_REF
  2
AecDbDispRepEntRef
  3
AecBase40|Product Desc: Autodesk Architectural Desktop 2004 |Company: Autodesk,Inc. |WEB Address: www.autodesk.com
 90
    32897
280
     0
281
     0
  0
CLASS
  1
AEC_DISP_REP_LAYOUT_CURVE
  2
AecDbDispRepLayoutCurve
  3
AecBase40|Product Desc: Autodesk Architectural Desktop 2004 |Company: Autodesk,Inc. |WEB Address: www.autodesk.com
 90
    32897
280
     0
281
     0
  0
CLASS
  1
AEC_DISP_REP_LAYOUT_GRID2D
  2
AecDbDispRepLayoutGrid2d
  3
AecBase40|Product Desc: Autodesk Architectural Desktop 2004 |Company: Autodesk,Inc. |WEB Address: www.autodesk.com
 90
    32897
280
     0
281
     0
  0
CLASS
  1
AEC_DISP_REP_LAYOUT_GRID3D
  2
AecDbDispRepLayoutGrid3d
  3
AecBase40|Product Desc: Autodesk Architectural Desktop 2004 |Company: Autodesk,Inc. |WEB Address: www.autodesk.com
 90
    32897
280
     0
281
     0
  0
CLASS
  1
AEC_DISP_REP_MASKBLOCK_REF
  2
AecDbDispRepMaskBlockRef
  3
AecBase40|Product Desc: Autodesk Architectural Desktop 2004 |Company: Autodesk,Inc. |WEB Address: www.autodesk.com
 90
    32897
280
     0
281
     0
  0
CLASS
  1
AEC_DISP_REP_MASS_ELEM_MODEL
  2
AecDbDispRepMassElemModel
  3
AecBase40|Product Desc: Autodesk Architectural Desktop 2004 |Company: Autodesk,Inc. |WEB Address: www.autodesk.com
 90
    32897
280
     0
281
     0
  0
CLASS
  1
AEC_DISP_REP_MASS_ELEM_SCHEM
  2
AecDbDispRepMassElemSchem
  3
AecBase40|Product Desc: Autodesk Architectural Desktop 2004 |Company: Autodesk,Inc. |WEB Address: www.autodesk.com
 90
    32897
280
     0
281
     0
  0
CLASS
  1
AEC_DISP_REP_MASS_GROUP_MODEL
  2
AecDbDispRepMassGroupModel
  3
AecBase40|Product Desc: Autodesk Architectural Desktop 2004 |Company: Autodesk,Inc. |WEB Address: www.autodesk.com
 90
    32897
280
     0
281
     0
  0
CLASS
  1
AEC_DISP_REP_MASS_GROUP_PLAN
  2
AecDbDispRepMassGroupPlan
  3
AecBase40|Product Desc: Autodesk Architectural Desktop 2004 |Company: Autodesk,Inc. |WEB Address: www.autodesk.com
 90
    32897
280
     0
281
     0
  0
CLASS
  1
AEC_DISP_REP_MATERIAL
  2
AecDbDispRepMaterial
  3
AecBase40|Product Desc: Autodesk Architectural Desktop 2004 |Company: Autodesk,Inc. |WEB Address: www.autodesk.com
 90
    32897
280
     0
281
     0
  0
CLASS
  1
AEC_DISP_REP_MVBLOCK_REF
  2
AecDbDispRepMvBlockRef
  3
AecBase40|Product Desc: Autodesk Architectural Desktop 2004 |Company: Autodesk,Inc. |WEB Address: www.autodesk.com
 90
    32897
280
     0
281
     0
  0
CLASS
  1
AEC_DISP_REP_MVBLOCK_REF_MODEL
  2
AecDbDispRepMvBlockRefModel
  3
AecBase40|Product Desc: Autodesk Architectural Desktop 2004 |Company: Autodesk,Inc. |WEB Address: www.autodesk.com
 90
    32897
280
     0
281
     0
  0
CLASS
  1
AEC_DISP_REP_OPENING
  2
AecDbDispRepOpening
  3
AecArchBase40|Product Desc: Autodesk Architectural Desktop 2004 |Company: Autodesk,Inc. |WEB Address: www.autodesk.com
 90
    32897
280
     0
281
     0
  0
CLASS
  1
AEC_DISP_REP_OPENING_MODEL
  2
AecDbDispRepOpeningModel
  3
AecArchBase40|Product Desc: Autodesk Architectural Desktop 2004 |Company: Autodesk,Inc. |WEB Address: www.autodesk.com
 90
    32897
280
     0
281
     0
  0
CLASS
  1
AEC_DISP_REP_POLYGON_MODEL
  2
AecDbDispRepPolygonModel
  3
AecBase40|Product Desc: Autodesk Architectural Desktop 2004 |Company: Autodesk,Inc. |WEB Address: www.autodesk.com
 90
    32897
280
     0
281
     0
  0
CLASS
  1
AEC_DISP_REP_RAILING_MODEL
  2
AecDbDispRepRailingModel
  3
AecArchBase40|Product Desc: Autodesk Architectural Desktop 2004 |Company: Autodesk,Inc. |WEB Address: www.autodesk.com
 90
    32897
280
     0
281
     0
  0
CLASS
  1
AEC_DISP_REP_RAILING_PLAN
  2
AecDbDispRepRailingPlan
  3
AecArchBase40|Product Desc: Autodesk Architectural Desktop 2004 |Company: Autodesk,Inc. |WEB Address: www.autodesk.com
 90
    32897
280
     0
281
     0
  0
CLASS
  1
AEC_DISP_REP_ROOF_MODEL
  2
AecDbDispRepRoofModel
  3
AecArchBase40|Product Desc: Autodesk Architectural Desktop 2004 |Company: Autodesk,Inc. |WEB Address: www.autodesk.com
 90
    32897
280
     0
281
     0
  0
CLASS
  1
AEC_DISP_REP_ROOF_PLAN
  2
AecDbDispRepRoofPlan
  3
AecArchBase40|Product Desc: Autodesk Architectural Desktop 2004 |Company: Autodesk,Inc. |WEB Address: www.autodesk.com
 90
    32897
280
     0
281
     0
  0
CLASS
  1
AEC_DISP_REP_ROOFSLAB_MODEL
  2
AecDbDispRepRoofSlabModel
  3
AecArchBase40|Product Desc: Autodesk Architectural Desktop 2004 |Company: Autodesk,Inc. |WEB Address: www.autodesk.com
 90
    32897
280
     0
281
     0
  0
CLASS
  1
AEC_DISP_REP_ROOFSLAB_PLAN
  2
AecDbDispRepRoofSlabPlan
  3
AecArchBase40|Product Desc: Autodesk Architectural Desktop 2004 |Company: Autodesk,Inc. |WEB Address: www.autodesk.com
 90
    32897
280
     0
281
     0
  0
CLASS
  1
AEC_DISP_REP_SCHEDULE_TABLE
  2
AecDbDispRepScheduleTable
  3
AecSchedule40|Product Desc: Autodesk Architectural Desktop 2004 |Company: Autodesk,Inc. |WEB Address: www.autodesk.com
 90
    32897
280
     0
281
     0
  0
CLASS
  1
AEC_DISP_REP_SLAB_MODEL
  2
AecDbDispRepSlabModel
  3
AecArchBase40|Product Desc: Autodesk Architectural Desktop 2004 |Company: Autodesk,Inc. |WEB Address: www.autodesk.com
 90
    32897
280
     0
281
     0
  0
CLASS
  1
AEC_DISP_REP_SLAB_PLAN
  2
AecDbDispRepSlabPlan
  3
AecArchBase40|Product Desc: Autodesk Architectural Desktop 2004 |Company: Autodesk,Inc. |WEB Address: www.autodesk.com
 90
    32897
280
     0
281
     0
  0
CLASS
  1
AEC_DISP_REP_SLICE
  2
AecDbDispRepSlice
  3
AecBase40|Product Desc: Autodesk Architectural Desktop 2004 |Company: Autodesk,Inc. |WEB Address: www.autodesk.com
 90
    32897
280
     0
281
     0
  0
CLASS
  1
AEC_DISP_REP_SPACE_BOUNDARY_MODEL
  2
AecDbDispRepSpaceBoundaryModel
  3
AecArchBase40|Product Desc: Autodesk Architectural Desktop 2004 |Company: Autodesk,Inc. |WEB Address: www.autodesk.com
 90
    32897
280
     0
281
     0
  0
CLASS
  1
AEC_DISP_REP_SPACE_BOUNDARY_PLAN
  2
AecDbDispRepSpaceBoundaryPlan
  3
AecArchBase40|Product Desc: Autodesk Architectural Desktop 2004 |Company: Autodesk,Inc. |WEB Address: www.autodesk.com
 90
    32897
280
     0
281
     0
  0
CLASS
  1
AEC_DISP_REP_SPACE_MODEL
  2
AecDbDispRepSpaceModel
  3
AecArchBase40|Product Desc: Autodesk Architectural Desktop 2004 |Company: Autodesk,Inc. |WEB Address: www.autodesk.com
 90
    32897
280
     0
281
     0
  0
CLASS
  1
AEC_DISP_REP_SPACE_PLAN
  2
AecDbDispRepSpacePlan
  3
AecArchBase40|Product Desc: Autodesk Architectural Desktop 2004 |Company: Autodesk,Inc. |WEB Address: www.autodesk.com
 90
    32897
280
     0
281
     0
  0
CLASS
  1
AEC_DISP_REP_STAIR_MODEL
  2
AecDbDispRepStairModel
  3
AecArchBase40|Product Desc: Autodesk Architectural Desktop 2004 |Company: Autodesk,Inc. |WEB Address: www.autodesk.com
 90
    32897
280
     0
281
     0
  0
CLASS
  1
AEC_DISP_REP_STAIR_PLAN
  2
AecDbDispRepStairPlan
  3
AecArchBase40|Product Desc: Autodesk Architectural Desktop 2004 |Company: Autodesk,Inc. |WEB Address: www.autodesk.com
 90
    32897
280
     0
281
     0
  0
CLASS
  1
AEC_DISP_REP_WALL_MODEL
  2
AecDbDispRepWallModel
  3
AecArchBase40|Product Desc: Autodesk Architectural Desktop 2004 |Company: Autodesk,Inc. |WEB Address: www.autodesk.com
 90
    32897
280
     0
281
     0
  0
CLASS
  1
AEC_DISP_REP_WALL_PLAN
  2
AecDbDispRepWallPlan
  3
AecArchBase40|Product Desc: Autodesk Architectural Desktop 2004 |Company: Autodesk,Inc. |WEB Address: www.autodesk.com
 90
    32897
280
     0
281
     0
  0
CLASS
  1
AEC_DISP_REP_WINDOW_ASSEMBLY_MODEL
  2
AecDbDispRepWindowAssemblyModel
  3
AecArchBase40|Product Desc: Autodesk Architectural Desktop 2004 |Company: Autodesk,Inc. |WEB Address: www.autodesk.com
 90
    32897
280
     0
281
     0
  0
CLASS
  1
AEC_DISP_REP_WINDOW_ASSEMBLY_PLAN
  2
AecDbDispRepWindowAssemblyPlan
  3
AecArchBase40|Product Desc: Autodesk Architectural Desktop 2004 |Company: Autodesk,Inc. |WEB Address: www.autodesk.com
 90
    32897
280
     0
281
     0
  0
CLASS
  1
AEC_DISP_REP_WINDOW_MODEL
  2
AecDbDispRepWindowModel
  3
AecArchBase40|Product Desc: Autodesk Architectural Desktop 2004 |Company: Autodesk,Inc. |WEB Address: www.autodesk.com
 90
    32897
280
     0
281
     0
  0
CLASS
  1
AEC_DISP_REP_WINDOW_PLAN
  2
AecDbDispRepWindowPlan
  3
AecArchBase40|Product Desc: Autodesk Architectural Desktop 2004 |Company: Autodesk,Inc. |WEB Address: www.autodesk.com
 90
    32897
280
     0
281
     0
  0
CLASS
  1
AEC_DISP_REP_WINDOW_SILL_PLAN
  2
AecDbDispRepWindowSillPlan
  3
AecArchBase40|Product Desc: Autodesk Architectural Desktop 2004 |Company: Autodesk,Inc. |WEB Address: www.autodesk.com
 90
    32897
280
     0
281
     0
  0
CLASS
  1
AECS_DISP_REP_MEMBER_MODEL_DESIGN
  2
AecsDbDispRepMemberModelDesign
  3
AecStructureBase40|Product Desc: Autodesk Architectural Desktop 2004 |Company: Autodesk,Inc. |WEB Address: www.autodesk.com
 90
    32897
280
     0
281
     0
  0
CLASS
  1
AECS_DISP_REP_MEMBER_PLAN_DESIGN
  2
AecsDbDispRepMemberPlanDesign
  3
AecStructureBase40|Product Desc: Autodesk Architectural Desktop 2004 |Company: Autodesk,Inc. |WEB Address: www.autodesk.com
 90
    32897
280
     0
281
     0
  0
CLASS
  1
AEC_DISP_PROPS_CAMERA
  2
AecDbDispPropsCamera
  3
AecBase40|Product Desc: Autodesk Architectural Desktop 2004 |Company: Autodesk,Inc. |WEB Address: www.autodesk.com
 90
    32897
280
     0
281
     0
  0
CLASS
  1
AEC_DISP_PROPS_LAYOUT_GRID2D
  2
AecDbDispPropsLayoutGrid2d
  3
AecBase40|Product Desc: Autodesk Architectural Desktop 2004 |Company: Autodesk,Inc. |WEB Address: www.autodesk.com
 90
    32897
280
     0
281
     0
  0
CLASS
  1
AEC_DISP_PROPS_OPENING
  2
AecDbDispPropsOpening
  3
AecArchBase40|Product Desc: Autodesk Architectural Desktop 2004 |Company: Autodesk,Inc. |WEB Address: www.autodesk.com
 90
    32897
280
     0
281
     0
  0
CLASS
  1
AEC_DISP_PROPS_MASS_GROUP
  2
AecDbDispPropsMassGroup
  3
AecBase40|Product Desc: Autodesk Architectural Desktop 2004 |Company: Autodesk,Inc. |WEB Address: www.autodesk.com
 90
    32897
280
     0
281
     0
  0
CLASS
  1
AEC_DISP_PROPS_ROOFSLAB
  2
AecDbDispPropsRoofSlab
  3
AecArchBase40|Product Desc: Autodesk Architectural Desktop 2004 |Company: Autodesk,Inc. |WEB Address: www.autodesk.com
 90
    32897
280
     0
281
     0
  0
CLASS
  1
AEC_DISP_PROPS_STAIR_MODEL
  2
AecDbDispPropsStairModel
  3
AecArchBase40|Product Desc: Autodesk Architectural Desktop 2004 |Company: Autodesk,Inc. |WEB Address: www.autodesk.com
 90
    32897
280
     0
281
     0
  0
CLASS
  1
AEC_DISP_PROPS_ENT
  2
AecDbDispPropsEnt
  3
AecBase40|Product Desc: Autodesk Architectural Desktop 2004 |Company: Autodesk,Inc. |WEB Address: www.autodesk.com
 90
    32897
280
     0
281
     0
  0
CLASS
  1
AEC_DISP_PROPS_CLIP_VOLUME
  2
AecDbDispPropsClipVol
  3
AecBase40|Product Desc: Autodesk Architectural Desktop 2004 |Company: Autodesk,Inc. |WEB Address: www.autodesk.com
 90
    32897
280
     0
281
     0
  0
CLASS
  1
AEC_DISP_PROPS_STAIR_PLAN
  2
AecDbDispPropsStairPlan
  3
AecArchBase40|Product Desc: Autodesk Architectural Desktop 2004 |Company: Autodesk,Inc. |WEB Address: www.autodesk.com
 90
    32897
280
     0
281
     0
  0
CLASS
  1
AEC_DISP_PROPS_CLIP_VOLUME_RESULT
  2
AecDbDispPropsClipVolResSubDiv
  3
AecBase40|Product Desc: Autodesk Architectural Desktop 2004 |Company: Autodesk,Inc. |WEB Address: www.autodesk.com
 90
    32897
280
     0
281
     0
  0
CLASS
  1
AEC_DISP_PROPS_SPACE_MODEL
  2
AecDbDispPropsSpaceModel
  3
AecArchBase40|Product Desc: Autodesk Architectural Desktop 2004 |Company: Autodesk,Inc. |WEB Address: www.autodesk.com
 90
    32897
280
     0
281
     0
  0
CLASS
  1
AEC_DISP_PROPS_2D_SECTION
  2
AecDbDispProps2dSection
  3
AecBase40|Product Desc: Autodesk Architectural Desktop 2004 |Company: Autodesk,Inc. |WEB Address: www.autodesk.com
 90
    32897
280
     0
281
     0
  0
CLASS
  1
AEC_DISP_PROPS_DOOR_THRESHOLD_PLAN
  2
AecDbDispPropsDoorThresholdPlan
  3
AecArchBase40|Product Desc: Autodesk Architectural Desktop 2004 |Company: Autodesk,Inc. |WEB Address: www.autodesk.com
 90
    32897
280
     0
281
     0
  0
CLASS
  1
AEC_DISP_PROPS_POLYGON_MODEL
  2
AecDbDispPropsPolygonModel
  3
AecBase40|Product Desc: Autodesk Architectural Desktop 2004 |Company: Autodesk,Inc. |WEB Address: www.autodesk.com
 90
    32897
280
     0
281
     0
  0
CLASS
  1
AEC_DISP_PROPS_GRID_ASSEMBLY_MODEL
  2
AecDbDispPropsGridAssemblyModel
  3
AecArchBase40|Product Desc: Autodesk Architectural Desktop 2004 |Company: Autodesk,Inc. |WEB Address: www.autodesk.com
 90
    32897
280
     0
281
     0
  0
CLASS
  1
AEC_DISP_PROPS_AREA
  2
AecDbDispPropsArea
  3
AecAreaCalculationBase40|Product Desc: Autodesk Architectural Desktop 2004 |Company: Autodesk,Inc. |WEB Address: www.autodesk.com
 90
    32897
280
     0
281
     0
  0
CLASS
  1
AEC_DISP_PROPS_SPACE_PLAN
  2
AecDbDispPropsSpacePlan
  3
AecArchBase40|Product Desc: Autodesk Architectural Desktop 2004 |Company: Autodesk,Inc. |WEB Address: www.autodesk.com
 90
    32897
280
     0
281
     0
  0
CLASS
  1
AEC_DISP_PROPS_GRID_ASSEMBLY_PLAN
  2
AecDbDispPropsGridAssemblyPlan
  3
AecArchBase40|Product Desc: Autodesk Architectural Desktop 2004 |Company: Autodesk,Inc. |WEB Address: www.autodesk.com
 90
    32897
280
     0
281
     0
  0
CLASS
  1
AEC_DISP_PROPS_WINDOW
  2
AecDbDispPropsWindow
  3
AecArchBase40|Product Desc: Autodesk Architectural Desktop 2004 |Company: Autodesk,Inc. |WEB Address: www.autodesk.com
 90
    32897
280
     0
281
     0
  0
CLASS
  1
AEC_DISP_PROPS_ROOFSLAB_PLAN
  2
AecDbDispPropsRoofSlabPlan
  3
AecArchBase40|Product Desc: Autodesk Architectural Desktop 2004 |Company: Autodesk,Inc. |WEB Address: www.autodesk.com
 90
    32897
280
     0
281
     0
  0
CLASS
  1
AEC_DISP_PROPS_SLAB_PLAN
  2
AecDbDispPropsSlabPlan
  3
AecArchBase40|Product Desc: Autodesk Architectural Desktop 2004 |Company: Autodesk,Inc. |WEB Address: www.autodesk.com
 90
    32897
280
     0
281
     0
  0
CLASS
  1
AEC_DISP_PROPS_ROOF
  2
AecDbDispPropsRoof
  3
AecArchBase40|Product Desc: Autodesk Architectural Desktop 2004 |Company: Autodesk,Inc. |WEB Address: www.autodesk.com
 90
    32897
280
     0
281
     0
  0
CLASS
  1
AEC_DISP_PROPS_WALL_MODEL
  2
AecDbDispPropsWallModel
  3
AecArchBase40|Product Desc: Autodesk Architectural Desktop 2004 |Company: Autodesk,Inc. |WEB Address: www.autodesk.com
 90
    32897
280
     0
281
     0
  0
CLASS
  1
AEC_DISP_PROPS_AREAGROUP
  2
AecDbDispPropsAreaGroup
  3
AecAreaCalculationBase40|Product Desc: Autodesk Architectural Desktop 2004 |Company: Autodesk,Inc. |WEB Address: www.autodesk.com
 90
    32897
280
     0
281
     0
  0
CLASS
  1
AEC_DISP_PROPS_WALL_PLAN
  2
AecDbDispPropsWallPlan
  3
AecArchBase40|Product Desc: Autodesk Architectural Desktop 2004 |Company: Autodesk,Inc. |WEB Address: www.autodesk.com
 90
    32897
280
     0
281
     0
  0
CLASS
  1
AEC_DISP_PROPS_DOOR
  2
AecDbDispPropsDoor
  3
AecArchBase40|Product Desc: Autodesk Architectural Desktop 2004 |Company: Autodesk,Inc. |WEB Address: www.autodesk.com
 90
    32897
280
     0
281
     0
  0
CLASS
  1
AEC_DISP_PROPS_ENT_REF
  2
AecDbDispPropsEntRef
  3
AecBase40|Product Desc: Autodesk Architectural Desktop 2004 |Company: Autodesk,Inc. |WEB Address: www.autodesk.com
 90
    32897
280
     0
281
     0
  0
CLASS
  1
AECS_DISP_PROPS_MEMBER
  2
AecsDbDispPropsMember
  3
AecStructureBase40|Product Desc: Autodesk Architectural Desktop 2004 |Company: Autodesk,Inc. |WEB Address: www.autodesk.com
 90
    32897
280
     0
281
     0
  0
CLASS
  1
AEC_DISP_PROPS_RAILING_MODEL
  2
AecDbDispPropsRailingModel
  3
AecArchBase40|Product Desc: Autodesk Architectural Desktop 2004 |Company: Autodesk,Inc. |WEB Address: www.autodesk.com
 90
    32897
280
     0
281
     0
  0
CLASS
  1
AEC_DISP_PROPS_MASS_ELEM_MODEL
  2
AecDbDispPropsMassElem
  3
AecBase40|Product Desc: Autodesk Architectural Desktop 2004 |Company: Autodesk,Inc. |WEB Address: www.autodesk.com
 90
    32897
280
     0
281
     0
  0
CLASS
  1
AECS_DISP_PROPS_MEMBER_PLAN
  2
AecsDbDispPropsMemberPlan
  3
AecStructureBase40|Product Desc: Autodesk Architectural Desktop 2004 |Company: Autodesk,Inc. |WEB Address: www.autodesk.com
 90
    32897
280
     0
281
     0
  0
CLASS
  1
AEC_DISP_PROPS_EDITINPLACEPROFILE_MODEL
  2
AecDbDispPropsEditInPlaceProfile
  3
AecBase40|Product Desc: Autodesk Architectural Desktop 2004 |Company: Autodesk,Inc. |WEB Address: www.autodesk.com
 90
    32897
280
     0
281
     0
  0
CLASS
  1
AEC_DISP_PROPS_WINDOW_SILL_PLAN
  2
AecDbDispPropsWindowSillPlan
  3
AecArchBase40|Product Desc: Autodesk Architectural Desktop 2004 |Company: Autodesk,Inc. |WEB Address: www.autodesk.com
 90
    32897
280
     0
281
     0
  0
CLASS
  1
AEC_DISP_PROPS_MATERIAL
  2
AecDbDispPropsMaterial
  3
AecBase40|Product Desc: Autodesk Architectural Desktop 2004 |Company: Autodesk,Inc. |WEB Address: www.autodesk.com
 90
    32897
280
     0
281
     0
  0
CLASS
  1
AEC_DISP_PROPS_MASKBLOCK
  2
AecDbDispPropsMaskBlock
  3
AecBase40|Product Desc: Autodesk Architectural Desktop 2004 |Company: Autodesk,Inc. |WEB Address: www.autodesk.com
 90
    32897
280
     0
281
     0
  0
CLASS
  1
AEC_DISP_PROPS_SLAB
  2
AecDbDispPropsSlab
  3
AecArchBase40|Product Desc: Autodesk Architectural Desktop 2004 |Company: Autodesk,Inc. |WEB Address: www.autodesk.com
 90
    32897
280
     0
281
     0
  0
CLASS
  1
AEC_DISP_PROPS_SLICE
  2
AecDbDispPropsSlice
  3
AecBase40|Product Desc: Autodesk Architectural Desktop 2004 |Company: Autodesk,Inc. |WEB Address: www.autodesk.com
 90
    32897
280
     0
281
     0
  0
CLASS
  1
AEC_DISP_PROPS_SPACE_BOUNDARY
  2
AecDbDispPropsSpaceBoundary
  3
AecArchBase40|Product Desc: Autodesk Architectural Desktop 2004 |Company: Autodesk,Inc. |WEB Address: www.autodesk.com
 90
    32897
280
     0
281
     0
  0
CLASS
  1
AEC_DISP_PROPS_SCHEDULE_TABLE
  2
AecDbDispPropsScheduleTable
  3
AecSchedule40|Product Desc: Autodesk Architectural Desktop 2004 |Company: Autodesk,Inc. |WEB Address: www.autodesk.com
 90
    32897
280
     0
281
     0
  0
CLASS
  1
AEC_DISP_PROPS_RAILING_PLAN
  2
AecDbDispPropsRailingPlan
  3
AecArchBase40|Product Desc: Autodesk Architectural Desktop 2004 |Company: Autodesk,Inc. |WEB Address: www.autodesk.com
 90
    32897
280
     0
281
     0
  0
CLASS
  1
AEC_DISP_PROPS_DIM
  2
AecDbDispPropsDimGroup
  3
AecArchDACHBase40|Product Desc: Autodesk Architectural Desktop 2004 |Company: Autodesk,Inc. |WEB Address: www.autodesk.com
 90
    32897
280
     0
281
     0
  0
CLASS
  1
AEC_DISP_PROPS_LAYOUT_CURVE
  2
AecDbDispPropsLayoutCurve
  3
AecBase40|Product Desc: Autodesk Architectural Desktop 2004 |Company: Autodesk,Inc. |WEB Address: www.autodesk.com
 90
    32897
280
     0
281
     0
  0
CLASS
  1
AEC_DISP_PROPS_LAYOUT_GRID3D
  2
AecDbDispPropsLayoutGrid3d
  3
AecBase40|Product Desc: Autodesk Architectural Desktop 2004 |Company: Autodesk,Inc. |WEB Address: www.autodesk.com
 90
    32897
280
     0
281
     0
  0
CLASS
  1
AEC_LAYERKEY_STYLE
  2
AecDbLayerKeyStyle
  3
AecBase40|Product Desc: Autodesk Architectural Desktop 2004 |Company: Autodesk,Inc. |WEB Address: www.autodesk.com
 90
    32897
280
     0
281
     0
  0
CLASS
  1
AEC_VARS_ARCHBASE
  2
AecDbVarsArchBase
  3
AecArchBase40|Product Desc: Autodesk Architectural Desktop 2004 |Company: Autodesk,Inc. |WEB Address: www.autodesk.com
 90
    32897
280
     0
281
     0
  0
CLASS
  1
AEC_VARS_MUNICH
  2
AecDbVarsMunich
  3
AecArchDACHBase40|Product Desc: Autodesk Architectural Desktop 2004 |Company: Autodesk,Inc. |WEB Address: www.autodesk.com
 90
    32897
280
     0
281
     0
  0
CLASS
  1
AEC_NOTIFICATION_TRACKER
  2
AecDbNotificationTracker
  3
AecBase40|Product Desc: Autodesk Architectural Desktop 2004 |Company: Autodesk,Inc. |WEB Address: www.autodesk.com
 90
    32897
280
     0
281
     0
  0
CLASS
  1
AEC_DISP_REP_ANCHOR
  2
AecDbDispRepAnchor
  3
AecBase40|Product Desc: Autodesk Architectural Desktop 2004 |Company: Autodesk,Inc. |WEB Address: www.autodesk.com
 90
    32897
280
     0
281
     0
  0
CLASS
  1
AEC_DISP_REP_CLIP_VOLUME_RESULT
  2
AecDbDispRepClipVolResult
  3
AecBase40|Product Desc: Autodesk Architectural Desktop 2004 |Company: Autodesk,Inc. |WEB Address: www.autodesk.com
 90
    32897
280
     0
281
     0
  0
CLASS
  1
AEC_DISP_REP_POLYGON_TRUECOLOUR
  2
AecDbDispRepPolygonTrueColour
  3
AecBase40|Product Desc: Autodesk Architectural Desktop 2004 |Company: Autodesk,Inc. |WEB Address: www.autodesk.com
 90
    32897
280
     0
281
     0
  0
CLASS
  1
AEC_DISP_PROPS_POLYGON_TRUECOLOUR
  2
AecDbDispPropsPolygonTrueColour
  3
AecBase40|Product Desc: Autodesk Architectural Desktop 2004 |Company: Autodesk,Inc. |WEB Address: www.autodesk.com
 90
    32897
280
     0
281
     0
  0
CLASS
  1
AEC_DISP_REP_ANCHOR_TAG_TO_ENT
  2
AecDbDispRepAnchorTagToEnt
  3
AecScheduleData40|Product Desc: Autodesk Architectural Desktop 2004 |Company: Autodesk,Inc. |WEB Address: www.autodesk.com
 90
    32897
280
     0
281
     0
  0
CLASS
  1
AEC_DISP_REP_ANCHOR_BUB_TO_GRID_RCP
  2
AecDbDispRepAnchorBubToGridRcp
  3
AecStructureBase40|Product Desc: Autodesk Architectural Desktop 2004 |Company: Autodesk,Inc. |WEB Address: www.autodesk.com
 90
    32897
280
     0
281
     0
  0
CLASS
  1
AEC_DISP_REP_COLUMN_GRID_RCP
  2
AecDbDispRepColumnGridRcp
  3
AecStructureBase40|Product Desc: Autodesk Architectural Desktop 2004 |Company: Autodesk,Inc. |WEB Address: www.autodesk.com
 90
    32897
280
     0
281
     0
  0
CLASS
  1
AECS_DISP_REP_MEMBER_ELEVATION_DESIGN
  2
AecsDbDispRepMemberElevationDesign
  3
AecStructureBase40|Product Desc: Autodesk Architectural Desktop 2004 |Company: Autodesk,Inc. |WEB Address: www.autodesk.com
 90
    32897
280
     0
281
     0
  0
CLASS
  1
AECS_DISP_PROPS_MEMBER_PROJECTED
  2
AecsDbDispPropsMemberProjected
  3
AecStructureBase40|Product Desc: Autodesk Architectural Desktop 2004 |Company: Autodesk,Inc. |WEB Address: www.autodesk.com
 90
    32897
280
     0
281
     0
  0
CLASS
  1
AECS_DISP_REP_MEMBER_ELEVATION_DETAIL
  2
AecsDbDispRepMemberElevationDetail
  3
AecStructureBase40|Product Desc: Autodesk Architectural Desktop 2004 |Company: Autodesk,Inc. |WEB Address: www.autodesk.com
 90
    32897
280
     0
281
     0
  0
CLASS
  1
AECS_DISP_REP_MEMBER_LOGICAL
  2
AecsDbDispRepMemberLogical
  3
AecStructureBase40|Product Desc: Autodesk Architectural Desktop 2004 |Company: Autodesk,Inc. |WEB Address: www.autodesk.com
 90
    32897
280
     0
281
     0
  0
CLASS
  1
AECS_DISP_PROPS_MEMBER_LOGICAL
  2
AecsDbDispPropsMemberLogical
  3
AecStructureBase40|Product Desc: Autodesk Architectural Desktop 2004 |Company: Autodesk,Inc. |WEB Address: www.autodesk.com
 90
    32897
280
     0
281
     0
  0
CLASS
  1
AECS_DISP_REP_MEMBER_MODEL_DETAIL
  2
AecsDbDispRepMemberModelDetail
  3
AecStructureBase40|Product Desc: Autodesk Architectural Desktop 2004 |Company: Autodesk,Inc. |WEB Address: www.autodesk.com
 90
    32897
280
     0
281
     0
  0
CLASS
  1
AECS_DISP_REP_MEMBER_PLAN_DETAIL
  2
AecsDbDispRepMemberPlanDetail
  3
AecStructureBase40|Product Desc: Autodesk Architectural Desktop 2004 |Company: Autodesk,Inc. |WEB Address: www.autodesk.com
 90
    32897
280
     0
281
     0
  0
CLASS
  1
AECS_DISP_REP_MEMBER_PLAN_SKETCH
  2
AecsDbDispRepMemberPlanSketch
  3
AecStructureBase40|Product Desc: Autodesk Architectural Desktop 2004 |Company: Autodesk,Inc. |WEB Address: www.autodesk.com
 90
    32897
280
     0
281
     0
  0
CLASS
  1
AECS_DISP_PROPS_MEMBER_PLAN_SKETCH
  2
AecsDbDispPropsMemberPlanSketch
  3
AecStructureBase40|Product Desc: Autodesk Architectural Desktop 2004 |Company: Autodesk,Inc. |WEB Address: www.autodesk.com
 90
    32897
280
     0
281
     0
  0
CLASS
  1
AEC_DISP_REP_BDG_ELEVLINE_RCP
  2
AecDbDispRepBdgElevLineRcp
  3
AecArchBase40|Product Desc: Autodesk Architectural Desktop 2004 |Company: Autodesk,Inc. |WEB Address: www.autodesk.com
 90
    32897
280
     0
281
     0
  0
CLASS
  1
AEC_DISP_REP_BDG_SECTIONLINE_RCP
  2
AecDbDispRepBdgSectionLineRcp
  3
AecArchBase40|Product Desc: Autodesk Architectural Desktop 2004 |Company: Autodesk,Inc. |WEB Address: www.autodesk.com
 90
    32897
280
     0
281
     0
  0
CLASS
  1
AEC_DISP_REP_BDG_SECTION_MODEL
  2
AecDbDispRepBdgSectionModel
  3
AecArchBase40|Product Desc: Autodesk Architectural Desktop 2004 |Company: Autodesk,Inc. |WEB Address: www.autodesk.com
 90
    32897
280
     0
281
     0
  0
CLASS
  1
AEC_DISP_REP_CEILING_GRID_RCP
  2
AecDbDispRepCeilingGridRcp
  3
AecArchBase40|Product Desc: Autodesk Architectural Desktop 2004 |Company: Autodesk,Inc. |WEB Address: www.autodesk.com
 90
    32897
280
     0
281
     0
  0
CLASS
  1
AEC_DISP_REP_DOOR_ELEV
  2
AecDbDispRepDoorElev
  3
AecArchBase40|Product Desc: Autodesk Architectural Desktop 2004 |Company: Autodesk,Inc. |WEB Address: www.autodesk.com
 90
    32897
280
     0
281
     0
  0
CLASS
  1
AEC_DISP_REP_DOOR_NOMINAL
  2
AecDbDispRepDoorNominal
  3
AecArchBase40|Product Desc: Autodesk Architectural Desktop 2004 |Company: Autodesk,Inc. |WEB Address: www.autodesk.com
 90
    32897
280
     0
281
     0
  0
CLASS
  1
AEC_DISP_PROPS_DOOR_NOMINAL
  2
AecDbDispPropsDoorNominal
  3
AecArchBase40|Product Desc: Autodesk Architectural Desktop 2004 |Company: Autodesk,Inc. |WEB Address: www.autodesk.com
 90
    32897
280
     0
281
     0
  0
CLASS
  1
AEC_DISP_REP_DOOR_RCP
  2
AecDbDispRepDoorRcp
  3
AecArchBase40|Product Desc: Autodesk Architectural Desktop 2004 |Company: Autodesk,Inc. |WEB Address: www.autodesk.com
 90
    32897
280
     0
281
     0
  0
CLASS
  1
AEC_DISP_REP_MASKBLOCK_REF_RCP
  2
AecDbDispRepMaskBlockRefRcp
  3
AecArchBase40|Product Desc: Autodesk Architectural Desktop 2004 |Company: Autodesk,Inc. |WEB Address: www.autodesk.com
 90
    32897
280
     0
281
     0
  0
CLASS
  1
AEC_DISP_REP_MASS_ELEM_RCP
  2
AecDbDispRepMassElemRcp
  3
AecArchBase40|Product Desc: Autodesk Architectural Desktop 2004 |Company: Autodesk,Inc. |WEB Address: www.autodesk.com
 90
    32897
280
     0
281
     0
  0
CLASS
  1
AEC_DISP_REP_MASS_GROUP_RCP
  2
AecDbDispRepMassGroupRcp
  3
AecArchBase40|Product Desc: Autodesk Architectural Desktop 2004 |Company: Autodesk,Inc. |WEB Address: www.autodesk.com
 90
    32897
280
     0
281
     0
  0
CLASS
  1
AEC_DISP_REP_MVBLOCK_REF_RCP
  2
AecDbDispRepMvBlockRefRcp
  3
AecArchBase40|Product Desc: Autodesk Architectural Desktop 2004 |Company: Autodesk,Inc. |WEB Address: www.autodesk.com
 90
    32897
280
     0
281
     0
  0
CLASS
  1
AEC_DISP_REP_ROOF_RCP
  2
AecDbDispRepRoofRcp
  3
AecArchBase40|Product Desc: Autodesk Architectural Desktop 2004 |Company: Autodesk,Inc. |WEB Address: www.autodesk.com
 90
    32897
280
     0
281
     0
  0
CLASS
  1
AEC_DISP_REP_SPACE_BOUNDARY_DIAGRAM
  2
AecDbDispRepSpaceBoundaryDgrm
  3
AecArchBase40|Product Desc: Autodesk Architectural Desktop 2004 |Company: Autodesk,Inc. |WEB Address: www.autodesk.com
 90
    32897
280
     0
281
     0
  0
CLASS
  1
AEC_DISP_REP_SPACE_BOUNDARY_SCHEM
  2
AecDbDispRepSpaceBoundarySketch
  3
AecArchBase40|Product Desc: Autodesk Architectural Desktop 2004 |Company: Autodesk,Inc. |WEB Address: www.autodesk.com
 90
    32897
280
     0
281
     0
  0
CLASS
  1
AEC_DISP_REP_SPACE_RCP
  2
AecDbDispRepSpaceRcp
  3
AecArchBase40|Product Desc: Autodesk Architectural Desktop 2004 |Company: Autodesk,Inc. |WEB Address: www.autodesk.com
 90
    32897
280
     0
281
     0
  0
CLASS
  1
AEC_DISP_REP_SPACE_VOLUME
  2
AecDbDispRepSpaceVolume
  3
AecArchBase40|Product Desc: Autodesk Architectural Desktop 2004 |Company: Autodesk,Inc. |WEB Address: www.autodesk.com
 90
    32897
280
     0
281
     0
  0
CLASS
  1
AEC_DISP_REP_STAIR_PLAN_OVERLAPPING
  2
AecDbDispRepStairPlanOverlapping
  3
AecArchBase40|Product Desc: Autodesk Architectural Desktop 2004 |Company: Autodesk,Inc. |WEB Address: www.autodesk.com
 90
    32897
280
     0
281
     0
  0
CLASS
  1
AEC_DISP_PROPS_STAIR_PLAN_OVERLAPPING
  2
AecDbDispPropsStairPlanOverlapping
  3
AecArchBase40|Product Desc: Autodesk Architectural Desktop 2004 |Company: Autodesk,Inc. |WEB Address: www.autodesk.com
 90
    32897
280
     0
281
     0
  0
CLASS
  1
AEC_DISP_REP_STAIR_RCP
  2
AecDbDispRepStairRcp
  3
AecArchBase40|Product Desc: Autodesk Architectural Desktop 2004 |Company: Autodesk,Inc. |WEB Address: www.autodesk.com
 90
    32897
280
     0
281
     0
  0
CLASS
  1
AEC_DISP_REP_WALL_GRAPH
  2
AecDbDispRepWallGraph
  3
AecArchBase40|Product Desc: Autodesk Architectural Desktop 2004 |Company: Autodesk,Inc. |WEB Address: www.autodesk.com
 90
    32897
280
     0
281
     0
  0
CLASS
  1
AEC_DISP_PROPS_WALL_GRAPH
  2
AecDbDispPropsWallGraph
  3
AecArchBase40|Product Desc: Autodesk Architectural Desktop 2004 |Company: Autodesk,Inc. |WEB Address: www.autodesk.com
 90
    32897
280
     0
281
     0
  0
CLASS
  1
AEC_DISP_REP_WALL_RCP
  2
AecDbDispRepWallRcp
  3
AecArchBase40|Product Desc: Autodesk Architectural Desktop 2004 |Company: Autodesk,Inc. |WEB Address: www.autodesk.com
 90
    32897
280
     0
281
     0
  0
CLASS
  1
AEC_DISP_REP_WALL_SCHEM
  2
AecDbDispRepWallSchem
  3
AecArchBase40|Product Desc: Autodesk Architectural Desktop 2004 |Company: Autodesk,Inc. |WEB Address: www.autodesk.com
 90
    32897
280
     0
281
     0
  0
CLASS
  1
AEC_DISP_PROPS_WALL_SCHEM
  2
AecDbDispPropsWallSchem
  3
AecArchBase40|Product Desc: Autodesk Architectural Desktop 2004 |Company: Autodesk,Inc. |WEB Address: www.autodesk.com
 90
    32897
280
     0
281
     0
  0
CLASS
  1
AEC_DISP_REP_WINDOWASSEMBLY_SILL_PLAN
  2
AecDbDispRepWindowAssemblySillPlan
  3
AecArchBase40|Product Desc: Autodesk Architectural Desktop 2004 |Company: Autodesk,Inc. |WEB Address: www.autodesk.com
 90
    32897
280
     0
281
     0
  0
CLASS
  1
AEC_DISP_PROPS_WINDOW_ASSEMBLY_SILL_PLAN
  2
AecDbDispPropsWindowAssemblySillPlan
  3
AecArchBase40|Product Desc: Autodesk Architectural Desktop 2004 |Company: Autodesk,Inc. |WEB Address: www.autodesk.com
 90
    32897
280
     0
281
     0
  0
CLASS
  1
AEC_DISP_REP_WINDOW_ELEV
  2
AecDbDispRepWindowElev
  3
AecArchBase40|Product Desc: Autodesk Architectural Desktop 2004 |Company: Autodesk,Inc. |WEB Address: www.autodesk.com
 90
    32897
280
     0
281
     0
  0
CLASS
  1
AEC_DISP_REP_WINDOW_NOMINAL
  2
AecDbDispRepWindowNominal
  3
AecArchBase40|Product Desc: Autodesk Architectural Desktop 2004 |Company: Autodesk,Inc. |WEB Address: www.autodesk.com
 90
    32897
280
     0
281
     0
  0
CLASS
  1
AEC_DISP_PROPS_WINDOW_NOMINAL
  2
AecDbDispPropsWindowNominal
  3
AecArchBase40|Product Desc: Autodesk Architectural Desktop 2004 |Company: Autodesk,Inc. |WEB Address: www.autodesk.com
 90
    32897
280
     0
281
     0
  0
CLASS
  1
AEC_DISP_REP_WINDOW_RCP
  2
AecDbDispRepWindowRcp
  3
AecArchBase40|Product Desc: Autodesk Architectural Desktop 2004 |Company: Autodesk,Inc. |WEB Address: www.autodesk.com
 90
    32897
280
     0
281
     0
  0
CLASS
  1
AEC_DISP_REP_AREA_DECOMPOSED
  2
AecDbDispRepAreaDecomposed
  3
AecAreaCalculationBase40|Product Desc: Autodesk Architectural Desktop 2004 |Company: Autodesk,Inc. |WEB Address: www.autodesk.com
 90
    32897
280
     0
281
     0
  0
CLASS
  1
AEC_DISP_PROPS_AREA_DECOMPOSED
  2
AecDbDispPropsAreaDecomposed
  3
AecAreaCalculationBase40|Product Desc: Autodesk Architectural Desktop 2004 |Company: Autodesk,Inc. |WEB Address: www.autodesk.com
 90
    32897
280
     0
281
     0
  0
CLASS
  1
AEC_AECDBDISPREPAREA100
  2
AecDbDispRepArea100
  3
AecBase40|Product Desc: Autodesk Architectural Desktop 2004 |Company: Autodesk,Inc. |WEB Address: www.autodesk.com
 90
    32897
280
     0
281
     0
  0
CLASS
  1
AEC_AECDBDISPREPAREAGROUP100
  2
AecDbDispRepAreaGroup100
  3
AecBase40|Product Desc: Autodesk Architectural Desktop 2004 |Company: Autodesk,Inc. |WEB Address: www.autodesk.com
 90
    32897
280
     0
281
     0
  0
CLASS
  1
AEC_AECDBDISPREPBDGELEVLINEPLAN100
  2
AecDbDispRepBdgElevLinePlan100
  3
AecBase40|Product Desc: Autodesk Architectural Desktop 2004 |Company: Autodesk,Inc. |WEB Address: www.autodesk.com
 90
    32897
280
     0
281
     0
  0
CLASS
  1
AEC_AECDBDISPREPBDGSECTIONLINEPLAN100
  2
AecDbDispRepBdgSectionLinePlan100
  3
AecBase40|Product Desc: Autodesk Architectural Desktop 2004 |Company: Autodesk,Inc. |WEB Address: www.autodesk.com
 90
    32897
280
     0
281
     0
  0
CLASS
  1
AEC_AECDBDISPREPCEILINGGRIDPLAN100
  2
AecDbDispRepCeilingGridPlan100
  3
AecBase40|Product Desc: Autodesk Architectural Desktop 2004 |Company: Autodesk,Inc. |WEB Address: www.autodesk.com
 90
    32897
280
     0
281
     0
  0
CLASS
  1
AEC_AECDBDISPREPCOLUMNGRIDPLAN100
  2
AecDbDispRepColumnGridPlan100
  3
AecBase40|Product Desc: Autodesk Architectural Desktop 2004 |Company: Autodesk,Inc. |WEB Address: www.autodesk.com
 90
    32897
280
     0
281
     0
  0
CLASS
  1
AEC_AECDBDISPREPCURTAINWALLLAYOUTPLAN100
  2
AecDbDispRepCurtainWallLayoutPlan100
  3
AecBase40|Product Desc: Autodesk Architectural Desktop 2004 |Company: Autodesk,Inc. |WEB Address: www.autodesk.com
 90
    32897
280
     0
281
     0
  0
CLASS
  1
AEC_AECDBDISPREPCURTAINWALLUNITPLAN100
  2
AecDbDispRepCurtainWallUnitPlan100
  3
AecBase40|Product Desc: Autodesk Architectural Desktop 2004 |Company: Autodesk,Inc. |WEB Address: www.autodesk.com
 90
    32897
280
     0
281
     0
  0
CLASS
  1
AEC_AECDBDISPREPMVBLOCKREFPLAN100
  2
AecDbDispRepMvBlockRefPlan100
  3
AecBase40|Product Desc: Autodesk Architectural Desktop 2004 |Company: Autodesk,Inc. |WEB Address: www.autodesk.com
 90
    32897
280
     0
281
     0
  0
CLASS
  1
AEC_AECDBDISPREPROOFPLAN100
  2
AecDbDispRepRoofPlan100
  3
AecBase40|Product Desc: Autodesk Architectural Desktop 2004 |Company: Autodesk,Inc. |WEB Address: www.autodesk.com
 90
    32897
280
     0
281
     0
  0
CLASS
  1
AEC_AECDBDISPREPROOFSLABPLAN100
  2
AecDbDispRepRoofSlabPlan100
  3
AecBase40|Product Desc: Autodesk Architectural Desktop 2004 |Company: Autodesk,Inc. |WEB Address: www.autodesk.com
 90
    32897
280
     0
281
     0
  0
CLASS
  1
AEC_AECDBDISPREPSLABPLAN100
  2
AecDbDispRepSlabPlan100
  3
AecBase40|Product Desc: Autodesk Architectural Desktop 2004 |Company: Autodesk,Inc. |WEB Address: www.autodesk.com
 90
    32897
280
     0
281
     0
  0
CLASS
  1
AEC_AECDBDISPREPSPACEBOUNDARYPLAN100
  2
AecDbDispRepSpaceBoundaryPlan100
  3
AecBase40|Product Desc: Autodesk Architectural Desktop 2004 |Company: Autodesk,Inc. |WEB Address: www.autodesk.com
 90
    32897
280
     0
281
     0
  0
CLASS
  1
AEC_AECDBDISPREPSPACEPLAN100
  2
AecDbDispRepSpacePlan100
  3
AecBase40|Product Desc: Autodesk Architectural Desktop 2004 |Company: Autodesk,Inc. |WEB Address: www.autodesk.com
 90
    32897
280
     0
281
     0
  0
CLASS
  1
AEC_AECDBDISPREPWALLPLAN100
  2
AecDbDispRepWallPlan100
  3
AecBase40|Product Desc: Autodesk Architectural Desktop 2004 |Company: Autodesk,Inc. |WEB Address: www.autodesk.com
 90
    32897
280
     0
281
     0
  0
CLASS
  1
AEC_AECDBDISPREPWINDOWASSEMBLYPLAN100
  2
AecDbDispRepWindowAssemblyPlan100
  3
AecBase40|Product Desc: Autodesk Architectural Desktop 2004 |Company: Autodesk,Inc. |WEB Address: www.autodesk.com
 90
    32897
280
     0
281
     0
  0
CLASS
  1
AEC_AECDBDISPREPAREA50
  2
AecDbDispRepArea50
  3
AecBase40|Product Desc: Autodesk Architectural Desktop 2004 |Company: Autodesk,Inc. |WEB Address: www.autodesk.com
 90
    32897
280
     0
281
     0
  0
CLASS
  1
AEC_AECDBDISPREPAREAGROUP50
  2
AecDbDispRepAreaGroup50
  3
AecBase40|Product Desc: Autodesk Architectural Desktop 2004 |Company: Autodesk,Inc. |WEB Address: www.autodesk.com
 90
    32897
280
     0
281
     0
  0
CLASS
  1
AEC_AECDBDISPREPBDGELEVLINEPLAN50
  2
AecDbDispRepBdgElevLinePlan50
  3
AecBase40|Product Desc: Autodesk Architectural Desktop 2004 |Company: Autodesk,Inc. |WEB Address: www.autodesk.com
 90
    32897
280
     0
281
     0
  0
CLASS
  1
AEC_AECDBDISPREPBDGSECTIONLINEPLAN50
  2
AecDbDispRepBdgSectionLinePlan50
  3
AecBase40|Product Desc: Autodesk Architectural Desktop 2004 |Company: Autodesk,Inc. |WEB Address: www.autodesk.com
 90
    32897
280
     0
281
     0
  0
CLASS
  1
AEC_AECDBDISPREPCEILINGGRIDPLAN50
  2
AecDbDispRepCeilingGridPlan50
  3
AecBase40|Product Desc: Autodesk Architectural Desktop 2004 |Company: Autodesk,Inc. |WEB Address: www.autodesk.com
 90
    32897
280
     0
281
     0
  0
CLASS
  1
AEC_AECDBDISPREPCOLUMNGRIDPLAN50
  2
AecDbDispRepColumnGridPlan50
  3
AecBase40|Product Desc: Autodesk Architectural Desktop 2004 |Company: Autodesk,Inc. |WEB Address: www.autodesk.com
 90
    32897
280
     0
281
     0
  0
CLASS
  1
AEC_AECDBDISPREPCURTAINWALLLAYOUTPLAN50
  2
AecDbDispRepCurtainWallLayoutPlan50
  3
AecBase40|Product Desc: Autodesk Architectural Desktop 2004 |Company: Autodesk,Inc. |WEB Address: www.autodesk.com
 90
    32897
280
     0
281
     0
  0
CLASS
  1
AEC_AECDBDISPREPCURTAINWALLUNITPLAN50
  2
AecDbDispRepCurtainWallUnitPlan50
  3
AecBase40|Product Desc: Autodesk Architectural Desktop 2004 |Company: Autodesk,Inc. |WEB Address: www.autodesk.com
 90
    32897
280
     0
281
     0
  0
CLASS
  1
AEC_AECDBDISPREPMVBLOCKREFPLAN50
  2
AecDbDispRepMvBlockRefPlan50
  3
AecBase40|Product Desc: Autodesk Architectural Desktop 2004 |Company: Autodesk,Inc. |WEB Address: www.autodesk.com
 90
    32897
280
     0
281
     0
  0
CLASS
  1
AEC_AECDBDISPREPROOFPLAN50
  2
AecDbDispRepRoofPlan50
  3
AecBase40|Product Desc: Autodesk Architectural Desktop 2004 |Company: Autodesk,Inc. |WEB Address: www.autodesk.com
 90
    32897
280
     0
281
     0
  0
CLASS
  1
AEC_AECDBDISPREPROOFSLABPLAN50
  2
AecDbDispRepRoofSlabPlan50
  3
AecBase40|Product Desc: Autodesk Architectural Desktop 2004 |Company: Autodesk,Inc. |WEB Address: www.autodesk.com
 90
    32897
280
     0
281
     0
  0
CLASS
  1
AEC_AECDBDISPREPSLABPLAN50
  2
AecDbDispRepSlabPlan50
  3
AecBase40|Product Desc: Autodesk Architectural Desktop 2004 |Company: Autodesk,Inc. |WEB Address: www.autodesk.com
 90
    32897
280
     0
281
     0
  0
CLASS
  1
AEC_AECDBDISPREPSPACEBOUNDARYPLAN50
  2
AecDbDispRepSpaceBoundaryPlan50
  3
AecBase40|Product Desc: Autodesk Architectural Desktop 2004 |Company: Autodesk,Inc. |WEB Address: www.autodesk.com
 90
    32897
280
     0
281
     0
  0
CLASS
  1
AEC_AECDBDISPREPSPACEPLAN50
  2
AecDbDispRepSpacePlan50
  3
AecBase40|Product Desc: Autodesk Architectural Desktop 2004 |Company: Autodesk,Inc. |WEB Address: www.autodesk.com
 90
    32897
280
     0
281
     0
  0
CLASS
  1
AEC_AECDBDISPREPWALLPLAN50
  2
AecDbDispRepWallPlan50
  3
AecBase40|Product Desc: Autodesk Architectural Desktop 2004 |Company: Autodesk,Inc. |WEB Address: www.autodesk.com
 90
    32897
280
     0
281
     0
  0
CLASS
  1
AEC_AECDBDISPREPWINDOWASSEMBLYPLAN50
  2
AecDbDispRepWindowAssemblyPlan50
  3
AecBase40|Product Desc: Autodesk Architectural Desktop 2004 |Company: Autodesk,Inc. |WEB Address: www.autodesk.com
 90
    32897
280
     0
281
     0
  0
CLASS
  1
AEC_DB_DISP_REP_DIM_GROUP_PLAN100
  2
AecDbDispRepDimGroupPlan100
  3
AecArchDACHBase40|Product Desc: Autodesk Architectural Desktop 2004 |Company: Autodesk,Inc. |WEB Address: www.autodesk.com
 90
    32897
280
     0
281
     0
  0
CLASS
  1
AEC_DB_DISP_REP_DIM_GROUP_PLAN50
  2
AecDbDispRepDimGroupPlan50
  3
AecArchDACHBase40|Product Desc: Autodesk Architectural Desktop 2004 |Company: Autodesk,Inc. |WEB Address: www.autodesk.com
 90
    32897
280
     0
281
     0
  0
CLASS
  1
AEC_DISP_REP_DOOR_PLAN_50
  2
AecDbDispRepDoorPlan50
  3
AecArchDACHBase40|Product Desc: Autodesk Architectural Desktop 2004 |Company: Autodesk,Inc. |WEB Address: www.autodesk.com
 90
    32897
280
     0
281
     0
  0
CLASS
  1
AEC_DISP_PROPS_DOOR_PLAN_50
  2
AecDbDispPropsDoorPlan50
  3
AecArchDACHBase40|Product Desc: Autodesk Architectural Desktop 2004 |Company: Autodesk,Inc. |WEB Address: www.autodesk.com
 90
    32897
280
     0
281
     0
  0
CLASS
  1
AEC_DISP_REP_DOOR_PLAN_HEKTO
  2
AecDbDispRepDoorPlanHekto
  3
AecArchDACHBase40|Product Desc: Autodesk Architectural Desktop 2004 |Company: Autodesk,Inc. |WEB Address: www.autodesk.com
 90
    32897
280
     0
281
     0
  0
CLASS
  1
AEC_DISP_PROPS_DOOR_PLAN_100
  2
AecDbDispPropsDoorPlan100
  3
AecArchDACHBase40|Product Desc: Autodesk Architectural Desktop 2004 |Company: Autodesk,Inc. |WEB Address: www.autodesk.com
 90
    32897
280
     0
281
     0
  0
CLASS
  1
AEC_DISP_REP_DOOR_THRESHOLD_SYMBOL_PLAN
  2
AecDbDispRepDoorThresholdSymbolPlan
  3
AecArchDACHBase40|Product Desc: Autodesk Architectural Desktop 2004 |Company: Autodesk,Inc. |WEB Address: www.autodesk.com
 90
    32897
280
     0
281
     0
  0
CLASS
  1
AEC_DISP_PROPS_DOOR_THRESHOLD_SYMBOL_PLAN
  2
AecDbDispPropsDoorThresholdSymbolPlan
  3
AecArchDACHBase40|Product Desc: Autodesk Architectural Desktop 2004 |Company: Autodesk,Inc. |WEB Address: www.autodesk.com
 90
    32897
280
     0
281
     0
  0
CLASS
  1
AEC_DISPREPAECDBDISPREPMASSELEMPLAN100
  2
AecDbDispRepMassElemPlan100
  3
AecArchDACHBase40|Product Desc: Autodesk Architectural Desktop 2004 |Company: Autodesk,Inc. |WEB Address: www.autodesk.com
 90
    32897
280
     0
281
     0
  0
CLASS
  1
AEC_DISPROPSMASSELEMPLANCOMMON
  2
AecDbDispPropsMassElemPlanCommon
  3
AecArchDACHBase40|Product Desc: Autodesk Architectural Desktop 2004 |Company: Autodesk,Inc. |WEB Address: www.autodesk.com
 90
    32897
280
     0
281
     0
  0
CLASS
  1
AEC_DISPREPAECDBDISPREPMASSELEMPLAN50
  2
AecDbDispRepMassElemPlan50
  3
AecArchDACHBase40|Product Desc: Autodesk Architectural Desktop 2004 |Company: Autodesk,Inc. |WEB Address: www.autodesk.com
 90
    32897
280
     0
281
     0
  0
CLASS
  1
AEC_DISPREPAECDBDISPREPMASSGROUPPLAN100
  2
AecDbDispRepMassGroupPlan100
  3
AecArchDACHBase40|Product Desc: Autodesk Architectural Desktop 2004 |Company: Autodesk,Inc. |WEB Address: www.autodesk.com
 90
    32897
280
     0
281
     0
  0
CLASS
  1
AEC_DISPROPSMASSGROUPPLANCOMMON
  2
AecDbDispPropsMassGroupPlanCommon
  3
AecArchDACHBase40|Product Desc: Autodesk Architectural Desktop 2004 |Company: Autodesk,Inc. |WEB Address: www.autodesk.com
 90
    32897
280
     0
281
     0
  0
CLASS
  1
AEC_DISPREPAECDBDISPREPMASSGROUPPLAN50
  2
AecDbDispRepMassGroupPlan50
  3
AecArchDACHBase40|Product Desc: Autodesk Architectural Desktop 2004 |Company: Autodesk,Inc. |WEB Address: www.autodesk.com
 90
    32897
280
     0
281
     0
  0
CLASS
  1
AEC_DISPREPAECDBDISPREPOPENINGPLAN100
  2
AecDbDispRepOpeningPlan100
  3
AecArchDACHBase40|Product Desc: Autodesk Architectural Desktop 2004 |Company: Autodesk,Inc. |WEB Address: www.autodesk.com
 90
    32897
280
     0
281
     0
  0
CLASS
  1
AEC_DISPROPSOPENINGPLANCOMMONHATCHED
  2
AecDbDispPropsOpeningPlanCommonHatched
  3
AecArchDACHBase40|Product Desc: Autodesk Architectural Desktop 2004 |Company: Autodesk,Inc. |WEB Address: www.autodesk.com
 90
    32897
280
     0
281
     0
  0
CLASS
  1
AEC_DISPREPAECDBDISPREPOPENINGPLAN50
  2
AecDbDispRepOpeningPlan50
  3
AecArchDACHBase40|Product Desc: Autodesk Architectural Desktop 2004 |Company: Autodesk,Inc. |WEB Address: www.autodesk.com
 90
    32897
280
     0
281
     0
  0
CLASS
  1
AEC_DISPREPAECDBDISPREPOPENINGPLANREFLECTED
  2
AecDbDispRepOpeningPlanReflected
  3
AecArchDACHBase40|Product Desc: Autodesk Architectural Desktop 2004 |Company: Autodesk,Inc. |WEB Address: www.autodesk.com
 90
    32897
280
     0
281
     0
  0
CLASS
  1
AEC_DISPROPSOPENINGPLANCOMMON
  2
AecDbDispPropsOpeningPlanCommon
  3
AecArchDACHBase40|Product Desc: Autodesk Architectural Desktop 2004 |Company: Autodesk,Inc. |WEB Address: www.autodesk.com
 90
    32897
280
     0
281
     0
  0
CLASS
  1
AEC_DISPREPAECDBDISPREPOPENINGSILLPLAN
  2
AecDbDispRepOpeningSillPlan
  3
AecArchDACHBase40|Product Desc: Autodesk Architectural Desktop 2004 |Company: Autodesk,Inc. |WEB Address: www.autodesk.com
 90
    32897
280
     0
281
     0
  0
CLASS
  1
AEC_DISPROPSOPENINGSILLPLAN
  2
AecDbDispPropsOpeningSillPlan
  3
AecArchDACHBase40|Product Desc: Autodesk Architectural Desktop 2004 |Company: Autodesk,Inc. |WEB Address: www.autodesk.com
 90
    32897
280
     0
281
     0
  0
CLASS
  1
AEC_DISP_REP_RAILING_PLAN_100
  2
AecDbDispRepRailingPlan100
  3
AecArchDACHBase40|Product Desc: Autodesk Architectural Desktop 2004 |Company: Autodesk,Inc. |WEB Address: www.autodesk.com
 90
    32897
280
     0
281
     0
  0
CLASS
  1
AEC_DISP_ROPS_RAILING_PLAN_100
  2
AecDbDispPropsRailingPlan100
  3
AecArchDACHBase40|Product Desc: Autodesk Architectural Desktop 2004 |Company: Autodesk,Inc. |WEB Address: www.autodesk.com
 90
    32897
280
     0
281
     0
  0
CLASS
  1
AEC_DISP_REP_RAILING_PLAN_50
  2
AecDbDispRepRailingPlan50
  3
AecArchDACHBase40|Product Desc: Autodesk Architectural Desktop 2004 |Company: Autodesk,Inc. |WEB Address: www.autodesk.com
 90
    32897
280
     0
281
     0
  0
CLASS
  1
AEC_DISP_ROPS_RAILING_PLAN_50
  2
AecDbDispPropsRailingPlan50
  3
AecArchDACHBase40|Product Desc: Autodesk Architectural Desktop 2004 |Company: Autodesk,Inc. |WEB Address: www.autodesk.com
 90
    32897
280
     0
281
     0
  0
CLASS
  1
AEC_DISP_REP_STAIR_PLAN_100
  2
AecDbDispRepStairPlan100
  3
AecArchDACHBase40|Product Desc: Autodesk Architectural Desktop 2004 |Company: Autodesk,Inc. |WEB Address: www.autodesk.com
 90
    32897
280
     0
281
     0
  0
CLASS
  1
AEC_DISP_ROPS_STAIR_PLAN_100
  2
AecDbDispPropsStairPlan100
  3
AecArchDACHBase40|Product Desc: Autodesk Architectural Desktop 2004 |Company: Autodesk,Inc. |WEB Address: www.autodesk.com
 90
    32897
280
     0
281
     0
  0
CLASS
  1
AEC_DISP_REP_STAIR_PLAN_50
  2
AecDbDispRepStairPlan50
  3
AecArchDACHBase40|Product Desc: Autodesk Architectural Desktop 2004 |Company: Autodesk,Inc. |WEB Address: www.autodesk.com
 90
    32897
280
     0
281
     0
  0
CLASS
  1
AEC_DISP_ROPS_STAIR_PLAN_50
  2
AecDbDispPropsStairPlan50
  3
AecArchDACHBase40|Product Desc: Autodesk Architectural Desktop 2004 |Company: Autodesk,Inc. |WEB Address: www.autodesk.com
 90
    32897
280
     0
281
     0
  0
CLASS
  1
AEC_DISP_REP_WINDOW_PLAN_100
  2
AecDbDispRepWindowPlan100
  3
AecArchDACHBase40|Product Desc: Autodesk Architectural Desktop 2004 |Company: Autodesk,Inc. |WEB Address: www.autodesk.com
 90
    32897
280
     0
281
     0
  0
CLASS
  1
AEC_DISP_PROPS_WINDOW_PLAN_100
  2
AecDbDispPropsWindowPlan100
  3
AecArchDACHBase40|Product Desc: Autodesk Architectural Desktop 2004 |Company: Autodesk,Inc. |WEB Address: www.autodesk.com
 90
    32897
280
     0
281
     0
  0
CLASS
  1
AEC_DISP_REP_WINDOW_PLAN_50
  2
AecDbDispRepWindowPlan50
  3
AecArchDACHBase40|Product Desc: Autodesk Architectural Desktop 2004 |Company: Autodesk,Inc. |WEB Address: www.autodesk.com
 90
    32897
280
     0
281
     0
  0
CLASS
  1
AEC_DISP_PROPS_WINDOW_PLAN_50
  2
AecDbDispPropsWindowPlan50
  3
AecArchDACHBase40|Product Desc: Autodesk Architectural Desktop 2004 |Company: Autodesk,Inc. |WEB Address: www.autodesk.com
 90
    32897
280
     0
281
     0
  0
CLASS
  1
BINRECORD
  2
AcAecBinRecord
  3
AecBase40|Product Desc: Autodesk Architectural Desktop 2004 |Company: Autodesk,Inc. |WEB Address: www.autodesk.com
 90
    32897
280
     0
281
     0
  0
ENDSEC
  0
SECTION
  2
TABLES
  0
TABLE
  2
VPORT
  5
154
330
0
100
AcDbSymbolTable
 70
     1
  0
VPORT
  5
155
330
154
100
AcDbSymbolTableRecord
100
AcDbViewportTableRecord
  2
*Active
 70
     0
 10
0.0
 20
0.0
 11
1.0
 21
1.0
 12
116.507261256889
 22
201.5519964668154
 13
0.0
 23
0.0
 14
10.0
 24
10.0
 15
10.0
 25
10.0
 16
0.0
 26
0.0
 36
1.0
 17
0.0
 27
0.0
 37
0.0
 40
294.7370139809624
 41
1.4906600249066
 42
50.0
 43
0.0
 44
0.0
 50
0.0
 51
0.0
 71
     0
 72
   100
 73
     1
 74
     1
 75
     0
 76
     0
 77
     0
 78
     0
281
     0
 65
     1
110
0.0
120
0.0
130
0.0
111
1.0
121
0.0
131
0.0
112
0.0
122
1.0
132
0.0
 79
     0
146
0.0
  0
ENDTAB
  0
TABLE
  2
LTYPE
  5
14F
330
0
100
AcDbSymbolTable
 70
     3
  0
LTYPE
  5
150
330
14F
100
AcDbSymbolTableRecord
100
AcDbLinetypeTableRecord
  2
BYBLOCK
 70
     0
  3

 72
    65
 73
     0
 40
0.0
  0
LTYPE
  5
151
330
14F
100
AcDbSymbolTableRecord
100
AcDbLinetypeTableRecord
  2
BYLAYER
 70
     0
  3

 72
    65
 73
     0
 40
0.0
  0
LTYPE
  5
8
330
14F
100
AcDbSymbolTableRecord
100
AcDbLinetypeTableRecord
  2
CONTINUOUS
 70
     0
  3
Solid line
 72
    65
 73
     0
 40
0.0
  0
LTYPE
  5
20
330
14F
100
AcDbSymbolTableRecord
100
AcDbLinetypeTableRecord
  2
MITTE
 70
     0
  3
Mitte ____ _ ____ _ ____ _ ____ _ ____ _ ____
 72
    65
 73
     4
 40
50.8
 49
31.75
 74
     0
 49
-6.349999999999999
 74
     0
 49
6.349999999999999
 74
     0
 49
-6.349999999999999
 74
     0
  0
LTYPE
  5
C2
330
14F
100
AcDbSymbolTableRecord
100
AcDbLinetypeTableRecord
  2
VERDECKTX2
 70
     0
  3
Verdeckt (2x) ____ ____ ____ ____ ____ ____ ___
 72
    65
 73
     2
 40
0.75
 49
0.5
 74
     0
 49
-0.25
 74
     0
  0
ENDTAB
  0
TABLE
  2
LAYER
  5
14A
102
{ACAD_XDICTIONARY
360
14B
102
}
330
0
100
AcDbSymbolTable
 70
     8
  0
LAYER
  5
4
330
14A
100
AcDbSymbolTableRecord
100
AcDbLayerTableRecord
  2
0
 70
     0
 62
     7
  6
CONTINUOUS
370
    -3
390
5
  0
LAYER
  5
1C
330
14A
100
AcDbSymbolTableRecord
100
AcDbLayerTableRecord
  2
-PROFILAUSSENKANT
 70
     0
 62
     4
  6
CONTINUOUS
370
    -3
390
5
  0
LAYER
  5
1F
330
14A
100
AcDbSymbolTableRecord
100
AcDbLayerTableRecord
  2
-SYSTEM
 70
     0
 62
     2
  6
MITTE
370
    -3
390
5
  0
LAYER
  5
17
330
14A
100
AcDbSymbolTableRecord
100
AcDbLayerTableRecord
  2
DEFPOINTS
 70
     0
 62
     7
  6
CONTINUOUS
290
     0
370
    -3
390
5
  0
LAYER
  5
A
330
14A
100
AcDbSymbolTableRecord
100
AcDbLayerTableRecord
  2
-TEXT3
 70
     0
 62
     2
  6
CONTINUOUS
370
    -3
390
5
  0
LAYER
  5
C7
330
14A
100
AcDbSymbolTableRecord
100
AcDbLayerTableRecord
  2
-SCHRAFFUR
 70
     0
 62
     9
  6
CONTINUOUS
370
    -3
390
5
  0
LAYER
  5
DA
330
14A
100
AcDbSymbolTableRecord
100
AcDbLayerTableRecord
  2
-TEXT2
 70
     0
 62
     3
  6
CONTINUOUS
370
    -3
390
5
  0
LAYER
  5
C1
330
14A
100
AcDbSymbolTableRecord
100
AcDbLayerTableRecord
  2
-VERDECKT
 70
     0
 62
     9
  6
VERDECKTX2
370
    -3
390
5
  0
ENDTAB
  0
TABLE
  2
STYLE
  5
14D
330
0
100
AcDbSymbolTable
 70
     1
  0
STYLE
  5
C
330
14D
100
AcDbSymbolTableRecord
100
AcDbTextStyleTableRecord
  2
STANDARD
 70
     0
 40
0.0
 41
1.0
 50
0.0
 71
     0
 42
2.5
  3
GOTHIC.TTF
  4

1001
ACAD
1000
Century Gothic
1071
       34
  0
ENDTAB
  0
TABLE
  2
VIEW
  5
152
330
0
100
AcDbSymbolTable
 70
     0
  0
ENDTAB
  0
TABLE
  2
UCS
  5
153
330
0
100
AcDbSymbolTable
 70
     0
  0
ENDTAB
  0
TABLE
  2
APPID
  5
156
330
0
100
AcDbSymbolTable
 70
     1
  0
APPID
  5
D
330
156
100
AcDbSymbolTableRecord
100
AcDbRegAppTableRecord
  2
ACAD
 70
     0
  0
ENDTAB
  0
TABLE
  2
DIMSTYLE
  5
157
330
0
100
AcDbSymbolTable
 70
     1
100
AcDbDimStyleTable
 71
     1
340
B
  0
DIMSTYLE
105
B
102
{ACAD_REACTORS
330
9
330
34
330
21
330
4F
330
5C
330
CA
330
69
330
76
330
85
330
94
330
A6
330
B3
330
E3
330
10D
330
11B
330
127
330
134
102
}
330
157
100
AcDbSymbolTableRecord
100
AcDbDimStyleTableRecord
  2
1-1
 70
     0
 41
3.0
 42
1.0
 43
3.75
 44
1.25
 73
     0
 74
     0
 77
     1
 78
     8
140
3.5
141
2.5
143
0.0394
147
1.0
171
     4
172
     1
176
   256
177
   256
178
   256
271
     1
272
     1
273
     8
274
     4
284
     8
340
C
  0
ENDTAB
  0
TABLE
  2
BLOCK_RECORD
  5
1
330
0
100
AcDbSymbolTable
 70
    17
  0
BLOCK_RECORD
  5
2
330
1
100
AcDbSymbolTableRecord
100
AcDbBlockTableRecord
  2
*MODEL_SPACE
340
144
  0
BLOCK_RECORD
  5
146
330
1
100
AcDbSymbolTableRecord
100
AcDbBlockTableRecord
  2
*PAPER_SPACE
340
149
  0
BLOCK_RECORD
  5
35
330
1
100
AcDbSymbolTableRecord
100
AcDbBlockTableRecord
  2
*D0
340
0
  0
BLOCK_RECORD
  5
22
330
1
100
AcDbSymbolTableRecord
100
AcDbBlockTableRecord
  2
*D1
340
0
  0
BLOCK_RECORD
  5
E
330
1
100
AcDbSymbolTableRecord
100
AcDbBlockTableRecord
  2
*D2
340
0
  0
BLOCK_RECORD
  5
50
330
1
100
AcDbSymbolTableRecord
100
AcDbBlockTableRecord
  2
*D3
340
0
  0
BLOCK_RECORD
  5
5D
330
1
100
AcDbSymbolTableRecord
100
AcDbBlockTableRecord
  2
*D4
340
0
  0
BLOCK_RECORD
  5
CB
330
1
100
AcDbSymbolTableRecord
100
AcDbBlockTableRecord
  2
*D5
340
0
  0
BLOCK_RECORD
  5
6A
330
1
100
AcDbSymbolTableRecord
100
AcDbBlockTableRecord
  2
*D6
340
0
  0
BLOCK_RECORD
  5
77
330
1
100
AcDbSymbolTableRecord
100
AcDbBlockTableRecord
  2
*D7
340
0
  0
BLOCK_RECORD
  5
86
330
1
100
AcDbSymbolTableRecord
100
AcDbBlockTableRecord
  2
*D8
340
0
  0
BLOCK_RECORD
  5
95
330
1
100
AcDbSymbolTableRecord
100
AcDbBlockTableRecord
  2
*D9
340
0
  0
BLOCK_RECORD
  5
A7
330
1
100
AcDbSymbolTableRecord
100
AcDbBlockTableRecord
  2
*D10
340
0
  0
BLOCK_RECORD
  5
B4
330
1
100
AcDbSymbolTableRecord
100
AcDbBlockTableRecord
  2
*D11
340
0
  0
BLOCK_RECORD
  5
E4
330
1
100
AcDbSymbolTableRecord
100
AcDbBlockTableRecord
  2
*D12
340
0
  0
BLOCK_RECORD
  5
10E
330
1
100
AcDbSymbolTableRecord
100
AcDbBlockTableRecord
  2
*D13
340
0
  0
BLOCK_RECORD
  5
11C
330
1
100
AcDbSymbolTableRecord
100
AcDbBlockTableRecord
  2
*D14
340
0
  0
BLOCK_RECORD
  5
128
330
1
100
AcDbSymbolTableRecord
100
AcDbBlockTableRecord
  2
*D15
340
0
  0
BLOCK_RECORD
  5
135
330
1
100
AcDbSymbolTableRecord
100
AcDbBlockTableRecord
  2
*D16
340
0
  0
ENDTAB
  0
ENDSEC
  0
SECTION
  2
BLOCKS
  0
BLOCK
  5
3
330
2
100
AcDbEntity
  8
0
100
AcDbBlockBegin
  2
*MODEL_SPACE
 70
     0
 10
0.0
 20
0.0
 30
0.0
  3
*MODEL_SPACE
  1

  0
ENDBLK
  5
143
330
2
100
AcDbEntity
  8
0
100
AcDbBlockEnd
  0
BLOCK
  5
147
330
146
100
AcDbEntity
 67
     1
  8
0
100
AcDbBlockBegin
  2
*PAPER_SPACE
 70
     0
 10
0.0
 20
0.0
 30
0.0
  3
*PAPER_SPACE
  1

  0
ENDBLK
  5
148
330
146
100
AcDbEntity
 67
     1
  8
0
100
AcDbBlockEnd
  0
BLOCK
  5
36
330
35
100
AcDbEntity
  8
0
100
AcDbBlockBegin
  2
*D0
 70
     1
 10
0.0
 20
0.0
 30
0.0
  3
*D0
  1

  0
LINE
  5
37
330
35
100
AcDbEntity
  8
-TEXT3
370
    -2
100
AcDbLine
 10
150.2702827820851
 20
120.0663429306551
 30
0.0
 11
150.2702827820851
 21
55.29210810803215
 31
0.0
  0
LINE
  5
38
330
35
100
AcDbEntity
  8
-TEXT3
370
    -2
100
AcDbLine
 10
210.2702827820851
 20
120.0663429306551
 30
0.0
 11
210.2702827820851
 21
55.29210810803215
 31
0.0
  0
LINE
  5
39
330
35
100
AcDbEntity
  8
-TEXT3
370
    -2
100
AcDbLine
 10
153.2702827820851
 20
56.54210810803215
 30
0.0
 11
207.2702827820851
 21
56.54210810803215
 31
0.0
  0
SOLID
  5
3A
330
35
100
AcDbEntity
  8
-TEXT3
100
AcDbTrace
 10
153.2702827820851
 20
57.04210810803215
 30
0.0
 11
153.2702827820851
 21
56.04210810803215
 31
0.0
 12
150.2702827820851
 22
56.54210810803215
 32
0.0
 13
150.2702827820851
 23
56.54210810803215
 33
0.0
  0
SOLID
  5
3B
330
35
100
AcDbEntity
  8
-TEXT3
100
AcDbTrace
 10
207.2702827820851
 20
57.04210810803215
 30
0.0
 11
207.2702827820851
 21
56.04210810803215
 31
0.0
 12
210.2702827820851
 22
56.54210810803215
 32
0.0
 13
210.2702827820851
 23
56.54210810803215
 33
0.0
  0
MTEXT
  5
3C
330
35
100
AcDbEntity
  8
-TEXT3
100
AcDbMText
 10
180.2702827820851
 20
59.48959281231495
 30
0.0
 40
3.5
 41
0.0
 71
     5
 72
     1
  1
\A1;%%c60
 73
     1
 44
1.0
1001
ACAD
1000
MTEXTBEGIN
1070
    73
1070
     1
1070
    44
1040
1.0
1070
    74
1070
     0
1000
MTEXTEND
  0
POINT
  5
3D
330
35
100
AcDbEntity
  8
DEFPOINTS
 62
     0
100
AcDbPoint
 10
150.2702827820851
 20
121.0663429306551
 30
0.0
  0
POINT
  5
3E
330
35
100
AcDbEntity
  8
DEFPOINTS
 62
     0
100
AcDbPoint
 10
210.2702827820851
 20
121.0663429306551
 30
0.0
  0
POINT
  5
3F
330
35
100
AcDbEntity
  8
DEFPOINTS
 62
     0
100
AcDbPoint
 10
210.2702827820851
 20
56.54210810803215
 30
0.0
  0
ENDBLK
  5
40
330
35
100
AcDbEntity
  8
0
100
AcDbBlockEnd
  0
BLOCK
  5
23
330
22
100
AcDbEntity
  8
0
100
AcDbBlockBegin
  2
*D1
 70
     1
 10
0.0
 20
0.0
 30
0.0
  3
*D1
  1

  0
LINE
  5
24
330
22
100
AcDbEntity
  8
-TEXT3
370
    -2
100
AcDbLine
 10
106.9967631155666
 20
111.0466568984135
 30
0.0
 11
93.3965464755694
 21
110.7788707012095
 31
0.0
  0
LINE
  5
25
330
22
100
AcDbEntity
  8
-TEXT3
370
    -2
100
AcDbLine
 10
106.6029661573381
 20
131.0466568984137
 30
0.0
 11
93.00274951734092
 21
130.7788707012097
 31
0.0
  0
LINE
  5
26
330
22
100
AcDbEntity
  8
-TEXT3
370
    -2
100
AcDbLine
 10
94.58724614295864
 20
113.8028968753818
 30
0.0
 11
94.31156537817734
 21
127.8040596076404
 31
0.0
  0
SOLID
  5
27
330
22
100
AcDbEntity
  8
-TEXT3
100
AcDbTrace
 10
95.08714924860377
 20
113.8127398915024
 30
0.0
 11
94.0873430373135
 21
113.7930538592612
 31
0.0
 12
94.64630423968223
 22
110.803478241511
 32
0.0
 13
94.64630423968223
 23
110.803478241511
 33
0.0
  0
SOLID
  5
28
330
22
100
AcDbEntity
  8
-TEXT3
100
AcDbTrace
 10
94.8114684838225
 20
127.813902623761
 30
0.0
 11
93.81166227253222
 21
127.7942165915198
 31
0.0
 12
94.25250728145375
 22
130.8034782415112
 32
0.0
 13
94.25250728145375
 23
130.8034782415112
 33
0.0
  0
MTEXT
  5
29
330
22
100
AcDbEntity
  8
-TEXT3
100
AcDbMText
 10
97.39631927559303
 20
120.8615025204301
 30
0.0
 40
3.5
 41
0.0
 71
     5
 72
     1
  1
\A1;%%c20
 11
0.019686032241203
 21
-0.9998062112902672
 31
0.0
 73
     1
 44
1.0
1001
ACAD
1000
MTEXTBEGIN
1070
    73
1070
     1
1070
    44
1040
1.0
1070
    74
1070
     0
1000
MTEXTEND
  0
POINT
  5
2A
330
22
100
AcDbEntity
  8
DEFPOINTS
 62
     0
100
AcDbPoint
 10
107.9965693268569
 20
111.0663429306547
 30
0.0
  0
POINT
  5
2B
330
22
100
AcDbEntity
  8
DEFPOINTS
 62
     0
100
AcDbPoint
 10
107.6027723686284
 20
131.0663429306549
 30
0.0
  0
POINT
  5
2C
330
22
100
AcDbEntity
  8
DEFPOINTS
 62
     0
100
AcDbPoint
 10
94.25250728145375
 20
130.8034782415112
 30
0.0
  0
ENDBLK
  5
2D
330
22
100
AcDbEntity
  8
0
100
AcDbBlockEnd
  0
BLOCK
  5
F
330
E
100
AcDbEntity
  8
0
100
AcDbBlockBegin
  2
*D2
 70
     1
 10
0.0
 20
0.0
 30
0.0
  3
*D2
  1

  0
LINE
  5
10
330
E
100
AcDbEntity
  8
-TEXT3
370
    -2
100
AcDbLine
 10
180.2702827820851
 20
155.0663429306551
 30
0.0
 11
180.2702827820851
 21
171.0364931109539
 31
0.0
  0
LINE
  5
11
330
E
100
AcDbEntity
  8
-TEXT3
370
    -2
100
AcDbLine
 10
280.2702827820849
 20
152.0469144429382
 30
0.0
 11
280.2702827820849
 21
171.0364931109539
 31
0.0
  0
LINE
  5
12
330
E
100
AcDbEntity
  8
-TEXT3
370
    -2
100
AcDbLine
 10
183.2702827820851
 20
169.7864931109539
 30
0.0
 11
277.2702827820849
 21
169.7864931109539
 31
0.0
  0
SOLID
  5
13
330
E
100
AcDbEntity
  8
-TEXT3
100
AcDbTrace
 10
183.2702827820851
 20
170.2864931109538
 30
0.0
 11
183.2702827820851
 21
169.2864931109538
 31
0.0
 12
180.2702827820851
 22
169.7864931109539
 32
0.0
 13
180.2702827820851
 23
169.7864931109539
 33
0.0
  0
SOLID
  5
14
330
E
100
AcDbEntity
  8
-TEXT3
100
AcDbTrace
 10
277.2702827820849
 20
170.2864931109538
 30
0.0
 11
277.2702827820849
 21
169.2864931109538
 31
0.0
 12
280.2702827820849
 22
169.7864931109539
 32
0.0
 13
280.2702827820849
 23
169.7864931109539
 33
0.0
  0
MTEXT
  5
15
330
E
100
AcDbEntity
  8
-TEXT3
100
AcDbMText
 10
230.270282782085
 20
172.6245284610558
 30
0.0
 40
3.5
 41
0.0
 71
     5
 72
     1
  1
\A1;100
 73
     1
 44
1.0
1001
ACAD
1000
MTEXTBEGIN
1070
    73
1070
     1
1070
    44
1040
1.0
1070
    74
1070
     0
1000
MTEXTEND
  0
POINT
  5
16
330
E
100
AcDbEntity
  8
DEFPOINTS
 62
     0
100
AcDbPoint
 10
180.2702827820851
 20
154.0663429306551
 30
0.0
  0
POINT
  5
18
330
E
100
AcDbEntity
  8
DEFPOINTS
 62
     0
100
AcDbPoint
 10
280.2702827820849
 20
151.0469144429382
 30
0.0
  0
POINT
  5
19
330
E
100
AcDbEntity
  8
DEFPOINTS
 62
     0
100
AcDbPoint
 10
280.2702827820849
 20
169.7864931109539
 30
0.0
  0
ENDBLK
  5
1A
330
E
100
AcDbEntity
  8
0
100
AcDbBlockEnd
  0
BLOCK
  5
51
330
50
100
AcDbEntity
  8
0
100
AcDbBlockBegin
  2
*D3
 70
     1
 10
0.0
 20
0.0
 30
0.0
  3
*D3
  1

  0
LINE
  5
52
330
50
100
AcDbEntity
  8
-TEXT3
370
    -2
100
AcDbLine
 10
180.2702827820851
 20
155.0663429306551
 30
0.0
 11
180.2702827820851
 21
171.0364931109539
 31
0.0
  0
LINE
  5
53
330
50
100
AcDbEntity
  8
-TEXT3
370
    -2
100
AcDbLine
 10
80.27028278208536
 20
152.0469144429382
 30
0.0
 11
80.27028278208536
 21
171.0364931109539
 31
0.0
  0
LINE
  5
54
330
50
100
AcDbEntity
  8
-TEXT3
370
    -2
100
AcDbLine
 10
177.2702827820851
 20
169.7864931109539
 30
0.0
 11
83.27028278208535
 21
169.7864931109539
 31
0.0
  0
SOLID
  5
55
330
50
100
AcDbEntity
  8
-TEXT3
100
AcDbTrace
 10
177.2702827820851
 20
170.2864931109538
 30
0.0
 11
177.2702827820851
 21
169.2864931109538
 31
0.0
 12
180.2702827820851
 22
169.7864931109539
 32
0.0
 13
180.2702827820851
 23
169.7864931109539
 33
0.0
  0
SOLID
  5
56
330
50
100
AcDbEntity
  8
-TEXT3
100
AcDbTrace
 10
83.27028278208535
 20
170.2864931109538
 30
0.0
 11
83.27028278208535
 21
169.2864931109538
 31
0.0
 12
80.27028278208536
 22
169.7864931109539
 32
0.0
 13
80.27028278208536
 23
169.7864931109539
 33
0.0
  0
MTEXT
  5
57
330
50
100
AcDbEntity
  8
-TEXT3
100
AcDbMText
 10
130.2702827820852
 20
172.6245284610558
 30
0.0
 40
3.5
 41
0.0
 71
     5
 72
     1
  1
\A1;100
 73
     1
 44
1.0
1001
ACAD
1000
MTEXTBEGIN
1070
    73
1070
     1
1070
    44
1040
1.0
1070
    74
1070
     0
1000
MTEXTEND
  0
POINT
  5
58
330
50
100
AcDbEntity
  8
DEFPOINTS
 62
     0
100
AcDbPoint
 10
180.2702827820851
 20
154.0663429306551
 30
0.0
  0
POINT
  5
59
330
50
100
AcDbEntity
  8
DEFPOINTS
 62
     0
100
AcDbPoint
 10
80.27028278208536
 20
151.0469144429382
 30
0.0
  0
POINT
  5
5A
330
50
100
AcDbEntity
  8
DEFPOINTS
 62
     0
100
AcDbPoint
 10
80.27028278208536
 20
169.7864931109539
 30
0.0
  0
ENDBLK
  5
5B
330
50
100
AcDbEntity
  8
0
100
AcDbBlockEnd
  0
BLOCK
  5
5E
330
5D
100
AcDbEntity
  8
0
100
AcDbBlockBegin
  2
*D4
 70
     1
 10
0.0
 20
0.0
 30
0.0
  3
*D4
  1

  0
LINE
  5
5F
330
5D
100
AcDbEntity
  8
-TEXT3
370
    -2
100
AcDbLine
 10
253.2702827820849
 20
120.0663429306549
 30
0.0
 11
253.2702827820849
 21
55.29210810803215
 31
0.0
  0
LINE
  5
60
330
5D
100
AcDbEntity
  8
-TEXT3
370
    -2
100
AcDbLine
 10
307.2702827820849
 20
120.0663429306549
 30
0.0
 11
307.2702827820849
 21
55.29210810803215
 31
0.0
  0
LINE
  5
61
330
5D
100
AcDbEntity
  8
-TEXT3
370
    -2
100
AcDbLine
 10
256.2702827820849
 20
56.54210810803215
 30
0.0
 11
304.2702827820849
 21
56.54210810803215
 31
0.0
  0
SOLID
  5
62
330
5D
100
AcDbEntity
  8
-TEXT3
100
AcDbTrace
 10
256.2702827820849
 20
57.04210810803215
 30
0.0
 11
256.2702827820849
 21
56.04210810803215
 31
0.0
 12
253.2702827820849
 22
56.54210810803215
 32
0.0
 13
253.2702827820849
 23
56.54210810803215
 33
0.0
  0
SOLID
  5
63
330
5D
100
AcDbEntity
  8
-TEXT3
100
AcDbTrace
 10
304.2702827820849
 20
57.04210810803215
 30
0.0
 11
304.2702827820849
 21
56.04210810803215
 31
0.0
 12
307.2702827820849
 22
56.54210810803215
 32
0.0
 13
307.2702827820849
 23
56.54210810803215
 33
0.0
  0
MTEXT
  5
64
330
5D
100
AcDbEntity
  8
-TEXT3
100
AcDbMText
 10
280.2702827820849
 20
59.48959281231495
 30
0.0
 40
3.5
 41
0.0
 71
     5
 72
     1
  1
\A1;%%c54
 73
     1
 44
1.0
1001
ACAD
1000
MTEXTBEGIN
1070
    73
1070
     1
1070
    44
1040
1.0
1070
    74
1070
     0
1000
MTEXTEND
  0
POINT
  5
65
330
5D
100
AcDbEntity
  8
DEFPOINTS
 62
     0
100
AcDbPoint
 10
253.2702827820849
 20
121.0663429306549
 30
0.0
  0
POINT
  5
66
330
5D
100
AcDbEntity
  8
DEFPOINTS
 62
     0
100
AcDbPoint
 10
307.2702827820849
 20
121.0663429306549
 30
0.0
  0
POINT
  5
67
330
5D
100
AcDbEntity
  8
DEFPOINTS
 62
     0
100
AcDbPoint
 10
307.2702827820849
 20
56.54210810803215
 30
0.0
  0
ENDBLK
  5
68
330
5D
100
AcDbEntity
  8
0
100
AcDbBlockEnd
  0
BLOCK
  5
CC
330
CB
100
AcDbEntity
  8
0
100
AcDbBlockBegin
  2
*D5
 70
     1
 10
0.0
 20
0.0
 30
0.0
  3
*D5
  1

  0
LINE
  5
CD
330
CB
100
AcDbEntity
  8
-TEXT3
370
    -2
100
AcDbLine
 10
305.2702827820849
 20
327.9870766099771
 30
0.0
 11
325.5202827820849
 21
327.9870766099771
 31
0.0
  0
LINE
  5
CE
330
CB
100
AcDbEntity
  8
-TEXT3
370
    -2
100
AcDbLine
 10
305.2702827820849
 20
297.9870766099771
 30
0.0
 11
325.5202827820849
 21
297.9870766099771
 31
0.0
  0
LINE
  5
CF
330
CB
100
AcDbEntity
  8
-TEXT3
370
    -2
100
AcDbLine
 10
324.2702827820849
 20
324.9870766099771
 30
0.0
 11
324.2702827820849
 21
300.9870766099771
 31
0.0
  0
SOLID
  5
D0
330
CB
100
AcDbEntity
  8
-TEXT3
100
AcDbTrace
 10
323.7702827820849
 20
324.9870766099771
 30
0.0
 11
324.7702827820849
 21
324.9870766099771
 31
0.0
 12
324.2702827820849
 22
327.9870766099771
 32
0.0
 13
324.2702827820849
 23
327.9870766099771
 33
0.0
  0
SOLID
  5
D1
330
CB
100
AcDbEntity
  8
-TEXT3
100
AcDbTrace
 10
323.7702827820849
 20
300.9870766099771
 30
0.0
 11
324.7702827820849
 21
300.9870766099771
 31
0.0
 12
324.2702827820849
 22
297.9870766099771
 32
0.0
 13
324.2702827820849
 23
297.9870766099771
 33
0.0
  0
MTEXT
  5
D2
330
CB
100
AcDbEntity
  8
-TEXT3
100
AcDbMText
 10
321.4322474319829
 20
312.9870766099771
 30
0.0
 40
3.5
 41
0.0
 71
     5
 72
     1
  1
\A1;30
 11
0.0000000000000001
 21
1.0
 31
0.0
 73
     1
 44
1.0
1001
ACAD
1000
MTEXTBEGIN
1070
    73
1070
     1
1070
    44
1040
1.0
1070
    74
1070
     0
1000
MTEXTEND
  0
POINT
  5
D3
330
CB
100
AcDbEntity
  8
DEFPOINTS
 62
     0
100
AcDbPoint
 10
304.2702827820849
 20
327.9870766099771
 30
0.0
  0
POINT
  5
D4
330
CB
100
AcDbEntity
  8
DEFPOINTS
 62
     0
100
AcDbPoint
 10
304.2702827820849
 20
297.9870766099771
 30
0.0
  0
POINT
  5
D5
330
CB
100
AcDbEntity
  8
DEFPOINTS
 62
     0
100
AcDbPoint
 10
324.2702827820849
 20
297.9870766099771
 30
0.0
  0
ENDBLK
  5
D6
330
CB
100
AcDbEntity
  8
0
100
AcDbBlockEnd
  0
BLOCK
  5
6B
330
6A
100
AcDbEntity
  8
0
100
AcDbBlockBegin
  2
*D6
 70
     1
 10
0.0
 20
0.0
 30
0.0
  3
*D6
  1

  0
LINE
  5
6C
330
6A
100
AcDbEntity
  8
-TEXT3
370
    -2
100
AcDbLine
 10
152.2702827820851
 20
292.9870766099771
 30
0.0
 11
139.0202827820851
 21
292.9870766099771
 31
0.0
  0
LINE
  5
6D
330
6A
100
AcDbEntity
  8
-TEXT3
370
    -2
100
AcDbLine
 10
149.2702827820851
 20
302.9870766099771
 30
0.0
 11
139.0202827820851
 21
302.9870766099771
 31
0.0
  0
LINE
  5
6E
330
6A
100
AcDbEntity
  8
-TEXT3
370
    -2
100
AcDbLine
 10
140.2702827820851
 20
295.9870766099771
 30
0.0
 11
140.2702827820851
 21
299.9870766099771
 31
0.0
  0
SOLID
  5
6F
330
6A
100
AcDbEntity
  8
-TEXT3
100
AcDbTrace
 10
139.7702827820851
 20
295.9870766099771
 30
0.0
 11
140.7702827820851
 21
295.9870766099771
 31
0.0
 12
140.2702827820851
 22
292.9870766099771
 32
0.0
 13
140.2702827820851
 23
292.9870766099771
 33
0.0
  0
SOLID
  5
70
330
6A
100
AcDbEntity
  8
-TEXT3
100
AcDbTrace
 10
139.7702827820851
 20
299.9870766099771
 30
0.0
 11
140.7702827820851
 21
299.9870766099771
 31
0.0
 12
140.2702827820851
 22
302.9870766099771
 32
0.0
 13
140.2702827820851
 23
302.9870766099771
 33
0.0
  0
MTEXT
  5
71
330
6A
100
AcDbEntity
  8
-TEXT3
100
AcDbMText
 10
137.4322474319831
 20
297.9870766099771
 30
0.0
 40
3.5
 41
0.0
 71
     5
 72
     1
  1
\A1;10
 11
0.0000000000000001
 21
1.0
 31
0.0
 73
     1
 44
1.0
1001
ACAD
1000
MTEXTBEGIN
1070
    73
1070
     1
1070
    44
1040
1.0
1070
    74
1070
     0
1000
MTEXTEND
  0
POINT
  5
72
330
6A
100
AcDbEntity
  8
DEFPOINTS
 62
     0
100
AcDbPoint
 10
153.2702827820851
 20
292.9870766099771
 30
0.0
  0
POINT
  5
73
330
6A
100
AcDbEntity
  8
DEFPOINTS
 62
     0
100
AcDbPoint
 10
150.2702827820851
 20
302.9870766099771
 30
0.0
  0
POINT
  5
74
330
6A
100
AcDbEntity
  8
DEFPOINTS
 62
     0
100
AcDbPoint
 10
140.2702827820851
 20
302.9870766099771
 30
0.0
  0
ENDBLK
  5
75
330
6A
100
AcDbEntity
  8
0
100
AcDbBlockEnd
  0
BLOCK
  5
78
330
77
100
AcDbEntity
  8
0
100
AcDbBlockBegin
  2
*D7
 70
     1
 10
0.0
 20
0.0
 30
0.0
  3
*D7
  1

  0
LINE
  5
79
330
77
100
AcDbEntity
  8
-TEXT3
370
    -2
100
AcDbLine
 10
167.2702827820851
 20
291.9870766099771
 30
0.0
 11
167.2702827820851
 21
271.7370766099771
 31
0.0
  0
LINE
  5
7A
330
77
100
AcDbEntity
  8
-TEXT3
370
    -2
100
AcDbLine
 10
163.2702827820851
 20
291.9870766099771
 30
0.0
 11
163.2702827820851
 21
271.7370766099771
 31
0.0
  0
LINE
  5
7B
330
77
100
AcDbEntity
  8
-TEXT3
370
    -2
100
AcDbLine
 10
170.2702827820851
 20
272.9870766099771
 30
0.0
 11
173.2702827820851
 21
272.9870766099771
 31
0.0
  0
LINE
  5
7C
330
77
100
AcDbEntity
  8
-TEXT3
370
    -2
100
AcDbLine
 10
160.2702827820851
 20
272.9870766099771
 30
0.0
 11
148.74139087182
 21
272.9870766099771
 31
0.0
  0
LINE
  5
7D
330
77
100
AcDbEntity
  8
-TEXT3
370
    -2
100
AcDbLine
 10
167.2702827820851
 20
272.9870766099771
 30
0.0
 11
163.2702827820851
 21
272.9870766099771
 31
0.0
  0
SOLID
  5
7E
330
77
100
AcDbEntity
  8
-TEXT3
100
AcDbTrace
 10
170.2702827820851
 20
273.4870766099771
 30
0.0
 11
170.2702827820851
 21
272.4870766099771
 31
0.0
 12
167.2702827820851
 22
272.9870766099771
 32
0.0
 13
167.2702827820851
 23
272.9870766099771
 33
0.0
  0
SOLID
  5
7F
330
77
100
AcDbEntity
  8
-TEXT3
100
AcDbTrace
 10
160.2702827820851
 20
273.4870766099771
 30
0.0
 11
160.2702827820851
 21
272.4870766099771
 31
0.0
 12
163.2702827820851
 22
272.9870766099771
 32
0.0
 13
163.2702827820851
 23
272.9870766099771
 33
0.0
  0
MTEXT
  5
80
330
77
100
AcDbEntity
  8
-TEXT3
100
AcDbMText
 10
153.0058368269525
 20
275.9345613142599
 30
0.0
 40
3.5
 41
0.0
 71
     5
 72
     1
  1
\A1;%%c4
 73
     1
 44
1.0
1001
ACAD
1000
MTEXTBEGIN
1070
    73
1070
     1
1070
    44
1040
1.0
1070
    74
1070
     0
1000
MTEXTEND
  0
POINT
  5
81
330
77
100
AcDbEntity
  8
DEFPOINTS
 62
     0
100
AcDbPoint
 10
167.2702827820851
 20
292.9870766099771
 30
0.0
  0
POINT
  5
82
330
77
100
AcDbEntity
  8
DEFPOINTS
 62
     0
100
AcDbPoint
 10
163.2702827820851
 20
292.9870766099771
 30
0.0
  0
POINT
  5
83
330
77
100
AcDbEntity
  8
DEFPOINTS
 62
     0
100
AcDbPoint
 10
163.2702827820851
 20
272.9870766099771
 30
0.0
  0
ENDBLK
  5
84
330
77
100
AcDbEntity
  8
0
100
AcDbBlockEnd
  0
BLOCK
  5
87
330
86
100
AcDbEntity
  8
0
100
AcDbBlockBegin
  2
*D8
 70
     1
 10
0.0
 20
0.0
 30
0.0
  3
*D8
  1

  0
LINE
  5
88
330
86
100
AcDbEntity
  8
-TEXT3
370
    -2
100
AcDbLine
 10
193.2702827820851
 20
291.9870766099771
 30
0.0
 11
193.2702827820851
 21
271.7370766099771
 31
0.0
  0
LINE
  5
89
330
86
100
AcDbEntity
  8
-TEXT3
370
    -2
100
AcDbLine
 10
197.2702827820851
 20
291.9870766099771
 30
0.0
 11
197.2702827820851
 21
271.7370766099771
 31
0.0
  0
LINE
  5
8A
330
86
100
AcDbEntity
  8
-TEXT3
370
    -2
100
AcDbLine
 10
190.2702827820851
 20
272.9870766099771
 30
0.0
 11
187.2702827820851
 21
272.9870766099771
 31
0.0
  0
LINE
  5
8B
330
86
100
AcDbEntity
  8
-TEXT3
370
    -2
100
AcDbLine
 10
200.2702827820851
 20
272.9870766099771
 30
0.0
 11
211.7991746923503
 21
272.9870766099771
 31
0.0
  0
LINE
  5
8C
330
86
100
AcDbEntity
  8
-TEXT3
370
    -2
100
AcDbLine
 10
193.2702827820851
 20
272.9870766099771
 30
0.0
 11
197.2702827820851
 21
272.9870766099771
 31
0.0
  0
SOLID
  5
8D
330
86
100
AcDbEntity
  8
-TEXT3
100
AcDbTrace
 10
190.2702827820851
 20
273.4870766099771
 30
0.0
 11
190.2702827820851
 21
272.4870766099771
 31
0.0
 12
193.2702827820851
 22
272.9870766099771
 32
0.0
 13
193.2702827820851
 23
272.9870766099771
 33
0.0
  0
SOLID
  5
8E
330
86
100
AcDbEntity
  8
-TEXT3
100
AcDbTrace
 10
200.2702827820851
 20
273.4870766099771
 30
0.0
 11
200.2702827820851
 21
272.4870766099771
 31
0.0
 12
197.2702827820851
 22
272.9870766099771
 32
0.0
 13
197.2702827820851
 23
272.9870766099771
 33
0.0
  0
MTEXT
  5
8F
330
86
100
AcDbEntity
  8
-TEXT3
100
AcDbMText
 10
207.5347287372177
 20
275.9345613142599
 30
0.0
 40
3.5
 41
0.0
 71
     5
 72
     1
  1
\A1;%%c4
 73
     1
 44
1.0
1001
ACAD
1000
MTEXTBEGIN
1070
    73
1070
     1
1070
    44
1040
1.0
1070
    74
1070
     0
1000
MTEXTEND
  0
POINT
  5
90
330
86
100
AcDbEntity
  8
DEFPOINTS
 62
     0
100
AcDbPoint
 10
193.2702827820851
 20
292.9870766099771
 30
0.0
  0
POINT
  5
91
330
86
100
AcDbEntity
  8
DEFPOINTS
 62
     0
100
AcDbPoint
 10
197.2702827820851
 20
292.9870766099771
 30
0.0
  0
POINT
  5
92
330
86
100
AcDbEntity
  8
DEFPOINTS
 62
     0
100
AcDbPoint
 10
197.2702827820851
 20
272.9870766099771
 30
0.0
  0
ENDBLK
  5
93
330
86
100
AcDbEntity
  8
0
100
AcDbBlockEnd
  0
BLOCK
  5
96
330
95
100
AcDbEntity
  8
0
100
AcDbBlockBegin
  2
*D9
 70
     1
 10
0.0
 20
0.0
 30
0.0
  3
*D9
  1

  0
LINE
  5
97
330
95
100
AcDbEntity
  8
-TEXT3
370
    -2
100
AcDbLine
 10
307.2702827820849
 20
327.9870766099771
 30
0.0
 11
325.5202827820849
 21
327.9870766099771
 31
0.0
  0
LINE
  5
98
330
95
100
AcDbEntity
  8
-TEXT3
370
    -2
100
AcDbLine
 10
236.6439371091045
 20
332.9870766099771
 30
0.0
 11
325.5202827820849
 21
332.9870766099771
 31
0.0
  0
LINE
  5
99
330
95
100
AcDbEntity
  8
-TEXT3
370
    -2
100
AcDbLine
 10
324.2702827820849
 20
324.9870766099771
 30
0.0
 11
324.2702827820849
 21
321.987076609977
 31
0.0
  0
LINE
  5
9A
330
95
100
AcDbEntity
  8
-TEXT3
370
    -2
100
AcDbLine
 10
324.2702827820849
 20
335.9870766099771
 30
0.0
 11
324.2702827820849
 21
338.9870766099771
 31
0.0
  0
LINE
  5
9B
330
95
100
AcDbEntity
  8
-TEXT3
370
    -2
100
AcDbLine
 10
324.2702827820849
 20
327.9870766099771
 30
0.0
 11
324.2702827820849
 21
332.9870766099771
 31
0.0
  0
SOLID
  5
9C
330
95
100
AcDbEntity
  8
-TEXT3
100
AcDbTrace
 10
323.7702827820849
 20
324.9870766099771
 30
0.0
 11
324.7702827820849
 21
324.9870766099771
 31
0.0
 12
324.2702827820849
 22
327.9870766099771
 32
0.0
 13
324.2702827820849
 23
327.9870766099771
 33
0.0
  0
SOLID
  5
9D
330
95
100
AcDbEntity
  8
-TEXT3
100
AcDbTrace
 10
323.7702827820849
 20
335.9870766099771
 30
0.0
 11
324.7702827820849
 21
335.9870766099771
 31
0.0
 12
324.2702827820849
 22
332.9870766099771
 32
0.0
 13
324.2702827820849
 23
332.9870766099771
 33
0.0
  0
MTEXT
  5
9E
330
95
100
AcDbEntity
  8
-TEXT3
100
AcDbMText
 10
321.4762651070338
 20
330.4870766099771
 30
0.0
 40
3.5
 41
0.0
 71
     5
 72
     1
  1
\A1;5
 11
0.0000000000000001
 21
1.0
 31
0.0
 73
     1
 44
1.0
1001
ACAD
1000
MTEXTBEGIN
1070
    73
1070
     1
1070
    44
1040
1.0
1070
    74
1070
     0
1000
MTEXTEND
  0
POINT
  5
9F
330
95
100
AcDbEntity
  8
DEFPOINTS
 62
     0
100
AcDbPoint
 10
306.2702827820849
 20
327.9870766099771
 30
0.0
  0
POINT
  5
A0
330
95
100
AcDbEntity
  8
DEFPOINTS
 62
     0
100
AcDbPoint
 10
235.6439371091045
 20
332.9870766099771
 30
0.0
  0
POINT
  5
A1
330
95
100
AcDbEntity
  8
DEFPOINTS
 62
     0
100
AcDbPoint
 10
324.2702827820849
 20
332.9870766099771
 30
0.0
  0
ENDBLK
  5
A2
330
95
100
AcDbEntity
  8
0
100
AcDbBlockEnd
  0
BLOCK
  5
A8
330
A7
100
AcDbEntity
  8
0
100
AcDbBlockBegin
  2
*D10
 70
     1
 10
0.0
 20
0.0
 30
0.0
  3
*D10
  1

  0
LINE
  5
A9
330
A7
100
AcDbEntity
  8
-TEXT3
370
    -2
100
AcDbLine
 10
208.2702827820857
 20
332.9870766099771
 30
0.0
 11
234.3939371091046
 21
332.9870766099771
 31
0.0
  0
LINE
  5
AA
330
A7
100
AcDbEntity
  8
-TEXT3
370
    -2
100
AcDbLine
 10
208.2702827820845
 20
292.9870766099771
 30
0.0
 11
234.3939371091045
 21
292.9870766099771
 31
0.0
  0
LINE
  5
AB
330
A7
100
AcDbEntity
  8
-TEXT3
370
    -2
100
AcDbLine
 10
233.1439371091045
 20
329.9870766099771
 30
0.0
 11
233.1439371091045
 21
295.9870766099771
 31
0.0
  0
SOLID
  5
AC
330
A7
100
AcDbEntity
  8
-TEXT3
100
AcDbTrace
 10
232.6439371091046
 20
329.9870766099771
 30
0.0
 11
233.6439371091045
 21
329.9870766099771
 31
0.0
 12
233.1439371091045
 22
332.9870766099771
 32
0.0
 13
233.1439371091045
 23
332.9870766099771
 33
0.0
  0
SOLID
  5
AD
330
A7
100
AcDbEntity
  8
-TEXT3
100
AcDbTrace
 10
232.6439371091045
 20
295.9870766099771
 30
0.0
 11
233.6439371091045
 21
295.9870766099771
 31
0.0
 12
233.1439371091045
 22
292.9870766099771
 32
0.0
 13
233.1439371091045
 23
292.9870766099771
 33
0.0
  0
MTEXT
  5
AE
330
A7
100
AcDbEntity
  8
-TEXT3
100
AcDbMText
 10
230.3059017590025
 20
312.9870766099771
 30
0.0
 40
3.5
 41
0.0
 71
     5
 72
     1
  1
\A1;40
 11
0.0000000000000001
 21
1.0
 31
0.0
 73
     1
 44
1.0
1001
ACAD
1000
MTEXTBEGIN
1070
    73
1070
     1
1070
    44
1040
1.0
1070
    74
1070
     0
1000
MTEXTEND
  0
POINT
  5
AF
330
A7
100
AcDbEntity
  8
DEFPOINTS
 62
     0
100
AcDbPoint
 10
207.2702827820858
 20
332.9870766099771
 30
0.0
  0
POINT
  5
B0
330
A7
100
AcDbEntity
  8
DEFPOINTS
 62
     0
100
AcDbPoint
 10
207.2702827820845
 20
292.9870766099771
 30
0.0
  0
POINT
  5
B1
330
A7
100
AcDbEntity
  8
DEFPOINTS
 62
     0
100
AcDbPoint
 10
233.1439371091045
 20
292.9870766099771
 30
0.0
  0
ENDBLK
  5
B2
330
A7
100
AcDbEntity
  8
0
100
AcDbBlockEnd
  0
BLOCK
  5
B5
330
B4
100
AcDbEntity
  8
0
100
AcDbBlockBegin
  2
*D11
 70
     1
 10
0.0
 20
0.0
 30
0.0
  3
*D11
  1

  0
LINE
  5
B6
330
B4
100
AcDbEntity
  8
-TEXT3
370
    -2
100
AcDbLine
 10
170.0202827820851
 20
291.9870766099771
 30
0.0
 11
170.0202827820851
 21
281.7370766099771
 31
0.0
  0
LINE
  5
B7
330
B4
100
AcDbEntity
  8
-TEXT3
370
    -2
100
AcDbLine
 10
190.5202827820851
 20
291.9870766099771
 30
0.0
 11
190.5202827820851
 21
281.7370766099771
 31
0.0
  0
LINE
  5
B8
330
B4
100
AcDbEntity
  8
-TEXT3
370
    -2
100
AcDbLine
 10
173.0202827820851
 20
282.9870766099771
 30
0.0
 11
187.5202827820851
 21
282.9870766099771
 31
0.0
  0
SOLID
  5
B9
330
B4
100
AcDbEntity
  8
-TEXT3
100
AcDbTrace
 10
173.0202827820851
 20
283.4870766099771
 30
0.0
 11
173.0202827820851
 21
282.487076609977
 31
0.0
 12
170.0202827820851
 22
282.9870766099771
 32
0.0
 13
170.0202827820851
 23
282.9870766099771
 33
0.0
  0
SOLID
  5
BA
330
B4
100
AcDbEntity
  8
-TEXT3
100
AcDbTrace
 10
187.5202827820851
 20
283.4870766099771
 30
0.0
 11
187.5202827820851
 21
282.487076609977
 31
0.0
 12
190.5202827820851
 22
282.9870766099771
 32
0.0
 13
190.5202827820851
 23
282.9870766099771
 33
0.0
  0
MTEXT
  5
BB
330
B4
100
AcDbEntity
  8
-TEXT3
100
AcDbMText
 10
180.2702827820851
 20
285.9345613142599
 30
0.0
 40
3.5
 41
0.0
 71
     5
 72
     1
  1
\A1;%%c20.5
 73
     1
 44
1.0
1001
ACAD
1000
MTEXTBEGIN
1070
    73
1070
     1
1070
    44
1040
1.0
1070
    74
1070
     0
1000
MTEXTEND
  0
POINT
  5
BC
330
B4
100
AcDbEntity
  8
DEFPOINTS
 62
     0
100
AcDbPoint
 10
170.0202827820851
 20
292.9870766099771
 30
0.0
  0
POINT
  5
BD
330
B4
100
AcDbEntity
  8
DEFPOINTS
 62
     0
100
AcDbPoint
 10
190.5202827820851
 20
292.9870766099771
 30
0.0
  0
POINT
  5
BE
330
B4
100
AcDbEntity
  8
DEFPOINTS
 62
     0
100
AcDbPoint
 10
190.5202827820851
 20
282.9870766099771
 30
0.0
  0
ENDBLK
  5
BF
330
B4
100
AcDbEntity
  8
0
100
AcDbBlockEnd
  0
BLOCK
  5
E5
330
E4
100
AcDbEntity
  8
0
100
AcDbBlockBegin
  2
*D12
 70
     1
 10
0.0
 20
0.0
 30
0.0
  3
*D12
  1

  0
LINE
  5
E6
330
E4
100
AcDbEntity
  8
-TEXT3
370
    -2
100
AcDbLine
 10
163.0702827820851
 20
315.6878575397474
 30
0.0
 11
163.0702827820851
 21
324.9817319501613
 31
0.0
  0
LINE
  5
E7
330
E4
100
AcDbEntity
  8
-TEXT3
370
    -2
100
AcDbLine
 10
197.4702827820851
 20
314.7317319501613
 30
0.0
 11
197.4702827820851
 21
324.9817319501613
 31
0.0
  0
LINE
  5
E8
330
E4
100
AcDbEntity
  8
-TEXT3
370
    -2
100
AcDbLine
 10
166.0702827820851
 20
323.7317319501613
 30
0.0
 11
194.4702827820851
 21
323.7317319501613
 31
0.0
  0
SOLID
  5
E9
330
E4
100
AcDbEntity
  8
-TEXT3
100
AcDbTrace
 10
166.0702827820851
 20
324.2317319501613
 30
0.0
 11
166.0702827820851
 21
323.2317319501613
 31
0.0
 12
163.0702827820851
 22
323.7317319501613
 32
0.0
 13
163.0702827820851
 23
323.7317319501613
 33
0.0
  0
SOLID
  5
EA
330
E4
100
AcDbEntity
  8
-TEXT3
100
AcDbTrace
 10
194.4702827820851
 20
324.2317319501613
 30
0.0
 11
194.4702827820851
 21
323.2317319501613
 31
0.0
 12
197.4702827820851
 22
323.7317319501613
 32
0.0
 13
197.4702827820851
 23
323.7317319501613
 33
0.0
  0
MTEXT
  5
EB
330
E4
100
AcDbEntity
  8
-TEXT3
100
AcDbMText
 10
180.2702827820851
 20
326.6792166544441
 30
0.0
 40
3.5
 41
0.0
 71
     5
 72
     1
  1
\A1;%%c34.4
 73
     1
 44
1.0
1001
ACAD
1000
MTEXTBEGIN
1070
    73
1070
     1
1070
    44
1040
1.0
1070
    74
1070
     0
1000
MTEXTEND
  0
POINT
  5
EC
330
E4
100
AcDbEntity
  8
DEFPOINTS
 62
     0
100
AcDbPoint
 10
163.0702827820851
 20
314.6878575397474
 30
0.0
  0
POINT
  5
ED
330
E4
100
AcDbEntity
  8
DEFPOINTS
 62
     0
100
AcDbPoint
 10
197.4702827820851
 20
313.7317319501613
 30
0.0
  0
POINT
  5
EE
330
E4
100
AcDbEntity
  8
DEFPOINTS
 62
     0
100
AcDbPoint
 10
197.4702827820851
 20
323.7317319501613
 30
0.0
  0
ENDBLK
  5
EF
330
E4
100
AcDbEntity
  8
0
100
AcDbBlockEnd
  0
BLOCK
  5
10F
330
10E
100
AcDbEntity
  8
0
100
AcDbBlockBegin
  2
*D13
 70
     1
 10
0.0
 20
0.0
 30
0.0
  3
*D13
  1

  0
LINE
  5
110
330
10E
100
AcDbEntity
  8
-TEXT3
370
    -2
100
AcDbLine
 10
-12.57776159210152
 20
233.1612586945251
 30
0.0
 11
-23.16146574486994
 21
228.8038151380277
 31
0.0
  0
LINE
  5
111
330
10E
100
AcDbEntity
  8
-TEXT3
370
    -2
100
AcDbLine
 10
-34.25780677208275
 20
224.235312559743
 30
0.0
 11
-37.03189202888595
 21
223.0931869151718
 31
0.0
  0
MTEXT
  5
112
330
10E
100
AcDbEntity
  8
-TEXT3
100
AcDbMText
 10
-17.60470366266503
 20
234.2791243594966
 30
0.0
 40
3.5
 41
0.0
 71
     5
 72
     1
  1
\A1;\U+22056
 11
0.9246950856010659
 21
0.3807085481903934
 31
0.0
 73
     1
 44
1.0
1001
ACAD
1000
MTEXTBEGIN
1070
    73
1070
     1
1070
    44
1040
1.0
1070
    74
1070
     0
1000
MTEXTEND
  0
LINE
  5
113
330
10E
100
AcDbEntity
  8
-TEXT3
370
    -2
100
AcDbLine
 10
-31.48372151527955
 20
225.3774382043142
 30
0.0
 11
-25.93555100167314
 21
227.6616894934566
 31
0.0
  0
SOLID
  5
114
330
10E
100
AcDbEntity
  8
-TEXT3
100
AcDbTrace
 10
-34.44816104617795
 20
224.6976601025436
 30
0.0
 11
-34.06745249798755
 21
223.7729650169425
 31
0.0
 12
-31.48372151527955
 22
225.3774382043142
 32
0.0
 13
-31.48372151527955
 23
225.3774382043142
 33
0.0
  0
SOLID
  5
115
330
10E
100
AcDbEntity
  8
-TEXT3
100
AcDbTrace
 10
-23.35182001896514
 20
229.2661626808283
 30
0.0
 11
-22.97111147077474
 21
228.3414675952272
 31
0.0
 12
-25.93555100167314
 22
227.6616894934566
 32
0.0
 13
-25.93555100167314
 23
227.6616894934566
 33
0.0
  0
POINT
  5
116
330
10E
100
AcDbEntity
  8
DEFPOINTS
 62
     0
100
AcDbPoint
 10
-25.93555100167314
 20
227.6616894934566
 30
0.0
  0
POINT
  5
117
330
10E
100
AcDbEntity
  8
DEFPOINTS
 62
     0
100
AcDbPoint
 10
-31.48372151527955
 20
225.3774382043142
 30
0.0
  0
ENDBLK
  5
118
330
10E
100
AcDbEntity
  8
0
100
AcDbBlockEnd
  0
BLOCK
  5
11D
330
11C
100
AcDbEntity
  8
0
100
AcDbBlockBegin
  2
*D14
 70
     1
 10
0.0
 20
0.0
 30
0.0
  3
*D14
  1

  0
LINE
  5
11E
330
11C
100
AcDbEntity
  8
-TEXT3
370
    -2
100
AcDbLine
 10
-14.06728267556578
 20
187.0353152108936
 30
0.0
 11
-23.67375071642983
 21
193.2576845121521
 31
0.0
  0
LINE
  5
11F
330
11C
100
AcDbEntity
  8
-TEXT3
370
    -2
100
AcDbLine
 10
-33.74552180052297
 20
199.7814431856185
 30
0.0
 11
-36.26346457154622
 21
201.4123828539851
 31
0.0
  0
MTEXT
  5
120
330
11C
100
AcDbEntity
  8
-TEXT3
100
AcDbMText
 10
-16.00915540177999
 20
191.8048959619564
 30
0.0
 40
3.5
 41
0.0
 71
     5
 72
     1
  1
\A1;\U+22056
 11
0.8393142570077541
 21
-0.5436465561221939
 31
0.0
 73
     1
 44
1.0
1001
ACAD
1000
MTEXTBEGIN
1070
    73
1070
     1
1070
    44
1040
1.0
1070
    74
1070
     0
1000
MTEXTEND
  0
LINE
  5
121
330
11C
100
AcDbEntity
  8
-TEXT3
370
    -2
100
AcDbLine
 10
-31.22757902949971
 20
198.1505035172519
 30
0.0
 11
-26.19169348745311
 21
194.8886241805187
 31
0.0
  0
SOLID
  5
122
330
11C
100
AcDbEntity
  8
-TEXT3
100
AcDbTrace
 10
-33.47369852246186
 20
200.2011003141224
 30
0.0
 11
-34.01734507858406
 21
199.3617860571146
 31
0.0
 12
-31.22757902949971
 22
198.1505035172519
 32
0.0
 13
-31.22757902949971
 23
198.1505035172519
 33
0.0
  0
SOLID
  5
123
330
11C
100
AcDbEntity
  8
-TEXT3
100
AcDbTrace
 10
-23.40192743836873
 20
193.677341640656
 30
0.0
 11
-23.94557399449093
 21
192.8380273836483
 31
0.0
 12
-26.19169348745311
 22
194.8886241805187
 32
0.0
 13
-26.19169348745311
 23
194.8886241805187
 33
0.0
  0
POINT
  5
124
330
11C
100
AcDbEntity
  8
DEFPOINTS
 62
     0
100
AcDbPoint
 10
-26.19169348745311
 20
194.8886241805187
 30
0.0
  0
POINT
  5
125
330
11C
100
AcDbEntity
  8
DEFPOINTS
 62
     0
100
AcDbPoint
 10
-31.22757902949971
 20
198.1505035172519
 30
0.0
  0
ENDBLK
  5
126
330
11C
100
AcDbEntity
  8
0
100
AcDbBlockEnd
  0
BLOCK
  5
129
330
128
100
AcDbEntity
  8
0
100
AcDbBlockBegin
  2
*D15
 70
     1
 10
0.0
 20
0.0
 30
0.0
  3
*D15
  1

  0
LINE
  5
12A
330
128
100
AcDbEntity
  8
-TEXT3
370
    -2
100
AcDbLine
 10
-43.10038551439106
 20
211.5195638488854
 30
0.0
 11
-54.36092916142502
 21
211.5195638488854
 31
0.0
  0
LINE
  5
12B
330
128
100
AcDbEntity
  8
-TEXT3
370
    -2
100
AcDbLine
 10
-36.40501088643373
 20
226.5195638488854
 30
0.0
 11
-54.36092916142502
 21
226.5195638488854
 31
0.0
  0
LINE
  5
12C
330
128
100
AcDbEntity
  8
-TEXT3
370
    -2
100
AcDbLine
 10
-53.11092916142502
 20
214.5195638488853
 30
0.0
 11
-53.11092916142502
 21
223.5195638488853
 31
0.0
  0
SOLID
  5
12D
330
128
100
AcDbEntity
  8
-TEXT3
100
AcDbTrace
 10
-53.61092916142502
 20
214.5195638488853
 30
0.0
 11
-52.61092916142501
 21
214.5195638488853
 31
0.0
 12
-53.11092916142502
 22
211.5195638488854
 32
0.0
 13
-53.11092916142502
 23
211.5195638488854
 33
0.0
  0
SOLID
  5
12E
330
128
100
AcDbEntity
  8
-TEXT3
100
AcDbTrace
 10
-53.61092916142502
 20
223.5195638488853
 30
0.0
 11
-52.61092916142501
 21
223.5195638488853
 31
0.0
 12
-53.11092916142502
 22
226.5195638488854
 32
0.0
 13
-53.11092916142502
 23
226.5195638488854
 33
0.0
  0
MTEXT
  5
12F
330
128
100
AcDbEntity
  8
-TEXT3
100
AcDbMText
 10
-55.90494683647604
 20
219.0195638488853
 30
0.0
 40
3.5
 41
0.0
 71
     5
 72
     1
  1
\A1;15
 11
0.0000000000000001
 21
1.0
 31
0.0
 73
     1
 44
1.0
1001
ACAD
1000
MTEXTBEGIN
1070
    73
1070
     1
1070
    44
1040
1.0
1070
    74
1070
     0
1000
MTEXTEND
  0
POINT
  5
130
330
128
100
AcDbEntity
  8
DEFPOINTS
 62
     0
100
AcDbPoint
 10
-42.10038551439106
 20
211.5195638488854
 30
0.0
  0
POINT
  5
131
330
128
100
AcDbEntity
  8
DEFPOINTS
 62
     0
100
AcDbPoint
 10
-35.40501088643373
 20
226.5195638488854
 30
0.0
  0
POINT
  5
132
330
128
100
AcDbEntity
  8
DEFPOINTS
 62
     0
100
AcDbPoint
 10
-53.11092916142502
 20
226.5195638488854
 30
0.0
  0
ENDBLK
  5
133
330
128
100
AcDbEntity
  8
0
100
AcDbBlockEnd
  0
BLOCK
  5
136
330
135
100
AcDbEntity
  8
0
100
AcDbBlockBegin
  2
*D16
 70
     1
 10
0.0
 20
0.0
 30
0.0
  3
*D16
  1

  0
LINE
  5
137
330
135
100
AcDbEntity
  8
-TEXT3
370
    -2
100
AcDbLine
 10
-36.40501088643373
 20
196.5195638488853
 30
0.0
 11
-54.36092916142502
 21
196.5195638488853
 31
0.0
  0
LINE
  5
138
330
135
100
AcDbEntity
  8
-TEXT3
370
    -2
100
AcDbLine
 10
-43.10038551439106
 20
211.5195638488854
 30
0.0
 11
-54.36092916142502
 21
211.5195638488854
 31
0.0
  0
LINE
  5
139
330
135
100
AcDbEntity
  8
-TEXT3
370
    -2
100
AcDbLine
 10
-53.11092916142502
 20
199.5195638488853
 30
0.0
 11
-53.11092916142502
 21
208.5195638488853
 31
0.0
  0
SOLID
  5
13A
330
135
100
AcDbEntity
  8
-TEXT3
100
AcDbTrace
 10
-53.61092916142503
 20
199.5195638488853
 30
0.0
 11
-52.61092916142502
 21
199.5195638488853
 31
0.0
 12
-53.11092916142502
 22
196.5195638488853
 32
0.0
 13
-53.11092916142502
 23
196.5195638488853
 33
0.0
  0
SOLID
  5
13B
330
135
100
AcDbEntity
  8
-TEXT3
100
AcDbTrace
 10
-53.61092916142502
 20
208.5195638488853
 30
0.0
 11
-52.61092916142501
 21
208.5195638488853
 31
0.0
 12
-53.11092916142502
 22
211.5195638488854
 32
0.0
 13
-53.11092916142502
 23
211.5195638488854
 33
0.0
  0
MTEXT
  5
13C
330
135
100
AcDbEntity
  8
-TEXT3
100
AcDbMText
 10
-55.90494683647604
 20
204.0195638488853
 30
0.0
 40
3.5
 41
0.0
 71
     5
 72
     1
  1
\A1;15
 11
0.0000000000000001
 21
1.0
 31
0.0
 73
     1
 44
1.0
1001
ACAD
1000
MTEXTBEGIN
1070
    73
1070
     1
1070
    44
1040
1.0
1070
    74
1070
     0
1000
MTEXTEND
  0
POINT
  5
13D
330
135
100
AcDbEntity
  8
DEFPOINTS
 62
     0
100
AcDbPoint
 10
-35.40501088643373
 20
196.5195638488853
 30
0.0
  0
POINT
  5
13E
330
135
100
AcDbEntity
  8
DEFPOINTS
 62
     0
100
AcDbPoint
 10
-42.10038551439106
 20
211.5195638488854
 30
0.0
  0
POINT
  5
13F
330
135
100
AcDbEntity
  8
DEFPOINTS
 62
     0
100
AcDbPoint
 10
-53.11092916142502
 20
211.5195638488854
 30
0.0
  0
ENDBLK
  5
140
330
135
100
AcDbEntity
  8
0
100
AcDbBlockEnd
  0
ENDSEC
  0
SECTION
  2
ENTITIES
  0
DIMENSION
  5
9
330
2
100
AcDbEntity
  8
-TEXT3
100
AcDbDimension
  2
*D2
 10
280.2702827820849
 20
169.7864931109539
 30
0.0
 11
230.270282782085
 21
172.6245284610558
 31
0.0
 71
     5
 42
99.99999999999978
  3
1-1
100
AcDbAlignedDimension
 13
180.2702827820851
 23
154.0663429306551
 33
0.0
 14
280.2702827820849
 24
151.0469144429382
 34
0.0
100
AcDbRotatedDimension
  0
CIRCLE
  5
1B
330
2
100
AcDbEntity
  8
-PROFILAUSSENKANT
100
AcDbCircle
 10
80.27028278208536
 20
121.0663429306549
 30
0.0
 40
24.0
  0
CIRCLE
  5
1D
330
2
100
AcDbEntity
  8
-PROFILAUSSENKANT
100
AcDbCircle
 10
80.27028278208536
 20
121.0663429306549
 30
0.0
 40
27.0
  0
LINE
  5
1E
330
2
100
AcDbEntity
  8
-SYSTEM
100
AcDbLine
 10
80.27028278208536
 20
151.0663429306549
 30
0.0
 11
80.27028278208536
 21
91.06634293065496
 31
0.0
  0
DIMENSION
  5
21
330
2
100
AcDbEntity
  8
-TEXT3
100
AcDbDimension
  2
*D1
 10
94.25250728145375
 20
130.8034782415112
 30
0.0
 11
97.39631927559303
 21
120.8615025204301
 31
0.0
 70
     1
  1
%%c<>
 71
     5
 42
20.00387652542173
  3
1-1
100
AcDbAlignedDimension
 13
107.9965693268569
 23
111.0663429306547
 33
0.0
 14
107.6027723686284
 24
131.0663429306549
 34
0.0
  0
LINE
  5
2E
330
2
100
AcDbEntity
  8
-SYSTEM
100
AcDbLine
 10
147.270282782085
 20
121.0663429306551
 30
0.0
 11
213.2702827820851
 21
121.0663429306551
 31
0.0
  0
CIRCLE
  5
2F
330
2
100
AcDbEntity
  8
-PROFILAUSSENKANT
100
AcDbCircle
 10
180.2702827820851
 20
121.0663429306551
 30
0.0
 40
27.0
  0
CIRCLE
  5
30
330
2
100
AcDbEntity
  8
-PROFILAUSSENKANT
100
AcDbCircle
 10
180.270282782085
 20
121.0663429306551
 30
0.0
 40
21.8
  0
LINE
  5
31
330
2
100
AcDbEntity
  8
-SYSTEM
100
AcDbLine
 10
180.2702827820851
 20
88.06634293065508
 30
0.0
 11
180.2702827820851
 21
154.0663429306551
 31
0.0
  0
CIRCLE
  5
32
330
2
100
AcDbEntity
  8
-PROFILAUSSENKANT
100
AcDbCircle
 10
180.2702827820851
 20
121.0663429306551
 30
0.0
 40
30.0
  0
CIRCLE
  5
33
330
2
100
AcDbEntity
  8
-PROFILAUSSENKANT
100
AcDbCircle
 10
180.2702827820851
 20
121.0663429306551
 30
0.0
 40
22.0
  0
DIMENSION
  5
34
330
2
100
AcDbEntity
  8
-TEXT3
100
AcDbDimension
  2
*D0
 10
210.2702827820851
 20
56.54210810803215
 30
0.0
 11
180.2702827820851
 21
59.48959281231495
 31
0.0
  1
%%c<>
 71
     5
 42
60.0
  3
1-1
100
AcDbAlignedDimension
 13
150.2702827820851
 23
121.0663429306551
 33
0.0
 14
210.2702827820851
 24
121.0663429306551
 34
0.0
100
AcDbRotatedDimension
  0
CIRCLE
  5
41
330
2
100
AcDbEntity
  8
-PROFILAUSSENKANT
100
AcDbCircle
 10
187.270282782085
 20
121.0663429306551
 30
0.0
 40
1.75
  0
CIRCLE
  5
42
330
2
100
AcDbEntity
  8
-PROFILAUSSENKANT
100
AcDbCircle
 10
176.770282782085
 20
115.0041651041642
 30
0.0
 40
1.75
  0
CIRCLE
  5
43
330
2
100
AcDbEntity
  8
-PROFILAUSSENKANT
100
AcDbCircle
 10
176.770282782085
 20
127.1285207571463
 30
0.0
 40
1.75
  0
CIRCLE
  5
44
330
2
100
AcDbEntity
  8
-PROFILAUSSENKANT
100
AcDbCircle
 10
280.2702827820849
 20
121.0663429306549
 30
0.0
 40
24.0
  0
LINE
  5
45
330
2
100
AcDbEntity
  8
-SYSTEM
100
AcDbLine
 10
250.2702827820849
 20
121.0663429306549
 30
0.0
 11
310.2702827820849
 21
121.0663429306549
 31
0.0
  0
CIRCLE
  5
46
330
2
100
AcDbEntity
  8
-PROFILAUSSENKANT
100
AcDbCircle
 10
280.2702827820849
 20
121.0663429306549
 30
0.0
 40
27.0
  0
LINE
  5
47
330
2
100
AcDbEntity
  8
-SYSTEM
100
AcDbLine
 10
280.270282782085
 20
151.0663429306551
 30
0.0
 11
280.2702827820848
 21
91.06634293065496
 31
0.0
  0
LINE
  5
48
330
2
100
AcDbEntity
  8
-SYSTEM
100
AcDbLine
 10
50.27028278208527
 20
121.0663429306549
 30
0.0
 11
110.2702827820853
 21
121.0663429306549
 31
0.0
  0
CIRCLE
  5
49
330
2
100
AcDbEntity
  8
-PROFILAUSSENKANT
100
AcDbCircle
 10
80.27028278208536
 20
121.0663429306549
 30
0.0
 40
16.0
  0
CIRCLE
  5
4A
330
2
100
AcDbEntity
  8
-PROFILAUSSENKANT
100
AcDbCircle
 10
280.2702827820849
 20
121.0663429306549
 30
0.0
 40
16.0
  0
LWPOLYLINE
  5
4B
330
2
100
AcDbEntity
  8
-PROFILAUSSENKANT
100
AcDbPolyline
 90
        2
 70
     0
 43
0.0
 10
105.3501551900541
 20
111.0663429306548
 10
151.9860115346233
 20
111.0663429306548
  0
LWPOLYLINE
  5
4C
330
2
100
AcDbEntity
  8
-PROFILAUSSENKANT
100
AcDbPolyline
 90
        2
 70
     0
 43
0.0
 10
151.9860115346232
 20
131.066342930655
 10
105.3501551900543
 20
131.0663429306548
  0
LWPOLYLINE
  5
4D
330
2
100
AcDbEntity
  8
-PROFILAUSSENKANT
100
AcDbPolyline
 90
        2
 70
     0
 43
0.0
 10
208.554554029547
 20
131.0663429306551
 10
255.190410374116
 20
131.0663429306548
  0
LWPOLYLINE
  5
4E
330
2
100
AcDbEntity
  8
-PROFILAUSSENKANT
100
AcDbPolyline
 90
        2
 70
     0
 43
0.0
 10
255.1904103741161
 20
111.0663429306547
 10
208.5545540295469
 20
111.0663429306547
  0
DIMENSION
  5
4F
330
2
100
AcDbEntity
  8
-TEXT3
100
AcDbDimension
  2
*D3
 10
80.27028278208536
 20
169.7864931109539
 30
0.0
 11
130.2702827820852
 21
172.6245284610558
 31
0.0
 71
     5
 42
99.99999999999978
  3
1-1
100
AcDbAlignedDimension
 13
180.2702827820851
 23
154.0663429306551
 33
0.0
 14
80.27028278208536
 24
151.0469144429382
 34
0.0
 50
180.0
100
AcDbRotatedDimension
  0
DIMENSION
  5
5C
330
2
100
AcDbEntity
  8
-TEXT3
100
AcDbDimension
  2
*D4
 10
307.2702827820849
 20
56.54210810803215
 30
0.0
 11
280.2702827820849
 21
59.48959281231495
 31
0.0
  1
%%c<>
 71
     5
 42
54.0
  3
1-1
100
AcDbAlignedDimension
 13
253.2702827820849
 23
121.0663429306549
 33
0.0
 14
307.2702827820849
 24
121.0663429306549
 34
0.0
100
AcDbRotatedDimension
  0
DIMENSION
  5
69
330
2
100
AcDbEntity
  8
-TEXT3
100
AcDbDimension
  2
*D6
 10
140.2702827820851
 20
302.9870766099771
 30
0.0
 11
137.4322474319831
 21
297.9870766099771
 31
0.0
 71
     5
 42
10.0
  3
1-1
100
AcDbAlignedDimension
 13
153.2702827820851
 23
292.9870766099771
 33
0.0
 14
150.2702827820851
 24
302.9870766099771
 34
0.0
 50
90.0
100
AcDbRotatedDimension
  0
DIMENSION
  5
76
330
2
100
AcDbEntity
  8
-TEXT3
100
AcDbDimension
  2
*D7
 10
163.2702827820851
 20
272.9870766099771
 30
0.0
 11
153.0058368269525
 21
275.9345613142599
 31
0.0
  1
%%c<>
 71
     5
 42
4.0
  3
1-1
100
AcDbAlignedDimension
 13
167.2702827820851
 23
292.9870766099771
 33
0.0
 14
163.2702827820851
 24
292.9870766099771
 34
0.0
 50
180.0
100
AcDbRotatedDimension
  0
DIMENSION
  5
85
330
2
100
AcDbEntity
  8
-TEXT3
100
AcDbDimension
  2
*D8
 10
197.2702827820851
 20
272.9870766099771
 30
0.0
 11
207.5347287372177
 21
275.9345613142599
 31
0.0
  1
%%c<>
 71
     5
 42
4.0
  3
1-1
100
AcDbAlignedDimension
 13
193.2702827820851
 23
292.9870766099771
 33
0.0
 14
197.2702827820851
 24
292.9870766099771
 34
0.0
100
AcDbRotatedDimension
  0
DIMENSION
  5
94
330
2
100
AcDbEntity
  8
-TEXT3
100
AcDbDimension
  2
*D9
 10
324.2702827820849
 20
332.9870766099771
 30
0.0
 11
321.4762651070338
 21
330.4870766099771
 31
0.0
 71
     5
 42
5.0
  3
1-1
100
AcDbAlignedDimension
 13
306.2702827820849
 23
327.9870766099771
 33
0.0
 14
235.6439371091045
 24
332.9870766099771
 34
0.0
 50
270.0
100
AcDbRotatedDimension
  0
LINE
  5
A3
330
2
100
AcDbEntity
  8
-PROFILAUSSENKANT
100
AcDbLine
 10
253.2702827820849
 20
302.9870766099771
 30
0.0
 11
210.2702827820851
 21
302.9870766099771
 31
0.0
  0
LINE
  5
A4
330
2
100
AcDbEntity
  8
-PROFILAUSSENKANT
100
AcDbLine
 10
253.2702827820849
 20
322.9870766099771
 30
0.0
 11
210.2702827820851
 21
322.9870766099771
 31
0.0
  0
MTEXT
  5
A5
330
2
100
AcDbEntity
  8
-TEXT3
100
AcDbMText
 10
110.7663182534551
 20
236.6194870221213
 30
0.0
 40
5.0
 41
117.9263367380109
 71
     4
 72
     5
  1
z.B.\PZylinderschraube \PDIN 6912-M20\PV4A (Nicht im Lieferumfang der Fa. Glassline GmbH)
 73
     1
 44
1.0
1001
ACAD
1000
MTEXTBEGIN
1070
    73
1070
     1
1070
    44
1040
1.0
1070
    74
1070
     0
1000
MTEXTEND
  0
DIMENSION
  5
A6
330
2
100
AcDbEntity
  8
-TEXT3
100
AcDbDimension
  2
*D10
 10
233.1439371091045
 20
292.9870766099771
 30
0.0
 11
230.3059017590025
 21
312.9870766099771
 31
0.0
 71
     5
 42
40.0
  3
1-1
100
AcDbAlignedDimension
 13
207.2702827820858
 23
332.9870766099771
 33
0.0
 14
207.2702827820845
 24
292.9870766099771
 34
0.0
 50
270.0
100
AcDbRotatedDimension
  0
DIMENSION
  5
B3
330
2
100
AcDbEntity
  8
-TEXT3
100
AcDbDimension
  2
*D11
 10
190.5202827820851
 20
282.9870766099771
 30
0.0
 11
180.2702827820851
 21
285.9345613142599
 31
0.0
  1
%%c<>
 71
     5
 42
20.5
  3
1-1
100
AcDbAlignedDimension
 13
170.0202827820851
 23
292.9870766099771
 33
0.0
 14
190.5202827820851
 24
292.9870766099771
 34
0.0
100
AcDbRotatedDimension
  0
LWPOLYLINE
  5
C0
330
2
100
AcDbEntity
  8
-VERDECKT
100
AcDbPolyline
 90
        6
 70
     0
 43
0.0
 10
170.270282782085
 20
302.9870766099771
 10
170.270282782085
 20
254.5210766099769
 10
171.804282782085
 20
252.9870766099771
 10
188.7362827820851
 20
252.9870766099771
 10
190.2702827820851
 20
254.5210766099769
 10
190.2702827820851
 20
302.9870766099771
  0
LINE
  5
C3
330
2
100
AcDbEntity
  8
-VERDECKT
100
AcDbLine
 10
170.270282782085
 20
254.5210766099769
 30
0.0
 11
190.2702827820851
 21
254.5210766099769
 31
0.0
  0
LINE
  5
C4
330
2
100
AcDbEntity
  8
-VERDECKT
100
AcDbLine
 10
171.804282782085
 20
302.9870766099771
 30
0.0
 11
171.804282782085
 21
252.9870766099771
 31
0.0
  0
LINE
  5
C5
330
2
100
AcDbEntity
  8
-VERDECKT
100
AcDbLine
 10
188.7362827820851
 20
302.9870766099771
 30
0.0
 11
188.7362827820851
 21
252.9870766099771
 31
0.0
  0
LINE
  5
C6
330
2
100
AcDbEntity
  8
-SCHRAFFUR
100
AcDbLine
 10
306.2702827820849
 20
300.9870766099771
 30
0.0
 11
254.2702827820849
 21
300.9870766099771
 31
0.0
  0
LINE
  5
C8
330
2
100
AcDbEntity
  8
-SCHRAFFUR
100
AcDbLine
 10
306.2702827820849
 20
324.9870766099771
 30
0.0
 11
254.2702827820849
 21
324.9870766099771
 31
0.0
  0
LWPOLYLINE
  5
C9
330
2
100
AcDbEntity
  8
-PROFILAUSSENKANT
100
AcDbPolyline
 90
        8
 70
     1
 43
0.0
 10
304.2702827820849
 20
327.9870766099771
 10
256.2702827820849
 20
327.9870766099771
 42
0.4142135623730951
 10
253.2702827820849
 20
324.9870766099771
 10
253.2702827820849
 20
300.9870766099771
 42
0.4142135623730951
 10
256.2702827820849
 20
297.9870766099771
 10
304.2702827820849
 20
297.9870766099771
 42
0.4142135623730951
 10
307.2702827820849
 20
300.9870766099771
 10
307.2702827820849
 20
324.9870766099771
 42
0.4142135623730951
  0
DIMENSION
  5
CA
330
2
100
AcDbEntity
  8
-TEXT3
100
AcDbDimension
  2
*D5
 10
324.2702827820849
 20
297.9870766099771
 30
0.0
 11
321.4322474319829
 21
312.9870766099771
 31
0.0
 71
     5
 42
30.0
  3
1-1
100
AcDbAlignedDimension
 13
304.2702827820849
 23
327.9870766099771
 33
0.0
 14
304.2702827820849
 24
297.9870766099771
 34
0.0
 50
270.0
100
AcDbRotatedDimension
  0
LINE
  5
D7
330
2
100
AcDbEntity
  8
-SYSTEM
100
AcDbLine
 10
180.2702827820851
 20
346.8074067809821
 30
0.0
 11
180.2702827820851
 21
245.9537720766463
 31
0.0
  0
LINE
  5
D8
330
2
100
AcDbEntity
  8
-SYSTEM
100
AcDbLine
 10
280.2702827820847
 20
329.6398730171418
 30
0.0
 11
280.2702827820847
 21
291.3805894288142
 31
0.0
  0
MTEXT
  5
D9
330
2
100
AcDbEntity
  8
-TEXT2
100
AcDbMText
 10
-91.53543598466127
 20
171.2298307301944
 30
0.0
 40
7.0
 41
128.864
 71
     1
 72
     5
  1
Hinweis:\P{\H0.7143x;Bei der Bestellung ist das Lagerungsprinzip anzugeben}
 73
     1
 44
1.0
1001
ACAD
1000
MTEXTBEGIN
1070
    73
1070
     1
1070
    44
1040
1.0
1070
    74
1070
     0
1000
MTEXTEND
  0
MTEXT
  5
DB
330
2
100
AcDbEntity
  8
-TEXT2
100
AcDbMText
 10
-91.53543598466127
 20
345.6389012769932
 30
0.0
 40
7.0
 41
128.864
 71
     1
 72
     5
  1
Möglichkeiten für die Sicherung vor Verdrehen:\P{\H0.7143x;(Nicht im Lieferumfang Fa. Glassline GmbH)\P\P1. Durch Kontermutter\P\P2. Durch 2 Zylinderstifte %%c4\P    (siehe Bohrbild für Unter-\P    konstruktion)}
 73
     1
 44
1.0
1001
ACAD
1000
MTEXTBEGIN
1070
    73
1070
     1
1070
    44
1040
1.0
1070
    74
1070
     0
1000
MTEXTEND
  0
LINE
  5
DC
330
2
100
AcDbEntity
  8
-PROFILAUSSENKANT
100
AcDbLine
 10
11.2903637415236
 20
231.5769245092235
 30
0.0
 11
11.2903637415236
 21
191.4622031885471
 31
0.0
  0
LINE
  5
DD
330
2
100
AcDbEntity
  8
-SCHRAFFUR
100
AcDbLine
 10
54.27028278208533
 20
324.9870766099771
 30
0.0
 11
106.2702827820853
 21
324.9870766099771
 31
0.0
  0
LINE
  5
DE
330
2
100
AcDbEntity
  8
-SCHRAFFUR
100
AcDbLine
 10
54.27028278208533
 20
300.9870766099771
 30
0.0
 11
106.2702827820853
 21
300.9870766099771
 31
0.0
  0
LWPOLYLINE
  5
DF
330
2
100
AcDbEntity
  8
-PROFILAUSSENKANT
100
AcDbPolyline
 90
        8
 70
     1
 43
0.0
 10
56.27028278208533
 20
297.9870766099771
 10
104.2702827820853
 20
297.9870766099771
 42
0.4142135623730951
 10
107.2702827820853
 20
300.9870766099771
 10
107.2702827820853
 20
324.9870766099771
 42
0.4142135623730951
 10
104.2702827820853
 20
327.9870766099771
 10
56.27028278208533
 20
327.9870766099771
 42
0.4142135623730951
 10
53.27028278208533
 20
324.9870766099771
 10
53.27028278208533
 20
300.9870766099771
 42
0.4142135623730951
  0
LINE
  5
E0
330
2
100
AcDbEntity
  8
-PROFILAUSSENKANT
100
AcDbLine
 10
107.2702827820853
 20
322.9870766099771
 30
0.0
 11
150.2702827820851
 21
322.9870766099771
 31
0.0
  0
LINE
  5
E1
330
2
100
AcDbEntity
  8
-PROFILAUSSENKANT
100
AcDbLine
 10
107.2702827820853
 20
302.9870766099771
 30
0.0
 11
150.2702827820851
 21
302.9870766099771
 31
0.0
  0
LINE
  5
E2
330
2
100
AcDbEntity
  8
-SYSTEM
100
AcDbLine
 10
80.27028278208533
 20
329.6398730171418
 30
0.0
 11
80.27028278208533
 21
291.3805894288142
 31
0.0
  0
DIMENSION
  5
E3
330
2
100
AcDbEntity
  8
-TEXT3
100
AcDbDimension
  2
*D12
 10
197.4702827820851
 20
323.7317319501613
 30
0.0
 11
180.2702827820851
 21
326.6792166544441
 31
0.0
  1
%%c<>
 71
     5
 42
34.39999999999998
  3
1-1
100
AcDbAlignedDimension
 13
163.0702827820851
 23
314.6878575397474
 33
0.0
 14
197.4702827820851
 24
313.7317319501613
 34
0.0
100
AcDbRotatedDimension
  0
HATCH
  5
F0
330
2
100
AcDbEntity
  8
-SCHRAFFUR
100
AcDbHatch
 10
0.0
 20
0.0
 30
0.0
210
0.0
220
0.0
230
1.0
  2
STEEL
 70
     0
 71
     1
 91
        4
 92
        5
 93
        6
 72
     4
 94
        3
 73
     0
 74
     0
 95
       12
 96
        8
 40
3.139547897436759
 40
3.139547897436759
 40
3.139547897436759
 40
3.139547897436759
 40
12.22012148216158
 40
14.75673783440439
 40
16.83598003977303
 40
21.00211347202998
 40
25.46616165127713
 40
25.46616165127713
 40
25.46616165127713
 40
25.46616165127713
 10
163.0702827820851
 20
314.6878575397473
 10
161.3269227593053
 20
312.2353787954296
 10
161.0783473492852
 20
307.517279460205
 10
161.698362901593
 20
302.9084462791444
 10
160.4387988475574
 20
301.4182788722302
 10
162.1201961680992
 20
297.1998468793383
 10
161.5112071883229
 20
294.3810088094245
 10
160.9792340750643
 20
292.9870766099771
 72
     1
 10
160.9792340750643
 20
292.987076609977
 11
163.1511221926061
 21
292.987076609977
 72
     1
 10
163.1511221926061
 20
292.987076609977
 11
163.2702827820851
 21
293.106237199456
 72
     1
 10
163.2702827820851
 20
293.106237199456
 11
163.2702827820851
 21
302.9870766099766
 72
     1
 10
163.2702827820851
 20
302.9870766099766
 11
163.0702827820851
 21
302.9870766099766
 72
     1
 10
163.0702827820851
 20
302.9870766099766
 11
163.0702827820851
 21
314.6878575397473
 97
        6
330
F1
330
F2
330
F3
330
F4
330
F5
330
F6
 92
        7
 72
     0
 73
     1
 93
        5
 10
167.2702827820851
 20
292.9870766099771
 10
170.0202827820851
 20
292.9870766099771
 10
170.0202827820851
 20
302.9870766099767
 10
167.3300543807403
 20
302.9870766099767
 10
167.2702827820851
 20
302.9273050113216
 97
        5
330
F1
330
F7
330
F8
330
F4
330
F9
 92
        5
 93
        5
 72
     1
 10
197.2702827820851
 20
292.9870766099771
 11
203.1092109048798
 21
292.9870766099771
 72
     4
 94
        3
 73
     0
 74
     0
 95
       11
 96
        7
 40
60.76457887542455
 40
60.76457887542455
 40
60.76457887542455
 40
60.76457887542455
 40
66.82272971833253
 40
72.47905350920233
 40
78.58698044938293
 40
83.44230396148169
 40
83.44230396148169
 40
83.44230396148169
 40
83.44230396148169
 10
203.1092109048798
 20
292.9870766099771
 10
203.1317738332429
 20
295.1427554253983
 10
202.6411308987387
 20
299.0354339332196
 10
198.3481066039352
 20
302.2632266105997
 10
198.5492684437246
 20
308.0873595361265
 10
198.2733473363687
 20
312.3593088248149
 10
197.4702827820851
 20
313.7317319501613
 72
     1
 10
197.4702827820851
 20
313.7317319501613
 11
197.470282782085
 21
302.9870766099771
 72
     1
 10
197.470282782085
 20
302.9870766099771
 11
197.2702827820851
 21
302.9870766099771
 72
     1
 10
197.2702827820851
 20
302.9870766099771
 11
197.2702827820851
 21
292.9870766099771
 97
        5
330
F3
330
FA
330
F1
330
FB
330
F4
 92
        7
 72
     0
 73
     1
 93
        4
 10
193.2702827820851
 20
302.9870766099771
 10
190.5202827820851
 20
302.987076609977
 10
190.5202827820851
 20
292.987076609977
 10
193.2702827820851
 20
292.987076609977
 97
        4
330
F1
330
FC
330
F4
330
FD
 75
     0
 76
     1
 52
0.0
 41
20.0
 77
     0
 78
     2
 53
45.0
 43
44.65520697333317
 44
142.8165933656673
 45
-1.767766952966368
 46
1.767766952966368
 79
     0
 53
45.0
 43
44.65520697333317
 44
144.0665933656673
 45
-1.767766952966368
 46
1.767766952966368
 79
     0
 47
0.1057216219727582
 98
        4
 10
162.3291712413844
 20
298.5194761753306
 10
168.5693007083758
 20
298.8366409260301
 10
199.6641885115611
 20
297.5679812370403
 10
192.2606438452254
 20
297.3565380699073
  0
LINE
  5
F1
102
{ACAD_REACTORS
330
F0
102
}
330
2
100
AcDbEntity
  8
-PROFILAUSSENKANT
100
AcDbLine
 10
163.0702827820851
 20
302.9870766099767
 30
0.0
 11
197.4702827820851
 21
302.9870766099771
 31
0.0
  0
LINE
  5
F2
102
{ACAD_REACTORS
330
F0
102
}
330
2
100
AcDbEntity
  8
-PROFILAUSSENKANT
100
AcDbLine
 10
163.0702827820851
 20
302.9870766099767
 30
0.0
 11
163.0702827820851
 21
314.6878575397474
 31
0.0
  0
SPLINE
  5
F3
102
{ACAD_REACTORS
330
F0
102
}
330
2
100
AcDbEntity
  8
-PROFILAUSSENKANT
100
AcDbSpline
210
0.0
220
0.0
230
1.0
 70
     8
 71
     3
 72
    19
 73
    15
 74
     0
 42
0.0000000001
 43
0.0000000001
 40
3.139547897436759
 40
3.139547897436759
 40
3.139547897436759
 40
3.139547897436759
 40
7.603596076683914
 40
11.76972950894086
 40
13.8489717143095
 40
16.38558806655231
 40
26.56351612022822
 40
35.27866285960271
 40
55.00961753100675
 40
59.83958985253718
 40
65.61990238752329
 40
71.7278293277039
 40
77.3841531185737
 40
83.44230396148168
 40
83.44230396148168
 40
83.44230396148168
 40
83.44230396148168
 10
160.9792340750643
 20
292.9870766099771
 30
0.0
 10
161.5112071883229
 20
294.3810088094245
 30
0.0
 10
162.1201961680992
 20
297.1998468793383
 30
0.0
 10
160.4387988475574
 20
301.4182788722302
 30
0.0
 10
161.698362901593
 20
302.9084462791444
 30
0.0
 10
161.0286718695637
 20
307.8865379382764
 30
0.0
 10
161.6221545012217
 20
316.7307487154991
 30
0.0
 10
177.5513297373149
 20
319.8881461769512
 30
0.0
 10
186.3673235350576
 20
318.2391095251808
 30
0.0
 10
198.0871300261495
 20
314.9812686609149
 30
0.0
 10
198.5604644281046
 20
308.4115109821944
 30
0.0
 10
198.3481066039352
 20
302.2632266105997
 30
0.0
 10
202.6411308987387
 20
299.0354339332196
 30
0.0
 10
203.1317738332429
 20
295.1427554253983
 30
0.0
 10
203.1092109048798
 20
292.9870766099771
 30
0.0
  0
LWPOLYLINE
  5
F4
102
{ACAD_REACTORS
330
F0
102
}
330
2
100
AcDbEntity
  8
-PROFILAUSSENKANT
100
AcDbPolyline
 90
       12
 70
     1
 43
0.0
 10
150.2702827820851
 20
322.9870766099772
 10
150.2702827820851
 20
329.9870766099771
 42
-0.4142135623730951
 10
153.2702827820851
 20
332.9870766099771
 10
207.2702827820851
 20
332.9870766099771
 42
-0.4142135623730951
 10
210.2702827820851
 20
329.9870766099771
 10
210.2702827820851
 20
322.9870766099771
 42
0.1715728752538215
 10
210.2702827820851
 20
302.9870766099771
 10
210.2702827820851
 20
295.9870766099771
 42
-0.4142135623730951
 10
207.2702827820851
 20
292.9870766099771
 10
153.2702827820851
 20
292.9870766099771
 42
-0.4142135623730951
 10
150.2702827820851
 20
295.9870766099771
 10
150.2702827820851
 20
302.9870766099772
 42
0.1710663645355458
  0
LINE
  5
F5
102
{ACAD_REACTORS
330
F0
102
}
330
2
100
AcDbEntity
  8
-SCHRAFFUR
100
AcDbLine
 10
163.1511221926061
 20
292.9870766099771
 30
0.0
 11
163.2702827820851
 21
293.106237199456
 31
0.0
  0
LINE
  5
F6
102
{ACAD_REACTORS
330
F0
102
}
330
2
100
AcDbEntity
  8
-PROFILAUSSENKANT
100
AcDbLine
 10
163.2702827820851
 20
302.9870766099771
 30
0.0
 11
163.2702827820851
 21
292.9870766099771
 31
0.0
  0
LINE
  5
F7
102
{ACAD_REACTORS
330
F0
102
}
330
2
100
AcDbEntity
  8
-SCHRAFFUR
100
AcDbLine
 10
167.2702827820851
 20
302.9273050113216
 30
0.0
 11
167.3300543807403
 21
302.9870766099767
 31
0.0
  0
LINE
  5
F8
102
{ACAD_REACTORS
330
F0
102
}
330
2
100
AcDbEntity
  8
-PROFILAUSSENKANT
100
AcDbLine
 10
167.2702827820851
 20
302.9870766099771
 30
0.0
 11
167.2702827820851
 21
292.9870766099771
 31
0.0
  0
LINE
  5
F9
102
{ACAD_REACTORS
330
F0
102
}
330
2
100
AcDbEntity
  8
-PROFILAUSSENKANT
100
AcDbLine
 10
170.0202827820851
 20
302.9870766099771
 30
0.0
 11
170.0202827820851
 21
292.9870766099771
 31
0.0
  0
LINE
  5
FA
102
{ACAD_REACTORS
330
F0
102
}
330
2
100
AcDbEntity
  8
-PROFILAUSSENKANT
100
AcDbLine
 10
197.4702827820851
 20
302.9870766099771
 30
0.0
 11
197.4702827820851
 21
313.7317319501613
 31
0.0
  0
LINE
  5
FB
102
{ACAD_REACTORS
330
F0
102
}
330
2
100
AcDbEntity
  8
-PROFILAUSSENKANT
100
AcDbLine
 10
197.2702827820851
 20
302.9870766099771
 30
0.0
 11
197.2702827820851
 21
292.9870766099771
 31
0.0
  0
LINE
  5
FC
102
{ACAD_REACTORS
330
F0
102
}
330
2
100
AcDbEntity
  8
-PROFILAUSSENKANT
100
AcDbLine
 10
190.5202827820851
 20
302.9870766099771
 30
0.0
 11
190.5202827820851
 21
292.9870766099771
 31
0.0
  0
LINE
  5
FD
102
{ACAD_REACTORS
330
F0
102
}
330
2
100
AcDbEntity
  8
-PROFILAUSSENKANT
100
AcDbLine
 10
193.2702827820851
 20
302.9870766099771
 30
0.0
 11
193.2702827820851
 21
292.9870766099771
 31
0.0
  0
LINE
  5
FE
330
2
100
AcDbEntity
  8
-PROFILAUSSENKANT
100
AcDbLine
 10
150.2702827820851
 20
295.9870766099771
 30
0.0
 11
150.2702827820851
 21
295.9870766099771
 31
0.0
  0
ARC
  5
FF
330
2
100
AcDbEntity
  8
-VERDECKT
100
AcDbCircle
 10
172.9090668499174
 20
311.4974932766436
 30
0.0
 40
3.510416666666534
100
AcDbArc
 50
225.6541435925153
 51
314.3458564074847
  0
ARC
  5
100
330
2
100
AcDbEntity
  8
-VERDECKT
100
AcDbCircle
 10
187.6314987142528
 20
311.4974932766437
 30
0.0
 40
3.510416666666554
100
AcDbArc
 50
225.6541435925187
 51
314.3458564074847
  0
ARC
  5
101
330
2
100
AcDbEntity
  8
-VERDECKT
100
AcDbCircle
 10
180.2702827820851
 20
319.0278305616218
 30
0.0
 40
14.04101396804383
100
AcDbArc
 50
225.6515402638893
 51
314.3484597361119
  0
ARC
  5
102
330
2
100
AcDbEntity
  8
-VERDECKT
100
AcDbCircle
 10
180.3601533092137
 20
320.0845601279829
 30
0.0
 40
12.09807734046535
100
AcDbArc
 50
246.5335134409031
 51
293.4664865590969
  0
LINE
  5
103
330
2
100
AcDbEntity
  8
-VERDECKT
100
AcDbLine
 10
185.1777600701969
 20
308.9870766099771
 30
0.0
 11
185.1777600701969
 21
314.9870766099771
 31
0.0
  0
LINE
  5
104
330
2
100
AcDbEntity
  8
-VERDECKT
100
AcDbLine
 10
190.0852373583088
 20
308.9870766099772
 30
0.0
 11
190.0852373583088
 21
314.9870766099771
 31
0.0
  0
LINE
  5
105
330
2
100
AcDbEntity
  8
-VERDECKT
100
AcDbLine
 10
170.4553282058615
 20
308.9870766099771
 30
0.0
 11
170.4553282058615
 21
314.9870766099771
 31
0.0
  0
LINE
  5
106
330
2
100
AcDbEntity
  8
-VERDECKT
100
AcDbLine
 10
175.5425465482305
 20
308.9870766099771
 30
0.0
 11
175.5425465482305
 21
314.9870766099771
 31
0.0
  0
LWPOLYLINE
  5
107
330
2
100
AcDbEntity
  8
-VERDECKT
100
AcDbPolyline
 90
        6
 70
     1
 43
0.0
 10
165.2702827820851
 20
302.9870766099771
 10
195.2702827820851
 20
302.9870766099771
 10
195.2702827820851
 20
312.9870766099771
 42
0.4142135623730951
 10
193.2702827820851
 20
314.9870766099771
 10
167.2702827820851
 20
314.9870766099771
 42
0.4142135623730951
 10
165.2702827820851
 20
312.9870766099771
  0
LINE
  5
108
330
2
100
AcDbEntity
  8
-SCHRAFFUR
100
AcDbLine
 10
151.2702827820851
 20
329.9870766099771
 30
0.0
 11
209.2702827820851
 21
329.9870766099771
 31
0.0
  0
CIRCLE
  5
109
330
2
100
AcDbEntity
  8
-PROFILAUSSENKANT
100
AcDbCircle
 10
-28.7096362584764
 20
211.5195638488854
 30
0.0
 40
10.5
  0
LINE
  5
10A
330
2
100
AcDbEntity
  8
-SYSTEM
100
AcDbLine
 10
-22.01426163051906
 20
226.5195638488854
 30
0.0
 11
-35.40501088643373
 21
226.5195638488854
 31
0.0
  0
CIRCLE
  5
10B
330
2
100
AcDbEntity
  8
-PROFILAUSSENKANT
100
AcDbCircle
 10
-28.7096362584764
 20
226.5195638488854
 30
0.0
 40
3.0
  0
LINE
  5
10C
330
2
100
AcDbEntity
  8
-SYSTEM
100
AcDbLine
 10
-15.31888700256172
 20
211.5195638488854
 30
0.0
 11
-42.10038551439106
 21
211.5195638488854
 31
0.0
  0
DIMENSION
  5
10D
330
2
100
AcDbEntity
  8
-TEXT3
100
AcDbDimension
  2
*D13
 10
-31.48372151527955
 20
225.3774382043142
 30
0.0
 11
-17.60470366266503
 21
234.2791243594966
 31
0.0
 70
     3
 71
     5
 42
6.000000000000014
  3
1-1
100
AcDbDiametricDimension
 15
-25.93555100167314
 25
227.6616894934566
 35
0.0
 40
0.0
1001
ACAD
1000
DSTYLE
1002
{
1070
   288
1070
     1
1002
}
  0
LINE
  5
119
330
2
100
AcDbEntity
  8
-SYSTEM
100
AcDbLine
 10
-24.52357080816887
 20
196.5195638488853
 30
0.0
 11
-37.91432006408354
 21
196.5195638488853
 31
0.0
  0
CIRCLE
  5
11A
330
2
100
AcDbEntity
  8
-PROFILAUSSENKANT
100
AcDbCircle
 10
-28.7096362584764
 20
196.5195638488853
 30
0.0
 40
3.0
  0
DIMENSION
  5
11B
330
2
100
AcDbEntity
  8
-TEXT3
100
AcDbDimension
  2
*D14
 10
-31.22757902949971
 20
198.1505035172519
 30
0.0
 11
-16.00915540177999
 21
191.8048959619564
 31
0.0
 70
     3
 71
     5
 42
6.000000000000085
  3
1-1
100
AcDbDiametricDimension
 15
-26.19169348745311
 25
194.8886241805187
 35
0.0
 40
0.0
1001
ACAD
1000
DSTYLE
1002
{
1070
   288
1070
     1
1002
}
  0
DIMENSION
  5
127
330
2
100
AcDbEntity
  8
-TEXT3
100
AcDbDimension
  2
*D15
 10
-53.11092916142502
 20
226.5195638488854
 30
0.0
 11
-55.90494683647604
 21
219.0195638488853
 31
0.0
 71
     5
 42
15.0
  3
1-1
100
AcDbAlignedDimension
 13
-42.10038551439106
 23
211.5195638488854
 33
0.0
 14
-35.40501088643373
 24
226.5195638488854
 34
0.0
 50
90.0
100
AcDbRotatedDimension
  0
DIMENSION
  5
134
330
2
100
AcDbEntity
  8
-TEXT3
100
AcDbDimension
  2
*D16
 10
-53.11092916142502
 20
211.5195638488854
 30
0.0
 11
-55.90494683647604
 21
204.0195638488853
 31
0.0
 71
     5
 42
15.0
  3
1-1
100
AcDbAlignedDimension
 13
-35.40501088643373
 23
196.5195638488853
 33
0.0
 14
-42.10038551439106
 24
211.5195638488854
 34
0.0
 50
90.0
100
AcDbRotatedDimension
  0
LINE
  5
141
330
2
100
AcDbEntity
  8
-SYSTEM
100
AcDbLine
 10
-28.7096362584764
 20
192.0761959292973
 30
0.0
 11
-28.7096362584764
 21
230.9629317684734
 31
0.0
  0
LINE
  5
142
330
2
100
AcDbEntity
  8
-PROFILAUSSENKANT
100
AcDbLine
 10
-68.7096362584764
 20
231.5769245092235
 30
0.0
 11
-68.7096362584764
 21
191.4622031885471
 31
0.0
  0
ENDSEC
  0
SECTION
  2
OBJECTS
  0
DICTIONARY
  5
7
330
0
100
AcDbDictionary
281
     1
  3
ACAD_COLOR
350
15D
  3
ACAD_GROUP
350
159
  3
ACAD_LAYOUT
350
145
  3
ACAD_MATERIAL
350
15C
  3
ACAD_MLINESTYLE
350
15A
  3
ACAD_PLOTSETTINGS
350
15B
  3
ACAD_PLOTSTYLENAME
350
6
  3
ACDBHEADERROUNDTRIPXREC
350
163
  3
AcDbVariableDictionary
350
15F
  0
DICTIONARY
  5
14B
330
14A
100
AcDbDictionary
280
     1
281
     1
  3
ACAD_LAYERSTATES
360
14C
  0
DICTIONARY
  5
15D
102
{ACAD_REACTORS
330
7
102
}
330
7
100
AcDbDictionary
281
     1
  0
DICTIONARY
  5
159
102
{ACAD_REACTORS
330
7
102
}
330
7
100
AcDbDictionary
281
     1
  0
DICTIONARY
  5
145
102
{ACAD_REACTORS
330
7
102
}
330
7
100
AcDbDictionary
281
     1
  3
Layout1
350
149
  3
Model
350
144
  0
DICTIONARY
  5
15C
102
{ACAD_REACTORS
330
7
102
}
330
7
100
AcDbDictionary
281
     1
  0
DICTIONARY
  5
15A
102
{ACAD_REACTORS
330
7
102
}
330
7
100
AcDbDictionary
281
     1
  3
STANDARD
350
15E
  0
DICTIONARY
  5
15B
102
{ACAD_REACTORS
330
7
102
}
330
7
100
AcDbDictionary
281
     1
  0
ACDBDICTIONARYWDFLT
  5
6
102
{ACAD_REACTORS
330
7
102
}
330
7
100
AcDbDictionary
281
     1
  3
Normal
350
5
100
AcDbDictionaryWithDefault
340
5
  0
DICTIONARY
  5
163
102
{ACAD_REACTORS
330
7
102
}
330
7
100
AcDbDictionary
281
     1
  0
DICTIONARY
  5
15F
102
{ACAD_REACTORS
330
7
102
}
330
7
100
AcDbDictionary
281
     1
  3
DIMASSOC
350
161
  3
HIDETEXT
350
160
  3
PROJECTNAME
350
162
  0
DICTIONARY
  5
14C
102
{ACAD_REACTORS
330
14B
102
}
330
14B
100
AcDbDictionary
281
     1
  0
LAYOUT
  5
149
102
{ACAD_XDICTIONARY
360
167
102
}
102
{ACAD_REACTORS
330
145
102
}
330
145
100
AcDbPlotSettings
  1

  2
HP DeskJet 1120C Printer
  4

  6

 40
0.0
 41
0.0
 42
0.0
 43
0.0
 44
0.0
 45
0.0
 46
0.0
 47
0.0
 48
0.0
 49
0.0
140
0.0
141
0.0
142
1.0
143
1.0
 70
   688
 72
     0
 73
     0
 74
     5
  7
monochrome.ctb
 75
    16
147
1.0
148
0.0
149
0.0
100
AcDbLayout
  1
Layout1
 70
     1
 71
     1
 10
0.0
 20
0.0
 11
420.0
 21
297.0
 12
0.0
 22
0.0
 32
0.0
 14
1.000000000000000E+20
 24
1.000000000000000E+20
 34
1.000000000000000E+20
 15
-1.000000000000000E+20
 25
-1.000000000000000E+20
 35
-1.000000000000000E+20
146
0.0
 13
0.0
 23
0.0
 33
0.0
 16
1.0
 26
0.0
 36
0.0
 17
0.0
 27
1.0
 37
0.0
 76
     0
330
146
  0
LAYOUT
  5
144
102
{ACAD_XDICTIONARY
360
165
102
}
102
{ACAD_REACTORS
330
145
102
}
330
145
100
AcDbPlotSettings
  1

  2
HP DeskJet 1120C Printer
  4
A4
  6

 40
4.180416584014892
 41
13.49374103546142
 42
4.180404663085937
 43
3.757080078125
 44
209.9733276367187
 45
296.9259948730469
 46
0.0
 47
0.0
 48
96.61539676318234
 49
909.4790984012657
140
296.6153967631823
141
1109.479098401266
142
1.0
143
2.5
 70
 11936
 72
     1
 73
     1
 74
     4
  7
monochrome.ctb
 75
     0
147
0.4
148
-96.61539676318234
149
-909.4790984012657
100
AcDbLayout
  1
Model
 70
     1
 71
     0
 10
0.0
 20
0.0
 11
12.0
 21
9.0
 12
0.0
 22
0.0
 32
0.0
 14
0.0
 24
0.0
 34
0.0
 15
0.0
 25
0.0
 35
0.0
146
0.0
 13
0.0
 23
0.0
 33
0.0
 16
1.0
 26
0.0
 36
0.0
 17
0.0
 27
1.0
 37
0.0
 76
     0
330
2
  0
MLINESTYLE
  5
15E
102
{ACAD_REACTORS
330
15A
102
}
330
15A
100
AcDbMlineStyle
  2
STANDARD
 70
     0
  3

 62
     0
 51
90.0
 52
90.0
 71
     2
 49
0.5
 62
   256
  6
BYLAYER
 49
-0.5
 62
   256
  6
BYLAYER
  0
ACDBPLACEHOLDER
  5
5
102
{ACAD_REACTORS
330
6
102
}
330
6
  0
DICTIONARYVAR
  5
161
102
{ACAD_REACTORS
330
15F
102
}
330
15F
100
DictionaryVariables
280
     0
  1
1
  0
DICTIONARYVAR
  5
160
102
{ACAD_REACTORS
330
15F
102
}
330
15F
100
DictionaryVariables
280
     0
  1
1
  0
DICTIONARYVAR
  5
162
102
{ACAD_REACTORS
330
15F
102
}
330
15F
100
DictionaryVariables
280
     0
  1

  0
DICTIONARY
  5
167
330
149
100
AcDbDictionary
280
     1
281
     1
  3
ACAD_XREC_ROUNDTRIP
360
168
  0
DICTIONARY
  5
165
330
144
100
AcDbDictionary
280
     1
281
     1
  3
ACAD_XREC_ROUNDTRIP
360
166
  0
XRECORD
  5
168
102
{ACAD_REACTORS
330
167
102
}
330
167
100
AcDbXrecord
280
     1
102
SHADEPLOT
 70
     0
102
SHADEPLOTRESLEVEL
 70
     2
102
SHADEPLOTCUSTOMDPI
 70
   300
  0
XRECORD
  5
166
102
{ACAD_REACTORS
330
165
102
}
330
165
100
AcDbXrecord
280
     1
102
SHADEPLOT
 70
     0
102
SHADEPLOTRESLEVEL
 70
     2
102
SHADEPLOTCUSTOMDPI
 70
   300
  0
ENDSEC
  0
EOF
