  0
SECTION
  2
HEADER
  9
$ACADVER
  1
AC1018
  9
$ACADMAINTVER
 70
     0
  9
$DWGCODEPAGE
  3
ANSI_1252
  9
$INSBASE
 10
-166.6457402984818
 20
909.4790984012655
 30
0.0
  9
$EXTMIN
 10
1.000000000000000E+20
 20
1.000000000000000E+20
 30
1.000000000000000E+20
  9
$EXTMAX
 10
0.0
 20
0.0
 30
0.0
  9
$LIMMIN
 10
0.0
 20
0.0
  9
$LIMMAX
 10
420.0
 20
297.0
  9
$ORTHOMODE
 70
     1
  9
$REGENMODE
 70
     1
  9
$FILLMODE
 70
     1
  9
$QTEXTMODE
 70
     0
  9
$MIRRTEXT
 70
     1
  9
$LTSCALE
 40
0.25
  9
$ATTMODE
 70
     1
  9
$TEXTSIZE
 40
2.5
  9
$TRACEWID
 40
1.0
  9
$TEXTSTYLE
  7
STANDARD
  9
$CLAYER
  8
-PROFILAUSSENKANTE
  9
$CELTYPE
  6
BYLAYER
  9
$CECOLOR
 62
   256
  9
$CELTSCALE
 40
1.0
  9
$DISPSILH
 70
     0
  9
$DIMSCALE
 40
96.0
  9
$DIMASZ
 40
3.0
  9
$DIMEXO
 40
1.0
  9
$DIMDLI
 40
3.75
  9
$DIMRND
 40
0.0
  9
$DIMDLE
 40
0.0
  9
$DIMEXE
 40
1.25
  9
$DIMTP
 40
0.0
  9
$DIMTM
 40
0.0
  9
$DIMTXT
 40
3.5
  9
$DIMCEN
 40
2.5
  9
$DIMTSZ
 40
0.0
  9
$DIMTOL
 70
     0
  9
$DIMLIM
 70
     0
  9
$DIMTIH
 70
     0
  9
$DIMTOH
 70
     0
  9
$DIMSE1
 70
     0
  9
$DIMSE2
 70
     0
  9
$DIMTAD
 70
     1
  9
$DIMZIN
 70
     8
  9
$DIMBLK
  1

  9
$DIMASO
 70
     1
  9
$DIMSHO
 70
     1
  9
$DIMPOST
  1

  9
$DIMAPOST
  1

  9
$DIMALT
 70
     0
  9
$DIMALTD
 70
     4
  9
$DIMALTF
 40
0.0394
  9
$DIMLFAC
 40
1.0
  9
$DIMTOFL
 70
     1
  9
$DIMTVP
 40
0.0
  9
$DIMTIX
 70
     0
  9
$DIMSOXD
 70
     0
  9
$DIMSAH
 70
     0
  9
$DIMBLK1
  1

  9
$DIMBLK2
  1

  9
$DIMSTYLE
  2
1-1
  9
$DIMCLRD
 70
   256
  9
$DIMCLRE
 70
   256
  9
$DIMCLRT
 70
   256
  9
$DIMTFAC
 40
1.0
  9
$DIMGAP
 40
1.0
  9
$DIMJUST
 70
     0
  9
$DIMSD1
 70
     0
  9
$DIMSD2
 70
     0
  9
$DIMTOLJ
 70
     1
  9
$DIMTZIN
 70
     8
  9
$DIMALTZ
 70
     0
  9
$DIMALTTZ
 70
     0
  9
$DIMUPT
 70
     0
  9
$DIMDEC
 70
     1
  9
$DIMTDEC
 70
     1
  9
$DIMALTU
 70
     8
  9
$DIMALTTD
 70
     4
  9
$DIMTXSTY
  7
STANDARD
  9
$DIMAUNIT
 70
     0
  9
$DIMADEC
 70
     0
  9
$DIMALTRND
 40
0.0
  9
$DIMAZIN
 70
     0
  9
$DIMDSEP
 70
    46
  9
$DIMATFIT
 70
     3
  9
$DIMFRAC
 70
     0
  9
$DIMLDRBLK
  1

  9
$DIMLUNIT
 70
     2
  9
$DIMLWD
 70
    -2
  9
$DIMLWE
 70
    -2
  9
$DIMTMOVE
 70
     0
  9
$LUNITS
 70
     4
  9
$LUPREC
 70
     4
  9
$SKETCHINC
 40
1.0
  9
$FILLETRAD
 40
0.0
  9
$AUNITS
 70
     0
  9
$AUPREC
 70
     2
  9
$MENU
  1
.
  9
$ELEVATION
 40
0.0
  9
$PELEVATION
 40
0.0
  9
$THICKNESS
 40
0.0
  9
$LIMCHECK
 70
     0
  9
$CHAMFERA
 40
10.0
  9
$CHAMFERB
 40
10.0
  9
$CHAMFERC
 40
20.0
  9
$CHAMFERD
 40
0.0
  9
$SKPOLY
 70
     0
  9
$TDCREATE
 40
2451456.681014584
  9
$TDUCREATE
 40
2451456.597681250
  9
$TDUPDATE
 40
2455701.676219884
  9
$TDUUPDATE
 40
2455701.592886551
  9
$TDINDWG
 40
1.1857555903
  9
$TDUSRTIMER
 40
1.1857554167
  9
$USRTIMER
 70
     1
  9
$ANGBASE
 50
0.0
  9
$ANGDIR
 70
     0
  9
$PDMODE
 70
     2
  9
$PDSIZE
 40
5.0
  9
$PLINEWID
 40
0.0
  9
$SPLFRAME
 70
     0
  9
$SPLINETYPE
 70
     6
  9
$SPLINESEGS
 70
    50
  9
$HANDSEED
  5
145
  9
$SURFTAB1
 70
     6
  9
$SURFTAB2
 70
     6
  9
$SURFTYPE
 70
     6
  9
$SURFU
 70
     6
  9
$SURFV
 70
     6
  9
$UCSBASE
  2

  9
$UCSNAME
  2

  9
$UCSORG
 10
0.0
 20
0.0
 30
0.0
  9
$UCSXDIR
 10
1.0
 20
0.0
 30
0.0
  9
$UCSYDIR
 10
0.0
 20
1.0
 30
0.0
  9
$UCSORTHOREF
  2

  9
$UCSORTHOVIEW
 70
     0
  9
$UCSORGTOP
 10
0.0
 20
0.0
 30
0.0
  9
$UCSORGBOTTOM
 10
0.0
 20
0.0
 30
0.0
  9
$UCSORGLEFT
 10
0.0
 20
0.0
 30
0.0
  9
$UCSORGRIGHT
 10
0.0
 20
0.0
 30
0.0
  9
$UCSORGFRONT
 10
0.0
 20
0.0
 30
0.0
  9
$UCSORGBACK
 10
0.0
 20
0.0
 30
0.0
  9
$PUCSBASE
  2

  9
$PUCSNAME
  2

  9
$PUCSORG
 10
0.0
 20
0.0
 30
0.0
  9
$PUCSXDIR
 10
1.0
 20
0.0
 30
0.0
  9
$PUCSYDIR
 10
0.0
 20
1.0
 30
0.0
  9
$PUCSORTHOREF
  2

  9
$PUCSORTHOVIEW
 70
     0
  9
$PUCSORGTOP
 10
0.0
 20
0.0
 30
0.0
  9
$PUCSORGBOTTOM
 10
0.0
 20
0.0
 30
0.0
  9
$PUCSORGLEFT
 10
0.0
 20
0.0
 30
0.0
  9
$PUCSORGRIGHT
 10
0.0
 20
0.0
 30
0.0
  9
$PUCSORGFRONT
 10
0.0
 20
0.0
 30
0.0
  9
$PUCSORGBACK
 10
0.0
 20
0.0
 30
0.0
  9
$USERI1
 70
     0
  9
$USERI2
 70
     0
  9
$USERI3
 70
     0
  9
$USERI4
 70
     0
  9
$USERI5
 70
     0
  9
$USERR1
 40
0.0
  9
$USERR2
 40
0.0
  9
$USERR3
 40
0.0
  9
$USERR4
 40
0.0
  9
$USERR5
 40
0.0
  9
$WORLDVIEW
 70
     1
  9
$SHADEDGE
 70
     3
  9
$SHADEDIF
 70
    70
  9
$TILEMODE
 70
     1
  9
$MAXACTVP
 70
    48
  9
$PINSBASE
 10
0.0
 20
0.0
 30
0.0
  9
$PLIMCHECK
 70
     0
  9
$PEXTMIN
 10
1.000000000000000E+20
 20
1.000000000000000E+20
 30
1.000000000000000E+20
  9
$PEXTMAX
 10
-1.000000000000000E+20
 20
-1.000000000000000E+20
 30
-1.000000000000000E+20
  9
$PLIMMIN
 10
0.0
 20
0.0
  9
$PLIMMAX
 10
420.0
 20
297.0
  9
$UNITMODE
 70
     0
  9
$VISRETAIN
 70
     1
  9
$PLINEGEN
 70
     0
  9
$PSLTSCALE
 70
     1
  9
$TREEDEPTH
 70
  3020
  9
$CMLSTYLE
  2
STANDARD
  9
$CMLJUST
 70
     0
  9
$CMLSCALE
 40
1.0
  9
$PROXYGRAPHICS
 70
     1
  9
$MEASUREMENT
 70
     0
  9
$CELWEIGHT
370
    -1
  9
$ENDCAPS
280
     0
  9
$JOINSTYLE
280
     0
  9
$LWDISPLAY
290
     0
  9
$INSUNITS
 70
     1
  9
$HYPERLINKBASE
  1

  9
$STYLESHEET
  1

  9
$XEDIT
290
     1
  9
$CEPSNTYPE
380
     0
  9
$PSTYLEMODE
290
     1
  9
$FINGERPRINTGUID
  2
{1B6520BB-42F8-4B53-A603-3FDB9D718B54}
  9
$VERSIONGUID
  2
{A5048DB2-B94C-43EF-A0F4-6A174C3F056D}
  9
$EXTNAMES
290
     1
  9
$PSVPSCALE
 40
0.0
  9
$OLESTARTUP
290
     0
  9
$SORTENTS
280
   127
  9
$INDEXCTL
280
     0
  9
$HIDETEXT
280
     1
  9
$XCLIPFRAME
290
     0
  9
$HALOGAP
280
     0
  9
$OBSCOLOR
 70
   257
  9
$OBSLTYPE
280
     0
  9
$INTERSECTIONDISPLAY
280
     0
  9
$INTERSECTIONCOLOR
 70
   257
  9
$DIMASSOC
280
     1
  9
$PROJECTNAME
  1

  0
ENDSEC
  0
SECTION
  2
CLASSES
  0
CLASS
  1
DICTIONARYVAR
  2
AcDbDictionaryVar
  3
ObjectDBX Classes
 90
        0
 91
        0
280
     0
281
     0
  0
CLASS
  1
IMAGE
  2
AcDbRasterImage
  3
ISM
 90
      127
 91
        0
280
     0
281
     1
  0
CLASS
  1
IMAGEDEF_REACTOR
  2
AcDbRasterImageDefReactor
  3
ISM
 90
        1
 91
        0
280
     0
281
     0
  0
CLASS
  1
IMAGEDEF
  2
AcDbRasterImageDef
  3
ISM
 90
        0
 91
        0
280
     0
281
     0
  0
CLASS
  1
ACDBDICTIONARYWDFLT
  2
AcDbDictionaryWithDefault
  3
ObjectDBX Classes
 90
        0
 91
        1
280
     0
281
     0
  0
CLASS
  1
AEC_VARS_DWG_SETUP
  2
AecDbVarsDwgSetup
  3
AecBase40|Product Desc: Autodesk Architectural Desktop 2004 |Company: Autodesk,Inc. |WEB Address: www.autodesk.com
 90
      129
 91
        0
280
     0
281
     0
  0
CLASS
  1
AEC_DISP_REP_CONFIG
  2
AecDbDispRepConfig
  3
AecBase40|Product Desc: Autodesk Architectural Desktop 2004 |Company: Autodesk,Inc. |WEB Address: www.autodesk.com
 90
      129
 91
        0
280
     0
281
     0
  0
CLASS
  1
AEC_DISP_REP_SET
  2
AecDbDispRepSet
  3
AecBase40|Product Desc: Autodesk Architectural Desktop 2004 |Company: Autodesk,Inc. |WEB Address: www.autodesk.com
 90
      129
 91
        0
280
     0
281
     0
  0
CLASS
  1
AEC_DISP_REP_2D_SECTION
  2
AecDbDispRep2dSection
  3
AecBase40|Product Desc: Autodesk Architectural Desktop 2004 |Company: Autodesk,Inc. |WEB Address: www.autodesk.com
 90
      129
 91
        0
280
     0
281
     0
  0
CLASS
  1
AEC_DISP_REP_ANCHOR_BUB_TO_GRID
  2
AecDbDispRepAnchorBubToGrid
  3
AecStructureBase40|Product Desc: Autodesk Architectural Desktop 2004 |Company: Autodesk,Inc. |WEB Address: www.autodesk.com
 90
      129
 91
        0
280
     0
281
     0
  0
CLASS
  1
AEC_DISP_REP_ANCHOR_BUB_TO_GRID_MODEL
  2
AecDbDispRepAnchorBubToGridMdl
  3
AecStructureBase40|Product Desc: Autodesk Architectural Desktop 2004 |Company: Autodesk,Inc. |WEB Address: www.autodesk.com
 90
      129
 91
        0
280
     0
281
     0
  0
CLASS
  1
AEC_DISP_REP_ANCHOR_ENT_TO_NODE
  2
AecDbDispRepAnchorEntToNode
  3
AecBase40|Product Desc: Autodesk Architectural Desktop 2004 |Company: Autodesk,Inc. |WEB Address: www.autodesk.com
 90
      129
 91
        0
280
     0
281
     0
  0
CLASS
  1
AEC_DISP_REP_AREA
  2
AecDbDispRepArea
  3
AecAreaCalculationBase40|Product Desc: Autodesk Architectural Desktop 2004 |Company: Autodesk,Inc. |WEB Address: www.autodesk.com
 90
      129
 91
        0
280
     0
281
     0
  0
CLASS
  1
AEC_DISP_REP_AREAGROUP
  2
AecDbDispRepAreaGroup
  3
AecAreaCalculationBase40|Product Desc: Autodesk Architectural Desktop 2004 |Company: Autodesk,Inc. |WEB Address: www.autodesk.com
 90
      129
 91
        0
280
     0
281
     0
  0
CLASS
  1
AEC_DISP_REP_BDG_ELEVLINE_MODEL
  2
AecDbDispRepBdgElevLineModel
  3
AecArchBase40|Product Desc: Autodesk Architectural Desktop 2004 |Company: Autodesk,Inc. |WEB Address: www.autodesk.com
 90
      129
 91
        0
280
     0
281
     0
  0
CLASS
  1
AEC_DISP_REP_BDG_ELEVLINE_PLAN
  2
AecDbDispRepBdgElevLinePlan
  3
AecArchBase40|Product Desc: Autodesk Architectural Desktop 2004 |Company: Autodesk,Inc. |WEB Address: www.autodesk.com
 90
      129
 91
        0
280
     0
281
     0
  0
CLASS
  1
AEC_DISP_REP_BDG_SECTIONLINE_MODEL
  2
AecDbDispRepBdgSectionLineModel
  3
AecArchBase40|Product Desc: Autodesk Architectural Desktop 2004 |Company: Autodesk,Inc. |WEB Address: www.autodesk.com
 90
      129
 91
        0
280
     0
281
     0
  0
CLASS
  1
AEC_DISP_REP_BDG_SECTIONLINE_PLAN
  2
AecDbDispRepBdgSectionLinePlan
  3
AecArchBase40|Product Desc: Autodesk Architectural Desktop 2004 |Company: Autodesk,Inc. |WEB Address: www.autodesk.com
 90
      129
 91
        0
280
     0
281
     0
  0
CLASS
  1
AEC_DISP_REP_BDG_SECTION_SUBDIV
  2
AecDbDispRepBdgSectionSubDiv
  3
AecArchBase40|Product Desc: Autodesk Architectural Desktop 2004 |Company: Autodesk,Inc. |WEB Address: www.autodesk.com
 90
      129
 91
        0
280
     0
281
     0
  0
CLASS
  1
AEC_DISP_REP_CAMERA
  2
AecDbDispRepCamera
  3
AecBase40|Product Desc: Autodesk Architectural Desktop 2004 |Company: Autodesk,Inc. |WEB Address: www.autodesk.com
 90
      129
 91
        0
280
     0
281
     0
  0
CLASS
  1
AEC_DISP_REP_CEILING_GRID
  2
AecDbDispRepCeilingGrid
  3
AecArchBase40|Product Desc: Autodesk Architectural Desktop 2004 |Company: Autodesk,Inc. |WEB Address: www.autodesk.com
 90
      893
 91
        0
280
     0
281
     0
  0
CLASS
  1
AEC_DISP_REP_CEILING_GRID_MODEL
  2
AecDbDispRepCeilingGridModel
  3
AecArchBase40|Product Desc: Autodesk Architectural Desktop 2004 |Company: Autodesk,Inc. |WEB Address: www.autodesk.com
 90
      129
 91
        0
280
     0
281
     0
  0
CLASS
  1
AEC_DISP_REP_CLIP_VOLUME_MODEL
  2
AecDbDispRepClipVolModel
  3
AecBase40|Product Desc: Autodesk Architectural Desktop 2004 |Company: Autodesk,Inc. |WEB Address: www.autodesk.com
 90
      129
 91
        0
280
     0
281
     0
  0
CLASS
  1
AEC_DISP_REP_CLIP_VOLUME_PLAN
  2
AecDbDispRepClipVolPlan
  3
AecBase40|Product Desc: Autodesk Architectural Desktop 2004 |Company: Autodesk,Inc. |WEB Address: www.autodesk.com
 90
      129
 91
        0
280
     0
281
     0
  0
CLASS
  1
AEC_DISP_REP_CLIP_VOLUME_RESULT_SUBDIV
  2
AecDbDispRepClipVolResSubDiv
  3
AecBase40|Product Desc: Autodesk Architectural Desktop 2004 |Company: Autodesk,Inc. |WEB Address: www.autodesk.com
 90
      129
 91
        0
280
     0
281
     0
  0
CLASS
  1
AEC_DISP_REP_COLUMN_GRID
  2
AecDbDispRepColumnGrid
  3
AecStructureBase40|Product Desc: Autodesk Architectural Desktop 2004 |Company: Autodesk,Inc. |WEB Address: www.autodesk.com
 90
      129
 91
        0
280
     0
281
     0
  0
CLASS
  1
AEC_DISP_REP_COLUMN_GRID_MODEL
  2
AecDbDispRepColumnGridModel
  3
AecStructureBase40|Product Desc: Autodesk Architectural Desktop 2004 |Company: Autodesk,Inc. |WEB Address: www.autodesk.com
 90
      129
 91
        0
280
     0
281
     0
  0
CLASS
  1
AEC_DISP_REP_CURTAIN_WALL_LAYOUT_MODEL
  2
AecDbDispRepCurtainWallLayoutModel
  3
AecArchBase40|Product Desc: Autodesk Architectural Desktop 2004 |Company: Autodesk,Inc. |WEB Address: www.autodesk.com
 90
      129
 91
        0
280
     0
281
     0
  0
CLASS
  1
AEC_DISP_REP_CURTAIN_WALL_LAYOUT_PLAN
  2
AecDbDispRepCurtainWallLayoutPlan
  3
AecArchBase40|Product Desc: Autodesk Architectural Desktop 2004 |Company: Autodesk,Inc. |WEB Address: www.autodesk.com
 90
      129
 91
        0
280
     0
281
     0
  0
CLASS
  1
AEC_DISP_REP_CURTAIN_WALL_UNIT_MODEL
  2
AecDbDispRepCurtainWallUnitModel
  3
AecArchBase40|Product Desc: Autodesk Architectural Desktop 2004 |Company: Autodesk,Inc. |WEB Address: www.autodesk.com
 90
      129
 91
        0
280
     0
281
     0
  0
CLASS
  1
AEC_DISP_REP_CURTAIN_WALL_UNIT_PLAN
  2
AecDbDispRepCurtainWallUnitPlan
  3
AecArchBase40|Product Desc: Autodesk Architectural Desktop 2004 |Company: Autodesk,Inc. |WEB Address: www.autodesk.com
 90
      129
 91
        0
280
     0
281
     0
  0
CLASS
  1
AEC_DB_DISP_REP_DIM_GROUP_PLAN
  2
AecDbDispRepDimGroupPlan
  3
AecArchDACHBase40|Product Desc: Autodesk Architectural Desktop 2004 |Company: Autodesk,Inc. |WEB Address: www.autodesk.com
 90
      129
 91
        0
280
     0
281
     0
  0
CLASS
  1
AEC_DISP_REP_DOOR_MODEL
  2
AecDbDispRepDoorModel
  3
AecArchBase40|Product Desc: Autodesk Architectural Desktop 2004 |Company: Autodesk,Inc. |WEB Address: www.autodesk.com
 90
      129
 91
        0
280
     0
281
     0
  0
CLASS
  1
AEC_DISP_REP_DOOR_PLAN
  2
AecDbDispRepDoorPlan
  3
AecArchBase40|Product Desc: Autodesk Architectural Desktop 2004 |Company: Autodesk,Inc. |WEB Address: www.autodesk.com
 90
      129
 91
        0
280
     0
281
     0
  0
CLASS
  1
AEC_DISP_REP_DOOR_THRESHOLD_PLAN
  2
AecDbDispRepDoorThresholdPlan
  3
AecArchBase40|Product Desc: Autodesk Architectural Desktop 2004 |Company: Autodesk,Inc. |WEB Address: www.autodesk.com
 90
      129
 91
        0
280
     0
281
     0
  0
CLASS
  1
AEC_DISP_REP_EDITINPLACEPROFILE
  2
AecDbDispRepEditInPlaceProfile
  3
AecBase40|Product Desc: Autodesk Architectural Desktop 2004 |Company: Autodesk,Inc. |WEB Address: www.autodesk.com
 90
      129
 91
        0
280
     0
281
     0
  0
CLASS
  1
AEC_DISP_REP_ENT_REF
  2
AecDbDispRepEntRef
  3
AecBase40|Product Desc: Autodesk Architectural Desktop 2004 |Company: Autodesk,Inc. |WEB Address: www.autodesk.com
 90
      129
 91
        0
280
     0
281
     0
  0
CLASS
  1
AEC_DISP_REP_LAYOUT_CURVE
  2
AecDbDispRepLayoutCurve
  3
AecBase40|Product Desc: Autodesk Architectural Desktop 2004 |Company: Autodesk,Inc. |WEB Address: www.autodesk.com
 90
      129
 91
        0
280
     0
281
     0
  0
CLASS
  1
AEC_DISP_REP_LAYOUT_GRID2D
  2
AecDbDispRepLayoutGrid2d
  3
AecBase40|Product Desc: Autodesk Architectural Desktop 2004 |Company: Autodesk,Inc. |WEB Address: www.autodesk.com
 90
      129
 91
        0
280
     0
281
     0
  0
CLASS
  1
AEC_DISP_REP_LAYOUT_GRID3D
  2
AecDbDispRepLayoutGrid3d
  3
AecBase40|Product Desc: Autodesk Architectural Desktop 2004 |Company: Autodesk,Inc. |WEB Address: www.autodesk.com
 90
      129
 91
        0
280
     0
281
     0
  0
CLASS
  1
AEC_DISP_REP_MASKBLOCK_REF
  2
AecDbDispRepMaskBlockRef
  3
AecBase40|Product Desc: Autodesk Architectural Desktop 2004 |Company: Autodesk,Inc. |WEB Address: www.autodesk.com
 90
      129
 91
        0
280
     0
281
     0
  0
CLASS
  1
AEC_DISP_REP_MASS_ELEM_MODEL
  2
AecDbDispRepMassElemModel
  3
AecBase40|Product Desc: Autodesk Architectural Desktop 2004 |Company: Autodesk,Inc. |WEB Address: www.autodesk.com
 90
      129
 91
        0
280
     0
281
     0
  0
CLASS
  1
AEC_DISP_REP_MASS_ELEM_SCHEM
  2
AecDbDispRepMassElemSchem
  3
AecBase40|Product Desc: Autodesk Architectural Desktop 2004 |Company: Autodesk,Inc. |WEB Address: www.autodesk.com
 90
      129
 91
        0
280
     0
281
     0
  0
CLASS
  1
AEC_DISP_REP_MASS_GROUP_MODEL
  2
AecDbDispRepMassGroupModel
  3
AecBase40|Product Desc: Autodesk Architectural Desktop 2004 |Company: Autodesk,Inc. |WEB Address: www.autodesk.com
 90
      129
 91
        0
280
     0
281
     0
  0
CLASS
  1
AEC_DISP_REP_MASS_GROUP_PLAN
  2
AecDbDispRepMassGroupPlan
  3
AecBase40|Product Desc: Autodesk Architectural Desktop 2004 |Company: Autodesk,Inc. |WEB Address: www.autodesk.com
 90
      129
 91
        0
280
     0
281
     0
  0
CLASS
  1
AEC_DISP_REP_MATERIAL
  2
AecDbDispRepMaterial
  3
AecBase40|Product Desc: Autodesk Architectural Desktop 2004 |Company: Autodesk,Inc. |WEB Address: www.autodesk.com
 90
      129
 91
        0
280
     0
281
     0
  0
CLASS
  1
AEC_DISP_REP_MVBLOCK_REF
  2
AecDbDispRepMvBlockRef
  3
AecBase40|Product Desc: Autodesk Architectural Desktop 2004 |Company: Autodesk,Inc. |WEB Address: www.autodesk.com
 90
      129
 91
        0
280
     0
281
     0
  0
CLASS
  1
AEC_DISP_REP_MVBLOCK_REF_MODEL
  2
AecDbDispRepMvBlockRefModel
  3
AecBase40|Product Desc: Autodesk Architectural Desktop 2004 |Company: Autodesk,Inc. |WEB Address: www.autodesk.com
 90
      129
 91
        0
280
     0
281
     0
  0
CLASS
  1
AEC_DISP_REP_OPENING
  2
AecDbDispRepOpening
  3
AecArchBase40|Product Desc: Autodesk Architectural Desktop 2004 |Company: Autodesk,Inc. |WEB Address: www.autodesk.com
 90
      129
 91
        0
280
     0
281
     0
  0
CLASS
  1
AEC_DISP_REP_OPENING_MODEL
  2
AecDbDispRepOpeningModel
  3
AecArchBase40|Product Desc: Autodesk Architectural Desktop 2004 |Company: Autodesk,Inc. |WEB Address: www.autodesk.com
 90
      129
 91
        0
280
     0
281
     0
  0
CLASS
  1
AEC_DISP_REP_POLYGON_MODEL
  2
AecDbDispRepPolygonModel
  3
AecBase40|Product Desc: Autodesk Architectural Desktop 2004 |Company: Autodesk,Inc. |WEB Address: www.autodesk.com
 90
      129
 91
        0
280
     0
281
     0
  0
CLASS
  1
AEC_DISP_REP_RAILING_MODEL
  2
AecDbDispRepRailingModel
  3
AecArchBase40|Product Desc: Autodesk Architectural Desktop 2004 |Company: Autodesk,Inc. |WEB Address: www.autodesk.com
 90
      129
 91
        0
280
     0
281
     0
  0
CLASS
  1
AEC_DISP_REP_RAILING_PLAN
  2
AecDbDispRepRailingPlan
  3
AecArchBase40|Product Desc: Autodesk Architectural Desktop 2004 |Company: Autodesk,Inc. |WEB Address: www.autodesk.com
 90
      129
 91
        0
280
     0
281
     0
  0
CLASS
  1
AEC_DISP_REP_ROOF_MODEL
  2
AecDbDispRepRoofModel
  3
AecArchBase40|Product Desc: Autodesk Architectural Desktop 2004 |Company: Autodesk,Inc. |WEB Address: www.autodesk.com
 90
      129
 91
        0
280
     0
281
     0
  0
CLASS
  1
AEC_DISP_REP_ROOF_PLAN
  2
AecDbDispRepRoofPlan
  3
AecArchBase40|Product Desc: Autodesk Architectural Desktop 2004 |Company: Autodesk,Inc. |WEB Address: www.autodesk.com
 90
      129
 91
        0
280
     0
281
     0
  0
CLASS
  1
AEC_DISP_REP_ROOFSLAB_MODEL
  2
AecDbDispRepRoofSlabModel
  3
AecArchBase40|Product Desc: Autodesk Architectural Desktop 2004 |Company: Autodesk,Inc. |WEB Address: www.autodesk.com
 90
      129
 91
        0
280
     0
281
     0
  0
CLASS
  1
AEC_DISP_REP_ROOFSLAB_PLAN
  2
AecDbDispRepRoofSlabPlan
  3
AecArchBase40|Product Desc: Autodesk Architectural Desktop 2004 |Company: Autodesk,Inc. |WEB Address: www.autodesk.com
 90
      129
 91
        0
280
     0
281
     0
  0
CLASS
  1
AEC_DISP_REP_SCHEDULE_TABLE
  2
AecDbDispRepScheduleTable
  3
AecSchedule40|Product Desc: Autodesk Architectural Desktop 2004 |Company: Autodesk,Inc. |WEB Address: www.autodesk.com
 90
      129
 91
        0
280
     0
281
     0
  0
CLASS
  1
AEC_DISP_REP_SLAB_MODEL
  2
AecDbDispRepSlabModel
  3
AecArchBase40|Product Desc: Autodesk Architectural Desktop 2004 |Company: Autodesk,Inc. |WEB Address: www.autodesk.com
 90
      129
 91
        0
280
     0
281
     0
  0
CLASS
  1
AEC_DISP_REP_SLAB_PLAN
  2
AecDbDispRepSlabPlan
  3
AecArchBase40|Product Desc: Autodesk Architectural Desktop 2004 |Company: Autodesk,Inc. |WEB Address: www.autodesk.com
 90
      129
 91
        0
280
     0
281
     0
  0
CLASS
  1
AEC_DISP_REP_SLICE
  2
AecDbDispRepSlice
  3
AecBase40|Product Desc: Autodesk Architectural Desktop 2004 |Company: Autodesk,Inc. |WEB Address: www.autodesk.com
 90
      129
 91
        0
280
     0
281
     0
  0
CLASS
  1
AEC_DISP_REP_SPACE_BOUNDARY_MODEL
  2
AecDbDispRepSpaceBoundaryModel
  3
AecArchBase40|Product Desc: Autodesk Architectural Desktop 2004 |Company: Autodesk,Inc. |WEB Address: www.autodesk.com
 90
      129
 91
        0
280
     0
281
     0
  0
CLASS
  1
AEC_DISP_REP_SPACE_BOUNDARY_PLAN
  2
AecDbDispRepSpaceBoundaryPlan
  3
AecArchBase40|Product Desc: Autodesk Architectural Desktop 2004 |Company: Autodesk,Inc. |WEB Address: www.autodesk.com
 90
      129
 91
        0
280
     0
281
     0
  0
CLASS
  1
AEC_DISP_REP_SPACE_MODEL
  2
AecDbDispRepSpaceModel
  3
AecArchBase40|Product Desc: Autodesk Architectural Desktop 2004 |Company: Autodesk,Inc. |WEB Address: www.autodesk.com
 90
      129
 91
        0
280
     0
281
     0
  0
CLASS
  1
AEC_DISP_REP_SPACE_PLAN
  2
AecDbDispRepSpacePlan
  3
AecArchBase40|Product Desc: Autodesk Architectural Desktop 2004 |Company: Autodesk,Inc. |WEB Address: www.autodesk.com
 90
      129
 91
        0
280
     0
281
     0
  0
CLASS
  1
AEC_DISP_REP_STAIR_MODEL
  2
AecDbDispRepStairModel
  3
AecArchBase40|Product Desc: Autodesk Architectural Desktop 2004 |Company: Autodesk,Inc. |WEB Address: www.autodesk.com
 90
      129
 91
        0
280
     0
281
     0
  0
CLASS
  1
AEC_DISP_REP_STAIR_PLAN
  2
AecDbDispRepStairPlan
  3
AecArchBase40|Product Desc: Autodesk Architectural Desktop 2004 |Company: Autodesk,Inc. |WEB Address: www.autodesk.com
 90
      129
 91
        0
280
     0
281
     0
  0
CLASS
  1
AEC_DISP_REP_WALL_MODEL
  2
AecDbDispRepWallModel
  3
AecArchBase40|Product Desc: Autodesk Architectural Desktop 2004 |Company: Autodesk,Inc. |WEB Address: www.autodesk.com
 90
      129
 91
        0
280
     0
281
     0
  0
CLASS
  1
AEC_DISP_REP_WALL_PLAN
  2
AecDbDispRepWallPlan
  3
AecArchBase40|Product Desc: Autodesk Architectural Desktop 2004 |Company: Autodesk,Inc. |WEB Address: www.autodesk.com
 90
      129
 91
        0
280
     0
281
     0
  0
CLASS
  1
AEC_DISP_REP_WINDOW_ASSEMBLY_MODEL
  2
AecDbDispRepWindowAssemblyModel
  3
AecArchBase40|Product Desc: Autodesk Architectural Desktop 2004 |Company: Autodesk,Inc. |WEB Address: www.autodesk.com
 90
      129
 91
        0
280
     0
281
     0
  0
CLASS
  1
AEC_DISP_REP_WINDOW_ASSEMBLY_PLAN
  2
AecDbDispRepWindowAssemblyPlan
  3
AecArchBase40|Product Desc: Autodesk Architectural Desktop 2004 |Company: Autodesk,Inc. |WEB Address: www.autodesk.com
 90
      129
 91
        0
280
     0
281
     0
  0
CLASS
  1
AEC_DISP_REP_WINDOW_MODEL
  2
AecDbDispRepWindowModel
  3
AecArchBase40|Product Desc: Autodesk Architectural Desktop 2004 |Company: Autodesk,Inc. |WEB Address: www.autodesk.com
 90
      129
 91
        0
280
     0
281
     0
  0
CLASS
  1
AEC_DISP_REP_WINDOW_PLAN
  2
AecDbDispRepWindowPlan
  3
AecArchBase40|Product Desc: Autodesk Architectural Desktop 2004 |Company: Autodesk,Inc. |WEB Address: www.autodesk.com
 90
      129
 91
        0
280
     0
281
     0
  0
CLASS
  1
AEC_DISP_REP_WINDOW_SILL_PLAN
  2
AecDbDispRepWindowSillPlan
  3
AecArchBase40|Product Desc: Autodesk Architectural Desktop 2004 |Company: Autodesk,Inc. |WEB Address: www.autodesk.com
 90
      129
 91
        0
280
     0
281
     0
  0
CLASS
  1
AECS_DISP_REP_MEMBER_MODEL_DESIGN
  2
AecsDbDispRepMemberModelDesign
  3
AecStructureBase40|Product Desc: Autodesk Architectural Desktop 2004 |Company: Autodesk,Inc. |WEB Address: www.autodesk.com
 90
      129
 91
        0
280
     0
281
     0
  0
CLASS
  1
AECS_DISP_REP_MEMBER_PLAN_DESIGN
  2
AecsDbDispRepMemberPlanDesign
  3
AecStructureBase40|Product Desc: Autodesk Architectural Desktop 2004 |Company: Autodesk,Inc. |WEB Address: www.autodesk.com
 90
      129
 91
        0
280
     0
281
     0
  0
CLASS
  1
AEC_DISP_PROPS_CAMERA
  2
AecDbDispPropsCamera
  3
AecBase40|Product Desc: Autodesk Architectural Desktop 2004 |Company: Autodesk,Inc. |WEB Address: www.autodesk.com
 90
      129
 91
        0
280
     0
281
     0
  0
CLASS
  1
AEC_DISP_PROPS_LAYOUT_GRID2D
  2
AecDbDispPropsLayoutGrid2d
  3
AecBase40|Product Desc: Autodesk Architectural Desktop 2004 |Company: Autodesk,Inc. |WEB Address: www.autodesk.com
 90
      129
 91
        0
280
     0
281
     0
  0
CLASS
  1
AEC_DISP_PROPS_OPENING
  2
AecDbDispPropsOpening
  3
AecArchBase40|Product Desc: Autodesk Architectural Desktop 2004 |Company: Autodesk,Inc. |WEB Address: www.autodesk.com
 90
      129
 91
        0
280
     0
281
     0
  0
CLASS
  1
AEC_DISP_PROPS_MASS_GROUP
  2
AecDbDispPropsMassGroup
  3
AecBase40|Product Desc: Autodesk Architectural Desktop 2004 |Company: Autodesk,Inc. |WEB Address: www.autodesk.com
 90
      129
 91
        0
280
     0
281
     0
  0
CLASS
  1
AEC_DISP_PROPS_ROOFSLAB
  2
AecDbDispPropsRoofSlab
  3
AecArchBase40|Product Desc: Autodesk Architectural Desktop 2004 |Company: Autodesk,Inc. |WEB Address: www.autodesk.com
 90
      129
 91
        0
280
     0
281
     0
  0
CLASS
  1
AEC_DISP_PROPS_STAIR_MODEL
  2
AecDbDispPropsStairModel
  3
AecArchBase40|Product Desc: Autodesk Architectural Desktop 2004 |Company: Autodesk,Inc. |WEB Address: www.autodesk.com
 90
      129
 91
        0
280
     0
281
     0
  0
CLASS
  1
AEC_DISP_PROPS_ENT
  2
AecDbDispPropsEnt
  3
AecBase40|Product Desc: Autodesk Architectural Desktop 2004 |Company: Autodesk,Inc. |WEB Address: www.autodesk.com
 90
      129
 91
        0
280
     0
281
     0
  0
CLASS
  1
AEC_DISP_PROPS_CLIP_VOLUME
  2
AecDbDispPropsClipVol
  3
AecBase40|Product Desc: Autodesk Architectural Desktop 2004 |Company: Autodesk,Inc. |WEB Address: www.autodesk.com
 90
      129
 91
        0
280
     0
281
     0
  0
CLASS
  1
AEC_DISP_PROPS_STAIR_PLAN
  2
AecDbDispPropsStairPlan
  3
AecArchBase40|Product Desc: Autodesk Architectural Desktop 2004 |Company: Autodesk,Inc. |WEB Address: www.autodesk.com
 90
      129
 91
        0
280
     0
281
     0
  0
CLASS
  1
AEC_DISP_PROPS_CLIP_VOLUME_RESULT
  2
AecDbDispPropsClipVolResSubDiv
  3
AecBase40|Product Desc: Autodesk Architectural Desktop 2004 |Company: Autodesk,Inc. |WEB Address: www.autodesk.com
 90
      129
 91
        0
280
     0
281
     0
  0
CLASS
  1
AEC_DISP_PROPS_SPACE_MODEL
  2
AecDbDispPropsSpaceModel
  3
AecArchBase40|Product Desc: Autodesk Architectural Desktop 2004 |Company: Autodesk,Inc. |WEB Address: www.autodesk.com
 90
      129
 91
        0
280
     0
281
     0
  0
CLASS
  1
AEC_DISP_PROPS_2D_SECTION
  2
AecDbDispProps2dSection
  3
AecBase40|Product Desc: Autodesk Architectural Desktop 2004 |Company: Autodesk,Inc. |WEB Address: www.autodesk.com
 90
      129
 91
        0
280
     0
281
     0
  0
CLASS
  1
AEC_DISP_PROPS_DOOR_THRESHOLD_PLAN
  2
AecDbDispPropsDoorThresholdPlan
  3
AecArchBase40|Product Desc: Autodesk Architectural Desktop 2004 |Company: Autodesk,Inc. |WEB Address: www.autodesk.com
 90
      129
 91
        0
280
     0
281
     0
  0
CLASS
  1
AEC_DISP_PROPS_POLYGON_MODEL
  2
AecDbDispPropsPolygonModel
  3
AecBase40|Product Desc: Autodesk Architectural Desktop 2004 |Company: Autodesk,Inc. |WEB Address: www.autodesk.com
 90
      129
 91
        0
280
     0
281
     0
  0
CLASS
  1
AEC_DISP_PROPS_GRID_ASSEMBLY_MODEL
  2
AecDbDispPropsGridAssemblyModel
  3
AecArchBase40|Product Desc: Autodesk Architectural Desktop 2004 |Company: Autodesk,Inc. |WEB Address: www.autodesk.com
 90
      129
 91
        0
280
     0
281
     0
  0
CLASS
  1
AEC_DISP_PROPS_AREA
  2
AecDbDispPropsArea
  3
AecAreaCalculationBase40|Product Desc: Autodesk Architectural Desktop 2004 |Company: Autodesk,Inc. |WEB Address: www.autodesk.com
 90
      129
 91
        0
280
     0
281
     0
  0
CLASS
  1
AEC_DISP_PROPS_SPACE_PLAN
  2
AecDbDispPropsSpacePlan
  3
AecArchBase40|Product Desc: Autodesk Architectural Desktop 2004 |Company: Autodesk,Inc. |WEB Address: www.autodesk.com
 90
      129
 91
        0
280
     0
281
     0
  0
CLASS
  1
AEC_DISP_PROPS_GRID_ASSEMBLY_PLAN
  2
AecDbDispPropsGridAssemblyPlan
  3
AecArchBase40|Product Desc: Autodesk Architectural Desktop 2004 |Company: Autodesk,Inc. |WEB Address: www.autodesk.com
 90
      129
 91
        0
280
     0
281
     0
  0
CLASS
  1
AEC_DISP_PROPS_WINDOW
  2
AecDbDispPropsWindow
  3
AecArchBase40|Product Desc: Autodesk Architectural Desktop 2004 |Company: Autodesk,Inc. |WEB Address: www.autodesk.com
 90
      129
 91
        0
280
     0
281
     0
  0
CLASS
  1
AEC_DISP_PROPS_ROOFSLAB_PLAN
  2
AecDbDispPropsRoofSlabPlan
  3
AecArchBase40|Product Desc: Autodesk Architectural Desktop 2004 |Company: Autodesk,Inc. |WEB Address: www.autodesk.com
 90
      129
 91
        0
280
     0
281
     0
  0
CLASS
  1
AEC_DISP_PROPS_SLAB_PLAN
  2
AecDbDispPropsSlabPlan
  3
AecArchBase40|Product Desc: Autodesk Architectural Desktop 2004 |Company: Autodesk,Inc. |WEB Address: www.autodesk.com
 90
      129
 91
        0
280
     0
281
     0
  0
CLASS
  1
AEC_DISP_PROPS_ROOF
  2
AecDbDispPropsRoof
  3
AecArchBase40|Product Desc: Autodesk Architectural Desktop 2004 |Company: Autodesk,Inc. |WEB Address: www.autodesk.com
 90
      129
 91
        0
280
     0
281
     0
  0
CLASS
  1
AEC_DISP_PROPS_WALL_MODEL
  2
AecDbDispPropsWallModel
  3
AecArchBase40|Product Desc: Autodesk Architectural Desktop 2004 |Company: Autodesk,Inc. |WEB Address: www.autodesk.com
 90
      129
 91
        0
280
     0
281
     0
  0
CLASS
  1
AEC_DISP_PROPS_AREAGROUP
  2
AecDbDispPropsAreaGroup
  3
AecAreaCalculationBase40|Product Desc: Autodesk Architectural Desktop 2004 |Company: Autodesk,Inc. |WEB Address: www.autodesk.com
 90
      129
 91
        0
280
     0
281
     0
  0
CLASS
  1
AEC_DISP_PROPS_WALL_PLAN
  2
AecDbDispPropsWallPlan
  3
AecArchBase40|Product Desc: Autodesk Architectural Desktop 2004 |Company: Autodesk,Inc. |WEB Address: www.autodesk.com
 90
      129
 91
        0
280
     0
281
     0
  0
CLASS
  1
AEC_DISP_PROPS_DOOR
  2
AecDbDispPropsDoor
  3
AecArchBase40|Product Desc: Autodesk Architectural Desktop 2004 |Company: Autodesk,Inc. |WEB Address: www.autodesk.com
 90
      129
 91
        0
280
     0
281
     0
  0
CLASS
  1
AEC_DISP_PROPS_ENT_REF
  2
AecDbDispPropsEntRef
  3
AecBase40|Product Desc: Autodesk Architectural Desktop 2004 |Company: Autodesk,Inc. |WEB Address: www.autodesk.com
 90
      129
 91
        0
280
     0
281
     0
  0
CLASS
  1
AECS_DISP_PROPS_MEMBER
  2
AecsDbDispPropsMember
  3
AecStructureBase40|Product Desc: Autodesk Architectural Desktop 2004 |Company: Autodesk,Inc. |WEB Address: www.autodesk.com
 90
      129
 91
        0
280
     0
281
     0
  0
CLASS
  1
AEC_DISP_PROPS_RAILING_MODEL
  2
AecDbDispPropsRailingModel
  3
AecArchBase40|Product Desc: Autodesk Architectural Desktop 2004 |Company: Autodesk,Inc. |WEB Address: www.autodesk.com
 90
      129
 91
        0
280
     0
281
     0
  0
CLASS
  1
AEC_DISP_PROPS_MASS_ELEM_MODEL
  2
AecDbDispPropsMassElem
  3
AecBase40|Product Desc: Autodesk Architectural Desktop 2004 |Company: Autodesk,Inc. |WEB Address: www.autodesk.com
 90
      129
 91
        0
280
     0
281
     0
  0
CLASS
  1
AECS_DISP_PROPS_MEMBER_PLAN
  2
AecsDbDispPropsMemberPlan
  3
AecStructureBase40|Product Desc: Autodesk Architectural Desktop 2004 |Company: Autodesk,Inc. |WEB Address: www.autodesk.com
 90
      129
 91
        0
280
     0
281
     0
  0
CLASS
  1
AEC_DISP_PROPS_EDITINPLACEPROFILE_MODEL
  2
AecDbDispPropsEditInPlaceProfile
  3
AecBase40|Product Desc: Autodesk Architectural Desktop 2004 |Company: Autodesk,Inc. |WEB Address: www.autodesk.com
 90
      129
 91
        0
280
     0
281
     0
  0
CLASS
  1
AEC_DISP_PROPS_WINDOW_SILL_PLAN
  2
AecDbDispPropsWindowSillPlan
  3
AecArchBase40|Product Desc: Autodesk Architectural Desktop 2004 |Company: Autodesk,Inc. |WEB Address: www.autodesk.com
 90
      129
 91
        0
280
     0
281
     0
  0
CLASS
  1
AEC_DISP_PROPS_MATERIAL
  2
AecDbDispPropsMaterial
  3
AecBase40|Product Desc: Autodesk Architectural Desktop 2004 |Company: Autodesk,Inc. |WEB Address: www.autodesk.com
 90
      129
 91
        0
280
     0
281
     0
  0
CLASS
  1
AEC_DISP_PROPS_MASKBLOCK
  2
AecDbDispPropsMaskBlock
  3
AecBase40|Product Desc: Autodesk Architectural Desktop 2004 |Company: Autodesk,Inc. |WEB Address: www.autodesk.com
 90
      129
 91
        0
280
     0
281
     0
  0
CLASS
  1
AEC_DISP_PROPS_SLAB
  2
AecDbDispPropsSlab
  3
AecArchBase40|Product Desc: Autodesk Architectural Desktop 2004 |Company: Autodesk,Inc. |WEB Address: www.autodesk.com
 90
      129
 91
        0
280
     0
281
     0
  0
CLASS
  1
AEC_DISP_PROPS_SLICE
  2
AecDbDispPropsSlice
  3
AecBase40|Product Desc: Autodesk Architectural Desktop 2004 |Company: Autodesk,Inc. |WEB Address: www.autodesk.com
 90
      129
 91
        0
280
     0
281
     0
  0
CLASS
  1
AEC_DISP_PROPS_SPACE_BOUNDARY
  2
AecDbDispPropsSpaceBoundary
  3
AecArchBase40|Product Desc: Autodesk Architectural Desktop 2004 |Company: Autodesk,Inc. |WEB Address: www.autodesk.com
 90
      129
 91
        0
280
     0
281
     0
  0
CLASS
  1
AEC_DISP_PROPS_SCHEDULE_TABLE
  2
AecDbDispPropsScheduleTable
  3
AecSchedule40|Product Desc: Autodesk Architectural Desktop 2004 |Company: Autodesk,Inc. |WEB Address: www.autodesk.com
 90
      129
 91
        0
280
     0
281
     0
  0
CLASS
  1
AEC_DISP_PROPS_RAILING_PLAN
  2
AecDbDispPropsRailingPlan
  3
AecArchBase40|Product Desc: Autodesk Architectural Desktop 2004 |Company: Autodesk,Inc. |WEB Address: www.autodesk.com
 90
      129
 91
        0
280
     0
281
     0
  0
CLASS
  1
AEC_DISP_PROPS_DIM
  2
AecDbDispPropsDimGroup
  3
AecArchDACHBase40|Product Desc: Autodesk Architectural Desktop 2004 |Company: Autodesk,Inc. |WEB Address: www.autodesk.com
 90
      129
 91
        0
280
     0
281
     0
  0
CLASS
  1
AEC_DISP_PROPS_LAYOUT_CURVE
  2
AecDbDispPropsLayoutCurve
  3
AecBase40|Product Desc: Autodesk Architectural Desktop 2004 |Company: Autodesk,Inc. |WEB Address: www.autodesk.com
 90
      129
 91
        0
280
     0
281
     0
  0
CLASS
  1
AEC_DISP_PROPS_LAYOUT_GRID3D
  2
AecDbDispPropsLayoutGrid3d
  3
AecBase40|Product Desc: Autodesk Architectural Desktop 2004 |Company: Autodesk,Inc. |WEB Address: www.autodesk.com
 90
      129
 91
        0
280
     0
281
     0
  0
CLASS
  1
AEC_LAYERKEY_STYLE
  2
AecDbLayerKeyStyle
  3
AecBase40|Product Desc: Autodesk Architectural Desktop 2004 |Company: Autodesk,Inc. |WEB Address: www.autodesk.com
 90
      129
 91
        0
280
     0
281
     0
  0
CLASS
  1
AEC_VARS_ARCHBASE
  2
AecDbVarsArchBase
  3
AecArchBase40|Product Desc: Autodesk Architectural Desktop 2004 |Company: Autodesk,Inc. |WEB Address: www.autodesk.com
 90
      129
 91
        0
280
     0
281
     0
  0
CLASS
  1
AEC_VARS_MUNICH
  2
AecDbVarsMunich
  3
AecArchDACHBase40|Product Desc: Autodesk Architectural Desktop 2004 |Company: Autodesk,Inc. |WEB Address: www.autodesk.com
 90
      129
 91
        0
280
     0
281
     0
  0
CLASS
  1
AEC_NOTIFICATION_TRACKER
  2
AecDbNotificationTracker
  3
AecBase40|Product Desc: Autodesk Architectural Desktop 2004 |Company: Autodesk,Inc. |WEB Address: www.autodesk.com
 90
      129
 91
        0
280
     0
281
     0
  0
CLASS
  1
AEC_DISP_REP_ANCHOR
  2
AecDbDispRepAnchor
  3
AecBase40|Product Desc: Autodesk Architectural Desktop 2004 |Company: Autodesk,Inc. |WEB Address: www.autodesk.com
 90
      129
 91
        0
280
     0
281
     0
  0
CLASS
  1
AEC_DISP_REP_CLIP_VOLUME_RESULT
  2
AecDbDispRepClipVolResult
  3
AecBase40|Product Desc: Autodesk Architectural Desktop 2004 |Company: Autodesk,Inc. |WEB Address: www.autodesk.com
 90
      129
 91
        0
280
     0
281
     0
  0
CLASS
  1
AEC_DISP_REP_POLYGON_TRUECOLOUR
  2
AecDbDispRepPolygonTrueColour
  3
AecBase40|Product Desc: Autodesk Architectural Desktop 2004 |Company: Autodesk,Inc. |WEB Address: www.autodesk.com
 90
      129
 91
        0
280
     0
281
     0
  0
CLASS
  1
AEC_DISP_PROPS_POLYGON_TRUECOLOUR
  2
AecDbDispPropsPolygonTrueColour
  3
AecBase40|Product Desc: Autodesk Architectural Desktop 2004 |Company: Autodesk,Inc. |WEB Address: www.autodesk.com
 90
      129
 91
        0
280
     0
281
     0
  0
CLASS
  1
AEC_DISP_REP_ANCHOR_TAG_TO_ENT
  2
AecDbDispRepAnchorTagToEnt
  3
AecScheduleData40|Product Desc: Autodesk Architectural Desktop 2004 |Company: Autodesk,Inc. |WEB Address: www.autodesk.com
 90
      129
 91
        0
280
     0
281
     0
  0
CLASS
  1
AEC_DISP_REP_ANCHOR_BUB_TO_GRID_RCP
  2
AecDbDispRepAnchorBubToGridRcp
  3
AecStructureBase40|Product Desc: Autodesk Architectural Desktop 2004 |Company: Autodesk,Inc. |WEB Address: www.autodesk.com
 90
      129
 91
        0
280
     0
281
     0
  0
CLASS
  1
AEC_DISP_REP_COLUMN_GRID_RCP
  2
AecDbDispRepColumnGridRcp
  3
AecStructureBase40|Product Desc: Autodesk Architectural Desktop 2004 |Company: Autodesk,Inc. |WEB Address: www.autodesk.com
 90
      129
 91
        0
280
     0
281
     0
  0
CLASS
  1
AECS_DISP_REP_MEMBER_ELEVATION_DESIGN
  2
AecsDbDispRepMemberElevationDesign
  3
AecStructureBase40|Product Desc: Autodesk Architectural Desktop 2004 |Company: Autodesk,Inc. |WEB Address: www.autodesk.com
 90
      129
 91
        0
280
     0
281
     0
  0
CLASS
  1
AECS_DISP_PROPS_MEMBER_PROJECTED
  2
AecsDbDispPropsMemberProjected
  3
AecStructureBase40|Product Desc: Autodesk Architectural Desktop 2004 |Company: Autodesk,Inc. |WEB Address: www.autodesk.com
 90
      129
 91
        0
280
     0
281
     0
  0
CLASS
  1
AECS_DISP_REP_MEMBER_ELEVATION_DETAIL
  2
AecsDbDispRepMemberElevationDetail
  3
AecStructureBase40|Product Desc: Autodesk Architectural Desktop 2004 |Company: Autodesk,Inc. |WEB Address: www.autodesk.com
 90
      129
 91
        0
280
     0
281
     0
  0
CLASS
  1
AECS_DISP_REP_MEMBER_LOGICAL
  2
AecsDbDispRepMemberLogical
  3
AecStructureBase40|Product Desc: Autodesk Architectural Desktop 2004 |Company: Autodesk,Inc. |WEB Address: www.autodesk.com
 90
      129
 91
        0
280
     0
281
     0
  0
CLASS
  1
AECS_DISP_PROPS_MEMBER_LOGICAL
  2
AecsDbDispPropsMemberLogical
  3
AecStructureBase40|Product Desc: Autodesk Architectural Desktop 2004 |Company: Autodesk,Inc. |WEB Address: www.autodesk.com
 90
      129
 91
        0
280
     0
281
     0
  0
CLASS
  1
AECS_DISP_REP_MEMBER_MODEL_DETAIL
  2
AecsDbDispRepMemberModelDetail
  3
AecStructureBase40|Product Desc: Autodesk Architectural Desktop 2004 |Company: Autodesk,Inc. |WEB Address: www.autodesk.com
 90
      129
 91
        0
280
     0
281
     0
  0
CLASS
  1
AECS_DISP_REP_MEMBER_PLAN_DETAIL
  2
AecsDbDispRepMemberPlanDetail
  3
AecStructureBase40|Product Desc: Autodesk Architectural Desktop 2004 |Company: Autodesk,Inc. |WEB Address: www.autodesk.com
 90
      129
 91
        0
280
     0
281
     0
  0
CLASS
  1
AECS_DISP_REP_MEMBER_PLAN_SKETCH
  2
AecsDbDispRepMemberPlanSketch
  3
AecStructureBase40|Product Desc: Autodesk Architectural Desktop 2004 |Company: Autodesk,Inc. |WEB Address: www.autodesk.com
 90
      129
 91
        0
280
     0
281
     0
  0
CLASS
  1
AECS_DISP_PROPS_MEMBER_PLAN_SKETCH
  2
AecsDbDispPropsMemberPlanSketch
  3
AecStructureBase40|Product Desc: Autodesk Architectural Desktop 2004 |Company: Autodesk,Inc. |WEB Address: www.autodesk.com
 90
      129
 91
        0
280
     0
281
     0
  0
CLASS
  1
AEC_DISP_REP_BDG_ELEVLINE_RCP
  2
AecDbDispRepBdgElevLineRcp
  3
AecArchBase40|Product Desc: Autodesk Architectural Desktop 2004 |Company: Autodesk,Inc. |WEB Address: www.autodesk.com
 90
      129
 91
        0
280
     0
281
     0
  0
CLASS
  1
AEC_DISP_REP_BDG_SECTIONLINE_RCP
  2
AecDbDispRepBdgSectionLineRcp
  3
AecArchBase40|Product Desc: Autodesk Architectural Desktop 2004 |Company: Autodesk,Inc. |WEB Address: www.autodesk.com
 90
      129
 91
        0
280
     0
281
     0
  0
CLASS
  1
AEC_DISP_REP_BDG_SECTION_MODEL
  2
AecDbDispRepBdgSectionModel
  3
AecArchBase40|Product Desc: Autodesk Architectural Desktop 2004 |Company: Autodesk,Inc. |WEB Address: www.autodesk.com
 90
      129
 91
        0
280
     0
281
     0
  0
CLASS
  1
AEC_DISP_REP_CEILING_GRID_RCP
  2
AecDbDispRepCeilingGridRcp
  3
AecArchBase40|Product Desc: Autodesk Architectural Desktop 2004 |Company: Autodesk,Inc. |WEB Address: www.autodesk.com
 90
      129
 91
        0
280
     0
281
     0
  0
CLASS
  1
AEC_DISP_REP_DOOR_ELEV
  2
AecDbDispRepDoorElev
  3
AecArchBase40|Product Desc: Autodesk Architectural Desktop 2004 |Company: Autodesk,Inc. |WEB Address: www.autodesk.com
 90
      129
 91
        0
280
     0
281
     0
  0
CLASS
  1
AEC_DISP_REP_DOOR_NOMINAL
  2
AecDbDispRepDoorNominal
  3
AecArchBase40|Product Desc: Autodesk Architectural Desktop 2004 |Company: Autodesk,Inc. |WEB Address: www.autodesk.com
 90
      129
 91
        0
280
     0
281
     0
  0
CLASS
  1
AEC_DISP_PROPS_DOOR_NOMINAL
  2
AecDbDispPropsDoorNominal
  3
AecArchBase40|Product Desc: Autodesk Architectural Desktop 2004 |Company: Autodesk,Inc. |WEB Address: www.autodesk.com
 90
      129
 91
        0
280
     0
281
     0
  0
CLASS
  1
AEC_DISP_REP_DOOR_RCP
  2
AecDbDispRepDoorRcp
  3
AecArchBase40|Product Desc: Autodesk Architectural Desktop 2004 |Company: Autodesk,Inc. |WEB Address: www.autodesk.com
 90
      129
 91
        0
280
     0
281
     0
  0
CLASS
  1
AEC_DISP_REP_MASKBLOCK_REF_RCP
  2
AecDbDispRepMaskBlockRefRcp
  3
AecArchBase40|Product Desc: Autodesk Architectural Desktop 2004 |Company: Autodesk,Inc. |WEB Address: www.autodesk.com
 90
      129
 91
        0
280
     0
281
     0
  0
CLASS
  1
AEC_DISP_REP_MASS_ELEM_RCP
  2
AecDbDispRepMassElemRcp
  3
AecArchBase40|Product Desc: Autodesk Architectural Desktop 2004 |Company: Autodesk,Inc. |WEB Address: www.autodesk.com
 90
      129
 91
        0
280
     0
281
     0
  0
CLASS
  1
AEC_DISP_REP_MASS_GROUP_RCP
  2
AecDbDispRepMassGroupRcp
  3
AecArchBase40|Product Desc: Autodesk Architectural Desktop 2004 |Company: Autodesk,Inc. |WEB Address: www.autodesk.com
 90
      129
 91
        0
280
     0
281
     0
  0
CLASS
  1
AEC_DISP_REP_MVBLOCK_REF_RCP
  2
AecDbDispRepMvBlockRefRcp
  3
AecArchBase40|Product Desc: Autodesk Architectural Desktop 2004 |Company: Autodesk,Inc. |WEB Address: www.autodesk.com
 90
      129
 91
        0
280
     0
281
     0
  0
CLASS
  1
AEC_DISP_REP_ROOF_RCP
  2
AecDbDispRepRoofRcp
  3
AecArchBase40|Product Desc: Autodesk Architectural Desktop 2004 |Company: Autodesk,Inc. |WEB Address: www.autodesk.com
 90
      129
 91
        0
280
     0
281
     0
  0
CLASS
  1
AEC_DISP_REP_SPACE_BOUNDARY_DIAGRAM
  2
AecDbDispRepSpaceBoundaryDgrm
  3
AecArchBase40|Product Desc: Autodesk Architectural Desktop 2004 |Company: Autodesk,Inc. |WEB Address: www.autodesk.com
 90
      129
 91
        0
280
     0
281
     0
  0
CLASS
  1
AEC_DISP_REP_SPACE_BOUNDARY_SCHEM
  2
AecDbDispRepSpaceBoundarySketch
  3
AecArchBase40|Product Desc: Autodesk Architectural Desktop 2004 |Company: Autodesk,Inc. |WEB Address: www.autodesk.com
 90
      129
 91
        0
280
     0
281
     0
  0
CLASS
  1
AEC_DISP_REP_SPACE_RCP
  2
AecDbDispRepSpaceRcp
  3
AecArchBase40|Product Desc: Autodesk Architectural Desktop 2004 |Company: Autodesk,Inc. |WEB Address: www.autodesk.com
 90
      129
 91
        0
280
     0
281
     0
  0
CLASS
  1
AEC_DISP_REP_SPACE_VOLUME
  2
AecDbDispRepSpaceVolume
  3
AecArchBase40|Product Desc: Autodesk Architectural Desktop 2004 |Company: Autodesk,Inc. |WEB Address: www.autodesk.com
 90
      129
 91
        0
280
     0
281
     0
  0
CLASS
  1
AEC_DISP_REP_STAIR_PLAN_OVERLAPPING
  2
AecDbDispRepStairPlanOverlapping
  3
AecArchBase40|Product Desc: Autodesk Architectural Desktop 2004 |Company: Autodesk,Inc. |WEB Address: www.autodesk.com
 90
      129
 91
        0
280
     0
281
     0
  0
CLASS
  1
AEC_DISP_PROPS_STAIR_PLAN_OVERLAPPING
  2
AecDbDispPropsStairPlanOverlapping
  3
AecArchBase40|Product Desc: Autodesk Architectural Desktop 2004 |Company: Autodesk,Inc. |WEB Address: www.autodesk.com
 90
      129
 91
        0
280
     0
281
     0
  0
CLASS
  1
AEC_DISP_REP_STAIR_RCP
  2
AecDbDispRepStairRcp
  3
AecArchBase40|Product Desc: Autodesk Architectural Desktop 2004 |Company: Autodesk,Inc. |WEB Address: www.autodesk.com
 90
      129
 91
        0
280
     0
281
     0
  0
CLASS
  1
AEC_DISP_REP_WALL_GRAPH
  2
AecDbDispRepWallGraph
  3
AecArchBase40|Product Desc: Autodesk Architectural Desktop 2004 |Company: Autodesk,Inc. |WEB Address: www.autodesk.com
 90
      129
 91
        0
280
     0
281
     0
  0
CLASS
  1
AEC_DISP_PROPS_WALL_GRAPH
  2
AecDbDispPropsWallGraph
  3
AecArchBase40|Product Desc: Autodesk Architectural Desktop 2004 |Company: Autodesk,Inc. |WEB Address: www.autodesk.com
 90
      129
 91
        0
280
     0
281
     0
  0
CLASS
  1
AEC_DISP_REP_WALL_RCP
  2
AecDbDispRepWallRcp
  3
AecArchBase40|Product Desc: Autodesk Architectural Desktop 2004 |Company: Autodesk,Inc. |WEB Address: www.autodesk.com
 90
      129
 91
        0
280
     0
281
     0
  0
CLASS
  1
AEC_DISP_REP_WALL_SCHEM
  2
AecDbDispRepWallSchem
  3
AecArchBase40|Product Desc: Autodesk Architectural Desktop 2004 |Company: Autodesk,Inc. |WEB Address: www.autodesk.com
 90
      129
 91
        0
280
     0
281
     0
  0
CLASS
  1
AEC_DISP_PROPS_WALL_SCHEM
  2
AecDbDispPropsWallSchem
  3
AecArchBase40|Product Desc: Autodesk Architectural Desktop 2004 |Company: Autodesk,Inc. |WEB Address: www.autodesk.com
 90
      129
 91
        0
280
     0
281
     0
  0
CLASS
  1
AEC_DISP_REP_WINDOWASSEMBLY_SILL_PLAN
  2
AecDbDispRepWindowAssemblySillPlan
  3
AecArchBase40|Product Desc: Autodesk Architectural Desktop 2004 |Company: Autodesk,Inc. |WEB Address: www.autodesk.com
 90
      129
 91
        0
280
     0
281
     0
  0
CLASS
  1
AEC_DISP_PROPS_WINDOW_ASSEMBLY_SILL_PLAN
  2
AecDbDispPropsWindowAssemblySillPlan
  3
AecArchBase40|Product Desc: Autodesk Architectural Desktop 2004 |Company: Autodesk,Inc. |WEB Address: www.autodesk.com
 90
      129
 91
        0
280
     0
281
     0
  0
CLASS
  1
AEC_DISP_REP_WINDOW_ELEV
  2
AecDbDispRepWindowElev
  3
AecArchBase40|Product Desc: Autodesk Architectural Desktop 2004 |Company: Autodesk,Inc. |WEB Address: www.autodesk.com
 90
      129
 91
        0
280
     0
281
     0
  0
CLASS
  1
AEC_DISP_REP_WINDOW_NOMINAL
  2
AecDbDispRepWindowNominal
  3
AecArchBase40|Product Desc: Autodesk Architectural Desktop 2004 |Company: Autodesk,Inc. |WEB Address: www.autodesk.com
 90
      129
 91
        0
280
     0
281
     0
  0
CLASS
  1
AEC_DISP_PROPS_WINDOW_NOMINAL
  2
AecDbDispPropsWindowNominal
  3
AecArchBase40|Product Desc: Autodesk Architectural Desktop 2004 |Company: Autodesk,Inc. |WEB Address: www.autodesk.com
 90
      129
 91
        0
280
     0
281
     0
  0
CLASS
  1
AEC_DISP_REP_WINDOW_RCP
  2
AecDbDispRepWindowRcp
  3
AecArchBase40|Product Desc: Autodesk Architectural Desktop 2004 |Company: Autodesk,Inc. |WEB Address: www.autodesk.com
 90
      129
 91
        0
280
     0
281
     0
  0
CLASS
  1
AEC_DISP_REP_AREA_DECOMPOSED
  2
AecDbDispRepAreaDecomposed
  3
AecAreaCalculationBase40|Product Desc: Autodesk Architectural Desktop 2004 |Company: Autodesk,Inc. |WEB Address: www.autodesk.com
 90
      129
 91
        0
280
     0
281
     0
  0
CLASS
  1
AEC_DISP_PROPS_AREA_DECOMPOSED
  2
AecDbDispPropsAreaDecomposed
  3
AecAreaCalculationBase40|Product Desc: Autodesk Architectural Desktop 2004 |Company: Autodesk,Inc. |WEB Address: www.autodesk.com
 90
      129
 91
        0
280
     0
281
     0
  0
CLASS
  1
AEC_AECDBDISPREPAREA100
  2
AecDbDispRepArea100
  3
AecBase40|Product Desc: Autodesk Architectural Desktop 2004 |Company: Autodesk,Inc. |WEB Address: www.autodesk.com
 90
      129
 91
        0
280
     0
281
     0
  0
CLASS
  1
AEC_AECDBDISPREPAREAGROUP100
  2
AecDbDispRepAreaGroup100
  3
AecBase40|Product Desc: Autodesk Architectural Desktop 2004 |Company: Autodesk,Inc. |WEB Address: www.autodesk.com
 90
      129
 91
        0
280
     0
281
     0
  0
CLASS
  1
AEC_AECDBDISPREPBDGELEVLINEPLAN100
  2
AecDbDispRepBdgElevLinePlan100
  3
AecBase40|Product Desc: Autodesk Architectural Desktop 2004 |Company: Autodesk,Inc. |WEB Address: www.autodesk.com
 90
      129
 91
        0
280
     0
281
     0
  0
CLASS
  1
AEC_AECDBDISPREPBDGSECTIONLINEPLAN100
  2
AecDbDispRepBdgSectionLinePlan100
  3
AecBase40|Product Desc: Autodesk Architectural Desktop 2004 |Company: Autodesk,Inc. |WEB Address: www.autodesk.com
 90
      129
 91
        0
280
     0
281
     0
  0
CLASS
  1
AEC_AECDBDISPREPCEILINGGRIDPLAN100
  2
AecDbDispRepCeilingGridPlan100
  3
AecBase40|Product Desc: Autodesk Architectural Desktop 2004 |Company: Autodesk,Inc. |WEB Address: www.autodesk.com
 90
      129
 91
        0
280
     0
281
     0
  0
CLASS
  1
AEC_AECDBDISPREPCOLUMNGRIDPLAN100
  2
AecDbDispRepColumnGridPlan100
  3
AecBase40|Product Desc: Autodesk Architectural Desktop 2004 |Company: Autodesk,Inc. |WEB Address: www.autodesk.com
 90
      129
 91
        0
280
     0
281
     0
  0
CLASS
  1
AEC_AECDBDISPREPCURTAINWALLLAYOUTPLAN100
  2
AecDbDispRepCurtainWallLayoutPlan100
  3
AecBase40|Product Desc: Autodesk Architectural Desktop 2004 |Company: Autodesk,Inc. |WEB Address: www.autodesk.com
 90
      129
 91
        0
280
     0
281
     0
  0
CLASS
  1
AEC_AECDBDISPREPCURTAINWALLUNITPLAN100
  2
AecDbDispRepCurtainWallUnitPlan100
  3
AecBase40|Product Desc: Autodesk Architectural Desktop 2004 |Company: Autodesk,Inc. |WEB Address: www.autodesk.com
 90
      129
 91
        0
280
     0
281
     0
  0
CLASS
  1
AEC_AECDBDISPREPMVBLOCKREFPLAN100
  2
AecDbDispRepMvBlockRefPlan100
  3
AecBase40|Product Desc: Autodesk Architectural Desktop 2004 |Company: Autodesk,Inc. |WEB Address: www.autodesk.com
 90
      129
 91
        0
280
     0
281
     0
  0
CLASS
  1
AEC_AECDBDISPREPROOFPLAN100
  2
AecDbDispRepRoofPlan100
  3
AecBase40|Product Desc: Autodesk Architectural Desktop 2004 |Company: Autodesk,Inc. |WEB Address: www.autodesk.com
 90
      129
 91
        0
280
     0
281
     0
  0
CLASS
  1
AEC_AECDBDISPREPROOFSLABPLAN100
  2
AecDbDispRepRoofSlabPlan100
  3
AecBase40|Product Desc: Autodesk Architectural Desktop 2004 |Company: Autodesk,Inc. |WEB Address: www.autodesk.com
 90
      129
 91
        0
280
     0
281
     0
  0
CLASS
  1
AEC_AECDBDISPREPSLABPLAN100
  2
AecDbDispRepSlabPlan100
  3
AecBase40|Product Desc: Autodesk Architectural Desktop 2004 |Company: Autodesk,Inc. |WEB Address: www.autodesk.com
 90
      129
 91
        0
280
     0
281
     0
  0
CLASS
  1
AEC_AECDBDISPREPSPACEBOUNDARYPLAN100
  2
AecDbDispRepSpaceBoundaryPlan100
  3
AecBase40|Product Desc: Autodesk Architectural Desktop 2004 |Company: Autodesk,Inc. |WEB Address: www.autodesk.com
 90
      129
 91
        0
280
     0
281
     0
  0
CLASS
  1
AEC_AECDBDISPREPSPACEPLAN100
  2
AecDbDispRepSpacePlan100
  3
AecBase40|Product Desc: Autodesk Architectural Desktop 2004 |Company: Autodesk,Inc. |WEB Address: www.autodesk.com
 90
      129
 91
        0
280
     0
281
     0
  0
CLASS
  1
AEC_AECDBDISPREPWALLPLAN100
  2
AecDbDispRepWallPlan100
  3
AecBase40|Product Desc: Autodesk Architectural Desktop 2004 |Company: Autodesk,Inc. |WEB Address: www.autodesk.com
 90
      129
 91
        0
280
     0
281
     0
  0
CLASS
  1
AEC_AECDBDISPREPWINDOWASSEMBLYPLAN100
  2
AecDbDispRepWindowAssemblyPlan100
  3
AecBase40|Product Desc: Autodesk Architectural Desktop 2004 |Company: Autodesk,Inc. |WEB Address: www.autodesk.com
 90
      129
 91
        0
280
     0
281
     0
  0
CLASS
  1
AEC_AECDBDISPREPAREA50
  2
AecDbDispRepArea50
  3
AecBase40|Product Desc: Autodesk Architectural Desktop 2004 |Company: Autodesk,Inc. |WEB Address: www.autodesk.com
 90
      129
 91
        0
280
     0
281
     0
  0
CLASS
  1
AEC_AECDBDISPREPAREAGROUP50
  2
AecDbDispRepAreaGroup50
  3
AecBase40|Product Desc: Autodesk Architectural Desktop 2004 |Company: Autodesk,Inc. |WEB Address: www.autodesk.com
 90
      129
 91
        0
280
     0
281
     0
  0
CLASS
  1
AEC_AECDBDISPREPBDGELEVLINEPLAN50
  2
AecDbDispRepBdgElevLinePlan50
  3
AecBase40|Product Desc: Autodesk Architectural Desktop 2004 |Company: Autodesk,Inc. |WEB Address: www.autodesk.com
 90
      129
 91
        0
280
     0
281
     0
  0
CLASS
  1
AEC_AECDBDISPREPBDGSECTIONLINEPLAN50
  2
AecDbDispRepBdgSectionLinePlan50
  3
AecBase40|Product Desc: Autodesk Architectural Desktop 2004 |Company: Autodesk,Inc. |WEB Address: www.autodesk.com
 90
      129
 91
        0
280
     0
281
     0
  0
CLASS
  1
AEC_AECDBDISPREPCEILINGGRIDPLAN50
  2
AecDbDispRepCeilingGridPlan50
  3
AecBase40|Product Desc: Autodesk Architectural Desktop 2004 |Company: Autodesk,Inc. |WEB Address: www.autodesk.com
 90
      129
 91
        0
280
     0
281
     0
  0
CLASS
  1
AEC_AECDBDISPREPCOLUMNGRIDPLAN50
  2
AecDbDispRepColumnGridPlan50
  3
AecBase40|Product Desc: Autodesk Architectural Desktop 2004 |Company: Autodesk,Inc. |WEB Address: www.autodesk.com
 90
      129
 91
        0
280
     0
281
     0
  0
CLASS
  1
AEC_AECDBDISPREPCURTAINWALLLAYOUTPLAN50
  2
AecDbDispRepCurtainWallLayoutPlan50
  3
AecBase40|Product Desc: Autodesk Architectural Desktop 2004 |Company: Autodesk,Inc. |WEB Address: www.autodesk.com
 90
      129
 91
        0
280
     0
281
     0
  0
CLASS
  1
AEC_AECDBDISPREPCURTAINWALLUNITPLAN50
  2
AecDbDispRepCurtainWallUnitPlan50
  3
AecBase40|Product Desc: Autodesk Architectural Desktop 2004 |Company: Autodesk,Inc. |WEB Address: www.autodesk.com
 90
      129
 91
        0
280
     0
281
     0
  0
CLASS
  1
AEC_AECDBDISPREPMVBLOCKREFPLAN50
  2
AecDbDispRepMvBlockRefPlan50
  3
AecBase40|Product Desc: Autodesk Architectural Desktop 2004 |Company: Autodesk,Inc. |WEB Address: www.autodesk.com
 90
      129
 91
        0
280
     0
281
     0
  0
CLASS
  1
AEC_AECDBDISPREPROOFPLAN50
  2
AecDbDispRepRoofPlan50
  3
AecBase40|Product Desc: Autodesk Architectural Desktop 2004 |Company: Autodesk,Inc. |WEB Address: www.autodesk.com
 90
      129
 91
        0
280
     0
281
     0
  0
CLASS
  1
AEC_AECDBDISPREPROOFSLABPLAN50
  2
AecDbDispRepRoofSlabPlan50
  3
AecBase40|Product Desc: Autodesk Architectural Desktop 2004 |Company: Autodesk,Inc. |WEB Address: www.autodesk.com
 90
      129
 91
        0
280
     0
281
     0
  0
CLASS
  1
AEC_AECDBDISPREPSLABPLAN50
  2
AecDbDispRepSlabPlan50
  3
AecBase40|Product Desc: Autodesk Architectural Desktop 2004 |Company: Autodesk,Inc. |WEB Address: www.autodesk.com
 90
      129
 91
        0
280
     0
281
     0
  0
CLASS
  1
AEC_AECDBDISPREPSPACEBOUNDARYPLAN50
  2
AecDbDispRepSpaceBoundaryPlan50
  3
AecBase40|Product Desc: Autodesk Architectural Desktop 2004 |Company: Autodesk,Inc. |WEB Address: www.autodesk.com
 90
      129
 91
        0
280
     0
281
     0
  0
CLASS
  1
AEC_AECDBDISPREPSPACEPLAN50
  2
AecDbDispRepSpacePlan50
  3
AecBase40|Product Desc: Autodesk Architectural Desktop 2004 |Company: Autodesk,Inc. |WEB Address: www.autodesk.com
 90
      129
 91
        0
280
     0
281
     0
  0
CLASS
  1
AEC_AECDBDISPREPWALLPLAN50
  2
AecDbDispRepWallPlan50
  3
AecBase40|Product Desc: Autodesk Architectural Desktop 2004 |Company: Autodesk,Inc. |WEB Address: www.autodesk.com
 90
      129
 91
        0
280
     0
281
     0
  0
CLASS
  1
AEC_AECDBDISPREPWINDOWASSEMBLYPLAN50
  2
AecDbDispRepWindowAssemblyPlan50
  3
AecBase40|Product Desc: Autodesk Architectural Desktop 2004 |Company: Autodesk,Inc. |WEB Address: www.autodesk.com
 90
      129
 91
        0
280
     0
281
     0
  0
CLASS
  1
AEC_DB_DISP_REP_DIM_GROUP_PLAN100
  2
AecDbDispRepDimGroupPlan100
  3
AecArchDACHBase40|Product Desc: Autodesk Architectural Desktop 2004 |Company: Autodesk,Inc. |WEB Address: www.autodesk.com
 90
      129
 91
        0
280
     0
281
     0
  0
CLASS
  1
AEC_DB_DISP_REP_DIM_GROUP_PLAN50
  2
AecDbDispRepDimGroupPlan50
  3
AecArchDACHBase40|Product Desc: Autodesk Architectural Desktop 2004 |Company: Autodesk,Inc. |WEB Address: www.autodesk.com
 90
      129
 91
        0
280
     0
281
     0
  0
CLASS
  1
AEC_DISP_REP_DOOR_PLAN_50
  2
AecDbDispRepDoorPlan50
  3
AecArchDACHBase40|Product Desc: Autodesk Architectural Desktop 2004 |Company: Autodesk,Inc. |WEB Address: www.autodesk.com
 90
      129
 91
        0
280
     0
281
     0
  0
CLASS
  1
AEC_DISP_PROPS_DOOR_PLAN_50
  2
AecDbDispPropsDoorPlan50
  3
AecArchDACHBase40|Product Desc: Autodesk Architectural Desktop 2004 |Company: Autodesk,Inc. |WEB Address: www.autodesk.com
 90
      129
 91
        0
280
     0
281
     0
  0
CLASS
  1
AEC_DISP_REP_DOOR_PLAN_HEKTO
  2
AecDbDispRepDoorPlanHekto
  3
AecArchDACHBase40|Product Desc: Autodesk Architectural Desktop 2004 |Company: Autodesk,Inc. |WEB Address: www.autodesk.com
 90
      129
 91
        0
280
     0
281
     0
  0
CLASS
  1
AEC_DISP_PROPS_DOOR_PLAN_100
  2
AecDbDispPropsDoorPlan100
  3
AecArchDACHBase40|Product Desc: Autodesk Architectural Desktop 2004 |Company: Autodesk,Inc. |WEB Address: www.autodesk.com
 90
      129
 91
        0
280
     0
281
     0
  0
CLASS
  1
AEC_DISP_REP_DOOR_THRESHOLD_SYMBOL_PLAN
  2
AecDbDispRepDoorThresholdSymbolPlan
  3
AecArchDACHBase40|Product Desc: Autodesk Architectural Desktop 2004 |Company: Autodesk,Inc. |WEB Address: www.autodesk.com
 90
      129
 91
        0
280
     0
281
     0
  0
CLASS
  1
AEC_DISP_PROPS_DOOR_THRESHOLD_SYMBOL_PLAN
  2
AecDbDispPropsDoorThresholdSymbolPlan
  3
AecArchDACHBase40|Product Desc: Autodesk Architectural Desktop 2004 |Company: Autodesk,Inc. |WEB Address: www.autodesk.com
 90
      129
 91
        0
280
     0
281
     0
  0
CLASS
  1
AEC_DISPREPAECDBDISPREPMASSELEMPLAN100
  2
AecDbDispRepMassElemPlan100
  3
AecArchDACHBase40|Product Desc: Autodesk Architectural Desktop 2004 |Company: Autodesk,Inc. |WEB Address: www.autodesk.com
 90
      129
 91
        0
280
     0
281
     0
  0
CLASS
  1
AEC_DISPROPSMASSELEMPLANCOMMON
  2
AecDbDispPropsMassElemPlanCommon
  3
AecArchDACHBase40|Product Desc: Autodesk Architectural Desktop 2004 |Company: Autodesk,Inc. |WEB Address: www.autodesk.com
 90
      129
 91
        0
280
     0
281
     0
  0
CLASS
  1
AEC_DISPREPAECDBDISPREPMASSELEMPLAN50
  2
AecDbDispRepMassElemPlan50
  3
AecArchDACHBase40|Product Desc: Autodesk Architectural Desktop 2004 |Company: Autodesk,Inc. |WEB Address: www.autodesk.com
 90
      129
 91
        0
280
     0
281
     0
  0
CLASS
  1
AEC_DISPREPAECDBDISPREPMASSGROUPPLAN100
  2
AecDbDispRepMassGroupPlan100
  3
AecArchDACHBase40|Product Desc: Autodesk Architectural Desktop 2004 |Company: Autodesk,Inc. |WEB Address: www.autodesk.com
 90
      129
 91
        0
280
     0
281
     0
  0
CLASS
  1
AEC_DISPROPSMASSGROUPPLANCOMMON
  2
AecDbDispPropsMassGroupPlanCommon
  3
AecArchDACHBase40|Product Desc: Autodesk Architectural Desktop 2004 |Company: Autodesk,Inc. |WEB Address: www.autodesk.com
 90
      129
 91
        0
280
     0
281
     0
  0
CLASS
  1
AEC_DISPREPAECDBDISPREPMASSGROUPPLAN50
  2
AecDbDispRepMassGroupPlan50
  3
AecArchDACHBase40|Product Desc: Autodesk Architectural Desktop 2004 |Company: Autodesk,Inc. |WEB Address: www.autodesk.com
 90
      129
 91
        0
280
     0
281
     0
  0
CLASS
  1
AEC_DISPREPAECDBDISPREPOPENINGPLAN100
  2
AecDbDispRepOpeningPlan100
  3
AecArchDACHBase40|Product Desc: Autodesk Architectural Desktop 2004 |Company: Autodesk,Inc. |WEB Address: www.autodesk.com
 90
      129
 91
        0
280
     0
281
     0
  0
CLASS
  1
AEC_DISPROPSOPENINGPLANCOMMONHATCHED
  2
AecDbDispPropsOpeningPlanCommonHatched
  3
AecArchDACHBase40|Product Desc: Autodesk Architectural Desktop 2004 |Company: Autodesk,Inc. |WEB Address: www.autodesk.com
 90
      129
 91
        0
280
     0
281
     0
  0
CLASS
  1
AEC_DISPREPAECDBDISPREPOPENINGPLAN50
  2
AecDbDispRepOpeningPlan50
  3
AecArchDACHBase40|Product Desc: Autodesk Architectural Desktop 2004 |Company: Autodesk,Inc. |WEB Address: www.autodesk.com
 90
      129
 91
        0
280
     0
281
     0
  0
CLASS
  1
AEC_DISPREPAECDBDISPREPOPENINGPLANREFLECTED
  2
AecDbDispRepOpeningPlanReflected
  3
AecArchDACHBase40|Product Desc: Autodesk Architectural Desktop 2004 |Company: Autodesk,Inc. |WEB Address: www.autodesk.com
 90
      129
 91
        0
280
     0
281
     0
  0
CLASS
  1
AEC_DISPROPSOPENINGPLANCOMMON
  2
AecDbDispPropsOpeningPlanCommon
  3
AecArchDACHBase40|Product Desc: Autodesk Architectural Desktop 2004 |Company: Autodesk,Inc. |WEB Address: www.autodesk.com
 90
      129
 91
        0
280
     0
281
     0
  0
CLASS
  1
AEC_DISPREPAECDBDISPREPOPENINGSILLPLAN
  2
AecDbDispRepOpeningSillPlan
  3
AecArchDACHBase40|Product Desc: Autodesk Architectural Desktop 2004 |Company: Autodesk,Inc. |WEB Address: www.autodesk.com
 90
      129
 91
        0
280
     0
281
     0
  0
CLASS
  1
AEC_DISPROPSOPENINGSILLPLAN
  2
AecDbDispPropsOpeningSillPlan
  3
AecArchDACHBase40|Product Desc: Autodesk Architectural Desktop 2004 |Company: Autodesk,Inc. |WEB Address: www.autodesk.com
 90
      129
 91
        0
280
     0
281
     0
  0
CLASS
  1
AEC_DISP_REP_RAILING_PLAN_100
  2
AecDbDispRepRailingPlan100
  3
AecArchDACHBase40|Product Desc: Autodesk Architectural Desktop 2004 |Company: Autodesk,Inc. |WEB Address: www.autodesk.com
 90
      129
 91
        0
280
     0
281
     0
  0
CLASS
  1
AEC_DISP_ROPS_RAILING_PLAN_100
  2
AecDbDispPropsRailingPlan100
  3
AecArchDACHBase40|Product Desc: Autodesk Architectural Desktop 2004 |Company: Autodesk,Inc. |WEB Address: www.autodesk.com
 90
      129
 91
        0
280
     0
281
     0
  0
CLASS
  1
AEC_DISP_REP_RAILING_PLAN_50
  2
AecDbDispRepRailingPlan50
  3
AecArchDACHBase40|Product Desc: Autodesk Architectural Desktop 2004 |Company: Autodesk,Inc. |WEB Address: www.autodesk.com
 90
      129
 91
        0
280
     0
281
     0
  0
CLASS
  1
AEC_DISP_ROPS_RAILING_PLAN_50
  2
AecDbDispPropsRailingPlan50
  3
AecArchDACHBase40|Product Desc: Autodesk Architectural Desktop 2004 |Company: Autodesk,Inc. |WEB Address: www.autodesk.com
 90
      129
 91
        0
280
     0
281
     0
  0
CLASS
  1
AEC_DISP_REP_STAIR_PLAN_100
  2
AecDbDispRepStairPlan100
  3
AecArchDACHBase40|Product Desc: Autodesk Architectural Desktop 2004 |Company: Autodesk,Inc. |WEB Address: www.autodesk.com
 90
      129
 91
        0
280
     0
281
     0
  0
CLASS
  1
AEC_DISP_ROPS_STAIR_PLAN_100
  2
AecDbDispPropsStairPlan100
  3
AecArchDACHBase40|Product Desc: Autodesk Architectural Desktop 2004 |Company: Autodesk,Inc. |WEB Address: www.autodesk.com
 90
      129
 91
        0
280
     0
281
     0
  0
CLASS
  1
AEC_DISP_REP_STAIR_PLAN_50
  2
AecDbDispRepStairPlan50
  3
AecArchDACHBase40|Product Desc: Autodesk Architectural Desktop 2004 |Company: Autodesk,Inc. |WEB Address: www.autodesk.com
 90
      129
 91
        0
280
     0
281
     0
  0
CLASS
  1
AEC_DISP_ROPS_STAIR_PLAN_50
  2
AecDbDispPropsStairPlan50
  3
AecArchDACHBase40|Product Desc: Autodesk Architectural Desktop 2004 |Company: Autodesk,Inc. |WEB Address: www.autodesk.com
 90
      129
 91
        0
280
     0
281
     0
  0
CLASS
  1
AEC_DISP_REP_WINDOW_PLAN_100
  2
AecDbDispRepWindowPlan100
  3
AecArchDACHBase40|Product Desc: Autodesk Architectural Desktop 2004 |Company: Autodesk,Inc. |WEB Address: www.autodesk.com
 90
      129
 91
        0
280
     0
281
     0
  0
CLASS
  1
AEC_DISP_PROPS_WINDOW_PLAN_100
  2
AecDbDispPropsWindowPlan100
  3
AecArchDACHBase40|Product Desc: Autodesk Architectural Desktop 2004 |Company: Autodesk,Inc. |WEB Address: www.autodesk.com
 90
      129
 91
        0
280
     0
281
     0
  0
CLASS
  1
AEC_DISP_REP_WINDOW_PLAN_50
  2
AecDbDispRepWindowPlan50
  3
AecArchDACHBase40|Product Desc: Autodesk Architectural Desktop 2004 |Company: Autodesk,Inc. |WEB Address: www.autodesk.com
 90
      129
 91
        0
280
     0
281
     0
  0
CLASS
  1
AEC_DISP_PROPS_WINDOW_PLAN_50
  2
AecDbDispPropsWindowPlan50
  3
AecArchDACHBase40|Product Desc: Autodesk Architectural Desktop 2004 |Company: Autodesk,Inc. |WEB Address: www.autodesk.com
 90
      129
 91
        0
280
     0
281
     0
  0
CLASS
  1
BINRECORD
  2
AcAecBinRecord
  3
AecBase40|Product Desc: Autodesk Architectural Desktop 2004 |Company: Autodesk,Inc. |WEB Address: www.autodesk.com
 90
      129
 91
        0
280
     0
281
     0
  0
ENDSEC
  0
SECTION
  2
TABLES
  0
TABLE
  2
VPORT
  5
13A
330
0
100
AcDbSymbolTable
 70
     1
  0
VPORT
  5
13B
330
13A
100
AcDbSymbolTableRecord
100
AcDbViewportTableRecord
  2
*Active
 70
     0
 10
0.0
 20
0.0
 11
1.0
 21
1.0
 12
162.4632565392319
 22
247.1784210877669
 13
0.0
 23
0.0
 14
10.0
 24
10.0
 15
10.0
 25
10.0
 16
0.0
 26
0.0
 36
1.0
 17
0.0
 27
0.0
 37
0.0
 40
387.0695020488487
 41
2.024081115335868
 42
50.0
 43
0.0
 44
0.0
 50
0.0
 51
0.0
 71
     0
 72
   100
 73
     1
 74
     1
 75
     0
 76
     0
 77
     0
 78
     0
281
     0
 65
     1
110
0.0
120
0.0
130
0.0
111
1.0
121
0.0
131
0.0
112
0.0
122
1.0
132
0.0
 79
     0
146
0.0
  0
ENDTAB
  0
TABLE
  2
LTYPE
  5
135
330
0
100
AcDbSymbolTable
 70
     3
  0
LTYPE
  5
136
330
135
100
AcDbSymbolTableRecord
100
AcDbLinetypeTableRecord
  2
BYBLOCK
 70
     0
  3

 72
    65
 73
     0
 40
0.0
  0
LTYPE
  5
137
330
135
100
AcDbSymbolTableRecord
100
AcDbLinetypeTableRecord
  2
BYLAYER
 70
     0
  3

 72
    65
 73
     0
 40
0.0
  0
LTYPE
  5
8
330
135
100
AcDbSymbolTableRecord
100
AcDbLinetypeTableRecord
  2
CONTINUOUS
 70
     0
  3
Solid line
 72
    65
 73
     0
 40
0.0
  0
LTYPE
  5
2D
330
135
100
AcDbSymbolTableRecord
100
AcDbLinetypeTableRecord
  2
MITTE
 70
     0
  3
Mitte ____ _ ____ _ ____ _ ____ _ ____ _ ____
 72
    65
 73
     4
 40
50.8
 49
31.75
 74
     0
 49
-6.349999999999998
 74
     0
 49
6.349999999999998
 74
     0
 49
-6.349999999999998
 74
     0
  0
LTYPE
  5
AE
330
135
100
AcDbSymbolTableRecord
100
AcDbLinetypeTableRecord
  2
VERDECKTX2
 70
     0
  3
Verdeckt (2x) ____ ____ ____ ____ ____ ____ ___
 72
    65
 73
     2
 40
0.75
 49
0.5
 74
     0
 49
-0.25
 74
     0
  0
ENDTAB
  0
TABLE
  2
LAYER
  5
130
102
{ACAD_XDICTIONARY
360
131
102
}
330
0
100
AcDbSymbolTable
 70
     8
  0
LAYER
  5
4
330
130
100
AcDbSymbolTableRecord
100
AcDbLayerTableRecord
  2
0
 70
     0
 62
     7
  6
CONTINUOUS
370
    -3
390
5
  0
LAYER
  5
29
330
130
100
AcDbSymbolTableRecord
100
AcDbLayerTableRecord
  2
-PROFILAUSSENKANTE
 70
     0
 62
     4
  6
CONTINUOUS
370
    -3
390
5
  0
LAYER
  5
2C
330
130
100
AcDbSymbolTableRecord
100
AcDbLayerTableRecord
  2
-SYSTEM
 70
     0
 62
     2
  6
MITTE
370
    -3
390
5
  0
LAYER
  5
17
330
130
100
AcDbSymbolTableRecord
100
AcDbLayerTableRecord
  2
DEFPOINTS
 70
     0
 62
     7
  6
CONTINUOUS
290
     0
370
    -3
390
5
  0
LAYER
  5
A
330
130
100
AcDbSymbolTableRecord
100
AcDbLayerTableRecord
  2
-TEXT3
 70
     0
 62
     2
  6
CONTINUOUS
370
    -3
390
5
  0
LAYER
  5
B3
330
130
100
AcDbSymbolTableRecord
100
AcDbLayerTableRecord
  2
-SCHRAFFUR
 70
     0
 62
     9
  6
CONTINUOUS
370
    -3
390
5
  0
LAYER
  5
C6
330
130
100
AcDbSymbolTableRecord
100
AcDbLayerTableRecord
  2
-TEXT2
 70
     0
 62
     3
  6
CONTINUOUS
370
    -3
390
5
  0
LAYER
  5
AD
330
130
100
AcDbSymbolTableRecord
100
AcDbLayerTableRecord
  2
-VERDECKT
 70
     0
 62
     9
  6
VERDECKTX2
370
    -3
390
5
  0
ENDTAB
  0
TABLE
  2
STYLE
  5
133
330
0
100
AcDbSymbolTable
 70
     1
  0
STYLE
  5
C
330
133
100
AcDbSymbolTableRecord
100
AcDbTextStyleTableRecord
  2
STANDARD
 70
     0
 40
0.0
 41
1.0
 50
0.0
 71
     0
 42
2.5
  3
GOTHIC.TTF
  4

1001
ACAD
1000
Century Gothic
1071
       34
  0
ENDTAB
  0
TABLE
  2
VIEW
  5
138
330
0
100
AcDbSymbolTable
 70
     0
  0
ENDTAB
  0
TABLE
  2
UCS
  5
139
330
0
100
AcDbSymbolTable
 70
     0
  0
ENDTAB
  0
TABLE
  2
APPID
  5
13C
330
0
100
AcDbSymbolTable
 70
     1
  0
APPID
  5
D
330
13C
100
AcDbSymbolTableRecord
100
AcDbRegAppTableRecord
  2
ACAD
 70
     0
  0
ENDTAB
  0
TABLE
  2
DIMSTYLE
  5
13D
330
0
100
AcDbSymbolTable
 70
     1
100
AcDbDimStyleTable
 71
     1
340
B
  0
DIMSTYLE
105
B
102
{ACAD_REACTORS
330
1B
330
9
330
41
330
2E
330
B6
330
55
330
62
330
71
330
80
330
92
330
9F
330
C9
330
F3
330
101
330
10D
330
11A
102
}
330
13D
100
AcDbSymbolTableRecord
100
AcDbDimStyleTableRecord
  2
1-1
 70
     0
 41
3.0
 42
1.0
 43
3.75
 44
1.25
 73
     0
 74
     0
 77
     1
 78
     8
140
3.5
141
2.5
143
0.0394
147
1.0
171
     4
172
     1
176
   256
177
   256
178
   256
271
     1
272
     1
273
     8
274
     4
284
     8
340
C
  0
ENDTAB
  0
TABLE
  2
BLOCK_RECORD
  5
1
330
0
100
AcDbSymbolTable
 70
    16
  0
BLOCK_RECORD
  5
2
330
1
100
AcDbSymbolTableRecord
100
AcDbBlockTableRecord
  2
*MODEL_SPACE
340
12A
  0
BLOCK_RECORD
  5
12C
330
1
100
AcDbSymbolTableRecord
100
AcDbBlockTableRecord
  2
*PAPER_SPACE
340
12F
  0
BLOCK_RECORD
  5
42
330
1
100
AcDbSymbolTableRecord
100
AcDbBlockTableRecord
  2
*D0
340
0
  0
BLOCK_RECORD
  5
2F
330
1
100
AcDbSymbolTableRecord
100
AcDbBlockTableRecord
  2
*D1
340
0
  0
BLOCK_RECORD
  5
1C
330
1
100
AcDbSymbolTableRecord
100
AcDbBlockTableRecord
  2
*D2
340
0
  0
BLOCK_RECORD
  5
E
330
1
100
AcDbSymbolTableRecord
100
AcDbBlockTableRecord
  2
*D3
340
0
  0
BLOCK_RECORD
  5
B7
330
1
100
AcDbSymbolTableRecord
100
AcDbBlockTableRecord
  2
*D4
340
0
  0
BLOCK_RECORD
  5
56
330
1
100
AcDbSymbolTableRecord
100
AcDbBlockTableRecord
  2
*D5
340
0
  0
BLOCK_RECORD
  5
63
330
1
100
AcDbSymbolTableRecord
100
AcDbBlockTableRecord
  2
*D6
340
0
  0
BLOCK_RECORD
  5
72
330
1
100
AcDbSymbolTableRecord
100
AcDbBlockTableRecord
  2
*D7
340
0
  0
BLOCK_RECORD
  5
81
330
1
100
AcDbSymbolTableRecord
100
AcDbBlockTableRecord
  2
*D8
340
0
  0
BLOCK_RECORD
  5
93
330
1
100
AcDbSymbolTableRecord
100
AcDbBlockTableRecord
  2
*D9
340
0
  0
BLOCK_RECORD
  5
A0
330
1
100
AcDbSymbolTableRecord
100
AcDbBlockTableRecord
  2
*D10
340
0
  0
BLOCK_RECORD
  5
CA
330
1
100
AcDbSymbolTableRecord
100
AcDbBlockTableRecord
  2
*D11
340
0
  0
BLOCK_RECORD
  5
F4
330
1
100
AcDbSymbolTableRecord
100
AcDbBlockTableRecord
  2
*D12
340
0
  0
BLOCK_RECORD
  5
102
330
1
100
AcDbSymbolTableRecord
100
AcDbBlockTableRecord
  2
*D13
340
0
  0
BLOCK_RECORD
  5
10E
330
1
100
AcDbSymbolTableRecord
100
AcDbBlockTableRecord
  2
*D14
340
0
  0
BLOCK_RECORD
  5
11B
330
1
100
AcDbSymbolTableRecord
100
AcDbBlockTableRecord
  2
*D15
340
0
  0
ENDTAB
  0
ENDSEC
  0
SECTION
  2
BLOCKS
  0
BLOCK
  5
3
330
2
100
AcDbEntity
  8
0
100
AcDbBlockBegin
  2
*MODEL_SPACE
 70
     0
 10
0.0
 20
0.0
 30
0.0
  3
*MODEL_SPACE
  1

  0
ENDBLK
  5
129
330
2
100
AcDbEntity
  8
0
100
AcDbBlockEnd
  0
BLOCK
  5
12D
330
12C
100
AcDbEntity
 67
     1
  8
0
100
AcDbBlockBegin
  2
*PAPER_SPACE
 70
     0
 10
0.0
 20
0.0
 30
0.0
  3
*PAPER_SPACE
  1

  0
ENDBLK
  5
12E
330
12C
100
AcDbEntity
 67
     1
  8
0
100
AcDbBlockEnd
  0
BLOCK
  5
43
330
42
100
AcDbEntity
  8
0
100
AcDbBlockBegin
  2
*D0
 70
     1
 10
0.0
 20
0.0
 30
0.0
  3
*D0
  1

  0
LINE
  5
44
330
42
100
AcDbEntity
  8
-TEXT3
370
    -2
100
AcDbLine
 10
70.0
 20
120.0663429306551
 30
0.0
 11
70.0
 21
55.29210810803215
 31
0.0
  0
LINE
  5
45
330
42
100
AcDbEntity
  8
-TEXT3
370
    -2
100
AcDbLine
 10
130.0
 20
120.0663429306551
 30
0.0
 11
130.0
 21
55.29210810803215
 31
0.0
  0
LINE
  5
46
330
42
100
AcDbEntity
  8
-TEXT3
370
    -2
100
AcDbLine
 10
73.0
 20
56.54210810803215
 30
0.0
 11
127.0
 21
56.54210810803215
 31
0.0
  0
SOLID
  5
47
330
42
100
AcDbEntity
  8
-TEXT3
100
AcDbTrace
 10
73.0
 20
57.04210810803215
 30
0.0
 11
73.0
 21
56.04210810803215
 31
0.0
 12
70.0
 22
56.54210810803215
 32
0.0
 13
70.0
 23
56.54210810803215
 33
0.0
  0
SOLID
  5
48
330
42
100
AcDbEntity
  8
-TEXT3
100
AcDbTrace
 10
127.0
 20
57.04210810803215
 30
0.0
 11
127.0
 21
56.04210810803215
 31
0.0
 12
130.0
 22
56.54210810803215
 32
0.0
 13
130.0
 23
56.54210810803215
 33
0.0
  0
MTEXT
  5
49
330
42
100
AcDbEntity
  8
-TEXT3
100
AcDbMText
 10
100.0
 20
59.48959281231495
 30
0.0
 40
3.5
 41
0.0
 71
     5
 72
     1
  1
\A1;%%c60
 73
     1
 44
1.0
  0
POINT
  5
4A
330
42
100
AcDbEntity
  8
DEFPOINTS
 62
     0
100
AcDbPoint
 10
70.0
 20
121.0663429306551
 30
0.0
  0
POINT
  5
4B
330
42
100
AcDbEntity
  8
DEFPOINTS
 62
     0
100
AcDbPoint
 10
130.0
 20
121.0663429306551
 30
0.0
  0
POINT
  5
4C
330
42
100
AcDbEntity
  8
DEFPOINTS
 62
     0
100
AcDbPoint
 10
130.0
 20
56.54210810803215
 30
0.0
  0
ENDBLK
  5
4D
330
42
100
AcDbEntity
  8
0
100
AcDbBlockEnd
  0
BLOCK
  5
30
330
2F
100
AcDbEntity
  8
0
100
AcDbBlockBegin
  2
*D1
 70
     1
 10
0.0
 20
0.0
 30
0.0
  3
*D1
  1

  0
LINE
  5
31
330
2F
100
AcDbEntity
  8
-TEXT3
370
    -2
100
AcDbLine
 10
144.7272146988429
 20
179.9635335070142
 30
0.0
 11
154.1546666746401
 21
189.7696923547135
 31
0.0
  0
LINE
  5
32
330
2F
100
AcDbEntity
  8
-TEXT3
370
    -2
100
AcDbLine
 10
159.147806822148
 20
166.0998543828571
 30
0.0
 11
168.5752587979451
 21
175.9060132305564
 31
0.0
  0
LINE
  5
33
330
2F
100
AcDbEntity
  8
-TEXT3
370
    -2
100
AcDbLine
 10
155.4510242797154
 20
186.7894311313032
 30
0.0
 11
165.5462771304113
 21
177.0840497570463
 31
0.0
  0
SOLID
  5
34
330
2F
100
AcDbEntity
  8
-TEXT3
100
AcDbTrace
 10
155.7975490922071
 20
187.1498760706873
 30
0.0
 11
155.1044994672237
 21
186.4289861919191
 31
0.0
 12
153.2883546434109
 22
188.8685800062533
 32
0.0
 13
153.2883546434109
 23
188.8685800062533
 33
0.0
  0
SOLID
  5
35
330
2F
100
AcDbEntity
  8
-TEXT3
100
AcDbTrace
 10
165.892801942903
 20
177.4444946964304
 30
0.0
 11
165.1997523179197
 21
176.7236048176622
 31
0.0
 12
167.7089467667159
 22
175.0049008820961
 32
0.0
 13
167.7089467667159
 23
175.0049008820961
 33
0.0
  0
MTEXT
  5
36
330
2F
100
AcDbEntity
  8
-TEXT3
100
AcDbMText
 10
162.5414038740108
 20
184.0615523353162
 30
0.0
 40
3.5
 41
0.0
 71
     5
 72
     1
  1
\A1;%%c20
 11
0.7208898787681881
 21
-0.693049624983368
 31
0.0
 73
     1
 44
1.0
  0
POINT
  5
37
330
2F
100
AcDbEntity
  8
DEFPOINTS
 62
     0
100
AcDbPoint
 10
144.0341650738595
 20
179.242643628246
 30
0.0
  0
POINT
  5
38
330
2F
100
AcDbEntity
  8
DEFPOINTS
 62
     0
100
AcDbPoint
 10
158.4547571971645
 20
165.3789645040889
 30
0.0
  0
POINT
  5
39
330
2F
100
AcDbEntity
  8
DEFPOINTS
 62
     0
100
AcDbPoint
 10
167.7089467667159
 20
175.0049008820961
 30
0.0
  0
ENDBLK
  5
3A
330
2F
100
AcDbEntity
  8
0
100
AcDbBlockEnd
  0
BLOCK
  5
1D
330
1C
100
AcDbEntity
  8
0
100
AcDbBlockBegin
  2
*D2
 70
     1
 10
0.0
 20
0.0
 30
0.0
  3
*D2
  1

  0
LINE
  5
1E
330
1C
100
AcDbEntity
  8
-TEXT3
370
    -2
100
AcDbLine
 10
134.0
 20
121.0663429306551
 30
0.0
 11
251.2499999999999
 21
121.066342930655
 31
0.0
  0
LINE
  5
1F
330
1C
100
AcDbEntity
  8
-TEXT3
370
    -2
100
AcDbLine
 10
230.9999999999999
 20
221.0663429306551
 30
0.0
 11
251.2499999999999
 21
221.0663429306551
 31
0.0
  0
LINE
  5
20
330
1C
100
AcDbEntity
  8
-TEXT3
370
    -2
100
AcDbLine
 10
249.9999999999999
 20
124.066342930655
 30
0.0
 11
249.9999999999999
 21
218.0663429306551
 31
0.0
  0
SOLID
  5
21
330
1C
100
AcDbEntity
  8
-TEXT3
100
AcDbTrace
 10
249.4999999999999
 20
124.066342930655
 30
0.0
 11
250.4999999999999
 21
124.066342930655
 31
0.0
 12
249.9999999999999
 22
121.066342930655
 32
0.0
 13
249.9999999999999
 23
121.066342930655
 33
0.0
  0
SOLID
  5
22
330
1C
100
AcDbEntity
  8
-TEXT3
100
AcDbTrace
 10
249.4999999999999
 20
218.0663429306551
 30
0.0
 11
250.4999999999999
 21
218.0663429306551
 31
0.0
 12
249.9999999999999
 22
221.0663429306551
 32
0.0
 13
249.9999999999999
 23
221.0663429306551
 33
0.0
  0
MTEXT
  5
23
330
1C
100
AcDbEntity
  8
-TEXT3
100
AcDbMText
 10
247.1619646498979
 20
171.0663429306551
 30
0.0
 40
3.5
 41
0.0
 71
     5
 72
     1
  1
\A1;100
 11
0.0000000000000001
 21
1.0
 31
0.0
 73
     1
 44
1.0
  0
POINT
  5
24
330
1C
100
AcDbEntity
  8
DEFPOINTS
 62
     0
100
AcDbPoint
 10
133.0
 20
121.0663429306551
 30
0.0
  0
POINT
  5
25
330
1C
100
AcDbEntity
  8
DEFPOINTS
 62
     0
100
AcDbPoint
 10
229.9999999999999
 20
221.0663429306551
 30
0.0
  0
POINT
  5
26
330
1C
100
AcDbEntity
  8
DEFPOINTS
 62
     0
100
AcDbPoint
 10
249.9999999999999
 20
221.0663429306551
 30
0.0
  0
ENDBLK
  5
27
330
1C
100
AcDbEntity
  8
0
100
AcDbBlockEnd
  0
BLOCK
  5
F
330
E
100
AcDbEntity
  8
0
100
AcDbBlockBegin
  2
*D3
 70
     1
 10
0.0
 20
0.0
 30
0.0
  3
*D3
  1

  0
LINE
  5
10
330
E
100
AcDbEntity
  8
-TEXT3
370
    -2
100
AcDbLine
 10
100.0
 20
155.0663429306551
 30
0.0
 11
100.0
 21
262.3163429306551
 31
0.0
  0
LINE
  5
11
330
E
100
AcDbEntity
  8
-TEXT3
370
    -2
100
AcDbLine
 10
199.9999999999998
 20
252.0663429306551
 30
0.0
 11
199.9999999999998
 21
262.3163429306551
 31
0.0
  0
LINE
  5
12
330
E
100
AcDbEntity
  8
-TEXT3
370
    -2
100
AcDbLine
 10
103.0
 20
261.0663429306551
 30
0.0
 11
196.9999999999997
 21
261.0663429306551
 31
0.0
  0
SOLID
  5
13
330
E
100
AcDbEntity
  8
-TEXT3
100
AcDbTrace
 10
103.0
 20
261.5663429306551
 30
0.0
 11
103.0
 21
260.5663429306551
 31
0.0
 12
100.0
 22
261.0663429306551
 32
0.0
 13
100.0
 23
261.0663429306551
 33
0.0
  0
SOLID
  5
14
330
E
100
AcDbEntity
  8
-TEXT3
100
AcDbTrace
 10
196.9999999999997
 20
261.5663429306551
 30
0.0
 11
196.9999999999997
 21
260.5663429306551
 31
0.0
 12
199.9999999999998
 22
261.0663429306551
 32
0.0
 13
199.9999999999998
 23
261.0663429306551
 33
0.0
  0
MTEXT
  5
15
330
E
100
AcDbEntity
  8
-TEXT3
100
AcDbMText
 10
149.9999999999999
 20
263.904378280757
 30
0.0
 40
3.5
 41
0.0
 71
     5
 72
     1
  1
\A1;100
 73
     1
 44
1.0
  0
POINT
  5
16
330
E
100
AcDbEntity
  8
DEFPOINTS
 62
     0
100
AcDbPoint
 10
100.0
 20
154.0663429306551
 30
0.0
  0
POINT
  5
18
330
E
100
AcDbEntity
  8
DEFPOINTS
 62
     0
100
AcDbPoint
 10
199.9999999999998
 20
251.0663429306551
 30
0.0
  0
POINT
  5
19
330
E
100
AcDbEntity
  8
DEFPOINTS
 62
     0
100
AcDbPoint
 10
199.9999999999998
 20
261.0663429306551
 30
0.0
  0
ENDBLK
  5
1A
330
E
100
AcDbEntity
  8
0
100
AcDbBlockEnd
  0
BLOCK
  5
B8
330
B7
100
AcDbEntity
  8
0
100
AcDbBlockBegin
  2
*D4
 70
     1
 10
0.0
 20
0.0
 30
0.0
  3
*D4
  1

  0
LINE
  5
B9
330
B7
100
AcDbEntity
  8
-TEXT3
370
    -2
100
AcDbLine
 10
224.9999999999998
 20
419.2669264296783
 30
0.0
 11
245.2499999999998
 21
419.2669264296783
 31
0.0
  0
LINE
  5
BA
330
B7
100
AcDbEntity
  8
-TEXT3
370
    -2
100
AcDbLine
 10
224.9999999999998
 20
389.2669264296783
 30
0.0
 11
245.2499999999998
 21
389.2669264296783
 31
0.0
  0
LINE
  5
BB
330
B7
100
AcDbEntity
  8
-TEXT3
370
    -2
100
AcDbLine
 10
243.9999999999998
 20
416.2669264296782
 30
0.0
 11
243.9999999999998
 21
392.2669264296783
 31
0.0
  0
SOLID
  5
BC
330
B7
100
AcDbEntity
  8
-TEXT3
100
AcDbTrace
 10
243.4999999999998
 20
416.2669264296782
 30
0.0
 11
244.4999999999998
 21
416.2669264296782
 31
0.0
 12
243.9999999999998
 22
419.2669264296783
 32
0.0
 13
243.9999999999998
 23
419.2669264296783
 33
0.0
  0
SOLID
  5
BD
330
B7
100
AcDbEntity
  8
-TEXT3
100
AcDbTrace
 10
243.4999999999998
 20
392.2669264296783
 30
0.0
 11
244.4999999999998
 21
392.2669264296783
 31
0.0
 12
243.9999999999998
 22
389.2669264296783
 32
0.0
 13
243.9999999999998
 23
389.2669264296783
 33
0.0
  0
MTEXT
  5
BE
330
B7
100
AcDbEntity
  8
-TEXT3
100
AcDbMText
 10
241.1619646498977
 20
404.2669264296783
 30
0.0
 40
3.5
 41
0.0
 71
     5
 72
     1
  1
\A1;30
 11
0.0000000000000001
 21
1.0
 31
0.0
 73
     1
 44
1.0
  0
POINT
  5
BF
330
B7
100
AcDbEntity
  8
DEFPOINTS
 62
     0
100
AcDbPoint
 10
223.9999999999998
 20
419.2669264296783
 30
0.0
  0
POINT
  5
C0
330
B7
100
AcDbEntity
  8
DEFPOINTS
 62
     0
100
AcDbPoint
 10
223.9999999999998
 20
389.2669264296783
 30
0.0
  0
POINT
  5
C1
330
B7
100
AcDbEntity
  8
DEFPOINTS
 62
     0
100
AcDbPoint
 10
243.9999999999998
 20
389.2669264296783
 30
0.0
  0
ENDBLK
  5
C2
330
B7
100
AcDbEntity
  8
0
100
AcDbBlockEnd
  0
BLOCK
  5
57
330
56
100
AcDbEntity
  8
0
100
AcDbBlockBegin
  2
*D5
 70
     1
 10
0.0
 20
0.0
 30
0.0
  3
*D5
  1

  0
LINE
  5
58
330
56
100
AcDbEntity
  8
-TEXT3
370
    -2
100
AcDbLine
 10
72.0
 20
384.2669264296783
 30
0.0
 11
58.75
 21
384.2669264296783
 31
0.0
  0
LINE
  5
59
330
56
100
AcDbEntity
  8
-TEXT3
370
    -2
100
AcDbLine
 10
82.0
 20
394.2669264296779
 30
0.0
 11
58.75
 21
394.2669264296779
 31
0.0
  0
LINE
  5
5A
330
56
100
AcDbEntity
  8
-TEXT3
370
    -2
100
AcDbLine
 10
60.0
 20
387.2669264296783
 30
0.0
 11
60.0
 21
391.2669264296779
 31
0.0
  0
SOLID
  5
5B
330
56
100
AcDbEntity
  8
-TEXT3
100
AcDbTrace
 10
59.5
 20
387.2669264296783
 30
0.0
 11
60.5
 21
387.2669264296783
 31
0.0
 12
60.0
 22
384.2669264296783
 32
0.0
 13
60.0
 23
384.2669264296783
 33
0.0
  0
SOLID
  5
5C
330
56
100
AcDbEntity
  8
-TEXT3
100
AcDbTrace
 10
59.5
 20
391.2669264296779
 30
0.0
 11
60.5
 21
391.2669264296779
 31
0.0
 12
60.0
 22
394.2669264296779
 32
0.0
 13
60.0
 23
394.2669264296779
 33
0.0
  0
MTEXT
  5
5D
330
56
100
AcDbEntity
  8
-TEXT3
100
AcDbMText
 10
57.16196464989796
 20
389.2669264296781
 30
0.0
 40
3.5
 41
0.0
 71
     5
 72
     1
  1
\A1;10
 11
0.0000000000000001
 21
1.0
 31
0.0
 73
     1
 44
1.0
  0
POINT
  5
5E
330
56
100
AcDbEntity
  8
DEFPOINTS
 62
     0
100
AcDbPoint
 10
73.0
 20
384.2669264296783
 30
0.0
  0
POINT
  5
5F
330
56
100
AcDbEntity
  8
DEFPOINTS
 62
     0
100
AcDbPoint
 10
83.0
 20
394.2669264296779
 30
0.0
  0
POINT
  5
60
330
56
100
AcDbEntity
  8
DEFPOINTS
 62
     0
100
AcDbPoint
 10
60.0
 20
394.2669264296779
 30
0.0
  0
ENDBLK
  5
61
330
56
100
AcDbEntity
  8
0
100
AcDbBlockEnd
  0
BLOCK
  5
64
330
63
100
AcDbEntity
  8
0
100
AcDbBlockBegin
  2
*D6
 70
     1
 10
0.0
 20
0.0
 30
0.0
  3
*D6
  1

  0
LINE
  5
65
330
63
100
AcDbEntity
  8
-TEXT3
370
    -2
100
AcDbLine
 10
87.0
 20
383.2669264296783
 30
0.0
 11
87.0
 21
363.0169264296783
 31
0.0
  0
LINE
  5
66
330
63
100
AcDbEntity
  8
-TEXT3
370
    -2
100
AcDbLine
 10
83.0
 20
383.2669264296783
 30
0.0
 11
83.0
 21
363.0169264296783
 31
0.0
  0
LINE
  5
67
330
63
100
AcDbEntity
  8
-TEXT3
370
    -2
100
AcDbLine
 10
90.0
 20
364.2669264296783
 30
0.0
 11
93.0
 21
364.2669264296783
 31
0.0
  0
LINE
  5
68
330
63
100
AcDbEntity
  8
-TEXT3
370
    -2
100
AcDbLine
 10
80.0
 20
364.2669264296783
 30
0.0
 11
68.47110808973487
 21
364.2669264296783
 31
0.0
  0
LINE
  5
69
330
63
100
AcDbEntity
  8
-TEXT3
370
    -2
100
AcDbLine
 10
87.0
 20
364.2669264296783
 30
0.0
 11
83.0
 21
364.2669264296783
 31
0.0
  0
SOLID
  5
6A
330
63
100
AcDbEntity
  8
-TEXT3
100
AcDbTrace
 10
90.0
 20
364.7669264296783
 30
0.0
 11
90.0
 21
363.7669264296783
 31
0.0
 12
87.0
 22
364.2669264296783
 32
0.0
 13
87.0
 23
364.2669264296783
 33
0.0
  0
SOLID
  5
6B
330
63
100
AcDbEntity
  8
-TEXT3
100
AcDbTrace
 10
80.0
 20
364.7669264296783
 30
0.0
 11
80.0
 21
363.7669264296783
 31
0.0
 12
83.0
 22
364.2669264296783
 32
0.0
 13
83.0
 23
364.2669264296783
 33
0.0
  0
MTEXT
  5
6C
330
63
100
AcDbEntity
  8
-TEXT3
100
AcDbMText
 10
72.73555404486744
 20
367.2144111339611
 30
0.0
 40
3.5
 41
0.0
 71
     5
 72
     1
  1
\A1;%%c4
 73
     1
 44
1.0
  0
POINT
  5
6D
330
63
100
AcDbEntity
  8
DEFPOINTS
 62
     0
100
AcDbPoint
 10
87.0
 20
384.2669264296783
 30
0.0
  0
POINT
  5
6E
330
63
100
AcDbEntity
  8
DEFPOINTS
 62
     0
100
AcDbPoint
 10
83.0
 20
384.2669264296783
 30
0.0
  0
POINT
  5
6F
330
63
100
AcDbEntity
  8
DEFPOINTS
 62
     0
100
AcDbPoint
 10
83.0
 20
364.2669264296783
 30
0.0
  0
ENDBLK
  5
70
330
63
100
AcDbEntity
  8
0
100
AcDbBlockEnd
  0
BLOCK
  5
73
330
72
100
AcDbEntity
  8
0
100
AcDbBlockBegin
  2
*D7
 70
     1
 10
0.0
 20
0.0
 30
0.0
  3
*D7
  1

  0
LINE
  5
74
330
72
100
AcDbEntity
  8
-TEXT3
370
    -2
100
AcDbLine
 10
113.0
 20
383.2669264296783
 30
0.0
 11
113.0
 21
363.0169264296783
 31
0.0
  0
LINE
  5
75
330
72
100
AcDbEntity
  8
-TEXT3
370
    -2
100
AcDbLine
 10
117.0
 20
383.2669264296783
 30
0.0
 11
117.0
 21
363.0169264296783
 31
0.0
  0
LINE
  5
76
330
72
100
AcDbEntity
  8
-TEXT3
370
    -2
100
AcDbLine
 10
110.0
 20
364.2669264296783
 30
0.0
 11
107.0
 21
364.2669264296783
 31
0.0
  0
LINE
  5
77
330
72
100
AcDbEntity
  8
-TEXT3
370
    -2
100
AcDbLine
 10
120.0
 20
364.2669264296783
 30
0.0
 11
131.5288919102651
 21
364.2669264296783
 31
0.0
  0
LINE
  5
78
330
72
100
AcDbEntity
  8
-TEXT3
370
    -2
100
AcDbLine
 10
113.0
 20
364.2669264296783
 30
0.0
 11
117.0
 21
364.2669264296783
 31
0.0
  0
SOLID
  5
79
330
72
100
AcDbEntity
  8
-TEXT3
100
AcDbTrace
 10
110.0
 20
364.7669264296783
 30
0.0
 11
110.0
 21
363.7669264296783
 31
0.0
 12
113.0
 22
364.2669264296783
 32
0.0
 13
113.0
 23
364.2669264296783
 33
0.0
  0
SOLID
  5
7A
330
72
100
AcDbEntity
  8
-TEXT3
100
AcDbTrace
 10
120.0
 20
364.7669264296783
 30
0.0
 11
120.0
 21
363.7669264296783
 31
0.0
 12
117.0
 22
364.2669264296783
 32
0.0
 13
117.0
 23
364.2669264296783
 33
0.0
  0
MTEXT
  5
7B
330
72
100
AcDbEntity
  8
-TEXT3
100
AcDbMText
 10
127.2644459551325
 20
367.2144111339611
 30
0.0
 40
3.5
 41
0.0
 71
     5
 72
     1
  1
\A1;%%c4
 73
     1
 44
1.0
  0
POINT
  5
7C
330
72
100
AcDbEntity
  8
DEFPOINTS
 62
     0
100
AcDbPoint
 10
113.0
 20
384.2669264296783
 30
0.0
  0
POINT
  5
7D
330
72
100
AcDbEntity
  8
DEFPOINTS
 62
     0
100
AcDbPoint
 10
117.0
 20
384.2669264296783
 30
0.0
  0
POINT
  5
7E
330
72
100
AcDbEntity
  8
DEFPOINTS
 62
     0
100
AcDbPoint
 10
117.0
 20
364.2669264296783
 30
0.0
  0
ENDBLK
  5
7F
330
72
100
AcDbEntity
  8
0
100
AcDbBlockEnd
  0
BLOCK
  5
82
330
81
100
AcDbEntity
  8
0
100
AcDbBlockBegin
  2
*D8
 70
     1
 10
0.0
 20
0.0
 30
0.0
  3
*D8
  1

  0
LINE
  5
83
330
81
100
AcDbEntity
  8
-TEXT3
370
    -2
100
AcDbLine
 10
226.9999999999998
 20
419.2669264296783
 30
0.0
 11
245.2499999999998
 21
419.2669264296783
 31
0.0
  0
LINE
  5
84
330
81
100
AcDbEntity
  8
-TEXT3
370
    -2
100
AcDbLine
 10
156.3736543270193
 20
424.2669264296782
 30
0.0
 11
245.2499999999998
 21
424.2669264296782
 31
0.0
  0
LINE
  5
85
330
81
100
AcDbEntity
  8
-TEXT3
370
    -2
100
AcDbLine
 10
243.9999999999998
 20
416.2669264296782
 30
0.0
 11
243.9999999999998
 21
413.2669264296782
 31
0.0
  0
LINE
  5
86
330
81
100
AcDbEntity
  8
-TEXT3
370
    -2
100
AcDbLine
 10
243.9999999999998
 20
427.2669264296783
 30
0.0
 11
243.9999999999998
 21
430.2669264296782
 31
0.0
  0
LINE
  5
87
330
81
100
AcDbEntity
  8
-TEXT3
370
    -2
100
AcDbLine
 10
243.9999999999998
 20
419.2669264296783
 30
0.0
 11
243.9999999999998
 21
424.2669264296782
 31
0.0
  0
SOLID
  5
88
330
81
100
AcDbEntity
  8
-TEXT3
100
AcDbTrace
 10
243.4999999999998
 20
416.2669264296782
 30
0.0
 11
244.4999999999998
 21
416.2669264296782
 31
0.0
 12
243.9999999999998
 22
419.2669264296783
 32
0.0
 13
243.9999999999998
 23
419.2669264296783
 33
0.0
  0
SOLID
  5
89
330
81
100
AcDbEntity
  8
-TEXT3
100
AcDbTrace
 10
243.4999999999998
 20
427.2669264296783
 30
0.0
 11
244.4999999999998
 21
427.2669264296783
 31
0.0
 12
243.9999999999998
 22
424.2669264296782
 32
0.0
 13
243.9999999999998
 23
424.2669264296782
 33
0.0
  0
MTEXT
  5
8A
330
81
100
AcDbEntity
  8
-TEXT3
100
AcDbMText
 10
241.2059823249487
 20
421.7669264296783
 30
0.0
 40
3.5
 41
0.0
 71
     5
 72
     1
  1
\A1;5
 11
0.0000000000000001
 21
1.0
 31
0.0
 73
     1
 44
1.0
  0
POINT
  5
8B
330
81
100
AcDbEntity
  8
DEFPOINTS
 62
     0
100
AcDbPoint
 10
225.9999999999998
 20
419.2669264296783
 30
0.0
  0
POINT
  5
8C
330
81
100
AcDbEntity
  8
DEFPOINTS
 62
     0
100
AcDbPoint
 10
155.3736543270194
 20
424.2669264296782
 30
0.0
  0
POINT
  5
8D
330
81
100
AcDbEntity
  8
DEFPOINTS
 62
     0
100
AcDbPoint
 10
243.9999999999998
 20
424.2669264296782
 30
0.0
  0
ENDBLK
  5
8E
330
81
100
AcDbEntity
  8
0
100
AcDbBlockEnd
  0
BLOCK
  5
94
330
93
100
AcDbEntity
  8
0
100
AcDbBlockBegin
  2
*D9
 70
     1
 10
0.0
 20
0.0
 30
0.0
  3
*D9
  1

  0
LINE
  5
95
330
93
100
AcDbEntity
  8
-TEXT3
370
    -2
100
AcDbLine
 10
128.0000000000006
 20
424.2669264296782
 30
0.0
 11
154.1236543270193
 21
424.2669264296782
 31
0.0
  0
LINE
  5
96
330
93
100
AcDbEntity
  8
-TEXT3
370
    -2
100
AcDbLine
 10
127.9999999999994
 20
384.2669264296783
 30
0.0
 11
154.1236543270193
 21
384.2669264296782
 31
0.0
  0
LINE
  5
97
330
93
100
AcDbEntity
  8
-TEXT3
370
    -2
100
AcDbLine
 10
152.8736543270194
 20
421.2669264296782
 30
0.0
 11
152.8736543270194
 21
387.2669264296782
 31
0.0
  0
SOLID
  5
98
330
93
100
AcDbEntity
  8
-TEXT3
100
AcDbTrace
 10
152.3736543270194
 20
421.2669264296782
 30
0.0
 11
153.3736543270194
 21
421.2669264296782
 31
0.0
 12
152.8736543270194
 22
424.2669264296782
 32
0.0
 13
152.8736543270194
 23
424.2669264296782
 33
0.0
  0
SOLID
  5
99
330
93
100
AcDbEntity
  8
-TEXT3
100
AcDbTrace
 10
152.3736543270194
 20
387.2669264296782
 30
0.0
 11
153.3736543270194
 21
387.2669264296782
 31
0.0
 12
152.8736543270194
 22
384.2669264296782
 32
0.0
 13
152.8736543270194
 23
384.2669264296782
 33
0.0
  0
MTEXT
  5
9A
330
93
100
AcDbEntity
  8
-TEXT3
100
AcDbMText
 10
150.0356189769173
 20
404.2669264296782
 30
0.0
 40
3.5
 41
0.0
 71
     5
 72
     1
  1
\A1;40
 11
0.0000000000000001
 21
1.0
 31
0.0
 73
     1
 44
1.0
  0
POINT
  5
9B
330
93
100
AcDbEntity
  8
DEFPOINTS
 62
     0
100
AcDbPoint
 10
127.0000000000006
 20
424.2669264296782
 30
0.0
  0
POINT
  5
9C
330
93
100
AcDbEntity
  8
DEFPOINTS
 62
     0
100
AcDbPoint
 10
126.9999999999994
 20
384.2669264296783
 30
0.0
  0
POINT
  5
9D
330
93
100
AcDbEntity
  8
DEFPOINTS
 62
     0
100
AcDbPoint
 10
152.8736543270194
 20
384.2669264296782
 30
0.0
  0
ENDBLK
  5
9E
330
93
100
AcDbEntity
  8
0
100
AcDbBlockEnd
  0
BLOCK
  5
A1
330
A0
100
AcDbEntity
  8
0
100
AcDbBlockBegin
  2
*D10
 70
     1
 10
0.0
 20
0.0
 30
0.0
  3
*D10
  1

  0
LINE
  5
A2
330
A0
100
AcDbEntity
  8
-TEXT3
370
    -2
100
AcDbLine
 10
89.74999999999999
 20
383.2669264296783
 30
0.0
 11
89.74999999999999
 21
373.0169264296783
 31
0.0
  0
LINE
  5
A3
330
A0
100
AcDbEntity
  8
-TEXT3
370
    -2
100
AcDbLine
 10
110.25
 20
383.2669264296783
 30
0.0
 11
110.25
 21
373.0169264296783
 31
0.0
  0
LINE
  5
A4
330
A0
100
AcDbEntity
  8
-TEXT3
370
    -2
100
AcDbLine
 10
92.75
 20
374.2669264296783
 30
0.0
 11
107.25
 21
374.2669264296783
 31
0.0
  0
SOLID
  5
A5
330
A0
100
AcDbEntity
  8
-TEXT3
100
AcDbTrace
 10
92.75
 20
374.7669264296783
 30
0.0
 11
92.75
 21
373.7669264296783
 31
0.0
 12
89.74999999999999
 22
374.2669264296783
 32
0.0
 13
89.74999999999999
 23
374.2669264296783
 33
0.0
  0
SOLID
  5
A6
330
A0
100
AcDbEntity
  8
-TEXT3
100
AcDbTrace
 10
107.25
 20
374.7669264296783
 30
0.0
 11
107.25
 21
373.7669264296783
 31
0.0
 12
110.25
 22
374.2669264296783
 32
0.0
 13
110.25
 23
374.2669264296783
 33
0.0
  0
MTEXT
  5
A7
330
A0
100
AcDbEntity
  8
-TEXT3
100
AcDbMText
 10
100.0
 20
377.2144111339611
 30
0.0
 40
3.5
 41
0.0
 71
     5
 72
     1
  1
\A1;%%c20.5
 73
     1
 44
1.0
  0
POINT
  5
A8
330
A0
100
AcDbEntity
  8
DEFPOINTS
 62
     0
100
AcDbPoint
 10
89.74999999999999
 20
384.2669264296783
 30
0.0
  0
POINT
  5
A9
330
A0
100
AcDbEntity
  8
DEFPOINTS
 62
     0
100
AcDbPoint
 10
110.25
 20
384.2669264296783
 30
0.0
  0
POINT
  5
AA
330
A0
100
AcDbEntity
  8
DEFPOINTS
 62
     0
100
AcDbPoint
 10
110.25
 20
374.2669264296783
 30
0.0
  0
ENDBLK
  5
AB
330
A0
100
AcDbEntity
  8
0
100
AcDbBlockEnd
  0
BLOCK
  5
CB
330
CA
100
AcDbEntity
  8
0
100
AcDbBlockBegin
  2
*D11
 70
     1
 10
0.0
 20
0.0
 30
0.0
  3
*D11
  1

  0
LINE
  5
CC
330
CA
100
AcDbEntity
  8
-TEXT3
370
    -2
100
AcDbLine
 10
82.80000000000001
 20
406.9677073594485
 30
0.0
 11
82.80000000000001
 21
416.2615817698624
 31
0.0
  0
LINE
  5
CD
330
CA
100
AcDbEntity
  8
-TEXT3
370
    -2
100
AcDbLine
 10
117.2
 20
406.0115817698624
 30
0.0
 11
117.2
 21
416.2615817698624
 31
0.0
  0
LINE
  5
CE
330
CA
100
AcDbEntity
  8
-TEXT3
370
    -2
100
AcDbLine
 10
85.80000000000001
 20
415.0115817698624
 30
0.0
 11
114.2
 21
415.0115817698624
 31
0.0
  0
SOLID
  5
CF
330
CA
100
AcDbEntity
  8
-TEXT3
100
AcDbTrace
 10
85.80000000000001
 20
415.5115817698625
 30
0.0
 11
85.80000000000001
 21
414.5115817698624
 31
0.0
 12
82.80000000000001
 22
415.0115817698624
 32
0.0
 13
82.80000000000001
 23
415.0115817698624
 33
0.0
  0
SOLID
  5
D0
330
CA
100
AcDbEntity
  8
-TEXT3
100
AcDbTrace
 10
114.2
 20
415.5115817698625
 30
0.0
 11
114.2
 21
414.5115817698624
 31
0.0
 12
117.2
 22
415.0115817698624
 32
0.0
 13
117.2
 23
415.0115817698624
 33
0.0
  0
MTEXT
  5
D1
330
CA
100
AcDbEntity
  8
-TEXT3
100
AcDbMText
 10
100.0
 20
417.9590664741453
 30
0.0
 40
3.5
 41
0.0
 71
     5
 72
     1
  1
\A1;%%c34.4
 73
     1
 44
1.0
  0
POINT
  5
D2
330
CA
100
AcDbEntity
  8
DEFPOINTS
 62
     0
100
AcDbPoint
 10
82.80000000000001
 20
405.9677073594485
 30
0.0
  0
POINT
  5
D3
330
CA
100
AcDbEntity
  8
DEFPOINTS
 62
     0
100
AcDbPoint
 10
117.2
 20
405.0115817698625
 30
0.0
  0
POINT
  5
D4
330
CA
100
AcDbEntity
  8
DEFPOINTS
 62
     0
100
AcDbPoint
 10
117.2
 20
415.0115817698624
 30
0.0
  0
ENDBLK
  5
D5
330
CA
100
AcDbEntity
  8
0
100
AcDbBlockEnd
  0
BLOCK
  5
F5
330
F4
100
AcDbEntity
  8
0
100
AcDbBlockBegin
  2
*D12
 70
     1
 10
0.0
 20
0.0
 30
0.0
  3
*D12
  1

  0
LINE
  5
F6
330
F4
100
AcDbEntity
  8
-TEXT3
370
    -2
100
AcDbLine
 10
-52.84804437418668
 20
324.4411085142264
 30
0.0
 11
-63.43174852695508
 21
320.083664957729
 31
0.0
  0
LINE
  5
F7
330
F4
100
AcDbEntity
  8
-TEXT3
370
    -2
100
AcDbLine
 10
-74.52808955416791
 20
315.5151623794443
 30
0.0
 11
-77.30217481097108
 21
314.3730367348731
 31
0.0
  0
MTEXT
  5
F8
330
F4
100
AcDbEntity
  8
-TEXT3
100
AcDbMText
 10
-57.87498644475021
 20
325.5589741791979
 30
0.0
 40
3.5
 41
0.0
 71
     5
 72
     1
  1
\A1;\U+22056
 11
0.9246950856010647
 21
0.3807085481903967
 31
0.0
 73
     1
 44
1.0
  0
LINE
  5
F9
330
F4
100
AcDbEntity
  8
-TEXT3
370
    -2
100
AcDbLine
 10
-71.7540042973647
 20
316.6572880240155
 30
0.0
 11
-66.20583378375826
 21
318.9415393131578
 31
0.0
  0
SOLID
  5
FA
330
F4
100
AcDbEntity
  8
-TEXT3
100
AcDbTrace
 10
-74.71844382826311
 20
315.9775099222448
 30
0.0
 11
-74.33773528007271
 21
315.0528148366437
 31
0.0
 12
-71.7540042973647
 22
316.6572880240155
 32
0.0
 13
-71.7540042973647
 23
316.6572880240155
 33
0.0
  0
SOLID
  5
FB
330
F4
100
AcDbEntity
  8
-TEXT3
100
AcDbTrace
 10
-63.62210280105028
 20
320.5460125005295
 30
0.0
 11
-63.24139425285988
 21
319.6213174149284
 31
0.0
 12
-66.20583378375826
 22
318.9415393131578
 32
0.0
 13
-66.20583378375826
 23
318.9415393131578
 33
0.0
  0
POINT
  5
FC
330
F4
100
AcDbEntity
  8
DEFPOINTS
 62
     0
100
AcDbPoint
 10
-66.20583378375826
 20
318.9415393131578
 30
0.0
  0
POINT
  5
FD
330
F4
100
AcDbEntity
  8
DEFPOINTS
 62
     0
100
AcDbPoint
 10
-71.7540042973647
 20
316.6572880240155
 30
0.0
  0
ENDBLK
  5
FE
330
F4
100
AcDbEntity
  8
0
100
AcDbBlockEnd
  0
BLOCK
  5
103
330
102
100
AcDbEntity
  8
0
100
AcDbBlockBegin
  2
*D13
 70
     1
 10
0.0
 20
0.0
 30
0.0
  3
*D13
  1

  0
LINE
  5
104
330
102
100
AcDbEntity
  8
-TEXT3
370
    -2
100
AcDbLine
 10
-54.33756545765088
 20
278.3151650305948
 30
0.0
 11
-63.94403349851497
 21
284.5375343318533
 31
0.0
  0
LINE
  5
105
330
102
100
AcDbEntity
  8
-TEXT3
370
    -2
100
AcDbLine
 10
-74.01580458260809
 20
291.0612930053197
 30
0.0
 11
-76.53374735363136
 21
292.6922326736864
 31
0.0
  0
MTEXT
  5
106
330
102
100
AcDbEntity
  8
-TEXT3
100
AcDbMText
 10
-56.27943818386511
 20
283.0847457816576
 30
0.0
 40
3.5
 41
0.0
 71
     5
 72
     1
  1
\A1;\U+22056
 11
0.8393142570077541
 21
-0.5436465561221939
 31
0.0
 73
     1
 44
1.0
  0
LINE
  5
107
330
102
100
AcDbEntity
  8
-TEXT3
370
    -2
100
AcDbLine
 10
-71.49786181158484
 20
289.4303533369532
 30
0.0
 11
-66.46197626953822
 21
286.1684740002199
 31
0.0
  0
SOLID
  5
108
330
102
100
AcDbEntity
  8
-TEXT3
100
AcDbTrace
 10
-73.743981304547
 20
291.4809501338236
 30
0.0
 11
-74.28762786066918
 21
290.6416358768159
 31
0.0
 12
-71.49786181158484
 22
289.4303533369532
 32
0.0
 13
-71.49786181158484
 23
289.4303533369532
 33
0.0
  0
SOLID
  5
109
330
102
100
AcDbEntity
  8
-TEXT3
100
AcDbTrace
 10
-63.67221022045388
 20
284.9571914603572
 30
0.0
 11
-64.21585677657606
 21
284.1178772033495
 31
0.0
 12
-66.46197626953822
 22
286.1684740002199
 32
0.0
 13
-66.46197626953822
 23
286.1684740002199
 33
0.0
  0
POINT
  5
10A
330
102
100
AcDbEntity
  8
DEFPOINTS
 62
     0
100
AcDbPoint
 10
-66.46197626953822
 20
286.1684740002199
 30
0.0
  0
POINT
  5
10B
330
102
100
AcDbEntity
  8
DEFPOINTS
 62
     0
100
AcDbPoint
 10
-71.49786181158484
 20
289.4303533369532
 30
0.0
  0
ENDBLK
  5
10C
330
102
100
AcDbEntity
  8
0
100
AcDbBlockEnd
  0
BLOCK
  5
10F
330
10E
100
AcDbEntity
  8
0
100
AcDbBlockBegin
  2
*D14
 70
     1
 10
0.0
 20
0.0
 30
0.0
  3
*D14
  1

  0
LINE
  5
110
330
10E
100
AcDbEntity
  8
-TEXT3
370
    -2
100
AcDbLine
 10
-83.3706682964762
 20
302.7994136685866
 30
0.0
 11
-94.63121194351016
 21
302.7994136685866
 31
0.0
  0
LINE
  5
111
330
10E
100
AcDbEntity
  8
-TEXT3
370
    -2
100
AcDbLine
 10
-76.67529366851886
 20
317.7994136685866
 30
0.0
 11
-94.63121194351016
 21
317.7994136685866
 31
0.0
  0
LINE
  5
112
330
10E
100
AcDbEntity
  8
-TEXT3
370
    -2
100
AcDbLine
 10
-93.38121194351016
 20
305.7994136685866
 30
0.0
 11
-93.38121194351016
 21
314.7994136685866
 31
0.0
  0
SOLID
  5
113
330
10E
100
AcDbEntity
  8
-TEXT3
100
AcDbTrace
 10
-93.88121194351015
 20
305.7994136685866
 30
0.0
 11
-92.88121194351015
 21
305.7994136685866
 31
0.0
 12
-93.38121194351016
 22
302.7994136685866
 32
0.0
 13
-93.38121194351016
 23
302.7994136685866
 33
0.0
  0
SOLID
  5
114
330
10E
100
AcDbEntity
  8
-TEXT3
100
AcDbTrace
 10
-93.88121194351015
 20
314.7994136685866
 30
0.0
 11
-92.88121194351015
 21
314.7994136685866
 31
0.0
 12
-93.38121194351016
 22
317.7994136685866
 32
0.0
 13
-93.38121194351016
 23
317.7994136685866
 33
0.0
  0
MTEXT
  5
115
330
10E
100
AcDbEntity
  8
-TEXT3
100
AcDbMText
 10
-96.17522961856119
 20
310.2994136685865
 30
0.0
 40
3.5
 41
0.0
 71
     5
 72
     1
  1
\A1;15
 11
0.0000000000000001
 21
1.0
 31
0.0
 73
     1
 44
1.0
  0
POINT
  5
116
330
10E
100
AcDbEntity
  8
DEFPOINTS
 62
     0
100
AcDbPoint
 10
-82.3706682964762
 20
302.7994136685866
 30
0.0
  0
POINT
  5
117
330
10E
100
AcDbEntity
  8
DEFPOINTS
 62
     0
100
AcDbPoint
 10
-75.67529366851886
 20
317.7994136685866
 30
0.0
  0
POINT
  5
118
330
10E
100
AcDbEntity
  8
DEFPOINTS
 62
     0
100
AcDbPoint
 10
-93.38121194351016
 20
317.7994136685866
 30
0.0
  0
ENDBLK
  5
119
330
10E
100
AcDbEntity
  8
0
100
AcDbBlockEnd
  0
BLOCK
  5
11C
330
11B
100
AcDbEntity
  8
0
100
AcDbBlockBegin
  2
*D15
 70
     1
 10
0.0
 20
0.0
 30
0.0
  3
*D15
  1

  0
LINE
  5
11D
330
11B
100
AcDbEntity
  8
-TEXT3
370
    -2
100
AcDbLine
 10
-76.67529366851886
 20
287.7994136685866
 30
0.0
 11
-94.63121194351016
 21
287.7994136685866
 31
0.0
  0
LINE
  5
11E
330
11B
100
AcDbEntity
  8
-TEXT3
370
    -2
100
AcDbLine
 10
-83.3706682964762
 20
302.7994136685866
 30
0.0
 11
-94.63121194351016
 21
302.7994136685866
 31
0.0
  0
LINE
  5
11F
330
11B
100
AcDbEntity
  8
-TEXT3
370
    -2
100
AcDbLine
 10
-93.38121194351016
 20
290.7994136685866
 30
0.0
 11
-93.38121194351016
 21
299.7994136685866
 31
0.0
  0
SOLID
  5
120
330
11B
100
AcDbEntity
  8
-TEXT3
100
AcDbTrace
 10
-93.88121194351015
 20
290.7994136685866
 30
0.0
 11
-92.88121194351015
 21
290.7994136685866
 31
0.0
 12
-93.38121194351016
 22
287.7994136685866
 32
0.0
 13
-93.38121194351016
 23
287.7994136685866
 33
0.0
  0
SOLID
  5
121
330
11B
100
AcDbEntity
  8
-TEXT3
100
AcDbTrace
 10
-93.88121194351015
 20
299.7994136685866
 30
0.0
 11
-92.88121194351015
 21
299.7994136685866
 31
0.0
 12
-93.38121194351016
 22
302.7994136685866
 32
0.0
 13
-93.38121194351016
 23
302.7994136685866
 33
0.0
  0
MTEXT
  5
122
330
11B
100
AcDbEntity
  8
-TEXT3
100
AcDbMText
 10
-96.17522961856119
 20
295.2994136685866
 30
0.0
 40
3.5
 41
0.0
 71
     5
 72
     1
  1
\A1;15
 11
0.0000000000000001
 21
1.0
 31
0.0
 73
     1
 44
1.0
  0
POINT
  5
123
330
11B
100
AcDbEntity
  8
DEFPOINTS
 62
     0
100
AcDbPoint
 10
-75.67529366851886
 20
287.7994136685866
 30
0.0
  0
POINT
  5
124
330
11B
100
AcDbEntity
  8
DEFPOINTS
 62
     0
100
AcDbPoint
 10
-82.3706682964762
 20
302.7994136685866
 30
0.0
  0
POINT
  5
125
330
11B
100
AcDbEntity
  8
DEFPOINTS
 62
     0
100
AcDbPoint
 10
-93.38121194351016
 20
302.7994136685866
 30
0.0
  0
ENDBLK
  5
126
330
11B
100
AcDbEntity
  8
0
100
AcDbBlockEnd
  0
ENDSEC
  0
SECTION
  2
ENTITIES
  0
DIMENSION
  5
9
330
2
100
AcDbEntity
  8
-TEXT3
100
AcDbDimension
  2
*D3
 10
199.9999999999998
 20
261.0663429306551
 30
0.0
 11
149.9999999999999
 21
263.904378280757
 31
0.0
 71
     5
 42
99.99999999999978
  3
1-1
100
AcDbAlignedDimension
 13
100.0
 23
154.0663429306551
 33
0.0
 14
199.9999999999998
 24
251.0663429306551
 34
0.0
100
AcDbRotatedDimension
  0
DIMENSION
  5
1B
330
2
100
AcDbEntity
  8
-TEXT3
100
AcDbDimension
  2
*D2
 10
249.9999999999999
 20
221.0663429306551
 30
0.0
 11
247.1619646498979
 21
171.0663429306551
 31
0.0
 71
     5
 42
100.0
  3
1-1
100
AcDbAlignedDimension
 13
133.0
 23
121.0663429306551
 33
0.0
 14
229.9999999999999
 24
221.0663429306551
 34
0.0
 50
90.0
100
AcDbRotatedDimension
  0
CIRCLE
  5
28
330
2
100
AcDbEntity
  8
-PROFILAUSSENKANTE
100
AcDbCircle
 10
199.9999999999998
 20
221.0663429306551
 30
0.0
 40
24.0
  0
CIRCLE
  5
2A
330
2
100
AcDbEntity
  8
-PROFILAUSSENKANTE
100
AcDbCircle
 10
199.9999999999998
 20
221.0663429306551
 30
0.0
 40
27.0
  0
LINE
  5
2B
330
2
100
AcDbEntity
  8
-SYSTEM
100
AcDbLine
 10
199.9999999999998
 20
191.066342930655
 30
0.0
 11
199.9999999999998
 21
251.0663429306551
 31
0.0
  0
DIMENSION
  5
2E
330
2
100
AcDbEntity
  8
-TEXT3
100
AcDbDimension
  2
*D1
 10
167.7089467667159
 20
175.0049008820961
 30
0.0
 11
162.5414038740108
 21
184.0615523353162
 31
0.0
 70
     1
  1
%%c<>
 71
     5
 42
20.0038765254217
  3
1-1
100
AcDbAlignedDimension
 13
144.0341650738595
 23
179.242643628246
 33
0.0
 14
158.4547571971645
 24
165.3789645040889
 34
0.0
  0
LINE
  5
3B
330
2
100
AcDbEntity
  8
-SYSTEM
100
AcDbLine
 10
66.99999999999988
 20
121.0663429306551
 30
0.0
 11
133.0
 21
121.0663429306551
 31
0.0
  0
CIRCLE
  5
3C
330
2
100
AcDbEntity
  8
-PROFILAUSSENKANTE
100
AcDbCircle
 10
100.0
 20
121.0663429306551
 30
0.0
 40
27.0
  0
CIRCLE
  5
3D
330
2
100
AcDbEntity
  8
-PROFILAUSSENKANTE
100
AcDbCircle
 10
99.99999999999987
 20
121.0663429306551
 30
0.0
 40
21.8
  0
LINE
  5
3E
330
2
100
AcDbEntity
  8
-SYSTEM
100
AcDbLine
 10
100.0
 20
88.06634293065508
 30
0.0
 11
100.0
 21
154.0663429306551
 31
0.0
  0
CIRCLE
  5
3F
330
2
100
AcDbEntity
  8
-PROFILAUSSENKANTE
100
AcDbCircle
 10
100.0
 20
121.0663429306551
 30
0.0
 40
30.0
  0
CIRCLE
  5
40
330
2
100
AcDbEntity
  8
-PROFILAUSSENKANTE
100
AcDbCircle
 10
100.0
 20
121.0663429306551
 30
0.0
 40
22.0
  0
DIMENSION
  5
41
330
2
100
AcDbEntity
  8
-TEXT3
100
AcDbDimension
  2
*D0
 10
130.0
 20
56.54210810803215
 30
0.0
 11
100.0
 21
59.48959281231495
 31
0.0
  1
%%c<>
 71
     5
 42
60.0
  3
1-1
100
AcDbAlignedDimension
 13
70.0
 23
121.0663429306551
 33
0.0
 14
130.0
 24
121.0663429306551
 34
0.0
100
AcDbRotatedDimension
  0
CIRCLE
  5
4E
330
2
100
AcDbEntity
  8
-PROFILAUSSENKANTE
100
AcDbCircle
 10
106.9999999999999
 20
121.0663429306551
 30
0.0
 40
1.75
  0
CIRCLE
  5
4F
330
2
100
AcDbEntity
  8
-PROFILAUSSENKANTE
100
AcDbCircle
 10
96.49999999999987
 20
115.0041651041642
 30
0.0
 40
1.75
  0
CIRCLE
  5
50
330
2
100
AcDbEntity
  8
-PROFILAUSSENKANTE
100
AcDbCircle
 10
96.49999999999987
 20
127.1285207571463
 30
0.0
 40
1.75
  0
LINE
  5
51
330
2
100
AcDbEntity
  8
-SYSTEM
100
AcDbLine
 10
229.9999999999999
 20
221.0663429306551
 30
0.0
 11
169.9999999999997
 21
221.0663429306551
 31
0.0
  0
CIRCLE
  5
52
330
2
100
AcDbEntity
  8
-PROFILAUSSENKANTE
100
AcDbCircle
 10
199.9999999999998
 20
221.0663429306551
 30
0.0
 40
16.0
  0
LWPOLYLINE
  5
53
330
2
100
AcDbEntity
  8
-PROFILAUSSENKANTE
100
AcDbPolyline
 90
        2
 70
     0
 43
0.0
 10
175.194784337166
 20
210.4032628915525
 10
112.9289321881342
 20
148.1374107425207
  0
LWPOLYLINE
  5
54
330
2
100
AcDbEntity
  8
-PROFILAUSSENKANTE
100
AcDbPolyline
 90
        2
 70
     0
 43
0.0
 10
127.0710678118654
 20
133.9952751187896
 10
189.3369199608969
 20
196.2611272678214
  0
DIMENSION
  5
55
330
2
100
AcDbEntity
  8
-TEXT3
100
AcDbDimension
  2
*D5
 10
60.0
 20
394.2669264296779
 30
0.0
 11
57.16196464989796
 21
389.2669264296781
 31
0.0
 71
     5
 42
9.999999999999602
  3
1-1
100
AcDbAlignedDimension
 13
73.0
 23
384.2669264296783
 33
0.0
 14
83.0
 24
394.2669264296779
 34
0.0
 50
90.0
100
AcDbRotatedDimension
  0
DIMENSION
  5
62
330
2
100
AcDbEntity
  8
-TEXT3
100
AcDbDimension
  2
*D6
 10
83.0
 20
364.2669264296783
 30
0.0
 11
72.73555404486744
 21
367.2144111339611
 31
0.0
  1
%%c<>
 71
     5
 42
4.0
  3
1-1
100
AcDbAlignedDimension
 13
87.0
 23
384.2669264296783
 33
0.0
 14
83.0
 24
384.2669264296783
 34
0.0
 50
180.0
100
AcDbRotatedDimension
  0
DIMENSION
  5
71
330
2
100
AcDbEntity
  8
-TEXT3
100
AcDbDimension
  2
*D7
 10
117.0
 20
364.2669264296783
 30
0.0
 11
127.2644459551325
 21
367.2144111339611
 31
0.0
  1
%%c<>
 71
     5
 42
4.0
  3
1-1
100
AcDbAlignedDimension
 13
113.0
 23
384.2669264296783
 33
0.0
 14
117.0
 24
384.2669264296783
 34
0.0
100
AcDbRotatedDimension
  0
DIMENSION
  5
80
330
2
100
AcDbEntity
  8
-TEXT3
100
AcDbDimension
  2
*D8
 10
243.9999999999998
 20
424.2669264296782
 30
0.0
 11
241.2059823249487
 21
421.7669264296783
 31
0.0
 71
     5
 42
5.0
  3
1-1
100
AcDbAlignedDimension
 13
225.9999999999998
 23
419.2669264296783
 33
0.0
 14
155.3736543270194
 24
424.2669264296782
 34
0.0
 50
270.0
100
AcDbRotatedDimension
  0
LINE
  5
8F
330
2
100
AcDbEntity
  8
-PROFILAUSSENKANTE
100
AcDbLine
 10
172.9999999999997
 20
394.2669264296783
 30
0.0
 11
130.0
 21
394.2669264296783
 31
0.0
  0
LINE
  5
90
330
2
100
AcDbEntity
  8
-PROFILAUSSENKANTE
100
AcDbLine
 10
172.9999999999997
 20
414.2669264296783
 30
0.0
 11
130.0
 21
414.2669264296783
 31
0.0
  0
MTEXT
  5
91
330
2
100
AcDbEntity
  8
-TEXT3
100
AcDbMText
 10
30.49603547136996
 20
327.8993368418225
 30
0.0
 40
5.0
 41
117.9263367380109
 71
     4
 72
     5
  1
z.B.\PZylinderschraube \PDIN 6912-M20\PV4A (Nicht im Lieferumfang der Fa. Glassline GmbH)
 73
     1
 44
1.0
  0
DIMENSION
  5
92
330
2
100
AcDbEntity
  8
-TEXT3
100
AcDbDimension
  2
*D9
 10
152.8736543270194
 20
384.2669264296782
 30
0.0
 11
150.0356189769173
 21
404.2669264296782
 31
0.0
 71
     5
 42
40.0
  3
1-1
100
AcDbAlignedDimension
 13
127.0000000000006
 23
424.2669264296782
 33
0.0
 14
126.9999999999994
 24
384.2669264296783
 34
0.0
 50
270.0
100
AcDbRotatedDimension
  0
DIMENSION
  5
9F
330
2
100
AcDbEntity
  8
-TEXT3
100
AcDbDimension
  2
*D10
 10
110.25
 20
374.2669264296783
 30
0.0
 11
100.0
 21
377.2144111339611
 31
0.0
  1
%%c<>
 71
     5
 42
20.5
  3
1-1
100
AcDbAlignedDimension
 13
89.74999999999999
 23
384.2669264296783
 33
0.0
 14
110.25
 24
384.2669264296783
 34
0.0
100
AcDbRotatedDimension
  0
LWPOLYLINE
  5
AC
330
2
100
AcDbEntity
  8
-VERDECKT
100
AcDbPolyline
 90
        6
 70
     0
 43
0.0
 10
89.99999999999994
 20
394.2669264296783
 10
89.99999999999994
 20
345.8009264296781
 10
91.53399999999994
 20
344.2669264296783
 10
108.4659999999999
 20
344.2669264296783
 10
109.9999999999999
 20
345.8009264296781
 10
109.9999999999999
 20
394.2669264296783
  0
LINE
  5
AF
330
2
100
AcDbEntity
  8
-VERDECKT
100
AcDbLine
 10
89.99999999999994
 20
345.8009264296781
 30
0.0
 11
109.9999999999999
 21
345.8009264296781
 31
0.0
  0
LINE
  5
B0
330
2
100
AcDbEntity
  8
-VERDECKT
100
AcDbLine
 10
91.53399999999994
 20
394.2669264296783
 30
0.0
 11
91.53399999999994
 21
344.2669264296783
 31
0.0
  0
LINE
  5
B1
330
2
100
AcDbEntity
  8
-VERDECKT
100
AcDbLine
 10
108.4659999999999
 20
394.2669264296783
 30
0.0
 11
108.4659999999999
 21
344.2669264296783
 31
0.0
  0
LINE
  5
B2
330
2
100
AcDbEntity
  8
-SCHRAFFUR
100
AcDbLine
 10
225.9999999999998
 20
392.2669264296783
 30
0.0
 11
173.9999999999997
 21
392.2669264296783
 31
0.0
  0
LINE
  5
B4
330
2
100
AcDbEntity
  8
-SCHRAFFUR
100
AcDbLine
 10
225.9999999999998
 20
416.2669264296782
 30
0.0
 11
173.9999999999997
 21
416.2669264296782
 31
0.0
  0
LWPOLYLINE
  5
B5
330
2
100
AcDbEntity
  8
-PROFILAUSSENKANTE
100
AcDbPolyline
 90
        8
 70
     1
 43
0.0
 10
223.9999999999998
 20
419.2669264296783
 10
175.9999999999998
 20
419.2669264296783
 42
0.4142135623730951
 10
172.9999999999997
 20
416.2669264296782
 10
172.9999999999997
 20
392.2669264296783
 42
0.4142135623730951
 10
175.9999999999998
 20
389.2669264296783
 10
223.9999999999998
 20
389.2669264296783
 42
0.4142135623730951
 10
226.9999999999998
 20
392.2669264296783
 10
226.9999999999998
 20
416.2669264296782
 42
0.4142135623730951
  0
DIMENSION
  5
B6
330
2
100
AcDbEntity
  8
-TEXT3
100
AcDbDimension
  2
*D4
 10
243.9999999999998
 20
389.2669264296783
 30
0.0
 11
241.1619646498977
 21
404.2669264296783
 31
0.0
 71
     5
 42
30.0
  3
1-1
100
AcDbAlignedDimension
 13
223.9999999999998
 23
419.2669264296783
 33
0.0
 14
223.9999999999998
 24
389.2669264296783
 34
0.0
 50
270.0
100
AcDbRotatedDimension
  0
LINE
  5
C3
330
2
100
AcDbEntity
  8
-SYSTEM
100
AcDbLine
 10
100.0
 20
438.0872566006833
 30
0.0
 11
100.0
 21
337.2336218963475
 31
0.0
  0
LINE
  5
C4
330
2
100
AcDbEntity
  8
-SYSTEM
100
AcDbLine
 10
199.9999999999995
 20
420.9197228368429
 30
0.0
 11
199.9999999999995
 21
382.6604392485154
 31
0.0
  0
MTEXT
  5
C5
330
2
100
AcDbEntity
  8
-TEXT2
100
AcDbMText
 10
-131.8057187667464
 20
262.5096805498956
 30
0.0
 40
7.0
 41
128.864
 71
     1
 72
     5
  1
Hinweis:\P{\H0.7143x;Bei der Bestellung ist das Lagerungsprinzip anzugeben}
 73
     1
 44
1.0
  0
MTEXT
  5
C7
330
2
100
AcDbEntity
  8
-TEXT2
100
AcDbMText
 10
-131.8057187667464
 20
436.9187510966944
 30
0.0
 40
7.0
 41
128.864
 71
     1
 72
     5
  1
Möglichkeiten für die Sicherung vor Verdrehen:\P{\H0.7143x;(Nicht im Lieferumfang Fa. Glassline GmbH)\P\P1. Durch Kontermutter\P\P2. Durch 2 Zylinderstifte %%c4\P    (siehe Bohrbild für Unter-\P    konstruktion)}
 73
     1
 44
1.0
  0
LINE
  5
C8
330
2
100
AcDbEntity
  8
-PROFILAUSSENKANTE
100
AcDbLine
 10
-28.97991904056153
 20
322.8567743289247
 30
0.0
 11
-28.97991904056153
 21
282.7420530082484
 31
0.0
  0
DIMENSION
  5
C9
330
2
100
AcDbEntity
  8
-TEXT3
100
AcDbDimension
  2
*D11
 10
117.2
 20
415.0115817698624
 30
0.0
 11
100.0
 21
417.9590664741453
 31
0.0
  1
%%c<>
 71
     5
 42
34.39999999999998
  3
1-1
100
AcDbAlignedDimension
 13
82.80000000000001
 23
405.9677073594485
 33
0.0
 14
117.2
 24
405.0115817698625
 34
0.0
100
AcDbRotatedDimension
  0
HATCH
  5
D6
330
2
100
AcDbEntity
  8
-SCHRAFFUR
100
AcDbHatch
 10
0.0
 20
0.0
 30
0.0
210
0.0
220
0.0
230
1.0
  2
STEEL
 70
     0
 71
     1
 91
        4
 92
        5
 93
        6
 72
     4
 94
        3
 73
     0
 74
     0
 95
       12
 96
        8
 40
3.139547897436759
 40
3.139547897436759
 40
3.139547897436759
 40
3.139547897436759
 40
12.22012148216164
 40
14.75673783440444
 40
16.83598003977309
 40
21.00211347203003
 40
25.46616165127719
 40
25.46616165127719
 40
25.46616165127719
 40
25.46616165127719
 10
82.80000000000004
 20
405.9677073594486
 10
81.0566399772202
 20
403.5152286151308
 10
80.80806456720011
 20
398.7971292799063
 10
81.42808011950785
 20
394.1882960988456
 10
80.16851606547232
 20
392.6981286919314
 10
81.8499133860141
 20
388.4796966990395
 10
81.2409244062378
 20
385.6608586291257
 10
80.70895129297914
 20
384.2669264296783
 72
     1
 10
80.70895129297914
 20
384.2669264296783
 11
82.88083941052104
 21
384.2669264296782
 72
     1
 10
82.88083941052104
 20
384.2669264296782
 11
83.0
 21
384.3860870191573
 72
     1
 10
83.0
 20
384.3860870191573
 11
83.0
 21
394.2669264296779
 72
     1
 10
83.0
 20
394.2669264296779
 11
82.80000000000001
 21
394.2669264296779
 72
     1
 10
82.80000000000001
 20
394.2669264296779
 11
82.80000000000001
 21
405.9677073594486
 97
        6
330
D7
330
D8
330
D9
330
DA
330
DB
330
DC
 92
        7
 72
     0
 73
     1
 93
        5
 10
87.0
 20
384.2669264296783
 10
89.74999999999999
 20
384.2669264296783
 10
89.74999999999999
 20
394.266926429678
 10
87.0597715986552
 20
394.266926429678
 10
87.0
 20
394.2071548310228
 97
        5
330
D7
330
DD
330
DE
330
DA
330
DF
 92
        5
 93
        5
 72
     1
 10
117.0
 20
384.2669264296783
 11
122.8389281227946
 21
384.2669264296783
 72
     4
 94
        3
 73
     0
 74
     0
 95
       11
 96
        7
 40
60.76457887542455
 40
60.76457887542455
 40
60.76457887542455
 40
60.76457887542455
 40
66.82272971833253
 40
72.47905350920233
 40
78.58698044938293
 40
83.44230396148168
 40
83.44230396148168
 40
83.44230396148168
 40
83.44230396148168
 10
122.8389281227946
 20
384.2669264296783
 10
122.8614910511577
 20
386.4226052450995
 10
122.3708481166535
 20
390.3152837529208
 10
118.0778238218501
 20
393.543076430301
 10
118.2789856616395
 20
399.3672093558277
 10
118.0030645542835
 20
403.639158644516
 10
117.2
 20
405.0115817698624
 72
     1
 10
117.2
 20
405.0115817698625
 11
117.2
 21
394.2669264296783
 72
     1
 10
117.2
 20
394.2669264296783
 11
117.0
 21
394.2669264296782
 72
     1
 10
117.0
 20
394.2669264296782
 11
117.0
 21
384.2669264296783
 97
        5
330
D9
330
E0
330
D7
330
E1
330
DA
 92
        7
 72
     0
 73
     1
 93
        4
 10
113.0
 20
394.2669264296782
 10
110.25
 20
394.2669264296782
 10
110.25
 20
384.2669264296783
 10
113.0
 20
384.2669264296783
 97
        4
330
D7
330
E2
330
DA
330
E3
 75
     0
 76
     1
 52
0.0
 41
20.0
 77
     0
 78
     2
 53
45.0
 43
-35.61507580875196
 44
234.0964431853686
 45
-1.767766952966368
 46
1.767766952966368
 79
     0
 53
45.0
 43
-35.61507580875196
 44
235.3464431853686
 45
-1.767766952966368
 46
1.767766952966368
 79
     0
 47
0.1057216219727582
 98
        4
 10
82.05888845929928
 20
389.7993259950319
 10
88.29901792629073
 20
390.1164907457313
 10
119.3939057294759
 20
388.8478310567415
 10
111.9903610631403
 20
388.6363878896085
  0
LINE
  5
D7
102
{ACAD_REACTORS
330
D6
102
}
330
2
100
AcDbEntity
  8
-PROFILAUSSENKANTE
100
AcDbLine
 10
82.80000000000001
 20
394.2669264296779
 30
0.0
 11
117.2
 21
394.2669264296783
 31
0.0
  0
LINE
  5
D8
102
{ACAD_REACTORS
330
D6
102
}
330
2
100
AcDbEntity
  8
-PROFILAUSSENKANTE
100
AcDbLine
 10
82.80000000000001
 20
394.2669264296779
 30
0.0
 11
82.80000000000001
 21
405.9677073594485
 31
0.0
  0
SPLINE
  5
D9
102
{ACAD_REACTORS
330
D6
102
}
330
2
100
AcDbEntity
  8
-PROFILAUSSENKANTE
100
AcDbSpline
210
0.0
220
0.0
230
1.0
 70
     8
 71
     3
 72
    19
 73
    15
 74
     0
 42
0.0000000001
 43
0.0000000001
 40
3.139547897436759
 40
3.139547897436759
 40
3.139547897436759
 40
3.139547897436759
 40
7.603596076683914
 40
11.76972950894086
 40
13.8489717143095
 40
16.38558806655231
 40
26.56351612022822
 40
35.27866285960271
 40
55.00961753100675
 40
59.83958985253718
 40
65.61990238752329
 40
71.7278293277039
 40
77.3841531185737
 40
83.44230396148168
 40
83.44230396148168
 40
83.44230396148168
 40
83.44230396148168
 10
80.70895129297914
 20
384.2669264296783
 30
0.0
 10
81.2409244062378
 20
385.6608586291257
 30
0.0
 10
81.8499133860141
 20
388.4796966990395
 30
0.0
 10
80.16851606547232
 20
392.6981286919314
 30
0.0
 10
81.42808011950785
 20
394.1882960988456
 30
0.0
 10
80.75838908747858
 20
399.1663877579776
 30
0.0
 10
81.35187171913656
 20
408.0105985352004
 30
0.0
 10
97.28104695522981
 20
411.1679959966524
 30
0.0
 10
106.0970407529725
 20
409.518959344882
 30
0.0
 10
117.8168472440644
 20
406.2611184806161
 30
0.0
 10
118.2901816460195
 20
399.6913608018956
 30
0.0
 10
118.0778238218501
 20
393.543076430301
 30
0.0
 10
122.3708481166535
 20
390.3152837529208
 30
0.0
 10
122.8614910511577
 20
386.4226052450995
 30
0.0
 10
122.8389281227946
 20
384.2669264296783
 30
0.0
  0
LWPOLYLINE
  5
DA
102
{ACAD_REACTORS
330
D6
102
}
330
2
100
AcDbEntity
  8
-PROFILAUSSENKANTE
100
AcDbPolyline
 90
       10
 70
     0
 43
0.0
 10
130.0
 20
394.2669264296783
 10
130.0
 20
387.2669264296783
 42
-0.4142135623730951
 10
127.0
 20
384.2669264296783
 10
73.0
 20
384.2669264296783
 42
-0.4142135623730951
 10
70.0
 20
387.2669264296783
 10
70.0
 20
421.2669264296782
 42
-0.4142135623730951
 10
73.0
 20
424.2669264296782
 10
127.0
 20
424.2669264296782
 42
-0.4142135623730951
 10
130.0
 20
421.2669264296782
 10
130.0
 20
394.2669264296783
  0
LINE
  5
DB
102
{ACAD_REACTORS
330
D6
102
}
330
2
100
AcDbEntity
  8
-SCHRAFFUR
100
AcDbLine
 10
82.88083941052102
 20
384.2669264296783
 30
0.0
 11
82.99999999999995
 21
384.3860870191572
 31
0.0
  0
LINE
  5
DC
102
{ACAD_REACTORS
330
D6
102
}
330
2
100
AcDbEntity
  8
-PROFILAUSSENKANTE
100
AcDbLine
 10
83.0
 20
394.2669264296783
 30
0.0
 11
83.0
 21
384.2669264296783
 31
0.0
  0
LINE
  5
DD
102
{ACAD_REACTORS
330
D6
102
}
330
2
100
AcDbEntity
  8
-SCHRAFFUR
100
AcDbLine
 10
87.0
 20
394.2071548310228
 30
0.0
 11
87.05977159865517
 21
394.266926429678
 31
0.0
  0
LINE
  5
DE
102
{ACAD_REACTORS
330
D6
102
}
330
2
100
AcDbEntity
  8
-PROFILAUSSENKANTE
100
AcDbLine
 10
87.0
 20
394.2669264296783
 30
0.0
 11
87.0
 21
384.2669264296783
 31
0.0
  0
LINE
  5
DF
102
{ACAD_REACTORS
330
D6
102
}
330
2
100
AcDbEntity
  8
-PROFILAUSSENKANTE
100
AcDbLine
 10
89.74999999999999
 20
394.2669264296783
 30
0.0
 11
89.74999999999999
 21
384.2669264296783
 31
0.0
  0
LINE
  5
E0
102
{ACAD_REACTORS
330
D6
102
}
330
2
100
AcDbEntity
  8
-PROFILAUSSENKANTE
100
AcDbLine
 10
117.2
 20
394.2669264296783
 30
0.0
 11
117.2
 21
405.0115817698625
 31
0.0
  0
LINE
  5
E1
102
{ACAD_REACTORS
330
D6
102
}
330
2
100
AcDbEntity
  8
-PROFILAUSSENKANTE
100
AcDbLine
 10
117.0
 20
394.2669264296783
 30
0.0
 11
117.0
 21
384.2669264296783
 31
0.0
  0
LINE
  5
E2
102
{ACAD_REACTORS
330
D6
102
}
330
2
100
AcDbEntity
  8
-PROFILAUSSENKANTE
100
AcDbLine
 10
110.25
 20
394.2669264296783
 30
0.0
 11
110.25
 21
384.2669264296783
 31
0.0
  0
LINE
  5
E3
102
{ACAD_REACTORS
330
D6
102
}
330
2
100
AcDbEntity
  8
-PROFILAUSSENKANTE
100
AcDbLine
 10
113.0
 20
394.2669264296783
 30
0.0
 11
113.0
 21
384.2669264296783
 31
0.0
  0
LINE
  5
E4
330
2
100
AcDbEntity
  8
-PROFILAUSSENKANTE
100
AcDbLine
 10
70.0
 20
387.2669264296783
 30
0.0
 11
70.0
 21
387.2669264296783
 31
0.0
  0
ARC
  5
E5
330
2
100
AcDbEntity
  8
-VERDECKT
100
AcDbCircle
 10
92.63878406783229
 20
402.7773430963447
 30
0.0
 40
3.510416666666534
100
AcDbArc
 50
225.6541435925153
 51
314.3458564074847
  0
ARC
  5
E6
330
2
100
AcDbEntity
  8
-VERDECKT
100
AcDbCircle
 10
107.3612159321676
 20
402.7773430963448
 30
0.0
 40
3.510416666666554
100
AcDbArc
 50
225.6541435925187
 51
314.3458564074847
  0
ARC
  5
E7
330
2
100
AcDbEntity
  8
-VERDECKT
100
AcDbCircle
 10
99.99999999999998
 20
410.307680381323
 30
0.0
 40
14.04101396804383
100
AcDbArc
 50
225.6515402638887
 51
314.3484597361119
  0
ARC
  5
E8
330
2
100
AcDbEntity
  8
-VERDECKT
100
AcDbCircle
 10
100.0898705271286
 20
411.364409947684
 30
0.0
 40
12.09807734046535
100
AcDbArc
 50
246.5335134409031
 51
293.4664865590969
  0
LINE
  5
E9
330
2
100
AcDbEntity
  8
-VERDECKT
100
AcDbLine
 10
104.9074772881118
 20
400.2669264296783
 30
0.0
 11
104.9074772881118
 21
406.2669264296783
 31
0.0
  0
LINE
  5
EA
330
2
100
AcDbEntity
  8
-VERDECKT
100
AcDbLine
 10
109.8149545762236
 20
400.2669264296783
 30
0.0
 11
109.8149545762236
 21
406.2669264296783
 31
0.0
  0
LINE
  5
EB
330
2
100
AcDbEntity
  8
-VERDECKT
100
AcDbLine
 10
90.18504542377636
 20
400.2669264296783
 30
0.0
 11
90.18504542377636
 21
406.2669264296783
 31
0.0
  0
LINE
  5
EC
330
2
100
AcDbEntity
  8
-VERDECKT
100
AcDbLine
 10
95.27226376614541
 20
400.2669264296782
 30
0.0
 11
95.27226376614541
 21
406.2669264296783
 31
0.0
  0
LWPOLYLINE
  5
ED
330
2
100
AcDbEntity
  8
-VERDECKT
100
AcDbPolyline
 90
        6
 70
     1
 43
0.0
 10
85.0
 20
394.2669264296783
 10
115.0
 20
394.2669264296783
 10
115.0
 20
404.2669264296782
 42
0.4142135623730951
 10
113.0
 20
406.2669264296783
 10
87.0
 20
406.2669264296783
 42
0.4142135623730951
 10
85.0
 20
404.2669264296782
  0
LINE
  5
EE
330
2
100
AcDbEntity
  8
-SCHRAFFUR
100
AcDbLine
 10
71.0
 20
421.2669264296782
 30
0.0
 11
129.0
 21
421.2669264296782
 31
0.0
  0
CIRCLE
  5
EF
330
2
100
AcDbEntity
  8
-PROFILAUSSENKANTE
100
AcDbCircle
 10
-68.97991904056152
 20
302.7994136685866
 30
0.0
 40
10.5
  0
LINE
  5
F0
330
2
100
AcDbEntity
  8
-SYSTEM
100
AcDbLine
 10
-62.28454441260419
 20
317.7994136685866
 30
0.0
 11
-75.67529366851886
 21
317.7994136685866
 31
0.0
  0
CIRCLE
  5
F1
330
2
100
AcDbEntity
  8
-PROFILAUSSENKANTE
100
AcDbCircle
 10
-68.97991904056152
 20
317.7994136685866
 30
0.0
 40
3.0
  0
LINE
  5
F2
330
2
100
AcDbEntity
  8
-SYSTEM
100
AcDbLine
 10
-55.58916978464686
 20
302.7994136685866
 30
0.0
 11
-82.3706682964762
 21
302.7994136685866
 31
0.0
  0
DIMENSION
  5
F3
330
2
100
AcDbEntity
  8
-TEXT3
100
AcDbDimension
  2
*D12
 10
-71.7540042973647
 20
316.6572880240155
 30
0.0
 11
-57.87498644475021
 21
325.5589741791979
 31
0.0
 70
     3
 71
     5
 42
6.000000000000028
  3
1-1
100
AcDbDiametricDimension
 15
-66.20583378375826
 25
318.9415393131578
 35
0.0
 40
0.0
1001
ACAD
1000
DSTYLE
1002
{
1070
   288
1070
     1
1002
}
  0
LINE
  5
FF
330
2
100
AcDbEntity
  8
-SYSTEM
100
AcDbLine
 10
-64.793853590254
 20
287.7994136685866
 30
0.0
 11
-78.18460284616867
 21
287.7994136685866
 31
0.0
  0
CIRCLE
  5
100
330
2
100
AcDbEntity
  8
-PROFILAUSSENKANTE
100
AcDbCircle
 10
-68.97991904056152
 20
287.7994136685866
 30
0.0
 40
3.0
  0
DIMENSION
  5
101
330
2
100
AcDbEntity
  8
-TEXT3
100
AcDbDimension
  2
*D13
 10
-71.49786181158484
 20
289.4303533369532
 30
0.0
 11
-56.27943818386511
 21
283.0847457816576
 31
0.0
 70
     3
 71
     5
 42
6.000000000000113
  3
1-1
100
AcDbDiametricDimension
 15
-66.46197626953822
 25
286.1684740002199
 35
0.0
 40
0.0
1001
ACAD
1000
DSTYLE
1002
{
1070
   288
1070
     1
1002
}
  0
DIMENSION
  5
10D
330
2
100
AcDbEntity
  8
-TEXT3
100
AcDbDimension
  2
*D14
 10
-93.38121194351016
 20
317.7994136685866
 30
0.0
 11
-96.17522961856119
 21
310.2994136685865
 31
0.0
 71
     5
 42
15.0
  3
1-1
100
AcDbAlignedDimension
 13
-82.3706682964762
 23
302.7994136685866
 33
0.0
 14
-75.67529366851886
 24
317.7994136685866
 34
0.0
 50
90.0
100
AcDbRotatedDimension
  0
DIMENSION
  5
11A
330
2
100
AcDbEntity
  8
-TEXT3
100
AcDbDimension
  2
*D15
 10
-93.38121194351016
 20
302.7994136685866
 30
0.0
 11
-96.17522961856119
 21
295.2994136685866
 31
0.0
 71
     5
 42
15.0
  3
1-1
100
AcDbAlignedDimension
 13
-75.67529366851886
 23
287.7994136685866
 33
0.0
 14
-82.3706682964762
 24
302.7994136685866
 34
0.0
 50
90.0
100
AcDbRotatedDimension
  0
LINE
  5
127
330
2
100
AcDbEntity
  8
-SYSTEM
100
AcDbLine
 10
-68.97991904056152
 20
283.3560457489985
 30
0.0
 11
-68.97991904056152
 21
322.2427815881746
 31
0.0
  0
LINE
  5
128
330
2
100
AcDbEntity
  8
-PROFILAUSSENKANTE
100
AcDbLine
 10
-108.9799190405615
 20
322.8567743289247
 30
0.0
 11
-108.9799190405615
 21
282.7420530082484
 31
0.0
  0
ENDSEC
  0
SECTION
  2
OBJECTS
  0
DICTIONARY
  5
7
330
0
100
AcDbDictionary
281
     1
  3
ACAD_COLOR
350
143
  3
ACAD_GROUP
350
13F
  3
ACAD_LAYOUT
350
12B
  3
ACAD_MATERIAL
350
142
  3
ACAD_MLINESTYLE
350
140
  3
ACAD_PLOTSETTINGS
350
141
  3
ACAD_PLOTSTYLENAME
350
6
  0
DICTIONARY
  5
131
330
130
100
AcDbDictionary
280
     1
281
     1
  3
ACAD_LAYERSTATES
360
132
  0
DICTIONARY
  5
143
102
{ACAD_REACTORS
330
7
102
}
330
7
100
AcDbDictionary
281
     1
  0
DICTIONARY
  5
13F
102
{ACAD_REACTORS
330
7
102
}
330
7
100
AcDbDictionary
281
     1
  0
DICTIONARY
  5
12B
102
{ACAD_REACTORS
330
7
102
}
330
7
100
AcDbDictionary
281
     1
  3
Layout1
350
12F
  3
Model
350
12A
  0
DICTIONARY
  5
142
102
{ACAD_REACTORS
330
7
102
}
330
7
100
AcDbDictionary
281
     1
  0
DICTIONARY
  5
140
102
{ACAD_REACTORS
330
7
102
}
330
7
100
AcDbDictionary
281
     1
  3
STANDARD
350
144
  0
DICTIONARY
  5
141
102
{ACAD_REACTORS
330
7
102
}
330
7
100
AcDbDictionary
281
     1
  0
ACDBDICTIONARYWDFLT
  5
6
102
{ACAD_REACTORS
330
7
102
}
330
7
100
AcDbDictionary
281
     1
  3
Normal
350
5
100
AcDbDictionaryWithDefault
340
5
  0
DICTIONARY
  5
132
102
{ACAD_REACTORS
330
131
102
}
330
131
100
AcDbDictionary
281
     1
  0
LAYOUT
  5
12F
102
{ACAD_REACTORS
330
12B
102
}
330
12B
100
AcDbPlotSettings
  1

  2
HP DeskJet 1120C Printer
  4

  6

 40
0.0
 41
0.0
 42
0.0
 43
0.0
 44
0.0
 45
0.0
 46
0.0
 47
0.0
 48
0.0
 49
0.0
140
0.0
141
0.0
142
1.0
143
1.0
 70
   688
 72
     0
 73
     0
 74
     5
  7
monochrome.ctb
 75
    16
147
1.0
 76
     0
 77
     2
 78
   300
148
0.0
149
0.0
100
AcDbLayout
  1
Layout1
 70
     1
 71
     1
 10
0.0
 20
0.0
 11
420.0
 21
297.0
 12
0.0
 22
0.0
 32
0.0
 14
1.000000000000000E+20
 24
1.000000000000000E+20
 34
1.000000000000000E+20
 15
-1.000000000000000E+20
 25
-1.000000000000000E+20
 35
-1.000000000000000E+20
146
0.0
 13
0.0
 23
0.0
 33
0.0
 16
1.0
 26
0.0
 36
0.0
 17
0.0
 27
1.0
 37
0.0
 76
     0
330
12C
  0
LAYOUT
  5
12A
102
{ACAD_REACTORS
330
12B
102
}
330
12B
100
AcDbPlotSettings
  1

  2
HP DeskJet 1120C Printer
  4
A4
  6

 40
4.180416584014891
 41
13.49374103546142
 42
4.180404663085936
 43
3.757080078125
 44
209.9733276367186
 45
296.9259948730469
 46
0.0
 47
0.0
 48
96.61539676318234
 49
909.4790984012655
140
296.6153967631823
141
1109.479098401266
142
1.0
143
2.5
 70
 11936
 72
     1
 73
     1
 74
     4
  7
monochrome.ctb
 75
     0
147
0.4
 76
     0
 77
     2
 78
   300
148
-96.61539676318234
149
-909.4790984012655
100
AcDbLayout
  1
Model
 70
     1
 71
     0
 10
0.0
 20
0.0
 11
12.0
 21
9.0
 12
0.0
 22
0.0
 32
0.0
 14
0.0
 24
0.0
 34
0.0
 15
0.0
 25
0.0
 35
0.0
146
0.0
 13
0.0
 23
0.0
 33
0.0
 16
1.0
 26
0.0
 36
0.0
 17
0.0
 27
1.0
 37
0.0
 76
     0
330
2
  0
MLINESTYLE
  5
144
102
{ACAD_REACTORS
330
140
102
}
330
140
100
AcDbMlineStyle
  2
STANDARD
 70
     0
  3

 62
     0
 51
90.0
 52
90.0
 71
     2
 49
0.5
 62
   256
  6
BYLAYER
 49
-0.5
 62
   256
  6
BYLAYER
  0
ACDBPLACEHOLDER
  5
5
102
{ACAD_REACTORS
330
6
102
}
330
6
  0
ENDSEC
  0
EOF
