  0
SECTION
  2
HEADER
  9
$ACADVER
  1
AC1015
  9
$ACADMAINTVER
 70
    18
  9
$DWGCODEPAGE
  3
ANSI_1252
  9
$INSBASE
 10
-327.8288694144876
 20
0.0
 30
0.0
  9
$EXTMIN
 10
1.000000000000000E+20
 20
1.000000000000000E+20
 30
1.000000000000000E+20
  9
$EXTMAX
 10
0.0
 20
0.0
 30
0.0
  9
$LIMMIN
 10
0.0
 20
0.0
  9
$LIMMAX
 10
12.0
 20
9.0
  9
$ORTHOMODE
 70
     1
  9
$REGENMODE
 70
     1
  9
$FILLMODE
 70
     1
  9
$QTEXTMODE
 70
     0
  9
$MIRRTEXT
 70
     1
  9
$LTSCALE
 40
2.5
  9
$ATTMODE
 70
     1
  9
$TEXTSIZE
 40
0.2
  9
$TRACEWID
 40
0.05
  9
$TEXTSTYLE
  7
STANDARD
  9
$CLAYER
  8
-TEXT3
  9
$CELTYPE
  6
BYLAYER
  9
$CECOLOR
 62
   256
  9
$CELTSCALE
 40
1.0
  9
$DISPSILH
 70
     0
  9
$DIMSCALE
 40
1.0
  9
$DIMASZ
 40
3.5
  9
$DIMEXO
 40
2.0
  9
$DIMDLI
 40
2.0
  9
$DIMRND
 40
0.0
  9
$DIMDLE
 40
0.0
  9
$DIMEXE
 40
1.5
  9
$DIMTP
 40
0.0
  9
$DIMTM
 40
0.0
  9
$DIMTXT
 40
4.0
  9
$DIMCEN
 40
0.09
  9
$DIMTSZ
 40
0.0
  9
$DIMTOL
 70
     0
  9
$DIMLIM
 70
     0
  9
$DIMTIH
 70
     0
  9
$DIMTOH
 70
     0
  9
$DIMSE1
 70
     0
  9
$DIMSE2
 70
     0
  9
$DIMTAD
 70
     1
  9
$DIMZIN
 70
     9
  9
$DIMBLK
  1

  9
$DIMASO
 70
     1
  9
$DIMSHO
 70
     1
  9
$DIMPOST
  1

  9
$DIMAPOST
  1

  9
$DIMALT
 70
     0
  9
$DIMALTD
 70
     2
  9
$DIMALTF
 40
25.4
  9
$DIMLFAC
 40
1.0
  9
$DIMTOFL
 70
     0
  9
$DIMTVP
 40
0.0
  9
$DIMTIX
 70
     0
  9
$DIMSOXD
 70
     0
  9
$DIMSAH
 70
     0
  9
$DIMBLK1
  1

  9
$DIMBLK2
  1

  9
$DIMSTYLE
  2
1-1PRO
  9
$DIMCLRD
 70
   256
  9
$DIMCLRE
 70
   256
  9
$DIMCLRT
 70
   256
  9
$DIMTFAC
 40
1.0
  9
$DIMGAP
 40
1.0
  9
$DIMJUST
 70
     0
  9
$DIMSD1
 70
     0
  9
$DIMSD2
 70
     0
  9
$DIMTOLJ
 70
     1
  9
$DIMTZIN
 70
     0
  9
$DIMALTZ
 70
     0
  9
$DIMALTTZ
 70
     0
  9
$DIMUPT
 70
     0
  9
$DIMDEC
 70
     1
  9
$DIMTDEC
 70
     1
  9
$DIMALTU
 70
     2
  9
$DIMALTTD
 70
     2
  9
$DIMTXSTY
  7
STANDARD
  9
$DIMAUNIT
 70
     0
  9
$DIMADEC
 70
     0
  9
$DIMALTRND
 40
0.0
  9
$DIMAZIN
 70
     0
  9
$DIMDSEP
 70
    46
  9
$DIMATFIT
 70
     3
  9
$DIMFRAC
 70
     0
  9
$DIMLDRBLK
  1

  9
$DIMLUNIT
 70
     2
  9
$DIMLWD
 70
    -2
  9
$DIMLWE
 70
    -2
  9
$DIMTMOVE
 70
     0
  9
$LUNITS
 70
     2
  9
$LUPREC
 70
     4
  9
$SKETCHINC
 40
0.1
  9
$FILLETRAD
 40
0.0
  9
$AUNITS
 70
     0
  9
$AUPREC
 70
     0
  9
$MENU
  1
.
  9
$ELEVATION
 40
0.0
  9
$PELEVATION
 40
0.0
  9
$THICKNESS
 40
0.0
  9
$LIMCHECK
 70
     0
  9
$CHAMFERA
 40
2.0
  9
$CHAMFERB
 40
2.0
  9
$CHAMFERC
 40
1.0
  9
$CHAMFERD
 40
0.0
  9
$SKPOLY
 70
     0
  9
$TDCREATE
 40
2450923.406402199
  9
$TDUCREATE
 40
2450923.364735533
  9
$TDUPDATE
 40
2453402.348019005
  9
$TDUUPDATE
 40
2453402.306352338
  9
$TDINDWG
 40
2.4582802778
  9
$TDUSRTIMER
 40
2.4582802778
  9
$USRTIMER
 70
     1
  9
$ANGBASE
 50
0.0
  9
$ANGDIR
 70
     0
  9
$PDMODE
 70
     0
  9
$PDSIZE
 40
0.0
  9
$PLINEWID
 40
0.0
  9
$SPLFRAME
 70
     0
  9
$SPLINETYPE
 70
     6
  9
$SPLINESEGS
 70
    50
  9
$HANDSEED
  5
11B
  9
$SURFTAB1
 70
     6
  9
$SURFTAB2
 70
     6
  9
$SURFTYPE
 70
     6
  9
$SURFU
 70
     6
  9
$SURFV
 70
     6
  9
$UCSBASE
  2

  9
$UCSNAME
  2

  9
$UCSORG
 10
0.0
 20
0.0
 30
0.0
  9
$UCSXDIR
 10
1.0
 20
0.0
 30
0.0
  9
$UCSYDIR
 10
0.0
 20
1.0
 30
0.0
  9
$UCSORTHOREF
  2

  9
$UCSORTHOVIEW
 70
     0
  9
$UCSORGTOP
 10
0.0
 20
0.0
 30
0.0
  9
$UCSORGBOTTOM
 10
0.0
 20
0.0
 30
0.0
  9
$UCSORGLEFT
 10
0.0
 20
0.0
 30
0.0
  9
$UCSORGRIGHT
 10
0.0
 20
0.0
 30
0.0
  9
$UCSORGFRONT
 10
0.0
 20
0.0
 30
0.0
  9
$UCSORGBACK
 10
0.0
 20
0.0
 30
0.0
  9
$PUCSBASE
  2

  9
$PUCSNAME
  2

  9
$PUCSORG
 10
0.0
 20
0.0
 30
0.0
  9
$PUCSXDIR
 10
1.0
 20
0.0
 30
0.0
  9
$PUCSYDIR
 10
0.0
 20
1.0
 30
0.0
  9
$PUCSORTHOREF
  2

  9
$PUCSORTHOVIEW
 70
     0
  9
$PUCSORGTOP
 10
0.0
 20
0.0
 30
0.0
  9
$PUCSORGBOTTOM
 10
0.0
 20
0.0
 30
0.0
  9
$PUCSORGLEFT
 10
0.0
 20
0.0
 30
0.0
  9
$PUCSORGRIGHT
 10
0.0
 20
0.0
 30
0.0
  9
$PUCSORGFRONT
 10
0.0
 20
0.0
 30
0.0
  9
$PUCSORGBACK
 10
0.0
 20
0.0
 30
0.0
  9
$USERI1
 70
     0
  9
$USERI2
 70
     0
  9
$USERI3
 70
     0
  9
$USERI4
 70
     0
  9
$USERI5
 70
     0
  9
$USERR1
 40
0.0
  9
$USERR2
 40
0.0
  9
$USERR3
 40
0.0
  9
$USERR4
 40
0.0
  9
$USERR5
 40
0.0
  9
$WORLDVIEW
 70
     1
  9
$SHADEDGE
 70
     3
  9
$SHADEDIF
 70
    70
  9
$TILEMODE
 70
     1
  9
$MAXACTVP
 70
    48
  9
$PINSBASE
 10
0.0
 20
0.0
 30
0.0
  9
$PLIMCHECK
 70
     0
  9
$PEXTMIN
 10
1.000000000000000E+20
 20
1.000000000000000E+20
 30
1.000000000000000E+20
  9
$PEXTMAX
 10
-1.000000000000000E+20
 20
-1.000000000000000E+20
 30
-1.000000000000000E+20
  9
$PLIMMIN
 10
0.0
 20
0.0
  9
$PLIMMAX
 10
12.0
 20
9.0
  9
$UNITMODE
 70
     0
  9
$VISRETAIN
 70
     1
  9
$PLINEGEN
 70
     0
  9
$PSLTSCALE
 70
     1
  9
$TREEDEPTH
 70
  3020
  9
$CMLSTYLE
  2
STANDARD
  9
$CMLJUST
 70
     0
  9
$CMLSCALE
 40
1.0
  9
$PROXYGRAPHICS
 70
     1
  9
$MEASUREMENT
 70
     0
  9
$CELWEIGHT
370
    -1
  9
$ENDCAPS
280
     0
  9
$JOINSTYLE
280
     0
  9
$LWDISPLAY
290
     0
  9
$INSUNITS
 70
     0
  9
$HYPERLINKBASE
  1

  9
$STYLESHEET
  1

  9
$XEDIT
290
     1
  9
$CEPSNTYPE
380
     0
  9
$PSTYLEMODE
290
     1
  9
$FINGERPRINTGUID
  2
{69C2E6C0-FBFF-11D4-9C1F-F0970D17765E}
  9
$VERSIONGUID
  2
{9B765005-E026-48F4-9BDC-FA6B6CA1EA0B}
  9
$EXTNAMES
290
     1
  9
$PSVPSCALE
 40
0.0
  9
$OLESTARTUP
290
     0
  0
ENDSEC
  0
SECTION
  2
CLASSES
  0
CLASS
  1
DICTIONARYVAR
  2
AcDbDictionaryVar
  3
ObjectDBX Classes
 90
        0
280
     0
281
     0
  0
CLASS
  1
IMAGE
  2
AcDbRasterImage
  3
ISM
 90
    32895
280
     0
281
     1
  0
CLASS
  1
IMAGEDEF_REACTOR
  2
AcDbRasterImageDefReactor
  3
ISM
 90
    32769
280
     0
281
     0
  0
CLASS
  1
IMAGEDEF
  2
AcDbRasterImageDef
  3
ISM
 90
    32768
280
     0
281
     0
  0
CLASS
  1
RASTERVARIABLES
  2
AcDbRasterVariables
  3
ISM
 90
    32768
280
     0
281
     0
  0
CLASS
  1
ACDBDICTIONARYWDFLT
  2
AcDbDictionaryWithDefault
  3
ObjectDBX Classes
 90
        0
280
     0
281
     0
  0
CLASS
  1
ACDBPLACEHOLDER
  2
AcDbPlaceHolder
  3
ObjectDBX Classes
 90
        0
280
     0
281
     0
  0
CLASS
  1
LAYOUT
  2
AcDbLayout
  3
ObjectDBX Classes
 90
        0
280
     0
281
     0
  0
ENDSEC
  0
SECTION
  2
TABLES
  0
TABLE
  2
VPORT
  5
103
330
0
100
AcDbSymbolTable
 70
     1
  0
VPORT
  5
104
330
103
100
AcDbSymbolTableRecord
100
AcDbViewportTableRecord
  2
*Active
 70
     0
 10
0.0
 20
0.0
 11
1.0
 21
1.0
 12
3.509995592057464
 22
84.99768477741618
 13
0.0
 23
0.0
 14
0.5
 24
0.5
 15
0.5
 25
0.5
 16
0.0
 26
0.0
 36
1.0
 17
0.0
 27
0.0
 37
0.0
 40
276.113671505547
 41
1.549148099606815
 42
50.0
 43
0.0
 44
0.0
 50
0.0
 51
0.0
 71
     0
 72
   100
 73
     1
 74
     1
 75
     0
 76
     0
 77
     0
 78
     0
281
     0
 65
     1
110
0.0
120
0.0
130
0.0
111
1.0
121
0.0
131
0.0
112
0.0
122
1.0
132
0.0
 79
     0
146
0.0
  0
ENDTAB
  0
TABLE
  2
LTYPE
  5
FE
330
0
100
AcDbSymbolTable
 70
     3
  0
LTYPE
  5
FF
330
FE
100
AcDbSymbolTableRecord
100
AcDbLinetypeTableRecord
  2
BYBLOCK
 70
     0
  3

 72
    65
 73
     0
 40
0.0
  0
LTYPE
  5
100
330
FE
100
AcDbSymbolTableRecord
100
AcDbLinetypeTableRecord
  2
BYLAYER
 70
     0
  3

 72
    65
 73
     0
 40
0.0
  0
LTYPE
  5
8
330
FE
100
AcDbSymbolTableRecord
100
AcDbLinetypeTableRecord
  2
CONTINUOUS
 70
     0
  3
Solid line
 72
    65
 73
     0
 40
0.0
  0
LTYPE
  5
B
330
FE
100
AcDbSymbolTableRecord
100
AcDbLinetypeTableRecord
  2
MITTEX2
 70
     0
  3
Mitte (2x) ________  __  ________  __  _____
 72
    65
 73
     4
 40
4.0
 49
2.5
 74
     0
 49
-0.5
 74
     0
 49
0.5
 74
     0
 49
-0.5
 74
     0
  0
LTYPE
  5
76
330
FE
100
AcDbSymbolTableRecord
100
AcDbLinetypeTableRecord
  2
STRICHLINIEX2
 70
     0
  3
Strichlinie (2x) ____  ____  ____  ____  ____  
 72
    65
 73
     2
 40
1.5
 49
1.0
 74
     0
 49
-0.5
 74
     0
  0
ENDTAB
  0
TABLE
  2
LAYER
  5
FB
330
0
100
AcDbSymbolTable
 70
    11
  0
LAYER
  5
4
330
FB
100
AcDbSymbolTableRecord
100
AcDbLayerTableRecord
  2
0
 70
     0
 62
     7
  6
CONTINUOUS
370
    -3
390
5
  0
LAYER
  5
C0
330
FB
100
AcDbSymbolTableRecord
100
AcDbLayerTableRecord
  2
-PROFILAUSSENKANTET
 70
     0
 62
     4
  6
CONTINUOUS
370
    -3
390
5
  0
LAYER
  5
BC
330
FB
100
AcDbSymbolTableRecord
100
AcDbLayerTableRecord
  2
-DICHTUNG
 70
     0
 62
     3
  6
CONTINUOUS
370
    -3
390
5
  0
LAYER
  5
CD
330
FB
100
AcDbSymbolTableRecord
100
AcDbLayerTableRecord
  2
-NORMTEIL
 70
     0
 62
     6
  6
CONTINUOUS
370
    -3
390
5
  0
LAYER
  5
75
330
FB
100
AcDbSymbolTableRecord
100
AcDbLayerTableRecord
  2
-NORMTEIL_VERDECKT
 70
     0
 62
     9
  6
STRICHLINIEX2
370
    -3
390
5
  0
LAYER
  5
1A
330
FB
100
AcDbSymbolTableRecord
100
AcDbLayerTableRecord
  2
DEFPOINTS
 70
     0
 62
     7
  6
CONTINUOUS
290
     0
370
    -3
390
5
  0
LAYER
  5
A
330
FB
100
AcDbSymbolTableRecord
100
AcDbLayerTableRecord
  2
-SYSTEM
 70
     0
 62
     2
  6
MITTEX2
370
    -3
390
5
  0
LAYER
  5
F0
330
FB
100
AcDbSymbolTableRecord
100
AcDbLayerTableRecord
  2
-TEXT2
 70
     0
 62
     3
  6
CONTINUOUS
370
    -3
390
5
  0
LAYER
  5
D
330
FB
100
AcDbSymbolTableRecord
100
AcDbLayerTableRecord
  2
-TEXT3
 70
     0
 62
     2
  6
CONTINUOUS
370
    -3
390
5
  0
LAYER
  5
BA
330
FB
100
AcDbSymbolTableRecord
100
AcDbLayerTableRecord
  2
-SCHRAFFUR
 70
     0
 62
     9
  6
CONTINUOUS
370
    -3
390
5
  0
LAYER
  5
2D
330
FB
100
AcDbSymbolTableRecord
100
AcDbLayerTableRecord
  2
-VERGLASUNG
 70
     0
 62
     1
  6
CONTINUOUS
370
    -3
390
5
  0
ENDTAB
  0
TABLE
  2
STYLE
  5
FC
330
0
100
AcDbSymbolTable
 70
     1
  0
STYLE
  5
E
330
FC
100
AcDbSymbolTableRecord
100
AcDbTextStyleTableRecord
  2
STANDARD
 70
     0
 40
0.0
 41
1.0
 50
0.0
 71
     0
 42
0.2
  3
GOTHIC.TTF
  4

1001
ACAD
1000
Century Gothic
1071
       34
  0
ENDTAB
  0
TABLE
  2
VIEW
  5
101
330
0
100
AcDbSymbolTable
 70
     0
  0
ENDTAB
  0
TABLE
  2
UCS
  5
102
330
0
100
AcDbSymbolTable
 70
     0
  0
ENDTAB
  0
TABLE
  2
APPID
  5
105
330
0
100
AcDbSymbolTable
 70
     1
  0
APPID
  5
F
330
105
100
AcDbSymbolTableRecord
100
AcDbRegAppTableRecord
  2
ACAD
 70
     0
  0
ENDTAB
  0
TABLE
  2
DIMSTYLE
  5
106
330
0
100
AcDbSymbolTable
 70
     2
100
AcDbDimStyleTable
 71
     2
340
10
340
91
  0
DIMSTYLE
105
10
102
{ACAD_REACTORS
330
C
330
49
330
2F
330
3C
330
1E
330
5A
330
81
102
}
330
106
100
AcDbSymbolTableRecord
100
AcDbDimStyleTableRecord
  2
1-1PRO
 70
     0
 41
3.5
 42
2.0
 43
2.0
 44
1.5
 73
     0
 74
     0
 77
     1
 78
     9
140
4.0
147
1.0
176
   256
177
   256
178
   256
271
     1
272
     1
340
E
  0
DIMSTYLE
105
91
102
{ACAD_REACTORS
330
90
330
A4
102
}
330
106
100
AcDbSymbolTableRecord
100
AcDbDimStyleTableRecord
  2
1-1PRO-PU
 70
     0
 41
3.5
 42
2.0
 43
2.0
 44
1.5
 73
     0
 74
     0
 77
     1
 78
     9
140
4.0
147
1.0
173
     1
176
   256
177
   256
178
   256
271
     1
272
     1
340
E
344
92
  0
ENDTAB
  0
TABLE
  2
BLOCK_RECORD
  5
1
330
0
100
AcDbSymbolTable
 70
    10
  0
BLOCK_RECORD
  5
2
330
1
100
AcDbSymbolTableRecord
100
AcDbBlockTableRecord
  2
*MODEL_SPACE
340
F5
  0
BLOCK_RECORD
  5
F7
330
1
100
AcDbSymbolTableRecord
100
AcDbBlockTableRecord
  2
*PAPER_SPACE
340
FA
  0
BLOCK_RECORD
  5
4A
330
1
100
AcDbSymbolTableRecord
100
AcDbBlockTableRecord
  2
*D0
340
0
  0
BLOCK_RECORD
  5
11
330
1
100
AcDbSymbolTableRecord
100
AcDbBlockTableRecord
  2
*D1
340
0
  0
BLOCK_RECORD
  5
1F
330
1
100
AcDbSymbolTableRecord
100
AcDbBlockTableRecord
  2
*D2
340
0
  0
BLOCK_RECORD
  5
30
330
1
100
AcDbSymbolTableRecord
100
AcDbBlockTableRecord
  2
*D3
340
0
  0
BLOCK_RECORD
  5
5B
330
1
100
AcDbSymbolTableRecord
100
AcDbBlockTableRecord
  2
*D4
340
0
  0
BLOCK_RECORD
  5
3D
330
1
100
AcDbSymbolTableRecord
100
AcDbBlockTableRecord
  2
*D5
340
0
  0
BLOCK_RECORD
  5
82
330
1
100
AcDbSymbolTableRecord
100
AcDbBlockTableRecord
  2
*D6
340
0
  0
BLOCK_RECORD
  5
92
330
1
100
AcDbSymbolTableRecord
100
AcDbBlockTableRecord
  2
_DOTBLANK
340
0
102
{BLKREFS
331
AC
331
9E
102
}
  0
BLOCK_RECORD
  5
97
330
1
100
AcDbSymbolTableRecord
100
AcDbBlockTableRecord
  2
*D8
340
0
  0
BLOCK_RECORD
  5
A5
330
1
100
AcDbSymbolTableRecord
100
AcDbBlockTableRecord
  2
*D9
340
0
  0
ENDTAB
  0
ENDSEC
  0
SECTION
  2
BLOCKS
  0
BLOCK
  5
3
330
2
100
AcDbEntity
  8
0
100
AcDbBlockBegin
  2
*MODEL_SPACE
 70
     0
 10
0.0
 20
0.0
 30
0.0
  3
*MODEL_SPACE
  1

  0
ENDBLK
  5
F4
330
2
100
AcDbEntity
  8
0
100
AcDbBlockEnd
  0
BLOCK
  5
F8
330
F7
100
AcDbEntity
 67
     1
  8
0
100
AcDbBlockBegin
  2
*PAPER_SPACE
 70
     0
 10
0.0
 20
0.0
 30
0.0
  3
*PAPER_SPACE
  1

  0
ENDBLK
  5
F9
330
F7
100
AcDbEntity
 67
     1
  8
0
100
AcDbBlockEnd
  0
BLOCK
  5
4B
330
4A
100
AcDbEntity
  8
0
100
AcDbBlockBegin
  2
*D0
 70
     1
 10
0.0
 20
0.0
 30
0.0
  3
*D0
  1

  0
LINE
  5
4C
330
4A
100
AcDbEntity
  8
-TEXT3
370
    -2
100
AcDbLine
 10
-51.7043374879467
 20
192.7377823305601
 30
0.0
 11
-56.29566251205227
 21
192.7377823305601
 31
0.0
  0
LINE
  5
4D
330
4A
100
AcDbEntity
  8
-TEXT3
370
    -2
100
AcDbLine
 10
-51.7043374879467
 20
180.7377823305594
 30
0.0
 11
-56.29566251205227
 21
180.7377823305594
 31
0.0
  0
LINE
  5
4E
330
4A
100
AcDbEntity
  8
-TEXT3
370
    -2
100
AcDbLine
 10
-54.79566251205227
 20
189.2377823305601
 30
0.0
 11
-54.79566251205227
 21
184.2377823305594
 31
0.0
  0
SOLID
  5
4F
330
4A
100
AcDbEntity
  8
-TEXT3
100
AcDbTrace
 10
-55.37899584538561
 20
189.2377823305601
 30
0.0
 11
-54.21232917871893
 21
189.2377823305601
 31
0.0
 12
-54.79566251205227
 22
192.7377823305601
 32
0.0
 13
-54.79566251205227
 23
192.7377823305601
 33
0.0
  0
SOLID
  5
50
330
4A
100
AcDbEntity
  8
-TEXT3
100
AcDbTrace
 10
-55.37899584538561
 20
184.2377823305594
 30
0.0
 11
-54.21232917871893
 21
184.2377823305594
 31
0.0
 12
-54.79566251205227
 22
180.7377823305594
 32
0.0
 13
-54.79566251205227
 23
180.7377823305594
 33
0.0
  0
MTEXT
  5
51
330
4A
100
AcDbEntity
  8
-TEXT3
100
AcDbMText
 10
-57.89627434074027
 20
186.7377823305598
 30
0.0
 40
4.0
 41
0.0
 71
     5
 72
     1
  1
\A1;G
 11
0.0000000000000001
 21
1.0
 31
0.0
 73
     1
 44
1.0
1001
ACAD
1000
MTEXTBEGIN
1070
    73
1070
     1
1070
    44
1040
1.0
1070
    74
1070
     0
1000
MTEXTEND
  0
POINT
  5
52
330
4A
100
AcDbEntity
  8
DEFPOINTS
 62
     0
100
AcDbPoint
 10
-49.7043374879467
 20
192.7377823305601
 30
0.0
  0
POINT
  5
53
330
4A
100
AcDbEntity
  8
DEFPOINTS
 62
     0
100
AcDbPoint
 10
-49.7043374879467
 20
180.7377823305594
 30
0.0
  0
POINT
  5
54
330
4A
100
AcDbEntity
  8
DEFPOINTS
 62
     0
100
AcDbPoint
 10
-54.79566251205227
 20
180.7377823305594
 30
0.0
  0
ENDBLK
  5
55
330
4A
100
AcDbEntity
  8
0
100
AcDbBlockEnd
  0
BLOCK
  5
12
330
11
100
AcDbEntity
  8
0
100
AcDbBlockBegin
  2
*D1
 70
     1
 10
0.0
 20
0.0
 30
0.0
  3
*D1
  1

  0
LINE
  5
13
330
11
100
AcDbEntity
  8
-TEXT3
370
    -2
100
AcDbLine
 10
-40.00000000000018
 20
201.5435281537941
 30
0.0
 11
-40.00000000000018
 21
216.7002686877895
 31
0.0
  0
LINE
  5
14
330
11
100
AcDbEntity
  8
-TEXT3
370
    -2
100
AcDbLine
 10
39.99999999999989
 20
201.5435281537925
 30
0.0
 11
39.99999999999989
 21
216.7002686877895
 31
0.0
  0
LINE
  5
15
330
11
100
AcDbEntity
  8
-TEXT3
370
    -2
100
AcDbLine
 10
-36.50000000000019
 20
215.2002686877894
 30
0.0
 11
36.49999999999989
 21
215.2002686877894
 31
0.0
  0
SOLID
  5
16
330
11
100
AcDbEntity
  8
-TEXT3
100
AcDbTrace
 10
-36.50000000000019
 20
215.7836020211228
 30
0.0
 11
-36.50000000000019
 21
214.6169353544561
 31
0.0
 12
-40.00000000000018
 22
215.2002686877894
 32
0.0
 13
-40.00000000000018
 23
215.2002686877894
 33
0.0
  0
SOLID
  5
17
330
11
100
AcDbEntity
  8
-TEXT3
100
AcDbTrace
 10
36.49999999999989
 20
215.7836020211228
 30
0.0
 11
36.49999999999989
 21
214.6169353544561
 31
0.0
 12
39.99999999999989
 22
215.2002686877894
 32
0.0
 13
39.99999999999989
 23
215.2002686877894
 33
0.0
  0
MTEXT
  5
18
330
11
100
AcDbEntity
  8
-TEXT3
100
AcDbMText
 10
0.000000000001535
 20
218.4259654926841
 30
0.0
 40
4.0
 41
0.0
 71
     5
 72
     1
  1
\A1;%%c80
 73
     1
 44
1.0
1001
ACAD
1000
MTEXTBEGIN
1070
    73
1070
     1
1070
    44
1040
1.0
1070
    74
1070
     0
1000
MTEXTEND
  0
POINT
  5
19
330
11
100
AcDbEntity
  8
DEFPOINTS
 62
     0
100
AcDbPoint
 10
-40.00000000000018
 20
199.5435281537941
 30
0.0
  0
POINT
  5
1B
330
11
100
AcDbEntity
  8
DEFPOINTS
 62
     0
100
AcDbPoint
 10
39.99999999999989
 20
199.5435281537925
 30
0.0
  0
POINT
  5
1C
330
11
100
AcDbEntity
  8
DEFPOINTS
 62
     0
100
AcDbPoint
 10
39.99999999999989
 20
215.2002686877894
 30
0.0
  0
ENDBLK
  5
1D
330
11
100
AcDbEntity
  8
0
100
AcDbBlockEnd
  0
BLOCK
  5
20
330
1F
100
AcDbEntity
  8
0
100
AcDbBlockBegin
  2
*D2
 70
     1
 10
0.0
 20
0.0
 30
0.0
  3
*D2
  1

  0
LINE
  5
21
330
1F
100
AcDbEntity
  8
-TEXT3
370
    -2
100
AcDbLine
 10
-51.7043374879467
 20
180.7377823305594
 30
0.0
 11
-56.29566251205225
 21
180.7377823305594
 31
0.0
  0
LINE
  5
22
330
1F
100
AcDbEntity
  8
-TEXT3
370
    -2
100
AcDbLine
 10
-35.99999999999972
 20
176.7377823305593
 30
0.0
 11
-56.29566251205225
 21
176.7377823305593
 31
0.0
  0
LINE
  5
23
330
1F
100
AcDbEntity
  8
-TEXT3
370
    -2
100
AcDbLine
 10
-54.79566251205224
 20
184.2377823305594
 30
0.0
 11
-54.79566251205224
 21
187.7377823305594
 31
0.0
  0
LINE
  5
24
330
1F
100
AcDbEntity
  8
-TEXT3
370
    -2
100
AcDbLine
 10
-54.79566251205225
 20
173.2377823305593
 30
0.0
 11
-54.79566251205225
 21
169.7377823305593
 31
0.0
  0
SOLID
  5
25
330
1F
100
AcDbEntity
  8
-TEXT3
100
AcDbTrace
 10
-55.37899584538558
 20
184.2377823305594
 30
0.0
 11
-54.21232917871891
 21
184.2377823305594
 31
0.0
 12
-54.79566251205224
 22
180.7377823305594
 32
0.0
 13
-54.79566251205224
 23
180.7377823305594
 33
0.0
  0
SOLID
  5
26
330
1F
100
AcDbEntity
  8
-TEXT3
100
AcDbTrace
 10
-55.37899584538559
 20
173.2377823305593
 30
0.0
 11
-54.21232917871892
 21
173.2377823305593
 31
0.0
 12
-54.79566251205224
 22
176.7377823305593
 32
0.0
 13
-54.79566251205224
 23
176.7377823305593
 33
0.0
  0
MTEXT
  5
27
330
1F
100
AcDbEntity
  8
-TEXT3
100
AcDbMText
 10
-57.84596842639626
 20
178.7377823305594
 30
0.0
 40
4.0
 41
0.0
 71
     5
 72
     1
  1
\A1;4
 11
0.0000000000000001
 21
1.0
 31
0.0
 73
     1
 44
1.0
1001
ACAD
1000
MTEXTBEGIN
1070
    73
1070
     1
1070
    44
1040
1.0
1070
    74
1070
     0
1000
MTEXTEND
  0
POINT
  5
28
330
1F
100
AcDbEntity
  8
DEFPOINTS
 62
     0
100
AcDbPoint
 10
-49.7043374879467
 20
180.7377823305594
 30
0.0
  0
POINT
  5
29
330
1F
100
AcDbEntity
  8
DEFPOINTS
 62
     0
100
AcDbPoint
 10
-33.99999999999972
 20
176.7377823305593
 30
0.0
  0
POINT
  5
2A
330
1F
100
AcDbEntity
  8
DEFPOINTS
 62
     0
100
AcDbPoint
 10
-54.79566251205224
 20
176.7377823305593
 30
0.0
  0
ENDBLK
  5
2B
330
1F
100
AcDbEntity
  8
0
100
AcDbBlockEnd
  0
BLOCK
  5
31
330
30
100
AcDbEntity
  8
0
100
AcDbBlockBegin
  2
*D3
 70
     1
 10
0.0
 20
0.0
 30
0.0
  3
*D3
  1

  0
LINE
  5
32
330
30
100
AcDbEntity
  8
-TEXT3
370
    -2
100
AcDbLine
 10
-37.2956625120525
 20
176.7377823305593
 30
0.0
 11
-56.29566251205237
 21
176.7377823305593
 31
0.0
  0
LINE
  5
33
330
30
100
AcDbEntity
  8
-TEXT3
370
    -2
100
AcDbLine
 10
-16.00000000000025
 20
141.7377823305594
 30
0.0
 11
-56.29566251205239
 21
141.7377823305594
 31
0.0
  0
LINE
  5
34
330
30
100
AcDbEntity
  8
-TEXT3
370
    -2
100
AcDbLine
 10
-54.79566251205238
 20
173.2377823305593
 30
0.0
 11
-54.79566251205238
 21
145.2377823305594
 31
0.0
  0
SOLID
  5
35
330
30
100
AcDbEntity
  8
-TEXT3
100
AcDbTrace
 10
-55.37899584538571
 20
173.2377823305593
 30
0.0
 11
-54.21232917871904
 21
173.2377823305593
 31
0.0
 12
-54.79566251205238
 22
176.7377823305593
 32
0.0
 13
-54.79566251205238
 23
176.7377823305593
 33
0.0
  0
SOLID
  5
36
330
30
100
AcDbEntity
  8
-TEXT3
100
AcDbTrace
 10
-55.37899584538571
 20
145.2377823305594
 30
0.0
 11
-54.21232917871904
 21
145.2377823305594
 31
0.0
 12
-54.79566251205238
 22
141.7377823305594
 32
0.0
 13
-54.79566251205238
 23
141.7377823305594
 33
0.0
  0
MTEXT
  5
37
330
30
100
AcDbEntity
  8
-TEXT3
100
AcDbMText
 10
-57.89627434074038
 20
159.2377823305593
 30
0.0
 40
4.0
 41
0.0
 71
     5
 72
     1
  1
\A1;35
 11
0.0000000000000001
 21
1.0
 31
0.0
 73
     1
 44
1.0
1001
ACAD
1000
MTEXTBEGIN
1070
    73
1070
     1
1070
    44
1040
1.0
1070
    74
1070
     0
1000
MTEXTEND
  0
POINT
  5
38
330
30
100
AcDbEntity
  8
DEFPOINTS
 62
     0
100
AcDbPoint
 10
-35.2956625120525
 20
176.7377823305593
 30
0.0
  0
POINT
  5
39
330
30
100
AcDbEntity
  8
DEFPOINTS
 62
     0
100
AcDbPoint
 10
-14.00000000000025
 20
141.7377823305594
 30
0.0
  0
POINT
  5
3A
330
30
100
AcDbEntity
  8
DEFPOINTS
 62
     0
100
AcDbPoint
 10
-54.79566251205238
 20
141.7377823305594
 30
0.0
  0
ENDBLK
  5
3B
330
30
100
AcDbEntity
  8
0
100
AcDbBlockEnd
  0
BLOCK
  5
5C
330
5B
100
AcDbEntity
  8
0
100
AcDbBlockBegin
  2
*D4
 70
     1
 10
0.0
 20
0.0
 30
0.0
  3
*D4
  1

  0
LINE
  5
5D
330
5B
100
AcDbEntity
  8
-TEXT3
370
    -2
100
AcDbLine
 10
-7.999999999951853
 20
110.7532823305593
 30
0.0
 11
-7.999999999951854
 21
95.84816104632304
 31
0.0
  0
LINE
  5
5E
330
5B
100
AcDbEntity
  8
-TEXT3
370
    -2
100
AcDbLine
 10
8.00000000000017
 20
110.7532823305593
 30
0.0
 11
8.000000000000168
 21
95.84816104632304
 31
0.0
  0
LINE
  5
5F
330
5B
100
AcDbEntity
  8
-TEXT3
370
    -2
100
AcDbLine
 10
-4.499999999951854
 20
97.34816104632304
 30
0.0
 11
4.500000000000168
 21
97.34816104632304
 31
0.0
  0
LINE
  5
60
330
5B
100
AcDbEntity
  8
-TEXT3
370
    -2
100
AcDbLine
 10
8.000000000000168
 20
97.34816104632304
 30
0.0
 11
47.61828687967386
 21
97.34816104632304
 31
0.0
  0
SOLID
  5
61
330
5B
100
AcDbEntity
  8
-TEXT3
100
AcDbTrace
 10
-4.499999999951854
 20
97.93149437965638
 30
0.0
 11
-4.499999999951854
 21
96.76482771298971
 31
0.0
 12
-7.999999999951854
 22
97.34816104632304
 32
0.0
 13
-7.999999999951854
 23
97.34816104632304
 33
0.0
  0
SOLID
  5
62
330
5B
100
AcDbEntity
  8
-TEXT3
100
AcDbTrace
 10
4.500000000000168
 20
97.93149437965638
 30
0.0
 11
4.500000000000168
 21
96.76482771298971
 31
0.0
 12
8.000000000000168
 22
97.34816104632304
 32
0.0
 13
8.000000000000168
 23
97.34816104632304
 33
0.0
  0
MTEXT
  5
63
330
5B
100
AcDbEntity
  8
-TEXT3
100
AcDbMText
 10
29.55914343983702
 20
100.448772875011
 30
0.0
 40
4.0
 41
0.0
 71
     5
 72
     1
  1
\A1;M12 od. M16
 73
     1
 44
1.0
1001
ACAD
1000
MTEXTBEGIN
1070
    73
1070
     1
1070
    44
1040
1.0
1070
    74
1070
     0
1000
MTEXTEND
  0
POINT
  5
64
330
5B
100
AcDbEntity
  8
DEFPOINTS
 62
     0
100
AcDbPoint
 10
-7.999999999951853
 20
112.7532823305593
 30
0.0
  0
POINT
  5
65
330
5B
100
AcDbEntity
  8
DEFPOINTS
 62
     0
100
AcDbPoint
 10
8.00000000000017
 20
112.7532823305593
 30
0.0
  0
POINT
  5
66
330
5B
100
AcDbEntity
  8
DEFPOINTS
 62
     0
100
AcDbPoint
 10
8.000000000000168
 20
97.34816104632304
 30
0.0
  0
ENDBLK
  5
67
330
5B
100
AcDbEntity
  8
0
100
AcDbBlockEnd
  0
BLOCK
  5
3E
330
3D
100
AcDbEntity
  8
0
100
AcDbBlockBegin
  2
*D5
 70
     1
 10
0.0
 20
0.0
 30
0.0
  3
*D5
  1

  0
LINE
  5
3F
330
3D
100
AcDbEntity
  8
-TEXT3
370
    -2
100
AcDbLine
 10
-16.00000000000025
 20
141.7377823305593
 30
0.0
 11
-56.29566251205236
 21
141.7377823305593
 31
0.0
  0
LINE
  5
40
330
3D
100
AcDbEntity
  8
-TEXT3
370
    -2
100
AcDbLine
 10
-8.984499999999854
 20
111.7377823305593
 30
0.0
 11
-56.29566251205238
 21
111.7377823305593
 31
0.0
  0
LINE
  5
41
330
3D
100
AcDbEntity
  8
-TEXT3
370
    -2
100
AcDbLine
 10
-54.79566251205237
 20
138.2377823305593
 30
0.0
 11
-54.79566251205237
 21
115.2377823305593
 31
0.0
  0
SOLID
  5
42
330
3D
100
AcDbEntity
  8
-TEXT3
100
AcDbTrace
 10
-55.3789958453857
 20
138.2377823305593
 30
0.0
 11
-54.21232917871903
 21
138.2377823305593
 31
0.0
 12
-54.79566251205237
 22
141.7377823305593
 32
0.0
 13
-54.79566251205237
 23
141.7377823305593
 33
0.0
  0
SOLID
  5
43
330
3D
100
AcDbEntity
  8
-TEXT3
100
AcDbTrace
 10
-55.3789958453857
 20
115.2377823305593
 30
0.0
 11
-54.21232917871903
 21
115.2377823305593
 31
0.0
 12
-54.79566251205238
 22
111.7377823305593
 32
0.0
 13
-54.79566251205238
 23
111.7377823305593
 33
0.0
  0
MTEXT
  5
44
330
3D
100
AcDbEntity
  8
-TEXT3
100
AcDbMText
 10
-57.79566251205238
 20
126.7377823305593
 30
0.0
 40
4.0
 41
0.0
 71
     5
 72
     1
  1
\A1;D
 11
0.0000000000000001
 21
1.0
 31
0.0
 73
     1
 44
1.0
1001
ACAD
1000
MTEXTBEGIN
1070
    73
1070
     1
1070
    44
1040
1.0
1070
    74
1070
     0
1000
MTEXTEND
  0
POINT
  5
45
330
3D
100
AcDbEntity
  8
DEFPOINTS
 62
     0
100
AcDbPoint
 10
-14.00000000000025
 20
141.7377823305593
 30
0.0
  0
POINT
  5
46
330
3D
100
AcDbEntity
  8
DEFPOINTS
 62
     0
100
AcDbPoint
 10
-6.984499999999854
 20
111.7377823305593
 30
0.0
  0
POINT
  5
47
330
3D
100
AcDbEntity
  8
DEFPOINTS
 62
     0
100
AcDbPoint
 10
-54.79566251205238
 20
111.7377823305593
 30
0.0
  0
ENDBLK
  5
48
330
3D
100
AcDbEntity
  8
0
100
AcDbBlockEnd
  0
BLOCK
  5
83
330
82
100
AcDbEntity
  8
0
100
AcDbBlockBegin
  2
*D6
 70
     1
 10
0.0
 20
0.0
 30
0.0
  3
*D6
  1

  0
LINE
  5
84
330
82
100
AcDbEntity
  8
-TEXT3
370
    -2
100
AcDbLine
 10
-15.00000000000025
 20
140.7377823305593
 30
0.0
 11
-15.00000000000025
 21
131.2377823305594
 31
0.0
  0
LINE
  5
85
330
82
100
AcDbEntity
  8
-TEXT3
370
    -2
100
AcDbLine
 10
15.0000000000002
 20
140.7377823305594
 30
0.0
 11
15.0000000000002
 21
131.2377823305594
 31
0.0
  0
LINE
  5
86
330
82
100
AcDbEntity
  8
-TEXT3
370
    -2
100
AcDbLine
 10
-11.50000000000025
 20
132.7377823305594
 30
0.0
 11
11.5000000000002
 21
132.7377823305594
 31
0.0
  0
SOLID
  5
87
330
82
100
AcDbEntity
  8
-TEXT3
100
AcDbTrace
 10
-11.50000000000025
 20
133.3211156638927
 30
0.0
 11
-11.50000000000025
 21
132.1544489972261
 31
0.0
 12
-15.00000000000025
 22
132.7377823305594
 32
0.0
 13
-15.00000000000025
 23
132.7377823305594
 33
0.0
  0
SOLID
  5
88
330
82
100
AcDbEntity
  8
-TEXT3
100
AcDbTrace
 10
11.5000000000002
 20
133.3211156638927
 30
0.0
 11
11.5000000000002
 21
132.1544489972261
 31
0.0
 12
15.0000000000002
 22
132.7377823305594
 32
0.0
 13
15.0000000000002
 23
132.7377823305594
 33
0.0
  0
MTEXT
  5
89
330
82
100
AcDbEntity
  8
-TEXT3
100
AcDbMText
 10
-0.0000000000000282
 20
135.963479135454
 30
0.0
 40
4.0
 41
0.0
 71
     5
 72
     1
  1
\A1;%%c30
 73
     1
 44
1.0
1001
ACAD
1000
MTEXTBEGIN
1070
    73
1070
     1
1070
    44
1040
1.0
1070
    74
1070
     0
1000
MTEXTEND
  0
POINT
  5
8A
330
82
100
AcDbEntity
  8
DEFPOINTS
 62
     0
100
AcDbPoint
 10
-15.00000000000025
 20
142.7377823305594
 30
0.0
  0
POINT
  5
8B
330
82
100
AcDbEntity
  8
DEFPOINTS
 62
     0
100
AcDbPoint
 10
15.0000000000002
 20
142.7377823305594
 30
0.0
  0
POINT
  5
8C
330
82
100
AcDbEntity
  8
DEFPOINTS
 62
     0
100
AcDbPoint
 10
15.0000000000002
 20
132.7377823305594
 30
0.0
  0
ENDBLK
  5
8D
330
82
100
AcDbEntity
  8
0
100
AcDbBlockEnd
  0
BLOCK
  5
93
330
92
100
AcDbEntity
  8
0
100
AcDbBlockBegin
  2
_DOTBLANK
 70
     0
 10
0.0
 20
0.0
 30
0.0
  3
_DOTBLANK
  1

  0
CIRCLE
  5
94
330
92
100
AcDbEntity
  8
0
  6
ByBlock
 62
     0
100
AcDbCircle
 10
0.0
 20
0.0
 30
0.0
 40
0.5
  0
LINE
  5
95
330
92
100
AcDbEntity
  8
0
  6
ByBlock
 62
     0
100
AcDbLine
 10
-0.5
 20
0.0
 30
0.0
 11
-1.0
 21
0.0
 31
0.0
  0
ENDBLK
  5
96
330
92
100
AcDbEntity
  8
0
100
AcDbBlockEnd
  0
BLOCK
  5
98
330
97
100
AcDbEntity
  8
0
100
AcDbBlockBegin
  2
*D8
 70
     1
 10
0.0
 20
0.0
 30
0.0
  3
*D8
  1

  0
LINE
  5
99
330
97
100
AcDbEntity
  8
-TEXT3
370
    -2
100
AcDbLine
 10
-12.00000000000045
 20
203.7377823305599
 30
0.0
 11
-56.29566251205227
 21
203.7377823305599
 31
0.0
  0
LINE
  5
9A
330
97
100
AcDbEntity
  8
-TEXT3
370
    -2
100
AcDbLine
 10
-36.00000000000019
 20
195.73778233056
 30
0.0
 11
-56.29566251205227
 21
195.73778233056
 31
0.0
  0
LINE
  5
9B
330
97
100
AcDbEntity
  8
-TEXT3
370
    -2
100
AcDbLine
 10
-54.79566251205227
 20
207.23778233056
 30
0.0
 11
-54.79566251205227
 21
210.73778233056
 31
0.0
  0
LINE
  5
9C
330
97
100
AcDbEntity
  8
-TEXT3
370
    -2
100
AcDbLine
 10
-54.79566251205227
 20
192.23778233056
 30
0.0
 11
-54.79566251205227
 21
188.73778233056
 31
0.0
  0
SOLID
  5
9D
330
97
100
AcDbEntity
  8
-TEXT3
100
AcDbTrace
 10
-55.37899584538561
 20
207.23778233056
 30
0.0
 11
-54.21232917871893
 21
207.23778233056
 31
0.0
 12
-54.79566251205227
 22
203.7377823305599
 32
0.0
 13
-54.79566251205227
 23
203.7377823305599
 33
0.0
  0
INSERT
  5
9E
330
97
100
AcDbEntity
  8
-TEXT3
370
    -2
100
AcDbBlockReference
  2
_DOTBLANK
 10
-54.79566251205227
 20
195.73778233056
 30
0.0
 41
3.5
 42
3.5
 43
3.5
 50
90.0
  0
MTEXT
  5
9F
330
97
100
AcDbEntity
  8
-TEXT3
100
AcDbMText
 10
-57.89627434074027
 20
199.73778233056
 30
0.0
 40
4.0
 41
0.0
 71
     5
 72
     1
  1
\A1;8
 11
0.0000000000000001
 21
1.0
 31
0.0
 73
     1
 44
1.0
1001
ACAD
1000
MTEXTBEGIN
1070
    73
1070
     1
1070
    44
1040
1.0
1070
    74
1070
     0
1000
MTEXTEND
  0
POINT
  5
A0
330
97
100
AcDbEntity
  8
DEFPOINTS
 62
     0
100
AcDbPoint
 10
-10.00000000000045
 20
203.7377823305599
 30
0.0
  0
POINT
  5
A1
330
97
100
AcDbEntity
  8
DEFPOINTS
 62
     0
100
AcDbPoint
 10
-34.00000000000019
 20
195.73778233056
 30
0.0
  0
POINT
  5
A2
330
97
100
AcDbEntity
  8
DEFPOINTS
 62
     0
100
AcDbPoint
 10
-54.79566251205227
 20
195.73778233056
 30
0.0
  0
ENDBLK
  5
A3
330
97
100
AcDbEntity
  8
0
100
AcDbBlockEnd
  0
BLOCK
  5
A6
330
A5
100
AcDbEntity
  8
0
100
AcDbBlockBegin
  2
*D9
 70
     1
 10
0.0
 20
0.0
 30
0.0
  3
*D9
  1

  0
LINE
  5
A7
330
A5
100
AcDbEntity
  8
-TEXT3
370
    -2
100
AcDbLine
 10
-51.7043374879467
 20
192.7377823305601
 30
0.0
 11
-56.29566251205225
 21
192.7377823305601
 31
0.0
  0
LINE
  5
A8
330
A5
100
AcDbEntity
  8
-TEXT3
370
    -2
100
AcDbLine
 10
-36.00000000000019
 20
195.73778233056
 30
0.0
 11
-56.29566251205225
 21
195.73778233056
 31
0.0
  0
LINE
  5
A9
330
A5
100
AcDbEntity
  8
-TEXT3
370
    -2
100
AcDbLine
 10
-54.79566251205224
 20
189.2377823305601
 30
0.0
 11
-54.79566251205224
 21
185.7377823305601
 31
0.0
  0
LINE
  5
AA
330
A5
100
AcDbEntity
  8
-TEXT3
370
    -2
100
AcDbLine
 10
-54.79566251205224
 20
199.23778233056
 30
0.0
 11
-54.79566251205224
 21
202.73778233056
 31
0.0
  0
SOLID
  5
AB
330
A5
100
AcDbEntity
  8
-TEXT3
100
AcDbTrace
 10
-55.37899584538558
 20
189.2377823305601
 30
0.0
 11
-54.21232917871891
 21
189.2377823305601
 31
0.0
 12
-54.79566251205224
 22
192.7377823305601
 32
0.0
 13
-54.79566251205224
 23
192.7377823305601
 33
0.0
  0
INSERT
  5
AC
330
A5
100
AcDbEntity
  8
-TEXT3
370
    -2
100
AcDbBlockReference
  2
_DOTBLANK
 10
-54.79566251205224
 20
195.73778233056
 30
0.0
 41
3.5
 42
3.5
 43
3.5
 50
270.0
  0
MTEXT
  5
AD
330
A5
100
AcDbEntity
  8
-TEXT3
100
AcDbMText
 10
-57.89627434074024
 20
194.23778233056
 30
0.0
 40
4.0
 41
0.0
 71
     5
 72
     1
  1
\A1;3
 11
0.0000000000000001
 21
1.0
 31
0.0
 73
     1
 44
1.0
1001
ACAD
1000
MTEXTBEGIN
1070
    73
1070
     1
1070
    44
1040
1.0
1070
    74
1070
     0
1000
MTEXTEND
  0
POINT
  5
AE
330
A5
100
AcDbEntity
  8
DEFPOINTS
 62
     0
100
AcDbPoint
 10
-49.7043374879467
 20
192.7377823305601
 30
0.0
  0
POINT
  5
AF
330
A5
100
AcDbEntity
  8
DEFPOINTS
 62
     0
100
AcDbPoint
 10
-34.00000000000019
 20
195.73778233056
 30
0.0
  0
POINT
  5
B0
330
A5
100
AcDbEntity
  8
DEFPOINTS
 62
     0
100
AcDbPoint
 10
-54.79566251205224
 20
195.73778233056
 30
0.0
  0
ENDBLK
  5
B1
330
A5
100
AcDbEntity
  8
0
100
AcDbBlockEnd
  0
ENDSEC
  0
SECTION
  2
ENTITIES
  0
LINE
  5
9
330
2
100
AcDbEntity
  8
-SYSTEM
100
AcDbLine
 10
-0.0000000000001705
 20
206.6943478692375
 30
0.0
 11
0.0000000000000568
 21
107.0273769622534
 31
0.0
  0
DIMENSION
  5
C
330
2
100
AcDbEntity
  8
-TEXT3
100
AcDbDimension
  2
*D1
 10
39.99999999999989
 20
215.2002686877894
 30
0.0
 11
0.0000000000015348
 21
215.2002686877894
 31
0.0
 70
   128
  1
%%c<>
 71
     5
 42
80.00000000000007
  3
1-1PRO
100
AcDbAlignedDimension
 13
-40.00000000000018
 23
199.5435281537941
 33
0.0
 14
39.99999999999989
 24
199.5435281537925
 34
0.0
100
AcDbRotatedDimension
1001
ACAD
1000
DSTYLE
1002
{
1002
}
  0
DIMENSION
  5
1E
330
2
100
AcDbEntity
  8
-TEXT3
100
AcDbDimension
  2
*D2
 10
-54.79566251205224
 20
176.7377823305593
 30
0.0
 11
-54.79566251205227
 21
178.7377823305594
 31
0.0
 70
   128
 71
     5
 42
4.000000000000113
  3
1-1PRO
100
AcDbAlignedDimension
 13
-49.7043374879467
 23
180.7377823305594
 33
0.0
 14
-33.99999999999972
 24
176.7377823305593
 34
0.0
 50
90.0
100
AcDbRotatedDimension
  0
LINE
  5
2C
330
2
100
AcDbEntity
  8
-VERGLASUNG
100
AcDbLine
 10
-45.394729231089
 20
180.7377821184271
 30
0.0
 11
-41.50085441146297
 21
184.6316569380531
 31
0.0
  0
LINE
  5
2E
330
2
100
AcDbEntity
  8
-VERGLASUNG
100
AcDbLine
 10
-43.832229231089
 20
180.7377821184271
 30
0.0
 11
-39.93835441146297
 21
184.631656938053
 31
0.0
  0
DIMENSION
  5
2F
330
2
100
AcDbEntity
  8
-TEXT3
100
AcDbDimension
  2
*D3
 10
-54.79566251205238
 20
141.7377823305594
 30
0.0
 11
-57.89627434074038
 21
159.2377823305593
 31
0.0
 71
     5
 42
34.99999999999995
  3
1-1PRO
100
AcDbAlignedDimension
 13
-35.2956625120525
 23
176.7377823305593
 33
0.0
 14
-14.00000000000025
 24
141.7377823305594
 34
0.0
 50
90.0
100
AcDbRotatedDimension
  0
DIMENSION
  5
3C
330
2
100
AcDbEntity
  8
-TEXT3
100
AcDbDimension
  2
*D5
 10
-54.79566251205238
 20
111.7377823305593
 30
0.0
 11
-57.79566251205238
 21
126.7377823305593
 31
0.0
  1
D
 71
     5
 42
30.0
  3
1-1PRO
100
AcDbAlignedDimension
 13
-14.00000000000025
 23
141.7377823305593
 33
0.0
 14
-6.984499999999854
 24
111.7377823305593
 34
0.0
 50
270.0
100
AcDbRotatedDimension
1001
ACAD
1000
DSTYLE
1002
{
1002
}
  0
DIMENSION
  5
49
330
2
100
AcDbEntity
  8
-TEXT3
100
AcDbDimension
  2
*D0
 10
-54.79566251205227
 20
180.7377823305594
 30
0.0
 11
-57.89627434074027
 21
186.7377823305598
 31
0.0
  1
G
 71
     5
 42
12.00000000000068
  3
1-1PRO
100
AcDbAlignedDimension
 13
-49.7043374879467
 23
192.7377823305601
 33
0.0
 14
-49.7043374879467
 24
180.7377823305594
 34
0.0
 50
90.0
100
AcDbRotatedDimension
  0
LINE
  5
56
330
2
100
AcDbEntity
  8
-VERGLASUNG
100
AcDbLine
 10
-47.04981466707971
 20
188.8439072988017
 30
0.0
 11
-43.15593984745368
 21
192.7377821184277
 31
0.0
  0
LINE
  5
57
330
2
100
AcDbEntity
  8
-VERGLASUNG
100
AcDbLine
 10
-48.61231466707971
 20
188.8439072988017
 30
0.0
 11
-44.71843984745368
 21
192.7377821184277
 31
0.0
  0
LINE
  5
58
330
2
100
AcDbEntity
  8
-VERGLASUNG
100
AcDbLine
 10
-50.17481466707971
 20
188.8439072988017
 30
0.0
 11
-46.28093984745368
 21
192.7377821184277
 31
0.0
  0
LINE
  5
59
330
2
100
AcDbEntity
  8
-VERGLASUNG
100
AcDbLine
 10
-46.957229231089
 20
180.7377821184271
 30
0.0
 11
-43.06335441146297
 21
184.6316569380531
 31
0.0
  0
DIMENSION
  5
5A
330
2
100
AcDbEntity
  8
-TEXT3
100
AcDbDimension
  2
*D4
 10
8.000000000000168
 20
97.34816104632304
 30
0.0
 11
29.55914343983702
 21
100.448772875011
 31
0.0
  1
M12 od. M<>
 71
     5
 42
15.99999999995202
  3
1-1PRO
100
AcDbAlignedDimension
 13
-7.999999999951853
 23
112.7532823305593
 33
0.0
 14
8.00000000000017
 24
112.7532823305593
 34
0.0
100
AcDbRotatedDimension
  0
LINE
  5
68
330
2
100
AcDbEntity
  8
-VERGLASUNG
100
AcDbLine
 10
23.13803538160374
 20
180.7377821184268
 30
0.0
 11
27.03191020122978
 21
184.6316569380529
 31
0.0
  0
LINE
  5
69
330
2
100
AcDbEntity
  8
-VERGLASUNG
100
AcDbLine
 10
21.48294994561303
 20
188.8439072988015
 30
0.0
 11
25.37682476523907
 21
192.7377821184275
 31
0.0
  0
LINE
  5
6A
330
2
100
AcDbEntity
  8
-VERGLASUNG
100
AcDbLine
 10
19.92044994561303
 20
188.8439072988015
 30
0.0
 11
23.81432476523906
 21
192.7377821184275
 31
0.0
  0
LINE
  5
6B
330
2
100
AcDbEntity
  8
-VERGLASUNG
100
AcDbLine
 10
21.57553538160374
 20
180.7377821184268
 30
0.0
 11
25.46941020122978
 21
184.6316569380529
 31
0.0
  0
LINE
  5
6C
330
2
100
AcDbEntity
  8
-VERGLASUNG
100
AcDbLine
 10
18.35794994561303
 20
188.8439072988015
 30
0.0
 11
22.25182476523906
 21
192.7377821184275
 31
0.0
  0
LINE
  5
6D
330
2
100
AcDbEntity
  8
-VERGLASUNG
100
AcDbLine
 10
24.70053538160374
 20
180.7377821184268
 30
0.0
 11
28.59441020122978
 21
184.6316569380527
 31
0.0
  0
LINE
  5
6E
330
2
100
AcDbEntity
  8
-VERGLASUNG
100
AcDbLine
 10
42.41070689973554
 20
188.8439073695122
 30
0.0
 11
46.30458171936157
 21
192.7377821891382
 31
0.0
  0
LINE
  5
6F
330
2
100
AcDbEntity
  8
-VERGLASUNG
100
AcDbLine
 10
39.28570689973554
 20
188.8439073695122
 30
0.0
 11
43.17958171936157
 21
192.7377821891382
 31
0.0
  0
LINE
  5
70
330
2
100
AcDbEntity
  8
-VERGLASUNG
100
AcDbLine
 10
40.84820689973554
 20
188.8439073695122
 30
0.0
 11
44.74208171936157
 21
192.7377821891382
 31
0.0
  0
LINE
  5
71
330
2
100
AcDbEntity
  8
-VERGLASUNG
100
AcDbLine
 10
44.06579233572625
 20
180.7377821891375
 30
0.0
 11
47.95966715535229
 21
184.6316570087636
 31
0.0
  0
LINE
  5
72
330
2
100
AcDbEntity
  8
-VERGLASUNG
100
AcDbLine
 10
42.50329233572625
 20
180.7377821891375
 30
0.0
 11
46.39716715535229
 21
184.6316570087636
 31
0.0
  0
LINE
  5
73
330
2
100
AcDbEntity
  8
-VERGLASUNG
100
AcDbLine
 10
45.62829233572625
 20
180.7377821891375
 30
0.0
 11
49.52216715535229
 21
184.6316570087635
 31
0.0
  0
LINE
  5
74
330
2
100
AcDbEntity
  8
-NORMTEIL_VERDECKT
100
AcDbLine
 10
16.0
 20
180.7377823305593
 30
0.0
 11
15.99999999999994
 21
192.7377823305599
 31
0.0
  0
LINE
  5
77
330
2
100
AcDbEntity
  8
-NORMTEIL_VERDECKT
100
AcDbLine
 10
18.0
 20
180.7377823305593
 30
0.0
 11
18.0
 21
192.7377823305598
 31
0.0
  0
LWPOLYLINE
  5
78
330
2
100
AcDbEntity
  8
-NORMTEIL_VERDECKT
100
AcDbPolyline
 90
        4
 70
     0
 43
0.0
 10
-13.99999999999996
 20
176.7377823305593
 10
-13.99999999999998
 20
190.73778233056
 10
14.00000000000001
 20
190.73778233056
 10
14.00000000000004
 20
176.7377823305592
  0
LINE
  5
79
330
2
100
AcDbEntity
  8
-NORMTEIL_VERDECKT
100
AcDbLine
 10
-16.0
 20
180.7377823305593
 30
0.0
 11
-16.00000000000006
 21
192.7377823305599
 31
0.0
  0
LINE
  5
7A
330
2
100
AcDbEntity
  8
-NORMTEIL_VERDECKT
100
AcDbLine
 10
-18.0
 20
180.7377823305593
 30
0.0
 11
-18.0
 21
192.7377823305599
 31
0.0
  0
LINE
  5
7B
330
2
100
AcDbEntity
  8
-VERGLASUNG
100
AcDbLine
 10
-22.90447227696649
 20
180.7377821891378
 30
0.0
 11
-19.01059745734045
 21
184.6316570087637
 31
0.0
  0
LINE
  5
7C
330
2
100
AcDbEntity
  8
-VERGLASUNG
100
AcDbLine
 10
-26.02947227696649
 20
180.7377821891378
 30
0.0
 11
-22.13559745734045
 21
184.6316570087638
 31
0.0
  0
LINE
  5
7D
330
2
100
AcDbEntity
  8
-VERGLASUNG
100
AcDbLine
 10
-24.46697227696649
 20
180.7377821891378
 30
0.0
 11
-20.57309745734045
 21
184.6316570087638
 31
0.0
  0
LINE
  5
7E
330
2
100
AcDbEntity
  8
-VERGLASUNG
100
AcDbLine
 10
-27.6845577129572
 20
188.8439073695124
 30
0.0
 11
-23.79068289333117
 21
192.7377821891385
 31
0.0
  0
LINE
  5
7F
330
2
100
AcDbEntity
  8
-VERGLASUNG
100
AcDbLine
 10
-29.2470577129572
 20
188.8439073695124
 30
0.0
 11
-25.35318289333117
 21
192.7377821891385
 31
0.0
  0
LINE
  5
80
330
2
100
AcDbEntity
  8
-VERGLASUNG
100
AcDbLine
 10
-26.1220577129572
 20
188.8439073695124
 30
0.0
 11
-22.22818289333117
 21
192.7377821891385
 31
0.0
  0
DIMENSION
  5
81
330
2
100
AcDbEntity
  8
-TEXT3
100
AcDbDimension
  2
*D6
 10
15.0000000000002
 20
132.7377823305594
 30
0.0
 11
-0.0000000000000282
 21
135.963479135454
 31
0.0
  1
%%c<>
 71
     5
 42
30.00000000000046
  3
1-1PRO
100
AcDbAlignedDimension
 13
-15.00000000000025
 23
142.7377823305594
 33
0.0
 14
15.0000000000002
 24
142.7377823305594
 34
0.0
100
AcDbRotatedDimension
  0
LINE
  5
8E
330
2
100
AcDbEntity
  8
-SYSTEM
100
AcDbLine
 10
2.976298286773015
 20
143.5113645302601
 30
0.0
 11
-2.683747316789322
 21
197.3631012300719
 31
0.0
  0
LINE
  5
8F
330
2
100
AcDbEntity
  8
-SYSTEM
100
AcDbLine
 10
-2.976298286773982
 20
143.5113645302601
 30
0.0
 11
2.683747316788384
 21
197.3631012300719
 31
0.0
  0
DIMENSION
  5
90
330
2
100
AcDbEntity
  8
-TEXT3
100
AcDbDimension
  2
*D8
 10
-54.79566251205227
 20
195.73778233056
 30
0.0
 11
-57.89627434074027
 21
199.73778233056
 31
0.0
 71
     5
 42
7.999999999999943
  3
1-1PRO-PU
100
AcDbAlignedDimension
 13
-10.00000000000045
 23
203.7377823305599
 33
0.0
 14
-34.00000000000019
 24
195.73778233056
 34
0.0
 50
90.0
100
AcDbRotatedDimension
  0
DIMENSION
  5
A4
330
2
100
AcDbEntity
  8
-TEXT3
100
AcDbDimension
  2
*D9
 10
-54.79566251205224
 20
195.73778233056
 30
0.0
 11
-54.79566251205227
 21
194.23778233056
 31
0.0
 70
   128
 71
     5
 42
2.999999999999886
  3
1-1PRO-PU
100
AcDbAlignedDimension
 13
-49.7043374879467
 23
192.7377823305601
 33
0.0
 14
-34.00000000000019
 24
195.73778233056
 34
0.0
 50
90.0
100
AcDbRotatedDimension
  0
LWPOLYLINE
  5
B2
330
2
100
AcDbEntity
  8
-VERGLASUNG
100
AcDbPolyline
 90
        6
 70
     0
 43
0.0
 10
-49.7043374879467
 20
192.7377823305601
 10
77.99999999999989
 20
192.7377823305595
 10
79.99999999999989
 20
190.7377823305595
 10
79.99999999999989
 20
182.7377823305591
 10
77.99999999999989
 20
180.7377823305591
 10
-49.7043374879467
 20
180.7377823305594
  0
LINE
  5
B3
330
2
100
AcDbEntity
  8
-VERGLASUNG
100
AcDbLine
 10
63.33846385385806
 20
188.8439074402229
 30
0.0
 11
67.23233867348409
 21
192.7377822598489
 31
0.0
  0
LINE
  5
B4
330
2
100
AcDbEntity
  8
-VERGLASUNG
100
AcDbLine
 10
60.21346385385806
 20
188.8439074402229
 30
0.0
 11
64.10733867348409
 21
192.7377822598489
 31
0.0
  0
LINE
  5
B5
330
2
100
AcDbEntity
  8
-VERGLASUNG
100
AcDbLine
 10
61.77596385385806
 20
188.8439074402229
 30
0.0
 11
65.66983867348409
 21
192.7377822598489
 31
0.0
  0
LINE
  5
B6
330
2
100
AcDbEntity
  8
-VERGLASUNG
100
AcDbLine
 10
63.43104928984877
 20
180.7377822598482
 30
0.0
 11
67.32492410947481
 21
184.6316570794743
 31
0.0
  0
LINE
  5
B7
330
2
100
AcDbEntity
  8
-VERGLASUNG
100
AcDbLine
 10
66.55604928984877
 20
180.7377822598482
 30
0.0
 11
70.44992410947481
 21
184.6316570794742
 31
0.0
  0
LINE
  5
B8
330
2
100
AcDbEntity
  8
-VERGLASUNG
100
AcDbLine
 10
64.99354928984877
 20
180.7377822598482
 30
0.0
 11
68.88742410947481
 21
184.6316570794743
 31
0.0
  0
HATCH
  5
B9
330
2
100
AcDbEntity
  8
-SCHRAFFUR
100
AcDbHatch
 10
0.0
 20
0.0
 30
0.0
210
0.0
220
0.0
230
1.0
  2
SOLID
 70
     1
 71
     1
 91
        1
 92
        1
 93
        4
 72
     1
 10
-15.00000000000025
 20
158.6497423196949
 11
14.99999999999997
 21
158.6497423196949
 72
     1
 10
14.99999999999997
 20
158.6497423196949
 11
14.99999999999997
 21
163.6497423196945
 72
     1
 10
14.99999999999997
 20
163.6497423196945
 11
-15.00000000000025
 21
163.6497423196945
 72
     1
 10
-15.00000000000025
 20
163.6497423196945
 11
-15.00000000000025
 21
158.6497423196949
 97
        1
330
BB
 75
     0
 76
     1
 98
        1
 10
-107.5539506522203
 20
-59.71351481214597
  0
LWPOLYLINE
  5
BB
102
{ACAD_REACTORS
330
B9
102
}
330
2
100
AcDbEntity
  8
-DICHTUNG
100
AcDbPolyline
 90
        4
 70
     1
 43
0.0
 10
-15.00000000000025
 20
158.6497423196949
 10
14.99999999999997
 20
158.6497423196949
 10
14.99999999999997
 20
163.6497423196945
 10
-15.00000000000025
 20
163.6497423196945
  0
HATCH
  5
BD
330
2
100
AcDbEntity
  8
-SCHRAFFUR
100
AcDbHatch
 10
0.0
 20
0.0
 30
0.0
210
0.0
220
0.0
230
1.0
  2
SOLID
 70
     1
 71
     1
 91
        1
 92
        1
 93
        4
 72
     1
 10
-39.49999999999948
 20
176.7377823305593
 11
39.50000000000051
 21
176.7377823305592
 72
     1
 10
39.50000000000051
 20
176.7377823305592
 11
39.50000000000054
 21
180.7377823305592
 72
     1
 10
39.50000000000054
 20
180.7377823305592
 11
-39.49999999999948
 21
180.7377823305593
 72
     1
 10
-39.49999999999948
 20
180.7377823305593
 11
-39.49999999999948
 21
176.7377823305593
 97
        1
330
BE
 75
     0
 76
     1
 98
        1
 10
-107.5539506522203
 20
-59.71351481214597
  0
LWPOLYLINE
  5
BE
102
{ACAD_REACTORS
330
BD
102
}
330
2
100
AcDbEntity
  8
-DICHTUNG
100
AcDbPolyline
 90
        4
 70
     1
 43
0.0
 10
-39.49999999999948
 20
176.7377823305593
 10
39.50000000000051
 20
176.7377823305592
 10
39.50000000000054
 20
180.7377823305592
 10
-39.49999999999948
 20
180.7377823305593
  0
LWPOLYLINE
  5
BF
330
2
100
AcDbEntity
  8
-PROFILAUSSENKANTET
100
AcDbPolyline
 90
        5
 70
     0
 43
0.0
 10
14.99999999999997
 20
163.649742319694
 10
-15.00000000000025
 20
163.6497423196947
 10
-15.00000000000025
 20
142.7377823305594
 42
0.4142135623730951
 10
-14.00000000000025
 20
141.7377823305594
 10
14.0000000000002
 20
141.7377823305594
  0
LINE
  5
C1
330
2
100
AcDbEntity
  8
-SCHRAFFUR
100
AcDbLine
 10
39.99999999999955
 20
173.4337956675134
 30
0.0
 11
-40.00000000000025
 21
173.4337956675136
 31
0.0
  0
LWPOLYLINE
  5
C2
330
2
100
AcDbEntity
  8
-PROFILAUSSENKANTET
100
AcDbPolyline
 90
       12
 70
     0
 43
0.0
 10
14.99999999999974
 20
166.6497423196947
 42
-0.359993514460748
 10
16.95805693252939
 20
169.4629886018661
 10
39.34731435582285
 20
172.4960469067898
 42
0.3137493583979839
 10
39.99999999999955
 20
173.4337956675134
 10
39.99999999999977
 20
176.7377823305589
 10
9.999999999999744
 20
176.7377823305589
 10
39.99999999999977
 20
176.7377823305589
 10
-40.00000000000025
 20
176.7377823305589
 10
-40.00000000000025
 20
173.4337956675138
 42
0.3137493583978978
 10
-39.34731435582378
 20
172.4960469067901
 10
-16.95805693252921
 20
169.4629886018663
 42
-0.3599935144608334
 10
-15.00000000000025
 20
166.6497423196951
  0
LINE
  5
C3
330
2
100
AcDbEntity
  8
-SCHRAFFUR
100
AcDbLine
 10
-15.00000000000025
 20
163.6497423196945
 30
0.0
 11
14.99999999999997
 21
163.6497423196945
 31
0.0
  0
LINE
  5
C4
330
2
100
AcDbEntity
  8
-PROFILAUSSENKANTET
100
AcDbLine
 10
14.99999999999997
 20
163.6497423196945
 30
0.0
 11
-15.00000000000025
 21
163.6497423196945
 31
0.0
  0
LINE
  5
C5
330
2
100
AcDbEntity
  8
-SCHRAFFUR
100
AcDbLine
 10
-15.00000000000025
 20
166.6497423196951
 30
0.0
 11
14.99999999999974
 21
166.6497423196947
 31
0.0
  0
LINE
  5
C6
330
2
100
AcDbEntity
  8
-SCHRAFFUR
100
AcDbLine
 10
-16.95805693252921
 20
169.4629886018663
 30
0.0
 11
16.95805693252885
 21
169.462988601866
 31
0.0
  0
LINE
  5
C7
330
2
100
AcDbEntity
  8
-SCHRAFFUR
100
AcDbLine
 10
-39.34731435582378
 20
172.4960469067901
 30
0.0
 11
39.34731435582285
 21
172.4960469067898
 31
0.0
  0
LINE
  5
C8
330
2
100
AcDbEntity
  8
-SCHRAFFUR
100
AcDbLine
 10
-15.00000000000025
 20
142.7377823305594
 30
0.0
 11
15.0000000000002
 21
142.7377823305594
 31
0.0
  0
LINE
  5
C9
330
2
100
AcDbEntity
  8
-NORMTEIL_VERDECKT
  6
Continuous
100
AcDbLine
 10
-7.999999999999829
 20
112.7532823305593
 30
0.0
 11
8.00000000000017
 21
112.7532823305593
 31
0.0
  0
LINE
  5
CA
330
2
100
AcDbEntity
  8
-NORMTEIL_VERDECKT
  6
Continuous
100
AcDbLine
 10
-7.999999999999829
 20
112.7532823305593
 30
0.0
 11
8.00000000000017
 21
112.7532823305593
 31
0.0
  0
LINE
  5
CB
330
2
100
AcDbEntity
  8
-NORMTEIL_VERDECKT
  6
Continuous
100
AcDbLine
 10
-7.999999999999829
 20
112.7532823305593
 30
0.0
 11
8.00000000000017
 21
112.7532823305593
 31
0.0
  0
LWPOLYLINE
  5
CC
330
2
100
AcDbEntity
  8
-NORMTEIL
100
AcDbPolyline
 90
        6
 70
     0
 43
0.0
 10
-7.999999999999829
 20
141.7377823305593
 10
-7.999999999999829
 20
112.7532823305593
 10
-6.984499999999854
 20
111.7377823305593
 10
6.98450000000065
 20
111.7377823305593
 10
8.00000000000017
 20
112.7532823305593
 10
8.00000000000017
 20
141.737782330559
  0
LINE
  5
CE
330
2
100
AcDbEntity
  8
-NORMTEIL_VERDECKT
100
AcDbLine
 10
-17.07999999999998
 20
180.7377823305593
 30
0.0
 11
17.07999999999987
 21
180.7377823305593
 31
0.0
  0
LINE
  5
CF
330
2
100
AcDbEntity
  8
-NORMTEIL_VERDECKT
  6
Continuous
100
AcDbLine
 10
-6.984499999999854
 20
111.7377823305593
 30
0.0
 11
-6.984499999999854
 21
141.7377823305594
 31
0.0
  0
LINE
  5
D0
330
2
100
AcDbEntity
  8
-PROFILAUSSENKANTET
100
AcDbLine
 10
-15.00000000000025
 20
163.6497423196947
 30
0.0
 11
-15.00000000000025
 21
166.6497423196951
 31
0.0
  0
LINE
  5
D1
330
2
100
AcDbEntity
  8
-NORMTEIL_VERDECKT
100
AcDbLine
 10
-17.9999999999996
 20
180.7377823305593
 30
0.0
 11
-17.07999999999941
 21
180.7377823305593
 31
0.0
  0
LINE
  5
D2
330
2
100
AcDbEntity
  8
-NORMTEIL_VERDECKT
100
AcDbLine
 10
-18.00000000000028
 20
180.7377823305596
 30
0.0
 11
-17.0800000000001
 21
180.7377823305596
 31
0.0
  0
LINE
  5
D3
330
2
100
AcDbEntity
  8
-NORMTEIL_VERDECKT
100
AcDbLine
 10
31.00000000000006
 20
180.7377823305593
 30
0.0
 11
17.07999999999987
 21
180.7377823305593
 31
0.0
  0
LINE
  5
D4
330
2
100
AcDbEntity
  8
-NORMTEIL_VERDECKT
  6
Continuous
100
AcDbLine
 10
6.98450000000065
 20
111.7377823305593
 30
0.0
 11
6.98450000000065
 21
141.7377823305591
 31
0.0
  0
LWPOLYLINE
  5
D5
330
2
100
AcDbEntity
  8
-PROFILAUSSENKANTET
100
AcDbPolyline
 90
        4
 70
     0
 43
0.0
 10
14.99999999999997
 20
163.649742319694
 10
15.0000000000002
 20
142.7377823305594
 42
-0.4142135623730951
 10
14.0000000000002
 20
141.7377823305594
 10
9.999999999999971
 20
141.7377823305594
  0
LINE
  5
D6
330
2
100
AcDbEntity
  8
-PROFILAUSSENKANTET
100
AcDbLine
 10
8.999999999999971
 20
176.7377823305589
 30
0.0
 11
9.999999999999744
 21
176.7377823305589
 31
0.0
  0
LINE
  5
D7
330
2
100
AcDbEntity
  8
-PROFILAUSSENKANTET
100
AcDbLine
 10
14.99999999999974
 20
166.6497423196947
 30
0.0
 11
14.99999999999997
 21
163.6497423196947
 31
0.0
  0
LINE
  5
D8
330
2
100
AcDbEntity
  8
-NORMTEIL_VERDECKT
100
AcDbLine
 10
18.00000000000062
 20
180.7377823305593
 30
0.0
 11
17.08000000000044
 21
180.7377823305593
 31
0.0
  0
LINE
  5
D9
330
2
100
AcDbEntity
  8
-NORMTEIL_VERDECKT
100
AcDbLine
 10
17.99999999999994
 20
180.7377823305596
 30
0.0
 11
17.07999999999976
 21
180.7377823305596
 31
0.0
  0
LWPOLYLINE
  5
DA
330
2
100
AcDbEntity
  8
-NORMTEIL_VERDECKT
100
AcDbPolyline
 90
        6
 70
     0
 43
0.0
 10
-10.00000000000015
 20
203.7377823305599
 10
-10.00000000000015
 20
203.23778233056
 10
-5.000000000000156
 20
198.2377823305599
 10
4.999999999999843
 20
198.2377823305599
 10
9.999999999999829
 20
203.23778233056
 10
9.999999999999843
 20
203.7377823305599
  0
LINE
  5
DB
330
2
100
AcDbEntity
  8
-NORMTEIL_VERDECKT
100
AcDbLine
 10
-10.00000000000015
 20
203.23778233056
 30
0.0
 11
9.999999999999829
 21
203.23778233056
 31
0.0
  0
HATCH
  5
DC
330
2
100
AcDbEntity
  8
-SCHRAFFUR
100
AcDbHatch
 10
0.0
 20
0.0
 30
0.0
210
0.0
220
0.0
230
1.0
  2
SOLID
 70
     1
 71
     1
 91
        1
 92
        1
 93
        4
 72
     1
 10
-39.50000000000019
 20
192.7377823305599
 11
39.49999999999988
 21
192.7377823305599
 72
     1
 10
39.49999999999988
 20
192.7377823305599
 11
39.49999999999988
 21
195.7377823305599
 72
     1
 10
39.49999999999988
 20
195.7377823305599
 11
-39.50000000000019
 21
195.7377823305599
 72
     1
 10
-39.50000000000019
 20
195.7377823305599
 11
-39.50000000000019
 21
192.7377823305599
 97
        1
330
DD
 75
     0
 76
     1
 98
        1
 10
-107.5539506522203
 20
-59.71351481214597
  0
LWPOLYLINE
  5
DD
102
{ACAD_REACTORS
330
DC
102
}
330
2
100
AcDbEntity
  8
-DICHTUNG
100
AcDbPolyline
 90
        4
 70
     1
 43
0.0
 10
-39.50000000000019
 20
192.7377823305599
 10
39.49999999999988
 20
192.7377823305599
 10
39.49999999999988
 20
195.7377823305599
 10
-39.50000000000019
 20
195.7377823305599
  0
LINE
  5
DE
330
2
100
AcDbEntity
  8
-NORMTEIL_VERDECKT
100
AcDbLine
 10
-15.49999999999949
 20
192.7377823305598
 30
0.0
 11
15.50000000000051
 21
192.7377823305598
 31
0.0
  0
LINE
  5
DF
330
2
100
AcDbEntity
  8
-NORMTEIL_VERDECKT
100
AcDbLine
 10
-5.000000000000625
 20
199.737782330559
 30
0.0
 11
-2.000000000000625
 21
199.737782330559
 31
0.0
  0
LWPOLYLINE
  5
E0
330
2
100
AcDbEntity
  8
-NORMTEIL_VERDECKT
100
AcDbPolyline
 90
        5
 70
     0
 43
0.0
 10
-5.000000000000639
 20
203.7377823305591
 10
-5.000000000000639
 20
199.737782330559
 10
-3.500000000000639
 20
198.737782330559
 10
-2.000000000000639
 20
199.737782330559
 10
-2.000000000000639
 20
203.7377823305599
  0
LWPOLYLINE
  5
E1
330
2
100
AcDbEntity
  8
-PROFILAUSSENKANTET
100
AcDbPolyline
 90
       11
 70
     0
 43
0.0
 10
-40.00000000000018
 20
195.73778233056
 10
39.99999999999989
 20
195.7377823305599
 10
39.99999999999989
 20
199.5435281537925
 42
0.375901963977188
 10
38.26432744018189
 20
201.525983955158
 10
10.66081860045484
 20
203.6939218339731
 42
0.033150018187446
 10
9.999999999999843
 20
203.7377823305599
 10
-10.00000000000015
 20
203.7377823305599
 42
0.0413106451481675
 10
-10.82199493652676
 20
203.6697519497207
 10
-38.32879797461074
 20
201.5163160014583
 42
0.3666293647015965
 10
-40.00000000000018
 20
199.5435281537941
 10
-40.00000000000018
 20
195.73778233056
  0
LWPOLYLINE
  5
E2
330
2
100
AcDbEntity
  8
-NORMTEIL_VERDECKT
100
AcDbPolyline
 90
        5
 70
     0
 43
0.0
 10
3.499999999999829
 20
203.7377823305595
 10
3.499999999999829
 20
199.7377823305595
 10
4.999999999999829
 20
198.7377823305595
 10
6.499999999999829
 20
199.7377823305595
 10
6.499999999999829
 20
203.7377823305595
  0
LINE
  5
E3
330
2
100
AcDbEntity
  8
-NORMTEIL_VERDECKT
100
AcDbLine
 10
3.499999999999829
 20
199.7377823305595
 30
0.0
 11
6.499999999999829
 21
199.7377823305595
 31
0.0
  0
LWPOLYLINE
  5
E4
330
2
100
AcDbEntity
  8
-NORMTEIL_VERDECKT
100
AcDbPolyline
 90
        6
 70
     0
 43
0.0
 10
-3.999999999999843
 20
198.2377823305603
 10
-4.000000000000184
 20
183.4147823305601
 10
-3.32300000000005
 20
182.73778233056
 10
3.323000000000135
 20
182.73778233056
 10
3.999999999999815
 20
183.4147823305601
 10
4.000000000000156
 20
198.2377823305601
  0
LINE
  5
E5
330
2
100
AcDbEntity
  8
-NORMTEIL_VERDECKT
100
AcDbLine
 10
-4.000000000000184
 20
183.4147823305601
 30
0.0
 11
3.999999999999815
 21
183.4147823305601
 31
0.0
  0
LINE
  5
E6
330
2
100
AcDbEntity
  8
-NORMTEIL_VERDECKT
100
AcDbLine
 10
-3.32300000000005
 20
182.73778233056
 30
0.0
 11
-3.322999999999709
 21
198.2377823305603
 31
0.0
  0
LINE
  5
E7
330
2
100
AcDbEntity
  8
-NORMTEIL_VERDECKT
100
AcDbLine
 10
3.323000000000135
 20
182.73778233056
 30
0.0
 11
3.323000000000476
 21
198.2377823305601
 31
0.0
  0
CIRCLE
  5
E8
330
2
100
AcDbEntity
  8
-PROFILAUSSENKANTET
100
AcDbCircle
 10
0.0000000000000151
 20
-0.0000000000000284
 30
0.0
 40
10.0
  0
LINE
  5
E9
330
2
100
AcDbEntity
  8
-SYSTEM
100
AcDbLine
 10
44.99484511455214
 20
0.0000000000001762
 30
0.0
 11
-44.99484511455211
 21
-0.0000000000002331
 31
0.0
  0
LWPOLYLINE
  5
EA
330
2
100
AcDbEntity
  8
-VERGLASUNG
100
AcDbPolyline
 90
        4
 70
     0
 43
0.0
 10
-72.97749106089401
 20
79.99999999999966
 10
77.99999999999989
 20
79.99999999999977
 10
79.99999999999989
 20
77.99999999999977
 10
80.0
 20
-51.97920615538615
  0
LINE
  5
EB
330
2
100
AcDbEntity
  8
-SYSTEM
100
AcDbLine
 10
-0.0000000000002036
 20
44.99484511455212
 30
0.0
 11
0.0000000000002057
 21
-44.99484511455211
 31
0.0
  0
CIRCLE
  5
EC
330
2
100
AcDbEntity
  8
-PROFILAUSSENKANTET
100
AcDbCircle
 10
-3.49999999999997
 20
-6.06217782649108
 30
0.0
 40
1.75
  0
CIRCLE
  5
ED
330
2
100
AcDbEntity
  8
-PROFILAUSSENKANTET
100
AcDbCircle
 10
-3.500000000000013
 20
6.062177826491051
 30
0.0
 40
1.75
  0
CIRCLE
  5
EE
330
2
100
AcDbEntity
  8
-PROFILAUSSENKANTET
100
AcDbCircle
 10
7.0
 20
0.0000000000000284
 30
0.0
 40
1.75
  0
LWPOLYLINE
  5
EF
330
2
100
AcDbEntity
  8
-TEXT2
100
AcDbPolyline
 90
        3
 70
     1
 43
0.0
 10
57.78044804006327
 20
79.99999999999968
 10
61.91438540272432
 20
87.16018954743592
 10
53.64651067740223
 20
87.16018954743592
  0
MTEXT
  5
F1
330
2
100
AcDbEntity
  8
-TEXT2
100
AcDbMText
 10
49.1771357276503
 20
92.21921696654531
 30
0.0
 40
3.5
 41
17.9978
 71
     1
 72
     5
  1
{\fArial|b0|i0|c0|p34;Glaskante}
 73
     1
 44
1.0
1001
ACAD
1000
MTEXTBEGIN
1070
    73
1070
     1
1070
    44
1040
1.0
1070
    74
1070
     0
1000
MTEXTEND
  0
CIRCLE
  5
F2
330
2
100
AcDbEntity
  8
-PROFILAUSSENKANTET
100
AcDbCircle
 10
0.0000000000000009
 20
-0.0000000000000284
 30
0.0
 40
40.0
  0
CIRCLE
  5
F3
330
2
100
AcDbEntity
  8
-SCHRAFFUR
100
AcDbCircle
 10
0.0000000000000009
 20
-0.0000000000000284
 30
0.0
 40
38.3287979746108
  0
ENDSEC
  0
SECTION
  2
OBJECTS
  0
DICTIONARY
  5
7
330
0
100
AcDbDictionary
281
     1
  3
ACAD_COLOR
350
10C
  3
ACAD_GROUP
350
108
  3
ACAD_LAYOUT
350
F6
  3
ACAD_MATERIAL
350
10B
  3
ACAD_MLINESTYLE
350
109
  3
ACAD_PLOTSETTINGS
350
10A
  3
ACAD_PLOTSTYLENAME
350
6
  3
ACDBHEADERROUNDTRIPXREC
350
112
  3
AcDbVariableDictionary
350
10E
  0
DICTIONARY
  5
10C
102
{ACAD_REACTORS
330
7
102
}
330
7
100
AcDbDictionary
281
     1
  0
DICTIONARY
  5
108
102
{ACAD_REACTORS
330
7
102
}
330
7
100
AcDbDictionary
281
     1
  0
DICTIONARY
  5
F6
102
{ACAD_REACTORS
330
7
102
}
330
7
100
AcDbDictionary
281
     1
  3
Layout1
350
FA
  3
Model
350
F5
  0
DICTIONARY
  5
10B
102
{ACAD_REACTORS
330
7
102
}
330
7
100
AcDbDictionary
281
     1
  0
DICTIONARY
  5
109
102
{ACAD_REACTORS
330
7
102
}
330
7
100
AcDbDictionary
281
     1
  3
STANDARD
350
10D
  0
DICTIONARY
  5
10A
102
{ACAD_REACTORS
330
7
102
}
330
7
100
AcDbDictionary
281
     1
  0
ACDBDICTIONARYWDFLT
  5
6
102
{ACAD_REACTORS
330
7
102
}
330
7
100
AcDbDictionary
281
     1
  3
Normal
350
5
100
AcDbDictionaryWithDefault
340
5
  0
DICTIONARY
  5
112
102
{ACAD_REACTORS
330
7
102
}
330
7
100
AcDbDictionary
281
     1
  3
COLORDICT
350
114
  3
MATERIALDICT
350
113
  0
DICTIONARY
  5
10E
102
{ACAD_REACTORS
330
7
102
}
330
7
100
AcDbDictionary
281
     1
  3
DIMASSOC
350
110
  3
HIDETEXT
350
10F
  3
PROJECTNAME
350
111
  0
LAYOUT
  5
FA
102
{ACAD_XDICTIONARY
360
119
102
}
102
{ACAD_REACTORS
330
F6
102
}
330
F6
100
AcDbPlotSettings
  1

  2
HP DeskJet 1120C Printer
  4

  6

 40
0.0
 41
0.0
 42
0.0
 43
0.0
 44
0.0
 45
0.0
 46
0.0
 47
0.0
 48
0.0
 49
0.0
140
0.0
141
0.0
142
1.0
143
1.0
 70
   688
 72
     0
 73
     0
 74
     5
  7
monochrome.ctb
 75
    16
147
1.0
148
0.0
149
0.0
100
AcDbLayout
  1
Layout1
 70
     1
 71
     1
 10
0.0
 20
0.0
 11
12.0
 21
9.0
 12
0.0
 22
0.0
 32
0.0
 14
1.000000000000000E+20
 24
1.000000000000000E+20
 34
1.000000000000000E+20
 15
-1.000000000000000E+20
 25
-1.000000000000000E+20
 35
-1.000000000000000E+20
146
0.0
 13
0.0
 23
0.0
 33
0.0
 16
1.0
 26
0.0
 36
0.0
 17
0.0
 27
1.0
 37
0.0
 76
     0
330
F7
  0
LAYOUT
  5
F5
102
{ACAD_XDICTIONARY
360
117
102
}
102
{ACAD_REACTORS
330
F6
102
}
330
F6
100
AcDbPlotSettings
  1

  2
HP DeskJet 1120C Printer
  4

  6

 40
0.0
 41
0.0
 42
0.0
 43
0.0
 44
0.0
 45
0.0
 46
0.0
 47
0.0
 48
0.0
 49
0.0
140
0.0
141
0.0
142
1.0
143
1.0
 70
  1712
 72
     0
 73
     0
 74
     0
  7
monochrome.ctb
 75
     0
147
1.0
148
0.0
149
0.0
100
AcDbLayout
  1
Model
 70
     1
 71
     0
 10
0.0
 20
0.0
 11
12.0
 21
9.0
 12
0.0
 22
0.0
 32
0.0
 14
0.0
 24
0.0
 34
0.0
 15
0.0
 25
0.0
 35
0.0
146
0.0
 13
0.0
 23
0.0
 33
0.0
 16
1.0
 26
0.0
 36
0.0
 17
0.0
 27
1.0
 37
0.0
 76
     0
330
2
  0
MLINESTYLE
  5
10D
102
{ACAD_REACTORS
330
109
102
}
330
109
100
AcDbMlineStyle
  2
STANDARD
 70
     0
  3

 62
     0
 51
90.0
 52
90.0
 71
     2
 49
0.5
 62
   256
  6
BYLAYER
 49
-0.5
 62
   256
  6
BYLAYER
  0
ACDBPLACEHOLDER
  5
5
102
{ACAD_REACTORS
330
6
102
}
330
6
  0
XRECORD
  5
114
102
{ACAD_REACTORS
330
112
102
}
330
112
100
AcDbXrecord
280
     1
340
10C
  0
XRECORD
  5
113
102
{ACAD_REACTORS
330
112
102
}
330
112
100
AcDbXrecord
280
     1
340
10B
  0
DICTIONARYVAR
  5
110
102
{ACAD_REACTORS
330
10E
102
}
330
10E
100
DictionaryVariables
280
     0
  1
1
  0
DICTIONARYVAR
  5
10F
102
{ACAD_REACTORS
330
10E
102
}
330
10E
100
DictionaryVariables
280
     0
  1
1
  0
DICTIONARYVAR
  5
111
102
{ACAD_REACTORS
330
10E
102
}
330
10E
100
DictionaryVariables
280
     0
  1

  0
DICTIONARY
  5
119
330
FA
100
AcDbDictionary
280
     1
281
     1
  3
ACAD_XREC_ROUNDTRIP
360
11A
  0
DICTIONARY
  5
117
330
F5
100
AcDbDictionary
280
     1
281
     1
  3
ACAD_XREC_ROUNDTRIP
360
118
  0
XRECORD
  5
11A
102
{ACAD_REACTORS
330
119
102
}
330
119
100
AcDbXrecord
280
     1
102
SHADEPLOT
 70
     0
102
SHADEPLOTRESLEVEL
 70
     2
102
SHADEPLOTCUSTOMDPI
 70
   300
  0
XRECORD
  5
118
102
{ACAD_REACTORS
330
117
102
}
330
117
100
AcDbXrecord
280
     1
102
SHADEPLOT
 70
     0
102
SHADEPLOTRESLEVEL
 70
     2
102
SHADEPLOTCUSTOMDPI
 70
   300
  0
ENDSEC
  0
EOF
