  0
SECTION
  2
HEADER
  9
$ACADVER
  1
AC1015
  9
$ACADMAINTVER
 70
    18
  9
$DWGCODEPAGE
  3
ANSI_1252
  9
$INSBASE
 10
-327.8288694144876
 20
0.0
 30
0.0
  9
$EXTMIN
 10
1.000000000000000E+20
 20
1.000000000000000E+20
 30
1.000000000000000E+20
  9
$EXTMAX
 10
0.0
 20
0.0
 30
0.0
  9
$LIMMIN
 10
0.0
 20
0.0
  9
$LIMMAX
 10
12.0
 20
9.0
  9
$ORTHOMODE
 70
     1
  9
$REGENMODE
 70
     1
  9
$FILLMODE
 70
     1
  9
$QTEXTMODE
 70
     0
  9
$MIRRTEXT
 70
     1
  9
$LTSCALE
 40
2.5
  9
$ATTMODE
 70
     1
  9
$TEXTSIZE
 40
0.2
  9
$TRACEWID
 40
0.05
  9
$TEXTSTYLE
  7
STANDARD
  9
$CLAYER
  8
-SCHRAFFUR
  9
$CELTYPE
  6
BYLAYER
  9
$CECOLOR
 62
   256
  9
$CELTSCALE
 40
1.0
  9
$DISPSILH
 70
     0
  9
$DIMSCALE
 40
1.0
  9
$DIMASZ
 40
3.5
  9
$DIMEXO
 40
2.0
  9
$DIMDLI
 40
2.0
  9
$DIMRND
 40
0.0
  9
$DIMDLE
 40
0.0
  9
$DIMEXE
 40
1.5
  9
$DIMTP
 40
0.0
  9
$DIMTM
 40
0.0
  9
$DIMTXT
 40
4.0
  9
$DIMCEN
 40
0.09
  9
$DIMTSZ
 40
0.0
  9
$DIMTOL
 70
     0
  9
$DIMLIM
 70
     0
  9
$DIMTIH
 70
     0
  9
$DIMTOH
 70
     0
  9
$DIMSE1
 70
     0
  9
$DIMSE2
 70
     0
  9
$DIMTAD
 70
     1
  9
$DIMZIN
 70
     9
  9
$DIMBLK
  1

  9
$DIMASO
 70
     1
  9
$DIMSHO
 70
     1
  9
$DIMPOST
  1

  9
$DIMAPOST
  1

  9
$DIMALT
 70
     0
  9
$DIMALTD
 70
     2
  9
$DIMALTF
 40
25.4
  9
$DIMLFAC
 40
1.0
  9
$DIMTOFL
 70
     0
  9
$DIMTVP
 40
0.0
  9
$DIMTIX
 70
     0
  9
$DIMSOXD
 70
     0
  9
$DIMSAH
 70
     0
  9
$DIMBLK1
  1

  9
$DIMBLK2
  1

  9
$DIMSTYLE
  2
1-1PRO
  9
$DIMCLRD
 70
   256
  9
$DIMCLRE
 70
   256
  9
$DIMCLRT
 70
   256
  9
$DIMTFAC
 40
1.0
  9
$DIMGAP
 40
1.0
  9
$DIMJUST
 70
     0
  9
$DIMSD1
 70
     0
  9
$DIMSD2
 70
     0
  9
$DIMTOLJ
 70
     1
  9
$DIMTZIN
 70
     0
  9
$DIMALTZ
 70
     0
  9
$DIMALTTZ
 70
     0
  9
$DIMUPT
 70
     0
  9
$DIMDEC
 70
     1
  9
$DIMTDEC
 70
     1
  9
$DIMALTU
 70
     2
  9
$DIMALTTD
 70
     2
  9
$DIMTXSTY
  7
STANDARD
  9
$DIMAUNIT
 70
     0
  9
$DIMADEC
 70
     0
  9
$DIMALTRND
 40
0.0
  9
$DIMAZIN
 70
     0
  9
$DIMDSEP
 70
    46
  9
$DIMATFIT
 70
     3
  9
$DIMFRAC
 70
     0
  9
$DIMLDRBLK
  1

  9
$DIMLUNIT
 70
     2
  9
$DIMLWD
 70
    -2
  9
$DIMLWE
 70
    -2
  9
$DIMTMOVE
 70
     0
  9
$LUNITS
 70
     2
  9
$LUPREC
 70
     4
  9
$SKETCHINC
 40
0.1
  9
$FILLETRAD
 40
0.0
  9
$AUNITS
 70
     0
  9
$AUPREC
 70
     0
  9
$MENU
  1
.
  9
$ELEVATION
 40
0.0
  9
$PELEVATION
 40
0.0
  9
$THICKNESS
 40
0.0
  9
$LIMCHECK
 70
     0
  9
$CHAMFERA
 40
2.0
  9
$CHAMFERB
 40
2.0
  9
$CHAMFERC
 40
1.0
  9
$CHAMFERD
 40
0.0
  9
$SKPOLY
 70
     0
  9
$TDCREATE
 40
2450923.406402199
  9
$TDUCREATE
 40
2450923.364735533
  9
$TDUPDATE
 40
2453402.343920336
  9
$TDUUPDATE
 40
2453402.302253669
  9
$TDINDWG
 40
2.4313839699
  9
$TDUSRTIMER
 40
2.4313839699
  9
$USRTIMER
 70
     1
  9
$ANGBASE
 50
0.0
  9
$ANGDIR
 70
     0
  9
$PDMODE
 70
     0
  9
$PDSIZE
 40
0.0
  9
$PLINEWID
 40
0.0
  9
$SPLFRAME
 70
     0
  9
$SPLINETYPE
 70
     6
  9
$SPLINESEGS
 70
    50
  9
$HANDSEED
  5
118
  9
$SURFTAB1
 70
     6
  9
$SURFTAB2
 70
     6
  9
$SURFTYPE
 70
     6
  9
$SURFU
 70
     6
  9
$SURFV
 70
     6
  9
$UCSBASE
  2

  9
$UCSNAME
  2

  9
$UCSORG
 10
0.0
 20
0.0
 30
0.0
  9
$UCSXDIR
 10
1.0
 20
0.0
 30
0.0
  9
$UCSYDIR
 10
0.0
 20
1.0
 30
0.0
  9
$UCSORTHOREF
  2

  9
$UCSORTHOVIEW
 70
     0
  9
$UCSORGTOP
 10
0.0
 20
0.0
 30
0.0
  9
$UCSORGBOTTOM
 10
0.0
 20
0.0
 30
0.0
  9
$UCSORGLEFT
 10
0.0
 20
0.0
 30
0.0
  9
$UCSORGRIGHT
 10
0.0
 20
0.0
 30
0.0
  9
$UCSORGFRONT
 10
0.0
 20
0.0
 30
0.0
  9
$UCSORGBACK
 10
0.0
 20
0.0
 30
0.0
  9
$PUCSBASE
  2

  9
$PUCSNAME
  2

  9
$PUCSORG
 10
0.0
 20
0.0
 30
0.0
  9
$PUCSXDIR
 10
1.0
 20
0.0
 30
0.0
  9
$PUCSYDIR
 10
0.0
 20
1.0
 30
0.0
  9
$PUCSORTHOREF
  2

  9
$PUCSORTHOVIEW
 70
     0
  9
$PUCSORGTOP
 10
0.0
 20
0.0
 30
0.0
  9
$PUCSORGBOTTOM
 10
0.0
 20
0.0
 30
0.0
  9
$PUCSORGLEFT
 10
0.0
 20
0.0
 30
0.0
  9
$PUCSORGRIGHT
 10
0.0
 20
0.0
 30
0.0
  9
$PUCSORGFRONT
 10
0.0
 20
0.0
 30
0.0
  9
$PUCSORGBACK
 10
0.0
 20
0.0
 30
0.0
  9
$USERI1
 70
     0
  9
$USERI2
 70
     0
  9
$USERI3
 70
     0
  9
$USERI4
 70
     0
  9
$USERI5
 70
     0
  9
$USERR1
 40
0.0
  9
$USERR2
 40
0.0
  9
$USERR3
 40
0.0
  9
$USERR4
 40
0.0
  9
$USERR5
 40
0.0
  9
$WORLDVIEW
 70
     1
  9
$SHADEDGE
 70
     3
  9
$SHADEDIF
 70
    70
  9
$TILEMODE
 70
     1
  9
$MAXACTVP
 70
    48
  9
$PINSBASE
 10
0.0
 20
0.0
 30
0.0
  9
$PLIMCHECK
 70
     0
  9
$PEXTMIN
 10
1.000000000000000E+20
 20
1.000000000000000E+20
 30
1.000000000000000E+20
  9
$PEXTMAX
 10
-1.000000000000000E+20
 20
-1.000000000000000E+20
 30
-1.000000000000000E+20
  9
$PLIMMIN
 10
0.0
 20
0.0
  9
$PLIMMAX
 10
12.0
 20
9.0
  9
$UNITMODE
 70
     0
  9
$VISRETAIN
 70
     1
  9
$PLINEGEN
 70
     0
  9
$PSLTSCALE
 70
     1
  9
$TREEDEPTH
 70
  3020
  9
$CMLSTYLE
  2
STANDARD
  9
$CMLJUST
 70
     0
  9
$CMLSCALE
 40
1.0
  9
$PROXYGRAPHICS
 70
     1
  9
$MEASUREMENT
 70
     0
  9
$CELWEIGHT
370
    -1
  9
$ENDCAPS
280
     0
  9
$JOINSTYLE
280
     0
  9
$LWDISPLAY
290
     0
  9
$INSUNITS
 70
     0
  9
$HYPERLINKBASE
  1

  9
$STYLESHEET
  1

  9
$XEDIT
290
     1
  9
$CEPSNTYPE
380
     0
  9
$PSTYLEMODE
290
     1
  9
$FINGERPRINTGUID
  2
{69C2E6C6-FBFF-11D4-9C1F-F0970D17765E}
  9
$VERSIONGUID
  2
{63DF2409-6055-4931-B0B7-5F44694B67EF}
  9
$EXTNAMES
290
     1
  9
$PSVPSCALE
 40
0.0
  9
$OLESTARTUP
290
     0
  0
ENDSEC
  0
SECTION
  2
CLASSES
  0
CLASS
  1
DICTIONARYVAR
  2
AcDbDictionaryVar
  3
ObjectDBX Classes
 90
        0
280
     0
281
     0
  0
CLASS
  1
IMAGE
  2
AcDbRasterImage
  3
ISM
 90
    32895
280
     0
281
     1
  0
CLASS
  1
IMAGEDEF_REACTOR
  2
AcDbRasterImageDefReactor
  3
ISM
 90
    32769
280
     0
281
     0
  0
CLASS
  1
IMAGEDEF
  2
AcDbRasterImageDef
  3
ISM
 90
    32768
280
     0
281
     0
  0
CLASS
  1
RASTERVARIABLES
  2
AcDbRasterVariables
  3
ISM
 90
    32768
280
     0
281
     0
  0
CLASS
  1
ACDBDICTIONARYWDFLT
  2
AcDbDictionaryWithDefault
  3
ObjectDBX Classes
 90
        0
280
     0
281
     0
  0
CLASS
  1
ACDBPLACEHOLDER
  2
AcDbPlaceHolder
  3
ObjectDBX Classes
 90
        0
280
     0
281
     0
  0
CLASS
  1
LAYOUT
  2
AcDbLayout
  3
ObjectDBX Classes
 90
        0
280
     0
281
     0
  0
ENDSEC
  0
SECTION
  2
TABLES
  0
TABLE
  2
VPORT
  5
100
330
0
100
AcDbSymbolTable
 70
     1
  0
VPORT
  5
101
330
100
100
AcDbSymbolTableRecord
100
AcDbViewportTableRecord
  2
*Active
 70
     0
 10
0.0
 20
0.0
 11
1.0
 21
1.0
 12
124.4487713430514
 22
141.374723791335
 13
0.0
 23
0.0
 14
0.5
 24
0.5
 15
0.5
 25
0.5
 16
0.0
 26
0.0
 36
1.0
 17
0.0
 27
0.0
 37
0.0
 40
276.1260806116271
 41
1.549148099606815
 42
50.0
 43
0.0
 44
0.0
 50
0.0
 51
0.0
 71
     0
 72
   100
 73
     1
 74
     1
 75
     0
 76
     0
 77
     0
 78
     0
281
     0
 65
     1
110
0.0
120
0.0
130
0.0
111
1.0
121
0.0
131
0.0
112
0.0
122
1.0
132
0.0
 79
     0
146
0.0
  0
ENDTAB
  0
TABLE
  2
LTYPE
  5
FB
330
0
100
AcDbSymbolTable
 70
     3
  0
LTYPE
  5
FC
330
FB
100
AcDbSymbolTableRecord
100
AcDbLinetypeTableRecord
  2
BYBLOCK
 70
     0
  3

 72
    65
 73
     0
 40
0.0
  0
LTYPE
  5
FD
330
FB
100
AcDbSymbolTableRecord
100
AcDbLinetypeTableRecord
  2
BYLAYER
 70
     0
  3

 72
    65
 73
     0
 40
0.0
  0
LTYPE
  5
8
330
FB
100
AcDbSymbolTableRecord
100
AcDbLinetypeTableRecord
  2
CONTINUOUS
 70
     0
  3
Solid line
 72
    65
 73
     0
 40
0.0
  0
LTYPE
  5
B
330
FB
100
AcDbSymbolTableRecord
100
AcDbLinetypeTableRecord
  2
MITTEX2
 70
     0
  3
Mitte (2x) ________  __  ________  __  _____
 72
    65
 73
     4
 40
4.0
 49
2.5
 74
     0
 49
-0.5
 74
     0
 49
0.5
 74
     0
 49
-0.5
 74
     0
  0
LTYPE
  5
5C
330
FB
100
AcDbSymbolTableRecord
100
AcDbLinetypeTableRecord
  2
STRICHLINIEX2
 70
     0
  3
Strichlinie (2x) ____  ____  ____  ____  ____  
 72
    65
 73
     2
 40
1.5
 49
1.0
 74
     0
 49
-0.5
 74
     0
  0
ENDTAB
  0
TABLE
  2
LAYER
  5
F8
330
0
100
AcDbSymbolTable
 70
    11
  0
LAYER
  5
4
330
F8
100
AcDbSymbolTableRecord
100
AcDbLayerTableRecord
  2
0
 70
     0
 62
     7
  6
CONTINUOUS
370
    -3
390
5
  0
LAYER
  5
8A
330
F8
100
AcDbSymbolTableRecord
100
AcDbLayerTableRecord
  2
-PROFILAUSSENKANTET
 70
     0
 62
     4
  6
CONTINUOUS
370
    -3
390
5
  0
LAYER
  5
EB
330
F8
100
AcDbSymbolTableRecord
100
AcDbLayerTableRecord
  2
-DICHTUNG
 70
     0
 62
     3
  6
CONTINUOUS
370
    -3
390
5
  0
LAYER
  5
69
330
F8
100
AcDbSymbolTableRecord
100
AcDbLayerTableRecord
  2
-NORMTEIL
 70
     0
 62
     6
  6
CONTINUOUS
370
    -3
390
5
  0
LAYER
  5
5B
330
F8
100
AcDbSymbolTableRecord
100
AcDbLayerTableRecord
  2
-NORMTEIL_VERDECKT
 70
     0
 62
     9
  6
STRICHLINIEX2
370
    -3
390
5
  0
LAYER
  5
1A
330
F8
100
AcDbSymbolTableRecord
100
AcDbLayerTableRecord
  2
DEFPOINTS
 70
     0
 62
     7
  6
CONTINUOUS
290
     0
370
    -3
390
5
  0
LAYER
  5
A
330
F8
100
AcDbSymbolTableRecord
100
AcDbLayerTableRecord
  2
-SYSTEM
 70
     0
 62
     2
  6
MITTEX2
370
    -3
390
5
  0
LAYER
  5
DF
330
F8
100
AcDbSymbolTableRecord
100
AcDbLayerTableRecord
  2
-TEXT2
 70
     0
 62
     3
  6
CONTINUOUS
370
    -3
390
5
  0
LAYER
  5
D
330
F8
100
AcDbSymbolTableRecord
100
AcDbLayerTableRecord
  2
-TEXT3
 70
     0
 62
     2
  6
CONTINUOUS
370
    -3
390
5
  0
LAYER
  5
A7
330
F8
100
AcDbSymbolTableRecord
100
AcDbLayerTableRecord
  2
-SCHRAFFUR
 70
     0
 62
     9
  6
CONTINUOUS
370
    -3
390
5
  0
LAYER
  5
2D
330
F8
100
AcDbSymbolTableRecord
100
AcDbLayerTableRecord
  2
-VERGLASUNG
 70
     0
 62
     1
  6
CONTINUOUS
370
    -3
390
5
  0
ENDTAB
  0
TABLE
  2
STYLE
  5
F9
330
0
100
AcDbSymbolTable
 70
     1
  0
STYLE
  5
E
330
F9
100
AcDbSymbolTableRecord
100
AcDbTextStyleTableRecord
  2
STANDARD
 70
     0
 40
0.0
 41
1.0
 50
0.0
 71
     0
 42
0.2
  3
GOTHIC.TTF
  4

1001
ACAD
1000
Century Gothic
1071
       34
  0
ENDTAB
  0
TABLE
  2
VIEW
  5
FE
330
0
100
AcDbSymbolTable
 70
     0
  0
ENDTAB
  0
TABLE
  2
UCS
  5
FF
330
0
100
AcDbSymbolTable
 70
     0
  0
ENDTAB
  0
TABLE
  2
APPID
  5
102
330
0
100
AcDbSymbolTable
 70
     1
  0
APPID
  5
F
330
102
100
AcDbSymbolTableRecord
100
AcDbRegAppTableRecord
  2
ACAD
 70
     0
  0
ENDTAB
  0
TABLE
  2
DIMSTYLE
  5
103
330
0
100
AcDbSymbolTable
 70
     2
100
AcDbDimStyleTable
 71
     2
340
B2
340
10
  0
DIMSTYLE
105
10
102
{ACAD_REACTORS
330
C
330
49
330
2F
330
3C
330
1E
330
6D
330
99
102
}
330
103
100
AcDbSymbolTableRecord
100
AcDbDimStyleTableRecord
  2
1-1PRO
 70
     0
 41
3.5
 42
2.0
 43
2.0
 44
1.5
 73
     0
 74
     0
 77
     1
 78
     9
140
4.0
147
1.0
176
   256
177
   256
178
   256
271
     1
272
     1
340
E
  0
DIMSTYLE
105
B2
102
{ACAD_REACTORS
330
B1
330
C5
102
}
330
103
100
AcDbSymbolTableRecord
100
AcDbDimStyleTableRecord
  2
1-1PRO-PU
 70
     0
 41
3.5
 42
2.0
 43
2.0
 44
1.5
 73
     0
 74
     0
 77
     1
 78
     9
140
4.0
147
1.0
173
     1
176
   256
177
   256
178
   256
271
     1
272
     1
340
E
344
B3
  0
ENDTAB
  0
TABLE
  2
BLOCK_RECORD
  5
1
330
0
100
AcDbSymbolTable
 70
    11
  0
BLOCK_RECORD
  5
2
330
1
100
AcDbSymbolTableRecord
100
AcDbBlockTableRecord
  2
*MODEL_SPACE
340
F2
  0
BLOCK_RECORD
  5
F4
330
1
100
AcDbSymbolTableRecord
100
AcDbBlockTableRecord
  2
*PAPER_SPACE
340
F7
  0
BLOCK_RECORD
  5
4A
330
1
100
AcDbSymbolTableRecord
100
AcDbBlockTableRecord
  2
*D0
340
0
  0
BLOCK_RECORD
  5
11
330
1
100
AcDbSymbolTableRecord
100
AcDbBlockTableRecord
  2
*D1
340
0
  0
BLOCK_RECORD
  5
1F
330
1
100
AcDbSymbolTableRecord
100
AcDbBlockTableRecord
  2
*D2
340
0
  0
BLOCK_RECORD
  5
30
330
1
100
AcDbSymbolTableRecord
100
AcDbBlockTableRecord
  2
*D3
340
0
  0
BLOCK_RECORD
  5
6E
330
1
100
AcDbSymbolTableRecord
100
AcDbBlockTableRecord
  2
*D4
340
0
  0
BLOCK_RECORD
  5
3D
330
1
100
AcDbSymbolTableRecord
100
AcDbBlockTableRecord
  2
*D5
340
0
  0
BLOCK_RECORD
  5
9A
330
1
100
AcDbSymbolTableRecord
100
AcDbBlockTableRecord
  2
*D6
340
0
  0
BLOCK_RECORD
  5
B3
330
1
100
AcDbSymbolTableRecord
100
AcDbBlockTableRecord
  2
_DOTBLANK
340
0
102
{BLKREFS
331
BF
331
CD
102
}
  0
BLOCK_RECORD
  5
B8
330
1
100
AcDbSymbolTableRecord
100
AcDbBlockTableRecord
  2
*D8
340
0
  0
BLOCK_RECORD
  5
C6
330
1
100
AcDbSymbolTableRecord
100
AcDbBlockTableRecord
  2
*D9
340
0
  0
BLOCK_RECORD
  5
D4
330
1
100
AcDbSymbolTableRecord
100
AcDbBlockTableRecord
  2
ANSICHT52
340
0
102
{BLKREFS
331
D3
102
}
  0
ENDTAB
  0
ENDSEC
  0
SECTION
  2
BLOCKS
  0
BLOCK
  5
3
330
2
100
AcDbEntity
  8
0
100
AcDbBlockBegin
  2
*MODEL_SPACE
 70
     0
 10
0.0
 20
0.0
 30
0.0
  3
*MODEL_SPACE
  1

  0
ENDBLK
  5
F1
330
2
100
AcDbEntity
  8
0
100
AcDbBlockEnd
  0
BLOCK
  5
F5
330
F4
100
AcDbEntity
 67
     1
  8
0
100
AcDbBlockBegin
  2
*PAPER_SPACE
 70
     0
 10
0.0
 20
0.0
 30
0.0
  3
*PAPER_SPACE
  1

  0
ENDBLK
  5
F6
330
F4
100
AcDbEntity
 67
     1
  8
0
100
AcDbBlockEnd
  0
BLOCK
  5
4B
330
4A
100
AcDbEntity
  8
0
100
AcDbBlockBegin
  2
*D0
 70
     1
 10
0.0
 20
0.0
 30
0.0
  3
*D0
  1

  0
LINE
  5
4C
330
4A
100
AcDbEntity
  8
-TEXT3
370
    -2
100
AcDbLine
 10
69.23253393495532
 20
249.1081682629022
 30
0.0
 11
64.64120891084974
 21
249.1081682629022
 31
0.0
  0
LINE
  5
4D
330
4A
100
AcDbEntity
  8
-TEXT3
370
    -2
100
AcDbLine
 10
69.23253393495532
 20
237.1081682629016
 30
0.0
 11
64.64120891084974
 21
237.1081682629016
 31
0.0
  0
LINE
  5
4E
330
4A
100
AcDbEntity
  8
-TEXT3
370
    -2
100
AcDbLine
 10
66.14120891084974
 20
245.6081682629023
 30
0.0
 11
66.14120891084974
 21
240.6081682629016
 31
0.0
  0
SOLID
  5
4F
330
4A
100
AcDbEntity
  8
-TEXT3
100
AcDbTrace
 10
65.55787557751641
 20
245.6081682629023
 30
0.0
 11
66.72454224418307
 21
245.6081682629023
 31
0.0
 12
66.14120891084974
 22
249.1081682629022
 32
0.0
 13
66.14120891084974
 23
249.1081682629022
 33
0.0
  0
SOLID
  5
50
330
4A
100
AcDbEntity
  8
-TEXT3
100
AcDbTrace
 10
65.55787557751641
 20
240.6081682629016
 30
0.0
 11
66.72454224418307
 21
240.6081682629016
 31
0.0
 12
66.14120891084974
 22
237.1081682629016
 32
0.0
 13
66.14120891084974
 23
237.1081682629016
 33
0.0
  0
MTEXT
  5
51
330
4A
100
AcDbEntity
  8
-TEXT3
100
AcDbMText
 10
63.04059708216173
 20
243.108168262902
 30
0.0
 40
4.0
 41
0.0
 71
     5
 72
     1
  1
\A1;G
 11
0.0000000000000001
 21
1.0
 31
0.0
 73
     1
 44
1.0
1001
ACAD
1000
MTEXTBEGIN
1070
    73
1070
     1
1070
    44
1040
1.0
1070
    74
1070
     0
1000
MTEXTEND
  0
POINT
  5
52
330
4A
100
AcDbEntity
  8
DEFPOINTS
 62
     0
100
AcDbPoint
 10
71.23253393495531
 20
249.1081682629022
 30
0.0
  0
POINT
  5
53
330
4A
100
AcDbEntity
  8
DEFPOINTS
 62
     0
100
AcDbPoint
 10
71.23253393495531
 20
237.1081682629016
 30
0.0
  0
POINT
  5
54
330
4A
100
AcDbEntity
  8
DEFPOINTS
 62
     0
100
AcDbPoint
 10
66.14120891084974
 20
237.1081682629016
 30
0.0
  0
ENDBLK
  5
55
330
4A
100
AcDbEntity
  8
0
100
AcDbBlockEnd
  0
BLOCK
  5
12
330
11
100
AcDbEntity
  8
0
100
AcDbBlockBegin
  2
*D1
 70
     1
 10
0.0
 20
0.0
 30
0.0
  3
*D1
  1

  0
LINE
  5
13
330
11
100
AcDbEntity
  8
-TEXT3
370
    -2
100
AcDbLine
 10
94.93687142290225
 20
257.9139140861357
 30
0.0
 11
94.93687142290225
 21
273.0706546201316
 31
0.0
  0
LINE
  5
14
330
11
100
AcDbEntity
  8
-TEXT3
370
    -2
100
AcDbLine
 10
146.9368714229048
 20
257.9139140861355
 30
0.0
 11
146.9368714229048
 21
273.0706546201316
 31
0.0
  0
LINE
  5
15
330
11
100
AcDbEntity
  8
-TEXT3
370
    -2
100
AcDbLine
 10
98.43687142290225
 20
271.5706546201316
 30
0.0
 11
143.4368714229048
 21
271.5706546201316
 31
0.0
  0
SOLID
  5
16
330
11
100
AcDbEntity
  8
-TEXT3
100
AcDbTrace
 10
98.43687142290225
 20
272.1539879534649
 30
0.0
 11
98.43687142290225
 21
270.9873212867983
 31
0.0
 12
94.93687142290225
 22
271.5706546201316
 32
0.0
 13
94.93687142290225
 23
271.5706546201316
 33
0.0
  0
SOLID
  5
17
330
11
100
AcDbEntity
  8
-TEXT3
100
AcDbTrace
 10
143.4368714229048
 20
272.1539879534649
 30
0.0
 11
143.4368714229048
 21
270.9873212867983
 31
0.0
 12
146.9368714229048
 22
271.5706546201316
 32
0.0
 13
146.9368714229048
 23
271.5706546201316
 33
0.0
  0
MTEXT
  5
18
330
11
100
AcDbEntity
  8
-TEXT3
100
AcDbMText
 10
120.9368714229035
 20
274.7963514250263
 30
0.0
 40
4.0
 41
0.0
 71
     5
 72
     1
  1
\A1;%%c52
 73
     1
 44
1.0
1001
ACAD
1000
MTEXTBEGIN
1070
    73
1070
     1
1070
    44
1040
1.0
1070
    74
1070
     0
1000
MTEXTEND
  0
POINT
  5
19
330
11
100
AcDbEntity
  8
DEFPOINTS
 62
     0
100
AcDbPoint
 10
94.93687142290225
 20
255.9139140861357
 30
0.0
  0
POINT
  5
1B
330
11
100
AcDbEntity
  8
DEFPOINTS
 62
     0
100
AcDbPoint
 10
146.9368714229048
 20
255.9139140861355
 30
0.0
  0
POINT
  5
1C
330
11
100
AcDbEntity
  8
DEFPOINTS
 62
     0
100
AcDbPoint
 10
146.9368714229048
 20
271.5706546201316
 30
0.0
  0
ENDBLK
  5
1D
330
11
100
AcDbEntity
  8
0
100
AcDbBlockEnd
  0
BLOCK
  5
20
330
1F
100
AcDbEntity
  8
0
100
AcDbBlockBegin
  2
*D2
 70
     1
 10
0.0
 20
0.0
 30
0.0
  3
*D2
  1

  0
LINE
  5
21
330
1F
100
AcDbEntity
  8
-TEXT3
370
    -2
100
AcDbLine
 10
69.23253393495532
 20
237.1081682629016
 30
0.0
 11
64.64120891084978
 21
237.1081682629016
 31
0.0
  0
LINE
  5
22
330
1F
100
AcDbEntity
  8
-TEXT3
370
    -2
100
AcDbLine
 10
92.93687142290229
 20
233.1081682629015
 30
0.0
 11
64.64120891084978
 21
233.1081682629015
 31
0.0
  0
LINE
  5
23
330
1F
100
AcDbEntity
  8
-TEXT3
370
    -2
100
AcDbLine
 10
66.14120891084978
 20
240.6081682629016
 30
0.0
 11
66.14120891084978
 21
244.1081682629016
 31
0.0
  0
LINE
  5
24
330
1F
100
AcDbEntity
  8
-TEXT3
370
    -2
100
AcDbLine
 10
66.14120891084978
 20
229.6081682629015
 30
0.0
 11
66.14120891084978
 21
226.1081682629015
 31
0.0
  0
SOLID
  5
25
330
1F
100
AcDbEntity
  8
-TEXT3
100
AcDbTrace
 10
65.55787557751646
 20
240.6081682629016
 30
0.0
 11
66.72454224418311
 21
240.6081682629016
 31
0.0
 12
66.14120891084978
 22
237.1081682629016
 32
0.0
 13
66.14120891084978
 23
237.1081682629016
 33
0.0
  0
SOLID
  5
26
330
1F
100
AcDbEntity
  8
-TEXT3
100
AcDbTrace
 10
65.55787557751646
 20
229.6081682629015
 30
0.0
 11
66.72454224418311
 21
229.6081682629015
 31
0.0
 12
66.14120891084978
 22
233.1081682629015
 32
0.0
 13
66.14120891084978
 23
233.1081682629015
 33
0.0
  0
MTEXT
  5
27
330
1F
100
AcDbEntity
  8
-TEXT3
100
AcDbMText
 10
63.09090299650576
 20
235.1081682629016
 30
0.0
 40
4.0
 41
0.0
 71
     5
 72
     1
  1
\A1;4
 11
0.0000000000000001
 21
1.0
 31
0.0
 73
     1
 44
1.0
1001
ACAD
1000
MTEXTBEGIN
1070
    73
1070
     1
1070
    44
1040
1.0
1070
    74
1070
     0
1000
MTEXTEND
  0
POINT
  5
28
330
1F
100
AcDbEntity
  8
DEFPOINTS
 62
     0
100
AcDbPoint
 10
71.23253393495531
 20
237.1081682629016
 30
0.0
  0
POINT
  5
29
330
1F
100
AcDbEntity
  8
DEFPOINTS
 62
     0
100
AcDbPoint
 10
94.9368714229023
 20
233.1081682629015
 30
0.0
  0
POINT
  5
2A
330
1F
100
AcDbEntity
  8
DEFPOINTS
 62
     0
100
AcDbPoint
 10
66.14120891084978
 20
233.1081682629015
 30
0.0
  0
ENDBLK
  5
2B
330
1F
100
AcDbEntity
  8
0
100
AcDbBlockEnd
  0
BLOCK
  5
31
330
30
100
AcDbEntity
  8
0
100
AcDbBlockBegin
  2
*D3
 70
     1
 10
0.0
 20
0.0
 30
0.0
  3
*D3
  1

  0
LINE
  5
32
330
30
100
AcDbEntity
  8
-TEXT3
370
    -2
100
AcDbLine
 10
83.64120891084951
 20
233.1081682629015
 30
0.0
 11
64.64120891084964
 21
233.1081682629015
 31
0.0
  0
LINE
  5
33
330
30
100
AcDbEntity
  8
-TEXT3
370
    -2
100
AcDbLine
 10
104.9368714229018
 20
198.1081682629015
 30
0.0
 11
64.64120891084963
 21
198.1081682629015
 31
0.0
  0
LINE
  5
34
330
30
100
AcDbEntity
  8
-TEXT3
370
    -2
100
AcDbLine
 10
66.14120891084964
 20
229.6081682629015
 30
0.0
 11
66.14120891084962
 21
201.6081682629015
 31
0.0
  0
SOLID
  5
35
330
30
100
AcDbEntity
  8
-TEXT3
100
AcDbTrace
 10
65.55787557751632
 20
229.6081682629015
 30
0.0
 11
66.72454224418297
 21
229.6081682629015
 31
0.0
 12
66.14120891084964
 22
233.1081682629015
 32
0.0
 13
66.14120891084964
 23
233.1081682629015
 33
0.0
  0
SOLID
  5
36
330
30
100
AcDbEntity
  8
-TEXT3
100
AcDbTrace
 10
65.5578755775163
 20
201.6081682629015
 30
0.0
 11
66.72454224418295
 21
201.6081682629015
 31
0.0
 12
66.14120891084962
 22
198.1081682629015
 32
0.0
 13
66.14120891084962
 23
198.1081682629015
 33
0.0
  0
MTEXT
  5
37
330
30
100
AcDbEntity
  8
-TEXT3
100
AcDbMText
 10
63.04059708216163
 20
215.6081682629015
 30
0.0
 40
4.0
 41
0.0
 71
     5
 72
     1
  1
\A1;35
 11
0.0000000000000001
 21
1.0
 31
0.0
 73
     1
 44
1.0
1001
ACAD
1000
MTEXTBEGIN
1070
    73
1070
     1
1070
    44
1040
1.0
1070
    74
1070
     0
1000
MTEXTEND
  0
POINT
  5
38
330
30
100
AcDbEntity
  8
DEFPOINTS
 62
     0
100
AcDbPoint
 10
85.64120891084952
 20
233.1081682629015
 30
0.0
  0
POINT
  5
39
330
30
100
AcDbEntity
  8
DEFPOINTS
 62
     0
100
AcDbPoint
 10
106.9368714229018
 20
198.1081682629015
 30
0.0
  0
POINT
  5
3A
330
30
100
AcDbEntity
  8
DEFPOINTS
 62
     0
100
AcDbPoint
 10
66.14120891084962
 20
198.1081682629015
 30
0.0
  0
ENDBLK
  5
3B
330
30
100
AcDbEntity
  8
0
100
AcDbBlockEnd
  0
BLOCK
  5
6F
330
6E
100
AcDbEntity
  8
0
100
AcDbBlockBegin
  2
*D4
 70
     1
 10
0.0
 20
0.0
 30
0.0
  3
*D4
  1

  0
LINE
  5
70
330
6E
100
AcDbEntity
  8
-TEXT3
370
    -2
100
AcDbLine
 10
114.9368714229501
 20
167.1236682629015
 30
0.0
 11
114.9368714229501
 21
152.2185469786652
 31
0.0
  0
LINE
  5
71
330
6E
100
AcDbEntity
  8
-TEXT3
370
    -2
100
AcDbLine
 10
126.9368714229022
 20
167.1236682629015
 30
0.0
 11
126.9368714229022
 21
152.2185469786652
 31
0.0
  0
LINE
  5
72
330
6E
100
AcDbEntity
  8
-TEXT3
370
    -2
100
AcDbLine
 10
118.4368714229501
 20
153.7185469786652
 30
0.0
 11
123.4368714229022
 21
153.7185469786652
 31
0.0
  0
LINE
  5
73
330
6E
100
AcDbEntity
  8
-TEXT3
370
    -2
100
AcDbLine
 10
126.9368714229022
 20
153.7185469786652
 30
0.0
 11
166.2342881462196
 21
153.7185469786652
 31
0.0
  0
SOLID
  5
74
330
6E
100
AcDbEntity
  8
-TEXT3
100
AcDbTrace
 10
118.4368714229501
 20
154.3018803119985
 30
0.0
 11
118.4368714229501
 21
153.1352136453318
 31
0.0
 12
114.9368714229501
 22
153.7185469786652
 32
0.0
 13
114.9368714229501
 23
153.7185469786652
 33
0.0
  0
SOLID
  5
75
330
6E
100
AcDbEntity
  8
-TEXT3
100
AcDbTrace
 10
123.4368714229022
 20
154.3018803119985
 30
0.0
 11
123.4368714229022
 21
153.1352136453318
 31
0.0
 12
126.9368714229022
 22
153.7185469786652
 32
0.0
 13
126.9368714229022
 23
153.7185469786652
 33
0.0
  0
MTEXT
  5
76
330
6E
100
AcDbEntity
  8
-TEXT3
100
AcDbMText
 10
148.3355797845609
 20
156.8191588073531
 30
0.0
 40
4.0
 41
0.0
 71
     5
 72
     1
  1
\A1;M12 od. M16
 73
     1
 44
1.0
1001
ACAD
1000
MTEXTBEGIN
1070
    73
1070
     1
1070
    44
1040
1.0
1070
    74
1070
     0
1000
MTEXTEND
  0
POINT
  5
77
330
6E
100
AcDbEntity
  8
DEFPOINTS
 62
     0
100
AcDbPoint
 10
114.9368714229501
 20
169.1236682629015
 30
0.0
  0
POINT
  5
78
330
6E
100
AcDbEntity
  8
DEFPOINTS
 62
     0
100
AcDbPoint
 10
126.9368714229022
 20
169.1236682629015
 30
0.0
  0
POINT
  5
79
330
6E
100
AcDbEntity
  8
DEFPOINTS
 62
     0
100
AcDbPoint
 10
126.9368714229022
 20
153.7185469786652
 30
0.0
  0
ENDBLK
  5
7A
330
6E
100
AcDbEntity
  8
0
100
AcDbBlockEnd
  0
BLOCK
  5
3E
330
3D
100
AcDbEntity
  8
0
100
AcDbBlockBegin
  2
*D5
 70
     1
 10
0.0
 20
0.0
 30
0.0
  3
*D5
  1

  0
LINE
  5
3F
330
3D
100
AcDbEntity
  8
-TEXT3
370
    -2
100
AcDbLine
 10
104.9368714229018
 20
198.1081682629015
 30
0.0
 11
64.64120891084964
 21
198.1081682629015
 31
0.0
  0
LINE
  5
40
330
3D
100
AcDbEntity
  8
-TEXT3
370
    -2
100
AcDbLine
 10
113.9523714229021
 20
168.1081682629015
 30
0.0
 11
64.64120891084964
 21
168.1081682629015
 31
0.0
  0
LINE
  5
41
330
3D
100
AcDbEntity
  8
-TEXT3
370
    -2
100
AcDbLine
 10
66.14120891084964
 20
194.6081682629015
 30
0.0
 11
66.14120891084964
 21
171.6081682629015
 31
0.0
  0
SOLID
  5
42
330
3D
100
AcDbEntity
  8
-TEXT3
100
AcDbTrace
 10
65.55787557751632
 20
194.6081682629015
 30
0.0
 11
66.72454224418297
 21
194.6081682629015
 31
0.0
 12
66.14120891084964
 22
198.1081682629015
 32
0.0
 13
66.14120891084964
 23
198.1081682629015
 33
0.0
  0
SOLID
  5
43
330
3D
100
AcDbEntity
  8
-TEXT3
100
AcDbTrace
 10
65.55787557751632
 20
171.6081682629015
 30
0.0
 11
66.72454224418297
 21
171.6081682629015
 31
0.0
 12
66.14120891084964
 22
168.1081682629015
 32
0.0
 13
66.14120891084964
 23
168.1081682629015
 33
0.0
  0
MTEXT
  5
44
330
3D
100
AcDbEntity
  8
-TEXT3
100
AcDbMText
 10
63.14120891084961
 20
183.1081682629015
 30
0.0
 40
4.0
 41
0.0
 71
     5
 72
     1
  1
\A1;D
 11
0.0000000000000001
 21
1.0
 31
0.0
 73
     1
 44
1.0
1001
ACAD
1000
MTEXTBEGIN
1070
    73
1070
     1
1070
    44
1040
1.0
1070
    74
1070
     0
1000
MTEXTEND
  0
POINT
  5
45
330
3D
100
AcDbEntity
  8
DEFPOINTS
 62
     0
100
AcDbPoint
 10
106.9368714229018
 20
198.1081682629015
 30
0.0
  0
POINT
  5
46
330
3D
100
AcDbEntity
  8
DEFPOINTS
 62
     0
100
AcDbPoint
 10
115.9523714229021
 20
168.1081682629015
 30
0.0
  0
POINT
  5
47
330
3D
100
AcDbEntity
  8
DEFPOINTS
 62
     0
100
AcDbPoint
 10
66.14120891084964
 20
168.1081682629015
 30
0.0
  0
ENDBLK
  5
48
330
3D
100
AcDbEntity
  8
0
100
AcDbBlockEnd
  0
BLOCK
  5
9B
330
9A
100
AcDbEntity
  8
0
100
AcDbBlockBegin
  2
*D6
 70
     1
 10
0.0
 20
0.0
 30
0.0
  3
*D6
  1

  0
LINE
  5
9C
330
9A
100
AcDbEntity
  8
-TEXT3
370
    -2
100
AcDbLine
 10
105.9368714229018
 20
197.1081682629015
 30
0.0
 11
105.9368714229018
 21
187.6081682629019
 31
0.0
  0
LINE
  5
9D
330
9A
100
AcDbEntity
  8
-TEXT3
370
    -2
100
AcDbLine
 10
135.9368714229022
 20
197.1081682629019
 30
0.0
 11
135.9368714229022
 21
187.6081682629019
 31
0.0
  0
LINE
  5
9E
330
9A
100
AcDbEntity
  8
-TEXT3
370
    -2
100
AcDbLine
 10
109.4368714229018
 20
189.1081682629019
 30
0.0
 11
132.4368714229022
 21
189.1081682629019
 31
0.0
  0
SOLID
  5
9F
330
9A
100
AcDbEntity
  8
-TEXT3
100
AcDbTrace
 10
109.4368714229018
 20
189.6915015962352
 30
0.0
 11
109.4368714229018
 21
188.5248349295686
 31
0.0
 12
105.9368714229018
 22
189.1081682629019
 32
0.0
 13
105.9368714229018
 23
189.1081682629019
 33
0.0
  0
SOLID
  5
A0
330
9A
100
AcDbEntity
  8
-TEXT3
100
AcDbTrace
 10
132.4368714229022
 20
189.6915015962352
 30
0.0
 11
132.4368714229022
 21
188.5248349295686
 31
0.0
 12
135.9368714229022
 22
189.1081682629019
 32
0.0
 13
135.9368714229022
 23
189.1081682629019
 33
0.0
  0
MTEXT
  5
A1
330
9A
100
AcDbEntity
  8
-TEXT3
100
AcDbMText
 10
120.936871422902
 20
192.3338650677965
 30
0.0
 40
4.0
 41
0.0
 71
     5
 72
     1
  1
\A1;%%c30
 73
     1
 44
1.0
1001
ACAD
1000
MTEXTBEGIN
1070
    73
1070
     1
1070
    44
1040
1.0
1070
    74
1070
     0
1000
MTEXTEND
  0
POINT
  5
A2
330
9A
100
AcDbEntity
  8
DEFPOINTS
 62
     0
100
AcDbPoint
 10
105.9368714229018
 20
199.1081682629015
 30
0.0
  0
POINT
  5
A3
330
9A
100
AcDbEntity
  8
DEFPOINTS
 62
     0
100
AcDbPoint
 10
135.9368714229022
 20
199.1081682629019
 30
0.0
  0
POINT
  5
A4
330
9A
100
AcDbEntity
  8
DEFPOINTS
 62
     0
100
AcDbPoint
 10
135.9368714229022
 20
189.1081682629019
 30
0.0
  0
ENDBLK
  5
A5
330
9A
100
AcDbEntity
  8
0
100
AcDbBlockEnd
  0
BLOCK
  5
B4
330
B3
100
AcDbEntity
  8
0
100
AcDbBlockBegin
  2
_DOTBLANK
 70
     0
 10
0.0
 20
0.0
 30
0.0
  3
_DOTBLANK
  1

  0
CIRCLE
  5
B5
330
B3
100
AcDbEntity
  8
0
  6
ByBlock
 62
     0
100
AcDbCircle
 10
0.0
 20
0.0
 30
0.0
 40
0.5
  0
LINE
  5
B6
330
B3
100
AcDbEntity
  8
0
  6
ByBlock
 62
     0
100
AcDbLine
 10
-0.5
 20
0.0
 30
0.0
 11
-1.0
 21
0.0
 31
0.0
  0
ENDBLK
  5
B7
330
B3
100
AcDbEntity
  8
0
100
AcDbBlockEnd
  0
BLOCK
  5
B9
330
B8
100
AcDbEntity
  8
0
100
AcDbBlockBegin
  2
*D8
 70
     1
 10
0.0
 20
0.0
 30
0.0
  3
*D8
  1

  0
LINE
  5
BA
330
B8
100
AcDbEntity
  8
-TEXT3
370
    -2
100
AcDbLine
 10
109.9201337686025
 20
260.1081682629021
 30
0.0
 11
64.64120891084974
 21
260.1081682629021
 31
0.0
  0
LINE
  5
BB
330
B8
100
AcDbEntity
  8
-TEXT3
370
    -2
100
AcDbLine
 10
92.93687142290183
 20
252.1081682629021
 30
0.0
 11
64.64120891084974
 21
252.1081682629021
 31
0.0
  0
LINE
  5
BC
330
B8
100
AcDbEntity
  8
-TEXT3
370
    -2
100
AcDbLine
 10
66.14120891084974
 20
263.608168262902
 30
0.0
 11
66.14120891084974
 21
267.108168262902
 31
0.0
  0
LINE
  5
BD
330
B8
100
AcDbEntity
  8
-TEXT3
370
    -2
100
AcDbLine
 10
66.14120891084974
 20
248.6081682629022
 30
0.0
 11
66.14120891084974
 21
245.1081682629022
 31
0.0
  0
SOLID
  5
BE
330
B8
100
AcDbEntity
  8
-TEXT3
100
AcDbTrace
 10
65.55787557751641
 20
263.608168262902
 30
0.0
 11
66.72454224418307
 21
263.608168262902
 31
0.0
 12
66.14120891084974
 22
260.1081682629021
 32
0.0
 13
66.14120891084974
 23
260.1081682629021
 33
0.0
  0
INSERT
  5
BF
330
B8
100
AcDbEntity
  8
-TEXT3
370
    -2
100
AcDbBlockReference
  2
_DOTBLANK
 10
66.14120891084974
 20
252.1081682629021
 30
0.0
 41
3.5
 42
3.5
 43
3.5
 50
90.0
  0
MTEXT
  5
C0
330
B8
100
AcDbEntity
  8
-TEXT3
100
AcDbMText
 10
63.04059708216173
 20
256.1081682629021
 30
0.0
 40
4.0
 41
0.0
 71
     5
 72
     1
  1
\A1;8
 11
0.0000000000000001
 21
1.0
 31
0.0
 73
     1
 44
1.0
1001
ACAD
1000
MTEXTBEGIN
1070
    73
1070
     1
1070
    44
1040
1.0
1070
    74
1070
     0
1000
MTEXTEND
  0
POINT
  5
C1
330
B8
100
AcDbEntity
  8
DEFPOINTS
 62
     0
100
AcDbPoint
 10
111.9201337686025
 20
260.1081682629021
 30
0.0
  0
POINT
  5
C2
330
B8
100
AcDbEntity
  8
DEFPOINTS
 62
     0
100
AcDbPoint
 10
94.93687142290182
 20
252.1081682629021
 30
0.0
  0
POINT
  5
C3
330
B8
100
AcDbEntity
  8
DEFPOINTS
 62
     0
100
AcDbPoint
 10
66.14120891084974
 20
252.1081682629021
 30
0.0
  0
ENDBLK
  5
C4
330
B8
100
AcDbEntity
  8
0
100
AcDbBlockEnd
  0
BLOCK
  5
C7
330
C6
100
AcDbEntity
  8
0
100
AcDbBlockBegin
  2
*D9
 70
     1
 10
0.0
 20
0.0
 30
0.0
  3
*D9
  1

  0
LINE
  5
C8
330
C6
100
AcDbEntity
  8
-TEXT3
370
    -2
100
AcDbLine
 10
69.23253393495532
 20
249.1081682629022
 30
0.0
 11
64.64120891084978
 21
249.1081682629022
 31
0.0
  0
LINE
  5
C9
330
C6
100
AcDbEntity
  8
-TEXT3
370
    -2
100
AcDbLine
 10
92.93687142290183
 20
252.1081682629021
 30
0.0
 11
64.64120891084978
 21
252.1081682629021
 31
0.0
  0
LINE
  5
CA
330
C6
100
AcDbEntity
  8
-TEXT3
370
    -2
100
AcDbLine
 10
66.14120891084978
 20
245.6081682629023
 30
0.0
 11
66.14120891084978
 21
242.1081682629023
 31
0.0
  0
LINE
  5
CB
330
C6
100
AcDbEntity
  8
-TEXT3
370
    -2
100
AcDbLine
 10
66.14120891084978
 20
255.6081682629022
 30
0.0
 11
66.14120891084978
 21
259.1081682629022
 31
0.0
  0
SOLID
  5
CC
330
C6
100
AcDbEntity
  8
-TEXT3
100
AcDbTrace
 10
65.55787557751646
 20
245.6081682629023
 30
0.0
 11
66.72454224418311
 21
245.6081682629023
 31
0.0
 12
66.14120891084978
 22
249.1081682629022
 32
0.0
 13
66.14120891084978
 23
249.1081682629022
 33
0.0
  0
INSERT
  5
CD
330
C6
100
AcDbEntity
  8
-TEXT3
370
    -2
100
AcDbBlockReference
  2
_DOTBLANK
 10
66.14120891084978
 20
252.1081682629021
 30
0.0
 41
3.5
 42
3.5
 43
3.5
 50
270.0
  0
MTEXT
  5
CE
330
C6
100
AcDbEntity
  8
-TEXT3
100
AcDbMText
 10
63.04059708216177
 20
250.6081682629023
 30
0.0
 40
4.0
 41
0.0
 71
     5
 72
     1
  1
\A1;3
 11
0.0000000000000001
 21
1.0
 31
0.0
 73
     1
 44
1.0
1001
ACAD
1000
MTEXTBEGIN
1070
    73
1070
     1
1070
    44
1040
1.0
1070
    74
1070
     0
1000
MTEXTEND
  0
POINT
  5
CF
330
C6
100
AcDbEntity
  8
DEFPOINTS
 62
     0
100
AcDbPoint
 10
71.23253393495531
 20
249.1081682629022
 30
0.0
  0
POINT
  5
D0
330
C6
100
AcDbEntity
  8
DEFPOINTS
 62
     0
100
AcDbPoint
 10
94.93687142290182
 20
252.1081682629021
 30
0.0
  0
POINT
  5
D1
330
C6
100
AcDbEntity
  8
DEFPOINTS
 62
     0
100
AcDbPoint
 10
66.14120891084978
 20
252.1081682629021
 30
0.0
  0
ENDBLK
  5
D2
330
C6
100
AcDbEntity
  8
0
100
AcDbBlockEnd
  0
BLOCK
  5
D5
330
D4
100
AcDbEntity
  8
0
100
AcDbBlockBegin
  2
ANSICHT52
 70
     0
 10
0.0
 20
0.0
 30
0.0
  3
ANSICHT52
  1

  0
CIRCLE
  5
D6
330
D4
100
AcDbEntity
  8
-PROFILAUSSENKANTET
100
AcDbCircle
 10
-0.0000000000241505
 20
-97.34816104632308
 30
0.0
 40
10.0
  0
CIRCLE
  5
D7
330
D4
100
AcDbEntity
  8
-SCHRAFFUR
100
AcDbCircle
 10
-0.0000000000241567
 20
-97.34816104632308
 30
0.0
 40
24.32879797461047
  0
CIRCLE
  5
D8
330
D4
100
AcDbEntity
  8
-PROFILAUSSENKANTET
100
AcDbCircle
 10
-0.0000000000241567
 20
-97.34816104632308
 30
0.0
 40
26.0
  0
LWPOLYLINE
  5
D9
330
D4
100
AcDbEntity
  8
-VERGLASUNG
100
AcDbPolyline
 90
        4
 70
     0
 43
0.0
 10
-72.97749106091817
 20
-17.34816104632338
 10
77.99999999997573
 20
-17.34816104632327
 10
79.99999999997573
 20
-19.34816104632327
 10
79.99999999997584
 20
-149.3273672017092
  0
LINE
  5
DA
330
D4
100
AcDbEntity
  8
-SYSTEM
100
AcDbLine
 10
29.99656340967727
 20
-97.34816104632294
 30
0.0
 11
-29.99656340972557
 21
-97.34816104632322
 31
0.0
  0
LINE
  5
DB
330
D4
100
AcDbEntity
  8
-SYSTEM
100
AcDbLine
 10
-0.0000000000242988
 20
-67.35159763662164
 30
0.0
 11
-0.0000000000240146
 21
-127.3447244560244
 31
0.0
  0
CIRCLE
  5
DC
330
D4
100
AcDbEntity
  8
-PROFILAUSSENKANTET
100
AcDbCircle
 10
-3.500000000024128
 20
-103.4103388728141
 30
0.0
 40
1.75
  0
CIRCLE
  5
DD
330
D4
100
AcDbEntity
  8
-PROFILAUSSENKANTET
100
AcDbCircle
 10
-3.50000000002417
 20
-91.28598321983199
 30
0.0
 40
1.75
  0
MTEXT
  5
DE
330
D4
100
AcDbEntity
  8
-TEXT2
100
AcDbMText
 10
49.17713572762614
 20
-5.128944079777738
 30
0.0
 40
3.5
 41
17.9978
 71
     1
 72
     5
  1
{\fArial|b0|i0|c0|p34;Glaskante}
 73
     1
 44
1.0
1001
ACAD
1000
MTEXTBEGIN
1070
    73
1070
     1
1070
    44
1040
1.0
1070
    74
1070
     0
1000
MTEXTEND
  0
CIRCLE
  5
E0
330
D4
100
AcDbEntity
  8
-PROFILAUSSENKANTET
100
AcDbCircle
 10
6.999999999975843
 20
-97.34816104632303
 30
0.0
 40
1.75
  0
LWPOLYLINE
  5
E1
330
D4
100
AcDbEntity
  8
-TEXT2
100
AcDbPolyline
 90
        3
 70
     1
 43
0.0
 10
57.78044804003911
 20
-17.34816104632335
 10
61.91438540270016
 20
-10.18797149888712
 10
53.64651067737807
 20
-10.18797149888712
  0
ENDBLK
  5
E2
330
D4
100
AcDbEntity
  8
0
100
AcDbBlockEnd
  0
ENDSEC
  0
SECTION
  2
ENTITIES
  0
LINE
  5
9
330
2
100
AcDbEntity
  8
-SYSTEM
100
AcDbLine
 10
120.9368714229018
 20
263.0647338015797
 30
0.0
 11
120.9368714229021
 21
163.3977628945956
 31
0.0
  0
DIMENSION
  5
C
330
2
100
AcDbEntity
  8
-TEXT3
100
AcDbDimension
  2
*D1
 10
146.9368714229048
 20
271.5706546201316
 30
0.0
 11
120.9368714229035
 21
271.5706546201316
 31
0.0
 70
   128
  1
%%c<>
 71
     5
 42
52.00000000000255
  3
1-1PRO
100
AcDbAlignedDimension
 13
94.93687142290225
 23
255.9139140861357
 33
0.0
 14
146.9368714229048
 24
255.9139140861355
 34
0.0
100
AcDbRotatedDimension
1001
ACAD
1000
DSTYLE
1002
{
1002
}
  0
DIMENSION
  5
1E
330
2
100
AcDbEntity
  8
-TEXT3
100
AcDbDimension
  2
*D2
 10
66.14120891084978
 20
233.1081682629015
 30
0.0
 11
66.14120891084974
 21
235.1081682629016
 31
0.0
 70
   128
 71
     5
 42
4.000000000000113
  3
1-1PRO
100
AcDbAlignedDimension
 13
71.23253393495531
 23
237.1081682629016
 33
0.0
 14
94.9368714229023
 24
233.1081682629015
 34
0.0
 50
90.0
100
AcDbRotatedDimension
  0
LINE
  5
2C
330
2
100
AcDbEntity
  8
-VERGLASUNG
100
AcDbLine
 10
75.54214219181301
 20
237.1081680507693
 30
0.0
 11
79.43601701143904
 21
241.0020428703953
 31
0.0
  0
LINE
  5
2E
330
2
100
AcDbEntity
  8
-VERGLASUNG
100
AcDbLine
 10
77.10464219181301
 20
237.1081680507693
 30
0.0
 11
80.99851701143904
 21
241.0020428703952
 31
0.0
  0
DIMENSION
  5
2F
330
2
100
AcDbEntity
  8
-TEXT3
100
AcDbDimension
  2
*D3
 10
66.14120891084962
 20
198.1081682629015
 30
0.0
 11
63.04059708216163
 21
215.6081682629015
 31
0.0
 71
     5
 42
35.0
  3
1-1PRO
100
AcDbAlignedDimension
 13
85.64120891084952
 23
233.1081682629015
 33
0.0
 14
106.9368714229018
 24
198.1081682629015
 34
0.0
 50
90.0
100
AcDbRotatedDimension
  0
DIMENSION
  5
3C
330
2
100
AcDbEntity
  8
-TEXT3
100
AcDbDimension
  2
*D5
 10
66.14120891084964
 20
168.1081682629015
 30
0.0
 11
63.14120891084961
 21
183.1081682629015
 31
0.0
  1
D
 71
     5
 42
30.0
  3
1-1PRO
100
AcDbAlignedDimension
 13
106.9368714229018
 23
198.1081682629015
 33
0.0
 14
115.9523714229021
 24
168.1081682629015
 34
0.0
 50
270.0
100
AcDbRotatedDimension
1001
ACAD
1000
DSTYLE
1002
{
1002
}
  0
DIMENSION
  5
49
330
2
100
AcDbEntity
  8
-TEXT3
100
AcDbDimension
  2
*D0
 10
66.14120891084974
 20
237.1081682629016
 30
0.0
 11
63.04059708216173
 21
243.108168262902
 31
0.0
  1
G
 71
     5
 42
12.00000000000065
  3
1-1PRO
100
AcDbAlignedDimension
 13
71.23253393495531
 23
249.1081682629022
 33
0.0
 14
71.23253393495531
 24
237.1081682629016
 34
0.0
 50
90.0
100
AcDbRotatedDimension
  0
LINE
  5
56
330
2
100
AcDbEntity
  8
-VERGLASUNG
100
AcDbLine
 10
73.8870567558223
 20
245.2142932311439
 30
0.0
 11
77.78093157544834
 21
249.1081680507699
 31
0.0
  0
LINE
  5
57
330
2
100
AcDbEntity
  8
-VERGLASUNG
100
AcDbLine
 10
72.3245567558223
 20
245.2142932311439
 30
0.0
 11
76.21843157544834
 21
249.1081680507699
 31
0.0
  0
LINE
  5
58
330
2
100
AcDbEntity
  8
-VERGLASUNG
100
AcDbLine
 10
70.7620567558223
 20
245.2142932311439
 30
0.0
 11
74.65593157544834
 21
249.1081680507699
 31
0.0
  0
LINE
  5
59
330
2
100
AcDbEntity
  8
-VERGLASUNG
100
AcDbLine
 10
73.97964219181301
 20
237.1081680507693
 30
0.0
 11
77.87351701143904
 21
241.0020428703953
 31
0.0
  0
LINE
  5
5A
330
2
100
AcDbEntity
  8
-NORMTEIL_VERDECKT
100
AcDbLine
 10
103.856871422902
 20
237.1081682629015
 30
0.0
 11
138.0168714229019
 21
237.1081682629015
 31
0.0
  0
LINE
  5
5D
330
2
100
AcDbEntity
  8
-VERGLASUNG
100
AcDbLine
 10
94.68981370994482
 20
245.2142933018546
 30
0.0
 11
98.58368852957084
 21
249.1081681214806
 31
0.0
  0
LINE
  5
5E
330
2
100
AcDbEntity
  8
-VERGLASUNG
100
AcDbLine
 10
97.81481370994482
 20
245.2142933018546
 30
0.0
 11
101.7086885295708
 21
249.1081681214806
 31
0.0
  0
LINE
  5
5F
330
2
100
AcDbEntity
  8
-VERGLASUNG
100
AcDbLine
 10
96.25231370994482
 20
245.2142933018546
 30
0.0
 11
100.1461885295708
 21
249.1081681214806
 31
0.0
  0
LINE
  5
60
330
2
100
AcDbEntity
  8
-NORMTEIL_VERDECKT
100
AcDbLine
 10
102.9368714229017
 20
237.1081682629017
 30
0.0
 11
108.8568714229019
 21
237.1081682629017
 31
0.0
  0
LINE
  5
61
330
2
100
AcDbEntity
  8
-NORMTEIL_VERDECKT
100
AcDbLine
 10
102.9368714229024
 20
237.1081682629014
 30
0.0
 11
108.8568714229026
 21
237.1081682629014
 31
0.0
  0
LINE
  5
62
330
2
100
AcDbEntity
  8
-VERGLASUNG
100
AcDbLine
 10
97.90739914593553
 20
237.10816812148
 30
0.0
 11
101.8012739655615
 21
241.002042941106
 31
0.0
  0
LINE
  5
63
330
2
100
AcDbEntity
  8
-VERGLASUNG
100
AcDbLine
 10
99.46989914593553
 20
237.10816812148
 30
0.0
 11
103.3637739655615
 21
241.002042941106
 31
0.0
  0
LINE
  5
64
330
2
100
AcDbEntity
  8
-VERGLASUNG
100
AcDbLine
 10
101.0323991459355
 20
237.10816812148
 30
0.0
 11
104.9262739655615
 21
241.0020429411059
 31
0.0
  0
LINE
  5
65
330
2
100
AcDbEntity
  8
-NORMTEIL_VERDECKT
100
AcDbLine
 10
143.936871422902
 20
237.1081682629015
 30
0.0
 11
138.0168714229019
 21
237.1081682629015
 31
0.0
  0
LINE
  5
66
330
2
100
AcDbEntity
  8
-NORMTEIL_VERDECKT
100
AcDbLine
 10
138.9368714229019
 20
237.1081682629017
 30
0.0
 11
133.0168714229017
 21
237.1081682629017
 31
0.0
  0
LINE
  5
67
330
2
100
AcDbEntity
  8
-NORMTEIL_VERDECKT
100
AcDbLine
 10
138.9368714229026
 20
237.1081682629014
 30
0.0
 11
133.0168714229024
 21
237.1081682629014
 31
0.0
  0
LWPOLYLINE
  5
68
330
2
100
AcDbEntity
  8
-NORMTEIL
100
AcDbPolyline
 90
        6
 70
     0
 43
0.0
 10
114.9368714229022
 20
198.1081682629014
 10
114.9368714229022
 20
169.1236682629014
 10
115.9523714229021
 20
168.1081682629014
 10
125.9213714229026
 20
168.1081682629014
 10
126.9368714229022
 20
169.1236682629014
 10
126.9368714229022
 20
198.1081682629012
  0
LINE
  5
6A
330
2
100
AcDbEntity
  8
-NORMTEIL_VERDECKT
  6
Continuous
100
AcDbLine
 10
114.9368714229022
 20
169.1236682629015
 30
0.0
 11
126.9368714229022
 21
169.1236682629015
 31
0.0
  0
LINE
  5
6B
330
2
100
AcDbEntity
  8
-NORMTEIL_VERDECKT
  6
Continuous
100
AcDbLine
 10
114.9368714229022
 20
169.1236682629015
 30
0.0
 11
126.9368714229022
 21
169.1236682629015
 31
0.0
  0
LINE
  5
6C
330
2
100
AcDbEntity
  8
-NORMTEIL_VERDECKT
  6
Continuous
100
AcDbLine
 10
114.9368714229022
 20
169.1236682629015
 30
0.0
 11
126.9368714229022
 21
169.1236682629015
 31
0.0
  0
DIMENSION
  5
6D
330
2
100
AcDbEntity
  8
-TEXT3
100
AcDbDimension
  2
*D4
 10
126.9368714229022
 20
153.7185469786652
 30
0.0
 11
148.3355797845609
 21
156.8191588073531
 31
0.0
  1
M<> od. M16
 71
     5
 42
11.99999999995202
  3
1-1PRO
100
AcDbAlignedDimension
 13
114.9368714229501
 23
169.1236682629015
 33
0.0
 14
126.9368714229022
 24
169.1236682629015
 34
0.0
100
AcDbRotatedDimension
  0
LINE
  5
7B
330
2
100
AcDbEntity
  8
-NORMTEIL_VERDECKT
  6
Continuous
100
AcDbLine
 10
115.9523714229021
 20
168.1081682629015
 30
0.0
 11
115.9523714229021
 21
198.1081682629015
 31
0.0
  0
LINE
  5
7C
330
2
100
AcDbEntity
  8
-NORMTEIL_VERDECKT
  6
Continuous
100
AcDbLine
 10
125.9213714229026
 20
168.1081682629015
 30
0.0
 11
125.9213714229026
 21
198.1081682629013
 31
0.0
  0
LINE
  5
7D
330
2
100
AcDbEntity
  8
-VERGLASUNG
100
AcDbLine
 10
141.0749068045057
 20
237.108168050769
 30
0.0
 11
144.9687816241318
 21
241.0020428703951
 31
0.0
  0
LINE
  5
7E
330
2
100
AcDbEntity
  8
-VERGLASUNG
100
AcDbLine
 10
139.419821368515
 20
245.2142932311437
 30
0.0
 11
143.3136961881411
 21
249.1081680507697
 31
0.0
  0
LINE
  5
7F
330
2
100
AcDbEntity
  8
-VERGLASUNG
100
AcDbLine
 10
137.857321368515
 20
245.2142932311437
 30
0.0
 11
141.7511961881411
 21
249.1081680507697
 31
0.0
  0
LINE
  5
80
330
2
100
AcDbEntity
  8
-VERGLASUNG
100
AcDbLine
 10
139.5124068045057
 20
237.108168050769
 30
0.0
 11
143.4062816241318
 21
241.0020428703951
 31
0.0
  0
LINE
  5
81
330
2
100
AcDbEntity
  8
-VERGLASUNG
100
AcDbLine
 10
136.294821368515
 20
245.2142932311437
 30
0.0
 11
140.1886961881411
 21
249.1081680507697
 31
0.0
  0
LINE
  5
82
330
2
100
AcDbEntity
  8
-VERGLASUNG
100
AcDbLine
 10
142.6374068045057
 20
237.108168050769
 30
0.0
 11
146.5312816241318
 21
241.0020428703949
 31
0.0
  0
LINE
  5
83
330
2
100
AcDbEntity
  8
-VERGLASUNG
100
AcDbLine
 10
163.3475783226375
 20
245.2142933018544
 30
0.0
 11
167.2414531422636
 21
249.1081681214804
 31
0.0
  0
LINE
  5
84
330
2
100
AcDbEntity
  8
-VERGLASUNG
100
AcDbLine
 10
160.2225783226375
 20
245.2142933018544
 30
0.0
 11
164.1164531422636
 21
249.1081681214804
 31
0.0
  0
LINE
  5
85
330
2
100
AcDbEntity
  8
-VERGLASUNG
100
AcDbLine
 10
161.7850783226375
 20
245.2142933018544
 30
0.0
 11
165.6789531422636
 21
249.1081681214804
 31
0.0
  0
LINE
  5
86
330
2
100
AcDbEntity
  8
-VERGLASUNG
100
AcDbLine
 10
165.0026637586283
 20
237.1081681214797
 30
0.0
 11
168.8965385782543
 21
241.0020429411058
 31
0.0
  0
LINE
  5
87
330
2
100
AcDbEntity
  8
-VERGLASUNG
100
AcDbLine
 10
163.4401637586283
 20
237.1081681214797
 30
0.0
 11
167.3340385782543
 21
241.0020429411058
 31
0.0
  0
LINE
  5
88
330
2
100
AcDbEntity
  8
-VERGLASUNG
100
AcDbLine
 10
166.5651637586283
 20
237.1081681214797
 30
0.0
 11
170.4590385782543
 21
241.0020429411057
 31
0.0
  0
LWPOLYLINE
  5
89
330
2
100
AcDbEntity
  8
-PROFILAUSSENKANTET
100
AcDbPolyline
 90
       11
 70
     0
 43
0.0
 10
94.93687142290182
 20
252.1081682629021
 10
146.9368714229019
 20
252.108168262902
 10
146.9368714229019
 20
255.9139140861347
 42
0.3759019639771879
 10
145.2011988630839
 20
257.8963698875001
 10
131.8352748415128
 20
260.0643077663152
 42
0.033150018187446
 10
131.1744562410578
 20
260.1081682629021
 10
111.9201337686025
 20
260.1081682629021
 42
0.0413106451481675
 10
111.0981388320759
 20
260.0401378820628
 10
96.60807344829128
 20
257.8867019338004
 42
0.3666293647015965
 10
94.93687142290182
 20
255.9139140861362
 10
94.93687142290182
 20
252.1081682629021
  0
LWPOLYLINE
  5
8B
330
2
100
AcDbEntity
  8
-NORMTEIL_VERDECKT
100
AcDbPolyline
 90
        5
 70
     0
 43
0.0
 10
115.9368714229014
 20
260.1081682629011
 10
115.9368714229014
 20
256.1081682629011
 10
117.4368714229014
 20
255.1081682629011
 10
118.9368714229013
 20
256.1081682629011
 10
118.9368714229013
 20
260.1081682629021
  0
LINE
  5
8C
330
2
100
AcDbEntity
  8
-NORMTEIL_VERDECKT
100
AcDbLine
 10
115.9368714229014
 20
256.1081682629011
 30
0.0
 11
118.9368714229014
 21
256.1081682629011
 31
0.0
  0
LWPOLYLINE
  5
8D
330
2
100
AcDbEntity
  8
-NORMTEIL_VERDECKT
100
AcDbPolyline
 90
        5
 70
     0
 43
0.0
 10
126.4368714229014
 20
260.1081682629011
 10
126.4368714229014
 20
256.1081682629011
 10
127.9368714229013
 20
255.1081682629011
 10
129.4368714229014
 20
256.1081682629011
 10
129.4368714229014
 20
260.1081682629011
  0
LINE
  5
8E
330
2
100
AcDbEntity
  8
-NORMTEIL_VERDECKT
100
AcDbLine
 10
126.4368714229014
 20
256.1081682629011
 30
0.0
 11
129.4368714229014
 21
256.1081682629011
 31
0.0
  0
LINE
  5
8F
330
2
100
AcDbEntity
  8
-NORMTEIL_VERDECKT
100
AcDbLine
 10
110.4368714229025
 20
249.108168262902
 30
0.0
 11
131.4368714229025
 21
249.108168262902
 31
0.0
  0
LINE
  5
90
330
2
100
AcDbEntity
  8
-NORMTEIL_VERDECKT
100
AcDbLine
 10
131.936871422902
 20
237.1081682629014
 30
0.0
 11
131.9368714229019
 21
249.1081682629021
 31
0.0
  0
LINE
  5
91
330
2
100
AcDbEntity
  8
-NORMTEIL_VERDECKT
100
AcDbLine
 10
133.936871422902
 20
237.1081682629014
 30
0.0
 11
133.936871422902
 21
249.108168262902
 31
0.0
  0
LWPOLYLINE
  5
92
330
2
100
AcDbEntity
  8
-NORMTEIL_VERDECKT
100
AcDbPolyline
 90
        4
 70
     0
 43
0.0
 10
111.936871422902
 20
233.1081682629015
 10
111.936871422902
 20
247.1081682629022
 10
129.936871422902
 20
247.1081682629022
 10
129.936871422902
 20
233.1081682629014
  0
LINE
  5
93
330
2
100
AcDbEntity
  8
-NORMTEIL_VERDECKT
100
AcDbLine
 10
124.2598714229021
 20
239.1081682629022
 30
0.0
 11
124.2598714229025
 21
252.1081682629023
 31
0.0
  0
LWPOLYLINE
  5
94
330
2
100
AcDbEntity
  8
-NORMTEIL_VERDECKT
100
AcDbPolyline
 90
        6
 70
     0
 43
0.0
 10
116.9368714229021
 20
252.1081682629024
 10
116.9368714229018
 20
239.7851682629022
 10
117.6138714229019
 20
239.1081682629022
 10
124.2598714229021
 20
239.1081682629021
 10
124.9368714229018
 20
239.7851682629022
 10
124.9368714229021
 20
252.1081682629023
  0
LINE
  5
95
330
2
100
AcDbEntity
  8
-NORMTEIL_VERDECKT
100
AcDbLine
 10
109.936871422902
 20
237.1081682629015
 30
0.0
 11
109.9368714229019
 21
249.1081682629021
 31
0.0
  0
LINE
  5
96
330
2
100
AcDbEntity
  8
-NORMTEIL_VERDECKT
100
AcDbLine
 10
107.936871422902
 20
237.1081682629015
 30
0.0
 11
107.936871422902
 21
249.1081682629021
 31
0.0
  0
LINE
  5
97
330
2
100
AcDbEntity
  8
-NORMTEIL_VERDECKT
100
AcDbLine
 10
117.613871422902
 20
239.1081682629022
 30
0.0
 11
117.6138714229023
 21
252.1081682629024
 31
0.0
  0
LINE
  5
98
330
2
100
AcDbEntity
  8
-NORMTEIL_VERDECKT
100
AcDbLine
 10
116.9368714229018
 20
239.7851682629022
 30
0.0
 11
124.9368714229018
 21
239.7851682629022
 31
0.0
  0
DIMENSION
  5
99
330
2
100
AcDbEntity
  8
-TEXT3
100
AcDbDimension
  2
*D6
 10
135.9368714229022
 20
189.1081682629019
 30
0.0
 11
120.936871422902
 21
192.3338650677965
 31
0.0
  1
%%c<>
 71
     5
 42
30.0000000000004
  3
1-1PRO
100
AcDbAlignedDimension
 13
105.9368714229018
 23
199.1081682629015
 33
0.0
 14
135.9368714229022
 24
199.1081682629019
 34
0.0
100
AcDbRotatedDimension
  0
LINE
  5
A6
330
2
100
AcDbEntity
  8
-SCHRAFFUR
100
AcDbLine
 10
105.9368714229018
 20
199.1081682629015
 30
0.0
 11
135.9368714229022
 21
199.1081682629019
 31
0.0
  0
LWPOLYLINE
  5
A8
330
2
100
AcDbEntity
  8
-PROFILAUSSENKANTET
100
AcDbPolyline
 90
        8
 70
     0
 43
0.0
 10
126.9368714229019
 20
198.1081682629015
 10
134.9368714229022
 20
198.1081682629015
 42
0.4142135623730951
 10
135.9368714229022
 20
199.1081682629015
 10
135.936871422902
 20
215.0201282520302
 10
105.9368714229018
 20
215.0201282520309
 10
105.9368714229018
 20
199.1081682629015
 42
0.4142135623730951
 10
106.9368714229018
 20
198.1081682629015
 10
134.9368714229022
 20
198.1081682629015
  0
LINE
  5
A9
330
2
100
AcDbEntity
  8
-SCHRAFFUR
100
AcDbLine
 10
105.9368714229018
 20
223.020128252037
 30
0.0
 11
135.9368714229017
 21
223.0201282520366
 31
0.0
  0
LINE
  5
AA
330
2
100
AcDbEntity
  8
-SCHRAFFUR
100
AcDbLine
 10
103.9788144903728
 20
225.8333745342082
 30
0.0
 11
137.8949283554314
 21
225.8333745342079
 31
0.0
  0
LINE
  5
AB
330
2
100
AcDbEntity
  8
-SCHRAFFUR
100
AcDbLine
 10
95.58955706707825
 20
228.8664328391319
 30
0.0
 11
146.2841857787248
 21
228.8664328391317
 31
0.0
  0
LINE
  5
AC
330
2
100
AcDbEntity
  8
-SCHRAFFUR
100
AcDbLine
 10
94.93687142290179
 20
229.8041815998556
 30
0.0
 11
146.9368714229015
 21
229.8041815998557
 31
0.0
  0
LWPOLYLINE
  5
AD
330
2
100
AcDbEntity
  8
-PROFILAUSSENKANTET
100
AcDbPolyline
 90
       14
 70
     1
 43
0.0
 10
94.93687142290179
 20
233.1081682629008
 10
94.93687142290179
 20
229.8041815998556
 42
0.3137493583978978
 10
95.58955706707825
 20
228.8664328391319
 10
103.9788144903728
 20
225.8333745342082
 42
-0.359993514460832
 10
105.9368714229018
 20
223.020128252037
 10
105.9368714229018
 20
220.0201282520306
 10
135.936871422902
 20
220.0201282520306
 10
135.9368714229017
 20
223.0201282520366
 42
-0.3599935144607482
 10
137.8949283554314
 20
225.8333745342079
 10
146.2841857787248
 20
228.8664328391317
 42
0.3137493583979866
 10
146.9368714229015
 20
229.8041815998553
 10
146.9368714229018
 20
233.1081682629008
 10
130.9368714229018
 20
233.1081682629008
 10
146.9368714229018
 20
233.1081682629008
  0
LINE
  5
AE
330
2
100
AcDbEntity
  8
-PROFILAUSSENKANTET
100
AcDbLine
 10
129.936871422902
 20
233.1081682629008
 30
0.0
 11
130.9368714229018
 21
233.1081682629008
 31
0.0
  0
LINE
  5
AF
330
2
100
AcDbEntity
  8
-SYSTEM
100
AcDbLine
 10
123.9131697096749
 20
199.8817504626023
 30
0.0
 11
118.2531241061125
 21
253.733487162414
 31
0.0
  0
LINE
  5
B0
330
2
100
AcDbEntity
  8
-SYSTEM
100
AcDbLine
 10
117.9605731361279
 20
199.8817504626023
 30
0.0
 11
123.6206187396902
 21
253.733487162414
 31
0.0
  0
DIMENSION
  5
B1
330
2
100
AcDbEntity
  8
-TEXT3
100
AcDbDimension
  2
*D8
 10
66.14120891084974
 20
252.1081682629021
 30
0.0
 11
63.04059708216173
 21
256.1081682629021
 31
0.0
 71
     5
 42
7.999999999999857
  3
1-1PRO-PU
100
AcDbAlignedDimension
 13
111.9201337686025
 23
260.1081682629021
 33
0.0
 14
94.93687142290182
 24
252.1081682629021
 34
0.0
 50
90.0
100
AcDbRotatedDimension
  0
DIMENSION
  5
C5
330
2
100
AcDbEntity
  8
-TEXT3
100
AcDbDimension
  2
*D9
 10
66.14120891084978
 20
252.1081682629021
 30
0.0
 11
66.14120891084974
 21
250.6081682629023
 31
0.0
 70
   128
 71
     5
 42
2.999999999999886
  3
1-1PRO-PU
100
AcDbAlignedDimension
 13
71.23253393495531
 23
249.1081682629022
 33
0.0
 14
94.93687142290182
 24
252.1081682629021
 34
0.0
 50
90.0
100
AcDbRotatedDimension
  0
INSERT
  5
D3
330
2
100
AcDbEntity
  8
-NORMTEIL_VERDECKT
100
AcDbBlockReference
  2
ANSICHT52
 10
120.9368714229261
 20
153.7185469786652
 30
0.0
  0
LWPOLYLINE
  5
E3
330
2
100
AcDbEntity
  8
-VERGLASUNG
100
AcDbPolyline
 90
        6
 70
     0
 43
0.0
 10
71.23253393495531
 20
249.1081682629022
 10
198.9368714229019
 20
249.1081682629017
 10
200.9368714229019
 20
247.1081682629017
 10
200.9368714229019
 20
239.1081682629013
 10
198.9368714229019
 20
237.1081682629013
 10
71.23253393495531
 20
237.1081682629016
  0
LINE
  5
E4
330
2
100
AcDbEntity
  8
-VERGLASUNG
100
AcDbLine
 10
185.7128352767601
 20
245.2142933725651
 30
0.0
 11
189.6067100963861
 21
249.1081681921911
 31
0.0
  0
LINE
  5
E5
330
2
100
AcDbEntity
  8
-VERGLASUNG
100
AcDbLine
 10
184.1503352767601
 20
245.2142933725651
 30
0.0
 11
188.0442100963861
 21
249.1081681921911
 31
0.0
  0
LINE
  5
E6
330
2
100
AcDbEntity
  8
-VERGLASUNG
100
AcDbLine
 10
190.4929207127508
 20
237.1081681921904
 30
0.0
 11
194.3867955323768
 21
241.0020430118164
 31
0.0
  0
LINE
  5
E7
330
2
100
AcDbEntity
  8
-VERGLASUNG
100
AcDbLine
 10
187.3679207127508
 20
237.1081681921904
 30
0.0
 11
191.2617955323768
 21
241.0020430118165
 31
0.0
  0
LINE
  5
E8
330
2
100
AcDbEntity
  8
-VERGLASUNG
100
AcDbLine
 10
188.9304207127508
 20
237.1081681921904
 30
0.0
 11
192.8242955323768
 21
241.0020430118165
 31
0.0
  0
LINE
  5
E9
330
2
100
AcDbEntity
  8
-VERGLASUNG
100
AcDbLine
 10
187.2753352767601
 20
245.2142933725651
 30
0.0
 11
191.1692100963861
 21
249.1081681921911
 31
0.0
  0
LWPOLYLINE
  5
EA
102
{ACAD_REACTORS
330
F0
102
}
330
2
100
AcDbEntity
  8
-DICHTUNG
100
AcDbPolyline
 90
        4
 70
     1
 43
0.0
 10
105.9368714229018
 20
215.0201282520309
 10
135.9368714229018
 20
215.0201282520309
 10
135.9368714229018
 20
220.0201282520309
 10
105.9368714229018
 20
220.0201282520309
  0
LWPOLYLINE
  5
EC
102
{ACAD_REACTORS
330
EF
102
}
330
2
100
AcDbEntity
  8
-DICHTUNG
100
AcDbPolyline
 90
        4
 70
     1
 43
0.0
 10
95.43687142290192
 20
233.1081682629008
 10
146.4368714229019
 20
233.1081682629008
 10
146.4368714229019
 20
237.1081682629008
 10
95.43687142290192
 20
237.1081682629008
  0
LWPOLYLINE
  5
ED
102
{ACAD_REACTORS
330
EE
102
}
330
2
100
AcDbEntity
  8
-DICHTUNG
100
AcDbPolyline
 90
        4
 70
     1
 43
0.0
 10
95.43687142290186
 20
249.1081682629021
 10
146.4368714229018
 20
249.1081682629021
 10
146.4368714229018
 20
252.1081682629021
 10
95.43687142290186
 20
252.1081682629021
  0
HATCH
  5
EE
330
2
100
AcDbEntity
  8
-SCHRAFFUR
100
AcDbHatch
 10
0.0
 20
0.0
 30
0.0
210
0.0
220
0.0
230
1.0
  2
SOLID
 70
     1
 71
     1
 91
        1
 92
        1
 93
        4
 72
     1
 10
95.43687142290186
 20
249.1081682629021
 11
146.4368714229018
 21
249.1081682629021
 72
     1
 10
146.4368714229018
 20
249.1081682629021
 11
146.4368714229018
 21
252.1081682629021
 72
     1
 10
146.4368714229018
 20
252.1081682629021
 11
95.43687142290186
 21
252.1081682629021
 72
     1
 10
95.43687142290186
 20
252.1081682629021
 11
95.43687142290186
 21
249.1081682629021
 97
        1
330
ED
 75
     0
 76
     1
 98
        1
 10
0.0
 20
0.0
  0
HATCH
  5
EF
330
2
100
AcDbEntity
  8
-SCHRAFFUR
100
AcDbHatch
 10
0.0
 20
0.0
 30
0.0
210
0.0
220
0.0
230
1.0
  2
SOLID
 70
     1
 71
     1
 91
        1
 92
        1
 93
        4
 72
     1
 10
95.43687142290192
 20
233.1081682629008
 11
146.4368714229019
 21
233.1081682629008
 72
     1
 10
146.4368714229019
 20
233.1081682629008
 11
146.4368714229019
 21
237.1081682629008
 72
     1
 10
146.4368714229019
 20
237.1081682629008
 11
95.43687142290192
 21
237.1081682629008
 72
     1
 10
95.43687142290192
 20
237.1081682629008
 11
95.43687142290192
 21
233.1081682629008
 97
        1
330
EC
 75
     0
 76
     1
 98
        1
 10
0.0
 20
0.0
  0
HATCH
  5
F0
330
2
100
AcDbEntity
  8
-SCHRAFFUR
100
AcDbHatch
 10
0.0
 20
0.0
 30
0.0
210
0.0
220
0.0
230
1.0
  2
SOLID
 70
     1
 71
     1
 91
        1
 92
        1
 93
        4
 72
     1
 10
105.9368714229018
 20
215.0201282520309
 11
135.9368714229018
 21
215.0201282520309
 72
     1
 10
135.9368714229018
 20
215.0201282520309
 11
135.9368714229018
 21
220.0201282520309
 72
     1
 10
135.9368714229018
 20
220.0201282520309
 11
105.9368714229018
 21
220.0201282520309
 72
     1
 10
105.9368714229018
 20
220.0201282520309
 11
105.9368714229018
 21
215.0201282520309
 97
        1
330
EA
 75
     0
 76
     1
 98
        1
 10
0.0
 20
0.0
  0
ENDSEC
  0
SECTION
  2
OBJECTS
  0
DICTIONARY
  5
7
330
0
100
AcDbDictionary
281
     1
  3
ACAD_COLOR
350
109
  3
ACAD_GROUP
350
105
  3
ACAD_LAYOUT
350
F3
  3
ACAD_MATERIAL
350
108
  3
ACAD_MLINESTYLE
350
106
  3
ACAD_PLOTSETTINGS
350
107
  3
ACAD_PLOTSTYLENAME
350
6
  3
ACDBHEADERROUNDTRIPXREC
350
10F
  3
AcDbVariableDictionary
350
10B
  0
DICTIONARY
  5
109
102
{ACAD_REACTORS
330
7
102
}
330
7
100
AcDbDictionary
281
     1
  0
DICTIONARY
  5
105
102
{ACAD_REACTORS
330
7
102
}
330
7
100
AcDbDictionary
281
     1
  0
DICTIONARY
  5
F3
102
{ACAD_REACTORS
330
7
102
}
330
7
100
AcDbDictionary
281
     1
  3
Layout1
350
F7
  3
Model
350
F2
  0
DICTIONARY
  5
108
102
{ACAD_REACTORS
330
7
102
}
330
7
100
AcDbDictionary
281
     1
  0
DICTIONARY
  5
106
102
{ACAD_REACTORS
330
7
102
}
330
7
100
AcDbDictionary
281
     1
  3
STANDARD
350
10A
  0
DICTIONARY
  5
107
102
{ACAD_REACTORS
330
7
102
}
330
7
100
AcDbDictionary
281
     1
  0
ACDBDICTIONARYWDFLT
  5
6
102
{ACAD_REACTORS
330
7
102
}
330
7
100
AcDbDictionary
281
     1
  3
Normal
350
5
100
AcDbDictionaryWithDefault
340
5
  0
DICTIONARY
  5
10F
102
{ACAD_REACTORS
330
7
102
}
330
7
100
AcDbDictionary
281
     1
  3
COLORDICT
350
111
  3
MATERIALDICT
350
110
  0
DICTIONARY
  5
10B
102
{ACAD_REACTORS
330
7
102
}
330
7
100
AcDbDictionary
281
     1
  3
DIMASSOC
350
10D
  3
HIDETEXT
350
10C
  3
PROJECTNAME
350
10E
  0
LAYOUT
  5
F7
102
{ACAD_XDICTIONARY
360
116
102
}
102
{ACAD_REACTORS
330
F3
102
}
330
F3
100
AcDbPlotSettings
  1

  2
HP DeskJet 1120C Printer
  4

  6

 40
0.0
 41
0.0
 42
0.0
 43
0.0
 44
0.0
 45
0.0
 46
0.0
 47
0.0
 48
0.0
 49
0.0
140
0.0
141
0.0
142
1.0
143
1.0
 70
   688
 72
     0
 73
     0
 74
     5
  7
monochrome.ctb
 75
    16
147
1.0
148
0.0
149
0.0
100
AcDbLayout
  1
Layout1
 70
     1
 71
     1
 10
0.0
 20
0.0
 11
12.0
 21
9.0
 12
0.0
 22
0.0
 32
0.0
 14
1.000000000000000E+20
 24
1.000000000000000E+20
 34
1.000000000000000E+20
 15
-1.000000000000000E+20
 25
-1.000000000000000E+20
 35
-1.000000000000000E+20
146
0.0
 13
0.0
 23
0.0
 33
0.0
 16
1.0
 26
0.0
 36
0.0
 17
0.0
 27
1.0
 37
0.0
 76
     0
330
F4
  0
LAYOUT
  5
F2
102
{ACAD_XDICTIONARY
360
114
102
}
102
{ACAD_REACTORS
330
F3
102
}
330
F3
100
AcDbPlotSettings
  1

  2
HP DeskJet 1120C Printer
  4

  6

 40
0.0
 41
0.0
 42
0.0
 43
0.0
 44
0.0
 45
0.0
 46
0.0
 47
0.0
 48
0.0
 49
0.0
140
0.0
141
0.0
142
1.0
143
1.0
 70
  1712
 72
     0
 73
     0
 74
     0
  7
monochrome.ctb
 75
     0
147
1.0
148
0.0
149
0.0
100
AcDbLayout
  1
Model
 70
     1
 71
     0
 10
0.0
 20
0.0
 11
12.0
 21
9.0
 12
0.0
 22
0.0
 32
0.0
 14
0.0
 24
0.0
 34
0.0
 15
0.0
 25
0.0
 35
0.0
146
0.0
 13
0.0
 23
0.0
 33
0.0
 16
1.0
 26
0.0
 36
0.0
 17
0.0
 27
1.0
 37
0.0
 76
     0
330
2
  0
MLINESTYLE
  5
10A
102
{ACAD_REACTORS
330
106
102
}
330
106
100
AcDbMlineStyle
  2
STANDARD
 70
     0
  3

 62
     0
 51
90.0
 52
90.0
 71
     2
 49
0.5
 62
   256
  6
BYLAYER
 49
-0.5
 62
   256
  6
BYLAYER
  0
ACDBPLACEHOLDER
  5
5
102
{ACAD_REACTORS
330
6
102
}
330
6
  0
XRECORD
  5
111
102
{ACAD_REACTORS
330
10F
102
}
330
10F
100
AcDbXrecord
280
     1
340
109
  0
XRECORD
  5
110
102
{ACAD_REACTORS
330
10F
102
}
330
10F
100
AcDbXrecord
280
     1
340
108
  0
DICTIONARYVAR
  5
10D
102
{ACAD_REACTORS
330
10B
102
}
330
10B
100
DictionaryVariables
280
     0
  1
1
  0
DICTIONARYVAR
  5
10C
102
{ACAD_REACTORS
330
10B
102
}
330
10B
100
DictionaryVariables
280
     0
  1
1
  0
DICTIONARYVAR
  5
10E
102
{ACAD_REACTORS
330
10B
102
}
330
10B
100
DictionaryVariables
280
     0
  1

  0
DICTIONARY
  5
116
330
F7
100
AcDbDictionary
280
     1
281
     1
  3
ACAD_XREC_ROUNDTRIP
360
117
  0
DICTIONARY
  5
114
330
F2
100
AcDbDictionary
280
     1
281
     1
  3
ACAD_XREC_ROUNDTRIP
360
115
  0
XRECORD
  5
117
102
{ACAD_REACTORS
330
116
102
}
330
116
100
AcDbXrecord
280
     1
102
SHADEPLOT
 70
     0
102
SHADEPLOTRESLEVEL
 70
     2
102
SHADEPLOTCUSTOMDPI
 70
   300
  0
XRECORD
  5
115
102
{ACAD_REACTORS
330
114
102
}
330
114
100
AcDbXrecord
280
     1
102
SHADEPLOT
 70
     0
102
SHADEPLOTRESLEVEL
 70
     2
102
SHADEPLOTCUSTOMDPI
 70
   300
  0
ENDSEC
  0
EOF
