  0
SECTION
  2
HEADER
  9
$ACADVER
  1
AC1015
  9
$ACADMAINTVER
 70
    18
  9
$DWGCODEPAGE
  3
ANSI_1252
  9
$INSBASE
 10
-327.8288694144876
 20
0.0
 30
0.0
  9
$EXTMIN
 10
1.000000000000000E+20
 20
1.000000000000000E+20
 30
1.000000000000000E+20
  9
$EXTMAX
 10
0.0
 20
0.0
 30
0.0
  9
$LIMMIN
 10
0.0
 20
0.0
  9
$LIMMAX
 10
12.0
 20
9.0
  9
$ORTHOMODE
 70
     1
  9
$REGENMODE
 70
     1
  9
$FILLMODE
 70
     1
  9
$QTEXTMODE
 70
     0
  9
$MIRRTEXT
 70
     1
  9
$LTSCALE
 40
2.5
  9
$ATTMODE
 70
     1
  9
$TEXTSIZE
 40
0.2
  9
$TRACEWID
 40
0.05
  9
$TEXTSTYLE
  7
STANDARD
  9
$CLAYER
  8
-TEXT3
  9
$CELTYPE
  6
BYLAYER
  9
$CECOLOR
 62
   256
  9
$CELTSCALE
 40
1.0
  9
$DISPSILH
 70
     0
  9
$DIMSCALE
 40
1.0
  9
$DIMASZ
 40
3.5
  9
$DIMEXO
 40
2.0
  9
$DIMDLI
 40
2.0
  9
$DIMRND
 40
0.0
  9
$DIMDLE
 40
0.0
  9
$DIMEXE
 40
1.5
  9
$DIMTP
 40
0.0
  9
$DIMTM
 40
0.0
  9
$DIMTXT
 40
4.0
  9
$DIMCEN
 40
0.09
  9
$DIMTSZ
 40
0.0
  9
$DIMTOL
 70
     0
  9
$DIMLIM
 70
     0
  9
$DIMTIH
 70
     0
  9
$DIMTOH
 70
     0
  9
$DIMSE1
 70
     0
  9
$DIMSE2
 70
     0
  9
$DIMTAD
 70
     1
  9
$DIMZIN
 70
     9
  9
$DIMBLK
  1

  9
$DIMASO
 70
     1
  9
$DIMSHO
 70
     1
  9
$DIMPOST
  1

  9
$DIMAPOST
  1

  9
$DIMALT
 70
     0
  9
$DIMALTD
 70
     2
  9
$DIMALTF
 40
25.4
  9
$DIMLFAC
 40
1.0
  9
$DIMTOFL
 70
     0
  9
$DIMTVP
 40
0.0
  9
$DIMTIX
 70
     0
  9
$DIMSOXD
 70
     0
  9
$DIMSAH
 70
     1
  9
$DIMBLK1
  1

  9
$DIMBLK2
  1
DOTBLANK
  9
$DIMSTYLE
  2
1-1PRO-PU
  9
$DIMCLRD
 70
   256
  9
$DIMCLRE
 70
   256
  9
$DIMCLRT
 70
   256
  9
$DIMTFAC
 40
1.0
  9
$DIMGAP
 40
1.0
  9
$DIMJUST
 70
     0
  9
$DIMSD1
 70
     0
  9
$DIMSD2
 70
     0
  9
$DIMTOLJ
 70
     1
  9
$DIMTZIN
 70
     0
  9
$DIMALTZ
 70
     0
  9
$DIMALTTZ
 70
     0
  9
$DIMUPT
 70
     0
  9
$DIMDEC
 70
     1
  9
$DIMTDEC
 70
     1
  9
$DIMALTU
 70
     2
  9
$DIMALTTD
 70
     2
  9
$DIMTXSTY
  7
STANDARD
  9
$DIMAUNIT
 70
     0
  9
$DIMADEC
 70
     0
  9
$DIMALTRND
 40
0.0
  9
$DIMAZIN
 70
     0
  9
$DIMDSEP
 70
    46
  9
$DIMATFIT
 70
     3
  9
$DIMFRAC
 70
     0
  9
$DIMLDRBLK
  1

  9
$DIMLUNIT
 70
     2
  9
$DIMLWD
 70
    -2
  9
$DIMLWE
 70
    -2
  9
$DIMTMOVE
 70
     0
  9
$LUNITS
 70
     2
  9
$LUPREC
 70
     4
  9
$SKETCHINC
 40
0.1
  9
$FILLETRAD
 40
0.0
  9
$AUNITS
 70
     0
  9
$AUPREC
 70
     0
  9
$MENU
  1
.
  9
$ELEVATION
 40
0.0
  9
$PELEVATION
 40
0.0
  9
$THICKNESS
 40
0.0
  9
$LIMCHECK
 70
     0
  9
$CHAMFERA
 40
2.0
  9
$CHAMFERB
 40
2.0
  9
$CHAMFERC
 40
1.0
  9
$CHAMFERD
 40
0.0
  9
$SKPOLY
 70
     0
  9
$TDCREATE
 40
2450923.406402199
  9
$TDUCREATE
 40
2450923.364735533
  9
$TDUPDATE
 40
2453402.391331528
  9
$TDUUPDATE
 40
2453402.349664862
  9
$TDINDWG
 40
2.4422328125
  9
$TDUSRTIMER
 40
2.4422328125
  9
$USRTIMER
 70
     1
  9
$ANGBASE
 50
0.0
  9
$ANGDIR
 70
     0
  9
$PDMODE
 70
     0
  9
$PDSIZE
 40
0.0
  9
$PLINEWID
 40
0.0
  9
$SPLFRAME
 70
     0
  9
$SPLINETYPE
 70
     6
  9
$SPLINESEGS
 70
    50
  9
$HANDSEED
  5
132
  9
$SURFTAB1
 70
     6
  9
$SURFTAB2
 70
     6
  9
$SURFTYPE
 70
     6
  9
$SURFU
 70
     6
  9
$SURFV
 70
     6
  9
$UCSBASE
  2

  9
$UCSNAME
  2

  9
$UCSORG
 10
0.0
 20
0.0
 30
0.0
  9
$UCSXDIR
 10
1.0
 20
0.0
 30
0.0
  9
$UCSYDIR
 10
0.0
 20
1.0
 30
0.0
  9
$UCSORTHOREF
  2

  9
$UCSORTHOVIEW
 70
     0
  9
$UCSORGTOP
 10
0.0
 20
0.0
 30
0.0
  9
$UCSORGBOTTOM
 10
0.0
 20
0.0
 30
0.0
  9
$UCSORGLEFT
 10
0.0
 20
0.0
 30
0.0
  9
$UCSORGRIGHT
 10
0.0
 20
0.0
 30
0.0
  9
$UCSORGFRONT
 10
0.0
 20
0.0
 30
0.0
  9
$UCSORGBACK
 10
0.0
 20
0.0
 30
0.0
  9
$PUCSBASE
  2

  9
$PUCSNAME
  2

  9
$PUCSORG
 10
0.0
 20
0.0
 30
0.0
  9
$PUCSXDIR
 10
1.0
 20
0.0
 30
0.0
  9
$PUCSYDIR
 10
0.0
 20
1.0
 30
0.0
  9
$PUCSORTHOREF
  2

  9
$PUCSORTHOVIEW
 70
     0
  9
$PUCSORGTOP
 10
0.0
 20
0.0
 30
0.0
  9
$PUCSORGBOTTOM
 10
0.0
 20
0.0
 30
0.0
  9
$PUCSORGLEFT
 10
0.0
 20
0.0
 30
0.0
  9
$PUCSORGRIGHT
 10
0.0
 20
0.0
 30
0.0
  9
$PUCSORGFRONT
 10
0.0
 20
0.0
 30
0.0
  9
$PUCSORGBACK
 10
0.0
 20
0.0
 30
0.0
  9
$USERI1
 70
     0
  9
$USERI2
 70
     0
  9
$USERI3
 70
     0
  9
$USERI4
 70
     0
  9
$USERI5
 70
     0
  9
$USERR1
 40
0.0
  9
$USERR2
 40
0.0
  9
$USERR3
 40
0.0
  9
$USERR4
 40
0.0
  9
$USERR5
 40
0.0
  9
$WORLDVIEW
 70
     1
  9
$SHADEDGE
 70
     3
  9
$SHADEDIF
 70
    70
  9
$TILEMODE
 70
     1
  9
$MAXACTVP
 70
    48
  9
$PINSBASE
 10
0.0
 20
0.0
 30
0.0
  9
$PLIMCHECK
 70
     0
  9
$PEXTMIN
 10
1.000000000000000E+20
 20
1.000000000000000E+20
 30
1.000000000000000E+20
  9
$PEXTMAX
 10
-1.000000000000000E+20
 20
-1.000000000000000E+20
 30
-1.000000000000000E+20
  9
$PLIMMIN
 10
0.0
 20
0.0
  9
$PLIMMAX
 10
12.0
 20
9.0
  9
$UNITMODE
 70
     0
  9
$VISRETAIN
 70
     1
  9
$PLINEGEN
 70
     0
  9
$PSLTSCALE
 70
     1
  9
$TREEDEPTH
 70
  3020
  9
$CMLSTYLE
  2
STANDARD
  9
$CMLJUST
 70
     0
  9
$CMLSCALE
 40
1.0
  9
$PROXYGRAPHICS
 70
     1
  9
$MEASUREMENT
 70
     0
  9
$CELWEIGHT
370
    -1
  9
$ENDCAPS
280
     0
  9
$JOINSTYLE
280
     0
  9
$LWDISPLAY
290
     0
  9
$INSUNITS
 70
     0
  9
$HYPERLINKBASE
  1

  9
$STYLESHEET
  1

  9
$XEDIT
290
     1
  9
$CEPSNTYPE
380
     0
  9
$PSTYLEMODE
290
     1
  9
$FINGERPRINTGUID
  2
{C77FD080-FB68-11D4-9C1F-EC81C176A25E}
  9
$VERSIONGUID
  2
{E2D432DC-620C-4F6F-AA7B-454AD0E7263A}
  9
$EXTNAMES
290
     1
  9
$PSVPSCALE
 40
0.0
  9
$OLESTARTUP
290
     0
  0
ENDSEC
  0
SECTION
  2
CLASSES
  0
CLASS
  1
DICTIONARYVAR
  2
AcDbDictionaryVar
  3
ObjectDBX Classes
 90
        0
280
     0
281
     0
  0
CLASS
  1
IMAGE
  2
AcDbRasterImage
  3
ISM
 90
    32895
280
     0
281
     1
  0
CLASS
  1
IMAGEDEF_REACTOR
  2
AcDbRasterImageDefReactor
  3
ISM
 90
    32769
280
     0
281
     0
  0
CLASS
  1
IMAGEDEF
  2
AcDbRasterImageDef
  3
ISM
 90
    32768
280
     0
281
     0
  0
CLASS
  1
RASTERVARIABLES
  2
AcDbRasterVariables
  3
ISM
 90
    32768
280
     0
281
     0
  0
CLASS
  1
ACDBDICTIONARYWDFLT
  2
AcDbDictionaryWithDefault
  3
ObjectDBX Classes
 90
        0
280
     0
281
     0
  0
CLASS
  1
ACDBPLACEHOLDER
  2
AcDbPlaceHolder
  3
ObjectDBX Classes
 90
        0
280
     0
281
     0
  0
CLASS
  1
LAYOUT
  2
AcDbLayout
  3
ObjectDBX Classes
 90
        0
280
     0
281
     0
  0
ENDSEC
  0
SECTION
  2
TABLES
  0
TABLE
  2
VPORT
  5
114
330
0
100
AcDbSymbolTable
 70
     1
  0
VPORT
  5
115
330
114
100
AcDbSymbolTableRecord
100
AcDbViewportTableRecord
  2
*Active
 70
     0
 10
0.0
 20
0.0
 11
1.0
 21
1.0
 12
149.2843585054501
 22
82.84242849329116
 13
0.0
 23
0.0
 14
0.5
 24
0.5
 15
0.5
 25
0.5
 16
0.0
 26
0.0
 36
1.0
 17
0.0
 27
0.0
 37
0.0
 40
206.6576738816036
 41
1.549148099606815
 42
50.0
 43
0.0
 44
0.0
 50
0.0
 51
0.0
 71
     0
 72
   100
 73
     1
 74
     1
 75
     0
 76
     0
 77
     0
 78
     0
281
     0
 65
     1
110
0.0
120
0.0
130
0.0
111
1.0
121
0.0
131
0.0
112
0.0
122
1.0
132
0.0
 79
     0
146
0.0
  0
ENDTAB
  0
TABLE
  2
LTYPE
  5
10F
330
0
100
AcDbSymbolTable
 70
     3
  0
LTYPE
  5
110
330
10F
100
AcDbSymbolTableRecord
100
AcDbLinetypeTableRecord
  2
BYBLOCK
 70
     0
  3

 72
    65
 73
     0
 40
0.0
  0
LTYPE
  5
111
330
10F
100
AcDbSymbolTableRecord
100
AcDbLinetypeTableRecord
  2
BYLAYER
 70
     0
  3

 72
    65
 73
     0
 40
0.0
  0
LTYPE
  5
8
330
10F
100
AcDbSymbolTableRecord
100
AcDbLinetypeTableRecord
  2
CONTINUOUS
 70
     0
  3
Solid line
 72
    65
 73
     0
 40
0.0
  0
LTYPE
  5
8C
330
10F
100
AcDbSymbolTableRecord
100
AcDbLinetypeTableRecord
  2
MITTEX2
 70
     0
  3
Mitte (2x) ________  __  ________  __  _____
 72
    65
 73
     4
 40
4.0
 49
2.5
 74
     0
 49
-0.5
 74
     0
 49
0.5
 74
     0
 49
-0.5
 74
     0
  0
LTYPE
  5
94
330
10F
100
AcDbSymbolTableRecord
100
AcDbLinetypeTableRecord
  2
STRICHLINIEX2
 70
     0
  3
Strichlinie (2x) ____  ____  ____  ____  ____  
 72
    65
 73
     2
 40
1.5
 49
1.0
 74
     0
 49
-0.5
 74
     0
  0
ENDTAB
  0
TABLE
  2
LAYER
  5
10C
330
0
100
AcDbSymbolTable
 70
    11
  0
LAYER
  5
4
330
10C
100
AcDbSymbolTableRecord
100
AcDbLayerTableRecord
  2
0
 70
     0
 62
     7
  6
CONTINUOUS
370
    -3
390
5
  0
LAYER
  5
20
330
10C
100
AcDbSymbolTableRecord
100
AcDbLayerTableRecord
  2
-PROFILAUSSENKANTET
 70
     0
 62
     4
  6
CONTINUOUS
370
    -3
390
5
  0
LAYER
  5
22
330
10C
100
AcDbSymbolTableRecord
100
AcDbLayerTableRecord
  2
-DICHTUNG
 70
     0
 62
     3
  6
CONTINUOUS
370
    -3
390
5
  0
LAYER
  5
8F
330
10C
100
AcDbSymbolTableRecord
100
AcDbLayerTableRecord
  2
-NORMTEIL
 70
     0
 62
     6
  6
CONTINUOUS
370
    -3
390
5
  0
LAYER
  5
93
330
10C
100
AcDbSymbolTableRecord
100
AcDbLayerTableRecord
  2
-NORMTEIL_VERDECKT
 70
     0
 62
     9
  6
STRICHLINIEX2
370
    -3
390
5
  0
LAYER
  5
17
330
10C
100
AcDbSymbolTableRecord
100
AcDbLayerTableRecord
  2
DEFPOINTS
 70
     0
 62
     7
  6
CONTINUOUS
290
     0
370
    -3
390
5
  0
LAYER
  5
8B
330
10C
100
AcDbSymbolTableRecord
100
AcDbLayerTableRecord
  2
-SYSTEM
 70
     0
 62
     2
  6
MITTEX2
370
    -3
390
5
  0
LAYER
  5
101
330
10C
100
AcDbSymbolTableRecord
100
AcDbLayerTableRecord
  2
-TEXT2
 70
     0
 62
     3
  6
CONTINUOUS
370
    -3
390
5
  0
LAYER
  5
A
330
10C
100
AcDbSymbolTableRecord
100
AcDbLayerTableRecord
  2
-TEXT3
 70
     0
 62
     2
  6
CONTINUOUS
370
    -3
390
5
  0
LAYER
  5
1E
330
10C
100
AcDbSymbolTableRecord
100
AcDbLayerTableRecord
  2
-SCHRAFFUR
 70
     0
 62
     9
  6
CONTINUOUS
370
    -3
390
5
  0
LAYER
  5
1C
330
10C
100
AcDbSymbolTableRecord
100
AcDbLayerTableRecord
  2
-VERGLASUNG
 70
     0
 62
     1
  6
CONTINUOUS
370
    -3
390
5
  0
ENDTAB
  0
TABLE
  2
STYLE
  5
10D
330
0
100
AcDbSymbolTable
 70
     1
  0
STYLE
  5
C
330
10D
100
AcDbSymbolTableRecord
100
AcDbTextStyleTableRecord
  2
STANDARD
 70
     0
 40
0.0
 41
1.0
 50
0.0
 71
     0
 42
0.2
  3
GOTHIC.TTF
  4

1001
ACAD
1000
Century Gothic
1071
       34
  0
ENDTAB
  0
TABLE
  2
VIEW
  5
112
330
0
100
AcDbSymbolTable
 70
     0
  0
ENDTAB
  0
TABLE
  2
UCS
  5
113
330
0
100
AcDbSymbolTable
 70
     0
  0
ENDTAB
  0
TABLE
  2
APPID
  5
116
330
0
100
AcDbSymbolTable
 70
     1
  0
APPID
  5
D
330
116
100
AcDbSymbolTableRecord
100
AcDbRegAppTableRecord
  2
ACAD
 70
     0
  0
ENDTAB
  0
TABLE
  2
DIMSTYLE
  5
117
330
0
100
AcDbSymbolTable
 70
     2
100
AcDbDimStyleTable
 71
     2
340
B
340
118
  0
DIMSTYLE
105
B
102
{ACAD_REACTORS
330
7C
330
CB
330
DA
330
E7
330
9
330
69
330
3F
330
5B
330
23
330
4D
330
30
102
}
330
117
100
AcDbSymbolTableRecord
100
AcDbDimStyleTableRecord
  2
1-1PRO
 70
     0
 41
3.5
 42
2.0
 43
2.0
 44
1.5
 73
     0
 74
     0
 77
     1
 78
     9
140
4.0
147
1.0
176
   256
177
   256
178
   256
271
     1
272
     1
340
C
  0
DIMSTYLE
105
118
330
117
100
AcDbSymbolTableRecord
100
AcDbDimStyleTableRecord
  2
1-1PRO-PU
 70
     0
 41
3.5
 42
2.0
 43
2.0
 44
1.5
 73
     0
 74
     0
 77
     1
 78
     9
140
4.0
147
1.0
173
     1
176
   256
177
   256
178
   256
271
     1
272
     1
340
C
344
119
  0
ENDTAB
  0
TABLE
  2
BLOCK_RECORD
  5
1
330
0
100
AcDbSymbolTable
 70
    13
  0
BLOCK_RECORD
  5
2
330
1
100
AcDbSymbolTableRecord
100
AcDbBlockTableRecord
  2
*MODEL_SPACE
340
106
  0
BLOCK_RECORD
  5
108
330
1
100
AcDbSymbolTableRecord
100
AcDbBlockTableRecord
  2
*PAPER_SPACE
340
10B
  0
BLOCK_RECORD
  5
119
330
1
100
AcDbSymbolTableRecord
100
AcDbBlockTableRecord
  2
_DOTBLANK
340
0
  0
BLOCK_RECORD
  5
E
330
1
100
AcDbSymbolTableRecord
100
AcDbBlockTableRecord
  2
*D1
340
0
  0
BLOCK_RECORD
  5
24
330
1
100
AcDbSymbolTableRecord
100
AcDbBlockTableRecord
  2
*D2
340
0
  0
BLOCK_RECORD
  5
31
330
1
100
AcDbSymbolTableRecord
100
AcDbBlockTableRecord
  2
*D3
340
0
  0
BLOCK_RECORD
  5
40
330
1
100
AcDbSymbolTableRecord
100
AcDbBlockTableRecord
  2
*D4
340
0
  0
BLOCK_RECORD
  5
4E
330
1
100
AcDbSymbolTableRecord
100
AcDbBlockTableRecord
  2
*D5
340
0
  0
BLOCK_RECORD
  5
5C
330
1
100
AcDbSymbolTableRecord
100
AcDbBlockTableRecord
  2
*D6
340
0
  0
BLOCK_RECORD
  5
6A
330
1
100
AcDbSymbolTableRecord
100
AcDbBlockTableRecord
  2
*D7
340
0
  0
BLOCK_RECORD
  5
7D
330
1
100
AcDbSymbolTableRecord
100
AcDbBlockTableRecord
  2
*D8
340
0
  0
BLOCK_RECORD
  5
CC
330
1
100
AcDbSymbolTableRecord
100
AcDbBlockTableRecord
  2
*D9
340
0
  0
BLOCK_RECORD
  5
DB
330
1
100
AcDbSymbolTableRecord
100
AcDbBlockTableRecord
  2
*D10
340
0
  0
BLOCK_RECORD
  5
E8
330
1
100
AcDbSymbolTableRecord
100
AcDbBlockTableRecord
  2
*D11
340
0
  0
BLOCK_RECORD
  5
F6
330
1
100
AcDbSymbolTableRecord
100
AcDbBlockTableRecord
  2
ANSICHT52
340
0
102
{BLKREFS
331
F5
102
}
  0
ENDTAB
  0
ENDSEC
  0
SECTION
  2
BLOCKS
  0
BLOCK
  5
3
330
2
100
AcDbEntity
  8
0
100
AcDbBlockBegin
  2
*MODEL_SPACE
 70
     0
 10
0.0
 20
0.0
 30
0.0
  3
*MODEL_SPACE
  1

  0
ENDBLK
  5
105
330
2
100
AcDbEntity
  8
0
100
AcDbBlockEnd
  0
BLOCK
  5
109
330
108
100
AcDbEntity
 67
     1
  8
0
100
AcDbBlockBegin
  2
*PAPER_SPACE
 70
     0
 10
0.0
 20
0.0
 30
0.0
  3
*PAPER_SPACE
  1

  0
ENDBLK
  5
10A
330
108
100
AcDbEntity
 67
     1
  8
0
100
AcDbBlockEnd
  0
BLOCK
  5
11A
330
119
100
AcDbEntity
  8
0
100
AcDbBlockBegin
  2
_DOTBLANK
 70
     0
 10
0.0
 20
0.0
 30
0.0
  3
_DOTBLANK
  1

  0
CIRCLE
  5
11B
330
119
100
AcDbEntity
  8
0
  6
ByBlock
 62
     0
100
AcDbCircle
 10
0.0
 20
0.0
 30
0.0
 40
0.5
  0
LINE
  5
11C
330
119
100
AcDbEntity
  8
0
  6
ByBlock
 62
     0
100
AcDbLine
 10
-0.5
 20
0.0
 30
0.0
 11
-1.0
 21
0.0
 31
0.0
  0
ENDBLK
  5
11D
330
119
100
AcDbEntity
  8
0
100
AcDbBlockEnd
  0
BLOCK
  5
F
330
E
100
AcDbEntity
  8
0
100
AcDbBlockBegin
  2
*D1
 70
     1
 10
0.0
 20
0.0
 30
0.0
  3
*D1
  1

  0
LINE
  5
10
330
E
100
AcDbEntity
  8
-TEXT3
370
    -2
100
AcDbLine
 10
53.96049682728071
 20
41.29566251205244
 30
0.0
 11
53.96049682728071
 21
-1.5
 31
0.0
  0
LINE
  5
11
330
E
100
AcDbEntity
  8
-TEXT3
370
    -2
100
AcDbLine
 10
118.9604968272807
 20
80.79566251205291
 30
0.0
 11
118.9604968272807
 21
-1.5
 31
0.0
  0
LINE
  5
12
330
E
100
AcDbEntity
  8
-TEXT3
370
    -2
100
AcDbLine
 10
57.4604968272807
 20
0.0
 30
0.0
 11
115.4604968272807
 21
0.0
 31
0.0
  0
SOLID
  5
13
330
E
100
AcDbEntity
  8
-TEXT3
100
AcDbTrace
 10
57.4604968272807
 20
0.5833333333333333
 30
0.0
 11
57.4604968272807
 21
-0.5833333333333333
 31
0.0
 12
53.96049682728071
 22
0.0
 32
0.0
 13
53.96049682728071
 23
0.0
 33
0.0
  0
SOLID
  5
14
330
E
100
AcDbEntity
  8
-TEXT3
100
AcDbTrace
 10
115.4604968272807
 20
0.5833333333333333
 30
0.0
 11
115.4604968272807
 21
-0.5833333333333333
 31
0.0
 12
118.9604968272807
 22
0.0
 32
0.0
 13
118.9604968272807
 23
0.0
 33
0.0
  0
MTEXT
  5
15
330
E
100
AcDbEntity
  8
-TEXT3
100
AcDbMText
 10
86.46049682728071
 20
3.100611828687966
 30
0.0
 40
4.0
 41
0.0
 71
     5
 72
     1
  1
\A1;65
 73
     1
 44
1.0
1001
ACAD
1000
MTEXTBEGIN
1070
    73
1070
     1
1070
    44
1040
1.0
1070
    74
1070
     0
1000
MTEXTEND
  0
POINT
  5
16
330
E
100
AcDbEntity
  8
DEFPOINTS
 62
     0
100
AcDbPoint
 10
53.96049682728071
 20
43.29566251205244
 30
0.0
  0
POINT
  5
18
330
E
100
AcDbEntity
  8
DEFPOINTS
 62
     0
100
AcDbPoint
 10
118.9604968272807
 20
82.7956625120529
 30
0.0
  0
POINT
  5
19
330
E
100
AcDbEntity
  8
DEFPOINTS
 62
     0
100
AcDbPoint
 10
118.9604968272807
 20
0.0
 30
0.0
  0
ENDBLK
  5
1A
330
E
100
AcDbEntity
  8
0
100
AcDbBlockEnd
  0
BLOCK
  5
25
330
24
100
AcDbEntity
  8
0
100
AcDbBlockBegin
  2
*D2
 70
     1
 10
0.0
 20
0.0
 30
0.0
  3
*D2
  1

  0
LINE
  5
26
330
24
100
AcDbEntity
  8
-TEXT3
370
    -2
100
AcDbLine
 10
36.97245681641647
 20
17.49999999999988
 30
0.0
 11
36.97245681641647
 21
-1.500000000000028
 31
0.0
  0
LINE
  5
27
330
24
100
AcDbEntity
  8
-TEXT3
370
    -2
100
AcDbLine
 10
53.96049682728071
 20
41.29566251205244
 30
0.0
 11
53.96049682728071
 21
-1.500000000000028
 31
0.0
  0
LINE
  5
28
330
24
100
AcDbEntity
  8
-TEXT3
370
    -2
100
AcDbLine
 10
40.47245681641647
 20
-0.0000000000000284
 30
0.0
 11
50.46049682728071
 21
-0.0000000000000284
 31
0.0
  0
SOLID
  5
29
330
24
100
AcDbEntity
  8
-TEXT3
100
AcDbTrace
 10
40.47245681641647
 20
0.5833333333333048
 30
0.0
 11
40.47245681641647
 21
-0.5833333333333617
 31
0.0
 12
36.97245681641647
 22
-0.0000000000000284
 32
0.0
 13
36.97245681641647
 23
-0.0000000000000284
 33
0.0
  0
SOLID
  5
2A
330
24
100
AcDbEntity
  8
-TEXT3
100
AcDbTrace
 10
50.46049682728071
 20
0.5833333333333048
 30
0.0
 11
50.46049682728071
 21
-0.5833333333333617
 31
0.0
 12
53.96049682728071
 22
-0.0000000000000284
 32
0.0
 13
53.96049682728071
 23
-0.0000000000000284
 33
0.0
  0
MTEXT
  5
2B
330
24
100
AcDbEntity
  8
-TEXT3
100
AcDbMText
 10
45.46647682184858
 20
3.050305914343955
 30
0.0
 40
4.0
 41
0.0
 71
     5
 72
     1
  1
\A1;17
 73
     1
 44
1.0
1001
ACAD
1000
MTEXTBEGIN
1070
    73
1070
     1
1070
    44
1040
1.0
1070
    74
1070
     0
1000
MTEXTEND
  0
POINT
  5
2C
330
24
100
AcDbEntity
  8
DEFPOINTS
 62
     0
100
AcDbPoint
 10
36.97245681641647
 20
19.49999999999988
 30
0.0
  0
POINT
  5
2D
330
24
100
AcDbEntity
  8
DEFPOINTS
 62
     0
100
AcDbPoint
 10
53.96049682728071
 20
43.29566251205244
 30
0.0
  0
POINT
  5
2E
330
24
100
AcDbEntity
  8
DEFPOINTS
 62
     0
100
AcDbPoint
 10
53.96049682728071
 20
-0.0000000000000284
 30
0.0
  0
ENDBLK
  5
2F
330
24
100
AcDbEntity
  8
0
100
AcDbBlockEnd
  0
BLOCK
  5
32
330
31
100
AcDbEntity
  8
0
100
AcDbBlockBegin
  2
*D3
 70
     1
 10
0.0
 20
0.0
 30
0.0
  3
*D3
  1

  0
LINE
  5
33
330
31
100
AcDbEntity
  8
-TEXT3
370
    -2
100
AcDbLine
 10
9.16671099318259
 20
28.7956625120521
 30
0.0
 11
-4.682710813254613
 21
28.79566251205211
 31
0.0
  0
LINE
  5
34
330
31
100
AcDbEntity
  8
-TEXT3
370
    -2
100
AcDbLine
 10
9.166710993183045
 20
80.79566251205273
 30
0.0
 11
-4.682710813254601
 21
80.79566251205273
 31
0.0
  0
LINE
  5
35
330
31
100
AcDbEntity
  8
-TEXT3
370
    -2
100
AcDbLine
 10
-3.182710813254612
 20
32.29566251205211
 30
0.0
 11
-3.182710813254602
 21
77.29566251205273
 31
0.0
  0
SOLID
  5
36
330
31
100
AcDbEntity
  8
-TEXT3
100
AcDbTrace
 10
-3.766044146587945
 20
32.29566251205211
 30
0.0
 11
-2.599377479921279
 21
32.29566251205211
 31
0.0
 12
-3.182710813254613
 22
28.79566251205211
 32
0.0
 13
-3.182710813254613
 23
28.79566251205211
 33
0.0
  0
SOLID
  5
37
330
31
100
AcDbEntity
  8
-TEXT3
100
AcDbTrace
 10
-3.766044146587935
 20
77.29566251205273
 30
0.0
 11
-2.599377479921268
 21
77.29566251205273
 31
0.0
 12
-3.182710813254601
 22
80.79566251205273
 32
0.0
 13
-3.182710813254601
 23
80.79566251205273
 33
0.0
  0
MTEXT
  5
38
330
31
100
AcDbEntity
  8
-TEXT3
100
AcDbMText
 10
-6.408407618149245
 20
54.79566251205241
 30
0.0
 40
4.0
 41
0.0
 71
     5
 72
     1
  1
\A1;%%c52
 11
0.0000000000000001
 21
1.0
 31
0.0
 73
     1
 44
1.0
1001
ACAD
1000
MTEXTBEGIN
1070
    73
1070
     1
1070
    44
1040
1.0
1070
    74
1070
     0
1000
MTEXTEND
  0
POINT
  5
39
330
31
100
AcDbEntity
  8
DEFPOINTS
 62
     0
100
AcDbPoint
 10
11.16671099318259
 20
28.7956625120521
 30
0.0
  0
POINT
  5
3A
330
31
100
AcDbEntity
  8
DEFPOINTS
 62
     0
100
AcDbPoint
 10
11.16671099318304
 20
80.79566251205273
 30
0.0
  0
POINT
  5
3B
330
31
100
AcDbEntity
  8
DEFPOINTS
 62
     0
100
AcDbPoint
 10
-3.182710813254601
 20
80.79566251205273
 30
0.0
  0
ENDBLK
  5
3C
330
31
100
AcDbEntity
  8
0
100
AcDbBlockEnd
  0
BLOCK
  5
41
330
40
100
AcDbEntity
  8
0
100
AcDbBlockBegin
  2
*D4
 70
     1
 10
0.0
 20
0.0
 30
0.0
  3
*D4
  1

  0
LINE
  5
42
330
40
100
AcDbEntity
  8
-TEXT3
370
    -2
100
AcDbLine
 10
14.97245681641595
 20
24.79566251205256
 30
0.0
 11
14.97245681641595
 21
-1.5
 31
0.0
  0
LINE
  5
43
330
40
100
AcDbEntity
  8
-TEXT3
370
    -2
100
AcDbLine
 10
7.0
 20
42.66308436538366
 30
0.0
 11
6.999999999999997
 21
-1.5
 31
0.0
  0
LINE
  5
44
330
40
100
AcDbEntity
  8
-TEXT3
370
    -2
100
AcDbLine
 10
18.47245681641595
 20
0.0
 30
0.0
 11
21.97245681641596
 21
0.0
 31
0.0
  0
LINE
  5
45
330
40
100
AcDbEntity
  8
-TEXT3
370
    -2
100
AcDbLine
 10
3.499999999999997
 20
0.0
 30
0.0
 11
-0.0000000000000027
 21
0.0
 31
0.0
  0
SOLID
  5
46
330
40
100
AcDbEntity
  8
-TEXT3
100
AcDbTrace
 10
18.47245681641595
 20
0.5833333333333333
 30
0.0
 11
18.47245681641595
 21
-0.5833333333333333
 31
0.0
 12
14.97245681641595
 22
0.0
 32
0.0
 13
14.97245681641595
 23
0.0
 33
0.0
  0
SOLID
  5
47
330
40
100
AcDbEntity
  8
-TEXT3
100
AcDbTrace
 10
3.499999999999997
 20
0.5833333333333333
 30
0.0
 11
3.499999999999997
 21
-0.5833333333333333
 31
0.0
 12
6.999999999999997
 22
0.0
 32
0.0
 13
6.999999999999997
 23
0.0
 33
0.0
  0
MTEXT
  5
48
330
40
100
AcDbEntity
  8
-TEXT3
100
AcDbMText
 10
10.98622840820797
 20
3.100611828687966
 30
0.0
 40
4.0
 41
0.0
 71
     5
 72
     1
  1
\A1;8
 73
     1
 44
1.0
1001
ACAD
1000
MTEXTBEGIN
1070
    73
1070
     1
1070
    44
1040
1.0
1070
    74
1070
     0
1000
MTEXTEND
  0
POINT
  5
49
330
40
100
AcDbEntity
  8
DEFPOINTS
 62
     0
100
AcDbPoint
 10
14.97245681641595
 20
26.79566251205256
 30
0.0
  0
POINT
  5
4A
330
40
100
AcDbEntity
  8
DEFPOINTS
 62
     0
100
AcDbPoint
 10
7.0
 20
44.66308436538366
 30
0.0
  0
POINT
  5
4B
330
40
100
AcDbEntity
  8
DEFPOINTS
 62
     0
100
AcDbPoint
 10
6.999999999999997
 20
0.0
 30
0.0
  0
ENDBLK
  5
4C
330
40
100
AcDbEntity
  8
0
100
AcDbBlockEnd
  0
BLOCK
  5
4F
330
4E
100
AcDbEntity
  8
0
100
AcDbBlockBegin
  2
*D5
 70
     1
 10
0.0
 20
0.0
 30
0.0
  3
*D5
  1

  0
LINE
  5
50
330
4E
100
AcDbEntity
  8
-TEXT3
370
    -2
100
AcDbLine
 10
33.97245681641635
 20
3.091325024105685
 30
0.0
 11
33.97245681641635
 21
-1.499999999999886
 31
0.0
  0
LINE
  5
51
330
4E
100
AcDbEntity
  8
-TEXT3
370
    -2
100
AcDbLine
 10
36.97245681641641
 20
26.79566251205268
 30
0.0
 11
36.97245681641641
 21
-1.499999999999886
 31
0.0
  0
LINE
  5
52
330
4E
100
AcDbEntity
  8
-TEXT3
370
    -2
100
AcDbLine
 10
30.47245681641636
 20
0.0000000000001137
 30
0.0
 11
26.97245681641636
 21
0.0000000000001137
 31
0.0
  0
LINE
  5
53
330
4E
100
AcDbEntity
  8
-TEXT3
370
    -2
100
AcDbLine
 10
40.47245681641641
 20
0.0000000000001137
 30
0.0
 11
43.97245681641641
 21
0.0000000000001137
 31
0.0
  0
SOLID
  5
54
330
4E
100
AcDbEntity
  8
-TEXT3
100
AcDbTrace
 10
30.47245681641636
 20
0.5833333333334469
 30
0.0
 11
30.47245681641636
 21
-0.5833333333332196
 31
0.0
 12
33.97245681641635
 22
0.0000000000001137
 32
0.0
 13
33.97245681641635
 23
0.0000000000001137
 33
0.0
  0
SOLID
  5
55
330
4E
100
AcDbEntity
  8
-TEXT3
100
AcDbTrace
 10
40.47245681641641
 20
0.5833333333334469
 30
0.0
 11
40.47245681641641
 21
-0.5833333333332196
 31
0.0
 12
36.97245681641641
 22
0.0000000000001137
 32
0.0
 13
36.97245681641641
 23
0.0000000000001137
 33
0.0
  0
MTEXT
  5
56
330
4E
100
AcDbEntity
  8
-TEXT3
100
AcDbMText
 10
35.47245681641638
 20
3.10061182868808
 30
0.0
 40
4.0
 41
0.0
 71
     5
 72
     1
  1
\A1;3
 73
     1
 44
1.0
1001
ACAD
1000
MTEXTBEGIN
1070
    73
1070
     1
1070
    44
1040
1.0
1070
    74
1070
     0
1000
MTEXTEND
  0
POINT
  5
57
330
4E
100
AcDbEntity
  8
DEFPOINTS
 62
     0
100
AcDbPoint
 10
33.97245681641635
 20
5.091325024105685
 30
0.0
  0
POINT
  5
58
330
4E
100
AcDbEntity
  8
DEFPOINTS
 62
     0
100
AcDbPoint
 10
36.97245681641641
 20
28.79566251205267
 30
0.0
  0
POINT
  5
59
330
4E
100
AcDbEntity
  8
DEFPOINTS
 62
     0
100
AcDbPoint
 10
36.97245681641641
 20
0.0000000000001137
 30
0.0
  0
ENDBLK
  5
5A
330
4E
100
AcDbEntity
  8
0
100
AcDbBlockEnd
  0
BLOCK
  5
5D
330
5C
100
AcDbEntity
  8
0
100
AcDbBlockBegin
  2
*D6
 70
     1
 10
0.0
 20
0.0
 30
0.0
  3
*D6
  1

  0
LINE
  5
5E
330
5C
100
AcDbEntity
  8
-TEXT3
370
    -2
100
AcDbLine
 10
17.97245681641601
 20
3.091325024105572
 30
0.0
 11
17.97245681641601
 21
-1.5
 31
0.0
  0
LINE
  5
5F
330
5C
100
AcDbEntity
  8
-TEXT3
370
    -2
100
AcDbLine
 10
14.97245681641595
 20
26.79566251205256
 30
0.0
 11
14.97245681641595
 21
-1.5
 31
0.0
  0
LINE
  5
60
330
5C
100
AcDbEntity
  8
-TEXT3
370
    -2
100
AcDbLine
 10
21.47245681641601
 20
0.0
 30
0.0
 11
24.97245681641601
 21
0.0
 31
0.0
  0
LINE
  5
61
330
5C
100
AcDbEntity
  8
-TEXT3
370
    -2
100
AcDbLine
 10
11.47245681641595
 20
0.0
 30
0.0
 11
7.972456816415954
 21
0.0
 31
0.0
  0
SOLID
  5
62
330
5C
100
AcDbEntity
  8
-TEXT3
100
AcDbTrace
 10
21.47245681641601
 20
0.5833333333333333
 30
0.0
 11
21.47245681641601
 21
-0.5833333333333333
 31
0.0
 12
17.97245681641601
 22
0.0
 32
0.0
 13
17.97245681641601
 23
0.0
 33
0.0
  0
SOLID
  5
63
330
5C
100
AcDbEntity
  8
-TEXT3
100
AcDbTrace
 10
11.47245681641595
 20
0.5833333333333333
 30
0.0
 11
11.47245681641595
 21
-0.5833333333333333
 31
0.0
 12
14.97245681641595
 22
0.0
 32
0.0
 13
14.97245681641595
 23
0.0
 33
0.0
  0
MTEXT
  5
64
330
5C
100
AcDbEntity
  8
-TEXT3
100
AcDbMText
 10
16.47245681641598
 20
3.100611828687966
 30
0.0
 40
4.0
 41
0.0
 71
     5
 72
     1
  1
\A1;3
 73
     1
 44
1.0
1001
ACAD
1000
MTEXTBEGIN
1070
    73
1070
     1
1070
    44
1040
1.0
1070
    74
1070
     0
1000
MTEXTEND
  0
POINT
  5
65
330
5C
100
AcDbEntity
  8
DEFPOINTS
 62
     0
100
AcDbPoint
 10
17.97245681641601
 20
5.091325024105572
 30
0.0
  0
POINT
  5
66
330
5C
100
AcDbEntity
  8
DEFPOINTS
 62
     0
100
AcDbPoint
 10
14.97245681641595
 20
28.79566251205256
 30
0.0
  0
POINT
  5
67
330
5C
100
AcDbEntity
  8
DEFPOINTS
 62
     0
100
AcDbPoint
 10
14.97245681641595
 20
0.0
 30
0.0
  0
ENDBLK
  5
68
330
5C
100
AcDbEntity
  8
0
100
AcDbBlockEnd
  0
BLOCK
  5
6B
330
6A
100
AcDbEntity
  8
0
100
AcDbBlockBegin
  2
*D7
 70
     1
 10
0.0
 20
0.0
 30
0.0
  3
*D7
  1

  0
LINE
  5
6C
330
6A
100
AcDbEntity
  8
-TEXT3
370
    -2
100
AcDbLine
 10
33.97245681641675
 20
3.091325024105572
 30
0.0
 11
33.97245681641675
 21
-1.5
 31
0.0
  0
LINE
  5
6D
330
6A
100
AcDbEntity
  8
-TEXT3
370
    -2
100
AcDbLine
 10
17.97245681641601
 20
3.091325024105572
 30
0.0
 11
17.97245681641601
 21
-1.5
 31
0.0
  0
LINE
  5
6E
330
6A
100
AcDbEntity
  8
-TEXT3
370
    -2
100
AcDbLine
 10
30.47245681641675
 20
0.0
 30
0.0
 11
21.47245681641601
 21
0.0
 31
0.0
  0
SOLID
  5
6F
330
6A
100
AcDbEntity
  8
-TEXT3
100
AcDbTrace
 10
30.47245681641675
 20
0.5833333333333333
 30
0.0
 11
30.47245681641675
 21
-0.5833333333333333
 31
0.0
 12
33.97245681641675
 22
0.0
 32
0.0
 13
33.97245681641675
 23
0.0
 33
0.0
  0
SOLID
  5
70
330
6A
100
AcDbEntity
  8
-TEXT3
100
AcDbTrace
 10
21.47245681641601
 20
0.5833333333333333
 30
0.0
 11
21.47245681641601
 21
-0.5833333333333333
 31
0.0
 12
17.97245681641601
 22
0.0
 32
0.0
 13
17.97245681641601
 23
0.0
 33
0.0
  0
MTEXT
  5
71
330
6A
100
AcDbEntity
  8
-TEXT3
100
AcDbMText
 10
25.97245681641638
 20
3.100611828687966
 30
0.0
 40
4.0
 41
0.0
 71
     5
 72
     1
  1
\A1;G
 73
     1
 44
1.0
1001
ACAD
1000
MTEXTBEGIN
1070
    73
1070
     1
1070
    44
1040
1.0
1070
    74
1070
     0
1000
MTEXTEND
  0
POINT
  5
72
330
6A
100
AcDbEntity
  8
DEFPOINTS
 62
     0
100
AcDbPoint
 10
33.97245681641675
 20
5.091325024105572
 30
0.0
  0
POINT
  5
73
330
6A
100
AcDbEntity
  8
DEFPOINTS
 62
     0
100
AcDbPoint
 10
17.97245681641601
 20
5.091325024105572
 30
0.0
  0
POINT
  5
74
330
6A
100
AcDbEntity
  8
DEFPOINTS
 62
     0
100
AcDbPoint
 10
17.97245681641601
 20
0.0
 30
0.0
  0
ENDBLK
  5
75
330
6A
100
AcDbEntity
  8
0
100
AcDbBlockEnd
  0
BLOCK
  5
7E
330
7D
100
AcDbEntity
  8
0
100
AcDbBlockBegin
  2
*D8
 70
     1
 10
0.0
 20
0.0
 30
0.0
  3
*D8
  1

  0
LINE
  5
7F
330
7D
100
AcDbEntity
  8
-TEXT3
370
    -2
100
AcDbLine
 10
102.9604968272807
 20
133.7956625120524
 30
0.0
 11
102.9604968272807
 21
161.9119823413997
 31
0.0
  0
LINE
  5
80
330
7D
100
AcDbEntity
  8
-TEXT3
370
    -2
100
AcDbLine
 10
118.9604968272807
 20
133.7956625120524
 30
0.0
 11
118.9604968272807
 21
161.9119823413997
 31
0.0
  0
LINE
  5
81
330
7D
100
AcDbEntity
  8
-TEXT3
370
    -2
100
AcDbLine
 10
106.4604968272807
 20
160.4119823413997
 30
0.0
 11
115.4604968272807
 21
160.4119823413997
 31
0.0
  0
SOLID
  5
82
330
7D
100
AcDbEntity
  8
-TEXT3
100
AcDbTrace
 10
106.4604968272807
 20
160.995315674733
 30
0.0
 11
106.4604968272807
 21
159.8286490080663
 31
0.0
 12
102.9604968272807
 22
160.4119823413997
 32
0.0
 13
102.9604968272807
 23
160.4119823413997
 33
0.0
  0
SOLID
  5
83
330
7D
100
AcDbEntity
  8
-TEXT3
100
AcDbTrace
 10
115.4604968272807
 20
160.995315674733
 30
0.0
 11
115.4604968272807
 21
159.8286490080663
 31
0.0
 12
118.9604968272807
 22
160.4119823413997
 32
0.0
 13
118.9604968272807
 23
160.4119823413997
 33
0.0
  0
MTEXT
  5
84
330
7D
100
AcDbEntity
  8
-TEXT3
100
AcDbMText
 10
110.9604968272807
 20
163.6376791462943
 30
0.0
 40
4.0
 41
0.0
 71
     5
 72
     1
  1
\A1;%%c16
 73
     1
 44
1.0
1001
ACAD
1000
MTEXTBEGIN
1070
    73
1070
     1
1070
    44
1040
1.0
1070
    74
1070
     0
1000
MTEXTEND
  0
POINT
  5
85
330
7D
100
AcDbEntity
  8
DEFPOINTS
 62
     0
100
AcDbPoint
 10
102.9604968272807
 20
131.7956625120524
 30
0.0
  0
POINT
  5
86
330
7D
100
AcDbEntity
  8
DEFPOINTS
 62
     0
100
AcDbPoint
 10
118.9604968272807
 20
131.7956625120524
 30
0.0
  0
POINT
  5
87
330
7D
100
AcDbEntity
  8
DEFPOINTS
 62
     0
100
AcDbPoint
 10
118.9604968272807
 20
160.4119823413997
 30
0.0
  0
ENDBLK
  5
88
330
7D
100
AcDbEntity
  8
0
100
AcDbBlockEnd
  0
BLOCK
  5
CD
330
CC
100
AcDbEntity
  8
0
100
AcDbBlockBegin
  2
*D9
 70
     1
 10
0.0
 20
0.0
 30
0.0
  3
*D9
  1

  0
LINE
  5
CE
330
CC
100
AcDbEntity
  8
-TEXT3
370
    -2
100
AcDbLine
 10
106.9604968272805
 20
145.1186625120524
 30
0.0
 11
106.9604968272805
 21
154.6358207865805
 31
0.0
  0
LINE
  5
CF
330
CC
100
AcDbEntity
  8
-TEXT3
370
    -2
100
AcDbLine
 10
114.9604968272805
 20
145.1186625120524
 30
0.0
 11
114.9604968272805
 21
154.6358207865805
 31
0.0
  0
LINE
  5
D0
330
CC
100
AcDbEntity
  8
-TEXT3
370
    -2
100
AcDbLine
 10
103.4604968272805
 20
153.1358207865805
 30
0.0
 11
99.96049682728052
 21
153.1358207865805
 31
0.0
  0
LINE
  5
D1
330
CC
100
AcDbEntity
  8
-TEXT3
370
    -2
100
AcDbLine
 10
118.4604968272805
 20
153.1358207865805
 30
0.0
 11
131.6695382956694
 21
153.1358207865805
 31
0.0
  0
SOLID
  5
D2
330
CC
100
AcDbEntity
  8
-TEXT3
100
AcDbTrace
 10
103.4604968272805
 20
153.7191541199138
 30
0.0
 11
103.4604968272805
 21
152.5524874532472
 31
0.0
 12
106.9604968272805
 22
153.1358207865805
 32
0.0
 13
106.9604968272805
 23
153.1358207865805
 33
0.0
  0
SOLID
  5
D3
330
CC
100
AcDbEntity
  8
-TEXT3
100
AcDbTrace
 10
118.4604968272805
 20
153.7191541199138
 30
0.0
 11
118.4604968272805
 21
152.5524874532472
 31
0.0
 12
114.9604968272805
 22
153.1358207865805
 32
0.0
 13
114.9604968272805
 23
153.1358207865805
 33
0.0
  0
MTEXT
  5
D4
330
CC
100
AcDbEntity
  8
-TEXT3
100
AcDbMText
 10
126.8150175614749
 20
156.2364326152685
 30
0.0
 40
4.0
 41
0.0
 71
     5
 72
     1
  1
\A1;M8
 73
     1
 44
1.0
1001
ACAD
1000
MTEXTBEGIN
1070
    73
1070
     1
1070
    44
1040
1.0
1070
    74
1070
     0
1000
MTEXTEND
  0
POINT
  5
D5
330
CC
100
AcDbEntity
  8
DEFPOINTS
 62
     0
100
AcDbPoint
 10
106.9604968272805
 20
143.1186625120524
 30
0.0
  0
POINT
  5
D6
330
CC
100
AcDbEntity
  8
DEFPOINTS
 62
     0
100
AcDbPoint
 10
114.9604968272805
 20
143.1186625120524
 30
0.0
  0
POINT
  5
D7
330
CC
100
AcDbEntity
  8
DEFPOINTS
 62
     0
100
AcDbPoint
 10
114.9604968272805
 20
153.1358207865805
 30
0.0
  0
ENDBLK
  5
D8
330
CC
100
AcDbEntity
  8
0
100
AcDbBlockEnd
  0
BLOCK
  5
DC
330
DB
100
AcDbEntity
  8
0
100
AcDbBlockBegin
  2
*D10
 70
     1
 10
0.0
 20
0.0
 30
0.0
  3
*D10
  1

  0
LINE
  5
DD
330
DB
100
AcDbEntity
  8
-TEXT3
370
    -2
100
AcDbLine
 10
120.9604968272807
 20
131.7956625120524
 30
0.0
 11
135.0950806206152
 21
131.7956625120524
 31
0.0
  0
LINE
  5
DE
330
DB
100
AcDbEntity
  8
-TEXT3
370
    -2
100
AcDbLine
 10
120.9604968272808
 20
143.7956625120524
 30
0.0
 11
135.0950806206152
 21
143.7956625120524
 31
0.0
  0
LINE
  5
DF
330
DB
100
AcDbEntity
  8
-TEXT3
370
    -2
100
AcDbLine
 10
133.5950806206152
 20
135.2956625120524
 30
0.0
 11
133.5950806206152
 21
140.2956625120524
 31
0.0
  0
SOLID
  5
E0
330
DB
100
AcDbEntity
  8
-TEXT3
100
AcDbTrace
 10
133.0117472872818
 20
135.2956625120524
 30
0.0
 11
134.1784139539485
 21
135.2956625120524
 31
0.0
 12
133.5950806206152
 22
131.7956625120524
 32
0.0
 13
133.5950806206152
 23
131.7956625120524
 33
0.0
  0
SOLID
  5
E1
330
DB
100
AcDbEntity
  8
-TEXT3
100
AcDbTrace
 10
133.0117472872818
 20
140.2956625120524
 30
0.0
 11
134.1784139539485
 21
140.2956625120524
 31
0.0
 12
133.5950806206152
 22
143.7956625120524
 32
0.0
 13
133.5950806206152
 23
143.7956625120524
 33
0.0
  0
MTEXT
  5
E2
330
DB
100
AcDbEntity
  8
-TEXT3
100
AcDbMText
 10
130.5447747062711
 20
137.7956625120524
 30
0.0
 40
4.0
 41
0.0
 71
     5
 72
     1
  1
\A1;12
 11
0.0000000000000001
 21
1.0
 31
0.0
 73
     1
 44
1.0
1001
ACAD
1000
MTEXTBEGIN
1070
    73
1070
     1
1070
    44
1040
1.0
1070
    74
1070
     0
1000
MTEXTEND
  0
POINT
  5
E3
330
DB
100
AcDbEntity
  8
DEFPOINTS
 62
     0
100
AcDbPoint
 10
118.9604968272807
 20
131.7956625120524
 30
0.0
  0
POINT
  5
E4
330
DB
100
AcDbEntity
  8
DEFPOINTS
 62
     0
100
AcDbPoint
 10
118.9604968272808
 20
143.7956625120524
 30
0.0
  0
POINT
  5
E5
330
DB
100
AcDbEntity
  8
DEFPOINTS
 62
     0
100
AcDbPoint
 10
133.5950806206152
 20
143.7956625120524
 30
0.0
  0
ENDBLK
  5
E6
330
DB
100
AcDbEntity
  8
0
100
AcDbBlockEnd
  0
BLOCK
  5
E9
330
E8
100
AcDbEntity
  8
0
100
AcDbBlockBegin
  2
*D11
 70
     1
 10
0.0
 20
0.0
 30
0.0
  3
*D11
  1

  0
LINE
  5
EA
330
E8
100
AcDbEntity
  8
-TEXT3
370
    -2
100
AcDbLine
 10
120.9604968272807
 20
131.7956625120524
 30
0.0
 11
135.0950806206152
 21
131.7956625120524
 31
0.0
  0
LINE
  5
EB
330
E8
100
AcDbEntity
  8
-TEXT3
370
    -2
100
AcDbLine
 10
84.87245681641498
 20
46.79566251205289
 30
0.0
 11
135.0950806206152
 21
46.79566251205289
 31
0.0
  0
LINE
  5
EC
330
E8
100
AcDbEntity
  8
-TEXT3
370
    -2
100
AcDbLine
 10
133.5950806206152
 20
128.2956625120524
 30
0.0
 11
133.5950806206152
 21
50.29566251205289
 31
0.0
  0
SOLID
  5
ED
330
E8
100
AcDbEntity
  8
-TEXT3
100
AcDbTrace
 10
133.0117472872819
 20
128.2956625120524
 30
0.0
 11
134.1784139539485
 21
128.2956625120524
 31
0.0
 12
133.5950806206152
 22
131.7956625120524
 32
0.0
 13
133.5950806206152
 23
131.7956625120524
 33
0.0
  0
SOLID
  5
EE
330
E8
100
AcDbEntity
  8
-TEXT3
100
AcDbTrace
 10
133.0117472872818
 20
50.29566251205289
 30
0.0
 11
134.1784139539485
 21
50.29566251205289
 31
0.0
 12
133.5950806206152
 22
46.79566251205289
 32
0.0
 13
133.5950806206152
 23
46.79566251205289
 33
0.0
  0
MTEXT
  5
EF
330
E8
100
AcDbEntity
  8
-TEXT3
100
AcDbMText
 10
130.4944687919272
 20
89.29566251205269
 30
0.0
 40
4.0
 41
0.0
 71
     5
 72
     1
  1
\A1;85
 11
0.0000000000000001
 21
1.0
 31
0.0
 73
     1
 44
1.0
1001
ACAD
1000
MTEXTBEGIN
1070
    73
1070
     1
1070
    44
1040
1.0
1070
    74
1070
     0
1000
MTEXTEND
  0
POINT
  5
F0
330
E8
100
AcDbEntity
  8
DEFPOINTS
 62
     0
100
AcDbPoint
 10
118.9604968272807
 20
131.7956625120524
 30
0.0
  0
POINT
  5
F1
330
E8
100
AcDbEntity
  8
DEFPOINTS
 62
     0
100
AcDbPoint
 10
82.87245681641499
 20
46.79566251205289
 30
0.0
  0
POINT
  5
F2
330
E8
100
AcDbEntity
  8
DEFPOINTS
 62
     0
100
AcDbPoint
 10
133.5950806206152
 20
46.79566251205289
 30
0.0
  0
ENDBLK
  5
F3
330
E8
100
AcDbEntity
  8
0
100
AcDbBlockEnd
  0
BLOCK
  5
F7
330
F6
100
AcDbEntity
  8
0
100
AcDbBlockBegin
  2
ANSICHT52
 70
     0
 10
0.0
 20
0.0
 30
0.0
  3
ANSICHT52
  1

  0
CIRCLE
  5
F8
330
F6
100
AcDbEntity
  8
-PROFILAUSSENKANTET
100
AcDbCircle
 10
-0.0000000000241505
 20
-97.34816104632308
 30
0.0
 40
10.0
  0
CIRCLE
  5
F9
330
F6
100
AcDbEntity
  8
-SCHRAFFUR
100
AcDbCircle
 10
-0.0000000000241567
 20
-97.34816104632308
 30
0.0
 40
24.32879797461047
  0
CIRCLE
  5
FA
330
F6
100
AcDbEntity
  8
-PROFILAUSSENKANTET
100
AcDbCircle
 10
-0.0000000000241567
 20
-97.34816104632308
 30
0.0
 40
26.0
  0
LWPOLYLINE
  5
FB
330
F6
100
AcDbEntity
  8
-VERGLASUNG
100
AcDbPolyline
 90
        4
 70
     0
 43
0.0
 10
-72.97749106091817
 20
-17.34816104632338
 10
77.99999999997573
 20
-17.34816104632327
 10
79.99999999997573
 20
-19.34816104632327
 10
79.99999999997584
 20
-149.3273672017092
  0
LINE
  5
FC
330
F6
100
AcDbEntity
  8
-SYSTEM
100
AcDbLine
 10
29.99656340967727
 20
-97.34816104632294
 30
0.0
 11
-29.99656340972557
 21
-97.34816104632322
 31
0.0
  0
LINE
  5
FD
330
F6
100
AcDbEntity
  8
-SYSTEM
100
AcDbLine
 10
-0.0000000000242988
 20
-67.35159763662164
 30
0.0
 11
-0.0000000000240146
 21
-127.3447244560244
 31
0.0
  0
CIRCLE
  5
FE
330
F6
100
AcDbEntity
  8
-PROFILAUSSENKANTET
100
AcDbCircle
 10
-3.500000000024128
 20
-103.4103388728141
 30
0.0
 40
1.75
  0
CIRCLE
  5
FF
330
F6
100
AcDbEntity
  8
-PROFILAUSSENKANTET
100
AcDbCircle
 10
-3.50000000002417
 20
-91.28598321983199
 30
0.0
 40
1.75
  0
MTEXT
  5
100
330
F6
100
AcDbEntity
  8
-TEXT2
100
AcDbMText
 10
49.17713572762614
 20
-5.128944079777738
 30
0.0
 40
3.5
 41
17.9978
 71
     1
 72
     5
  1
{\fArial|b0|i0|c0|p34;Glaskante}
 73
     1
 44
1.0
1001
ACAD
1000
MTEXTBEGIN
1070
    73
1070
     1
1070
    44
1040
1.0
1070
    74
1070
     0
1000
MTEXTEND
  0
CIRCLE
  5
102
330
F6
100
AcDbEntity
  8
-PROFILAUSSENKANTET
100
AcDbCircle
 10
6.999999999975843
 20
-97.34816104632303
 30
0.0
 40
1.75
  0
LWPOLYLINE
  5
103
330
F6
100
AcDbEntity
  8
-TEXT2
100
AcDbPolyline
 90
        3
 70
     1
 43
0.0
 10
57.78044804003911
 20
-17.34816104632335
 10
61.91438540270016
 20
-10.18797149888712
 10
53.64651067737807
 20
-10.18797149888712
  0
ENDBLK
  5
104
330
F6
100
AcDbEntity
  8
0
100
AcDbBlockEnd
  0
ENDSEC
  0
SECTION
  2
ENTITIES
  0
DIMENSION
  5
9
330
2
100
AcDbEntity
  8
-TEXT3
100
AcDbDimension
  2
*D1
 10
118.9604968272807
 20
0.0
 30
0.0
 11
86.46049682728071
 21
3.100611828687966
 31
0.0
 71
     5
 42
64.99999999999999
  3
1-1PRO
100
AcDbAlignedDimension
 13
53.96049682728071
 23
43.29566251205244
 33
0.0
 14
118.9604968272807
 24
82.7956625120529
 34
0.0
100
AcDbRotatedDimension
  0
LWPOLYLINE
  5
1B
330
2
100
AcDbEntity
  8
-VERGLASUNG
100
AcDbPolyline
 90
        6
 70
     0
 43
0.0
 10
17.97245681641601
 20
5.091325024105572
 10
17.97245681641647
 20
133.7956625120522
 10
18.97245681641658
 20
134.7956625120522
 10
32.97245681641704
 20
134.7956625120522
 10
33.97245681641704
 20
133.7956625120522
 10
33.97245681641675
 20
5.091325024105572
  0
LINE
  5
1D
330
2
100
AcDbEntity
  8
-SCHRAFFUR
100
AcDbLine
 10
40.84770771087192
 20
80.61642872597179
 30
0.0
 11
40.84770771087136
 21
28.97489629813311
 31
0.0
  0
LWPOLYLINE
  5
1F
330
2
100
AcDbEntity
  8
-PROFILAUSSENKANTET
100
AcDbPolyline
 90
       12
 70
     0
 43
0.0
 10
47.06049682728076
 20
67.29566251205267
 42
-0.359993514460748
 10
44.24725054510941
 20
69.25371944458231
 10
41.21419224018569
 20
80.14297686787575
 42
0.3137493583979839
 10
40.2764434794621
 20
80.79566251205244
 10
36.97245681641658
 20
80.79566251205267
 10
36.97245681641653
 20
64.79566251205267
 10
36.97245681641658
 20
80.79566251205267
 10
36.97245681641641
 20
28.79566251205267
 10
40.27644347946159
 20
28.79566251205267
 42
0.3137493583978978
 10
41.2141922401853
 20
29.44834815622915
 10
44.2472505451091
 20
40.33760557952371
 42
-0.3599935144608335
 10
47.06049682728021
 20
42.29566251205267
  0
LWPOLYLINE
  5
21
102
{ACAD_REACTORS
330
F4
102
}
330
2
100
AcDbEntity
  8
-DICHTUNG
100
AcDbPolyline
 90
        4
 70
     1
 43
0.0
 10
36.97245681641641
 20
29.2956625120529
 10
36.97245681641658
 20
80.2956625120529
 10
33.97245681641658
 20
80.2956625120529
 10
33.97245681641641
 20
29.2956625120529
  0
DIMENSION
  5
23
330
2
100
AcDbEntity
  8
-TEXT3
100
AcDbDimension
  2
*D2
 10
53.96049682728071
 20
-0.0000000000000284
 30
0.0
 11
45.46647682184858
 21
3.050305914343955
 31
0.0
 71
     5
 42
16.98804001086424
  3
1-1PRO
100
AcDbAlignedDimension
 13
36.97245681641647
 23
19.49999999999988
 33
0.0
 14
53.96049682728071
 24
43.29566251205244
 34
0.0
 50
180.0
100
AcDbRotatedDimension
  0
DIMENSION
  5
30
330
2
100
AcDbEntity
  8
-TEXT3
100
AcDbDimension
  2
*D3
 10
-3.182710813254601
 20
80.79566251205273
 30
0.0
 11
-6.408407618149245
 21
54.79566251205241
 31
0.0
  1
%%c<>
 71
     5
 42
52.00000000000063
  3
1-1PRO
100
AcDbAlignedDimension
 13
11.16671099318259
 23
28.7956625120521
 33
0.0
 14
11.16671099318304
 24
80.79566251205273
 34
0.0
 50
90.0
100
AcDbRotatedDimension
  0
LWPOLYLINE
  5
3D
330
2
100
AcDbEntity
  8
-PROFILAUSSENKANTET
100
AcDbPolyline
 90
       11
 70
     0
 43
0.0
 10
14.97245681641604
 20
28.7956625120521
 10
14.97245681641615
 20
80.79566251205216
 10
11.1667109931835
 20
80.79566251205216
 42
0.375901963977188
 10
9.184255191818095
 20
79.05998995223416
 10
7.016317313002986
 20
65.69406593066304
 42
0.033150018187446
 10
6.972456816416155
 20
65.03324733020804
 10
6.972456816416155
 20
45.77892485775282
 42
0.0413106451481675
 10
7.040487197255373
 20
44.95692992122622
 10
9.1939231455178
 20
30.46686453744155
 42
0.3666293647015965
 10
11.16671099318202
 20
28.7956625120521
 10
14.97245681641604
 20
28.7956625120521
  0
LWPOLYLINE
  5
3E
102
{ACAD_REACTORS
330
F4
102
}
330
2
100
AcDbEntity
  8
-DICHTUNG
100
AcDbPolyline
 90
        4
 70
     1
 43
0.0
 10
17.97245681641615
 20
29.29566251205211
 10
17.97245681641615
 20
80.29566251205215
 10
14.97245681641615
 20
80.29566251205215
 10
14.97245681641615
 20
29.29566251205211
  0
DIMENSION
  5
3F
330
2
100
AcDbEntity
  8
-TEXT3
100
AcDbDimension
  2
*D4
 10
6.999999999999997
 20
0.0
 30
0.0
 11
10.98622840820797
 21
3.100611828687966
 31
0.0
 71
     5
 42
7.972456816415956
  3
1-1PRO
100
AcDbAlignedDimension
 13
14.97245681641595
 23
26.79566251205256
 33
0.0
 14
7.0
 24
44.66308436538366
 34
0.0
100
AcDbRotatedDimension
  0
DIMENSION
  5
4D
330
2
100
AcDbEntity
  8
-TEXT3
100
AcDbDimension
  2
*D5
 10
36.97245681641641
 20
0.0000000000001137
 30
0.0
 11
35.47245681641638
 21
0.0000000000001137
 31
0.0
 70
   128
 71
     5
 42
3.000000000000056
  3
1-1PRO
100
AcDbAlignedDimension
 13
33.97245681641635
 23
5.091325024105685
 33
0.0
 14
36.97245681641641
 24
28.79566251205267
 34
0.0
 50
180.0
100
AcDbRotatedDimension
  0
DIMENSION
  5
5B
330
2
100
AcDbEntity
  8
-TEXT3
100
AcDbDimension
  2
*D6
 10
14.97245681641595
 20
0.0
 30
0.0
 11
16.47245681641598
 21
0.0
 31
0.0
 70
   128
 71
     5
 42
3.000000000000056
  3
1-1PRO
100
AcDbAlignedDimension
 13
17.97245681641601
 23
5.091325024105572
 33
0.0
 14
14.97245681641595
 24
28.79566251205256
 34
0.0
 50
180.0
100
AcDbRotatedDimension
  0
DIMENSION
  5
69
330
2
100
AcDbEntity
  8
-TEXT3
100
AcDbDimension
  2
*D7
 10
17.97245681641601
 20
0.0
 30
0.0
 11
25.97245681641638
 21
3.100611828687966
 31
0.0
  1
G
 71
     5
 42
16.00000000000074
  3
1-1PRO
100
AcDbAlignedDimension
 13
33.97245681641675
 23
5.091325024105572
 33
0.0
 14
17.97245681641601
 24
5.091325024105572
 34
0.0
100
AcDbRotatedDimension
  0
LINE
  5
76
330
2
100
AcDbEntity
  8
-VERGLASUNG
100
AcDbLine
 10
33.97245702854906
 20
16.11003320542431
 30
0.0
 11
30.07858220892302
 21
20.00390802505035
 31
0.0
  0
LINE
  5
77
330
2
100
AcDbEntity
  8
-VERGLASUNG
100
AcDbLine
 10
21.86633184817441
 20
14.4549477694336
 30
0.0
 11
17.97245702854837
 21
18.34882258905963
 31
0.0
  0
LINE
  5
78
330
2
100
AcDbEntity
  8
-VERGLASUNG
100
AcDbLine
 10
21.86633184817441
 20
16.0174477694336
 30
0.0
 11
17.97245702854837
 21
19.91132258905963
 31
0.0
  0
LINE
  5
79
330
2
100
AcDbEntity
  8
-VERGLASUNG
100
AcDbLine
 10
21.86633184817441
 20
12.8924477694336
 30
0.0
 11
17.97245702854837
 21
16.78632258905963
 31
0.0
  0
LINE
  5
7A
330
2
100
AcDbEntity
  8
-VERGLASUNG
100
AcDbLine
 10
33.97245702854906
 20
19.23503320542431
 30
0.0
 11
30.07858220892314
 21
23.12890802505035
 31
0.0
  0
LINE
  5
7B
330
2
100
AcDbEntity
  8
-VERGLASUNG
100
AcDbLine
 10
33.97245702854906
 20
17.67253320542431
 30
0.0
 11
30.07858220892302
 21
21.56640802505035
 31
0.0
  0
DIMENSION
  5
7C
330
2
100
AcDbEntity
  8
-TEXT3
100
AcDbDimension
  2
*D8
 10
118.9604968272807
 20
160.4119823413997
 30
0.0
 11
110.9604968272807
 21
163.6376791462943
 31
0.0
  1
%%c<>
 71
     5
 42
16.0
  3
1-1PRO
100
AcDbAlignedDimension
 13
102.9604968272807
 23
131.7956625120524
 33
0.0
 14
118.9604968272807
 24
131.7956625120524
 34
0.0
100
AcDbRotatedDimension
  0
LWPOLYLINE
  5
89
330
2
100
AcDbEntity
  8
-PROFILAUSSENKANTET
100
AcDbPolyline
 90
        8
 70
     1
 43
0.0
 10
102.9604968272807
 20
131.7956625120524
 10
102.9604968272807
 20
82.79566251205295
 42
-0.4133028837108889
 10
82.87245681641675
 20
62.79566251205295
 10
53.96049682728071
 20
62.7956625120529
 10
53.96049682728071
 20
46.79566251205289
 10
82.8724568164168
 20
46.79566251205289
 42
0.4137073812115492
 10
118.9604968272807
 20
82.7956625120529
 10
118.9604968272807
 20
131.7956625120524
  0
ARC
  5
8A
330
2
100
AcDbEntity
  8
-SYSTEM
100
AcDbCircle
 10
82.88533271446313
 20
82.87092455085394
 30
0.0
 40
28.07526499137851
100
AcDbArc
 50
269.9737229678297
 51
359.8464056404452
  0
LINE
  5
8D
330
2
100
AcDbEntity
  8
-SCHRAFFUR
100
AcDbLine
 10
114.2834968272804
 20
143.7956625120524
 30
0.0
 11
114.2834968272804
 21
131.7956625120523
 31
0.0
  0
LWPOLYLINE
  5
8E
330
2
100
AcDbEntity
  8
-NORMTEIL
100
AcDbPolyline
 90
        6
 70
     0
 43
0.0
 10
114.9604968272805
 20
131.7956625120524
 10
114.9604968272805
 20
143.1186625120524
 10
114.2834968272804
 20
143.7956625120524
 10
107.6374968272802
 20
143.7956625120525
 10
106.9604968272805
 20
143.1186625120524
 10
106.9604968272805
 20
131.7956625120524
  0
LINE
  5
90
330
2
100
AcDbEntity
  8
-SCHRAFFUR
100
AcDbLine
 10
107.6374968272802
 20
143.7956625120524
 30
0.0
 11
107.6374968272802
 21
131.7956625120524
 31
0.0
  0
LINE
  5
91
330
2
100
AcDbEntity
  8
-SYSTEM
100
AcDbLine
 10
110.9604968272807
 20
150.0869998377452
 30
0.0
 11
110.9604968272807
 21
82.79566251205238
 31
0.0
  0
LINE
  5
92
330
2
100
AcDbEntity
  8
-NORMTEIL_VERDECKT
100
AcDbLine
 10
44.06049682728069
 20
60.7956625120529
 30
0.0
 11
44.06049682728069
 21
48.79566251205289
 31
0.0
  0
LWPOLYLINE
  5
95
330
2
100
AcDbEntity
  8
-NORMTEIL_VERDECKT
100
AcDbPolyline
 90
        4
 70
     0
 43
0.0
 10
36.97245681641647
 20
45.79566251205233
 10
19.97245681641601
 20
45.79566251205227
 10
19.97245681641601
 20
63.79566251205227
 10
36.97245681641653
 20
63.79566251205233
  0
LINE
  5
96
330
2
100
AcDbEntity
  8
-NORMTEIL_VERDECKT
100
AcDbLine
 10
34.63879390171366
 20
50.79566251205244
 30
0.0
 11
34.63879390171366
 21
58.79566251205244
 31
0.0
  0
LINE
  5
97
330
2
100
AcDbEntity
  8
-NORMTEIL_VERDECKT
100
AcDbLine
 10
34.63879390171366
 20
50.79566251205244
 30
0.0
 11
34.63879390171366
 21
58.79566251205244
 31
0.0
  0
LINE
  5
98
330
2
100
AcDbEntity
  8
-NORMTEIL_VERDECKT
100
AcDbLine
 10
34.63879390171366
 20
50.79566251205244
 30
0.0
 11
34.63879390171366
 21
58.79566251205244
 31
0.0
  0
LINE
  5
99
330
2
100
AcDbEntity
  8
-PROFILAUSSENKANTET
100
AcDbLine
 10
53.96049682728071
 20
43.29566251205244
 30
0.0
 11
53.96049682728071
 21
66.29566251205289
 31
0.0
  0
LWPOLYLINE
  5
9A
330
2
100
AcDbEntity
  8
-NORMTEIL_VERDECKT
100
AcDbPolyline
 90
        6
 70
     0
 43
0.0
 10
14.97245681641584
 20
50.79566251205244
 10
34.63879390171366
 20
50.79566251205244
 10
35.31579390171368
 20
51.47266251205258
 10
35.31579390171371
 20
58.11866251205277
 10
34.63879390171368
 20
58.79566251205244
 10
14.9724568164159
 20
58.79566251205244
  0
LINE
  5
9B
330
2
100
AcDbEntity
  8
-SCHRAFFUR
100
AcDbLine
 10
45.30142978786733
 20
67.7683157702362
 30
0.0
 11
45.30142978786687
 21
41.82300925386948
 31
0.0
  0
LINE
  5
9C
330
2
100
AcDbEntity
  8
-SCHRAFFUR
100
AcDbLine
 10
52.96049682728071
 20
67.29566251205267
 30
0.0
 11
52.96049682728071
 21
42.29566251205244
 31
0.0
  0
LINE
  5
9D
330
2
100
AcDbEntity
  8
-NORMTEIL_VERDECKT
100
AcDbLine
 10
33.9724568164165
 20
42.71566251205297
 30
0.0
 11
33.9724568164165
 21
66.87566251205282
 31
0.0
  0
LINE
  5
9E
330
2
100
AcDbEntity
  8
-NORMTEIL_VERDECKT
100
AcDbLine
 10
17.97245681641624
 20
44.29566251205279
 30
0.0
 11
17.97245681641624
 21
65.29566251205278
 31
0.0
  0
LINE
  5
9F
330
2
100
AcDbEntity
  8
-SYSTEM
100
AcDbLine
 10
0.4948529264360673
 20
54.79566251205222
 30
0.0
 11
82.8724568164168
 21
54.79566251205238
 31
0.0
  0
LINE
  5
A0
330
2
100
AcDbEntity
  8
-VERGLASUNG
100
AcDbLine
 10
33.97245695783835
 20
34.16216726673565
 30
0.0
 11
30.07858213821231
 21
38.05604208636168
 31
0.0
  0
LINE
  5
A1
330
2
100
AcDbEntity
  8
-VERGLASUNG
100
AcDbLine
 10
33.97245695783835
 20
35.72466726673565
 30
0.0
 11
30.07858213821231
 21
39.61854208636168
 31
0.0
  0
LINE
  5
A2
330
2
100
AcDbEntity
  8
-VERGLASUNG
100
AcDbLine
 10
21.8663317774637
 20
34.06958183074494
 30
0.0
 11
17.97245695783766
 21
37.96345665037097
 31
0.0
  0
LINE
  5
A3
330
2
100
AcDbEntity
  8
-NORMTEIL_VERDECKT
100
AcDbLine
 10
33.97245681641681
 20
41.79566251205227
 30
0.0
 11
17.97245681641612
 21
41.79566251205227
 31
0.0
  0
LINE
  5
A4
330
2
100
AcDbEntity
  8
-VERGLASUNG
100
AcDbLine
 10
21.8663317774637
 20
30.94458183074494
 30
0.0
 11
17.97245695783766
 21
34.83845665037097
 31
0.0
  0
LINE
  5
A5
330
2
100
AcDbEntity
  8
-VERGLASUNG
100
AcDbLine
 10
21.8663317774637
 20
32.50708183074494
 30
0.0
 11
17.97245695783766
 21
36.40095665037097
 31
0.0
  0
LINE
  5
A6
330
2
100
AcDbEntity
  8
-PROFILAUSSENKANTET
100
AcDbLine
 10
52.96049682728071
 20
42.29566251205244
 30
0.0
 11
47.06049682728024
 21
42.29566251205267
 31
0.0
  0
ARC
  5
A7
330
2
100
AcDbEntity
  8
-PROFILAUSSENKANTET
100
AcDbCircle
 10
52.96049682728071
 20
43.29566251205244
 30
0.0
 40
1.0
100
AcDbArc
 50
270.0
 51
0.0
  0
LINE
  5
A8
330
2
100
AcDbEntity
  8
-NORMTEIL_VERDECKT
100
AcDbLine
 10
33.97245681641681
 20
43.79566251205227
 30
0.0
 11
17.97245681641612
 21
43.79566251205221
 31
0.0
  0
LINE
  5
A9
330
2
100
AcDbEntity
  8
-NORMTEIL_VERDECKT
100
AcDbLine
 10
35.31579390171368
 20
51.47266251205258
 30
0.0
 11
14.97245681641578
 21
51.47266251205258
 31
0.0
  0
LINE
  5
AA
330
2
100
AcDbEntity
  8
-NORMTEIL_VERDECKT
100
AcDbLine
 10
10.97245681641706
 20
49.79566251205165
 30
0.0
 11
10.97245681641706
 21
52.79566251205165
 31
0.0
  0
LWPOLYLINE
  5
AB
330
2
100
AcDbEntity
  8
-NORMTEIL_VERDECKT
100
AcDbPolyline
 90
        5
 70
     0
 43
0.0
 10
6.972456816417064
 20
49.79566251205165
 10
10.97245681641706
 20
49.79566251205165
 10
11.97245681641706
 20
51.29566251205165
 10
10.97245681641706
 20
52.79566251205165
 10
6.972456816416155
 20
52.79566251205165
  0
LINE
  5
AC
330
2
100
AcDbEntity
  8
-VERGLASUNG
100
AcDbLine
 10
33.97245695783835
 20
37.28716726673565
 30
0.0
 11
30.07858213821243
 21
41.18104208636168
 31
0.0
  0
LINE
  5
AD
330
2
100
AcDbEntity
  8
-NORMTEIL_VERDECKT
100
AcDbLine
 10
53.96049682728071
 20
49.81116251205287
 30
0.0
 11
44.06049682728069
 21
49.81116251205287
 31
0.0
  0
LINE
  5
AE
330
2
100
AcDbEntity
  8
-NORMTEIL_VERDECKT
100
AcDbLine
 10
44.06049682728069
 20
48.79566251205289
 30
0.0
 11
53.96049682728071
 21
48.79566251205289
 31
0.0
  0
LINE
  5
AF
330
2
100
AcDbEntity
  8
-VERGLASUNG
100
AcDbLine
 10
33.97245688712764
 20
71.80500538085818
 30
0.0
 11
30.0785820675016
 21
75.69888020048421
 31
0.0
  0
LINE
  5
B0
330
2
100
AcDbEntity
  8
-VERGLASUNG
100
AcDbLine
 10
33.97245688712764
 20
73.36750538085818
 30
0.0
 11
30.0785820675016
 21
77.26138020048421
 31
0.0
  0
LINE
  5
B1
330
2
100
AcDbEntity
  8
-VERGLASUNG
100
AcDbLine
 10
33.97245688712764
 20
74.93000538085818
 30
0.0
 11
30.07858206750171
 21
78.82388020048421
 31
0.0
  0
LINE
  5
B2
330
2
100
AcDbEntity
  8
-NORMTEIL_VERDECKT
100
AcDbLine
 10
33.97245681641687
 20
65.79566251205227
 30
0.0
 11
17.97245681641612
 21
65.79566251205221
 31
0.0
  0
LINE
  5
B3
330
2
100
AcDbEntity
  8
-NORMTEIL_VERDECKT
100
AcDbLine
 10
33.97245681641687
 20
67.79566251205228
 30
0.0
 11
17.97245681641618
 21
67.79566251205228
 31
0.0
  0
LINE
  5
B4
330
2
100
AcDbEntity
  8
-NORMTEIL_VERDECKT
100
AcDbLine
 10
35.31579390171368
 20
58.11866251205277
 30
0.0
 11
14.9724568164159
 21
58.11866251205277
 31
0.0
  0
LINE
  5
B5
330
2
100
AcDbEntity
  8
-VERGLASUNG
100
AcDbLine
 10
21.86633170675299
 20
68.58741994486746
 30
0.0
 11
17.97245688712695
 21
72.48129476449349
 31
0.0
  0
LWPOLYLINE
  5
B6
330
2
100
AcDbEntity
  8
-NORMTEIL_VERDECKT
100
AcDbPolyline
 90
        5
 70
     0
 43
0.0
 10
6.972456816417064
 20
60.29566251205165
 10
10.97245681641706
 20
60.29566251205165
 10
11.97245681641706
 20
61.79566251205165
 10
10.97245681641706
 20
63.29566251205164
 10
6.972456816417064
 20
63.29566251205164
  0
LINE
  5
B7
330
2
100
AcDbEntity
  8
-NORMTEIL_VERDECKT
100
AcDbLine
 10
10.97245681641706
 20
60.29566251205165
 30
0.0
 11
10.97245681641706
 21
63.29566251205164
 31
0.0
  0
LINE
  5
B8
330
2
100
AcDbEntity
  8
-VERGLASUNG
100
AcDbLine
 10
21.86633170675299
 20
70.14991994486746
 30
0.0
 11
17.97245688712695
 21
74.04379476449349
 31
0.0
  0
LINE
  5
B9
330
2
100
AcDbEntity
  8
-VERGLASUNG
100
AcDbLine
 10
21.86633170675299
 20
71.71241994486746
 30
0.0
 11
17.97245688712695
 21
75.60629476449349
 31
0.0
  0
LINE
  5
BA
330
2
100
AcDbEntity
  8
-NORMTEIL_VERDECKT
100
AcDbLine
 10
53.96049682728071
 20
59.78016251205338
 30
0.0
 11
44.06049682728069
 21
59.78016251205338
 31
0.0
  0
LINE
  5
BB
330
2
100
AcDbEntity
  8
-NORMTEIL_VERDECKT
100
AcDbLine
 10
53.96049682728071
 20
60.7956625120529
 30
0.0
 11
44.06049682728069
 21
60.7956625120529
 31
0.0
  0
LINE
  5
BC
330
2
100
AcDbEntity
  8
-PROFILAUSSENKANTET
100
AcDbLine
 10
36.97245681641647
 20
63.79566251205289
 30
0.0
 11
36.97245681641647
 21
64.79566251205267
 31
0.0
  0
LINE
  5
BD
330
2
100
AcDbEntity
  8
-PROFILAUSSENKANTET
100
AcDbLine
 10
47.0604968272807
 20
67.29566251205267
 30
0.0
 11
52.96049682728082
 21
67.29566251205267
 31
0.0
  0
ARC
  5
BE
330
2
100
AcDbEntity
  8
-PROFILAUSSENKANTET
100
AcDbCircle
 10
52.96049682728071
 20
66.29566251205289
 30
0.0
 40
1.0
100
AcDbArc
 50
0.0
 51
90.0
  0
LINE
  5
BF
330
2
100
AcDbEntity
  8
-VERGLASUNG
100
AcDbLine
 10
33.97245681641692
 20
94.23503329170376
 30
0.0
 11
30.078581996791
 21
98.1289081113298
 31
0.0
  0
LINE
  5
C0
330
2
100
AcDbEntity
  8
-VERGLASUNG
100
AcDbLine
 10
33.97245681641692
 20
92.67253329170376
 30
0.0
 11
30.07858199679089
 21
96.5664081113298
 31
0.0
  0
LINE
  5
C1
330
2
100
AcDbEntity
  8
-VERGLASUNG
100
AcDbLine
 10
21.86633163604227
 20
89.45494785571304
 30
0.0
 11
17.97245681641624
 21
93.34882267533908
 31
0.0
  0
LINE
  5
C2
330
2
100
AcDbEntity
  8
-VERGLASUNG
100
AcDbLine
 10
21.86633163604227
 20
87.89244785571304
 30
0.0
 11
17.97245681641624
 21
91.78632267533908
 31
0.0
  0
LINE
  5
C3
330
2
100
AcDbEntity
  8
-VERGLASUNG
100
AcDbLine
 10
21.86633163604227
 20
91.01744785571304
 30
0.0
 11
17.97245681641624
 21
94.91132267533908
 31
0.0
  0
LINE
  5
C4
330
2
100
AcDbEntity
  8
-VERGLASUNG
100
AcDbLine
 10
33.97245681641692
 20
91.11003329170376
 30
0.0
 11
30.07858199679089
 21
95.00390811132978
 31
0.0
  0
LINE
  5
C5
330
2
100
AcDbEntity
  8
-VERGLASUNG
100
AcDbLine
 10
33.97245674570621
 20
119.2350333204635
 30
0.0
 11
30.07858192608029
 21
123.1289081400896
 31
0.0
  0
LINE
  5
C6
330
2
100
AcDbEntity
  8
-VERGLASUNG
100
AcDbLine
 10
21.86633156533156
 20
112.8924478844728
 30
0.0
 11
17.97245674570553
 21
116.7863227040989
 31
0.0
  0
LINE
  5
C7
330
2
100
AcDbEntity
  8
-VERGLASUNG
100
AcDbLine
 10
21.86633156533156
 20
114.4549478844728
 30
0.0
 11
17.97245674570553
 21
118.3488227040989
 31
0.0
  0
LINE
  5
C8
330
2
100
AcDbEntity
  8
-VERGLASUNG
100
AcDbLine
 10
21.86633156533156
 20
116.0174478844728
 30
0.0
 11
17.97245674570553
 21
119.9113227040989
 31
0.0
  0
LINE
  5
C9
330
2
100
AcDbEntity
  8
-VERGLASUNG
100
AcDbLine
 10
33.97245674570621
 20
116.1100333204635
 30
0.0
 11
30.07858192608018
 21
120.0039081400896
 31
0.0
  0
LINE
  5
CA
330
2
100
AcDbEntity
  8
-VERGLASUNG
100
AcDbLine
 10
33.97245674570621
 20
117.6725333204635
 30
0.0
 11
30.07858192608018
 21
121.5664081400896
 31
0.0
  0
DIMENSION
  5
CB
330
2
100
AcDbEntity
  8
-TEXT3
100
AcDbDimension
  2
*D9
 10
114.9604968272805
 20
153.1358207865805
 30
0.0
 11
126.8150175614749
 21
156.2364326152685
 31
0.0
  1
M<>
 71
     5
 42
8.0
  3
1-1PRO
100
AcDbAlignedDimension
 13
106.9604968272805
 23
143.1186625120524
 33
0.0
 14
114.9604968272805
 24
143.1186625120524
 34
0.0
100
AcDbRotatedDimension
  0
LINE
  5
D9
330
2
100
AcDbEntity
  8
-SCHRAFFUR
100
AcDbLine
 10
106.9604968272805
 20
143.1186625120524
 30
0.0
 11
114.9604968272805
 21
143.1186625120524
 31
0.0
  0
DIMENSION
  5
DA
330
2
100
AcDbEntity
  8
-TEXT3
100
AcDbDimension
  2
*D10
 10
133.5950806206152
 20
143.7956625120524
 30
0.0
 11
130.5447747062711
 21
137.7956625120524
 31
0.0
 71
     5
 42
11.99999999999994
  3
1-1PRO
100
AcDbAlignedDimension
 13
118.9604968272807
 23
131.7956625120524
 33
0.0
 14
118.9604968272808
 24
143.7956625120524
 34
0.0
 50
90.0
100
AcDbRotatedDimension
  0
DIMENSION
  5
E7
330
2
100
AcDbEntity
  8
-TEXT3
100
AcDbDimension
  2
*D11
 10
133.5950806206152
 20
46.79566251205289
 30
0.0
 11
130.4944687919272
 21
89.29566251205269
 31
0.0
 71
     5
 42
84.99999999999955
  3
1-1PRO
100
AcDbAlignedDimension
 13
118.9604968272807
 23
131.7956625120524
 33
0.0
 14
82.87245681641499
 24
46.79566251205289
 34
0.0
 50
90.0
100
AcDbRotatedDimension
  0
HATCH
  5
F4
330
2
100
AcDbEntity
  8
-SCHRAFFUR
100
AcDbHatch
 10
0.0
 20
0.0
 30
0.0
210
0.0
220
0.0
230
1.0
  2
SOLID
 70
     1
 71
     1
 91
        2
 92
        1
 93
        4
 72
     1
 10
36.97245681641641
 20
29.2956625120529
 11
36.97245681641658
 21
80.2956625120529
 72
     1
 10
36.97245681641658
 20
80.2956625120529
 11
33.97245681641658
 21
80.2956625120529
 72
     1
 10
33.97245681641658
 20
80.2956625120529
 11
33.97245681641641
 21
29.2956625120529
 72
     1
 10
33.97245681641641
 20
29.2956625120529
 11
36.97245681641641
 21
29.2956625120529
 97
        1
330
21
 92
        1
 93
        4
 72
     1
 10
17.97245681641615
 20
29.29566251205211
 11
17.97245681641615
 21
80.29566251205215
 72
     1
 10
17.97245681641615
 20
80.29566251205215
 11
14.97245681641615
 21
80.29566251205215
 72
     1
 10
14.97245681641615
 20
80.29566251205215
 11
14.97245681641615
 21
29.29566251205211
 72
     1
 10
14.97245681641615
 20
29.29566251205211
 11
17.97245681641615
 21
29.29566251205211
 97
        1
330
3E
 75
     0
 76
     1
 98
        1
 10
-18.83782171433807
 20
-6.463958510497377
  0
INSERT
  5
F5
330
2
100
AcDbEntity
  8
-TEXT3
100
AcDbBlockReference
  2
ANSICHT52
 10
228.5334282030713
 20
152.1438235583757
 30
0.0
  0
ENDSEC
  0
SECTION
  2
OBJECTS
  0
DICTIONARY
  5
7
330
0
100
AcDbDictionary
281
     1
  3
ACAD_COLOR
350
123
  3
ACAD_GROUP
350
11F
  3
ACAD_LAYOUT
350
107
  3
ACAD_MATERIAL
350
122
  3
ACAD_MLINESTYLE
350
120
  3
ACAD_PLOTSETTINGS
350
121
  3
ACAD_PLOTSTYLENAME
350
6
  3
ACDBHEADERROUNDTRIPXREC
350
129
  3
AcDbVariableDictionary
350
125
  0
DICTIONARY
  5
123
102
{ACAD_REACTORS
330
7
102
}
330
7
100
AcDbDictionary
281
     1
  0
DICTIONARY
  5
11F
102
{ACAD_REACTORS
330
7
102
}
330
7
100
AcDbDictionary
281
     1
  0
DICTIONARY
  5
107
102
{ACAD_REACTORS
330
7
102
}
330
7
100
AcDbDictionary
281
     1
  3
Layout1
350
10B
  3
Model
350
106
  0
DICTIONARY
  5
122
102
{ACAD_REACTORS
330
7
102
}
330
7
100
AcDbDictionary
281
     1
  0
DICTIONARY
  5
120
102
{ACAD_REACTORS
330
7
102
}
330
7
100
AcDbDictionary
281
     1
  3
STANDARD
350
124
  0
DICTIONARY
  5
121
102
{ACAD_REACTORS
330
7
102
}
330
7
100
AcDbDictionary
281
     1
  0
ACDBDICTIONARYWDFLT
  5
6
102
{ACAD_REACTORS
330
7
102
}
330
7
100
AcDbDictionary
281
     1
  3
Normal
350
5
100
AcDbDictionaryWithDefault
340
5
  0
DICTIONARY
  5
129
102
{ACAD_REACTORS
330
7
102
}
330
7
100
AcDbDictionary
281
     1
  3
COLORDICT
350
12B
  3
MATERIALDICT
350
12A
  0
DICTIONARY
  5
125
102
{ACAD_REACTORS
330
7
102
}
330
7
100
AcDbDictionary
281
     1
  3
DIMASSOC
350
127
  3
HIDETEXT
350
126
  3
PROJECTNAME
350
128
  0
LAYOUT
  5
10B
102
{ACAD_XDICTIONARY
360
130
102
}
102
{ACAD_REACTORS
330
107
102
}
330
107
100
AcDbPlotSettings
  1

  2
HP DeskJet 1120C Printer
  4

  6

 40
0.0
 41
0.0
 42
0.0
 43
0.0
 44
0.0
 45
0.0
 46
0.0
 47
0.0
 48
0.0
 49
0.0
140
0.0
141
0.0
142
1.0
143
1.0
 70
   688
 72
     0
 73
     0
 74
     5
  7
monochrome.ctb
 75
    16
147
1.0
148
0.0
149
0.0
100
AcDbLayout
  1
Layout1
 70
     1
 71
     1
 10
0.0
 20
0.0
 11
12.0
 21
9.0
 12
0.0
 22
0.0
 32
0.0
 14
1.000000000000000E+20
 24
1.000000000000000E+20
 34
1.000000000000000E+20
 15
-1.000000000000000E+20
 25
-1.000000000000000E+20
 35
-1.000000000000000E+20
146
0.0
 13
0.0
 23
0.0
 33
0.0
 16
1.0
 26
0.0
 36
0.0
 17
0.0
 27
1.0
 37
0.0
 76
     0
330
108
  0
LAYOUT
  5
106
102
{ACAD_XDICTIONARY
360
12E
102
}
102
{ACAD_REACTORS
330
107
102
}
330
107
100
AcDbPlotSettings
  1

  2
HP DeskJet 1120C Printer
  4

  6

 40
0.0
 41
0.0
 42
0.0
 43
0.0
 44
0.0
 45
0.0
 46
0.0
 47
0.0
 48
0.0
 49
0.0
140
0.0
141
0.0
142
1.0
143
1.0
 70
  1712
 72
     0
 73
     0
 74
     0
  7
monochrome.ctb
 75
     0
147
1.0
148
0.0
149
0.0
100
AcDbLayout
  1
Model
 70
     1
 71
     0
 10
0.0
 20
0.0
 11
12.0
 21
9.0
 12
0.0
 22
0.0
 32
0.0
 14
0.0
 24
0.0
 34
0.0
 15
0.0
 25
0.0
 35
0.0
146
0.0
 13
0.0
 23
0.0
 33
0.0
 16
1.0
 26
0.0
 36
0.0
 17
0.0
 27
1.0
 37
0.0
 76
     0
330
2
  0
MLINESTYLE
  5
124
102
{ACAD_REACTORS
330
120
102
}
330
120
100
AcDbMlineStyle
  2
STANDARD
 70
     0
  3

 62
     0
 51
90.0
 52
90.0
 71
     2
 49
0.5
 62
   256
  6
BYLAYER
 49
-0.5
 62
   256
  6
BYLAYER
  0
ACDBPLACEHOLDER
  5
5
102
{ACAD_REACTORS
330
6
102
}
330
6
  0
XRECORD
  5
12B
102
{ACAD_REACTORS
330
129
102
}
330
129
100
AcDbXrecord
280
     1
340
123
  0
XRECORD
  5
12A
102
{ACAD_REACTORS
330
129
102
}
330
129
100
AcDbXrecord
280
     1
340
122
  0
DICTIONARYVAR
  5
127
102
{ACAD_REACTORS
330
125
102
}
330
125
100
DictionaryVariables
280
     0
  1
1
  0
DICTIONARYVAR
  5
126
102
{ACAD_REACTORS
330
125
102
}
330
125
100
DictionaryVariables
280
     0
  1
1
  0
DICTIONARYVAR
  5
128
102
{ACAD_REACTORS
330
125
102
}
330
125
100
DictionaryVariables
280
     0
  1

  0
DICTIONARY
  5
130
330
10B
100
AcDbDictionary
280
     1
281
     1
  3
ACAD_XREC_ROUNDTRIP
360
131
  0
DICTIONARY
  5
12E
330
106
100
AcDbDictionary
280
     1
281
     1
  3
ACAD_XREC_ROUNDTRIP
360
12F
  0
XRECORD
  5
131
102
{ACAD_REACTORS
330
130
102
}
330
130
100
AcDbXrecord
280
     1
102
SHADEPLOT
 70
     0
102
SHADEPLOTRESLEVEL
 70
     2
102
SHADEPLOTCUSTOMDPI
 70
   300
  0
XRECORD
  5
12F
102
{ACAD_REACTORS
330
12E
102
}
330
12E
100
AcDbXrecord
280
     1
102
SHADEPLOT
 70
     0
102
SHADEPLOTRESLEVEL
 70
     2
102
SHADEPLOTCUSTOMDPI
 70
   300
  0
ENDSEC
  0
EOF
