  0
SECTION
  2
HEADER
  9
$ACADVER
  1
AC1015
  9
$ACADMAINTVER
 70
    18
  9
$DWGCODEPAGE
  3
ANSI_1252
  9
$INSBASE
 10
-327.8288694144876
 20
0.0
 30
0.0
  9
$EXTMIN
 10
1.000000000000000E+20
 20
1.000000000000000E+20
 30
1.000000000000000E+20
  9
$EXTMAX
 10
0.0
 20
0.0
 30
0.0
  9
$LIMMIN
 10
0.0
 20
0.0
  9
$LIMMAX
 10
12.0
 20
9.0
  9
$ORTHOMODE
 70
     1
  9
$REGENMODE
 70
     1
  9
$FILLMODE
 70
     1
  9
$QTEXTMODE
 70
     0
  9
$MIRRTEXT
 70
     1
  9
$LTSCALE
 40
2.5
  9
$ATTMODE
 70
     1
  9
$TEXTSIZE
 40
0.2
  9
$TRACEWID
 40
0.05
  9
$TEXTSTYLE
  7
STANDARD
  9
$CLAYER
  8
-SCHRAFFUR
  9
$CELTYPE
  6
BYLAYER
  9
$CECOLOR
 62
   256
  9
$CELTSCALE
 40
1.0
  9
$DISPSILH
 70
     0
  9
$DIMSCALE
 40
1.0
  9
$DIMASZ
 40
3.5
  9
$DIMEXO
 40
2.0
  9
$DIMDLI
 40
2.0
  9
$DIMRND
 40
0.0
  9
$DIMDLE
 40
0.0
  9
$DIMEXE
 40
1.5
  9
$DIMTP
 40
0.0
  9
$DIMTM
 40
0.0
  9
$DIMTXT
 40
4.0
  9
$DIMCEN
 40
0.09
  9
$DIMTSZ
 40
0.0
  9
$DIMTOL
 70
     0
  9
$DIMLIM
 70
     0
  9
$DIMTIH
 70
     0
  9
$DIMTOH
 70
     0
  9
$DIMSE1
 70
     0
  9
$DIMSE2
 70
     0
  9
$DIMTAD
 70
     1
  9
$DIMZIN
 70
     9
  9
$DIMBLK
  1

  9
$DIMASO
 70
     1
  9
$DIMSHO
 70
     1
  9
$DIMPOST
  1

  9
$DIMAPOST
  1

  9
$DIMALT
 70
     0
  9
$DIMALTD
 70
     2
  9
$DIMALTF
 40
25.4
  9
$DIMLFAC
 40
1.0
  9
$DIMTOFL
 70
     0
  9
$DIMTVP
 40
0.0
  9
$DIMTIX
 70
     0
  9
$DIMSOXD
 70
     0
  9
$DIMSAH
 70
     0
  9
$DIMBLK1
  1

  9
$DIMBLK2
  1

  9
$DIMSTYLE
  2
1-1PRO
  9
$DIMCLRD
 70
   256
  9
$DIMCLRE
 70
   256
  9
$DIMCLRT
 70
   256
  9
$DIMTFAC
 40
1.0
  9
$DIMGAP
 40
1.0
  9
$DIMJUST
 70
     0
  9
$DIMSD1
 70
     0
  9
$DIMSD2
 70
     0
  9
$DIMTOLJ
 70
     1
  9
$DIMTZIN
 70
     0
  9
$DIMALTZ
 70
     0
  9
$DIMALTTZ
 70
     0
  9
$DIMUPT
 70
     0
  9
$DIMDEC
 70
     1
  9
$DIMTDEC
 70
     1
  9
$DIMALTU
 70
     2
  9
$DIMALTTD
 70
     2
  9
$DIMTXSTY
  7
STANDARD
  9
$DIMAUNIT
 70
     0
  9
$DIMADEC
 70
     0
  9
$DIMALTRND
 40
0.0
  9
$DIMAZIN
 70
     0
  9
$DIMDSEP
 70
    46
  9
$DIMATFIT
 70
     3
  9
$DIMFRAC
 70
     0
  9
$DIMLDRBLK
  1

  9
$DIMLUNIT
 70
     2
  9
$DIMLWD
 70
    -2
  9
$DIMLWE
 70
    -2
  9
$DIMTMOVE
 70
     0
  9
$LUNITS
 70
     2
  9
$LUPREC
 70
     4
  9
$SKETCHINC
 40
0.1
  9
$FILLETRAD
 40
0.0
  9
$AUNITS
 70
     0
  9
$AUPREC
 70
     0
  9
$MENU
  1
.
  9
$ELEVATION
 40
0.0
  9
$PELEVATION
 40
0.0
  9
$THICKNESS
 40
0.0
  9
$LIMCHECK
 70
     0
  9
$CHAMFERA
 40
2.0
  9
$CHAMFERB
 40
2.0
  9
$CHAMFERC
 40
1.0
  9
$CHAMFERD
 40
0.0
  9
$SKPOLY
 70
     0
  9
$TDCREATE
 40
2450923.406402199
  9
$TDUCREATE
 40
2450923.364735533
  9
$TDUPDATE
 40
2453405.564303623
  9
$TDUUPDATE
 40
2453405.522636956
  9
$TDINDWG
 40
2.4313614468
  9
$TDUSRTIMER
 40
2.4313614468
  9
$USRTIMER
 70
     1
  9
$ANGBASE
 50
0.0
  9
$ANGDIR
 70
     0
  9
$PDMODE
 70
     0
  9
$PDSIZE
 40
0.0
  9
$PLINEWID
 40
0.0
  9
$SPLFRAME
 70
     0
  9
$SPLINETYPE
 70
     6
  9
$SPLINESEGS
 70
    50
  9
$HANDSEED
  5
10E
  9
$SURFTAB1
 70
     6
  9
$SURFTAB2
 70
     6
  9
$SURFTYPE
 70
     6
  9
$SURFU
 70
     6
  9
$SURFV
 70
     6
  9
$UCSBASE
  2

  9
$UCSNAME
  2

  9
$UCSORG
 10
0.0
 20
0.0
 30
0.0
  9
$UCSXDIR
 10
1.0
 20
0.0
 30
0.0
  9
$UCSYDIR
 10
0.0
 20
1.0
 30
0.0
  9
$UCSORTHOREF
  2

  9
$UCSORTHOVIEW
 70
     0
  9
$UCSORGTOP
 10
0.0
 20
0.0
 30
0.0
  9
$UCSORGBOTTOM
 10
0.0
 20
0.0
 30
0.0
  9
$UCSORGLEFT
 10
0.0
 20
0.0
 30
0.0
  9
$UCSORGRIGHT
 10
0.0
 20
0.0
 30
0.0
  9
$UCSORGFRONT
 10
0.0
 20
0.0
 30
0.0
  9
$UCSORGBACK
 10
0.0
 20
0.0
 30
0.0
  9
$PUCSBASE
  2

  9
$PUCSNAME
  2

  9
$PUCSORG
 10
0.0
 20
0.0
 30
0.0
  9
$PUCSXDIR
 10
1.0
 20
0.0
 30
0.0
  9
$PUCSYDIR
 10
0.0
 20
1.0
 30
0.0
  9
$PUCSORTHOREF
  2

  9
$PUCSORTHOVIEW
 70
     0
  9
$PUCSORGTOP
 10
0.0
 20
0.0
 30
0.0
  9
$PUCSORGBOTTOM
 10
0.0
 20
0.0
 30
0.0
  9
$PUCSORGLEFT
 10
0.0
 20
0.0
 30
0.0
  9
$PUCSORGRIGHT
 10
0.0
 20
0.0
 30
0.0
  9
$PUCSORGFRONT
 10
0.0
 20
0.0
 30
0.0
  9
$PUCSORGBACK
 10
0.0
 20
0.0
 30
0.0
  9
$USERI1
 70
     0
  9
$USERI2
 70
     0
  9
$USERI3
 70
     0
  9
$USERI4
 70
     0
  9
$USERI5
 70
     0
  9
$USERR1
 40
0.0
  9
$USERR2
 40
0.0
  9
$USERR3
 40
0.0
  9
$USERR4
 40
0.0
  9
$USERR5
 40
0.0
  9
$WORLDVIEW
 70
     1
  9
$SHADEDGE
 70
     3
  9
$SHADEDIF
 70
    70
  9
$TILEMODE
 70
     1
  9
$MAXACTVP
 70
    48
  9
$PINSBASE
 10
0.0
 20
0.0
 30
0.0
  9
$PLIMCHECK
 70
     0
  9
$PEXTMIN
 10
1.000000000000000E+20
 20
1.000000000000000E+20
 30
1.000000000000000E+20
  9
$PEXTMAX
 10
-1.000000000000000E+20
 20
-1.000000000000000E+20
 30
-1.000000000000000E+20
  9
$PLIMMIN
 10
0.0
 20
0.0
  9
$PLIMMAX
 10
12.0
 20
9.0
  9
$UNITMODE
 70
     0
  9
$VISRETAIN
 70
     1
  9
$PLINEGEN
 70
     0
  9
$PSLTSCALE
 70
     1
  9
$TREEDEPTH
 70
  3020
  9
$CMLSTYLE
  2
STANDARD
  9
$CMLJUST
 70
     0
  9
$CMLSCALE
 40
1.0
  9
$PROXYGRAPHICS
 70
     1
  9
$MEASUREMENT
 70
     0
  9
$CELWEIGHT
370
    -1
  9
$ENDCAPS
280
     0
  9
$JOINSTYLE
280
     0
  9
$LWDISPLAY
290
     0
  9
$INSUNITS
 70
     0
  9
$HYPERLINKBASE
  1

  9
$STYLESHEET
  1

  9
$XEDIT
290
     1
  9
$CEPSNTYPE
380
     0
  9
$PSTYLEMODE
290
     1
  9
$FINGERPRINTGUID
  2
{0E7161CF-FB64-11D4-9C1F-EC81C176A25E}
  9
$VERSIONGUID
  2
{8D1F455B-C25B-45C9-BF9E-769F46FBF566}
  9
$EXTNAMES
290
     1
  9
$PSVPSCALE
 40
0.0
  9
$OLESTARTUP
290
     0
  0
ENDSEC
  0
SECTION
  2
CLASSES
  0
CLASS
  1
DICTIONARYVAR
  2
AcDbDictionaryVar
  3
ObjectDBX Classes
 90
        0
280
     0
281
     0
  0
CLASS
  1
IMAGE
  2
AcDbRasterImage
  3
ISM
 90
    32895
280
     0
281
     1
  0
CLASS
  1
IMAGEDEF_REACTOR
  2
AcDbRasterImageDefReactor
  3
ISM
 90
    32769
280
     0
281
     0
  0
CLASS
  1
IMAGEDEF
  2
AcDbRasterImageDef
  3
ISM
 90
    32768
280
     0
281
     0
  0
CLASS
  1
RASTERVARIABLES
  2
AcDbRasterVariables
  3
ISM
 90
    32768
280
     0
281
     0
  0
CLASS
  1
ACDBDICTIONARYWDFLT
  2
AcDbDictionaryWithDefault
  3
ObjectDBX Classes
 90
        0
280
     0
281
     0
  0
CLASS
  1
ACDBPLACEHOLDER
  2
AcDbPlaceHolder
  3
ObjectDBX Classes
 90
        0
280
     0
281
     0
  0
CLASS
  1
LAYOUT
  2
AcDbLayout
  3
ObjectDBX Classes
 90
        0
280
     0
281
     0
  0
ENDSEC
  0
SECTION
  2
TABLES
  0
TABLE
  2
VPORT
  5
F6
330
0
100
AcDbSymbolTable
 70
     1
  0
VPORT
  5
F7
330
F6
100
AcDbSymbolTableRecord
100
AcDbViewportTableRecord
  2
*Active
 70
     0
 10
0.0
 20
0.0
 11
1.0
 21
1.0
 12
110.5040565078661
 22
150.7487748522445
 13
0.0
 23
0.0
 14
0.5
 24
0.5
 15
0.5
 25
0.5
 16
0.0
 26
0.0
 36
1.0
 17
0.0
 27
0.0
 37
0.0
 40
250.1217068854836
 41
1.549148099606815
 42
50.0
 43
0.0
 44
0.0
 50
0.0
 51
0.0
 71
     0
 72
   100
 73
     1
 74
     1
 75
     0
 76
     0
 77
     0
 78
     0
281
     0
 65
     1
110
0.0
120
0.0
130
0.0
111
1.0
121
0.0
131
0.0
112
0.0
122
1.0
132
0.0
 79
     0
146
0.0
  0
ENDTAB
  0
TABLE
  2
LTYPE
  5
F1
330
0
100
AcDbSymbolTable
 70
     3
  0
LTYPE
  5
F2
330
F1
100
AcDbSymbolTableRecord
100
AcDbLinetypeTableRecord
  2
BYBLOCK
 70
     0
  3

 72
    65
 73
     0
 40
0.0
  0
LTYPE
  5
F3
330
F1
100
AcDbSymbolTableRecord
100
AcDbLinetypeTableRecord
  2
BYLAYER
 70
     0
  3

 72
    65
 73
     0
 40
0.0
  0
LTYPE
  5
8
330
F1
100
AcDbSymbolTableRecord
100
AcDbLinetypeTableRecord
  2
CONTINUOUS
 70
     0
  3
Solid line
 72
    65
 73
     0
 40
0.0
  0
LTYPE
  5
B
330
F1
100
AcDbSymbolTableRecord
100
AcDbLinetypeTableRecord
  2
MITTEX2
 70
     0
  3
Mitte (2x) ________  __  ________  __  _____
 72
    65
 73
     4
 40
4.0
 49
2.5
 74
     0
 49
-0.5
 74
     0
 49
0.5
 74
     0
 49
-0.5
 74
     0
  0
LTYPE
  5
6F
330
F1
100
AcDbSymbolTableRecord
100
AcDbLinetypeTableRecord
  2
STRICHLINIEX2
 70
     0
  3
Strichlinie (2x) ____  ____  ____  ____  ____  
 72
    65
 73
     2
 40
1.5
 49
1.0
 74
     0
 49
-0.5
 74
     0
  0
ENDTAB
  0
TABLE
  2
LAYER
  5
EE
330
0
100
AcDbSymbolTable
 70
    11
  0
LAYER
  5
4
330
EE
100
AcDbSymbolTableRecord
100
AcDbLayerTableRecord
  2
0
 70
     0
 62
     7
  6
CONTINUOUS
370
    -3
390
5
  0
LAYER
  5
68
330
EE
100
AcDbSymbolTableRecord
100
AcDbLayerTableRecord
  2
-PROFILAUSSENKANTET
 70
     0
 62
     4
  6
CONTINUOUS
370
    -3
390
5
  0
LAYER
  5
CE
330
EE
100
AcDbSymbolTableRecord
100
AcDbLayerTableRecord
  2
-DICHTUNG
 70
     0
 62
     3
  6
CONTINUOUS
370
    -3
390
5
  0
LAYER
  5
81
330
EE
100
AcDbSymbolTableRecord
100
AcDbLayerTableRecord
  2
-NORMTEIL
 70
     0
 62
     6
  6
CONTINUOUS
370
    -3
390
5
  0
LAYER
  5
6E
330
EE
100
AcDbSymbolTableRecord
100
AcDbLayerTableRecord
  2
-NORMTEIL_VERDECKT
 70
     0
 62
     9
  6
STRICHLINIEX2
370
    -3
390
5
  0
LAYER
  5
1A
330
EE
100
AcDbSymbolTableRecord
100
AcDbLayerTableRecord
  2
DEFPOINTS
 70
     0
 62
     7
  6
CONTINUOUS
290
     0
370
    -3
390
5
  0
LAYER
  5
A
330
EE
100
AcDbSymbolTableRecord
100
AcDbLayerTableRecord
  2
-SYSTEM
 70
     0
 62
     2
  6
MITTEX2
370
    -3
390
5
  0
LAYER
  5
C1
330
EE
100
AcDbSymbolTableRecord
100
AcDbLayerTableRecord
  2
-TEXT2
 70
     0
 62
     3
  6
CONTINUOUS
370
    -3
390
5
  0
LAYER
  5
D
330
EE
100
AcDbSymbolTableRecord
100
AcDbLayerTableRecord
  2
-TEXT3
 70
     0
 62
     2
  6
CONTINUOUS
370
    -3
390
5
  0
LAYER
  5
6C
330
EE
100
AcDbSymbolTableRecord
100
AcDbLayerTableRecord
  2
-SCHRAFFUR
 70
     0
 62
     9
  6
CONTINUOUS
370
    -3
390
5
  0
LAYER
  5
3A
330
EE
100
AcDbSymbolTableRecord
100
AcDbLayerTableRecord
  2
-VERGLASUNG
 70
     0
 62
     1
  6
CONTINUOUS
370
    -3
390
5
  0
ENDTAB
  0
TABLE
  2
STYLE
  5
EF
330
0
100
AcDbSymbolTable
 70
     1
  0
STYLE
  5
E
330
EF
100
AcDbSymbolTableRecord
100
AcDbTextStyleTableRecord
  2
STANDARD
 70
     0
 40
0.0
 41
1.0
 50
0.0
 71
     0
 42
0.2
  3
GOTHIC.TTF
  4

1001
ACAD
1000
Century Gothic
1071
       34
  0
ENDTAB
  0
TABLE
  2
VIEW
  5
F4
330
0
100
AcDbSymbolTable
 70
     0
  0
ENDTAB
  0
TABLE
  2
UCS
  5
F5
330
0
100
AcDbSymbolTable
 70
     0
  0
ENDTAB
  0
TABLE
  2
APPID
  5
F8
330
0
100
AcDbSymbolTable
 70
     1
  0
APPID
  5
F
330
F8
100
AcDbSymbolTableRecord
100
AcDbRegAppTableRecord
  2
ACAD
 70
     0
  0
ENDTAB
  0
TABLE
  2
DIMSTYLE
  5
F9
330
0
100
AcDbSymbolTable
 70
     1
100
AcDbDimStyleTable
 71
     1
340
10
  0
DIMSTYLE
105
10
102
{ACAD_REACTORS
330
1E
330
C
330
56
330
3C
330
49
330
2B
330
85
330
B3
102
}
330
F9
100
AcDbSymbolTableRecord
100
AcDbDimStyleTableRecord
  2
1-1PRO
 70
     0
 41
3.5
 42
2.0
 43
2.0
 44
1.5
 73
     0
 74
     0
 77
     1
 78
     9
140
4.0
147
1.0
176
   256
177
   256
178
   256
271
     1
272
     1
340
E
  0
ENDTAB
  0
TABLE
  2
BLOCK_RECORD
  5
1
330
0
100
AcDbSymbolTable
 70
    10
  0
BLOCK_RECORD
  5
2
330
1
100
AcDbSymbolTableRecord
100
AcDbBlockTableRecord
  2
*MODEL_SPACE
340
E8
  0
BLOCK_RECORD
  5
EA
330
1
100
AcDbSymbolTableRecord
100
AcDbBlockTableRecord
  2
*PAPER_SPACE
340
ED
  0
BLOCK_RECORD
  5
57
330
1
100
AcDbSymbolTableRecord
100
AcDbBlockTableRecord
  2
*D0
340
0
  0
BLOCK_RECORD
  5
1F
330
1
100
AcDbSymbolTableRecord
100
AcDbBlockTableRecord
  2
*D1
340
0
  0
BLOCK_RECORD
  5
11
330
1
100
AcDbSymbolTableRecord
100
AcDbBlockTableRecord
  2
*D2
340
0
  0
BLOCK_RECORD
  5
C2
330
1
100
AcDbSymbolTableRecord
100
AcDbBlockTableRecord
  2
A$C12D21FE6
340
0
102
{BLKREFS
331
C0
102
}
  0
BLOCK_RECORD
  5
CA
330
1
100
AcDbSymbolTableRecord
100
AcDbBlockTableRecord
  2
ANSICHT4268
340
0
102
{BLKREFS
331
C9
102
}
  0
BLOCK_RECORD
  5
B4
330
1
100
AcDbSymbolTableRecord
100
AcDbBlockTableRecord
  2
*D5
340
0
  0
BLOCK_RECORD
  5
86
330
1
100
AcDbSymbolTableRecord
100
AcDbBlockTableRecord
  2
*D6
340
0
  0
BLOCK_RECORD
  5
4A
330
1
100
AcDbSymbolTableRecord
100
AcDbBlockTableRecord
  2
*D7
340
0
  0
BLOCK_RECORD
  5
3D
330
1
100
AcDbSymbolTableRecord
100
AcDbBlockTableRecord
  2
*D8
340
0
  0
BLOCK_RECORD
  5
2C
330
1
100
AcDbSymbolTableRecord
100
AcDbBlockTableRecord
  2
*D9
340
0
  0
ENDTAB
  0
ENDSEC
  0
SECTION
  2
BLOCKS
  0
BLOCK
  5
3
330
2
100
AcDbEntity
  8
0
100
AcDbBlockBegin
  2
*MODEL_SPACE
 70
     0
 10
0.0
 20
0.0
 30
0.0
  3
*MODEL_SPACE
  1

  0
ENDBLK
  5
E7
330
2
100
AcDbEntity
  8
0
100
AcDbBlockEnd
  0
BLOCK
  5
EB
330
EA
100
AcDbEntity
 67
     1
  8
0
100
AcDbBlockBegin
  2
*PAPER_SPACE
 70
     0
 10
0.0
 20
0.0
 30
0.0
  3
*PAPER_SPACE
  1

  0
ENDBLK
  5
EC
330
EA
100
AcDbEntity
 67
     1
  8
0
100
AcDbBlockEnd
  0
BLOCK
  5
58
330
57
100
AcDbEntity
  8
0
100
AcDbBlockBegin
  2
*D0
 70
     1
 10
0.0
 20
0.0
 30
0.0
  3
*D0
  1

  0
LINE
  5
59
330
57
100
AcDbEntity
  8
-TEXT3
370
    -2
100
AcDbLine
 10
55.29199120108171
 20
252.3956967227747
 30
0.0
 11
50.70066617697614
 21
252.3956967227747
 31
0.0
  0
LINE
  5
5A
330
57
100
AcDbEntity
  8
-TEXT3
370
    -2
100
AcDbLine
 10
55.29199120108171
 20
240.395696722774
 30
0.0
 11
50.70066617697614
 21
240.395696722774
 31
0.0
  0
LINE
  5
5B
330
57
100
AcDbEntity
  8
-TEXT3
370
    -2
100
AcDbLine
 10
52.20066617697614
 20
248.8956967227747
 30
0.0
 11
52.20066617697614
 21
243.895696722774
 31
0.0
  0
SOLID
  5
5C
330
57
100
AcDbEntity
  8
-TEXT3
100
AcDbTrace
 10
51.61733284364281
 20
248.8956967227747
 30
0.0
 11
52.78399951030948
 21
248.8956967227747
 31
0.0
 12
52.20066617697614
 22
252.3956967227747
 32
0.0
 13
52.20066617697614
 23
252.3956967227747
 33
0.0
  0
SOLID
  5
5D
330
57
100
AcDbEntity
  8
-TEXT3
100
AcDbTrace
 10
51.61733284364281
 20
243.895696722774
 30
0.0
 11
52.78399951030948
 21
243.895696722774
 31
0.0
 12
52.20066617697614
 22
240.395696722774
 32
0.0
 13
52.20066617697614
 23
240.395696722774
 33
0.0
  0
MTEXT
  5
5E
330
57
100
AcDbEntity
  8
-TEXT3
100
AcDbMText
 10
49.10005434828813
 20
246.3956967227744
 30
0.0
 40
4.0
 41
0.0
 71
     5
 72
     1
  1
\A1;G
 11
0.0000000000000001
 21
1.0
 31
0.0
 73
     1
 44
1.0
1001
ACAD
1000
MTEXTBEGIN
1070
    73
1070
     1
1070
    44
1040
1.0
1070
    74
1070
     0
1000
MTEXTEND
  0
POINT
  5
5F
330
57
100
AcDbEntity
  8
DEFPOINTS
 62
     0
100
AcDbPoint
 10
57.29199120108171
 20
252.3956967227747
 30
0.0
  0
POINT
  5
60
330
57
100
AcDbEntity
  8
DEFPOINTS
 62
     0
100
AcDbPoint
 10
57.29199120108171
 20
240.395696722774
 30
0.0
  0
POINT
  5
61
330
57
100
AcDbEntity
  8
DEFPOINTS
 62
     0
100
AcDbPoint
 10
52.20066617697614
 20
240.395696722774
 30
0.0
  0
ENDBLK
  5
62
330
57
100
AcDbEntity
  8
0
100
AcDbBlockEnd
  0
BLOCK
  5
20
330
1F
100
AcDbEntity
  8
0
100
AcDbBlockBegin
  2
*D1
 70
     1
 10
0.0
 20
0.0
 30
0.0
  3
*D1
  1

  0
LINE
  5
21
330
1F
100
AcDbEntity
  8
-TEXT3
370
    -2
100
AcDbLine
 10
85.99632868903034
 20
254.3956967227741
 30
0.0
 11
85.99632868903034
 21
261.6944382356695
 31
0.0
  0
LINE
  5
22
330
1F
100
AcDbEntity
  8
-TEXT3
370
    -2
100
AcDbLine
 10
127.99632868903
 20
254.3956967227745
 30
0.0
 11
127.99632868903
 21
261.6944382356695
 31
0.0
  0
LINE
  5
23
330
1F
100
AcDbEntity
  8
-TEXT3
370
    -2
100
AcDbLine
 10
89.49632868903035
 20
260.1944382356695
 30
0.0
 11
124.49632868903
 21
260.1944382356695
 31
0.0
  0
SOLID
  5
24
330
1F
100
AcDbEntity
  8
-TEXT3
100
AcDbTrace
 10
89.49632868903035
 20
260.7777715690028
 30
0.0
 11
89.49632868903035
 21
259.6111049023362
 31
0.0
 12
85.99632868903034
 22
260.1944382356695
 32
0.0
 13
85.99632868903034
 23
260.1944382356695
 33
0.0
  0
SOLID
  5
25
330
1F
100
AcDbEntity
  8
-TEXT3
100
AcDbTrace
 10
124.49632868903
 20
260.7777715690028
 30
0.0
 11
124.49632868903
 21
259.6111049023362
 31
0.0
 12
127.99632868903
 22
260.1944382356695
 32
0.0
 13
127.99632868903
 23
260.1944382356695
 33
0.0
  0
MTEXT
  5
26
330
1F
100
AcDbEntity
  8
-TEXT3
100
AcDbMText
 10
106.7490839775968
 20
263.4201350405642
 30
0.0
 40
4.0
 41
0.0
 71
     5
 72
     1
  1
\A1;%%c42
 73
     1
 44
1.0
1001
ACAD
1000
MTEXTBEGIN
1070
    73
1070
     1
1070
    44
1040
1.0
1070
    74
1070
     0
1000
MTEXTEND
  0
POINT
  5
27
330
1F
100
AcDbEntity
  8
DEFPOINTS
 62
     0
100
AcDbPoint
 10
85.99632868903034
 20
252.3956967227741
 30
0.0
  0
POINT
  5
28
330
1F
100
AcDbEntity
  8
DEFPOINTS
 62
     0
100
AcDbPoint
 10
127.99632868903
 20
252.3956967227745
 30
0.0
  0
POINT
  5
29
330
1F
100
AcDbEntity
  8
DEFPOINTS
 62
     0
100
AcDbPoint
 10
127.99632868903
 20
260.1944382356695
 30
0.0
  0
ENDBLK
  5
2A
330
1F
100
AcDbEntity
  8
0
100
AcDbBlockEnd
  0
BLOCK
  5
12
330
11
100
AcDbEntity
  8
0
100
AcDbBlockBegin
  2
*D2
 70
     1
 10
0.0
 20
0.0
 30
0.0
  3
*D2
  1

  0
LINE
  5
13
330
11
100
AcDbEntity
  8
-TEXT3
370
    -2
100
AcDbLine
 10
72.99632868902865
 20
254.395696722775
 30
0.0
 11
72.99632868902865
 21
269.552437256771
 31
0.0
  0
LINE
  5
14
330
11
100
AcDbEntity
  8
-TEXT3
370
    -2
100
AcDbLine
 10
140.9963286890297
 20
254.3956967227744
 30
0.0
 11
140.9963286890297
 21
269.552437256771
 31
0.0
  0
LINE
  5
15
330
11
100
AcDbEntity
  8
-TEXT3
370
    -2
100
AcDbLine
 10
76.49632868902864
 20
268.052437256771
 30
0.0
 11
137.4963286890297
 21
268.052437256771
 31
0.0
  0
SOLID
  5
16
330
11
100
AcDbEntity
  8
-TEXT3
100
AcDbTrace
 10
76.49632868902864
 20
268.6357705901043
 30
0.0
 11
76.49632868902864
 21
267.4691039234377
 31
0.0
 12
72.99632868902865
 22
268.052437256771
 32
0.0
 13
72.99632868902865
 23
268.052437256771
 33
0.0
  0
SOLID
  5
17
330
11
100
AcDbEntity
  8
-TEXT3
100
AcDbTrace
 10
137.4963286890297
 20
268.6357705901043
 30
0.0
 11
137.4963286890297
 21
267.4691039234377
 31
0.0
 12
140.9963286890297
 22
268.052437256771
 32
0.0
 13
140.9963286890297
 23
268.052437256771
 33
0.0
  0
MTEXT
  5
18
330
11
100
AcDbEntity
  8
-TEXT3
100
AcDbMText
 10
106.9963286890299
 20
271.2781340616656
 30
0.0
 40
4.0
 41
0.0
 71
     5
 72
     1
  1
\A1;%%c68
 73
     1
 44
1.0
1001
ACAD
1000
MTEXTBEGIN
1070
    73
1070
     1
1070
    44
1040
1.0
1070
    74
1070
     0
1000
MTEXTEND
  0
POINT
  5
19
330
11
100
AcDbEntity
  8
DEFPOINTS
 62
     0
100
AcDbPoint
 10
72.99632868902865
 20
252.395696722775
 30
0.0
  0
POINT
  5
1B
330
11
100
AcDbEntity
  8
DEFPOINTS
 62
     0
100
AcDbPoint
 10
140.9963286890297
 20
252.3956967227744
 30
0.0
  0
POINT
  5
1C
330
11
100
AcDbEntity
  8
DEFPOINTS
 62
     0
100
AcDbPoint
 10
140.9963286890297
 20
268.052437256771
 30
0.0
  0
ENDBLK
  5
1D
330
11
100
AcDbEntity
  8
0
100
AcDbBlockEnd
  0
BLOCK
  5
C3
330
C2
100
AcDbEntity
  8
0
100
AcDbBlockBegin
  2
A$C12D21FE6
 70
     0
 10
0.0
 20
0.0
 30
0.0
  3
A$C12D21FE6
  1

  0
LWPOLYLINE
  5
C4
330
C2
100
AcDbEntity
  8
-NORMTEIL_VERDECKT
100
AcDbPolyline
 90
        6
 70
     0
 43
0.0
 10
-0.00000004186154
 20
11.00000006123278
 10
-0.0000000418618811
 20
0.6770000612326186
 10
0.6769999581382536
 20
0.0000000612325977
 10
7.322999958138439
 20
0.0000000612325692
 10
7.999999958138118
 20
0.6770000612325902
 10
7.999999958138459
 20
11.00000006123272
  0
LINE
  5
C5
330
C2
100
AcDbEntity
  8
-NORMTEIL_VERDECKT
100
AcDbLine
 10
7.322999958138439
 20
0.0000000612325977
 30
0.0
 11
7.32299995813878
 21
11.00000006123272
 31
0.0
  0
LINE
  5
C6
330
C2
100
AcDbEntity
  8
-NORMTEIL_VERDECKT
100
AcDbLine
 10
0.6769999581382536
 20
0.0000000612325977
 30
0.0
 11
0.6769999581385946
 21
11.00000006123284
 31
0.0
  0
LINE
  5
C7
330
C2
100
AcDbEntity
  8
-NORMTEIL_VERDECKT
100
AcDbLine
 10
-0.0000000418618811
 20
0.6770000612326186
 30
0.0
 11
7.999999958138118
 21
0.6770000612325902
 31
0.0
  0
ENDBLK
  5
C8
330
C2
100
AcDbEntity
  8
0
100
AcDbBlockEnd
  0
BLOCK
  5
CB
330
CA
100
AcDbEntity
  8
0
100
AcDbBlockBegin
  2
ANSICHT4268
 70
     0
 10
0.0
 20
0.0
 30
0.0
  3
ANSICHT4268
  1

  0
HATCH
  5
CC
330
CA
100
AcDbEntity
  8
-SCHRAFFUR
100
AcDbHatch
 10
0.0
 20
0.0
 30
0.0
210
0.0
220
0.0
230
1.0
  2
SOLID
 70
     1
 71
     1
 91
        2
 92
        1
 93
        1
 72
     2
 10
-0.0000000000241576
 20
-97.34816104632304
 40
23.82842712474431
 50
0.0
 51
360.0
 73
     1
 97
        1
330
CD
 92
       16
 93
        1
 72
     2
 10
-0.0000000000241576
 20
-97.34816104632304
 40
21.0
 50
0.0
 51
360.0
 73
     1
 97
        1
330
D0
 75
     0
 76
     1
 98
        1
 10
-116.8222864156285
 20
-148.9416098927
  0
CIRCLE
  5
CD
102
{ACAD_REACTORS
330
CC
102
}
330
CA
100
AcDbEntity
  8
-DICHTUNG
100
AcDbCircle
 10
-0.0000000000241576
 20
-97.34816104632304
 30
0.0
 40
23.82842712474431
  0
CIRCLE
  5
CF
330
CA
100
AcDbEntity
  8
-NORMTEIL_VERDECKT
100
AcDbCircle
 10
-0.0000000000241576
 20
-97.34816104632308
 30
0.0
 40
34.0
  0
CIRCLE
  5
D0
102
{ACAD_REACTORS
330
CC
102
}
330
CA
100
AcDbEntity
  8
-PROFILAUSSENKANTET
100
AcDbCircle
 10
-0.0000000000241576
 20
-97.34816104632304
 30
0.0
 40
21.0
  0
LWPOLYLINE
  5
D1
330
CA
100
AcDbEntity
  8
-VERGLASUNG
100
AcDbPolyline
 90
        4
 70
     0
 43
0.0
 10
-72.97749106091817
 20
-17.34816104632338
 10
77.99999999997573
 20
-17.34816104632327
 10
79.99999999997573
 20
-19.34816104632327
 10
79.99999999997584
 20
-149.3273672017092
  0
LINE
  5
D2
330
CA
100
AcDbEntity
  8
-SYSTEM
100
AcDbLine
 10
37.49570426210264
 20
-97.3481610463229
 30
0.0
 11
-37.49570426215092
 21
-97.34816104632324
 31
0.0
  0
LINE
  5
D3
330
CA
100
AcDbEntity
  8
-SYSTEM
100
AcDbLine
 10
-0.0000000000243281
 20
-59.85245678419628
 30
0.0
 11
-0.000000000023987
 21
-134.8438653084498
 31
0.0
  0
CIRCLE
  5
D4
330
CA
100
AcDbEntity
  8
-PROFILAUSSENKANTET
100
AcDbCircle
 10
-3.500000000024129
 20
-103.4103388728141
 30
0.0
 40
1.75
  0
CIRCLE
  5
D5
330
CA
100
AcDbEntity
  8
-PROFILAUSSENKANTET
100
AcDbCircle
 10
-3.500000000024171
 20
-91.28598321983199
 30
0.0
 40
1.75
  0
MTEXT
  5
D6
330
CA
100
AcDbEntity
  8
-TEXT2
100
AcDbMText
 10
49.17713572762614
 20
-5.128944079777738
 30
0.0
 40
3.5
 41
17.9978
 71
     1
 72
     5
  1
{\fArial|b0|i0|c0|p34;Glaskante}
 73
     1
 44
1.0
1001
ACAD
1000
MTEXTBEGIN
1070
    73
1070
     1
1070
    44
1040
1.0
1070
    74
1070
     0
1000
MTEXTEND
  0
CIRCLE
  5
D7
330
CA
100
AcDbEntity
  8
-PROFILAUSSENKANTET
100
AcDbCircle
 10
6.999999999975842
 20
-97.34816104632301
 30
0.0
 40
1.75
  0
LWPOLYLINE
  5
D8
330
CA
100
AcDbEntity
  8
-TEXT2
100
AcDbPolyline
 90
        3
 70
     1
 43
0.0
 10
57.78044804003911
 20
-17.34816104632335
 10
61.91438540270016
 20
-10.18797149888712
 10
53.64651067737807
 20
-10.18797149888712
  0
ENDBLK
  5
D9
330
CA
100
AcDbEntity
  8
0
100
AcDbBlockEnd
  0
BLOCK
  5
B5
330
B4
100
AcDbEntity
  8
0
100
AcDbBlockBegin
  2
*D5
 70
     1
 10
0.0
 20
0.0
 30
0.0
  3
*D5
  1

  0
LINE
  5
B6
330
B4
100
AcDbEntity
  8
-TEXT3
370
    -2
100
AcDbLine
 10
94.49632868902845
 20
218.395696722774
 30
0.0
 11
94.49632868902845
 21
208.895696722774
 31
0.0
  0
LINE
  5
B7
330
B4
100
AcDbEntity
  8
-TEXT3
370
    -2
100
AcDbLine
 10
119.4963286890289
 20
218.395696722774
 30
0.0
 11
119.4963286890289
 21
208.895696722774
 31
0.0
  0
LINE
  5
B8
330
B4
100
AcDbEntity
  8
-TEXT3
370
    -2
100
AcDbLine
 10
97.99632868902847
 20
210.395696722774
 30
0.0
 11
115.9963286890289
 21
210.395696722774
 31
0.0
  0
SOLID
  5
B9
330
B4
100
AcDbEntity
  8
-TEXT3
100
AcDbTrace
 10
97.99632868902847
 20
210.9790300561073
 30
0.0
 11
97.99632868902847
 21
209.8123633894406
 31
0.0
 12
94.49632868902845
 22
210.395696722774
 32
0.0
 13
94.49632868902845
 23
210.395696722774
 33
0.0
  0
SOLID
  5
BA
330
B4
100
AcDbEntity
  8
-TEXT3
100
AcDbTrace
 10
115.9963286890289
 20
210.9790300561073
 30
0.0
 11
115.9963286890289
 21
209.8123633894406
 31
0.0
 12
119.4963286890289
 22
210.395696722774
 32
0.0
 13
119.4963286890289
 23
210.395696722774
 33
0.0
  0
MTEXT
  5
BB
330
B4
100
AcDbEntity
  8
-TEXT3
100
AcDbMText
 10
106.9963286890287
 20
213.6213935276686
 30
0.0
 40
4.0
 41
0.0
 71
     5
 72
     1
  1
\A1;%%c25
 73
     1
 44
1.0
1001
ACAD
1000
MTEXTBEGIN
1070
    73
1070
     1
1070
    44
1040
1.0
1070
    74
1070
     0
1000
MTEXTEND
  0
POINT
  5
BC
330
B4
100
AcDbEntity
  8
DEFPOINTS
 62
     0
100
AcDbPoint
 10
94.49632868902845
 20
220.395696722774
 30
0.0
  0
POINT
  5
BD
330
B4
100
AcDbEntity
  8
DEFPOINTS
 62
     0
100
AcDbPoint
 10
119.4963286890289
 20
220.395696722774
 30
0.0
  0
POINT
  5
BE
330
B4
100
AcDbEntity
  8
DEFPOINTS
 62
     0
100
AcDbPoint
 10
119.4963286890289
 20
210.395696722774
 30
0.0
  0
ENDBLK
  5
BF
330
B4
100
AcDbEntity
  8
0
100
AcDbBlockEnd
  0
BLOCK
  5
87
330
86
100
AcDbEntity
  8
0
100
AcDbBlockBegin
  2
*D6
 70
     1
 10
0.0
 20
0.0
 30
0.0
  3
*D6
  1

  0
LINE
  5
88
330
86
100
AcDbEntity
  8
-TEXT3
370
    -2
100
AcDbLine
 10
100.9963286890765
 20
188.4111967227739
 30
0.0
 11
100.9963286890765
 21
173.5060754385376
 31
0.0
  0
LINE
  5
89
330
86
100
AcDbEntity
  8
-TEXT3
370
    -2
100
AcDbLine
 10
112.9963286890286
 20
188.4111967227739
 30
0.0
 11
112.9963286890286
 21
173.5060754385376
 31
0.0
  0
LINE
  5
8A
330
86
100
AcDbEntity
  8
-TEXT3
370
    -2
100
AcDbLine
 10
104.4963286890765
 20
175.0060754385376
 30
0.0
 11
109.4963286890286
 21
175.0060754385376
 31
0.0
  0
LINE
  5
8B
330
86
100
AcDbEntity
  8
-TEXT3
370
    -2
100
AcDbLine
 10
112.9963286890286
 20
175.0060754385376
 30
0.0
 11
152.6146155687023
 21
175.0060754385376
 31
0.0
  0
SOLID
  5
8C
330
86
100
AcDbEntity
  8
-TEXT3
100
AcDbTrace
 10
104.4963286890765
 20
175.589408771871
 30
0.0
 11
104.4963286890765
 21
174.4227421052043
 31
0.0
 12
100.9963286890765
 22
175.0060754385376
 32
0.0
 13
100.9963286890765
 23
175.0060754385376
 33
0.0
  0
SOLID
  5
8D
330
86
100
AcDbEntity
  8
-TEXT3
100
AcDbTrace
 10
109.4963286890286
 20
175.589408771871
 30
0.0
 11
109.4963286890286
 21
174.4227421052043
 31
0.0
 12
112.9963286890286
 22
175.0060754385376
 32
0.0
 13
112.9963286890286
 23
175.0060754385376
 33
0.0
  0
MTEXT
  5
8E
330
86
100
AcDbEntity
  8
-TEXT3
100
AcDbMText
 10
134.5554721288654
 20
178.1066872672256
 30
0.0
 40
4.0
 41
0.0
 71
     5
 72
     1
  1
\A1;M12 od. M16
 73
     1
 44
1.0
1001
ACAD
1000
MTEXTBEGIN
1070
    73
1070
     1
1070
    44
1040
1.0
1070
    74
1070
     0
1000
MTEXTEND
  0
POINT
  5
8F
330
86
100
AcDbEntity
  8
DEFPOINTS
 62
     0
100
AcDbPoint
 10
100.9963286890765
 20
190.4111967227739
 30
0.0
  0
POINT
  5
90
330
86
100
AcDbEntity
  8
DEFPOINTS
 62
     0
100
AcDbPoint
 10
112.9963286890286
 20
190.4111967227739
 30
0.0
  0
POINT
  5
91
330
86
100
AcDbEntity
  8
DEFPOINTS
 62
     0
100
AcDbPoint
 10
112.9963286890286
 20
175.0060754385376
 30
0.0
  0
ENDBLK
  5
92
330
86
100
AcDbEntity
  8
0
100
AcDbBlockEnd
  0
BLOCK
  5
4B
330
4A
100
AcDbEntity
  8
0
100
AcDbBlockBegin
  2
*D7
 70
     1
 10
0.0
 20
0.0
 30
0.0
  3
*D7
  1

  0
LINE
  5
4C
330
4A
100
AcDbEntity
  8
-TEXT3
370
    -2
100
AcDbLine
 10
93.49632868902848
 20
219.3956967227739
 30
0.0
 11
50.70066617697605
 21
219.395696722774
 31
0.0
  0
LINE
  5
4D
330
4A
100
AcDbEntity
  8
-TEXT3
370
    -2
100
AcDbLine
 10
100.0118286890285
 20
189.3956967227739
 30
0.0
 11
50.70066617697604
 21
189.3956967227739
 31
0.0
  0
LINE
  5
4E
330
4A
100
AcDbEntity
  8
-TEXT3
370
    -2
100
AcDbLine
 10
52.20066617697605
 20
215.8956967227739
 30
0.0
 11
52.20066617697604
 21
192.8956967227739
 31
0.0
  0
SOLID
  5
4F
330
4A
100
AcDbEntity
  8
-TEXT3
100
AcDbTrace
 10
51.61733284364271
 20
215.8956967227739
 30
0.0
 11
52.78399951030938
 21
215.8956967227739
 31
0.0
 12
52.20066617697605
 22
219.395696722774
 32
0.0
 13
52.20066617697605
 23
219.395696722774
 33
0.0
  0
SOLID
  5
50
330
4A
100
AcDbEntity
  8
-TEXT3
100
AcDbTrace
 10
51.6173328436427
 20
192.8956967227739
 30
0.0
 11
52.78399951030937
 21
192.8956967227739
 31
0.0
 12
52.20066617697604
 22
189.3956967227739
 32
0.0
 13
52.20066617697604
 23
189.3956967227739
 33
0.0
  0
MTEXT
  5
51
330
4A
100
AcDbEntity
  8
-TEXT3
100
AcDbMText
 10
49.20066617697601
 20
204.3956967227739
 30
0.0
 40
4.0
 41
0.0
 71
     5
 72
     1
  1
\A1;D
 11
0.0000000000000001
 21
1.0
 31
0.0
 73
     1
 44
1.0
1001
ACAD
1000
MTEXTBEGIN
1070
    73
1070
     1
1070
    44
1040
1.0
1070
    74
1070
     0
1000
MTEXTEND
  0
POINT
  5
52
330
4A
100
AcDbEntity
  8
DEFPOINTS
 62
     0
100
AcDbPoint
 10
95.49632868902847
 20
219.3956967227739
 30
0.0
  0
POINT
  5
53
330
4A
100
AcDbEntity
  8
DEFPOINTS
 62
     0
100
AcDbPoint
 10
102.0118286890285
 20
189.3956967227739
 30
0.0
  0
POINT
  5
54
330
4A
100
AcDbEntity
  8
DEFPOINTS
 62
     0
100
AcDbPoint
 10
52.20066617697604
 20
189.3956967227739
 30
0.0
  0
ENDBLK
  5
55
330
4A
100
AcDbEntity
  8
0
100
AcDbBlockEnd
  0
BLOCK
  5
3E
330
3D
100
AcDbEntity
  8
0
100
AcDbBlockBegin
  2
*D8
 70
     1
 10
0.0
 20
0.0
 30
0.0
  3
*D8
  1

  0
LINE
  5
3F
330
3D
100
AcDbEntity
  8
-TEXT3
370
    -2
100
AcDbLine
 10
69.70066617697591
 20
236.3956967227739
 30
0.0
 11
50.70066617697603
 21
236.395696722774
 31
0.0
  0
LINE
  5
40
330
3D
100
AcDbEntity
  8
-TEXT3
370
    -2
100
AcDbLine
 10
84.20066617697569
 20
219.395696722774
 30
0.0
 11
50.70066617697603
 21
219.395696722774
 31
0.0
  0
LINE
  5
41
330
3D
100
AcDbEntity
  8
-TEXT3
370
    -2
100
AcDbLine
 10
52.20066617697603
 20
232.8956967227739
 30
0.0
 11
52.20066617697603
 21
222.895696722774
 31
0.0
  0
SOLID
  5
42
330
3D
100
AcDbEntity
  8
-TEXT3
100
AcDbTrace
 10
51.61733284364269
 20
232.8956967227739
 30
0.0
 11
52.78399951030936
 21
232.8956967227739
 31
0.0
 12
52.20066617697603
 22
236.395696722774
 32
0.0
 13
52.20066617697603
 23
236.395696722774
 33
0.0
  0
SOLID
  5
43
330
3D
100
AcDbEntity
  8
-TEXT3
100
AcDbTrace
 10
51.61733284364269
 20
222.895696722774
 30
0.0
 11
52.78399951030936
 21
222.895696722774
 31
0.0
 12
52.20066617697603
 22
219.395696722774
 32
0.0
 13
52.20066617697603
 23
219.395696722774
 33
0.0
  0
MTEXT
  5
44
330
3D
100
AcDbEntity
  8
-TEXT3
100
AcDbMText
 10
49.15036026263201
 20
227.895696722774
 30
0.0
 40
4.0
 41
0.0
 71
     5
 72
     1
  1
\A1;17
 11
0.0000000000000001
 21
1.0
 31
0.0
 73
     1
 44
1.0
1001
ACAD
1000
MTEXTBEGIN
1070
    73
1070
     1
1070
    44
1040
1.0
1070
    74
1070
     0
1000
MTEXTEND
  0
POINT
  5
45
330
3D
100
AcDbEntity
  8
DEFPOINTS
 62
     0
100
AcDbPoint
 10
71.70066617697592
 20
236.3956967227739
 30
0.0
  0
POINT
  5
46
330
3D
100
AcDbEntity
  8
DEFPOINTS
 62
     0
100
AcDbPoint
 10
86.20066617697569
 20
219.395696722774
 30
0.0
  0
POINT
  5
47
330
3D
100
AcDbEntity
  8
DEFPOINTS
 62
     0
100
AcDbPoint
 10
52.20066617697603
 20
219.395696722774
 30
0.0
  0
ENDBLK
  5
48
330
3D
100
AcDbEntity
  8
0
100
AcDbBlockEnd
  0
BLOCK
  5
2D
330
2C
100
AcDbEntity
  8
0
100
AcDbBlockBegin
  2
*D9
 70
     1
 10
0.0
 20
0.0
 30
0.0
  3
*D9
  1

  0
LINE
  5
2E
330
2C
100
AcDbEntity
  8
-TEXT3
370
    -2
100
AcDbLine
 10
55.29199120108171
 20
240.395696722774
 30
0.0
 11
50.70066617697619
 21
240.395696722774
 31
0.0
  0
LINE
  5
2F
330
2C
100
AcDbEntity
  8
-TEXT3
370
    -2
100
AcDbLine
 10
70.9963286890287
 20
236.3956967227739
 30
0.0
 11
50.70066617697618
 21
236.395696722774
 31
0.0
  0
LINE
  5
30
330
2C
100
AcDbEntity
  8
-TEXT3
370
    -2
100
AcDbLine
 10
52.20066617697618
 20
243.895696722774
 30
0.0
 11
52.20066617697618
 21
247.395696722774
 31
0.0
  0
LINE
  5
31
330
2C
100
AcDbEntity
  8
-TEXT3
370
    -2
100
AcDbLine
 10
52.20066617697618
 20
232.8956967227739
 30
0.0
 11
52.20066617697618
 21
229.3956967227739
 31
0.0
  0
SOLID
  5
32
330
2C
100
AcDbEntity
  8
-TEXT3
100
AcDbTrace
 10
51.61733284364284
 20
243.895696722774
 30
0.0
 11
52.78399951030952
 21
243.895696722774
 31
0.0
 12
52.20066617697618
 22
240.395696722774
 32
0.0
 13
52.20066617697618
 23
240.395696722774
 33
0.0
  0
SOLID
  5
33
330
2C
100
AcDbEntity
  8
-TEXT3
100
AcDbTrace
 10
51.61733284364284
 20
232.8956967227739
 30
0.0
 11
52.78399951030952
 21
232.8956967227739
 31
0.0
 12
52.20066617697618
 22
236.395696722774
 32
0.0
 13
52.20066617697618
 23
236.395696722774
 33
0.0
  0
MTEXT
  5
34
330
2C
100
AcDbEntity
  8
-TEXT3
100
AcDbMText
 10
49.15036026263216
 20
238.395696722774
 30
0.0
 40
4.0
 41
0.0
 71
     5
 72
     1
  1
\A1;4
 11
0.0000000000000001
 21
1.0
 31
0.0
 73
     1
 44
1.0
1001
ACAD
1000
MTEXTBEGIN
1070
    73
1070
     1
1070
    44
1040
1.0
1070
    74
1070
     0
1000
MTEXTEND
  0
POINT
  5
35
330
2C
100
AcDbEntity
  8
DEFPOINTS
 62
     0
100
AcDbPoint
 10
57.29199120108171
 20
240.395696722774
 30
0.0
  0
POINT
  5
36
330
2C
100
AcDbEntity
  8
DEFPOINTS
 62
     0
100
AcDbPoint
 10
72.9963286890287
 20
236.3956967227739
 30
0.0
  0
POINT
  5
37
330
2C
100
AcDbEntity
  8
DEFPOINTS
 62
     0
100
AcDbPoint
 10
52.20066617697618
 20
236.395696722774
 30
0.0
  0
ENDBLK
  5
38
330
2C
100
AcDbEntity
  8
0
100
AcDbBlockEnd
  0
ENDSEC
  0
SECTION
  2
ENTITIES
  0
LINE
  5
9
330
2
100
AcDbEntity
  8
-SYSTEM
100
AcDbLine
 10
106.9963286890282
 20
257.0210156222864
 30
0.0
 11
106.9963286890285
 21
184.685291354468
 31
0.0
  0
DIMENSION
  5
C
330
2
100
AcDbEntity
  8
-TEXT3
100
AcDbDimension
  2
*D2
 10
140.9963286890297
 20
268.052437256771
 30
0.0
 11
106.9963286890299
 21
268.052437256771
 31
0.0
 70
   128
  1
%%c<>
 71
     5
 42
68.00000000000108
  3
1-1PRO
100
AcDbAlignedDimension
 13
72.99632868902865
 23
252.395696722775
 33
0.0
 14
140.9963286890297
 24
252.3956967227744
 34
0.0
100
AcDbRotatedDimension
1001
ACAD
1000
DSTYLE
1002
{
1002
}
  0
DIMENSION
  5
1E
330
2
100
AcDbEntity
  8
-TEXT3
100
AcDbDimension
  2
*D1
 10
127.99632868903
 20
260.1944382356695
 30
0.0
 11
106.7490839775968
 21
260.1944382356695
 31
0.0
 70
   128
  1
%%c<>
 71
     5
 42
41.99999999999966
  3
1-1PRO
100
AcDbAlignedDimension
 13
85.99632868903034
 23
252.3956967227741
 33
0.0
 14
127.99632868903
 24
252.3956967227745
 34
0.0
100
AcDbRotatedDimension
1001
ACAD
1000
DSTYLE
1002
{
1002
}
  0
DIMENSION
  5
2B
330
2
100
AcDbEntity
  8
-TEXT3
100
AcDbDimension
  2
*D9
 10
52.20066617697618
 20
236.395696722774
 30
0.0
 11
52.20066617697614
 21
238.395696722774
 31
0.0
 70
   128
 71
     5
 42
4.000000000000085
  3
1-1PRO
100
AcDbAlignedDimension
 13
57.29199120108171
 23
240.395696722774
 33
0.0
 14
72.9963286890287
 24
236.3956967227739
 34
0.0
 50
89.9999999999998
100
AcDbRotatedDimension
  0
LINE
  5
39
330
2
100
AcDbEntity
  8
-VERGLASUNG
100
AcDbLine
 10
61.60159945793941
 20
240.3956965106416
 30
0.0
 11
65.49547427756545
 21
244.2895713302677
 31
0.0
  0
LINE
  5
3B
330
2
100
AcDbEntity
  8
-VERGLASUNG
100
AcDbLine
 10
63.16409945793941
 20
240.3956965106416
 30
0.0
 11
67.05797427756545
 21
244.2895713302676
 31
0.0
  0
DIMENSION
  5
3C
330
2
100
AcDbEntity
  8
-TEXT3
100
AcDbDimension
  2
*D8
 10
52.20066617697603
 20
219.395696722774
 30
0.0
 11
49.15036026263201
 21
227.895696722774
 31
0.0
 71
     5
 42
16.99999999999994
  3
1-1PRO
100
AcDbAlignedDimension
 13
71.70066617697592
 23
236.3956967227739
 33
0.0
 14
86.20066617697569
 24
219.395696722774
 34
0.0
 50
89.9999999999998
100
AcDbRotatedDimension
  0
DIMENSION
  5
49
330
2
100
AcDbEntity
  8
-TEXT3
100
AcDbDimension
  2
*D7
 10
52.20066617697604
 20
189.3956967227739
 30
0.0
 11
49.20066617697601
 21
204.3956967227739
 31
0.0
  1
D
 71
     5
 42
30.0
  3
1-1PRO
100
AcDbAlignedDimension
 13
95.49632868902847
 23
219.3956967227739
 33
0.0
 14
102.0118286890285
 24
189.3956967227739
 34
0.0
 50
270.0
100
AcDbRotatedDimension
1001
ACAD
1000
DSTYLE
1002
{
1002
}
  0
DIMENSION
  5
56
330
2
100
AcDbEntity
  8
-TEXT3
100
AcDbDimension
  2
*D0
 10
52.20066617697614
 20
240.395696722774
 30
0.0
 11
49.10005434828813
 21
246.3956967227744
 31
0.0
  1
G
 71
     5
 42
12.00000000000068
  3
1-1PRO
100
AcDbAlignedDimension
 13
57.29199120108171
 23
252.3956967227747
 33
0.0
 14
57.29199120108171
 24
240.395696722774
 34
0.0
 50
89.9999999999998
100
AcDbRotatedDimension
  0
LINE
  5
63
330
2
100
AcDbEntity
  8
-VERGLASUNG
100
AcDbLine
 10
59.9465140219487
 20
248.5018216910163
 30
0.0
 11
63.84038884157473
 21
252.3956965106424
 31
0.0
  0
LINE
  5
64
330
2
100
AcDbEntity
  8
-VERGLASUNG
100
AcDbLine
 10
58.3840140219487
 20
248.5018216910163
 30
0.0
 11
62.27788884157473
 21
252.3956965106424
 31
0.0
  0
LINE
  5
65
330
2
100
AcDbEntity
  8
-VERGLASUNG
100
AcDbLine
 10
56.8215140219487
 20
248.5018216910163
 30
0.0
 11
60.71538884157473
 21
252.3956965106424
 31
0.0
  0
LINE
  5
66
330
2
100
AcDbEntity
  8
-VERGLASUNG
100
AcDbLine
 10
60.03909945793941
 20
240.3956965106416
 30
0.0
 11
63.93297427756545
 21
244.2895713302677
 31
0.0
  0
ARC
  5
67
330
2
100
AcDbEntity
  8
-PROFILAUSSENKANTET
100
AcDbCircle
 10
118.4963286890289
 20
220.395696722774
 30
0.0
 40
1.0
100
AcDbArc
 50
269.9999999999998
 51
359.9999999999998
  0
ARC
  5
69
330
2
100
AcDbEntity
  8
-PROFILAUSSENKANTET
100
AcDbCircle
 10
95.49632868902847
 20
220.395696722774
 30
0.0
 40
1.0
100
AcDbArc
 50
179.9999999999998
 51
269.9999999999998
  0
LWPOLYLINE
  5
6A
330
2
100
AcDbEntity
  8
-PROFILAUSSENKANTET
100
AcDbPolyline
 90
       12
 70
     0
 43
0.0
 10
119.4963286890287
 20
226.3076567119096
 42
-0.359993514460748
 10
121.4543856215583
 20
229.1209029940809
 10
140.3436430448518
 20
232.1539612990047
 42
0.3137493583979839
 10
140.9963286890284
 20
233.0917100597283
 10
140.9963286890287
 20
236.3956967227738
 10
116.9963286890287
 20
236.3956967227738
 10
140.9963286890287
 20
236.3956967227738
 10
72.99632868902872
 20
236.3956967227739
 10
72.99632868902872
 20
233.0917100597287
 42
0.3137493583978978
 10
73.64901433320518
 20
232.153961299005
 10
92.53827175649973
 20
229.1209029940813
 42
-0.3599935144608335
 10
94.4963286890287
 20
226.3076567119101
  0
LINE
  5
6B
330
2
100
AcDbEntity
  8
-SCHRAFFUR
100
AcDbLine
 10
140.9963286890284
 20
233.0917100597287
 30
0.0
 11
72.9963286890287
 21
233.0917100597287
 31
0.0
  0
LINE
  5
6D
330
2
100
AcDbEntity
  8
-NORMTEIL_VERDECKT
100
AcDbLine
 10
94.91632868902831
 20
240.3956967227741
 30
0.0
 11
119.0763286890281
 21
240.3956967227741
 31
0.0
  0
LINE
  5
70
330
2
100
AcDbEntity
  8
-NORMTEIL_VERDECKT
100
AcDbLine
 10
89.91632868902843
 20
240.3956967227739
 30
0.0
 11
124.0763286890283
 21
240.3956967227739
 31
0.0
  0
LINE
  5
71
330
2
100
AcDbEntity
  8
-NORMTEIL_VERDECKT
100
AcDbLine
 10
94.916328689029
 20
240.3956967227739
 30
0.0
 11
119.0763286890288
 21
240.3956967227739
 31
0.0
  0
LINE
  5
72
330
2
100
AcDbEntity
  8
-SCHRAFFUR
100
AcDbLine
 10
119.4963286890287
 20
226.3076567119096
 30
0.0
 11
94.4963286890287
 21
226.3076567119101
 31
0.0
  0
LINE
  5
73
330
2
100
AcDbEntity
  8
-NORMTEIL_VERDECKT
100
AcDbLine
 10
102.9963286890285
 20
239.7293596374767
 30
0.0
 11
110.9963286890284
 21
239.7293596374767
 31
0.0
  0
LINE
  5
74
330
2
100
AcDbEntity
  8
-NORMTEIL_VERDECKT
100
AcDbLine
 10
102.9963286890285
 20
239.7293596374767
 30
0.0
 11
110.9963286890284
 21
239.7293596374767
 31
0.0
  0
LINE
  5
75
330
2
100
AcDbEntity
  8
-NORMTEIL_VERDECKT
100
AcDbLine
 10
102.9963286890285
 20
239.7293596374767
 30
0.0
 11
110.9963286890284
 21
239.7293596374767
 31
0.0
  0
LINE
  5
76
330
2
100
AcDbEntity
  8
-SCHRAFFUR
100
AcDbLine
 10
119.4963286890287
 20
220.395696722774
 30
0.0
 11
94.49632868902847
 21
220.395696722774
 31
0.0
  0
LINE
  5
77
330
2
100
AcDbEntity
  8
-PROFILAUSSENKANTET
100
AcDbLine
 10
95.49632868902847
 20
219.395696722774
 30
0.0
 11
118.4963286890289
 21
219.395696722774
 31
0.0
  0
LINE
  5
78
330
2
100
AcDbEntity
  8
-NORMTEIL_VERDECKT
100
AcDbLine
 10
88.99632868902813
 20
240.3956967227741
 30
0.0
 11
94.91632868902831
 21
240.3956967227741
 31
0.0
  0
LINE
  5
79
330
2
100
AcDbEntity
  8
-NORMTEIL_VERDECKT
100
AcDbLine
 10
88.99632868902882
 20
240.3956967227739
 30
0.0
 11
94.916328689029
 21
240.3956967227739
 31
0.0
  0
LINE
  5
7A
330
2
100
AcDbEntity
  8
-PROFILAUSSENKANTET
100
AcDbLine
 10
94.49632868902847
 20
220.395696722774
 30
0.0
 11
94.4963286890287
 21
226.3076567119101
 31
0.0
  0
LINE
  5
7B
330
2
100
AcDbEntity
  8
-NORMTEIL_VERDECKT
100
AcDbLine
 10
137.9963286890284
 20
240.3956967227739
 30
0.0
 11
124.0763286890283
 21
240.3956967227739
 31
0.0
  0
LINE
  5
7C
330
2
100
AcDbEntity
  8
-NORMTEIL_VERDECKT
100
AcDbLine
 10
124.9963286890283
 20
240.3956967227741
 30
0.0
 11
119.0763286890281
 21
240.3956967227741
 31
0.0
  0
LINE
  5
7D
330
2
100
AcDbEntity
  8
-NORMTEIL_VERDECKT
100
AcDbLine
 10
124.996328689029
 20
240.3956967227739
 30
0.0
 11
119.0763286890288
 21
240.3956967227739
 31
0.0
  0
LINE
  5
7E
330
2
100
AcDbEntity
  8
-PROFILAUSSENKANTET
100
AcDbLine
 10
115.9963286890289
 20
236.3956967227739
 30
0.0
 11
116.9963286890287
 21
236.3956967227739
 31
0.0
  0
LINE
  5
7F
330
2
100
AcDbEntity
  8
-PROFILAUSSENKANTET
100
AcDbLine
 10
119.4963286890287
 20
226.3076567119097
 30
0.0
 11
119.4963286890287
 21
220.3956967227739
 31
0.0
  0
LWPOLYLINE
  5
80
330
2
100
AcDbEntity
  8
-NORMTEIL
100
AcDbPolyline
 90
        6
 70
     0
 43
0.0
 10
100.9963286890286
 20
219.3956967227739
 10
100.9963286890286
 20
190.4111967227738
 10
102.0118286890285
 20
189.3956967227738
 10
111.980828689029
 20
189.3956967227738
 10
112.9963286890286
 20
190.4111967227738
 10
112.9963286890286
 20
219.3956967227737
  0
LINE
  5
82
330
2
100
AcDbEntity
  8
-NORMTEIL_VERDECKT
  6
Continuous
100
AcDbLine
 10
100.9963286890286
 20
190.4111967227739
 30
0.0
 11
112.9963286890286
 21
190.4111967227739
 31
0.0
  0
LINE
  5
83
330
2
100
AcDbEntity
  8
-NORMTEIL_VERDECKT
  6
Continuous
100
AcDbLine
 10
100.9963286890286
 20
190.4111967227739
 30
0.0
 11
112.9963286890286
 21
190.4111967227739
 31
0.0
  0
LINE
  5
84
330
2
100
AcDbEntity
  8
-NORMTEIL_VERDECKT
  6
Continuous
100
AcDbLine
 10
100.9963286890286
 20
190.4111967227739
 30
0.0
 11
112.9963286890286
 21
190.4111967227739
 31
0.0
  0
DIMENSION
  5
85
330
2
100
AcDbEntity
  8
-TEXT3
100
AcDbDimension
  2
*D6
 10
112.9963286890286
 20
175.0060754385376
 30
0.0
 11
134.5554721288654
 21
178.1066872672256
 31
0.0
  1
M<> od. M16
 71
     5
 42
11.99999999995202
  3
1-1PRO
100
AcDbAlignedDimension
 13
100.9963286890765
 23
190.4111967227739
 33
0.0
 14
112.9963286890286
 24
190.4111967227739
 34
0.0
100
AcDbRotatedDimension
  0
LINE
  5
93
330
2
100
AcDbEntity
  8
-NORMTEIL_VERDECKT
  6
Continuous
100
AcDbLine
 10
102.0118286890285
 20
189.3956967227739
 30
0.0
 11
102.0118286890285
 21
219.395696722774
 31
0.0
  0
LINE
  5
94
330
2
100
AcDbEntity
  8
-NORMTEIL_VERDECKT
  6
Continuous
100
AcDbLine
 10
111.980828689029
 20
189.3956967227739
 30
0.0
 11
111.980828689029
 21
219.3956967227737
 31
0.0
  0
LINE
  5
95
330
2
100
AcDbEntity
  8
-SCHRAFFUR
100
AcDbLine
 10
102.9963286890282
 20
237.0091967227745
 30
0.0
 11
110.9963286890282
 21
237.0091967227745
 31
0.0
  0
LINE
  5
96
330
2
100
AcDbEntity
  8
-VERGLASUNG
100
AcDbLine
 10
149.4070355887639
 20
248.5018217617268
 30
0.0
 11
153.30091040839
 21
252.3956965813528
 31
0.0
  0
LINE
  5
97
330
2
100
AcDbEntity
  8
-VERGLASUNG
100
AcDbLine
 10
146.2820355887639
 20
248.5018217617268
 30
0.0
 11
150.17591040839
 21
252.3956965813528
 31
0.0
  0
LINE
  5
98
330
2
100
AcDbEntity
  8
-VERGLASUNG
100
AcDbLine
 10
147.8445355887639
 20
248.5018217617268
 30
0.0
 11
151.73841040839
 21
252.3956965813528
 31
0.0
  0
LINE
  5
99
330
2
100
AcDbEntity
  8
-VERGLASUNG
100
AcDbLine
 10
151.0621210247546
 20
240.3956965813522
 30
0.0
 11
154.9559958443807
 21
244.2895714009782
 31
0.0
  0
LINE
  5
9A
330
2
100
AcDbEntity
  8
-VERGLASUNG
100
AcDbLine
 10
149.4996210247546
 20
240.3956965813522
 30
0.0
 11
153.3934958443807
 21
244.2895714009782
 31
0.0
  0
LINE
  5
9B
330
2
100
AcDbEntity
  8
-VERGLASUNG
100
AcDbLine
 10
152.6246210247546
 20
240.3956965813522
 30
0.0
 11
156.5184958443807
 21
244.2895714009781
 31
0.0
  0
LINE
  5
9C
330
2
100
AcDbEntity
  8
-SCHRAFFUR
100
AcDbLine
 10
140.3436430448518
 20
232.1539612990047
 30
0.0
 11
73.64901433320517
 21
232.153961299005
 31
0.0
  0
LINE
  5
9D
330
2
100
AcDbEntity
  8
-SCHRAFFUR
100
AcDbLine
 10
121.4543856215583
 20
229.1209029940809
 30
0.0
 11
92.53827175649973
 21
229.1209029940808
 31
0.0
  0
LINE
  5
9E
330
2
100
AcDbEntity
  8
-VERGLASUNG
100
AcDbLine
 10
80.19781321646837
 20
240.3956965813524
 30
0.0
 11
84.09168803609441
 21
244.2895714009783
 31
0.0
  0
LINE
  5
9F
330
2
100
AcDbEntity
  8
-VERGLASUNG
100
AcDbLine
 10
77.07281321646838
 20
240.3956965813524
 30
0.0
 11
80.96668803609441
 21
244.2895714009784
 31
0.0
  0
LINE
  5
A0
330
2
100
AcDbEntity
  8
-VERGLASUNG
100
AcDbLine
 10
78.63531321646838
 20
240.3956965813524
 30
0.0
 11
82.52918803609441
 21
244.2895714009784
 31
0.0
  0
LINE
  5
A1
330
2
100
AcDbEntity
  8
-VERGLASUNG
100
AcDbLine
 10
75.41772778047766
 20
248.501821761727
 30
0.0
 11
79.31160260010369
 21
252.3956965813531
 31
0.0
  0
LINE
  5
A2
330
2
100
AcDbEntity
  8
-VERGLASUNG
100
AcDbLine
 10
73.85522778047766
 20
248.501821761727
 30
0.0
 11
77.74910260010369
 21
252.3956965813531
 31
0.0
  0
LINE
  5
A3
330
2
100
AcDbEntity
  8
-VERGLASUNG
100
AcDbLine
 10
76.98022778047766
 20
248.501821761727
 30
0.0
 11
80.8741026001037
 21
252.3956965813531
 31
0.0
  0
LWPOLYLINE
  5
A4
330
2
100
AcDbEntity
  8
-NORMTEIL_VERDECKT
100
AcDbPolyline
 90
        5
 70
     0
 43
0.0
 10
112.4963286890302
 20
252.3956967227736
 10
112.4963286890302
 20
249.3956967227736
 10
113.9963286890302
 20
248.3956967227736
 10
115.4963286890302
 20
249.3956967227736
 10
115.4963286890302
 20
252.3956967227736
  0
LINE
  5
A5
330
2
100
AcDbEntity
  8
-NORMTEIL_VERDECKT
100
AcDbLine
 10
112.4963286890302
 20
249.3956967227736
 30
0.0
 11
115.4963286890302
 21
249.3956967227736
 31
0.0
  0
LWPOLYLINE
  5
A6
330
2
100
AcDbEntity
  8
-NORMTEIL_VERDECKT
100
AcDbPolyline
 90
        5
 70
     0
 43
0.0
 10
101.7243475250021
 20
252.3956967227741
 10
101.7243475250021
 20
249.3956967227741
 10
103.4963286890302
 20
248.3956967227741
 10
105.2243475250021
 20
249.3956967227741
 10
105.2243475250021
 20
252.3956967227741
  0
LINE
  5
A7
330
2
100
AcDbEntity
  8
-NORMTEIL_VERDECKT
100
AcDbLine
 10
101.7243475250021
 20
249.395696722774
 30
0.0
 11
105.2243475250021
 21
249.395696722774
 31
0.0
  0
LWPOLYLINE
  5
A8
330
2
100
AcDbEntity
  8
-NORMTEIL_VERDECKT
100
AcDbPolyline
 90
        4
 70
     0
 43
0.0
 10
85.9963286890299
 20
252.3956967227745
 10
127.99632868903
 20
252.3956967227745
 10
123.9963286890299
 20
248.3956967227745
 10
89.9963286890299
 20
248.3956967227745
  0
LWPOLYLINE
  5
A9
330
2
100
AcDbEntity
  8
-NORMTEIL_VERDECKT
100
AcDbPolyline
 90
        7
 70
     0
 43
0.0
 10
85.99632868903034
 20
252.3956967227741
 10
83.16790156428414
 20
252.3956967227741
 10
87.99632868903035
 20
247.5672695980279
 10
87.99632868903035
 20
246.3956967227741
 10
89.99632868903034
 20
246.3956967227741
 10
89.99632868903034
 20
248.3956967227741
 10
85.99632868903034
 20
252.3956967227741
  0
LINE
  5
AA
330
2
100
AcDbEntity
  8
-NORMTEIL_VERDECKT
100
AcDbLine
 10
87.99632868903035
 20
246.3956967227741
 30
0.0
 11
87.99632868903035
 21
240.395696722774
 31
0.0
  0
LWPOLYLINE
  5
AB
330
2
100
AcDbEntity
  8
-NORMTEIL_VERDECKT
100
AcDbPolyline
 90
        7
 70
     0
 43
0.0
 10
127.9963286890298
 20
252.3956967227744
 10
130.824755813776
 20
252.3956967227744
 10
125.9963286890298
 20
247.5672695980283
 10
125.9963286890298
 20
246.3956967227744
 10
123.9963286890298
 20
246.3956967227744
 10
123.9963286890298
 20
248.3956967227744
 10
127.9963286890298
 20
252.3956967227744
  0
LINE
  5
AC
330
2
100
AcDbEntity
  8
-NORMTEIL_VERDECKT
100
AcDbLine
 10
125.9963286890298
 20
246.3956967227744
 30
0.0
 11
125.9963286890298
 21
240.395696722774
 31
0.0
  0
LINE
  5
AD
330
2
100
AcDbEntity
  8
-VERGLASUNG
100
AcDbLine
 10
132.4659072662257
 20
240.3956965106414
 30
0.0
 11
136.3597820858517
 21
244.2895713302675
 31
0.0
  0
LINE
  5
AE
330
2
100
AcDbEntity
  8
-VERGLASUNG
100
AcDbLine
 10
135.5909072662257
 20
240.3956965106414
 30
0.0
 11
139.4847820858517
 21
244.2895713302674
 31
0.0
  0
LINE
  5
AF
330
2
100
AcDbEntity
  8
-VERGLASUNG
100
AcDbLine
 10
134.0284072662257
 20
240.3956965106414
 30
0.0
 11
137.9222820858517
 21
244.2895713302675
 31
0.0
  0
LINE
  5
B0
330
2
100
AcDbEntity
  8
-VERGLASUNG
100
AcDbLine
 10
129.248321830235
 20
248.5018216910161
 30
0.0
 11
133.142196649861
 21
252.3956965106421
 31
0.0
  0
LINE
  5
B1
330
2
100
AcDbEntity
  8
-VERGLASUNG
100
AcDbLine
 10
130.810821830235
 20
248.5018216910161
 30
0.0
 11
134.704696649861
 21
252.3956965106421
 31
0.0
  0
LINE
  5
B2
330
2
100
AcDbEntity
  8
-VERGLASUNG
100
AcDbLine
 10
132.373321830235
 20
248.5018216910161
 30
0.0
 11
136.267196649861
 21
252.3956965106421
 31
0.0
  0
DIMENSION
  5
B3
330
2
100
AcDbEntity
  8
-TEXT3
100
AcDbDimension
  2
*D5
 10
119.4963286890289
 20
210.395696722774
 30
0.0
 11
106.9963286890287
 21
213.6213935276686
 31
0.0
  1
%%c<>
 71
     5
 42
25.00000000000047
  3
1-1PRO
100
AcDbAlignedDimension
 13
94.49632868902845
 23
220.395696722774
 33
0.0
 14
119.4963286890289
 24
220.395696722774
 34
0.0
100
AcDbRotatedDimension
  0
INSERT
  5
C0
330
2
100
AcDbEntity
  8
-TEXT2
100
AcDbBlockReference
  2
A$C12D21FE6
 10
102.9963287308914
 20
236.3956966615417
 30
0.0
  0
INSERT
  5
C9
330
2
100
AcDbEntity
  8
-TEXT2
100
AcDbBlockReference
  2
ANSICHT4268
 10
106.9963286890525
 20
176.0060754385376
 30
0.0
  0
LWPOLYLINE
  5
DA
330
2
100
AcDbEntity
  8
-VERGLASUNG
100
AcDbPolyline
 90
        6
 70
     0
 43
0.0
 10
57.29199120108171
 20
252.3956967227747
 10
184.9963286890283
 20
252.3956967227741
 10
186.9963286890283
 20
250.3956967227741
 10
186.9963286890282
 20
242.3956967227736
 10
184.9963286890283
 20
240.3956967227736
 10
57.29199120108171
 20
240.395696722774
  0
LINE
  5
DB
330
2
100
AcDbEntity
  8
-VERGLASUNG
100
AcDbLine
 10
166.4407493472929
 20
248.5018218324375
 30
0.0
 11
170.3346241669189
 21
252.3956966520636
 31
0.0
  0
LINE
  5
DC
330
2
100
AcDbEntity
  8
-VERGLASUNG
100
AcDbLine
 10
163.3157493472929
 20
248.5018218324375
 30
0.0
 11
167.2096241669189
 21
252.3956966520636
 31
0.0
  0
LINE
  5
DD
330
2
100
AcDbEntity
  8
-VERGLASUNG
100
AcDbLine
 10
164.8782493472929
 20
248.5018218324375
 30
0.0
 11
168.7721241669189
 21
252.3956966520636
 31
0.0
  0
LINE
  5
DE
330
2
100
AcDbEntity
  8
-VERGLASUNG
100
AcDbLine
 10
168.0958347832836
 20
240.3956966520629
 30
0.0
 11
171.9897096029096
 21
244.2895714716889
 31
0.0
  0
LINE
  5
DF
330
2
100
AcDbEntity
  8
-VERGLASUNG
100
AcDbLine
 10
166.5333347832836
 20
240.3956966520629
 30
0.0
 11
170.4272096029096
 21
244.2895714716889
 31
0.0
  0
LINE
  5
E0
330
2
100
AcDbEntity
  8
-VERGLASUNG
100
AcDbLine
 10
169.6583347832836
 20
240.3956966520629
 30
0.0
 11
173.5522096029096
 21
244.2895714716888
 31
0.0
  0
LINE
  5
E1
330
2
100
AcDbEntity
  8
-VERGLASUNG
100
AcDbLine
 10
181.9119631058219
 20
248.5018218324375
 30
0.0
 11
185.4010833425934
 21
251.990942069209
 31
0.0
  0
LINE
  5
E2
330
2
100
AcDbEntity
  8
-VERGLASUNG
100
AcDbLine
 10
180.3494631058219
 20
248.5018218324375
 30
0.0
 11
184.2433379254479
 21
252.3956966520636
 31
0.0
  0
LINE
  5
E3
330
2
100
AcDbEntity
  8
-VERGLASUNG
100
AcDbLine
 10
183.4744631058219
 20
248.5018218324375
 30
0.0
 11
186.1823333425934
 21
251.209692069209
 31
0.0
  0
LINE
  5
E4
330
2
100
AcDbEntity
  8
-VERGLASUNG
100
AcDbLine
 10
183.5670485418126
 20
240.3956966520629
 30
0.0
 11
186.9963286890282
 21
243.8249767992786
 31
0.0
  0
LWPOLYLINE
  5
E5
102
{ACAD_REACTORS
330
E6
102
}
330
2
100
AcDbEntity
  8
-DICHTUNG
100
AcDbPolyline
 90
        4
 70
     1
 43
0.0
 10
73.4963286890283
 20
236.3956967227739
 10
140.4963286890283
 20
236.3956967227739
 10
140.4963286890283
 20
240.3956967227739
 10
73.4963286890283
 20
240.3956967227739
  0
HATCH
  5
E6
330
2
100
AcDbEntity
  8
-SCHRAFFUR
100
AcDbHatch
 10
0.0
 20
0.0
 30
0.0
210
0.0
220
0.0
230
1.0
  2
SOLID
 70
     1
 71
     1
 91
        1
 92
        1
 93
        4
 72
     1
 10
73.4963286890283
 20
236.3956967227739
 11
140.4963286890283
 21
236.3956967227739
 72
     1
 10
140.4963286890283
 20
236.3956967227739
 11
140.4963286890283
 21
240.3956967227739
 72
     1
 10
140.4963286890283
 20
240.3956967227739
 11
73.4963286890283
 21
240.3956967227739
 72
     1
 10
73.4963286890283
 20
240.3956967227739
 11
73.4963286890283
 21
236.3956967227739
 97
        1
330
E5
 75
     0
 76
     1
 98
        1
 10
160.6921447857716
 20
-9.951736772461373
  0
ENDSEC
  0
SECTION
  2
OBJECTS
  0
DICTIONARY
  5
7
330
0
100
AcDbDictionary
281
     1
  3
ACAD_COLOR
350
FF
  3
ACAD_GROUP
350
FB
  3
ACAD_LAYOUT
350
E9
  3
ACAD_MATERIAL
350
FE
  3
ACAD_MLINESTYLE
350
FC
  3
ACAD_PLOTSETTINGS
350
FD
  3
ACAD_PLOTSTYLENAME
350
6
  3
ACDBHEADERROUNDTRIPXREC
350
105
  3
AcDbVariableDictionary
350
101
  0
DICTIONARY
  5
FF
102
{ACAD_REACTORS
330
7
102
}
330
7
100
AcDbDictionary
281
     1
  0
DICTIONARY
  5
FB
102
{ACAD_REACTORS
330
7
102
}
330
7
100
AcDbDictionary
281
     1
  0
DICTIONARY
  5
E9
102
{ACAD_REACTORS
330
7
102
}
330
7
100
AcDbDictionary
281
     1
  3
Layout1
350
ED
  3
Model
350
E8
  0
DICTIONARY
  5
FE
102
{ACAD_REACTORS
330
7
102
}
330
7
100
AcDbDictionary
281
     1
  0
DICTIONARY
  5
FC
102
{ACAD_REACTORS
330
7
102
}
330
7
100
AcDbDictionary
281
     1
  3
STANDARD
350
100
  0
DICTIONARY
  5
FD
102
{ACAD_REACTORS
330
7
102
}
330
7
100
AcDbDictionary
281
     1
  0
ACDBDICTIONARYWDFLT
  5
6
102
{ACAD_REACTORS
330
7
102
}
330
7
100
AcDbDictionary
281
     1
  3
Normal
350
5
100
AcDbDictionaryWithDefault
340
5
  0
DICTIONARY
  5
105
102
{ACAD_REACTORS
330
7
102
}
330
7
100
AcDbDictionary
281
     1
  3
COLORDICT
350
107
  3
MATERIALDICT
350
106
  0
DICTIONARY
  5
101
102
{ACAD_REACTORS
330
7
102
}
330
7
100
AcDbDictionary
281
     1
  3
DIMASSOC
350
103
  3
HIDETEXT
350
102
  3
PROJECTNAME
350
104
  0
LAYOUT
  5
ED
102
{ACAD_XDICTIONARY
360
10C
102
}
102
{ACAD_REACTORS
330
E9
102
}
330
E9
100
AcDbPlotSettings
  1

  2
HP DeskJet 1120C Printer
  4

  6

 40
0.0
 41
0.0
 42
0.0
 43
0.0
 44
0.0
 45
0.0
 46
0.0
 47
0.0
 48
0.0
 49
0.0
140
0.0
141
0.0
142
1.0
143
1.0
 70
   688
 72
     0
 73
     0
 74
     5
  7
monochrome.ctb
 75
    16
147
1.0
148
0.0
149
0.0
100
AcDbLayout
  1
Layout1
 70
     1
 71
     1
 10
0.0
 20
0.0
 11
12.0
 21
9.0
 12
0.0
 22
0.0
 32
0.0
 14
1.000000000000000E+20
 24
1.000000000000000E+20
 34
1.000000000000000E+20
 15
-1.000000000000000E+20
 25
-1.000000000000000E+20
 35
-1.000000000000000E+20
146
0.0
 13
0.0
 23
0.0
 33
0.0
 16
1.0
 26
0.0
 36
0.0
 17
0.0
 27
1.0
 37
0.0
 76
     0
330
EA
  0
LAYOUT
  5
E8
102
{ACAD_XDICTIONARY
360
10A
102
}
102
{ACAD_REACTORS
330
E9
102
}
330
E9
100
AcDbPlotSettings
  1

  2
HP DeskJet 1120C Printer
  4

  6

 40
0.0
 41
0.0
 42
0.0
 43
0.0
 44
0.0
 45
0.0
 46
0.0
 47
0.0
 48
0.0
 49
0.0
140
0.0
141
0.0
142
1.0
143
1.0
 70
  1712
 72
     0
 73
     0
 74
     0
  7
monochrome.ctb
 75
     0
147
1.0
148
0.0
149
0.0
100
AcDbLayout
  1
Model
 70
     1
 71
     0
 10
0.0
 20
0.0
 11
12.0
 21
9.0
 12
0.0
 22
0.0
 32
0.0
 14
0.0
 24
0.0
 34
0.0
 15
0.0
 25
0.0
 35
0.0
146
0.0
 13
0.0
 23
0.0
 33
0.0
 16
1.0
 26
0.0
 36
0.0
 17
0.0
 27
1.0
 37
0.0
 76
     0
330
2
  0
MLINESTYLE
  5
100
102
{ACAD_REACTORS
330
FC
102
}
330
FC
100
AcDbMlineStyle
  2
STANDARD
 70
     0
  3

 62
     0
 51
90.0
 52
90.0
 71
     2
 49
0.5
 62
   256
  6
BYLAYER
 49
-0.5
 62
   256
  6
BYLAYER
  0
ACDBPLACEHOLDER
  5
5
102
{ACAD_REACTORS
330
6
102
}
330
6
  0
XRECORD
  5
107
102
{ACAD_REACTORS
330
105
102
}
330
105
100
AcDbXrecord
280
     1
340
FF
  0
XRECORD
  5
106
102
{ACAD_REACTORS
330
105
102
}
330
105
100
AcDbXrecord
280
     1
340
FE
  0
DICTIONARYVAR
  5
103
102
{ACAD_REACTORS
330
101
102
}
330
101
100
DictionaryVariables
280
     0
  1
1
  0
DICTIONARYVAR
  5
102
102
{ACAD_REACTORS
330
101
102
}
330
101
100
DictionaryVariables
280
     0
  1
1
  0
DICTIONARYVAR
  5
104
102
{ACAD_REACTORS
330
101
102
}
330
101
100
DictionaryVariables
280
     0
  1

  0
DICTIONARY
  5
10C
330
ED
100
AcDbDictionary
280
     1
281
     1
  3
ACAD_XREC_ROUNDTRIP
360
10D
  0
DICTIONARY
  5
10A
330
E8
100
AcDbDictionary
280
     1
281
     1
  3
ACAD_XREC_ROUNDTRIP
360
10B
  0
XRECORD
  5
10D
102
{ACAD_REACTORS
330
10C
102
}
330
10C
100
AcDbXrecord
280
     1
102
SHADEPLOT
 70
     0
102
SHADEPLOTRESLEVEL
 70
     2
102
SHADEPLOTCUSTOMDPI
 70
   300
  0
XRECORD
  5
10B
102
{ACAD_REACTORS
330
10A
102
}
330
10A
100
AcDbXrecord
280
     1
102
SHADEPLOT
 70
     0
102
SHADEPLOTRESLEVEL
 70
     2
102
SHADEPLOTCUSTOMDPI
 70
   300
  0
ENDSEC
  0
EOF
