  0
SECTION
  2
HEADER
  9
$ACADVER
  1
AC1015
  9
$ACADMAINTVER
 70
    18
  9
$DWGCODEPAGE
  3
ANSI_1252
  9
$INSBASE
 10
-327.8288694144876
 20
0.0
 30
0.0
  9
$EXTMIN
 10
1.000000000000000E+20
 20
1.000000000000000E+20
 30
1.000000000000000E+20
  9
$EXTMAX
 10
0.0
 20
0.0
 30
0.0
  9
$LIMMIN
 10
0.0
 20
0.0
  9
$LIMMAX
 10
12.0
 20
9.0
  9
$ORTHOMODE
 70
     1
  9
$REGENMODE
 70
     1
  9
$FILLMODE
 70
     1
  9
$QTEXTMODE
 70
     0
  9
$MIRRTEXT
 70
     1
  9
$LTSCALE
 40
2.5
  9
$ATTMODE
 70
     1
  9
$TEXTSIZE
 40
0.2
  9
$TRACEWID
 40
0.05
  9
$TEXTSTYLE
  7
STANDARD
  9
$CLAYER
  8
-NORMTEIL_VERDECKT
  9
$CELTYPE
  6
BYLAYER
  9
$CECOLOR
 62
   256
  9
$CELTSCALE
 40
1.0
  9
$DISPSILH
 70
     0
  9
$DIMSCALE
 40
1.0
  9
$DIMASZ
 40
3.5
  9
$DIMEXO
 40
2.0
  9
$DIMDLI
 40
2.0
  9
$DIMRND
 40
0.0
  9
$DIMDLE
 40
0.0
  9
$DIMEXE
 40
1.5
  9
$DIMTP
 40
0.0
  9
$DIMTM
 40
0.0
  9
$DIMTXT
 40
4.0
  9
$DIMCEN
 40
0.09
  9
$DIMTSZ
 40
0.0
  9
$DIMTOL
 70
     0
  9
$DIMLIM
 70
     0
  9
$DIMTIH
 70
     0
  9
$DIMTOH
 70
     0
  9
$DIMSE1
 70
     0
  9
$DIMSE2
 70
     0
  9
$DIMTAD
 70
     1
  9
$DIMZIN
 70
     9
  9
$DIMBLK
  1

  9
$DIMASO
 70
     1
  9
$DIMSHO
 70
     1
  9
$DIMPOST
  1

  9
$DIMAPOST
  1

  9
$DIMALT
 70
     0
  9
$DIMALTD
 70
     2
  9
$DIMALTF
 40
25.4
  9
$DIMLFAC
 40
1.0
  9
$DIMTOFL
 70
     0
  9
$DIMTVP
 40
0.0
  9
$DIMTIX
 70
     0
  9
$DIMSOXD
 70
     0
  9
$DIMSAH
 70
     1
  9
$DIMBLK1
  1

  9
$DIMBLK2
  1
DOTBLANK
  9
$DIMSTYLE
  2
1-1PRO-PU
  9
$DIMCLRD
 70
   256
  9
$DIMCLRE
 70
   256
  9
$DIMCLRT
 70
   256
  9
$DIMTFAC
 40
1.0
  9
$DIMGAP
 40
1.0
  9
$DIMJUST
 70
     0
  9
$DIMSD1
 70
     0
  9
$DIMSD2
 70
     0
  9
$DIMTOLJ
 70
     1
  9
$DIMTZIN
 70
     0
  9
$DIMALTZ
 70
     0
  9
$DIMALTTZ
 70
     0
  9
$DIMUPT
 70
     0
  9
$DIMDEC
 70
     1
  9
$DIMTDEC
 70
     1
  9
$DIMALTU
 70
     2
  9
$DIMALTTD
 70
     2
  9
$DIMTXSTY
  7
STANDARD
  9
$DIMAUNIT
 70
     0
  9
$DIMADEC
 70
     0
  9
$DIMALTRND
 40
0.0
  9
$DIMAZIN
 70
     0
  9
$DIMDSEP
 70
    46
  9
$DIMATFIT
 70
     3
  9
$DIMFRAC
 70
     0
  9
$DIMLDRBLK
  1

  9
$DIMLUNIT
 70
     2
  9
$DIMLWD
 70
    -2
  9
$DIMLWE
 70
    -2
  9
$DIMTMOVE
 70
     0
  9
$LUNITS
 70
     2
  9
$LUPREC
 70
     4
  9
$SKETCHINC
 40
0.1
  9
$FILLETRAD
 40
0.0
  9
$AUNITS
 70
     0
  9
$AUPREC
 70
     0
  9
$MENU
  1
.
  9
$ELEVATION
 40
0.0
  9
$PELEVATION
 40
0.0
  9
$THICKNESS
 40
0.0
  9
$LIMCHECK
 70
     0
  9
$CHAMFERA
 40
2.0
  9
$CHAMFERB
 40
2.0
  9
$CHAMFERC
 40
1.0
  9
$CHAMFERD
 40
0.0
  9
$SKPOLY
 70
     0
  9
$TDCREATE
 40
2450923.406402199
  9
$TDUCREATE
 40
2450923.364735533
  9
$TDUPDATE
 40
2453402.390522060
  9
$TDUUPDATE
 40
2453402.348855393
  9
$TDINDWG
 40
2.4441817940
  9
$TDUSRTIMER
 40
2.4441817940
  9
$USRTIMER
 70
     1
  9
$ANGBASE
 50
0.0
  9
$ANGDIR
 70
     0
  9
$PDMODE
 70
     0
  9
$PDSIZE
 40
0.0
  9
$PLINEWID
 40
0.0
  9
$SPLFRAME
 70
     0
  9
$SPLINETYPE
 70
     6
  9
$SPLINESEGS
 70
    50
  9
$HANDSEED
  5
12A
  9
$SURFTAB1
 70
     6
  9
$SURFTAB2
 70
     6
  9
$SURFTYPE
 70
     6
  9
$SURFU
 70
     6
  9
$SURFV
 70
     6
  9
$UCSBASE
  2

  9
$UCSNAME
  2

  9
$UCSORG
 10
0.0
 20
0.0
 30
0.0
  9
$UCSXDIR
 10
1.0
 20
0.0
 30
0.0
  9
$UCSYDIR
 10
0.0
 20
1.0
 30
0.0
  9
$UCSORTHOREF
  2

  9
$UCSORTHOVIEW
 70
     0
  9
$UCSORGTOP
 10
0.0
 20
0.0
 30
0.0
  9
$UCSORGBOTTOM
 10
0.0
 20
0.0
 30
0.0
  9
$UCSORGLEFT
 10
0.0
 20
0.0
 30
0.0
  9
$UCSORGRIGHT
 10
0.0
 20
0.0
 30
0.0
  9
$UCSORGFRONT
 10
0.0
 20
0.0
 30
0.0
  9
$UCSORGBACK
 10
0.0
 20
0.0
 30
0.0
  9
$PUCSBASE
  2

  9
$PUCSNAME
  2

  9
$PUCSORG
 10
0.0
 20
0.0
 30
0.0
  9
$PUCSXDIR
 10
1.0
 20
0.0
 30
0.0
  9
$PUCSYDIR
 10
0.0
 20
1.0
 30
0.0
  9
$PUCSORTHOREF
  2

  9
$PUCSORTHOVIEW
 70
     0
  9
$PUCSORGTOP
 10
0.0
 20
0.0
 30
0.0
  9
$PUCSORGBOTTOM
 10
0.0
 20
0.0
 30
0.0
  9
$PUCSORGLEFT
 10
0.0
 20
0.0
 30
0.0
  9
$PUCSORGRIGHT
 10
0.0
 20
0.0
 30
0.0
  9
$PUCSORGFRONT
 10
0.0
 20
0.0
 30
0.0
  9
$PUCSORGBACK
 10
0.0
 20
0.0
 30
0.0
  9
$USERI1
 70
     0
  9
$USERI2
 70
     0
  9
$USERI3
 70
     0
  9
$USERI4
 70
     0
  9
$USERI5
 70
     0
  9
$USERR1
 40
0.0
  9
$USERR2
 40
0.0
  9
$USERR3
 40
0.0
  9
$USERR4
 40
0.0
  9
$USERR5
 40
0.0
  9
$WORLDVIEW
 70
     1
  9
$SHADEDGE
 70
     3
  9
$SHADEDIF
 70
    70
  9
$TILEMODE
 70
     1
  9
$MAXACTVP
 70
    48
  9
$PINSBASE
 10
0.0
 20
0.0
 30
0.0
  9
$PLIMCHECK
 70
     0
  9
$PEXTMIN
 10
1.000000000000000E+20
 20
1.000000000000000E+20
 30
1.000000000000000E+20
  9
$PEXTMAX
 10
-1.000000000000000E+20
 20
-1.000000000000000E+20
 30
-1.000000000000000E+20
  9
$PLIMMIN
 10
0.0
 20
0.0
  9
$PLIMMAX
 10
12.0
 20
9.0
  9
$UNITMODE
 70
     0
  9
$VISRETAIN
 70
     1
  9
$PLINEGEN
 70
     0
  9
$PSLTSCALE
 70
     1
  9
$TREEDEPTH
 70
  3020
  9
$CMLSTYLE
  2
STANDARD
  9
$CMLJUST
 70
     0
  9
$CMLSCALE
 40
1.0
  9
$PROXYGRAPHICS
 70
     1
  9
$MEASUREMENT
 70
     0
  9
$CELWEIGHT
370
    -1
  9
$ENDCAPS
280
     0
  9
$JOINSTYLE
280
     0
  9
$LWDISPLAY
290
     0
  9
$INSUNITS
 70
     0
  9
$HYPERLINKBASE
  1

  9
$STYLESHEET
  1

  9
$XEDIT
290
     1
  9
$CEPSNTYPE
380
     0
  9
$PSTYLEMODE
290
     1
  9
$FINGERPRINTGUID
  2
{C77FD080-FB68-11D4-9C1F-EC81C176A25E}
  9
$VERSIONGUID
  2
{0C537B87-FD0D-4145-96D4-83C8B0FDF998}
  9
$EXTNAMES
290
     1
  9
$PSVPSCALE
 40
0.0
  9
$OLESTARTUP
290
     0
  0
ENDSEC
  0
SECTION
  2
CLASSES
  0
CLASS
  1
DICTIONARYVAR
  2
AcDbDictionaryVar
  3
ObjectDBX Classes
 90
        0
280
     0
281
     0
  0
CLASS
  1
IMAGE
  2
AcDbRasterImage
  3
ISM
 90
    32895
280
     0
281
     1
  0
CLASS
  1
IMAGEDEF_REACTOR
  2
AcDbRasterImageDefReactor
  3
ISM
 90
    32769
280
     0
281
     0
  0
CLASS
  1
IMAGEDEF
  2
AcDbRasterImageDef
  3
ISM
 90
    32768
280
     0
281
     0
  0
CLASS
  1
RASTERVARIABLES
  2
AcDbRasterVariables
  3
ISM
 90
    32768
280
     0
281
     0
  0
CLASS
  1
ACDBDICTIONARYWDFLT
  2
AcDbDictionaryWithDefault
  3
ObjectDBX Classes
 90
        0
280
     0
281
     0
  0
CLASS
  1
ACDBPLACEHOLDER
  2
AcDbPlaceHolder
  3
ObjectDBX Classes
 90
        0
280
     0
281
     0
  0
CLASS
  1
LAYOUT
  2
AcDbLayout
  3
ObjectDBX Classes
 90
        0
280
     0
281
     0
  0
ENDSEC
  0
SECTION
  2
TABLES
  0
TABLE
  2
VPORT
  5
10C
330
0
100
AcDbSymbolTable
 70
     1
  0
VPORT
  5
10D
330
10C
100
AcDbSymbolTableRecord
100
AcDbViewportTableRecord
  2
*Active
 70
     0
 10
0.0
 20
0.0
 11
1.0
 21
1.0
 12
186.7771429746001
 22
197.0959278154273
 13
0.0
 23
0.0
 14
0.5
 24
0.5
 15
0.5
 25
0.5
 16
0.0
 26
0.0
 36
1.0
 17
0.0
 27
0.0
 37
0.0
 40
197.9921656444692
 41
1.549148099606815
 42
50.0
 43
0.0
 44
0.0
 50
0.0
 51
0.0
 71
     0
 72
   100
 73
     1
 74
     1
 75
     0
 76
     0
 77
     0
 78
     0
281
     0
 65
     1
110
0.0
120
0.0
130
0.0
111
1.0
121
0.0
131
0.0
112
0.0
122
1.0
132
0.0
 79
     0
146
0.0
  0
ENDTAB
  0
TABLE
  2
LTYPE
  5
107
330
0
100
AcDbSymbolTable
 70
     3
  0
LTYPE
  5
108
330
107
100
AcDbSymbolTableRecord
100
AcDbLinetypeTableRecord
  2
BYBLOCK
 70
     0
  3

 72
    65
 73
     0
 40
0.0
  0
LTYPE
  5
109
330
107
100
AcDbSymbolTableRecord
100
AcDbLinetypeTableRecord
  2
BYLAYER
 70
     0
  3

 72
    65
 73
     0
 40
0.0
  0
LTYPE
  5
8
330
107
100
AcDbSymbolTableRecord
100
AcDbLinetypeTableRecord
  2
CONTINUOUS
 70
     0
  3
Solid line
 72
    65
 73
     0
 40
0.0
  0
LTYPE
  5
61
330
107
100
AcDbSymbolTableRecord
100
AcDbLinetypeTableRecord
  2
MITTEX2
 70
     0
  3
Mitte (2x) ________  __  ________  __  _____
 72
    65
 73
     4
 40
4.0
 49
2.5
 74
     0
 49
-0.5
 74
     0
 49
0.5
 74
     0
 49
-0.5
 74
     0
  0
LTYPE
  5
69
330
107
100
AcDbSymbolTableRecord
100
AcDbLinetypeTableRecord
  2
STRICHLINIEX2
 70
     0
  3
Strichlinie (2x) ____  ____  ____  ____  ____  
 72
    65
 73
     2
 40
1.5
 49
1.0
 74
     0
 49
-0.5
 74
     0
  0
ENDTAB
  0
TABLE
  2
LAYER
  5
104
330
0
100
AcDbSymbolTable
 70
    11
  0
LAYER
  5
4
330
104
100
AcDbSymbolTableRecord
100
AcDbLayerTableRecord
  2
0
 70
     0
 62
     7
  6
CONTINUOUS
370
    -3
390
5
  0
LAYER
  5
20
330
104
100
AcDbSymbolTableRecord
100
AcDbLayerTableRecord
  2
-PROFILAUSSENKANTET
 70
     0
 62
     4
  6
CONTINUOUS
370
    -3
390
5
  0
LAYER
  5
22
330
104
100
AcDbSymbolTableRecord
100
AcDbLayerTableRecord
  2
-DICHTUNG
 70
     0
 62
     3
  6
CONTINUOUS
370
    -3
390
5
  0
LAYER
  5
64
330
104
100
AcDbSymbolTableRecord
100
AcDbLayerTableRecord
  2
-NORMTEIL
 70
     0
 62
     6
  6
CONTINUOUS
370
    -3
390
5
  0
LAYER
  5
68
330
104
100
AcDbSymbolTableRecord
100
AcDbLayerTableRecord
  2
-NORMTEIL_VERDECKT
 70
     0
 62
     9
  6
STRICHLINIEX2
370
    -3
390
5
  0
LAYER
  5
17
330
104
100
AcDbSymbolTableRecord
100
AcDbLayerTableRecord
  2
DEFPOINTS
 70
     0
 62
     7
  6
CONTINUOUS
290
     0
370
    -3
390
5
  0
LAYER
  5
60
330
104
100
AcDbSymbolTableRecord
100
AcDbLayerTableRecord
  2
-SYSTEM
 70
     0
 62
     2
  6
MITTEX2
370
    -3
390
5
  0
LAYER
  5
BE
330
104
100
AcDbSymbolTableRecord
100
AcDbLayerTableRecord
  2
-TEXT2
 70
     0
 62
     3
  6
CONTINUOUS
370
    -3
390
5
  0
LAYER
  5
A
330
104
100
AcDbSymbolTableRecord
100
AcDbLayerTableRecord
  2
-TEXT3
 70
     0
 62
     2
  6
CONTINUOUS
370
    -3
390
5
  0
LAYER
  5
1E
330
104
100
AcDbSymbolTableRecord
100
AcDbLayerTableRecord
  2
-SCHRAFFUR
 70
     0
 62
     9
  6
CONTINUOUS
370
    -3
390
5
  0
LAYER
  5
1C
330
104
100
AcDbSymbolTableRecord
100
AcDbLayerTableRecord
  2
-VERGLASUNG
 70
     0
 62
     1
  6
CONTINUOUS
370
    -3
390
5
  0
ENDTAB
  0
TABLE
  2
STYLE
  5
105
330
0
100
AcDbSymbolTable
 70
     1
  0
STYLE
  5
C
330
105
100
AcDbSymbolTableRecord
100
AcDbTextStyleTableRecord
  2
STANDARD
 70
     0
 40
0.0
 41
1.0
 50
0.0
 71
     0
 42
0.2
  3
GOTHIC.TTF
  4

1001
ACAD
1000
Century Gothic
1071
       34
  0
ENDTAB
  0
TABLE
  2
VIEW
  5
10A
330
0
100
AcDbSymbolTable
 70
     0
  0
ENDTAB
  0
TABLE
  2
UCS
  5
10B
330
0
100
AcDbSymbolTable
 70
     0
  0
ENDTAB
  0
TABLE
  2
APPID
  5
10E
330
0
100
AcDbSymbolTable
 70
     1
  0
APPID
  5
D
330
10E
100
AcDbSymbolTableRecord
100
AcDbRegAppTableRecord
  2
ACAD
 70
     0
  0
ENDTAB
  0
TABLE
  2
DIMSTYLE
  5
10F
330
0
100
AcDbSymbolTable
 70
     2
100
AcDbDimStyleTable
 71
     2
340
B
340
110
  0
DIMSTYLE
105
B
102
{ACAD_REACTORS
330
51
330
90
330
9F
330
AC
330
9
330
3E
330
23
330
30
330
CD
330
DA
102
}
330
10F
100
AcDbSymbolTableRecord
100
AcDbDimStyleTableRecord
  2
1-1PRO
 70
     0
 41
3.5
 42
2.0
 43
2.0
 44
1.5
 73
     0
 74
     0
 77
     1
 78
     9
140
4.0
147
1.0
176
   256
177
   256
178
   256
271
     1
272
     1
340
C
  0
DIMSTYLE
105
110
330
10F
100
AcDbSymbolTableRecord
100
AcDbDimStyleTableRecord
  2
1-1PRO-PU
 70
     0
 41
3.5
 42
2.0
 43
2.0
 44
1.5
 73
     0
 74
     0
 77
     1
 78
     9
140
4.0
147
1.0
173
     1
176
   256
177
   256
178
   256
271
     1
272
     1
340
C
344
111
  0
ENDTAB
  0
TABLE
  2
BLOCK_RECORD
  5
1
330
0
100
AcDbSymbolTable
 70
    12
  0
BLOCK_RECORD
  5
2
330
1
100
AcDbSymbolTableRecord
100
AcDbBlockTableRecord
  2
*MODEL_SPACE
340
FE
  0
BLOCK_RECORD
  5
100
330
1
100
AcDbSymbolTableRecord
100
AcDbBlockTableRecord
  2
*PAPER_SPACE
340
103
  0
BLOCK_RECORD
  5
111
330
1
100
AcDbSymbolTableRecord
100
AcDbBlockTableRecord
  2
_DOTBLANK
340
0
  0
BLOCK_RECORD
  5
E
330
1
100
AcDbSymbolTableRecord
100
AcDbBlockTableRecord
  2
*D1
340
0
  0
BLOCK_RECORD
  5
24
330
1
100
AcDbSymbolTableRecord
100
AcDbBlockTableRecord
  2
*D2
340
0
  0
BLOCK_RECORD
  5
31
330
1
100
AcDbSymbolTableRecord
100
AcDbBlockTableRecord
  2
*D3
340
0
  0
BLOCK_RECORD
  5
3F
330
1
100
AcDbSymbolTableRecord
100
AcDbBlockTableRecord
  2
*D4
340
0
  0
BLOCK_RECORD
  5
52
330
1
100
AcDbSymbolTableRecord
100
AcDbBlockTableRecord
  2
*D5
340
0
  0
BLOCK_RECORD
  5
91
330
1
100
AcDbSymbolTableRecord
100
AcDbBlockTableRecord
  2
*D6
340
0
  0
BLOCK_RECORD
  5
A0
330
1
100
AcDbSymbolTableRecord
100
AcDbBlockTableRecord
  2
*D7
340
0
  0
BLOCK_RECORD
  5
AD
330
1
100
AcDbSymbolTableRecord
100
AcDbBlockTableRecord
  2
*D8
340
0
  0
BLOCK_RECORD
  5
BF
330
1
100
AcDbSymbolTableRecord
100
AcDbBlockTableRecord
  2
A$C12D21FE6
340
0
102
{BLKREFS
331
BD
102
}
  0
BLOCK_RECORD
  5
CE
330
1
100
AcDbSymbolTableRecord
100
AcDbBlockTableRecord
  2
*D10
340
0
  0
BLOCK_RECORD
  5
DB
330
1
100
AcDbSymbolTableRecord
100
AcDbBlockTableRecord
  2
*D11
340
0
  0
ENDTAB
  0
ENDSEC
  0
SECTION
  2
BLOCKS
  0
BLOCK
  5
3
330
2
100
AcDbEntity
  8
0
100
AcDbBlockBegin
  2
*MODEL_SPACE
 70
     0
 10
0.0
 20
0.0
 30
0.0
  3
*MODEL_SPACE
  1

  0
ENDBLK
  5
FD
330
2
100
AcDbEntity
  8
0
100
AcDbBlockEnd
  0
BLOCK
  5
101
330
100
100
AcDbEntity
 67
     1
  8
0
100
AcDbBlockBegin
  2
*PAPER_SPACE
 70
     0
 10
0.0
 20
0.0
 30
0.0
  3
*PAPER_SPACE
  1

  0
ENDBLK
  5
102
330
100
100
AcDbEntity
 67
     1
  8
0
100
AcDbBlockEnd
  0
BLOCK
  5
112
330
111
100
AcDbEntity
  8
0
100
AcDbBlockBegin
  2
_DOTBLANK
 70
     0
 10
0.0
 20
0.0
 30
0.0
  3
_DOTBLANK
  1

  0
CIRCLE
  5
113
330
111
100
AcDbEntity
  8
0
  6
ByBlock
 62
     0
100
AcDbCircle
 10
0.0
 20
0.0
 30
0.0
 40
0.5
  0
LINE
  5
114
330
111
100
AcDbEntity
  8
0
  6
ByBlock
 62
     0
100
AcDbLine
 10
-0.5
 20
0.0
 30
0.0
 11
-1.0
 21
0.0
 31
0.0
  0
ENDBLK
  5
115
330
111
100
AcDbEntity
  8
0
100
AcDbBlockEnd
  0
BLOCK
  5
F
330
E
100
AcDbEntity
  8
0
100
AcDbBlockBegin
  2
*D1
 70
     1
 10
0.0
 20
0.0
 30
0.0
  3
*D1
  1

  0
LINE
  5
10
330
E
100
AcDbEntity
  8
-TEXT3
370
    -2
100
AcDbLine
 10
92.62320502944376
 20
155.5495888130785
 30
0.0
 11
92.62320502944376
 21
112.753926301026
 31
0.0
  0
LINE
  5
11
330
E
100
AcDbEntity
  8
-TEXT3
370
    -2
100
AcDbLine
 10
157.6232050294438
 20
195.0495888130789
 30
0.0
 11
157.6232050294438
 21
112.753926301026
 31
0.0
  0
LINE
  5
12
330
E
100
AcDbEntity
  8
-TEXT3
370
    -2
100
AcDbLine
 10
96.12320502944378
 20
114.253926301026
 30
0.0
 11
154.1232050294437
 21
114.253926301026
 31
0.0
  0
SOLID
  5
13
330
E
100
AcDbEntity
  8
-TEXT3
100
AcDbTrace
 10
96.12320502944378
 20
114.8372596343594
 30
0.0
 11
96.12320502944378
 21
113.6705929676927
 31
0.0
 12
92.62320502944376
 22
114.253926301026
 32
0.0
 13
92.62320502944376
 23
114.253926301026
 33
0.0
  0
SOLID
  5
14
330
E
100
AcDbEntity
  8
-TEXT3
100
AcDbTrace
 10
154.1232050294437
 20
114.8372596343594
 30
0.0
 11
154.1232050294437
 21
113.6705929676927
 31
0.0
 12
157.6232050294438
 22
114.253926301026
 32
0.0
 13
157.6232050294438
 23
114.253926301026
 33
0.0
  0
MTEXT
  5
15
330
E
100
AcDbEntity
  8
-TEXT3
100
AcDbMText
 10
125.1232050294437
 20
117.354538129714
 30
0.0
 40
4.0
 41
0.0
 71
     5
 72
     1
  1
\A1;65
 73
     1
 44
1.0
1001
ACAD
1000
MTEXTBEGIN
1070
    73
1070
     1
1070
    44
1040
1.0
1070
    74
1070
     0
1000
MTEXTEND
  0
POINT
  5
16
330
E
100
AcDbEntity
  8
DEFPOINTS
 62
     0
100
AcDbPoint
 10
92.62320502944376
 20
157.5495888130785
 30
0.0
  0
POINT
  5
18
330
E
100
AcDbEntity
  8
DEFPOINTS
 62
     0
100
AcDbPoint
 10
157.6232050294438
 20
197.0495888130789
 30
0.0
  0
POINT
  5
19
330
E
100
AcDbEntity
  8
DEFPOINTS
 62
     0
100
AcDbPoint
 10
157.6232050294438
 20
114.253926301026
 30
0.0
  0
ENDBLK
  5
1A
330
E
100
AcDbEntity
  8
0
100
AcDbBlockEnd
  0
BLOCK
  5
25
330
24
100
AcDbEntity
  8
0
100
AcDbBlockBegin
  2
*D2
 70
     1
 10
0.0
 20
0.0
 30
0.0
  3
*D2
  1

  0
LINE
  5
26
330
24
100
AcDbEntity
  8
-TEXT3
370
    -2
100
AcDbLine
 10
75.63516501857953
 20
131.7539263010259
 30
0.0
 11
75.63516501857953
 21
112.753926301026
 31
0.0
  0
LINE
  5
27
330
24
100
AcDbEntity
  8
-TEXT3
370
    -2
100
AcDbLine
 10
92.62320502944376
 20
155.5495888130785
 30
0.0
 11
92.62320502944376
 21
112.753926301026
 31
0.0
  0
LINE
  5
28
330
24
100
AcDbEntity
  8
-TEXT3
370
    -2
100
AcDbLine
 10
79.13516501857952
 20
114.253926301026
 30
0.0
 11
89.12320502944377
 21
114.253926301026
 31
0.0
  0
SOLID
  5
29
330
24
100
AcDbEntity
  8
-TEXT3
100
AcDbTrace
 10
79.13516501857952
 20
114.8372596343594
 30
0.0
 11
79.13516501857952
 21
113.6705929676927
 31
0.0
 12
75.63516501857953
 22
114.253926301026
 32
0.0
 13
75.63516501857953
 23
114.253926301026
 33
0.0
  0
SOLID
  5
2A
330
24
100
AcDbEntity
  8
-TEXT3
100
AcDbTrace
 10
89.12320502944377
 20
114.8372596343594
 30
0.0
 11
89.12320502944377
 21
113.6705929676927
 31
0.0
 12
92.62320502944376
 22
114.253926301026
 32
0.0
 13
92.62320502944376
 23
114.253926301026
 33
0.0
  0
MTEXT
  5
2B
330
24
100
AcDbEntity
  8
-TEXT3
100
AcDbMText
 10
84.12918502401165
 20
117.30423221537
 30
0.0
 40
4.0
 41
0.0
 71
     5
 72
     1
  1
\A1;17
 73
     1
 44
1.0
1001
ACAD
1000
MTEXTBEGIN
1070
    73
1070
     1
1070
    44
1040
1.0
1070
    74
1070
     0
1000
MTEXTEND
  0
POINT
  5
2C
330
24
100
AcDbEntity
  8
DEFPOINTS
 62
     0
100
AcDbPoint
 10
75.63516501857953
 20
133.7539263010259
 30
0.0
  0
POINT
  5
2D
330
24
100
AcDbEntity
  8
DEFPOINTS
 62
     0
100
AcDbPoint
 10
92.62320502944376
 20
157.5495888130785
 30
0.0
  0
POINT
  5
2E
330
24
100
AcDbEntity
  8
DEFPOINTS
 62
     0
100
AcDbPoint
 10
92.62320502944376
 20
114.253926301026
 30
0.0
  0
ENDBLK
  5
2F
330
24
100
AcDbEntity
  8
0
100
AcDbBlockEnd
  0
BLOCK
  5
32
330
31
100
AcDbEntity
  8
0
100
AcDbBlockBegin
  2
*D3
 70
     1
 10
0.0
 20
0.0
 30
0.0
  3
*D3
  1

  0
LINE
  5
33
330
31
100
AcDbEntity
  8
-TEXT3
370
    -2
100
AcDbLine
 10
72.63516501857941
 20
117.3452513251317
 30
0.0
 11
72.63516501857941
 21
112.7539263010262
 31
0.0
  0
LINE
  5
34
330
31
100
AcDbEntity
  8
-TEXT3
370
    -2
100
AcDbLine
 10
75.63516501857947
 20
141.0495888130787
 30
0.0
 11
75.63516501857947
 21
112.7539263010262
 31
0.0
  0
LINE
  5
35
330
31
100
AcDbEntity
  8
-TEXT3
370
    -2
100
AcDbLine
 10
69.13516501857941
 20
114.2539263010261
 30
0.0
 11
65.63516501857941
 21
114.2539263010261
 31
0.0
  0
LINE
  5
36
330
31
100
AcDbEntity
  8
-TEXT3
370
    -2
100
AcDbLine
 10
79.13516501857947
 20
114.2539263010261
 30
0.0
 11
82.63516501857948
 21
114.2539263010261
 31
0.0
  0
SOLID
  5
37
330
31
100
AcDbEntity
  8
-TEXT3
100
AcDbTrace
 10
69.13516501857941
 20
114.8372596343595
 30
0.0
 11
69.13516501857941
 21
113.6705929676928
 31
0.0
 12
72.63516501857941
 22
114.2539263010261
 32
0.0
 13
72.63516501857941
 23
114.2539263010261
 33
0.0
  0
SOLID
  5
38
330
31
100
AcDbEntity
  8
-TEXT3
100
AcDbTrace
 10
79.13516501857947
 20
114.8372596343595
 30
0.0
 11
79.13516501857947
 21
113.6705929676928
 31
0.0
 12
75.63516501857947
 22
114.2539263010261
 32
0.0
 13
75.63516501857947
 23
114.2539263010261
 33
0.0
  0
MTEXT
  5
39
330
31
100
AcDbEntity
  8
-TEXT3
100
AcDbMText
 10
74.13516501857944
 20
117.3545381297141
 30
0.0
 40
4.0
 41
0.0
 71
     5
 72
     1
  1
\A1;3
 73
     1
 44
1.0
1001
ACAD
1000
MTEXTBEGIN
1070
    73
1070
     1
1070
    44
1040
1.0
1070
    74
1070
     0
1000
MTEXTEND
  0
POINT
  5
3A
330
31
100
AcDbEntity
  8
DEFPOINTS
 62
     0
100
AcDbPoint
 10
72.63516501857941
 20
119.3452513251317
 30
0.0
  0
POINT
  5
3B
330
31
100
AcDbEntity
  8
DEFPOINTS
 62
     0
100
AcDbPoint
 10
75.63516501857947
 20
143.0495888130787
 30
0.0
  0
POINT
  5
3C
330
31
100
AcDbEntity
  8
DEFPOINTS
 62
     0
100
AcDbPoint
 10
75.63516501857947
 20
114.2539263010261
 30
0.0
  0
ENDBLK
  5
3D
330
31
100
AcDbEntity
  8
0
100
AcDbBlockEnd
  0
BLOCK
  5
40
330
3F
100
AcDbEntity
  8
0
100
AcDbBlockBegin
  2
*D4
 70
     1
 10
0.0
 20
0.0
 30
0.0
  3
*D4
  1

  0
LINE
  5
41
330
3F
100
AcDbEntity
  8
-TEXT3
370
    -2
100
AcDbLine
 10
72.63516501857981
 20
117.3452513251316
 30
0.0
 11
72.63516501857981
 21
112.753926301026
 31
0.0
  0
LINE
  5
42
330
3F
100
AcDbEntity
  8
-TEXT3
370
    -2
100
AcDbLine
 10
56.63516501857907
 20
117.3452513251316
 30
0.0
 11
56.63516501857907
 21
112.753926301026
 31
0.0
  0
LINE
  5
43
330
3F
100
AcDbEntity
  8
-TEXT3
370
    -2
100
AcDbLine
 10
69.13516501857981
 20
114.253926301026
 30
0.0
 11
60.13516501857907
 21
114.253926301026
 31
0.0
  0
SOLID
  5
44
330
3F
100
AcDbEntity
  8
-TEXT3
100
AcDbTrace
 10
69.13516501857981
 20
114.8372596343594
 30
0.0
 11
69.13516501857981
 21
113.6705929676927
 31
0.0
 12
72.63516501857981
 22
114.253926301026
 32
0.0
 13
72.63516501857981
 23
114.253926301026
 33
0.0
  0
SOLID
  5
45
330
3F
100
AcDbEntity
  8
-TEXT3
100
AcDbTrace
 10
60.13516501857907
 20
114.8372596343594
 30
0.0
 11
60.13516501857907
 21
113.6705929676927
 31
0.0
 12
56.63516501857907
 22
114.253926301026
 32
0.0
 13
56.63516501857907
 23
114.253926301026
 33
0.0
  0
MTEXT
  5
46
330
3F
100
AcDbEntity
  8
-TEXT3
100
AcDbMText
 10
64.63516501857944
 20
117.354538129714
 30
0.0
 40
4.0
 41
0.0
 71
     5
 72
     1
  1
\A1;G2
 73
     1
 44
1.0
1001
ACAD
1000
MTEXTBEGIN
1070
    73
1070
     1
1070
    44
1040
1.0
1070
    74
1070
     0
1000
MTEXTEND
  0
POINT
  5
47
330
3F
100
AcDbEntity
  8
DEFPOINTS
 62
     0
100
AcDbPoint
 10
72.63516501857981
 20
119.3452513251316
 30
0.0
  0
POINT
  5
48
330
3F
100
AcDbEntity
  8
DEFPOINTS
 62
     0
100
AcDbPoint
 10
56.63516501857907
 20
119.3452513251316
 30
0.0
  0
POINT
  5
49
330
3F
100
AcDbEntity
  8
DEFPOINTS
 62
     0
100
AcDbPoint
 10
56.63516501857907
 20
114.253926301026
 30
0.0
  0
ENDBLK
  5
4A
330
3F
100
AcDbEntity
  8
0
100
AcDbBlockEnd
  0
BLOCK
  5
53
330
52
100
AcDbEntity
  8
0
100
AcDbBlockBegin
  2
*D5
 70
     1
 10
0.0
 20
0.0
 30
0.0
  3
*D5
  1

  0
LINE
  5
54
330
52
100
AcDbEntity
  8
-TEXT3
370
    -2
100
AcDbLine
 10
141.6232050294437
 20
248.0495888130785
 30
0.0
 11
141.6232050294437
 21
276.1659086424258
 31
0.0
  0
LINE
  5
55
330
52
100
AcDbEntity
  8
-TEXT3
370
    -2
100
AcDbLine
 10
157.6232050294438
 20
248.0495888130785
 30
0.0
 11
157.6232050294438
 21
276.1659086424258
 31
0.0
  0
LINE
  5
56
330
52
100
AcDbEntity
  8
-TEXT3
370
    -2
100
AcDbLine
 10
145.1232050294438
 20
274.6659086424258
 30
0.0
 11
154.1232050294437
 21
274.6659086424258
 31
0.0
  0
SOLID
  5
57
330
52
100
AcDbEntity
  8
-TEXT3
100
AcDbTrace
 10
145.1232050294438
 20
275.2492419757591
 30
0.0
 11
145.1232050294438
 21
274.0825753090925
 31
0.0
 12
141.6232050294437
 22
274.6659086424258
 32
0.0
 13
141.6232050294437
 23
274.6659086424258
 33
0.0
  0
SOLID
  5
58
330
52
100
AcDbEntity
  8
-TEXT3
100
AcDbTrace
 10
154.1232050294437
 20
275.2492419757591
 30
0.0
 11
154.1232050294437
 21
274.0825753090925
 31
0.0
 12
157.6232050294438
 22
274.6659086424258
 32
0.0
 13
157.6232050294438
 23
274.6659086424258
 33
0.0
  0
MTEXT
  5
59
330
52
100
AcDbEntity
  8
-TEXT3
100
AcDbMText
 10
149.6232050294437
 20
277.8916054473204
 30
0.0
 40
4.0
 41
0.0
 71
     5
 72
     1
  1
\A1;%%c16
 73
     1
 44
1.0
1001
ACAD
1000
MTEXTBEGIN
1070
    73
1070
     1
1070
    44
1040
1.0
1070
    74
1070
     0
1000
MTEXTEND
  0
POINT
  5
5A
330
52
100
AcDbEntity
  8
DEFPOINTS
 62
     0
100
AcDbPoint
 10
141.6232050294437
 20
246.0495888130785
 30
0.0
  0
POINT
  5
5B
330
52
100
AcDbEntity
  8
DEFPOINTS
 62
     0
100
AcDbPoint
 10
157.6232050294438
 20
246.0495888130785
 30
0.0
  0
POINT
  5
5C
330
52
100
AcDbEntity
  8
DEFPOINTS
 62
     0
100
AcDbPoint
 10
157.6232050294438
 20
274.6659086424258
 30
0.0
  0
ENDBLK
  5
5D
330
52
100
AcDbEntity
  8
0
100
AcDbBlockEnd
  0
BLOCK
  5
92
330
91
100
AcDbEntity
  8
0
100
AcDbBlockBegin
  2
*D6
 70
     1
 10
0.0
 20
0.0
 30
0.0
  3
*D6
  1

  0
LINE
  5
93
330
91
100
AcDbEntity
  8
-TEXT3
370
    -2
100
AcDbLine
 10
145.6232050294436
 20
259.3725888130785
 30
0.0
 11
145.6232050294436
 21
268.8897470876066
 31
0.0
  0
LINE
  5
94
330
91
100
AcDbEntity
  8
-TEXT3
370
    -2
100
AcDbLine
 10
153.6232050294436
 20
259.3725888130785
 30
0.0
 11
153.6232050294436
 21
268.8897470876066
 31
0.0
  0
LINE
  5
95
330
91
100
AcDbEntity
  8
-TEXT3
370
    -2
100
AcDbLine
 10
142.1232050294436
 20
267.3897470876066
 30
0.0
 11
138.6232050294436
 21
267.3897470876066
 31
0.0
  0
LINE
  5
96
330
91
100
AcDbEntity
  8
-TEXT3
370
    -2
100
AcDbLine
 10
157.1232050294436
 20
267.3897470876066
 30
0.0
 11
170.3322464978324
 21
267.3897470876066
 31
0.0
  0
SOLID
  5
97
330
91
100
AcDbEntity
  8
-TEXT3
100
AcDbTrace
 10
142.1232050294436
 20
267.9730804209399
 30
0.0
 11
142.1232050294436
 21
266.8064137542733
 31
0.0
 12
145.6232050294436
 22
267.3897470876066
 32
0.0
 13
145.6232050294436
 23
267.3897470876066
 33
0.0
  0
SOLID
  5
98
330
91
100
AcDbEntity
  8
-TEXT3
100
AcDbTrace
 10
157.1232050294436
 20
267.9730804209399
 30
0.0
 11
157.1232050294436
 21
266.8064137542733
 31
0.0
 12
153.6232050294436
 22
267.3897470876066
 32
0.0
 13
153.6232050294436
 23
267.3897470876066
 33
0.0
  0
MTEXT
  5
99
330
91
100
AcDbEntity
  8
-TEXT3
100
AcDbMText
 10
165.477725763638
 20
270.4903589162946
 30
0.0
 40
4.0
 41
0.0
 71
     5
 72
     1
  1
\A1;M8
 73
     1
 44
1.0
1001
ACAD
1000
MTEXTBEGIN
1070
    73
1070
     1
1070
    44
1040
1.0
1070
    74
1070
     0
1000
MTEXTEND
  0
POINT
  5
9A
330
91
100
AcDbEntity
  8
DEFPOINTS
 62
     0
100
AcDbPoint
 10
145.6232050294436
 20
257.3725888130785
 30
0.0
  0
POINT
  5
9B
330
91
100
AcDbEntity
  8
DEFPOINTS
 62
     0
100
AcDbPoint
 10
153.6232050294436
 20
257.3725888130785
 30
0.0
  0
POINT
  5
9C
330
91
100
AcDbEntity
  8
DEFPOINTS
 62
     0
100
AcDbPoint
 10
153.6232050294436
 20
267.3897470876066
 30
0.0
  0
ENDBLK
  5
9D
330
91
100
AcDbEntity
  8
0
100
AcDbBlockEnd
  0
BLOCK
  5
A1
330
A0
100
AcDbEntity
  8
0
100
AcDbBlockBegin
  2
*D7
 70
     1
 10
0.0
 20
0.0
 30
0.0
  3
*D7
  1

  0
LINE
  5
A2
330
A0
100
AcDbEntity
  8
-TEXT3
370
    -2
100
AcDbLine
 10
159.6232050294437
 20
246.0495888130785
 30
0.0
 11
173.7577888227782
 21
246.0495888130785
 31
0.0
  0
LINE
  5
A3
330
A0
100
AcDbEntity
  8
-TEXT3
370
    -2
100
AcDbLine
 10
159.6232050294439
 20
258.0495888130784
 30
0.0
 11
173.7577888227782
 21
258.0495888130784
 31
0.0
  0
LINE
  5
A4
330
A0
100
AcDbEntity
  8
-TEXT3
370
    -2
100
AcDbLine
 10
172.2577888227783
 20
249.5495888130785
 30
0.0
 11
172.2577888227783
 21
254.5495888130785
 31
0.0
  0
SOLID
  5
A5
330
A0
100
AcDbEntity
  8
-TEXT3
100
AcDbTrace
 10
171.6744554894449
 20
249.5495888130785
 30
0.0
 11
172.8411221561116
 21
249.5495888130785
 31
0.0
 12
172.2577888227783
 22
246.0495888130785
 32
0.0
 13
172.2577888227783
 23
246.0495888130785
 33
0.0
  0
SOLID
  5
A6
330
A0
100
AcDbEntity
  8
-TEXT3
100
AcDbTrace
 10
171.6744554894449
 20
254.5495888130785
 30
0.0
 11
172.8411221561116
 21
254.5495888130785
 31
0.0
 12
172.2577888227783
 22
258.0495888130784
 32
0.0
 13
172.2577888227783
 23
258.0495888130784
 33
0.0
  0
MTEXT
  5
A7
330
A0
100
AcDbEntity
  8
-TEXT3
100
AcDbMText
 10
169.2074829084342
 20
252.0495888130785
 30
0.0
 40
4.0
 41
0.0
 71
     5
 72
     1
  1
\A1;12
 11
0.0000000000000001
 21
1.0
 31
0.0
 73
     1
 44
1.0
1001
ACAD
1000
MTEXTBEGIN
1070
    73
1070
     1
1070
    44
1040
1.0
1070
    74
1070
     0
1000
MTEXTEND
  0
POINT
  5
A8
330
A0
100
AcDbEntity
  8
DEFPOINTS
 62
     0
100
AcDbPoint
 10
157.6232050294438
 20
246.0495888130785
 30
0.0
  0
POINT
  5
A9
330
A0
100
AcDbEntity
  8
DEFPOINTS
 62
     0
100
AcDbPoint
 10
157.6232050294439
 20
258.0495888130784
 30
0.0
  0
POINT
  5
AA
330
A0
100
AcDbEntity
  8
DEFPOINTS
 62
     0
100
AcDbPoint
 10
172.2577888227783
 20
258.0495888130784
 30
0.0
  0
ENDBLK
  5
AB
330
A0
100
AcDbEntity
  8
0
100
AcDbBlockEnd
  0
BLOCK
  5
AE
330
AD
100
AcDbEntity
  8
0
100
AcDbBlockBegin
  2
*D8
 70
     1
 10
0.0
 20
0.0
 30
0.0
  3
*D8
  1

  0
LINE
  5
AF
330
AD
100
AcDbEntity
  8
-TEXT3
370
    -2
100
AcDbLine
 10
159.6232050294437
 20
246.0495888130785
 30
0.0
 11
173.7577888227783
 21
246.0495888130785
 31
0.0
  0
LINE
  5
B0
330
AD
100
AcDbEntity
  8
-TEXT3
370
    -2
100
AcDbLine
 10
123.535165018578
 20
161.049588813079
 30
0.0
 11
173.7577888227782
 21
161.049588813079
 31
0.0
  0
LINE
  5
B1
330
AD
100
AcDbEntity
  8
-TEXT3
370
    -2
100
AcDbLine
 10
172.2577888227783
 20
242.5495888130785
 30
0.0
 11
172.2577888227783
 21
164.5495888130789
 31
0.0
  0
SOLID
  5
B2
330
AD
100
AcDbEntity
  8
-TEXT3
100
AcDbTrace
 10
171.6744554894449
 20
242.5495888130785
 30
0.0
 11
172.8411221561116
 21
242.5495888130785
 31
0.0
 12
172.2577888227783
 22
246.0495888130785
 32
0.0
 13
172.2577888227783
 23
246.0495888130785
 33
0.0
  0
SOLID
  5
B3
330
AD
100
AcDbEntity
  8
-TEXT3
100
AcDbTrace
 10
171.6744554894449
 20
164.5495888130789
 30
0.0
 11
172.8411221561116
 21
164.5495888130789
 31
0.0
 12
172.2577888227783
 22
161.049588813079
 32
0.0
 13
172.2577888227783
 23
161.049588813079
 33
0.0
  0
MTEXT
  5
B4
330
AD
100
AcDbEntity
  8
-TEXT3
100
AcDbMText
 10
169.1571769940903
 20
203.5495888130788
 30
0.0
 40
4.0
 41
0.0
 71
     5
 72
     1
  1
\A1;85
 11
0.0000000000000001
 21
1.0
 31
0.0
 73
     1
 44
1.0
1001
ACAD
1000
MTEXTBEGIN
1070
    73
1070
     1
1070
    44
1040
1.0
1070
    74
1070
     0
1000
MTEXTEND
  0
POINT
  5
B5
330
AD
100
AcDbEntity
  8
DEFPOINTS
 62
     0
100
AcDbPoint
 10
157.6232050294438
 20
246.0495888130785
 30
0.0
  0
POINT
  5
B6
330
AD
100
AcDbEntity
  8
DEFPOINTS
 62
     0
100
AcDbPoint
 10
121.535165018578
 20
161.049588813079
 30
0.0
  0
POINT
  5
B7
330
AD
100
AcDbEntity
  8
DEFPOINTS
 62
     0
100
AcDbPoint
 10
172.2577888227783
 20
161.049588813079
 30
0.0
  0
ENDBLK
  5
B8
330
AD
100
AcDbEntity
  8
0
100
AcDbBlockEnd
  0
BLOCK
  5
C0
330
BF
100
AcDbEntity
  8
0
100
AcDbBlockBegin
  2
A$C12D21FE6
 70
     0
 10
0.0
 20
0.0
 30
0.0
  3
A$C12D21FE6
  1

  0
LWPOLYLINE
  5
C1
330
BF
100
AcDbEntity
  8
-NORMTEIL_VERDECKT
100
AcDbPolyline
 90
        6
 70
     0
 43
0.0
 10
-0.00000004186154
 20
11.00000006123278
 10
-0.0000000418618811
 20
0.6770000612326186
 10
0.6769999581382536
 20
0.0000000612325977
 10
7.322999958138439
 20
0.0000000612325692
 10
7.999999958138118
 20
0.6770000612325902
 10
7.999999958138459
 20
11.00000006123272
  0
LINE
  5
C2
330
BF
100
AcDbEntity
  8
-NORMTEIL_VERDECKT
100
AcDbLine
 10
7.322999958138439
 20
0.0000000612325977
 30
0.0
 11
7.32299995813878
 21
11.00000006123272
 31
0.0
  0
LINE
  5
C3
330
BF
100
AcDbEntity
  8
-NORMTEIL_VERDECKT
100
AcDbLine
 10
0.6769999581382536
 20
0.0000000612325977
 30
0.0
 11
0.6769999581385946
 21
11.00000006123284
 31
0.0
  0
LINE
  5
C4
330
BF
100
AcDbEntity
  8
-NORMTEIL_VERDECKT
100
AcDbLine
 10
-0.0000000418618811
 20
0.6770000612326186
 30
0.0
 11
7.999999958138118
 21
0.6770000612325902
 31
0.0
  0
ENDBLK
  5
C5
330
BF
100
AcDbEntity
  8
0
100
AcDbBlockEnd
  0
BLOCK
  5
CF
330
CE
100
AcDbEntity
  8
0
100
AcDbBlockBegin
  2
*D10
 70
     1
 10
0.0
 20
0.0
 30
0.0
  3
*D10
  1

  0
LINE
  5
D0
330
CE
100
AcDbEntity
  8
-TEXT3
370
    -2
100
AcDbLine
 10
54.63516501857923
 20
156.0495888130783
 30
0.0
 11
47.33642350568421
 21
156.0495888130783
 31
0.0
  0
LINE
  5
D1
330
CE
100
AcDbEntity
  8
-TEXT3
370
    -2
100
AcDbLine
 10
54.63516501857923
 20
182.0495888130783
 30
0.0
 11
47.33642350568421
 21
182.0495888130783
 31
0.0
  0
LINE
  5
D2
330
CE
100
AcDbEntity
  8
-TEXT3
370
    -2
100
AcDbLine
 10
48.83642350568421
 20
159.5495888130783
 30
0.0
 11
48.83642350568422
 21
178.5495888130783
 31
0.0
  0
SOLID
  5
D3
330
CE
100
AcDbEntity
  8
-TEXT3
100
AcDbTrace
 10
48.25309017235087
 20
159.5495888130783
 30
0.0
 11
49.41975683901755
 21
159.5495888130783
 31
0.0
 12
48.83642350568421
 22
156.0495888130783
 32
0.0
 13
48.83642350568421
 23
156.0495888130783
 33
0.0
  0
SOLID
  5
D4
330
CE
100
AcDbEntity
  8
-TEXT3
100
AcDbTrace
 10
48.25309017235088
 20
178.5495888130783
 30
0.0
 11
49.41975683901755
 21
178.5495888130783
 31
0.0
 12
48.83642350568422
 22
182.0495888130783
 32
0.0
 13
48.83642350568422
 23
182.0495888130783
 33
0.0
  0
MTEXT
  5
D5
330
CE
100
AcDbEntity
  8
-TEXT3
100
AcDbMText
 10
45.61072670078955
 20
168.8023441016469
 30
0.0
 40
4.0
 41
0.0
 71
     5
 72
     1
  1
\A1;%%c26
 11
0.0000000000000001
 21
1.0
 31
0.0
 73
     1
 44
1.0
1001
ACAD
1000
MTEXTBEGIN
1070
    73
1070
     1
1070
    44
1040
1.0
1070
    74
1070
     0
1000
MTEXTEND
  0
POINT
  5
D6
330
CE
100
AcDbEntity
  8
DEFPOINTS
 62
     0
100
AcDbPoint
 10
56.63516501857923
 20
156.0495888130783
 30
0.0
  0
POINT
  5
D7
330
CE
100
AcDbEntity
  8
DEFPOINTS
 62
     0
100
AcDbPoint
 10
56.63516501857923
 20
182.0495888130783
 30
0.0
  0
POINT
  5
D8
330
CE
100
AcDbEntity
  8
DEFPOINTS
 62
     0
100
AcDbPoint
 10
48.83642350568422
 20
182.0495888130783
 30
0.0
  0
ENDBLK
  5
D9
330
CE
100
AcDbEntity
  8
0
100
AcDbBlockEnd
  0
BLOCK
  5
DC
330
DB
100
AcDbEntity
  8
0
100
AcDbBlockBegin
  2
*D11
 70
     1
 10
0.0
 20
0.0
 30
0.0
  3
*D11
  1

  0
LINE
  5
DD
330
DB
100
AcDbEntity
  8
-TEXT3
370
    -2
100
AcDbLine
 10
54.63516501857866
 20
143.0495888130787
 30
0.0
 11
39.47842448458273
 21
143.0495888130787
 31
0.0
  0
LINE
  5
DE
330
DB
100
AcDbEntity
  8
-TEXT3
370
    -2
100
AcDbLine
 10
54.63516501857878
 20
195.0495888130813
 30
0.0
 11
39.47842448458274
 21
195.0495888130813
 31
0.0
  0
LINE
  5
DF
330
DB
100
AcDbEntity
  8
-TEXT3
370
    -2
100
AcDbLine
 10
40.97842448458273
 20
146.5495888130787
 30
0.0
 11
40.97842448458274
 21
191.5495888130813
 31
0.0
  0
SOLID
  5
E0
330
DB
100
AcDbEntity
  8
-TEXT3
100
AcDbTrace
 10
40.39509115124939
 20
146.5495888130787
 30
0.0
 11
41.56175781791606
 21
146.5495888130787
 31
0.0
 12
40.97842448458272
 22
143.0495888130787
 32
0.0
 13
40.97842448458272
 23
143.0495888130787
 33
0.0
  0
SOLID
  5
E1
330
DB
100
AcDbEntity
  8
-TEXT3
100
AcDbTrace
 10
40.3950911512494
 20
191.5495888130813
 30
0.0
 11
41.56175781791607
 21
191.5495888130813
 31
0.0
 12
40.97842448458274
 22
195.0495888130813
 32
0.0
 13
40.97842448458274
 23
195.0495888130813
 33
0.0
  0
MTEXT
  5
E2
330
DB
100
AcDbEntity
  8
-TEXT3
100
AcDbMText
 10
37.75272767968807
 20
169.04958881308
 30
0.0
 40
4.0
 41
0.0
 71
     5
 72
     1
  1
\A1;%%c52
 11
0.0000000000000001
 21
1.0
 31
0.0
 73
     1
 44
1.0
1001
ACAD
1000
MTEXTBEGIN
1070
    73
1070
     1
1070
    44
1040
1.0
1070
    74
1070
     0
1000
MTEXTEND
  0
POINT
  5
E3
330
DB
100
AcDbEntity
  8
DEFPOINTS
 62
     0
100
AcDbPoint
 10
56.63516501857866
 20
143.0495888130787
 30
0.0
  0
POINT
  5
E4
330
DB
100
AcDbEntity
  8
DEFPOINTS
 62
     0
100
AcDbPoint
 10
56.63516501857878
 20
195.0495888130813
 30
0.0
  0
POINT
  5
E5
330
DB
100
AcDbEntity
  8
DEFPOINTS
 62
     0
100
AcDbPoint
 10
40.97842448458274
 20
195.0495888130813
 30
0.0
  0
ENDBLK
  5
E6
330
DB
100
AcDbEntity
  8
0
100
AcDbBlockEnd
  0
ENDSEC
  0
SECTION
  2
ENTITIES
  0
DIMENSION
  5
9
330
2
100
AcDbEntity
  8
-TEXT3
100
AcDbDimension
  2
*D1
 10
157.6232050294438
 20
114.253926301026
 30
0.0
 11
125.1232050294437
 21
117.354538129714
 31
0.0
 71
     5
 42
65.0
  3
1-1PRO
100
AcDbAlignedDimension
 13
92.62320502944376
 23
157.5495888130785
 33
0.0
 14
157.6232050294438
 24
197.0495888130789
 34
0.0
100
AcDbRotatedDimension
  0
LWPOLYLINE
  5
1B
330
2
100
AcDbEntity
  8
-VERGLASUNG
100
AcDbPolyline
 90
        6
 70
     0
 43
0.0
 10
56.63516501857907
 20
119.3452513251316
 10
56.63516501857952
 20
248.0495888130785
 10
57.63516501857964
 20
249.0495888130785
 10
71.63516501858009
 20
249.0495888130785
 10
72.6351650185801
 20
248.0495888130785
 10
72.63516501857981
 20
119.3452513251316
  0
LINE
  5
1D
330
2
100
AcDbEntity
  8
-SCHRAFFUR
100
AcDbLine
 10
79.51041591303499
 20
194.8703550269978
 30
0.0
 11
79.51041591303442
 21
143.2288225991591
 31
0.0
  0
LWPOLYLINE
  5
1F
330
2
100
AcDbEntity
  8
-PROFILAUSSENKANTET
100
AcDbPolyline
 90
       12
 70
     0
 43
0.0
 10
85.72320502944382
 20
181.5495888130787
 42
-0.359993514460748
 10
82.90995874727247
 20
183.5076457456084
 10
79.87690044234875
 20
194.3969031689018
 42
0.3137493583979839
 10
78.93915168162516
 20
195.0495888130785
 10
75.63516501857964
 20
195.0495888130787
 10
75.63516501857958
 20
179.0495888130787
 10
75.63516501857964
 20
195.0495888130787
 10
75.63516501857947
 20
143.0495888130787
 10
78.93915168162465
 20
143.0495888130787
 42
0.3137493583978978
 10
79.87690044234835
 20
143.7022744572552
 10
82.90995874727215
 20
154.5915318805498
 42
-0.3599935144608335
 10
85.72320502944327
 20
156.5495888130787
  0
LWPOLYLINE
  5
21
102
{ACAD_REACTORS
330
E7
102
}
330
2
100
AcDbEntity
  8
-DICHTUNG
100
AcDbPolyline
 90
        4
 70
     1
 43
0.0
 10
75.63516501857947
 20
143.5495888130789
 10
75.63516501857964
 20
194.5495888130789
 10
72.63516501857964
 20
194.5495888130789
 10
72.63516501857947
 20
143.5495888130789
  0
DIMENSION
  5
23
330
2
100
AcDbEntity
  8
-TEXT3
100
AcDbDimension
  2
*D2
 10
92.62320502944376
 20
114.253926301026
 30
0.0
 11
84.12918502401165
 21
117.30423221537
 31
0.0
 71
     5
 42
16.98804001086424
  3
1-1PRO
100
AcDbAlignedDimension
 13
75.63516501857953
 23
133.7539263010259
 33
0.0
 14
92.62320502944376
 24
157.5495888130785
 34
0.0
 50
180.0
100
AcDbRotatedDimension
  0
DIMENSION
  5
30
330
2
100
AcDbEntity
  8
-TEXT3
100
AcDbDimension
  2
*D3
 10
75.63516501857947
 20
114.2539263010261
 30
0.0
 11
74.13516501857944
 21
114.2539263010261
 31
0.0
 70
   128
 71
     5
 42
3.000000000000056
  3
1-1PRO
100
AcDbAlignedDimension
 13
72.63516501857941
 23
119.3452513251317
 33
0.0
 14
75.63516501857947
 24
143.0495888130787
 34
0.0
 50
180.0
100
AcDbRotatedDimension
  0
DIMENSION
  5
3E
330
2
100
AcDbEntity
  8
-TEXT3
100
AcDbDimension
  2
*D4
 10
56.63516501857907
 20
114.253926301026
 30
0.0
 11
64.63516501857944
 21
117.354538129714
 31
0.0
  1
G2
 71
     5
 42
16.00000000000074
  3
1-1PRO
100
AcDbAlignedDimension
 13
72.63516501857981
 23
119.3452513251316
 33
0.0
 14
56.63516501857907
 24
119.3452513251316
 34
0.0
100
AcDbRotatedDimension
  0
LINE
  5
4B
330
2
100
AcDbEntity
  8
-VERGLASUNG
100
AcDbLine
 10
72.63516523071212
 20
130.3639595064504
 30
0.0
 11
68.74129041108608
 21
134.2578343260764
 31
0.0
  0
LINE
  5
4C
330
2
100
AcDbEntity
  8
-VERGLASUNG
100
AcDbLine
 10
60.52904005033747
 20
128.7088740704597
 30
0.0
 11
56.63516523071144
 21
132.6027488900857
 31
0.0
  0
LINE
  5
4D
330
2
100
AcDbEntity
  8
-VERGLASUNG
100
AcDbLine
 10
60.52904005033747
 20
130.2713740704597
 30
0.0
 11
56.63516523071144
 21
134.1652488900857
 31
0.0
  0
LINE
  5
4E
330
2
100
AcDbEntity
  8
-VERGLASUNG
100
AcDbLine
 10
60.52904005033747
 20
127.1463740704597
 30
0.0
 11
56.63516523071144
 21
131.0402488900857
 31
0.0
  0
LINE
  5
4F
330
2
100
AcDbEntity
  8
-VERGLASUNG
100
AcDbLine
 10
72.63516523071212
 20
133.4889595064504
 30
0.0
 11
68.7412904110862
 21
137.3828343260764
 31
0.0
  0
LINE
  5
50
330
2
100
AcDbEntity
  8
-VERGLASUNG
100
AcDbLine
 10
72.63516523071212
 20
131.9264595064504
 30
0.0
 11
68.74129041108608
 21
135.8203343260764
 31
0.0
  0
DIMENSION
  5
51
330
2
100
AcDbEntity
  8
-TEXT3
100
AcDbDimension
  2
*D5
 10
157.6232050294438
 20
274.6659086424258
 30
0.0
 11
149.6232050294437
 21
277.8916054473204
 31
0.0
  1
%%c<>
 71
     5
 42
16.0
  3
1-1PRO
100
AcDbAlignedDimension
 13
141.6232050294437
 23
246.0495888130785
 33
0.0
 14
157.6232050294438
 24
246.0495888130785
 34
0.0
100
AcDbRotatedDimension
  0
LWPOLYLINE
  5
5E
330
2
100
AcDbEntity
  8
-PROFILAUSSENKANTET
100
AcDbPolyline
 90
        8
 70
     1
 43
0.0
 10
141.6232050294437
 20
246.0495888130785
 10
141.6232050294437
 20
197.049588813079
 42
-0.4133028837108889
 10
121.5351650185798
 20
177.049588813079
 10
92.62320502944376
 20
177.0495888130789
 10
92.62320502944376
 20
161.049588813079
 10
121.5351650185799
 20
161.049588813079
 42
0.4137073812115492
 10
157.6232050294438
 20
197.0495888130789
 10
157.6232050294438
 20
246.0495888130785
  0
ARC
  5
5F
330
2
100
AcDbEntity
  8
-SYSTEM
100
AcDbCircle
 10
121.5480409166262
 20
197.12485085188
 30
0.0
 40
28.07526499137851
100
AcDbArc
 50
269.9737229678297
 51
359.8464056404452
  0
LINE
  5
62
330
2
100
AcDbEntity
  8
-SCHRAFFUR
100
AcDbLine
 10
152.9462050294434
 20
258.0495888130785
 30
0.0
 11
152.9462050294434
 21
246.0495888130784
 31
0.0
  0
LWPOLYLINE
  5
63
330
2
100
AcDbEntity
  8
-NORMTEIL
100
AcDbPolyline
 90
        6
 70
     0
 43
0.0
 10
153.6232050294436
 20
246.0495888130785
 10
153.6232050294436
 20
257.3725888130785
 10
152.9462050294434
 20
258.0495888130785
 10
146.3002050294432
 20
258.0495888130786
 10
145.6232050294436
 20
257.3725888130785
 10
145.6232050294436
 20
246.0495888130785
  0
LINE
  5
65
330
2
100
AcDbEntity
  8
-SCHRAFFUR
100
AcDbLine
 10
146.3002050294432
 20
258.0495888130785
 30
0.0
 11
146.3002050294433
 21
246.0495888130785
 31
0.0
  0
LINE
  5
66
330
2
100
AcDbEntity
  8
-SYSTEM
100
AcDbLine
 10
149.6232050294437
 20
264.3409261387713
 30
0.0
 11
149.6232050294437
 21
197.0495888130784
 31
0.0
  0
LINE
  5
67
330
2
100
AcDbEntity
  8
-NORMTEIL_VERDECKT
100
AcDbLine
 10
82.72320502944376
 20
175.0495888130789
 30
0.0
 11
82.72320502944376
 21
163.049588813079
 31
0.0
  0
LINE
  5
6A
330
2
100
AcDbEntity
  8
-PROFILAUSSENKANTET
100
AcDbLine
 10
92.62320502944376
 20
157.5495888130785
 30
0.0
 11
92.62320502944376
 21
180.5495888130789
 31
0.0
  0
LINE
  5
6B
330
2
100
AcDbEntity
  8
-SCHRAFFUR
100
AcDbLine
 10
83.9641379900304
 20
182.0222420712623
 30
0.0
 11
83.96413799002994
 21
156.0769355548955
 31
0.0
  0
LINE
  5
6C
330
2
100
AcDbEntity
  8
-SCHRAFFUR
100
AcDbLine
 10
91.62320502944377
 20
181.5495888130787
 30
0.0
 11
91.62320502944377
 21
156.5495888130785
 31
0.0
  0
LINE
  5
6D
330
2
100
AcDbEntity
  8
-NORMTEIL_VERDECKT
100
AcDbLine
 10
72.63516501857956
 20
156.969588813079
 30
0.0
 11
72.63516501857956
 21
181.1295888130789
 31
0.0
  0
LINE
  5
6E
330
2
100
AcDbEntity
  8
-SYSTEM
100
AcDbLine
 10
52.07449442084158
 20
169.0495888130783
 30
0.0
 11
121.5351650185799
 21
169.0495888130784
 31
0.0
  0
LINE
  5
6F
330
2
100
AcDbEntity
  8
-VERGLASUNG
100
AcDbLine
 10
72.63516516000141
 20
155.3639595352102
 30
0.0
 11
68.74129034037537
 21
159.2578343548362
 31
0.0
  0
LINE
  5
70
330
2
100
AcDbEntity
  8
-VERGLASUNG
100
AcDbLine
 10
72.63516516000141
 20
156.9264595352102
 30
0.0
 11
68.74129034037537
 21
160.8203343548362
 31
0.0
  0
LINE
  5
71
330
2
100
AcDbEntity
  8
-VERGLASUNG
100
AcDbLine
 10
70.41337973243807
 20
172.9434637741258
 30
0.0
 11
66.51950491281205
 21
169.0495889544998
 31
0.0
  0
LINE
  5
72
330
2
100
AcDbEntity
  8
-VERGLASUNG
100
AcDbLine
 10
73.53837973243807
 20
172.9434637741258
 30
0.0
 11
69.64450491281204
 21
169.0495889544998
 31
0.0
  0
LINE
  5
73
330
2
100
AcDbEntity
  8
-VERGLASUNG
100
AcDbLine
 10
71.97587973243807
 20
172.9434637741258
 30
0.0
 11
68.08200491281207
 21
169.0495889544998
 31
0.0
  0
LINE
  5
74
330
2
100
AcDbEntity
  8
-PROFILAUSSENKANTET
100
AcDbLine
 10
91.62320502944377
 20
156.5495888130785
 30
0.0
 11
85.72320502944331
 21
156.5495888130787
 31
0.0
  0
ARC
  5
75
330
2
100
AcDbEntity
  8
-PROFILAUSSENKANTET
100
AcDbCircle
 10
91.62320502944377
 20
157.5495888130785
 30
0.0
 40
1.0
100
AcDbArc
 50
270.0
 51
0.0
  0
LINE
  5
76
330
2
100
AcDbEntity
  8
-VERGLASUNG
100
AcDbLine
 10
72.63516516000141
 20
158.4889595352102
 30
0.0
 11
68.74129034037548
 21
162.3828343548362
 31
0.0
  0
LINE
  5
77
330
2
100
AcDbEntity
  8
-NORMTEIL_VERDECKT
100
AcDbLine
 10
92.62320502944376
 20
164.0650888130789
 30
0.0
 11
82.72320502944376
 21
164.0650888130789
 31
0.0
  0
LINE
  5
78
330
2
100
AcDbEntity
  8
-NORMTEIL_VERDECKT
100
AcDbLine
 10
82.72320502944376
 20
163.049588813079
 30
0.0
 11
92.62320502944376
 21
163.049588813079
 31
0.0
  0
LINE
  5
79
330
2
100
AcDbEntity
  8
-VERGLASUNG
100
AcDbLine
 10
72.63516508929069
 20
180.36395956397
 30
0.0
 11
68.74129026966466
 21
184.257834383596
 31
0.0
  0
LINE
  5
7A
330
2
100
AcDbEntity
  8
-VERGLASUNG
100
AcDbLine
 10
72.63516508929069
 20
181.92645956397
 30
0.0
 11
68.74129026966466
 21
185.820334383596
 31
0.0
  0
LINE
  5
7B
330
2
100
AcDbEntity
  8
-VERGLASUNG
100
AcDbLine
 10
72.63516508929069
 20
183.48895956397
 30
0.0
 11
68.74129026966477
 21
187.382834383596
 31
0.0
  0
LINE
  5
7C
330
2
100
AcDbEntity
  8
-VERGLASUNG
100
AcDbLine
 10
60.52903990891604
 20
177.1463741279793
 30
0.0
 11
56.63516508929001
 21
181.0402489476053
 31
0.0
  0
LINE
  5
7D
330
2
100
AcDbEntity
  8
-VERGLASUNG
100
AcDbLine
 10
60.52903990891604
 20
178.7088741279793
 30
0.0
 11
56.63516508929001
 21
182.6027489476053
 31
0.0
  0
LINE
  5
7E
330
2
100
AcDbEntity
  8
-VERGLASUNG
100
AcDbLine
 10
60.52903990891604
 20
180.2713741279793
 30
0.0
 11
56.63516508929001
 21
184.1652489476053
 31
0.0
  0
LINE
  5
7F
330
2
100
AcDbEntity
  8
-NORMTEIL_VERDECKT
100
AcDbLine
 10
92.62320502944376
 20
174.0340888130794
 30
0.0
 11
82.72320502944376
 21
174.0340888130794
 31
0.0
  0
LINE
  5
80
330
2
100
AcDbEntity
  8
-NORMTEIL_VERDECKT
100
AcDbLine
 10
92.62320502944376
 20
175.0495888130789
 30
0.0
 11
82.72320502944376
 21
175.0495888130789
 31
0.0
  0
LINE
  5
81
330
2
100
AcDbEntity
  8
-PROFILAUSSENKANTET
100
AcDbLine
 10
75.63516501857953
 20
178.0495888130789
 30
0.0
 11
75.63516501857953
 21
179.0495888130787
 31
0.0
  0
LINE
  5
82
330
2
100
AcDbEntity
  8
-PROFILAUSSENKANTET
100
AcDbLine
 10
85.72320502944377
 20
181.5495888130787
 30
0.0
 11
91.62320502944387
 21
181.5495888130787
 31
0.0
  0
ARC
  5
83
330
2
100
AcDbEntity
  8
-PROFILAUSSENKANTET
100
AcDbCircle
 10
91.62320502944377
 20
180.5495888130789
 30
0.0
 40
1.0
100
AcDbArc
 50
0.0
 51
90.0
  0
LINE
  5
84
330
2
100
AcDbEntity
  8
-VERGLASUNG
100
AcDbLine
 10
72.63516501857998
 20
208.4889595927298
 30
0.0
 11
68.74129019895406
 21
212.3828344123559
 31
0.0
  0
LINE
  5
85
330
2
100
AcDbEntity
  8
-VERGLASUNG
100
AcDbLine
 10
72.63516501857998
 20
206.9264595927298
 30
0.0
 11
68.74129019895395
 21
210.8203344123559
 31
0.0
  0
LINE
  5
86
330
2
100
AcDbEntity
  8
-VERGLASUNG
100
AcDbLine
 10
60.52903983820534
 20
203.7088741567391
 30
0.0
 11
56.6351650185793
 21
207.6027489763652
 31
0.0
  0
LINE
  5
87
330
2
100
AcDbEntity
  8
-VERGLASUNG
100
AcDbLine
 10
60.52903983820534
 20
202.1463741567391
 30
0.0
 11
56.6351650185793
 21
206.0402489763652
 31
0.0
  0
LINE
  5
88
330
2
100
AcDbEntity
  8
-VERGLASUNG
100
AcDbLine
 10
60.52903983820534
 20
205.2713741567391
 30
0.0
 11
56.6351650185793
 21
209.1652489763652
 31
0.0
  0
LINE
  5
89
330
2
100
AcDbEntity
  8
-VERGLASUNG
100
AcDbLine
 10
72.63516501857998
 20
205.3639595927298
 30
0.0
 11
68.74129019895395
 21
209.2578344123559
 31
0.0
  0
LINE
  5
8A
330
2
100
AcDbEntity
  8
-VERGLASUNG
100
AcDbLine
 10
72.63516494786927
 20
233.4889596214897
 30
0.0
 11
68.74129012824335
 21
237.3828344411157
 31
0.0
  0
LINE
  5
8B
330
2
100
AcDbEntity
  8
-VERGLASUNG
100
AcDbLine
 10
60.52903976749462
 20
227.1463741854989
 30
0.0
 11
56.63516494786859
 21
231.040249005125
 31
0.0
  0
LINE
  5
8C
330
2
100
AcDbEntity
  8
-VERGLASUNG
100
AcDbLine
 10
60.52903976749462
 20
228.7088741854989
 30
0.0
 11
56.63516494786859
 21
232.602749005125
 31
0.0
  0
LINE
  5
8D
330
2
100
AcDbEntity
  8
-VERGLASUNG
100
AcDbLine
 10
60.52903976749462
 20
230.2713741854989
 30
0.0
 11
56.63516494786859
 21
234.165249005125
 31
0.0
  0
LINE
  5
8E
330
2
100
AcDbEntity
  8
-VERGLASUNG
100
AcDbLine
 10
72.63516494786927
 20
230.3639596214897
 30
0.0
 11
68.74129012824323
 21
234.2578344411157
 31
0.0
  0
LINE
  5
8F
330
2
100
AcDbEntity
  8
-VERGLASUNG
100
AcDbLine
 10
72.63516494786927
 20
231.9264596214897
 30
0.0
 11
68.74129012824323
 21
235.8203344411157
 31
0.0
  0
DIMENSION
  5
90
330
2
100
AcDbEntity
  8
-TEXT3
100
AcDbDimension
  2
*D6
 10
153.6232050294436
 20
267.3897470876066
 30
0.0
 11
165.477725763638
 21
270.4903589162946
 31
0.0
  1
M<>
 71
     5
 42
8.0
  3
1-1PRO
100
AcDbAlignedDimension
 13
145.6232050294436
 23
257.3725888130785
 33
0.0
 14
153.6232050294436
 24
257.3725888130785
 34
0.0
100
AcDbRotatedDimension
  0
LINE
  5
9E
330
2
100
AcDbEntity
  8
-SCHRAFFUR
100
AcDbLine
 10
145.6232050294436
 20
257.3725888130785
 30
0.0
 11
153.6232050294436
 21
257.3725888130785
 31
0.0
  0
DIMENSION
  5
9F
330
2
100
AcDbEntity
  8
-TEXT3
100
AcDbDimension
  2
*D7
 10
172.2577888227783
 20
258.0495888130784
 30
0.0
 11
169.2074829084342
 21
252.0495888130785
 31
0.0
 71
     5
 42
11.99999999999997
  3
1-1PRO
100
AcDbAlignedDimension
 13
157.6232050294438
 23
246.0495888130785
 33
0.0
 14
157.6232050294439
 24
258.0495888130784
 34
0.0
 50
90.0
100
AcDbRotatedDimension
  0
DIMENSION
  5
AC
330
2
100
AcDbEntity
  8
-TEXT3
100
AcDbDimension
  2
*D8
 10
172.2577888227783
 20
161.049588813079
 30
0.0
 11
169.1571769940903
 21
203.5495888130788
 31
0.0
 71
     5
 42
84.99999999999955
  3
1-1PRO
100
AcDbAlignedDimension
 13
157.6232050294438
 23
246.0495888130785
 33
0.0
 14
121.535165018578
 24
161.049588813079
 34
0.0
 50
90.0
100
AcDbRotatedDimension
  0
LWPOLYLINE
  5
B9
330
2
100
AcDbEntity
  8
-NORMTEIL_VERDECKT
100
AcDbPolyline
 90
        4
 70
     0
 43
0.0
 10
56.63516501857923
 20
156.0495888130783
 10
56.63516501857923
 20
182.0495888130783
 10
60.63516501857923
 20
178.0495888130783
 10
60.63516501857923
 20
160.0495888130783
  0
LWPOLYLINE
  5
BA
330
2
100
AcDbEntity
  8
-NORMTEIL_VERDECKT
100
AcDbPolyline
 90
        4
 70
     0
 43
0.0
 10
62.63516501857923
 20
165.5910888130783
 10
62.63516501857923
 20
160.0495888130782
 10
75.63516501857947
 20
160.0495888130782
 10
75.63516501857947
 20
178.0495888130782
  0
LWPOLYLINE
  5
BB
330
2
100
AcDbEntity
  8
-NORMTEIL_VERDECKT
100
AcDbPolyline
 90
        4
 70
     1
 43
0.0
 10
68.63516501857979
 20
160.0495888130783
 10
68.63516501857979
 20
158.5495888130783
 10
62.63516501857923
 20
158.5495888130782
 10
62.63516501857923
 20
160.0495888130782
  0
LWPOLYLINE
  5
BC
330
2
100
AcDbEntity
  8
-NORMTEIL_VERDECKT
100
AcDbPolyline
 90
        7
 70
     0
 43
0.0
 10
56.63516501857923
 20
156.0495888130783
 10
56.63516501857923
 20
153.2211616883321
 10
61.46359214332533
 20
158.0495888130783
 10
62.63516501857923
 20
158.0495888130783
 10
62.63516501857923
 20
160.0495888130783
 10
60.63516501857923
 20
160.0495888130783
 10
56.63516501857923
 20
156.0495888130783
  0
INSERT
  5
BD
330
2
100
AcDbEntity
  8
-TEXT2
100
AcDbBlockReference
  2
A$C12D21FE6
 10
71.63516507981199
 20
165.0495888549398
 30
0.0
 50
90.0
  0
LWPOLYLINE
  5
C6
330
2
100
AcDbEntity
  8
-NORMTEIL_VERDECKT
100
AcDbPolyline
 90
        4
 70
     0
 43
0.0
 10
71.63516501857985
 20
178.0495888130782
 10
71.63516501857985
 20
178.0495888130782
 10
62.63516501857923
 20
178.0495888130782
 10
62.63516501857923
 20
165.5910888130783
  0
LWPOLYLINE
  5
C7
330
2
100
AcDbEntity
  8
-NORMTEIL_VERDECKT
100
AcDbPolyline
 90
        5
 70
     0
 43
0.0
 10
56.63516501857923
 20
163.7776076490504
 10
59.63516501857923
 20
163.7776076490504
 10
60.63516501857923
 20
165.5495888130785
 10
59.63516501857923
 20
167.2776076490499
 10
56.63516501857923
 20
167.2776076490501
  0
LINE
  5
C8
330
2
100
AcDbEntity
  8
-NORMTEIL_VERDECKT
100
AcDbLine
 10
59.63516501857923
 20
163.7776076490504
 30
0.0
 11
59.63516501857923
 21
167.2776076490499
 31
0.0
  0
LWPOLYLINE
  5
C9
330
2
100
AcDbEntity
  8
-NORMTEIL_VERDECKT
100
AcDbPolyline
 90
        4
 70
     1
 43
0.0
 10
68.63516501857979
 20
178.0495888130783
 10
68.63516501857979
 20
179.5495888130783
 10
62.63516501857923
 20
179.5495888130782
 10
62.63516501857923
 20
178.0495888130783
  0
LWPOLYLINE
  5
CA
330
2
100
AcDbEntity
  8
-NORMTEIL_VERDECKT
100
AcDbPolyline
 90
        7
 70
     0
 43
0.0
 10
56.63516501857923
 20
182.0495888130783
 10
56.63516501857923
 20
184.8780159378245
 10
61.46359214332533
 20
180.0495888130783
 10
62.63516501857923
 20
180.0495888130783
 10
62.63516501857923
 20
178.0495888130783
 10
60.63516501857923
 20
178.0495888130783
 10
56.63516501857923
 20
182.0495888130783
  0
LINE
  5
CB
330
2
100
AcDbEntity
  8
-NORMTEIL_VERDECKT
100
AcDbLine
 10
59.63516501857968
 20
174.2995888130783
 30
0.0
 11
59.63516501857968
 21
177.7995888130783
 31
0.0
  0
LWPOLYLINE
  5
CC
330
2
100
AcDbEntity
  8
-NORMTEIL_VERDECKT
100
AcDbPolyline
 90
        5
 70
     0
 43
0.0
 10
56.63516501857968
 20
174.2995888130783
 10
59.63516501857968
 20
174.2995888130783
 10
60.63516501857968
 20
176.0495888130783
 10
59.63516501857968
 20
177.7995888130783
 10
56.63516501857968
 20
177.7995888130783
  0
DIMENSION
  5
CD
330
2
100
AcDbEntity
  8
-TEXT3
100
AcDbDimension
  2
*D10
 10
48.83642350568422
 20
182.0495888130783
 30
0.0
 11
48.83642350568418
 21
168.8023441016469
 31
0.0
 70
   128
  1
%%c<>
 71
     5
 42
26.0
  3
1-1PRO
100
AcDbAlignedDimension
 13
56.63516501857923
 23
156.0495888130783
 33
0.0
 14
56.63516501857923
 24
182.0495888130783
 34
0.0
 50
90.0
100
AcDbRotatedDimension
1001
ACAD
1000
DSTYLE
1002
{
1002
}
  0
DIMENSION
  5
DA
330
2
100
AcDbEntity
  8
-TEXT3
100
AcDbDimension
  2
*D11
 10
40.97842448458274
 20
195.0495888130813
 30
0.0
 11
40.9784244845827
 21
169.04958881308
 31
0.0
 70
   128
  1
%%c<>
 71
     5
 42
52.00000000000255
  3
1-1PRO
100
AcDbAlignedDimension
 13
56.63516501857866
 23
143.0495888130787
 33
0.0
 14
56.63516501857878
 24
195.0495888130813
 34
0.0
 50
90.0
100
AcDbRotatedDimension
1001
ACAD
1000
DSTYLE
1002
{
1002
}
  0
HATCH
  5
E7
330
2
100
AcDbEntity
  8
-SCHRAFFUR
100
AcDbHatch
 10
0.0
 20
0.0
 30
0.0
210
0.0
220
0.0
230
1.0
  2
SOLID
 70
     1
 71
     1
 91
        1
 92
        1
 93
        4
 72
     1
 10
75.63516501857947
 20
143.5495888130789
 11
75.63516501857964
 21
194.5495888130789
 72
     1
 10
75.63516501857964
 20
194.5495888130789
 11
72.63516501857964
 21
194.5495888130789
 72
     1
 10
72.63516501857964
 20
194.5495888130789
 11
72.63516501857947
 21
143.5495888130789
 72
     1
 10
72.63516501857947
 20
143.5495888130789
 11
75.63516501857947
 21
143.5495888130789
 97
        1
330
21
 75
     0
 76
     1
 98
        1
 10
19.82488648782498
 20
107.7899677905287
  0
LINE
  5
E8
330
2
100
AcDbEntity
  8
-SYSTEM
100
AcDbLine
 10
289.3469027826366
 20
169.0495888130789
 30
0.0
 11
229.3537759632338
 21
169.0495888130786
 31
0.0
  0
LWPOLYLINE
  5
E9
330
2
100
AcDbEntity
  8
-VERGLASUNG
100
AcDbPolyline
 90
        4
 70
     0
 43
0.0
 10
186.3728483120412
 20
249.0495888130785
 10
337.3503393729351
 20
249.0495888130786
 10
339.3503393729351
 20
247.0495888130786
 10
339.3503393729353
 20
117.0703826576926
  0
HATCH
  5
EA
330
2
100
AcDbEntity
  8
-SCHRAFFUR
100
AcDbHatch
 10
0.0
 20
0.0
 30
0.0
210
0.0
220
0.0
230
1.0
  2
SOLID
 70
     1
 71
     1
 91
        2
 92
       16
 93
        1
 72
     2
 10
259.3503393729353
 20
169.0495888130788
 40
13.0
 50
0.0
 51
360.0
 73
     1
 97
        1
330
EC
 92
        1
 93
        1
 72
     2
 10
259.3503393729353
 20
169.0495888130788
 40
15.82842712474638
 50
0.0
 51
360.0
 73
     1
 97
        1
330
ED
 75
     0
 76
     1
 98
        1
 10
147.042320879908
 20
113.7875238727044
  0
CIRCLE
  5
EB
330
2
100
AcDbEntity
  8
-PROFILAUSSENKANTET
100
AcDbCircle
 10
266.3503393729353
 20
169.0495888130788
 30
0.0
 40
1.75
  0
CIRCLE
  5
EC
102
{ACAD_REACTORS
330
EA
102
}
330
2
100
AcDbEntity
  8
-PROFILAUSSENKANTET
100
AcDbCircle
 10
259.3503393729353
 20
169.0495888130788
 30
0.0
 40
13.0
  0
CIRCLE
  5
ED
102
{ACAD_REACTORS
330
EA
102
}
330
2
100
AcDbEntity
  8
-DICHTUNG
100
AcDbCircle
 10
259.3503393729353
 20
169.0495888130788
 30
0.0
 40
15.82842712474638
  0
CIRCLE
  5
EE
330
2
100
AcDbEntity
  8
-NORMTEIL_VERDECKT
100
AcDbCircle
 10
259.3503393729353
 20
169.0495888130788
 30
0.0
 40
26.0
  0
LINE
  5
EF
330
2
100
AcDbEntity
  8
-SYSTEM
100
AcDbLine
 10
259.3503393729351
 20
259.3909376268888
 30
0.0
 11
259.3503393729354
 21
139.0530254033774
 31
0.0
  0
CIRCLE
  5
F0
330
2
100
AcDbEntity
  8
-PROFILAUSSENKANTET
100
AcDbCircle
 10
255.8503393729353
 20
162.9874109865877
 30
0.0
 40
1.75
  0
CIRCLE
  5
F1
330
2
100
AcDbEntity
  8
-PROFILAUSSENKANTET
100
AcDbCircle
 10
255.8503393729353
 20
175.1117666395699
 30
0.0
 40
1.75
  0
LWPOLYLINE
  5
F2
330
2
100
AcDbEntity
  8
-TEXT2
100
AcDbPolyline
 90
        3
 70
     1
 43
0.0
 10
317.1307874129985
 20
249.0495888130785
 10
321.2647247756596
 20
256.2097783605147
 10
312.9968500503375
 20
256.2097783605147
  0
MTEXT
  5
F3
330
2
100
AcDbEntity
  8
-TEXT2
100
AcDbMText
 10
308.5274751005855
 20
261.2688057796241
 30
0.0
 40
3.5
 41
17.9978
 71
     1
 72
     5
  1
{\fArial|b0|i0|c0|p34;Glaskante}
 73
     1
 44
1.0
1001
ACAD
1000
MTEXTBEGIN
1070
    73
1070
     1
1070
    44
1040
1.0
1070
    74
1070
     0
1000
MTEXTEND
  0
LWPOLYLINE
  5
F4
330
2
100
AcDbEntity
  8
-NORMTEIL_VERDECKT
100
AcDbPolyline
 90
        4
 70
     0
 43
0.0
 10
251.3503393729353
 20
193.7882225667848
 10
251.3503393729352
 20
246.0495888130785
 10
267.3503393729352
 20
246.0495888130785
 10
267.3503393729353
 20
193.7882225667847
  0
LINE
  5
F5
330
2
100
AcDbEntity
  8
-SCHRAFFUR
100
AcDbLine
 10
262.6733393729349
 20
258.0495888130785
 30
0.0
 11
262.6733393729349
 21
249.0495888130785
 31
0.0
  0
LINE
  5
F6
330
2
100
AcDbEntity
  8
-SCHRAFFUR
100
AcDbLine
 10
256.0273393729347
 20
258.0495888130785
 30
0.0
 11
256.0273393729348
 21
249.0495888130785
 31
0.0
  0
LWPOLYLINE
  5
F7
330
2
100
AcDbEntity
  8
-NORMTEIL
100
AcDbPolyline
 90
        6
 70
     0
 43
0.0
 10
263.350339372935
 20
249.0495888130785
 10
263.350339372935
 20
257.3725888130785
 10
262.6733393729349
 20
258.0495888130785
 10
256.0273393729347
 20
258.0495888130786
 10
255.350339372935
 20
257.3725888130785
 10
255.350339372935
 20
249.0495888130785
  0
LINE
  5
F8
330
2
100
AcDbEntity
  8
-SCHRAFFUR
100
AcDbLine
 10
255.350339372935
 20
257.3725888130785
 30
0.0
 11
263.350339372935
 21
257.3725888130785
 31
0.0
  0
LINE
  5
F9
330
2
100
AcDbEntity
  8
-NORMTEIL_VERDECKT
100
AcDbLine
 10
255.350339372935
 20
249.0495888130785
 30
0.0
 11
255.350339372935
 21
246.0495888130785
 31
0.0
  0
LINE
  5
FA
330
2
100
AcDbEntity
  8
-NORMTEIL_VERDECKT
100
AcDbLine
 10
256.0273393729348
 20
249.0495888130785
 30
0.0
 11
256.0273393729348
 21
246.0495888130785
 31
0.0
  0
LINE
  5
FB
330
2
100
AcDbEntity
  8
-NORMTEIL_VERDECKT
100
AcDbLine
 10
262.6733393729349
 20
249.0495888130785
 30
0.0
 11
262.6733393729349
 21
246.0495888130785
 31
0.0
  0
LINE
  5
FC
330
2
100
AcDbEntity
  8
-NORMTEIL_VERDECKT
100
AcDbLine
 10
263.350339372935
 20
249.0495888130785
 30
0.0
 11
263.350339372935
 21
246.0495888130785
 31
0.0
  0
ENDSEC
  0
SECTION
  2
OBJECTS
  0
DICTIONARY
  5
7
330
0
100
AcDbDictionary
281
     1
  3
ACAD_COLOR
350
11B
  3
ACAD_GROUP
350
117
  3
ACAD_LAYOUT
350
FF
  3
ACAD_MATERIAL
350
11A
  3
ACAD_MLINESTYLE
350
118
  3
ACAD_PLOTSETTINGS
350
119
  3
ACAD_PLOTSTYLENAME
350
6
  3
ACDBHEADERROUNDTRIPXREC
350
121
  3
AcDbVariableDictionary
350
11D
  0
DICTIONARY
  5
11B
102
{ACAD_REACTORS
330
7
102
}
330
7
100
AcDbDictionary
281
     1
  0
DICTIONARY
  5
117
102
{ACAD_REACTORS
330
7
102
}
330
7
100
AcDbDictionary
281
     1
  0
DICTIONARY
  5
FF
102
{ACAD_REACTORS
330
7
102
}
330
7
100
AcDbDictionary
281
     1
  3
Layout1
350
103
  3
Model
350
FE
  0
DICTIONARY
  5
11A
102
{ACAD_REACTORS
330
7
102
}
330
7
100
AcDbDictionary
281
     1
  0
DICTIONARY
  5
118
102
{ACAD_REACTORS
330
7
102
}
330
7
100
AcDbDictionary
281
     1
  3
STANDARD
350
11C
  0
DICTIONARY
  5
119
102
{ACAD_REACTORS
330
7
102
}
330
7
100
AcDbDictionary
281
     1
  0
ACDBDICTIONARYWDFLT
  5
6
102
{ACAD_REACTORS
330
7
102
}
330
7
100
AcDbDictionary
281
     1
  3
Normal
350
5
100
AcDbDictionaryWithDefault
340
5
  0
DICTIONARY
  5
121
102
{ACAD_REACTORS
330
7
102
}
330
7
100
AcDbDictionary
281
     1
  3
COLORDICT
350
123
  3
MATERIALDICT
350
122
  0
DICTIONARY
  5
11D
102
{ACAD_REACTORS
330
7
102
}
330
7
100
AcDbDictionary
281
     1
  3
DIMASSOC
350
11F
  3
HIDETEXT
350
11E
  3
PROJECTNAME
350
120
  0
LAYOUT
  5
103
102
{ACAD_XDICTIONARY
360
128
102
}
102
{ACAD_REACTORS
330
FF
102
}
330
FF
100
AcDbPlotSettings
  1

  2
HP DeskJet 1120C Printer
  4

  6

 40
0.0
 41
0.0
 42
0.0
 43
0.0
 44
0.0
 45
0.0
 46
0.0
 47
0.0
 48
0.0
 49
0.0
140
0.0
141
0.0
142
1.0
143
1.0
 70
   688
 72
     0
 73
     0
 74
     5
  7
monochrome.ctb
 75
    16
147
1.0
148
0.0
149
0.0
100
AcDbLayout
  1
Layout1
 70
     1
 71
     1
 10
0.0
 20
0.0
 11
12.0
 21
9.0
 12
0.0
 22
0.0
 32
0.0
 14
1.000000000000000E+20
 24
1.000000000000000E+20
 34
1.000000000000000E+20
 15
-1.000000000000000E+20
 25
-1.000000000000000E+20
 35
-1.000000000000000E+20
146
0.0
 13
0.0
 23
0.0
 33
0.0
 16
1.0
 26
0.0
 36
0.0
 17
0.0
 27
1.0
 37
0.0
 76
     0
330
100
  0
LAYOUT
  5
FE
102
{ACAD_XDICTIONARY
360
126
102
}
102
{ACAD_REACTORS
330
FF
102
}
330
FF
100
AcDbPlotSettings
  1

  2
HP DeskJet 1120C Printer
  4

  6

 40
0.0
 41
0.0
 42
0.0
 43
0.0
 44
0.0
 45
0.0
 46
0.0
 47
0.0
 48
0.0
 49
0.0
140
0.0
141
0.0
142
1.0
143
1.0
 70
  1712
 72
     0
 73
     0
 74
     0
  7
monochrome.ctb
 75
     0
147
1.0
148
0.0
149
0.0
100
AcDbLayout
  1
Model
 70
     1
 71
     0
 10
0.0
 20
0.0
 11
12.0
 21
9.0
 12
0.0
 22
0.0
 32
0.0
 14
0.0
 24
0.0
 34
0.0
 15
0.0
 25
0.0
 35
0.0
146
0.0
 13
0.0
 23
0.0
 33
0.0
 16
1.0
 26
0.0
 36
0.0
 17
0.0
 27
1.0
 37
0.0
 76
     0
330
2
  0
MLINESTYLE
  5
11C
102
{ACAD_REACTORS
330
118
102
}
330
118
100
AcDbMlineStyle
  2
STANDARD
 70
     0
  3

 62
     0
 51
90.0
 52
90.0
 71
     2
 49
0.5
 62
   256
  6
BYLAYER
 49
-0.5
 62
   256
  6
BYLAYER
  0
ACDBPLACEHOLDER
  5
5
102
{ACAD_REACTORS
330
6
102
}
330
6
  0
XRECORD
  5
123
102
{ACAD_REACTORS
330
121
102
}
330
121
100
AcDbXrecord
280
     1
340
11B
  0
XRECORD
  5
122
102
{ACAD_REACTORS
330
121
102
}
330
121
100
AcDbXrecord
280
     1
340
11A
  0
DICTIONARYVAR
  5
11F
102
{ACAD_REACTORS
330
11D
102
}
330
11D
100
DictionaryVariables
280
     0
  1
1
  0
DICTIONARYVAR
  5
11E
102
{ACAD_REACTORS
330
11D
102
}
330
11D
100
DictionaryVariables
280
     0
  1
1
  0
DICTIONARYVAR
  5
120
102
{ACAD_REACTORS
330
11D
102
}
330
11D
100
DictionaryVariables
280
     0
  1

  0
DICTIONARY
  5
128
330
103
100
AcDbDictionary
280
     1
281
     1
  3
ACAD_XREC_ROUNDTRIP
360
129
  0
DICTIONARY
  5
126
330
FE
100
AcDbDictionary
280
     1
281
     1
  3
ACAD_XREC_ROUNDTRIP
360
127
  0
XRECORD
  5
129
102
{ACAD_REACTORS
330
128
102
}
330
128
100
AcDbXrecord
280
     1
102
SHADEPLOT
 70
     0
102
SHADEPLOTRESLEVEL
 70
     2
102
SHADEPLOTCUSTOMDPI
 70
   300
  0
XRECORD
  5
127
102
{ACAD_REACTORS
330
126
102
}
330
126
100
AcDbXrecord
280
     1
102
SHADEPLOT
 70
     0
102
SHADEPLOTRESLEVEL
 70
     2
102
SHADEPLOTCUSTOMDPI
 70
   300
  0
ENDSEC
  0
EOF
