  0
SECTION
  2
HEADER
  9
$ACADVER
  1
AC1015
  9
$ACADMAINTVER
 70
    18
  9
$DWGCODEPAGE
  3
ANSI_1252
  9
$INSBASE
 10
-327.8288694144876
 20
0.0
 30
0.0
  9
$EXTMIN
 10
1.000000000000000E+20
 20
1.000000000000000E+20
 30
1.000000000000000E+20
  9
$EXTMAX
 10
0.0
 20
0.0
 30
0.0
  9
$LIMMIN
 10
0.0
 20
0.0
  9
$LIMMAX
 10
12.0
 20
9.0
  9
$ORTHOMODE
 70
     1
  9
$REGENMODE
 70
     1
  9
$FILLMODE
 70
     1
  9
$QTEXTMODE
 70
     0
  9
$MIRRTEXT
 70
     1
  9
$LTSCALE
 40
2.5
  9
$ATTMODE
 70
     1
  9
$TEXTSIZE
 40
0.2
  9
$TRACEWID
 40
0.05
  9
$TEXTSTYLE
  7
STANDARD
  9
$CLAYER
  8
-SCHRAFFUR
  9
$CELTYPE
  6
BYLAYER
  9
$CECOLOR
 62
   256
  9
$CELTSCALE
 40
1.0
  9
$DISPSILH
 70
     0
  9
$DIMSCALE
 40
1.0
  9
$DIMASZ
 40
3.5
  9
$DIMEXO
 40
2.0
  9
$DIMDLI
 40
2.0
  9
$DIMRND
 40
0.0
  9
$DIMDLE
 40
0.0
  9
$DIMEXE
 40
1.5
  9
$DIMTP
 40
0.0
  9
$DIMTM
 40
0.0
  9
$DIMTXT
 40
4.0
  9
$DIMCEN
 40
0.09
  9
$DIMTSZ
 40
0.0
  9
$DIMTOL
 70
     0
  9
$DIMLIM
 70
     0
  9
$DIMTIH
 70
     0
  9
$DIMTOH
 70
     0
  9
$DIMSE1
 70
     0
  9
$DIMSE2
 70
     0
  9
$DIMTAD
 70
     1
  9
$DIMZIN
 70
     9
  9
$DIMBLK
  1

  9
$DIMASO
 70
     1
  9
$DIMSHO
 70
     1
  9
$DIMPOST
  1

  9
$DIMAPOST
  1

  9
$DIMALT
 70
     0
  9
$DIMALTD
 70
     2
  9
$DIMALTF
 40
25.4
  9
$DIMLFAC
 40
1.0
  9
$DIMTOFL
 70
     0
  9
$DIMTVP
 40
0.0
  9
$DIMTIX
 70
     0
  9
$DIMSOXD
 70
     0
  9
$DIMSAH
 70
     0
  9
$DIMBLK1
  1

  9
$DIMBLK2
  1

  9
$DIMSTYLE
  2
1-1PRO
  9
$DIMCLRD
 70
   256
  9
$DIMCLRE
 70
   256
  9
$DIMCLRT
 70
   256
  9
$DIMTFAC
 40
1.0
  9
$DIMGAP
 40
1.0
  9
$DIMJUST
 70
     0
  9
$DIMSD1
 70
     0
  9
$DIMSD2
 70
     0
  9
$DIMTOLJ
 70
     1
  9
$DIMTZIN
 70
     0
  9
$DIMALTZ
 70
     0
  9
$DIMALTTZ
 70
     0
  9
$DIMUPT
 70
     0
  9
$DIMDEC
 70
     1
  9
$DIMTDEC
 70
     1
  9
$DIMALTU
 70
     2
  9
$DIMALTTD
 70
     2
  9
$DIMTXSTY
  7
STANDARD
  9
$DIMAUNIT
 70
     0
  9
$DIMADEC
 70
     0
  9
$DIMALTRND
 40
0.0
  9
$DIMAZIN
 70
     0
  9
$DIMDSEP
 70
    46
  9
$DIMATFIT
 70
     3
  9
$DIMFRAC
 70
     0
  9
$DIMLDRBLK
  1

  9
$DIMLUNIT
 70
     2
  9
$DIMLWD
 70
    -2
  9
$DIMLWE
 70
    -2
  9
$DIMTMOVE
 70
     0
  9
$LUNITS
 70
     2
  9
$LUPREC
 70
     4
  9
$SKETCHINC
 40
0.1
  9
$FILLETRAD
 40
0.0
  9
$AUNITS
 70
     0
  9
$AUPREC
 70
     0
  9
$MENU
  1
.
  9
$ELEVATION
 40
0.0
  9
$PELEVATION
 40
0.0
  9
$THICKNESS
 40
0.0
  9
$LIMCHECK
 70
     0
  9
$CHAMFERA
 40
2.0
  9
$CHAMFERB
 40
2.0
  9
$CHAMFERC
 40
1.0
  9
$CHAMFERD
 40
0.0
  9
$SKPOLY
 70
     0
  9
$TDCREATE
 40
2450923.406402199
  9
$TDUCREATE
 40
2450923.364735533
  9
$TDUPDATE
 40
2453405.562955428
  9
$TDUUPDATE
 40
2453405.521288761
  9
$TDINDWG
 40
2.4448181250
  9
$TDUSRTIMER
 40
2.4448181250
  9
$USRTIMER
 70
     1
  9
$ANGBASE
 50
0.0
  9
$ANGDIR
 70
     0
  9
$PDMODE
 70
     0
  9
$PDSIZE
 40
0.0
  9
$PLINEWID
 40
0.0
  9
$SPLFRAME
 70
     0
  9
$SPLINETYPE
 70
     6
  9
$SPLINESEGS
 70
    50
  9
$HANDSEED
  5
10C
  9
$SURFTAB1
 70
     6
  9
$SURFTAB2
 70
     6
  9
$SURFTYPE
 70
     6
  9
$SURFU
 70
     6
  9
$SURFV
 70
     6
  9
$UCSBASE
  2

  9
$UCSNAME
  2

  9
$UCSORG
 10
0.0
 20
0.0
 30
0.0
  9
$UCSXDIR
 10
1.0
 20
0.0
 30
0.0
  9
$UCSYDIR
 10
0.0
 20
1.0
 30
0.0
  9
$UCSORTHOREF
  2

  9
$UCSORTHOVIEW
 70
     0
  9
$UCSORGTOP
 10
0.0
 20
0.0
 30
0.0
  9
$UCSORGBOTTOM
 10
0.0
 20
0.0
 30
0.0
  9
$UCSORGLEFT
 10
0.0
 20
0.0
 30
0.0
  9
$UCSORGRIGHT
 10
0.0
 20
0.0
 30
0.0
  9
$UCSORGFRONT
 10
0.0
 20
0.0
 30
0.0
  9
$UCSORGBACK
 10
0.0
 20
0.0
 30
0.0
  9
$PUCSBASE
  2

  9
$PUCSNAME
  2

  9
$PUCSORG
 10
0.0
 20
0.0
 30
0.0
  9
$PUCSXDIR
 10
1.0
 20
0.0
 30
0.0
  9
$PUCSYDIR
 10
0.0
 20
1.0
 30
0.0
  9
$PUCSORTHOREF
  2

  9
$PUCSORTHOVIEW
 70
     0
  9
$PUCSORGTOP
 10
0.0
 20
0.0
 30
0.0
  9
$PUCSORGBOTTOM
 10
0.0
 20
0.0
 30
0.0
  9
$PUCSORGLEFT
 10
0.0
 20
0.0
 30
0.0
  9
$PUCSORGRIGHT
 10
0.0
 20
0.0
 30
0.0
  9
$PUCSORGFRONT
 10
0.0
 20
0.0
 30
0.0
  9
$PUCSORGBACK
 10
0.0
 20
0.0
 30
0.0
  9
$USERI1
 70
     0
  9
$USERI2
 70
     0
  9
$USERI3
 70
     0
  9
$USERI4
 70
     0
  9
$USERI5
 70
     0
  9
$USERR1
 40
0.0
  9
$USERR2
 40
0.0
  9
$USERR3
 40
0.0
  9
$USERR4
 40
0.0
  9
$USERR5
 40
0.0
  9
$WORLDVIEW
 70
     1
  9
$SHADEDGE
 70
     3
  9
$SHADEDIF
 70
    70
  9
$TILEMODE
 70
     1
  9
$MAXACTVP
 70
    48
  9
$PINSBASE
 10
0.0
 20
0.0
 30
0.0
  9
$PLIMCHECK
 70
     0
  9
$PEXTMIN
 10
1.000000000000000E+20
 20
1.000000000000000E+20
 30
1.000000000000000E+20
  9
$PEXTMAX
 10
-1.000000000000000E+20
 20
-1.000000000000000E+20
 30
-1.000000000000000E+20
  9
$PLIMMIN
 10
0.0
 20
0.0
  9
$PLIMMAX
 10
12.0
 20
9.0
  9
$UNITMODE
 70
     0
  9
$VISRETAIN
 70
     1
  9
$PLINEGEN
 70
     0
  9
$PSLTSCALE
 70
     1
  9
$TREEDEPTH
 70
  3020
  9
$CMLSTYLE
  2
STANDARD
  9
$CMLJUST
 70
     0
  9
$CMLSCALE
 40
1.0
  9
$PROXYGRAPHICS
 70
     1
  9
$MEASUREMENT
 70
     0
  9
$CELWEIGHT
370
    -1
  9
$ENDCAPS
280
     0
  9
$JOINSTYLE
280
     0
  9
$LWDISPLAY
290
     0
  9
$INSUNITS
 70
     0
  9
$HYPERLINKBASE
  1

  9
$STYLESHEET
  1

  9
$XEDIT
290
     1
  9
$CEPSNTYPE
380
     0
  9
$PSTYLEMODE
290
     1
  9
$FINGERPRINTGUID
  2
{E30052C0-F69B-11D4-9C1F-A97B339CF55F}
  9
$VERSIONGUID
  2
{AA4F6001-602E-4405-8B76-BB6BED3674FD}
  9
$EXTNAMES
290
     1
  9
$PSVPSCALE
 40
0.0
  9
$OLESTARTUP
290
     0
  0
ENDSEC
  0
SECTION
  2
CLASSES
  0
CLASS
  1
DICTIONARYVAR
  2
AcDbDictionaryVar
  3
ObjectDBX Classes
 90
        0
280
     0
281
     0
  0
CLASS
  1
IMAGE
  2
AcDbRasterImage
  3
ISM
 90
    32895
280
     0
281
     1
  0
CLASS
  1
IMAGEDEF_REACTOR
  2
AcDbRasterImageDefReactor
  3
ISM
 90
    32769
280
     0
281
     0
  0
CLASS
  1
IMAGEDEF
  2
AcDbRasterImageDef
  3
ISM
 90
    32768
280
     0
281
     0
  0
CLASS
  1
RASTERVARIABLES
  2
AcDbRasterVariables
  3
ISM
 90
    32768
280
     0
281
     0
  0
CLASS
  1
ACDBDICTIONARYWDFLT
  2
AcDbDictionaryWithDefault
  3
ObjectDBX Classes
 90
        0
280
     0
281
     0
  0
CLASS
  1
ACDBPLACEHOLDER
  2
AcDbPlaceHolder
  3
ObjectDBX Classes
 90
        0
280
     0
281
     0
  0
CLASS
  1
LAYOUT
  2
AcDbLayout
  3
ObjectDBX Classes
 90
        0
280
     0
281
     0
  0
ENDSEC
  0
SECTION
  2
TABLES
  0
TABLE
  2
VPORT
  5
F4
330
0
100
AcDbSymbolTable
 70
     1
  0
VPORT
  5
F5
330
F4
100
AcDbSymbolTableRecord
100
AcDbViewportTableRecord
  2
*Active
 70
     0
 10
0.0
 20
0.0
 11
1.0
 21
1.0
 12
3.511254825731441
 22
72.09481052990257
 13
0.0
 23
0.0
 14
0.5
 24
0.5
 15
0.5
 25
0.5
 16
0.0
 26
0.0
 36
1.0
 17
0.0
 27
0.0
 37
0.0
 40
250.1121034504168
 41
1.549148099606815
 42
50.0
 43
0.0
 44
0.0
 50
0.0
 51
0.0
 71
     0
 72
   100
 73
     1
 74
     1
 75
     0
 76
     0
 77
     0
 78
     0
281
     0
 65
     1
110
0.0
120
0.0
130
0.0
111
1.0
121
0.0
131
0.0
112
0.0
122
1.0
132
0.0
 79
     0
146
0.0
  0
ENDTAB
  0
TABLE
  2
LTYPE
  5
EF
330
0
100
AcDbSymbolTable
 70
     3
  0
LTYPE
  5
F0
330
EF
100
AcDbSymbolTableRecord
100
AcDbLinetypeTableRecord
  2
BYBLOCK
 70
     0
  3

 72
    65
 73
     0
 40
0.0
  0
LTYPE
  5
F1
330
EF
100
AcDbSymbolTableRecord
100
AcDbLinetypeTableRecord
  2
BYLAYER
 70
     0
  3

 72
    65
 73
     0
 40
0.0
  0
LTYPE
  5
8
330
EF
100
AcDbSymbolTableRecord
100
AcDbLinetypeTableRecord
  2
CONTINUOUS
 70
     0
  3
Solid line
 72
    65
 73
     0
 40
0.0
  0
LTYPE
  5
B
330
EF
100
AcDbSymbolTableRecord
100
AcDbLinetypeTableRecord
  2
MITTEX2
 70
     0
  3
Mitte (2x) ________  __  ________  __  _____
 72
    65
 73
     4
 40
4.0
 49
2.5
 74
     0
 49
-0.5
 74
     0
 49
0.5
 74
     0
 49
-0.5
 74
     0
  0
LTYPE
  5
6F
330
EF
100
AcDbSymbolTableRecord
100
AcDbLinetypeTableRecord
  2
STRICHLINIEX2
 70
     0
  3
Strichlinie (2x) ____  ____  ____  ____  ____  
 72
    65
 73
     2
 40
1.5
 49
1.0
 74
     0
 49
-0.5
 74
     0
  0
ENDTAB
  0
TABLE
  2
LAYER
  5
EC
330
0
100
AcDbSymbolTable
 70
    11
  0
LAYER
  5
4
330
EC
100
AcDbSymbolTableRecord
100
AcDbLayerTableRecord
  2
0
 70
     0
 62
     7
  6
CONTINUOUS
370
    -3
390
5
  0
LAYER
  5
68
330
EC
100
AcDbSymbolTableRecord
100
AcDbLayerTableRecord
  2
-PROFILAUSSENKANTET
 70
     0
 62
     4
  6
CONTINUOUS
370
    -3
390
5
  0
LAYER
  5
D4
330
EC
100
AcDbSymbolTableRecord
100
AcDbLayerTableRecord
  2
-DICHTUNG
 70
     0
 62
     3
  6
CONTINUOUS
370
    -3
390
5
  0
LAYER
  5
87
330
EC
100
AcDbSymbolTableRecord
100
AcDbLayerTableRecord
  2
-NORMTEIL
 70
     0
 62
     6
  6
CONTINUOUS
370
    -3
390
5
  0
LAYER
  5
6E
330
EC
100
AcDbSymbolTableRecord
100
AcDbLayerTableRecord
  2
-NORMTEIL_VERDECKT
 70
     0
 62
     9
  6
STRICHLINIEX2
370
    -3
390
5
  0
LAYER
  5
1A
330
EC
100
AcDbSymbolTableRecord
100
AcDbLayerTableRecord
  2
DEFPOINTS
 70
     0
 62
     7
  6
CONTINUOUS
290
     0
370
    -3
390
5
  0
LAYER
  5
A
330
EC
100
AcDbSymbolTableRecord
100
AcDbLayerTableRecord
  2
-SYSTEM
 70
     0
 62
     2
  6
MITTEX2
370
    -3
390
5
  0
LAYER
  5
C3
330
EC
100
AcDbSymbolTableRecord
100
AcDbLayerTableRecord
  2
-TEXT2
 70
     0
 62
     3
  6
CONTINUOUS
370
    -3
390
5
  0
LAYER
  5
D
330
EC
100
AcDbSymbolTableRecord
100
AcDbLayerTableRecord
  2
-TEXT3
 70
     0
 62
     2
  6
CONTINUOUS
370
    -3
390
5
  0
LAYER
  5
6C
330
EC
100
AcDbSymbolTableRecord
100
AcDbLayerTableRecord
  2
-SCHRAFFUR
 70
     0
 62
     9
  6
CONTINUOUS
370
    -3
390
5
  0
LAYER
  5
3A
330
EC
100
AcDbSymbolTableRecord
100
AcDbLayerTableRecord
  2
-VERGLASUNG
 70
     0
 62
     1
  6
CONTINUOUS
370
    -3
390
5
  0
ENDTAB
  0
TABLE
  2
STYLE
  5
ED
330
0
100
AcDbSymbolTable
 70
     1
  0
STYLE
  5
E
330
ED
100
AcDbSymbolTableRecord
100
AcDbTextStyleTableRecord
  2
STANDARD
 70
     0
 40
0.0
 41
1.0
 50
0.0
 71
     0
 42
0.2
  3
GOTHIC.TTF
  4

1001
ACAD
1000
Century Gothic
1071
       34
  0
ENDTAB
  0
TABLE
  2
VIEW
  5
F2
330
0
100
AcDbSymbolTable
 70
     0
  0
ENDTAB
  0
TABLE
  2
UCS
  5
F3
330
0
100
AcDbSymbolTable
 70
     0
  0
ENDTAB
  0
TABLE
  2
APPID
  5
F6
330
0
100
AcDbSymbolTable
 70
     1
  0
APPID
  5
F
330
F6
100
AcDbSymbolTableRecord
100
AcDbRegAppTableRecord
  2
ACAD
 70
     0
  0
ENDTAB
  0
TABLE
  2
DIMSTYLE
  5
F7
330
0
100
AcDbSymbolTable
 70
     1
100
AcDbDimStyleTable
 71
     1
340
10
  0
DIMSTYLE
105
10
102
{ACAD_REACTORS
330
1E
330
C
330
56
330
3C
330
49
330
2B
330
8B
330
B5
102
}
330
F7
100
AcDbSymbolTableRecord
100
AcDbDimStyleTableRecord
  2
1-1PRO
 70
     0
 41
3.5
 42
2.0
 43
2.0
 44
1.5
 73
     0
 74
     0
 77
     1
 78
     9
140
4.0
147
1.0
176
   256
177
   256
178
   256
271
     1
272
     1
340
E
  0
ENDTAB
  0
TABLE
  2
BLOCK_RECORD
  5
1
330
0
100
AcDbSymbolTable
 70
    10
  0
BLOCK_RECORD
  5
2
330
1
100
AcDbSymbolTableRecord
100
AcDbBlockTableRecord
  2
*MODEL_SPACE
340
E6
  0
BLOCK_RECORD
  5
E8
330
1
100
AcDbSymbolTableRecord
100
AcDbBlockTableRecord
  2
*PAPER_SPACE
340
EB
  0
BLOCK_RECORD
  5
57
330
1
100
AcDbSymbolTableRecord
100
AcDbBlockTableRecord
  2
*D0
340
0
  0
BLOCK_RECORD
  5
1F
330
1
100
AcDbSymbolTableRecord
100
AcDbBlockTableRecord
  2
*D1
340
0
  0
BLOCK_RECORD
  5
11
330
1
100
AcDbSymbolTableRecord
100
AcDbBlockTableRecord
  2
*D2
340
0
  0
BLOCK_RECORD
  5
C4
330
1
100
AcDbSymbolTableRecord
100
AcDbBlockTableRecord
  2
A$C12D21FE6
340
0
102
{BLKREFS
331
C2
102
}
  0
BLOCK_RECORD
  5
CC
330
1
100
AcDbSymbolTableRecord
100
AcDbBlockTableRecord
  2
ANSICHT2652
340
0
102
{BLKREFS
331
CB
102
}
  0
BLOCK_RECORD
  5
B6
330
1
100
AcDbSymbolTableRecord
100
AcDbBlockTableRecord
  2
*D5
340
0
  0
BLOCK_RECORD
  5
8C
330
1
100
AcDbSymbolTableRecord
100
AcDbBlockTableRecord
  2
*D6
340
0
  0
BLOCK_RECORD
  5
4A
330
1
100
AcDbSymbolTableRecord
100
AcDbBlockTableRecord
  2
*D7
340
0
  0
BLOCK_RECORD
  5
3D
330
1
100
AcDbSymbolTableRecord
100
AcDbBlockTableRecord
  2
*D8
340
0
  0
BLOCK_RECORD
  5
2C
330
1
100
AcDbSymbolTableRecord
100
AcDbBlockTableRecord
  2
*D9
340
0
  0
ENDTAB
  0
ENDSEC
  0
SECTION
  2
BLOCKS
  0
BLOCK
  5
3
330
2
100
AcDbEntity
  8
0
100
AcDbBlockBegin
  2
*MODEL_SPACE
 70
     0
 10
0.0
 20
0.0
 30
0.0
  3
*MODEL_SPACE
  1

  0
ENDBLK
  5
E5
330
2
100
AcDbEntity
  8
0
100
AcDbBlockEnd
  0
BLOCK
  5
E9
330
E8
100
AcDbEntity
 67
     1
  8
0
100
AcDbBlockBegin
  2
*PAPER_SPACE
 70
     0
 10
0.0
 20
0.0
 30
0.0
  3
*PAPER_SPACE
  1

  0
ENDBLK
  5
EA
330
E8
100
AcDbEntity
 67
     1
  8
0
100
AcDbBlockEnd
  0
BLOCK
  5
58
330
57
100
AcDbEntity
  8
0
100
AcDbBlockBegin
  2
*D0
 70
     1
 10
0.0
 20
0.0
 30
0.0
  3
*D0
  1

  0
LINE
  5
59
330
57
100
AcDbEntity
  8
-TEXT3
370
    -2
100
AcDbLine
 10
-51.7043374879467
 20
173.7377823305601
 30
0.0
 11
-56.29566251205227
 21
173.7377823305601
 31
0.0
  0
LINE
  5
5A
330
57
100
AcDbEntity
  8
-TEXT3
370
    -2
100
AcDbLine
 10
-51.7043374879467
 20
161.7377823305594
 30
0.0
 11
-56.29566251205227
 21
161.7377823305594
 31
0.0
  0
LINE
  5
5B
330
57
100
AcDbEntity
  8
-TEXT3
370
    -2
100
AcDbLine
 10
-54.79566251205227
 20
170.2377823305601
 30
0.0
 11
-54.79566251205227
 21
165.2377823305594
 31
0.0
  0
SOLID
  5
5C
330
57
100
AcDbEntity
  8
-TEXT3
100
AcDbTrace
 10
-55.37899584538561
 20
170.2377823305601
 30
0.0
 11
-54.21232917871893
 21
170.2377823305601
 31
0.0
 12
-54.79566251205227
 22
173.7377823305601
 32
0.0
 13
-54.79566251205227
 23
173.7377823305601
 33
0.0
  0
SOLID
  5
5D
330
57
100
AcDbEntity
  8
-TEXT3
100
AcDbTrace
 10
-55.37899584538561
 20
165.2377823305594
 30
0.0
 11
-54.21232917871893
 21
165.2377823305594
 31
0.0
 12
-54.79566251205227
 22
161.7377823305594
 32
0.0
 13
-54.79566251205227
 23
161.7377823305594
 33
0.0
  0
MTEXT
  5
5E
330
57
100
AcDbEntity
  8
-TEXT3
100
AcDbMText
 10
-57.89627434074027
 20
167.7377823305598
 30
0.0
 40
4.0
 41
0.0
 71
     5
 72
     1
  1
\A1;G
 11
0.0000000000000001
 21
1.0
 31
0.0
 73
     1
 44
1.0
1001
ACAD
1000
MTEXTBEGIN
1070
    73
1070
     1
1070
    44
1040
1.0
1070
    74
1070
     0
1000
MTEXTEND
  0
POINT
  5
5F
330
57
100
AcDbEntity
  8
DEFPOINTS
 62
     0
100
AcDbPoint
 10
-49.7043374879467
 20
173.7377823305601
 30
0.0
  0
POINT
  5
60
330
57
100
AcDbEntity
  8
DEFPOINTS
 62
     0
100
AcDbPoint
 10
-49.7043374879467
 20
161.7377823305594
 30
0.0
  0
POINT
  5
61
330
57
100
AcDbEntity
  8
DEFPOINTS
 62
     0
100
AcDbPoint
 10
-54.79566251205227
 20
161.7377823305594
 30
0.0
  0
ENDBLK
  5
62
330
57
100
AcDbEntity
  8
0
100
AcDbBlockEnd
  0
BLOCK
  5
20
330
1F
100
AcDbEntity
  8
0
100
AcDbBlockBegin
  2
*D1
 70
     1
 10
0.0
 20
0.0
 30
0.0
  3
*D1
  1

  0
LINE
  5
21
330
1F
100
AcDbEntity
  8
-TEXT3
370
    -2
100
AcDbLine
 10
-13.00000000000017
 20
175.7377823305599
 30
0.0
 11
-13.00000000000017
 21
183.0365238434549
 31
0.0
  0
LINE
  5
22
330
1F
100
AcDbEntity
  8
-TEXT3
370
    -2
100
AcDbLine
 10
12.99999999999983
 20
175.7377823305599
 30
0.0
 11
12.99999999999983
 21
183.0365238434549
 31
0.0
  0
LINE
  5
23
330
1F
100
AcDbEntity
  8
-TEXT3
370
    -2
100
AcDbLine
 10
-9.50000000000017
 20
181.536523843455
 30
0.0
 11
9.499999999999829
 21
181.536523843455
 31
0.0
  0
SOLID
  5
24
330
1F
100
AcDbEntity
  8
-TEXT3
100
AcDbTrace
 10
-9.50000000000017
 20
182.1198571767883
 30
0.0
 11
-9.50000000000017
 21
180.9531905101216
 31
0.0
 12
-13.00000000000017
 22
181.536523843455
 32
0.0
 13
-13.00000000000017
 23
181.536523843455
 33
0.0
  0
SOLID
  5
25
330
1F
100
AcDbEntity
  8
-TEXT3
100
AcDbTrace
 10
9.499999999999829
 20
182.1198571767883
 30
0.0
 11
9.499999999999829
 21
180.9531905101216
 31
0.0
 12
12.99999999999983
 22
181.536523843455
 32
0.0
 13
12.99999999999983
 23
181.536523843455
 33
0.0
  0
MTEXT
  5
26
330
1F
100
AcDbEntity
  8
-TEXT3
100
AcDbMText
 10
-0.2472447114315626
 20
184.7622206483496
 30
0.0
 40
4.0
 41
0.0
 71
     5
 72
     1
  1
\A1;%%c26
 73
     1
 44
1.0
1001
ACAD
1000
MTEXTBEGIN
1070
    73
1070
     1
1070
    44
1040
1.0
1070
    74
1070
     0
1000
MTEXTEND
  0
POINT
  5
27
330
1F
100
AcDbEntity
  8
DEFPOINTS
 62
     0
100
AcDbPoint
 10
-13.00000000000017
 20
173.7377823305599
 30
0.0
  0
POINT
  5
28
330
1F
100
AcDbEntity
  8
DEFPOINTS
 62
     0
100
AcDbPoint
 10
12.99999999999983
 20
173.7377823305599
 30
0.0
  0
POINT
  5
29
330
1F
100
AcDbEntity
  8
DEFPOINTS
 62
     0
100
AcDbPoint
 10
12.99999999999983
 20
181.536523843455
 30
0.0
  0
ENDBLK
  5
2A
330
1F
100
AcDbEntity
  8
0
100
AcDbBlockEnd
  0
BLOCK
  5
12
330
11
100
AcDbEntity
  8
0
100
AcDbBlockBegin
  2
*D2
 70
     1
 10
0.0
 20
0.0
 30
0.0
  3
*D2
  1

  0
LINE
  5
13
330
11
100
AcDbEntity
  8
-TEXT3
370
    -2
100
AcDbLine
 10
-25.99999999999977
 20
175.7377823305605
 30
0.0
 11
-25.99999999999977
 21
190.8945228645564
 31
0.0
  0
LINE
  5
14
330
11
100
AcDbEntity
  8
-TEXT3
370
    -2
100
AcDbLine
 10
26.00000000000278
 20
175.7377823305604
 30
0.0
 11
26.00000000000278
 21
190.8945228645564
 31
0.0
  0
LINE
  5
15
330
11
100
AcDbEntity
  8
-TEXT3
370
    -2
100
AcDbLine
 10
-22.49999999999977
 20
189.3945228645564
 30
0.0
 11
22.50000000000278
 21
189.3945228645564
 31
0.0
  0
SOLID
  5
16
330
11
100
AcDbEntity
  8
-TEXT3
100
AcDbTrace
 10
-22.49999999999977
 20
189.9778561978898
 30
0.0
 11
-22.49999999999977
 21
188.8111895312231
 31
0.0
 12
-25.99999999999977
 22
189.3945228645564
 32
0.0
 13
-25.99999999999977
 23
189.3945228645564
 33
0.0
  0
SOLID
  5
17
330
11
100
AcDbEntity
  8
-TEXT3
100
AcDbTrace
 10
22.50000000000278
 20
189.9778561978898
 30
0.0
 11
22.50000000000278
 21
188.8111895312231
 31
0.0
 12
26.00000000000278
 22
189.3945228645564
 32
0.0
 13
26.00000000000278
 23
189.3945228645564
 33
0.0
  0
MTEXT
  5
18
330
11
100
AcDbEntity
  8
-TEXT3
100
AcDbMText
 10
0.000000000001535
 20
192.6202196694511
 30
0.0
 40
4.0
 41
0.0
 71
     5
 72
     1
  1
\A1;%%c52
 73
     1
 44
1.0
1001
ACAD
1000
MTEXTBEGIN
1070
    73
1070
     1
1070
    44
1040
1.0
1070
    74
1070
     0
1000
MTEXTEND
  0
POINT
  5
19
330
11
100
AcDbEntity
  8
DEFPOINTS
 62
     0
100
AcDbPoint
 10
-25.99999999999977
 20
173.7377823305605
 30
0.0
  0
POINT
  5
1B
330
11
100
AcDbEntity
  8
DEFPOINTS
 62
     0
100
AcDbPoint
 10
26.00000000000278
 20
173.7377823305604
 30
0.0
  0
POINT
  5
1C
330
11
100
AcDbEntity
  8
DEFPOINTS
 62
     0
100
AcDbPoint
 10
26.00000000000278
 20
189.3945228645564
 30
0.0
  0
ENDBLK
  5
1D
330
11
100
AcDbEntity
  8
0
100
AcDbBlockEnd
  0
BLOCK
  5
C5
330
C4
100
AcDbEntity
  8
0
100
AcDbBlockBegin
  2
A$C12D21FE6
 70
     0
 10
0.0
 20
0.0
 30
0.0
  3
A$C12D21FE6
  1

  0
LWPOLYLINE
  5
C6
330
C4
100
AcDbEntity
  8
-NORMTEIL_VERDECKT
100
AcDbPolyline
 90
        6
 70
     0
 43
0.0
 10
-0.00000004186154
 20
11.00000006123278
 10
-0.0000000418618811
 20
0.6770000612326186
 10
0.6769999581382536
 20
0.0000000612325977
 10
7.322999958138439
 20
0.0000000612325692
 10
7.999999958138118
 20
0.6770000612325902
 10
7.999999958138459
 20
11.00000006123272
  0
LINE
  5
C7
330
C4
100
AcDbEntity
  8
-NORMTEIL_VERDECKT
100
AcDbLine
 10
7.322999958138439
 20
0.0000000612325977
 30
0.0
 11
7.32299995813878
 21
11.00000006123272
 31
0.0
  0
LINE
  5
C8
330
C4
100
AcDbEntity
  8
-NORMTEIL_VERDECKT
100
AcDbLine
 10
0.6769999581382536
 20
0.0000000612325977
 30
0.0
 11
0.6769999581385946
 21
11.00000006123284
 31
0.0
  0
LINE
  5
C9
330
C4
100
AcDbEntity
  8
-NORMTEIL_VERDECKT
100
AcDbLine
 10
-0.0000000418618811
 20
0.6770000612326186
 30
0.0
 11
7.999999958138118
 21
0.6770000612325902
 31
0.0
  0
ENDBLK
  5
CA
330
C4
100
AcDbEntity
  8
0
100
AcDbBlockEnd
  0
BLOCK
  5
CD
330
CC
100
AcDbEntity
  8
0
100
AcDbBlockBegin
  2
ANSICHT2652
 70
     0
 10
0.0
 20
0.0
 30
0.0
  3
ANSICHT2652
  1

  0
LINE
  5
CE
330
CC
100
AcDbEntity
  8
-SYSTEM
100
AcDbLine
 10
29.99656340967727
 20
-97.34816104632294
 30
0.0
 11
-29.99656340972557
 21
-97.34816104632322
 31
0.0
  0
LWPOLYLINE
  5
CF
330
CC
100
AcDbEntity
  8
-VERGLASUNG
100
AcDbPolyline
 90
        4
 70
     0
 43
0.0
 10
-72.97749106091817
 20
-17.34816104632338
 10
77.99999999997573
 20
-17.34816104632327
 10
79.99999999997573
 20
-19.34816104632327
 10
79.99999999997584
 20
-149.3273672017092
  0
HATCH
  5
D0
330
CC
100
AcDbEntity
  8
-SCHRAFFUR
100
AcDbHatch
 10
0.0
 20
0.0
 30
0.0
210
0.0
220
0.0
230
1.0
  2
SOLID
 70
     1
 71
     1
 91
        2
 92
       16
 93
        1
 72
     2
 10
-0.0000000000241576
 20
-97.34816104632308
 40
13.0
 50
0.0
 51
360.0
 73
     1
 97
        1
330
D2
 92
        1
 93
        1
 72
     2
 10
-0.0000000000241576
 20
-97.34816104632308
 40
15.82842712474638
 50
0.0
 51
360.0
 73
     1
 97
        1
330
D3
 75
     0
 76
     1
 98
        1
 10
-112.3080184930513
 20
-152.6102259866974
  0
CIRCLE
  5
D1
330
CC
100
AcDbEntity
  8
-PROFILAUSSENKANTET
100
AcDbCircle
 10
6.999999999975842
 20
-97.34816104632303
 30
0.0
 40
1.75
  0
CIRCLE
  5
D2
102
{ACAD_REACTORS
330
D0
102
}
330
CC
100
AcDbEntity
  8
-PROFILAUSSENKANTET
100
AcDbCircle
 10
-0.0000000000241576
 20
-97.34816104632308
 30
0.0
 40
13.0
  0
CIRCLE
  5
D3
102
{ACAD_REACTORS
330
D0
102
}
330
CC
100
AcDbEntity
  8
-DICHTUNG
100
AcDbCircle
 10
-0.0000000000241576
 20
-97.34816104632308
 30
0.0
 40
15.82842712474638
  0
CIRCLE
  5
D5
330
CC
100
AcDbEntity
  8
-NORMTEIL_VERDECKT
100
AcDbCircle
 10
-0.0000000000241576
 20
-97.34816104632308
 30
0.0
 40
26.0
  0
LINE
  5
D6
330
CC
100
AcDbEntity
  8
-SYSTEM
100
AcDbLine
 10
-0.0000000000242997
 20
-67.35159763662164
 30
0.0
 11
-0.0000000000240155
 21
-127.3447244560244
 31
0.0
  0
CIRCLE
  5
D7
330
CC
100
AcDbEntity
  8
-PROFILAUSSENKANTET
100
AcDbCircle
 10
-3.500000000024129
 20
-103.4103388728141
 30
0.0
 40
1.75
  0
CIRCLE
  5
D8
330
CC
100
AcDbEntity
  8
-PROFILAUSSENKANTET
100
AcDbCircle
 10
-3.500000000024171
 20
-91.28598321983199
 30
0.0
 40
1.75
  0
LWPOLYLINE
  5
D9
330
CC
100
AcDbEntity
  8
-TEXT2
100
AcDbPolyline
 90
        3
 70
     1
 43
0.0
 10
57.78044804003911
 20
-17.34816104632335
 10
61.91438540270016
 20
-10.18797149888712
 10
53.64651067737807
 20
-10.18797149888712
  0
MTEXT
  5
DA
330
CC
100
AcDbEntity
  8
-TEXT2
100
AcDbMText
 10
49.17713572762614
 20
-5.128944079777738
 30
0.0
 40
3.5
 41
17.9978
 71
     1
 72
     5
  1
{\fArial|b0|i0|c0|p34;Glaskante}
 73
     1
 44
1.0
1001
ACAD
1000
MTEXTBEGIN
1070
    73
1070
     1
1070
    44
1040
1.0
1070
    74
1070
     0
1000
MTEXTEND
  0
ENDBLK
  5
DB
330
CC
100
AcDbEntity
  8
0
100
AcDbBlockEnd
  0
BLOCK
  5
B7
330
B6
100
AcDbEntity
  8
0
100
AcDbBlockBegin
  2
*D5
 70
     1
 10
0.0
 20
0.0
 30
0.0
  3
*D5
  1

  0
LINE
  5
B8
330
B6
100
AcDbEntity
  8
-TEXT3
370
    -2
100
AcDbLine
 10
-12.49999999999996
 20
139.7377823305594
 30
0.0
 11
-12.49999999999996
 21
129.6535932440733
 31
0.0
  0
LINE
  5
B9
330
B6
100
AcDbEntity
  8
-TEXT3
370
    -2
100
AcDbLine
 10
12.50000000000051
 20
139.7377823305594
 30
0.0
 11
12.50000000000051
 21
129.6535932440733
 31
0.0
  0
LINE
  5
BA
330
B6
100
AcDbEntity
  8
-TEXT3
370
    -2
100
AcDbLine
 10
-8.999999999999957
 20
131.1535932440733
 30
0.0
 11
9.000000000000511
 21
131.1535932440733
 31
0.0
  0
SOLID
  5
BB
330
B6
100
AcDbEntity
  8
-TEXT3
100
AcDbTrace
 10
-8.999999999999957
 20
131.7369265774066
 30
0.0
 11
-8.999999999999957
 21
130.5702599107399
 31
0.0
 12
-12.49999999999996
 22
131.1535932440733
 32
0.0
 13
-12.49999999999996
 23
131.1535932440733
 33
0.0
  0
SOLID
  5
BC
330
B6
100
AcDbEntity
  8
-TEXT3
100
AcDbTrace
 10
9.000000000000511
 20
131.7369265774066
 30
0.0
 11
9.000000000000511
 21
130.5702599107399
 31
0.0
 12
12.50000000000051
 22
131.1535932440733
 32
0.0
 13
12.50000000000051
 23
131.1535932440733
 33
0.0
  0
MTEXT
  5
BD
330
B6
100
AcDbEntity
  8
-TEXT3
100
AcDbMText
 10
0.0000000000002773
 20
134.3792900489679
 30
0.0
 40
4.0
 41
0.0
 71
     5
 72
     1
  1
\A1;%%c25
 73
     1
 44
1.0
1001
ACAD
1000
MTEXTBEGIN
1070
    73
1070
     1
1070
    44
1040
1.0
1070
    74
1070
     0
1000
MTEXTEND
  0
POINT
  5
BE
330
B6
100
AcDbEntity
  8
DEFPOINTS
 62
     0
100
AcDbPoint
 10
-12.49999999999996
 20
141.7377823305594
 30
0.0
  0
POINT
  5
BF
330
B6
100
AcDbEntity
  8
DEFPOINTS
 62
     0
100
AcDbPoint
 10
12.50000000000051
 20
141.7377823305594
 30
0.0
  0
POINT
  5
C0
330
B6
100
AcDbEntity
  8
DEFPOINTS
 62
     0
100
AcDbPoint
 10
12.50000000000051
 20
131.1535932440733
 30
0.0
  0
ENDBLK
  5
C1
330
B6
100
AcDbEntity
  8
0
100
AcDbBlockEnd
  0
BLOCK
  5
8D
330
8C
100
AcDbEntity
  8
0
100
AcDbBlockBegin
  2
*D6
 70
     1
 10
0.0
 20
0.0
 30
0.0
  3
*D6
  1

  0
LINE
  5
8E
330
8C
100
AcDbEntity
  8
-TEXT3
370
    -2
100
AcDbLine
 10
-5.999999999951853
 20
109.7532823305593
 30
0.0
 11
-5.999999999951854
 21
94.84816104632306
 31
0.0
  0
LINE
  5
8F
330
8C
100
AcDbEntity
  8
-TEXT3
370
    -2
100
AcDbLine
 10
6.00000000000017
 20
109.7532823305593
 30
0.0
 11
6.000000000000169
 21
94.84816104632306
 31
0.0
  0
LINE
  5
90
330
8C
100
AcDbEntity
  8
-TEXT3
370
    -2
100
AcDbLine
 10
-2.499999999951854
 20
96.34816104632307
 30
0.0
 11
2.500000000000169
 21
96.34816104632307
 31
0.0
  0
LINE
  5
91
330
8C
100
AcDbEntity
  8
-TEXT3
370
    -2
100
AcDbLine
 10
6.000000000000169
 20
96.34816104632307
 30
0.0
 11
45.61828687967386
 21
96.34816104632307
 31
0.0
  0
SOLID
  5
92
330
8C
100
AcDbEntity
  8
-TEXT3
100
AcDbTrace
 10
-2.499999999951854
 20
96.93149437965638
 30
0.0
 11
-2.499999999951854
 21
95.76482771298973
 31
0.0
 12
-5.999999999951854
 22
96.34816104632307
 32
0.0
 13
-5.999999999951854
 23
96.34816104632307
 33
0.0
  0
SOLID
  5
93
330
8C
100
AcDbEntity
  8
-TEXT3
100
AcDbTrace
 10
2.500000000000169
 20
96.93149437965638
 30
0.0
 11
2.500000000000169
 21
95.76482771298973
 31
0.0
 12
6.000000000000169
 22
96.34816104632307
 32
0.0
 13
6.000000000000169
 23
96.34816104632307
 33
0.0
  0
MTEXT
  5
94
330
8C
100
AcDbEntity
  8
-TEXT3
100
AcDbMText
 10
27.55914343983702
 20
99.44877287501103
 30
0.0
 40
4.0
 41
0.0
 71
     5
 72
     1
  1
\A1;M12 od. M16
 73
     1
 44
1.0
1001
ACAD
1000
MTEXTBEGIN
1070
    73
1070
     1
1070
    44
1040
1.0
1070
    74
1070
     0
1000
MTEXTEND
  0
POINT
  5
95
330
8C
100
AcDbEntity
  8
DEFPOINTS
 62
     0
100
AcDbPoint
 10
-5.999999999951853
 20
111.7532823305593
 30
0.0
  0
POINT
  5
96
330
8C
100
AcDbEntity
  8
DEFPOINTS
 62
     0
100
AcDbPoint
 10
6.00000000000017
 20
111.7532823305593
 30
0.0
  0
POINT
  5
97
330
8C
100
AcDbEntity
  8
DEFPOINTS
 62
     0
100
AcDbPoint
 10
6.000000000000169
 20
96.34816104632307
 30
0.0
  0
ENDBLK
  5
98
330
8C
100
AcDbEntity
  8
0
100
AcDbBlockEnd
  0
BLOCK
  5
4B
330
4A
100
AcDbEntity
  8
0
100
AcDbBlockBegin
  2
*D7
 70
     1
 10
0.0
 20
0.0
 30
0.0
  3
*D7
  1

  0
LINE
  5
4C
330
4A
100
AcDbEntity
  8
-TEXT3
370
    -2
100
AcDbLine
 10
-13.49999999999994
 20
140.7377823305593
 30
0.0
 11
-56.29566251205236
 21
140.7377823305593
 31
0.0
  0
LINE
  5
4D
330
4A
100
AcDbEntity
  8
-TEXT3
370
    -2
100
AcDbLine
 10
-6.984499999999854
 20
110.7377823305593
 30
0.0
 11
-56.29566251205238
 21
110.7377823305593
 31
0.0
  0
LINE
  5
4E
330
4A
100
AcDbEntity
  8
-TEXT3
370
    -2
100
AcDbLine
 10
-54.79566251205237
 20
137.2377823305593
 30
0.0
 11
-54.79566251205237
 21
114.2377823305593
 31
0.0
  0
SOLID
  5
4F
330
4A
100
AcDbEntity
  8
-TEXT3
100
AcDbTrace
 10
-55.3789958453857
 20
137.2377823305593
 30
0.0
 11
-54.21232917871903
 21
137.2377823305593
 31
0.0
 12
-54.79566251205237
 22
140.7377823305593
 32
0.0
 13
-54.79566251205237
 23
140.7377823305593
 33
0.0
  0
SOLID
  5
50
330
4A
100
AcDbEntity
  8
-TEXT3
100
AcDbTrace
 10
-55.3789958453857
 20
114.2377823305593
 30
0.0
 11
-54.21232917871903
 21
114.2377823305593
 31
0.0
 12
-54.79566251205238
 22
110.7377823305593
 32
0.0
 13
-54.79566251205238
 23
110.7377823305593
 33
0.0
  0
MTEXT
  5
51
330
4A
100
AcDbEntity
  8
-TEXT3
100
AcDbMText
 10
-57.79566251205238
 20
125.7377823305593
 30
0.0
 40
4.0
 41
0.0
 71
     5
 72
     1
  1
\A1;D
 11
0.0000000000000001
 21
1.0
 31
0.0
 73
     1
 44
1.0
1001
ACAD
1000
MTEXTBEGIN
1070
    73
1070
     1
1070
    44
1040
1.0
1070
    74
1070
     0
1000
MTEXTEND
  0
POINT
  5
52
330
4A
100
AcDbEntity
  8
DEFPOINTS
 62
     0
100
AcDbPoint
 10
-11.49999999999994
 20
140.7377823305593
 30
0.0
  0
POINT
  5
53
330
4A
100
AcDbEntity
  8
DEFPOINTS
 62
     0
100
AcDbPoint
 10
-4.984499999999854
 20
110.7377823305593
 30
0.0
  0
POINT
  5
54
330
4A
100
AcDbEntity
  8
DEFPOINTS
 62
     0
100
AcDbPoint
 10
-54.79566251205238
 20
110.7377823305593
 30
0.0
  0
ENDBLK
  5
55
330
4A
100
AcDbEntity
  8
0
100
AcDbBlockEnd
  0
BLOCK
  5
3E
330
3D
100
AcDbEntity
  8
0
100
AcDbBlockBegin
  2
*D8
 70
     1
 10
0.0
 20
0.0
 30
0.0
  3
*D8
  1

  0
LINE
  5
3F
330
3D
100
AcDbEntity
  8
-TEXT3
370
    -2
100
AcDbLine
 10
-37.2956625120525
 20
157.7377823305593
 30
0.0
 11
-56.29566251205238
 21
157.7377823305593
 31
0.0
  0
LINE
  5
40
330
3D
100
AcDbEntity
  8
-TEXT3
370
    -2
100
AcDbLine
 10
-22.79566251205273
 20
140.7377823305594
 30
0.0
 11
-56.29566251205239
 21
140.7377823305594
 31
0.0
  0
LINE
  5
41
330
3D
100
AcDbEntity
  8
-TEXT3
370
    -2
100
AcDbLine
 10
-54.79566251205238
 20
154.2377823305593
 30
0.0
 11
-54.79566251205238
 21
144.2377823305594
 31
0.0
  0
SOLID
  5
42
330
3D
100
AcDbEntity
  8
-TEXT3
100
AcDbTrace
 10
-55.37899584538571
 20
154.2377823305593
 30
0.0
 11
-54.21232917871904
 21
154.2377823305593
 31
0.0
 12
-54.79566251205238
 22
157.7377823305593
 32
0.0
 13
-54.79566251205238
 23
157.7377823305593
 33
0.0
  0
SOLID
  5
43
330
3D
100
AcDbEntity
  8
-TEXT3
100
AcDbTrace
 10
-55.37899584538571
 20
144.2377823305594
 30
0.0
 11
-54.21232917871904
 21
144.2377823305594
 31
0.0
 12
-54.79566251205238
 22
140.7377823305594
 32
0.0
 13
-54.79566251205238
 23
140.7377823305594
 33
0.0
  0
MTEXT
  5
44
330
3D
100
AcDbEntity
  8
-TEXT3
100
AcDbMText
 10
-57.84596842639639
 20
149.2377823305593
 30
0.0
 40
4.0
 41
0.0
 71
     5
 72
     1
  1
\A1;17
 11
0.0000000000000001
 21
1.0
 31
0.0
 73
     1
 44
1.0
1001
ACAD
1000
MTEXTBEGIN
1070
    73
1070
     1
1070
    44
1040
1.0
1070
    74
1070
     0
1000
MTEXTEND
  0
POINT
  5
45
330
3D
100
AcDbEntity
  8
DEFPOINTS
 62
     0
100
AcDbPoint
 10
-35.2956625120525
 20
157.7377823305593
 30
0.0
  0
POINT
  5
46
330
3D
100
AcDbEntity
  8
DEFPOINTS
 62
     0
100
AcDbPoint
 10
-20.79566251205273
 20
140.7377823305594
 30
0.0
  0
POINT
  5
47
330
3D
100
AcDbEntity
  8
DEFPOINTS
 62
     0
100
AcDbPoint
 10
-54.79566251205238
 20
140.7377823305594
 30
0.0
  0
ENDBLK
  5
48
330
3D
100
AcDbEntity
  8
0
100
AcDbBlockEnd
  0
BLOCK
  5
2D
330
2C
100
AcDbEntity
  8
0
100
AcDbBlockBegin
  2
*D9
 70
     1
 10
0.0
 20
0.0
 30
0.0
  3
*D9
  1

  0
LINE
  5
2E
330
2C
100
AcDbEntity
  8
-TEXT3
370
    -2
100
AcDbLine
 10
-51.7043374879467
 20
161.7377823305594
 30
0.0
 11
-56.29566251205225
 21
161.7377823305594
 31
0.0
  0
LINE
  5
2F
330
2C
100
AcDbEntity
  8
-TEXT3
370
    -2
100
AcDbLine
 10
-27.99999999999972
 20
157.7377823305593
 30
0.0
 11
-56.29566251205225
 21
157.7377823305593
 31
0.0
  0
LINE
  5
30
330
2C
100
AcDbEntity
  8
-TEXT3
370
    -2
100
AcDbLine
 10
-54.79566251205224
 20
165.2377823305594
 30
0.0
 11
-54.79566251205224
 21
168.7377823305594
 31
0.0
  0
LINE
  5
31
330
2C
100
AcDbEntity
  8
-TEXT3
370
    -2
100
AcDbLine
 10
-54.79566251205224
 20
154.2377823305593
 30
0.0
 11
-54.79566251205224
 21
150.7377823305593
 31
0.0
  0
SOLID
  5
32
330
2C
100
AcDbEntity
  8
-TEXT3
100
AcDbTrace
 10
-55.37899584538558
 20
165.2377823305594
 30
0.0
 11
-54.21232917871891
 21
165.2377823305594
 31
0.0
 12
-54.79566251205224
 22
161.7377823305594
 32
0.0
 13
-54.79566251205224
 23
161.7377823305594
 33
0.0
  0
SOLID
  5
33
330
2C
100
AcDbEntity
  8
-TEXT3
100
AcDbTrace
 10
-55.37899584538558
 20
154.2377823305593
 30
0.0
 11
-54.21232917871891
 21
154.2377823305593
 31
0.0
 12
-54.79566251205224
 22
157.7377823305593
 32
0.0
 13
-54.79566251205224
 23
157.7377823305593
 33
0.0
  0
MTEXT
  5
34
330
2C
100
AcDbEntity
  8
-TEXT3
100
AcDbMText
 10
-57.84596842639626
 20
159.7377823305594
 30
0.0
 40
4.0
 41
0.0
 71
     5
 72
     1
  1
\A1;4
 11
0.0000000000000001
 21
1.0
 31
0.0
 73
     1
 44
1.0
1001
ACAD
1000
MTEXTBEGIN
1070
    73
1070
     1
1070
    44
1040
1.0
1070
    74
1070
     0
1000
MTEXTEND
  0
POINT
  5
35
330
2C
100
AcDbEntity
  8
DEFPOINTS
 62
     0
100
AcDbPoint
 10
-49.7043374879467
 20
161.7377823305594
 30
0.0
  0
POINT
  5
36
330
2C
100
AcDbEntity
  8
DEFPOINTS
 62
     0
100
AcDbPoint
 10
-25.99999999999972
 20
157.7377823305593
 30
0.0
  0
POINT
  5
37
330
2C
100
AcDbEntity
  8
DEFPOINTS
 62
     0
100
AcDbPoint
 10
-54.79566251205224
 20
157.7377823305593
 30
0.0
  0
ENDBLK
  5
38
330
2C
100
AcDbEntity
  8
0
100
AcDbBlockEnd
  0
ENDSEC
  0
SECTION
  2
ENTITIES
  0
LINE
  5
9
330
2
100
AcDbEntity
  8
-SYSTEM
100
AcDbLine
 10
-0.0000000000001705
 20
178.3631012300719
 30
0.0
 11
0.0000000000000568
 21
106.0273769622534
 31
0.0
  0
DIMENSION
  5
C
330
2
100
AcDbEntity
  8
-TEXT3
100
AcDbDimension
  2
*D2
 10
26.00000000000278
 20
189.3945228645564
 30
0.0
 11
0.0000000000015348
 21
189.3945228645564
 31
0.0
 70
   128
  1
%%c<>
 71
     5
 42
52.00000000000255
  3
1-1PRO
100
AcDbAlignedDimension
 13
-25.99999999999977
 23
173.7377823305605
 33
0.0
 14
26.00000000000278
 24
173.7377823305604
 34
0.0
100
AcDbRotatedDimension
1001
ACAD
1000
DSTYLE
1002
{
1002
}
  0
DIMENSION
  5
1E
330
2
100
AcDbEntity
  8
-TEXT3
100
AcDbDimension
  2
*D1
 10
12.99999999999983
 20
181.536523843455
 30
0.0
 11
-0.2472447114315628
 21
181.536523843455
 31
0.0
 70
   128
  1
%%c<>
 71
     5
 42
26.0
  3
1-1PRO
100
AcDbAlignedDimension
 13
-13.00000000000017
 23
173.7377823305599
 33
0.0
 14
12.99999999999983
 24
173.7377823305599
 34
0.0
100
AcDbRotatedDimension
1001
ACAD
1000
DSTYLE
1002
{
1002
}
  0
DIMENSION
  5
2B
330
2
100
AcDbEntity
  8
-TEXT3
100
AcDbDimension
  2
*D9
 10
-54.79566251205224
 20
157.7377823305593
 30
0.0
 11
-54.79566251205227
 21
159.7377823305594
 31
0.0
 70
   128
 71
     5
 42
4.000000000000113
  3
1-1PRO
100
AcDbAlignedDimension
 13
-49.7043374879467
 23
161.7377823305594
 33
0.0
 14
-25.99999999999972
 24
157.7377823305593
 34
0.0
 50
90.0
100
AcDbRotatedDimension
  0
LINE
  5
39
330
2
100
AcDbEntity
  8
-VERGLASUNG
100
AcDbLine
 10
-45.394729231089
 20
161.7377821184271
 30
0.0
 11
-41.50085441146297
 21
165.6316569380531
 31
0.0
  0
LINE
  5
3B
330
2
100
AcDbEntity
  8
-VERGLASUNG
100
AcDbLine
 10
-43.832229231089
 20
161.7377821184271
 30
0.0
 11
-39.93835441146297
 21
165.631656938053
 31
0.0
  0
DIMENSION
  5
3C
330
2
100
AcDbEntity
  8
-TEXT3
100
AcDbDimension
  2
*D8
 10
-54.79566251205238
 20
140.7377823305594
 30
0.0
 11
-57.84596842639639
 21
149.2377823305593
 31
0.0
 71
     5
 42
16.99999999999994
  3
1-1PRO
100
AcDbAlignedDimension
 13
-35.2956625120525
 23
157.7377823305593
 33
0.0
 14
-20.79566251205273
 24
140.7377823305594
 34
0.0
 50
90.0
100
AcDbRotatedDimension
  0
DIMENSION
  5
49
330
2
100
AcDbEntity
  8
-TEXT3
100
AcDbDimension
  2
*D7
 10
-54.79566251205238
 20
110.7377823305593
 30
0.0
 11
-57.79566251205238
 21
125.7377823305593
 31
0.0
  1
D
 71
     5
 42
30.00000000000002
  3
1-1PRO
100
AcDbAlignedDimension
 13
-11.49999999999994
 23
140.7377823305593
 33
0.0
 14
-4.984499999999854
 24
110.7377823305593
 34
0.0
 50
270.0
100
AcDbRotatedDimension
1001
ACAD
1000
DSTYLE
1002
{
1002
}
  0
DIMENSION
  5
56
330
2
100
AcDbEntity
  8
-TEXT3
100
AcDbDimension
  2
*D0
 10
-54.79566251205227
 20
161.7377823305594
 30
0.0
 11
-57.89627434074027
 21
167.7377823305598
 31
0.0
  1
G
 71
     5
 42
12.00000000000068
  3
1-1PRO
100
AcDbAlignedDimension
 13
-49.7043374879467
 23
173.7377823305601
 33
0.0
 14
-49.7043374879467
 24
161.7377823305594
 34
0.0
 50
90.0
100
AcDbRotatedDimension
  0
LINE
  5
63
330
2
100
AcDbEntity
  8
-VERGLASUNG
100
AcDbLine
 10
-47.04981466707971
 20
169.8439072988017
 30
0.0
 11
-43.15593984745368
 21
173.7377821184278
 31
0.0
  0
LINE
  5
64
330
2
100
AcDbEntity
  8
-VERGLASUNG
100
AcDbLine
 10
-48.61231466707971
 20
169.8439072988017
 30
0.0
 11
-44.71843984745368
 21
173.7377821184278
 31
0.0
  0
LINE
  5
65
330
2
100
AcDbEntity
  8
-VERGLASUNG
100
AcDbLine
 10
-50.17481466707971
 20
169.8439072988017
 30
0.0
 11
-46.28093984745368
 21
173.7377821184278
 31
0.0
  0
LINE
  5
66
330
2
100
AcDbEntity
  8
-VERGLASUNG
100
AcDbLine
 10
-46.957229231089
 20
161.7377821184271
 30
0.0
 11
-43.06335441146297
 21
165.6316569380531
 31
0.0
  0
ARC
  5
67
330
2
100
AcDbEntity
  8
-PROFILAUSSENKANTET
100
AcDbCircle
 10
11.50000000000051
 20
141.7377823305594
 30
0.0
 40
1.0
100
AcDbArc
 50
269.9999999999998
 51
359.9999999999998
  0
ARC
  5
69
330
2
100
AcDbEntity
  8
-PROFILAUSSENKANTET
100
AcDbCircle
 10
-11.49999999999994
 20
141.7377823305594
 30
0.0
 40
1.0
100
AcDbArc
 50
179.9999999999998
 51
269.9999999999998
  0
LWPOLYLINE
  5
6A
330
2
100
AcDbEntity
  8
-PROFILAUSSENKANTET
100
AcDbPolyline
 90
       12
 70
     0
 43
0.0
 10
12.50000000000028
 20
147.649742319695
 42
-0.359993514460748
 10
14.45805693252992
 20
150.4629886018663
 10
25.34731435582336
 20
153.4960469067901
 42
0.3137493583979839
 10
26.00000000000006
 20
154.4337956675137
 10
26.00000000000028
 20
157.7377823305592
 10
10.00000000000028
 20
157.7377823305592
 10
26.00000000000028
 20
157.7377823305592
 10
-25.9999999999997
 20
157.7377823305593
 10
-25.9999999999997
 20
154.4337956675142
 42
0.3137493583978978
 10
-25.34731435582323
 20
153.4960469067904
 10
-14.45805693252868
 20
150.4629886018667
 42
-0.3599935144608335
 10
-12.49999999999971
 20
147.6497423196956
  0
LINE
  5
6B
330
2
100
AcDbEntity
  8
-SCHRAFFUR
100
AcDbLine
 10
26.00000000000006
 20
154.4337956675141
 30
0.0
 11
-25.99999999999972
 21
154.4337956675142
 31
0.0
  0
LINE
  5
6D
330
2
100
AcDbEntity
  8
-NORMTEIL_VERDECKT
100
AcDbLine
 10
-12.0800000000001
 20
161.7377823305595
 30
0.0
 11
12.07999999999975
 21
161.7377823305595
 31
0.0
  0
LINE
  5
70
330
2
100
AcDbEntity
  8
-NORMTEIL_VERDECKT
100
AcDbLine
 10
-17.07999999999998
 20
161.7377823305593
 30
0.0
 11
17.07999999999987
 21
161.7377823305593
 31
0.0
  0
LINE
  5
71
330
2
100
AcDbEntity
  8
-NORMTEIL_VERDECKT
100
AcDbLine
 10
-12.07999999999941
 20
161.7377823305593
 30
0.0
 11
12.08000000000044
 21
161.7377823305593
 31
0.0
  0
LINE
  5
72
330
2
100
AcDbEntity
  8
-SCHRAFFUR
100
AcDbLine
 10
12.50000000000028
 20
147.649742319695
 30
0.0
 11
-12.49999999999971
 21
147.6497423196956
 31
0.0
  0
LINE
  5
73
330
2
100
AcDbEntity
  8
-NORMTEIL_VERDECKT
100
AcDbLine
 10
-3.999999999999943
 20
161.0714452452621
 30
0.0
 11
4.000000000000056
 21
161.0714452452621
 31
0.0
  0
LINE
  5
74
330
2
100
AcDbEntity
  8
-NORMTEIL_VERDECKT
100
AcDbLine
 10
-3.999999999999943
 20
161.0714452452621
 30
0.0
 11
4.000000000000056
 21
161.0714452452621
 31
0.0
  0
LINE
  5
75
330
2
100
AcDbEntity
  8
-NORMTEIL_VERDECKT
100
AcDbLine
 10
-3.999999999999943
 20
161.0714452452621
 30
0.0
 11
4.000000000000056
 21
161.0714452452621
 31
0.0
  0
LINE
  5
76
330
2
100
AcDbEntity
  8
-SCHRAFFUR
100
AcDbLine
 10
12.50000000000028
 20
141.7377823305594
 30
0.0
 11
-12.49999999999994
 21
141.7377823305594
 31
0.0
  0
LINE
  5
77
330
2
100
AcDbEntity
  8
-PROFILAUSSENKANTET
100
AcDbLine
 10
-11.49999999999994
 20
140.7377823305594
 30
0.0
 11
11.50000000000051
 21
140.7377823305594
 31
0.0
  0
LINE
  5
78
330
2
100
AcDbEntity
  8
-VERGLASUNG
100
AcDbLine
 10
-26.2470577129572
 20
169.8439073695124
 30
0.0
 11
-22.35318289333116
 21
173.7377821891385
 31
0.0
  0
LINE
  5
79
330
2
100
AcDbEntity
  8
-VERGLASUNG
100
AcDbLine
 10
-23.1220577129572
 20
169.8439073695124
 30
0.0
 11
-19.22818289333116
 21
173.7377821891385
 31
0.0
  0
LINE
  5
7A
330
2
100
AcDbEntity
  8
-VERGLASUNG
100
AcDbLine
 10
-24.6845577129572
 20
169.8439073695124
 30
0.0
 11
-20.79068289333116
 21
173.7377821891385
 31
0.0
  0
LINE
  5
7B
330
2
100
AcDbEntity
  8
-NORMTEIL_VERDECKT
100
AcDbLine
 10
-18.00000000000028
 20
161.7377823305595
 30
0.0
 11
-12.0800000000001
 21
161.7377823305595
 31
0.0
  0
LINE
  5
7C
330
2
100
AcDbEntity
  8
-NORMTEIL_VERDECKT
100
AcDbLine
 10
-17.9999999999996
 20
161.7377823305593
 30
0.0
 11
-12.07999999999941
 21
161.7377823305593
 31
0.0
  0
LINE
  5
7D
330
2
100
AcDbEntity
  8
-VERGLASUNG
100
AcDbLine
 10
-23.02947227696649
 20
161.7377821891378
 30
0.0
 11
-19.13559745734045
 21
165.6316570087638
 31
0.0
  0
LINE
  5
7E
330
2
100
AcDbEntity
  8
-VERGLASUNG
100
AcDbLine
 10
-21.46697227696649
 20
161.7377821891378
 30
0.0
 11
-17.57309745734045
 21
165.6316570087638
 31
0.0
  0
LINE
  5
7F
330
2
100
AcDbEntity
  8
-VERGLASUNG
100
AcDbLine
 10
-19.90447227696648
 20
161.7377821891378
 30
0.0
 11
-16.01059745734045
 21
165.6316570087637
 31
0.0
  0
LINE
  5
80
330
2
100
AcDbEntity
  8
-PROFILAUSSENKANTET
100
AcDbLine
 10
-12.49999999999994
 20
141.7377823305594
 30
0.0
 11
-12.49999999999971
 21
147.6497423196956
 31
0.0
  0
LINE
  5
81
330
2
100
AcDbEntity
  8
-NORMTEIL_VERDECKT
100
AcDbLine
 10
23.00000000000006
 20
161.7377823305593
 30
0.0
 11
17.07999999999987
 21
161.7377823305593
 31
0.0
  0
LINE
  5
82
330
2
100
AcDbEntity
  8
-NORMTEIL_VERDECKT
100
AcDbLine
 10
17.99999999999994
 20
161.7377823305595
 30
0.0
 11
12.07999999999975
 21
161.7377823305595
 31
0.0
  0
LINE
  5
83
330
2
100
AcDbEntity
  8
-NORMTEIL_VERDECKT
100
AcDbLine
 10
18.00000000000062
 20
161.7377823305593
 30
0.0
 11
12.08000000000044
 21
161.7377823305593
 31
0.0
  0
LINE
  5
84
330
2
100
AcDbEntity
  8
-PROFILAUSSENKANTET
100
AcDbLine
 10
9.000000000000511
 20
157.7377823305593
 30
0.0
 11
10.00000000000028
 21
157.7377823305593
 31
0.0
  0
LINE
  5
85
330
2
100
AcDbEntity
  8
-PROFILAUSSENKANTET
100
AcDbLine
 10
12.50000000000028
 20
147.6497423196951
 30
0.0
 11
12.50000000000028
 21
141.7377823305593
 31
0.0
  0
LWPOLYLINE
  5
86
330
2
100
AcDbEntity
  8
-NORMTEIL
100
AcDbPolyline
 90
        6
 70
     0
 43
0.0
 10
-5.999999999999829
 20
140.7377823305593
 10
-5.999999999999829
 20
111.7532823305592
 10
-4.984499999999854
 20
110.7377823305593
 10
4.98450000000065
 20
110.7377823305593
 10
6.00000000000017
 20
111.7532823305592
 10
6.00000000000017
 20
140.737782330559
  0
LINE
  5
88
330
2
100
AcDbEntity
  8
-NORMTEIL_VERDECKT
  6
Continuous
100
AcDbLine
 10
-5.999999999999829
 20
111.7532823305593
 30
0.0
 11
6.00000000000017
 21
111.7532823305593
 31
0.0
  0
LINE
  5
89
330
2
100
AcDbEntity
  8
-NORMTEIL_VERDECKT
  6
Continuous
100
AcDbLine
 10
-5.999999999999829
 20
111.7532823305593
 30
0.0
 11
6.00000000000017
 21
111.7532823305593
 31
0.0
  0
LINE
  5
8A
330
2
100
AcDbEntity
  8
-NORMTEIL_VERDECKT
  6
Continuous
100
AcDbLine
 10
-5.999999999999829
 20
111.7532823305593
 30
0.0
 11
6.00000000000017
 21
111.7532823305593
 31
0.0
  0
DIMENSION
  5
8B
330
2
100
AcDbEntity
  8
-TEXT3
100
AcDbDimension
  2
*D6
 10
6.000000000000169
 20
96.34816104632307
 30
0.0
 11
27.55914343983702
 21
99.44877287501103
 31
0.0
  1
M<> od. M16
 71
     5
 42
11.99999999995202
  3
1-1PRO
100
AcDbAlignedDimension
 13
-5.999999999951853
 23
111.7532823305593
 33
0.0
 14
6.00000000000017
 24
111.7532823305593
 34
0.0
100
AcDbRotatedDimension
  0
LINE
  5
99
330
2
100
AcDbEntity
  8
-NORMTEIL_VERDECKT
  6
Continuous
100
AcDbLine
 10
-4.984499999999854
 20
110.7377823305593
 30
0.0
 11
-4.984499999999854
 21
140.7377823305594
 31
0.0
  0
LINE
  5
9A
330
2
100
AcDbEntity
  8
-NORMTEIL_VERDECKT
  6
Continuous
100
AcDbLine
 10
4.98450000000065
 20
110.7377823305593
 30
0.0
 11
4.98450000000065
 21
140.7377823305592
 31
0.0
  0
LWPOLYLINE
  5
9B
330
2
100
AcDbEntity
  8
-NORMTEIL_VERDECKT
100
AcDbPolyline
 90
        4
 70
     1
 43
0.0
 10
8.999999999999801
 20
161.7377823305593
 10
10.4999999999998
 20
161.7377823305593
 10
10.49999999999977
 20
167.7377823305599
 10
8.999999999999829
 20
167.7377823305599
  0
LWPOLYLINE
  5
9C
330
2
100
AcDbEntity
  8
-NORMTEIL_VERDECKT
100
AcDbPolyline
 90
        4
 70
     1
 43
0.0
 10
-9.000000000000198
 20
161.7377823305593
 10
-10.5000000000002
 20
161.7377823305593
 10
-10.50000000000022
 20
167.7377823305599
 10
-9.000000000000227
 20
167.7377823305599
  0
LWPOLYLINE
  5
9D
330
2
100
AcDbEntity
  8
-NORMTEIL_VERDECKT
100
AcDbPolyline
 90
        4
 70
     0
 43
0.0
 10
-3.458500000000185
 20
167.7377823305599
 10
-9.000000000000227
 20
167.7377823305599
 10
-9.000000000000227
 20
157.7377823305593
 10
3.612499999999613
 20
157.7377823305593
  0
LWPOLYLINE
  5
9E
330
2
100
AcDbEntity
  8
-NORMTEIL_VERDECKT
100
AcDbPolyline
 90
        4
 70
     0
 43
0.0
 10
3.612499999999613
 20
157.7377823305593
 10
8.999999999999772
 20
157.7377823305593
 10
8.999999999999772
 20
167.7377823305599
 10
-3.458500000000185
 20
167.7377823305599
  0
LWPOLYLINE
  5
9F
330
2
100
AcDbEntity
  8
-NORMTEIL_VERDECKT
100
AcDbPolyline
 90
        4
 70
     0
 43
0.0
 10
-13.00000000000017
 20
173.7377823305599
 10
12.99999999999983
 20
173.7377823305599
 10
8.999999999999829
 20
169.7377823305599
 10
-9.00000000000017
 20
169.7377823305599
  0
LWPOLYLINE
  5
A0
330
2
100
AcDbEntity
  8
-NORMTEIL_VERDECKT
100
AcDbPolyline
 90
        5
 70
     0
 43
0.0
 10
5.249999999999829
 20
173.7377823305594
 10
5.249999999999829
 20
170.7377823305594
 10
6.999999999999829
 20
169.7377823305594
 10
8.749999999999829
 20
170.7377823305594
 10
8.749999999999829
 20
173.7377823305594
  0
LINE
  5
A1
330
2
100
AcDbEntity
  8
-NORMTEIL_VERDECKT
100
AcDbLine
 10
5.249999999999829
 20
170.7377823305594
 30
0.0
 11
8.749999999999829
 21
170.7377823305594
 31
0.0
  0
LWPOLYLINE
  5
A2
330
2
100
AcDbEntity
  8
-NORMTEIL_VERDECKT
100
AcDbPolyline
 90
        5
 70
     0
 43
0.0
 10
-5.27198116402809
 20
173.7377823305599
 10
-5.27198116402809
 20
170.7377823305599
 10
-3.499999999999943
 20
169.7377823305599
 10
-1.771981164028545
 20
170.7377823305599
 10
-1.771981164028318
 20
173.7377823305599
  0
LINE
  5
A3
330
2
100
AcDbEntity
  8
-NORMTEIL_VERDECKT
100
AcDbLine
 10
-5.27198116402809
 20
170.7377823305599
 30
0.0
 11
-1.771981164028545
 21
170.7377823305599
 31
0.0
  0
LINE
  5
A4
330
2
100
AcDbEntity
  8
-SCHRAFFUR
100
AcDbLine
 10
-4.00000000000017
 20
158.3512823305599
 30
0.0
 11
3.999999999999829
 21
158.3512823305599
 31
0.0
  0
LWPOLYLINE
  5
A5
330
2
100
AcDbEntity
  8
-NORMTEIL_VERDECKT
100
AcDbPolyline
 90
        7
 70
     0
 43
0.0
 10
12.99999999999983
 20
173.7377823305599
 10
15.82842712474604
 20
173.7377823305599
 10
10.99999999999983
 20
168.9093552058138
 10
10.99999999999983
 20
167.7377823305599
 10
8.999999999999829
 20
167.7377823305599
 10
8.999999999999829
 20
169.7377823305599
 10
12.99999999999983
 20
173.7377823305599
  0
LWPOLYLINE
  5
A6
330
2
100
AcDbEntity
  8
-NORMTEIL_VERDECKT
100
AcDbPolyline
 90
        7
 70
     0
 43
0.0
 10
-13.00000000000017
 20
173.7377823305599
 10
-15.82842712474638
 20
173.7377823305599
 10
-11.00000000000017
 20
168.9093552058138
 10
-11.00000000000017
 20
167.7377823305599
 10
-9.00000000000017
 20
167.7377823305599
 10
-9.00000000000017
 20
169.7377823305599
 10
-13.00000000000017
 20
173.7377823305599
  0
LINE
  5
A7
330
2
100
AcDbEntity
  8
-VERGLASUNG
100
AcDbLine
 10
20.13803538160374
 20
161.7377821184269
 30
0.0
 11
24.03191020122978
 21
165.6316569380529
 31
0.0
  0
LINE
  5
A8
330
2
100
AcDbEntity
  8
-VERGLASUNG
100
AcDbLine
 10
18.48294994561303
 20
169.8439072988015
 30
0.0
 11
22.37682476523906
 21
173.7377821184275
 31
0.0
  0
LINE
  5
A9
330
2
100
AcDbEntity
  8
-VERGLASUNG
100
AcDbLine
 10
16.92044994561303
 20
169.8439072988015
 30
0.0
 11
20.81432476523906
 21
173.7377821184275
 31
0.0
  0
LINE
  5
AA
330
2
100
AcDbEntity
  8
-VERGLASUNG
100
AcDbLine
 10
18.57553538160374
 20
161.7377821184269
 30
0.0
 11
22.46941020122978
 21
165.6316569380529
 31
0.0
  0
LINE
  5
AB
330
2
100
AcDbEntity
  8
-VERGLASUNG
100
AcDbLine
 10
15.35794994561303
 20
169.8439072988015
 30
0.0
 11
19.25182476523906
 21
173.7377821184275
 31
0.0
  0
LINE
  5
AC
330
2
100
AcDbEntity
  8
-VERGLASUNG
100
AcDbLine
 10
21.70053538160374
 20
161.7377821184269
 30
0.0
 11
25.59441020122978
 21
165.6316569380528
 31
0.0
  0
LINE
  5
AD
330
2
100
AcDbEntity
  8
-VERGLASUNG
100
AcDbLine
 10
42.41070689973554
 20
169.8439073695122
 30
0.0
 11
46.30458171936157
 21
173.7377821891382
 31
0.0
  0
LINE
  5
AE
330
2
100
AcDbEntity
  8
-VERGLASUNG
100
AcDbLine
 10
39.28570689973554
 20
169.8439073695122
 30
0.0
 11
43.17958171936157
 21
173.7377821891382
 31
0.0
  0
LINE
  5
AF
330
2
100
AcDbEntity
  8
-VERGLASUNG
100
AcDbLine
 10
40.84820689973554
 20
169.8439073695122
 30
0.0
 11
44.74208171936157
 21
173.7377821891382
 31
0.0
  0
LINE
  5
B0
330
2
100
AcDbEntity
  8
-VERGLASUNG
100
AcDbLine
 10
44.06579233572625
 20
161.7377821891376
 30
0.0
 11
47.95966715535229
 21
165.6316570087636
 31
0.0
  0
LINE
  5
B1
330
2
100
AcDbEntity
  8
-VERGLASUNG
100
AcDbLine
 10
42.50329233572625
 20
161.7377821891376
 30
0.0
 11
46.39716715535229
 21
165.6316570087636
 31
0.0
  0
LINE
  5
B2
330
2
100
AcDbEntity
  8
-VERGLASUNG
100
AcDbLine
 10
45.62829233572625
 20
161.7377821891376
 30
0.0
 11
49.52216715535229
 21
165.6316570087635
 31
0.0
  0
LINE
  5
B3
330
2
100
AcDbEntity
  8
-SCHRAFFUR
100
AcDbLine
 10
25.34731435582336
 20
153.4960469067901
 30
0.0
 11
-25.34731435582325
 21
153.4960469067904
 31
0.0
  0
LINE
  5
B4
330
2
100
AcDbEntity
  8
-SCHRAFFUR
100
AcDbLine
 10
14.45805693252992
 20
150.4629886018663
 30
0.0
 11
-14.45805693252868
 21
150.4629886018662
 31
0.0
  0
DIMENSION
  5
B5
330
2
100
AcDbEntity
  8
-TEXT3
100
AcDbDimension
  2
*D5
 10
12.50000000000051
 20
131.1535932440733
 30
0.0
 11
0.0000000000002773
 21
134.3792900489679
 31
0.0
  1
%%c<>
 71
     5
 42
25.00000000000047
  3
1-1PRO
100
AcDbAlignedDimension
 13
-12.49999999999996
 23
141.7377823305594
 33
0.0
 14
12.50000000000051
 24
141.7377823305594
 34
0.0
100
AcDbRotatedDimension
  0
INSERT
  5
C2
330
2
100
AcDbEntity
  8
-TEXT2
100
AcDbBlockReference
  2
A$C12D21FE6
 10
-3.999999958138602
 20
157.7377822693271
 30
0.0
  0
INSERT
  5
CB
330
2
100
AcDbEntity
  8
-TEXT2
100
AcDbBlockReference
  2
ANSICHT2652
 10
0.0000000000241585
 20
97.34816104632306
 30
0.0
  0
LINE
  5
DC
330
2
100
AcDbEntity
  8
-VERGLASUNG
100
AcDbLine
 10
66.33846385385806
 20
169.8439074402229
 30
0.0
 11
70.23233867348409
 21
173.737782259849
 31
0.0
  0
LINE
  5
DD
330
2
100
AcDbEntity
  8
-VERGLASUNG
100
AcDbLine
 10
67.99354928984877
 20
161.7377822598483
 30
0.0
 11
71.8874241094748
 21
165.6316570794743
 31
0.0
  0
LINE
  5
DE
330
2
100
AcDbEntity
  8
-VERGLASUNG
100
AcDbLine
 10
66.43104928984877
 20
161.7377822598483
 30
0.0
 11
70.3249241094748
 21
165.6316570794743
 31
0.0
  0
LINE
  5
DF
330
2
100
AcDbEntity
  8
-VERGLASUNG
100
AcDbLine
 10
63.21346385385806
 20
169.8439074402229
 30
0.0
 11
67.10733867348409
 21
173.737782259849
 31
0.0
  0
LINE
  5
E0
330
2
100
AcDbEntity
  8
-VERGLASUNG
100
AcDbLine
 10
64.77596385385806
 20
169.8439074402229
 30
0.0
 11
68.66983867348409
 21
173.737782259849
 31
0.0
  0
LINE
  5
E1
330
2
100
AcDbEntity
  8
-VERGLASUNG
100
AcDbLine
 10
69.55604928984877
 20
161.7377822598483
 30
0.0
 11
73.4499241094748
 21
165.6316570794742
 31
0.0
  0
LWPOLYLINE
  5
E2
330
2
100
AcDbEntity
  8
-VERGLASUNG
100
AcDbPolyline
 90
        6
 70
     0
 43
0.0
 10
-49.7043374879467
 20
173.7377823305601
 10
77.99999999999989
 20
173.7377823305595
 10
79.99999999999989
 20
171.7377823305595
 10
79.99999999999989
 20
163.737782330559
 10
77.99999999999989
 20
161.737782330559
 10
-49.7043374879467
 20
161.7377823305594
  0
LWPOLYLINE
  5
E3
102
{ACAD_REACTORS
330
E4
102
}
330
2
100
AcDbEntity
  8
-DICHTUNG
100
AcDbPolyline
 90
        4
 70
     1
 43
0.0
 10
-25.50000000000011
 20
157.7377823305593
 10
25.49999999999989
 20
157.7377823305593
 10
25.49999999999989
 20
161.7377823305593
 10
-25.50000000000011
 20
161.7377823305593
  0
HATCH
  5
E4
330
2
100
AcDbEntity
  8
-SCHRAFFUR
100
AcDbHatch
 10
0.0
 20
0.0
 30
0.0
210
0.0
220
0.0
230
1.0
  2
SOLID
 70
     1
 71
     1
 91
        1
 92
        1
 93
        4
 72
     1
 10
-25.50000000000011
 20
157.7377823305593
 11
25.49999999999989
 21
157.7377823305593
 72
     1
 10
25.49999999999989
 20
157.7377823305593
 11
25.49999999999989
 21
161.7377823305593
 72
     1
 10
25.49999999999989
 20
161.7377823305593
 11
-25.50000000000011
 21
161.7377823305593
 72
     1
 10
-25.50000000000011
 20
161.7377823305593
 11
-25.50000000000011
 21
157.7377823305593
 97
        1
330
E3
 75
     0
 76
     1
 98
        1
 10
146.0568000120864
 20
-23.96147834232636
  0
ENDSEC
  0
SECTION
  2
OBJECTS
  0
DICTIONARY
  5
7
330
0
100
AcDbDictionary
281
     1
  3
ACAD_COLOR
350
FD
  3
ACAD_GROUP
350
F9
  3
ACAD_LAYOUT
350
E7
  3
ACAD_MATERIAL
350
FC
  3
ACAD_MLINESTYLE
350
FA
  3
ACAD_PLOTSETTINGS
350
FB
  3
ACAD_PLOTSTYLENAME
350
6
  3
ACDBHEADERROUNDTRIPXREC
350
103
  3
AcDbVariableDictionary
350
FF
  0
DICTIONARY
  5
FD
102
{ACAD_REACTORS
330
7
102
}
330
7
100
AcDbDictionary
281
     1
  0
DICTIONARY
  5
F9
102
{ACAD_REACTORS
330
7
102
}
330
7
100
AcDbDictionary
281
     1
  0
DICTIONARY
  5
E7
102
{ACAD_REACTORS
330
7
102
}
330
7
100
AcDbDictionary
281
     1
  3
Layout1
350
EB
  3
Model
350
E6
  0
DICTIONARY
  5
FC
102
{ACAD_REACTORS
330
7
102
}
330
7
100
AcDbDictionary
281
     1
  0
DICTIONARY
  5
FA
102
{ACAD_REACTORS
330
7
102
}
330
7
100
AcDbDictionary
281
     1
  3
STANDARD
350
FE
  0
DICTIONARY
  5
FB
102
{ACAD_REACTORS
330
7
102
}
330
7
100
AcDbDictionary
281
     1
  0
ACDBDICTIONARYWDFLT
  5
6
102
{ACAD_REACTORS
330
7
102
}
330
7
100
AcDbDictionary
281
     1
  3
Normal
350
5
100
AcDbDictionaryWithDefault
340
5
  0
DICTIONARY
  5
103
102
{ACAD_REACTORS
330
7
102
}
330
7
100
AcDbDictionary
281
     1
  3
COLORDICT
350
105
  3
MATERIALDICT
350
104
  0
DICTIONARY
  5
FF
102
{ACAD_REACTORS
330
7
102
}
330
7
100
AcDbDictionary
281
     1
  3
DIMASSOC
350
101
  3
HIDETEXT
350
100
  3
PROJECTNAME
350
102
  0
LAYOUT
  5
EB
102
{ACAD_XDICTIONARY
360
10A
102
}
102
{ACAD_REACTORS
330
E7
102
}
330
E7
100
AcDbPlotSettings
  1

  2
HP DeskJet 1120C Printer
  4

  6

 40
0.0
 41
0.0
 42
0.0
 43
0.0
 44
0.0
 45
0.0
 46
0.0
 47
0.0
 48
0.0
 49
0.0
140
0.0
141
0.0
142
1.0
143
1.0
 70
   688
 72
     0
 73
     0
 74
     5
  7

 75
    16
147
1.0
148
0.0
149
0.0
100
AcDbLayout
  1
Layout1
 70
     1
 71
     1
 10
0.0
 20
0.0
 11
12.0
 21
9.0
 12
0.0
 22
0.0
 32
0.0
 14
1.000000000000000E+20
 24
1.000000000000000E+20
 34
1.000000000000000E+20
 15
-1.000000000000000E+20
 25
-1.000000000000000E+20
 35
-1.000000000000000E+20
146
0.0
 13
0.0
 23
0.0
 33
0.0
 16
1.0
 26
0.0
 36
0.0
 17
0.0
 27
1.0
 37
0.0
 76
     0
330
E8
  0
LAYOUT
  5
E6
102
{ACAD_XDICTIONARY
360
108
102
}
102
{ACAD_REACTORS
330
E7
102
}
330
E7
100
AcDbPlotSettings
  1

  2
HP DeskJet 1120C Printer
  4
A4
  6

 40
4.180416584014892
 41
13.49374103546142
 42
4.180404663085937
 43
3.757080078125
 44
209.9733276367187
 45
296.9259948730469
 46
0.0
 47
0.0
 48
0.0
 49
0.0
140
0.0
141
0.0
142
1.0
143
1.0
 70
 11952
 72
     0
 73
     1
 74
     0
  7

 75
     0
147
1.0
148
253.3352544871185
149
24.73525342261649
100
AcDbLayout
  1
Model
 70
     1
 71
     0
 10
0.0
 20
0.0
 11
12.0
 21
9.0
 12
0.0
 22
0.0
 32
0.0
 14
0.0
 24
0.0
 34
0.0
 15
0.0
 25
0.0
 35
0.0
146
0.0
 13
0.0
 23
0.0
 33
0.0
 16
1.0
 26
0.0
 36
0.0
 17
0.0
 27
1.0
 37
0.0
 76
     0
330
2
  0
MLINESTYLE
  5
FE
102
{ACAD_REACTORS
330
FA
102
}
330
FA
100
AcDbMlineStyle
  2
STANDARD
 70
     0
  3

 62
     0
 51
90.0
 52
90.0
 71
     2
 49
0.5
 62
   256
  6
BYLAYER
 49
-0.5
 62
   256
  6
BYLAYER
  0
ACDBPLACEHOLDER
  5
5
102
{ACAD_REACTORS
330
6
102
}
330
6
  0
XRECORD
  5
105
102
{ACAD_REACTORS
330
103
102
}
330
103
100
AcDbXrecord
280
     1
340
FD
  0
XRECORD
  5
104
102
{ACAD_REACTORS
330
103
102
}
330
103
100
AcDbXrecord
280
     1
340
FC
  0
DICTIONARYVAR
  5
101
102
{ACAD_REACTORS
330
FF
102
}
330
FF
100
DictionaryVariables
280
     0
  1
1
  0
DICTIONARYVAR
  5
100
102
{ACAD_REACTORS
330
FF
102
}
330
FF
100
DictionaryVariables
280
     0
  1
1
  0
DICTIONARYVAR
  5
102
102
{ACAD_REACTORS
330
FF
102
}
330
FF
100
DictionaryVariables
280
     0
  1

  0
DICTIONARY
  5
10A
330
EB
100
AcDbDictionary
280
     1
281
     1
  3
ACAD_XREC_ROUNDTRIP
360
10B
  0
DICTIONARY
  5
108
330
E6
100
AcDbDictionary
280
     1
281
     1
  3
ACAD_XREC_ROUNDTRIP
360
109
  0
XRECORD
  5
10B
102
{ACAD_REACTORS
330
10A
102
}
330
10A
100
AcDbXrecord
280
     1
102
SHADEPLOT
 70
     0
102
SHADEPLOTRESLEVEL
 70
     2
102
SHADEPLOTCUSTOMDPI
 70
   300
  0
XRECORD
  5
109
102
{ACAD_REACTORS
330
108
102
}
330
108
100
AcDbXrecord
280
     1
102
SHADEPLOT
 70
     0
102
SHADEPLOTRESLEVEL
 70
     2
102
SHADEPLOTCUSTOMDPI
 70
   300
  0
ENDSEC
  0
EOF
