  0
SECTION
  2
HEADER
  9
$ACADVER
  1
AC1018
  9
$ACADMAINTVER
 70
     0
  9
$DWGCODEPAGE
  3
ANSI_1252
  9
$INSBASE
 10
-327.8288694144876
 20
0.0
 30
0.0
  9
$EXTMIN
 10
1.000000000000000E+20
 20
1.000000000000000E+20
 30
1.000000000000000E+20
  9
$EXTMAX
 10
0.0
 20
0.0
 30
0.0
  9
$LIMMIN
 10
0.0
 20
0.0
  9
$LIMMAX
 10
12.0
 20
9.0
  9
$ORTHOMODE
 70
     1
  9
$REGENMODE
 70
     1
  9
$FILLMODE
 70
     1
  9
$QTEXTMODE
 70
     0
  9
$MIRRTEXT
 70
     1
  9
$LTSCALE
 40
2.5
  9
$ATTMODE
 70
     1
  9
$TEXTSIZE
 40
0.2
  9
$TRACEWID
 40
0.05
  9
$TEXTSTYLE
  7
STANDARD
  9
$CLAYER
  8
-SCHRAFFUR
  9
$CELTYPE
  6
BYLAYER
  9
$CECOLOR
 62
   256
  9
$CELTSCALE
 40
1.0
  9
$DISPSILH
 70
     0
  9
$DIMSCALE
 40
1.0
  9
$DIMASZ
 40
3.5
  9
$DIMEXO
 40
2.0
  9
$DIMDLI
 40
2.0
  9
$DIMRND
 40
0.0
  9
$DIMDLE
 40
0.0
  9
$DIMEXE
 40
1.5
  9
$DIMTP
 40
0.0
  9
$DIMTM
 40
0.0
  9
$DIMTXT
 40
3.5
  9
$DIMCEN
 40
0.09
  9
$DIMTSZ
 40
0.0
  9
$DIMTOL
 70
     0
  9
$DIMLIM
 70
     0
  9
$DIMTIH
 70
     0
  9
$DIMTOH
 70
     0
  9
$DIMSE1
 70
     0
  9
$DIMSE2
 70
     0
  9
$DIMTAD
 70
     1
  9
$DIMZIN
 70
     9
  9
$DIMBLK
  1

  9
$DIMASO
 70
     1
  9
$DIMSHO
 70
     1
  9
$DIMPOST
  1

  9
$DIMAPOST
  1

  9
$DIMALT
 70
     0
  9
$DIMALTD
 70
     2
  9
$DIMALTF
 40
25.4
  9
$DIMLFAC
 40
1.0
  9
$DIMTOFL
 70
     0
  9
$DIMTVP
 40
0.0
  9
$DIMTIX
 70
     0
  9
$DIMSOXD
 70
     0
  9
$DIMSAH
 70
     0
  9
$DIMBLK1
  1

  9
$DIMBLK2
  1

  9
$DIMSTYLE
  2
1-1PRO
  9
$DIMCLRD
 70
   256
  9
$DIMCLRE
 70
   256
  9
$DIMCLRT
 70
   256
  9
$DIMTFAC
 40
1.0
  9
$DIMGAP
 40
1.0
  9
$DIMJUST
 70
     0
  9
$DIMSD1
 70
     0
  9
$DIMSD2
 70
     0
  9
$DIMTOLJ
 70
     1
  9
$DIMTZIN
 70
     0
  9
$DIMALTZ
 70
     0
  9
$DIMALTTZ
 70
     0
  9
$DIMUPT
 70
     0
  9
$DIMDEC
 70
     1
  9
$DIMTDEC
 70
     1
  9
$DIMALTU
 70
     2
  9
$DIMALTTD
 70
     2
  9
$DIMTXSTY
  7
STANDARD
  9
$DIMAUNIT
 70
     0
  9
$DIMADEC
 70
     0
  9
$DIMALTRND
 40
0.0
  9
$DIMAZIN
 70
     0
  9
$DIMDSEP
 70
    46
  9
$DIMATFIT
 70
     3
  9
$DIMFRAC
 70
     0
  9
$DIMLDRBLK
  1

  9
$DIMLUNIT
 70
     2
  9
$DIMLWD
 70
    -2
  9
$DIMLWE
 70
    -2
  9
$DIMTMOVE
 70
     0
  9
$LUNITS
 70
     2
  9
$LUPREC
 70
     4
  9
$SKETCHINC
 40
0.1
  9
$FILLETRAD
 40
0.0
  9
$AUNITS
 70
     0
  9
$AUPREC
 70
     0
  9
$MENU
  1
.
  9
$ELEVATION
 40
0.0
  9
$PELEVATION
 40
0.0
  9
$THICKNESS
 40
0.0
  9
$LIMCHECK
 70
     0
  9
$CHAMFERA
 40
2.0
  9
$CHAMFERB
 40
2.0
  9
$CHAMFERC
 40
1.0
  9
$CHAMFERD
 40
0.0
  9
$SKPOLY
 70
     0
  9
$TDCREATE
 40
2450923.448068865
  9
$TDUCREATE
 40
2450923.364735533
  9
$TDUPDATE
 40
2455702.361820776
  9
$TDUUPDATE
 40
2455702.278487442
  9
$TDINDWG
 40
2.4856642708
  9
$TDUSRTIMER
 40
2.4856642708
  9
$USRTIMER
 70
     1
  9
$ANGBASE
 50
0.0
  9
$ANGDIR
 70
     0
  9
$PDMODE
 70
     0
  9
$PDSIZE
 40
0.0
  9
$PLINEWID
 40
0.0
  9
$SPLFRAME
 70
     0
  9
$SPLINETYPE
 70
     6
  9
$SPLINESEGS
 70
    50
  9
$HANDSEED
  5
225
  9
$SURFTAB1
 70
     6
  9
$SURFTAB2
 70
     6
  9
$SURFTYPE
 70
     6
  9
$SURFU
 70
     6
  9
$SURFV
 70
     6
  9
$UCSBASE
  2

  9
$UCSNAME
  2

  9
$UCSORG
 10
0.0
 20
0.0
 30
0.0
  9
$UCSXDIR
 10
1.0
 20
0.0
 30
0.0
  9
$UCSYDIR
 10
0.0
 20
1.0
 30
0.0
  9
$UCSORTHOREF
  2

  9
$UCSORTHOVIEW
 70
     0
  9
$UCSORGTOP
 10
0.0
 20
0.0
 30
0.0
  9
$UCSORGBOTTOM
 10
0.0
 20
0.0
 30
0.0
  9
$UCSORGLEFT
 10
0.0
 20
0.0
 30
0.0
  9
$UCSORGRIGHT
 10
0.0
 20
0.0
 30
0.0
  9
$UCSORGFRONT
 10
0.0
 20
0.0
 30
0.0
  9
$UCSORGBACK
 10
0.0
 20
0.0
 30
0.0
  9
$PUCSBASE
  2

  9
$PUCSNAME
  2

  9
$PUCSORG
 10
0.0
 20
0.0
 30
0.0
  9
$PUCSXDIR
 10
1.0
 20
0.0
 30
0.0
  9
$PUCSYDIR
 10
0.0
 20
1.0
 30
0.0
  9
$PUCSORTHOREF
  2

  9
$PUCSORTHOVIEW
 70
     0
  9
$PUCSORGTOP
 10
0.0
 20
0.0
 30
0.0
  9
$PUCSORGBOTTOM
 10
0.0
 20
0.0
 30
0.0
  9
$PUCSORGLEFT
 10
0.0
 20
0.0
 30
0.0
  9
$PUCSORGRIGHT
 10
0.0
 20
0.0
 30
0.0
  9
$PUCSORGFRONT
 10
0.0
 20
0.0
 30
0.0
  9
$PUCSORGBACK
 10
0.0
 20
0.0
 30
0.0
  9
$USERI1
 70
     0
  9
$USERI2
 70
     0
  9
$USERI3
 70
     0
  9
$USERI4
 70
     0
  9
$USERI5
 70
     0
  9
$USERR1
 40
0.0
  9
$USERR2
 40
0.0
  9
$USERR3
 40
0.0
  9
$USERR4
 40
0.0
  9
$USERR5
 40
0.0
  9
$WORLDVIEW
 70
     1
  9
$SHADEDGE
 70
     3
  9
$SHADEDIF
 70
    70
  9
$TILEMODE
 70
     1
  9
$MAXACTVP
 70
    48
  9
$PINSBASE
 10
0.0
 20
0.0
 30
0.0
  9
$PLIMCHECK
 70
     0
  9
$PEXTMIN
 10
1.049999952316284
 20
0.7999999523162842
 30
0.0
  9
$PEXTMAX
 10
9.449999570846555
 20
7.199999570846556
 30
0.0
  9
$PLIMMIN
 10
-0.2500002402958907
 20
-0.2499999962453767
  9
$PLIMMAX
 10
10.74999951940821
 20
8.249999763458731
  9
$UNITMODE
 70
     0
  9
$VISRETAIN
 70
     1
  9
$PLINEGEN
 70
     0
  9
$PSLTSCALE
 70
     1
  9
$TREEDEPTH
 70
  3020
  9
$CMLSTYLE
  2
STANDARD
  9
$CMLJUST
 70
     0
  9
$CMLSCALE
 40
1.0
  9
$PROXYGRAPHICS
 70
     1
  9
$MEASUREMENT
 70
     0
  9
$CELWEIGHT
370
    -1
  9
$ENDCAPS
280
     0
  9
$JOINSTYLE
280
     0
  9
$LWDISPLAY
290
     0
  9
$INSUNITS
 70
     0
  9
$HYPERLINKBASE
  1

  9
$STYLESHEET
  1

  9
$XEDIT
290
     1
  9
$CEPSNTYPE
380
     0
  9
$PSTYLEMODE
290
     1
  9
$FINGERPRINTGUID
  2
{69C2E6C0-FBFF-11D4-9C1F-F0970D17765E}
  9
$VERSIONGUID
  2
{2BBD3133-E989-4756-B5D0-06038D9DD556}
  9
$EXTNAMES
290
     1
  9
$PSVPSCALE
 40
0.0
  9
$OLESTARTUP
290
     0
  9
$SORTENTS
280
   127
  9
$INDEXCTL
280
     0
  9
$HIDETEXT
280
     1
  9
$XCLIPFRAME
290
     0
  9
$HALOGAP
280
     0
  9
$OBSCOLOR
 70
   257
  9
$OBSLTYPE
280
     0
  9
$INTERSECTIONDISPLAY
280
     0
  9
$INTERSECTIONCOLOR
 70
   257
  9
$DIMASSOC
280
     1
  9
$PROJECTNAME
  1

  0
ENDSEC
  0
SECTION
  2
CLASSES
  0
CLASS
  1
DICTIONARYVAR
  2
AcDbDictionaryVar
  3
ObjectDBX Classes
 90
        0
 91
        0
280
     0
281
     0
  0
CLASS
  1
IMAGE
  2
AcDbRasterImage
  3
ISM
 90
      127
 91
        0
280
     0
281
     1
  0
CLASS
  1
IMAGEDEF_REACTOR
  2
AcDbRasterImageDefReactor
  3
ISM
 90
        1
 91
        0
280
     0
281
     0
  0
CLASS
  1
IMAGEDEF
  2
AcDbRasterImageDef
  3
ISM
 90
        0
 91
        0
280
     0
281
     0
  0
CLASS
  1
RASTERVARIABLES
  2
AcDbRasterVariables
  3
ISM
 90
        0
 91
        0
280
     0
281
     0
  0
CLASS
  1
ACDBDICTIONARYWDFLT
  2
AcDbDictionaryWithDefault
  3
ObjectDBX Classes
 90
        0
 91
        1
280
     0
281
     0
  0
ENDSEC
  0
SECTION
  2
TABLES
  0
TABLE
  2
VPORT
  5
219
330
0
100
AcDbSymbolTable
 70
     1
  0
VPORT
  5
21A
330
219
100
AcDbSymbolTableRecord
100
AcDbViewportTableRecord
  2
*Active
 70
     0
 10
0.0
 20
0.0
 11
1.0
 21
1.0
 12
167.6721532821721
 22
301.7500445392272
 13
0.0
 23
0.0
 14
0.5
 24
0.5
 15
0.5
 25
0.5
 16
0.0
 26
0.0
 36
1.0
 17
0.0
 27
0.0
 37
0.0
 40
608.2460534644021
 41
2.024081115335868
 42
50.0
 43
0.0
 44
0.0
 50
0.0
 51
0.0
 71
     0
 72
   100
 73
     1
 74
     1
 75
     0
 76
     0
 77
     0
 78
     0
281
     0
 65
     1
110
0.0
120
0.0
130
0.0
111
1.0
121
0.0
131
0.0
112
0.0
122
1.0
132
0.0
 79
     0
146
0.0
  0
ENDTAB
  0
TABLE
  2
LTYPE
  5
214
330
0
100
AcDbSymbolTable
 70
     4
  0
LTYPE
  5
215
330
214
100
AcDbSymbolTableRecord
100
AcDbLinetypeTableRecord
  2
BYBLOCK
 70
     0
  3

 72
    65
 73
     0
 40
0.0
  0
LTYPE
  5
216
330
214
100
AcDbSymbolTableRecord
100
AcDbLinetypeTableRecord
  2
BYLAYER
 70
     0
  3

 72
    65
 73
     0
 40
0.0
  0
LTYPE
  5
8
330
214
100
AcDbSymbolTableRecord
100
AcDbLinetypeTableRecord
  2
CONTINUOUS
 70
     0
  3
Solid line
 72
    65
 73
     0
 40
0.0
  0
LTYPE
  5
B
330
214
100
AcDbSymbolTableRecord
100
AcDbLinetypeTableRecord
  2
MITTEX2
 70
     0
  3
Mitte (2x) ________  __  ________  __  _____
 72
    65
 73
     4
 40
4.0
 49
2.5
 74
     0
 49
-0.5
 74
     0
 49
0.5
 74
     0
 49
-0.5
 74
     0
  0
LTYPE
  5
15
330
214
100
AcDbSymbolTableRecord
100
AcDbLinetypeTableRecord
  2
STRICHLINIEX2
 70
     0
  3
Strichlinie (2x) ____  ____  ____  ____  ____  
 72
    65
 73
     2
 40
1.5
 49
1.0
 74
     0
 49
-0.5
 74
     0
  0
LTYPE
  5
13B
330
214
100
AcDbSymbolTableRecord
100
AcDbLinetypeTableRecord
  2
AUSGEZOGEN
 70
     0
  3
AUSGEZOGEN
 72
    65
 73
     2
 40
2.0
 49
1.0
 74
     0
 49
1.0
 74
     0
  0
ENDTAB
  0
TABLE
  2
LAYER
  5
20F
102
{ACAD_XDICTIONARY
360
210
102
}
330
0
100
AcDbSymbolTable
 70
    14
  0
LAYER
  5
4
330
20F
100
AcDbSymbolTableRecord
100
AcDbLayerTableRecord
  2
0
 70
     0
 62
     7
  6
CONTINUOUS
370
    -3
390
5
  0
LAYER
  5
32
330
20F
100
AcDbSymbolTableRecord
100
AcDbLayerTableRecord
  2
-PROFILAUSSENKANTET
 70
     0
 62
     4
  6
CONTINUOUS
370
    -3
390
5
  0
LAYER
  5
55
330
20F
100
AcDbSymbolTableRecord
100
AcDbLayerTableRecord
  2
-DICHTUNG
 70
     0
 62
     3
  6
CONTINUOUS
370
    -3
390
5
  0
LAYER
  5
14
330
20F
100
AcDbSymbolTableRecord
100
AcDbLayerTableRecord
  2
-NORMTEIL_VERDECKT
 70
     0
 62
     9
  6
STRICHLINIEX2
370
    -3
390
5
  0
LAYER
  5
65
330
20F
100
AcDbSymbolTableRecord
100
AcDbLayerTableRecord
  2
DEFPOINTS
 70
     0
 62
     7
  6
CONTINUOUS
290
     0
370
    -3
390
5
  0
LAYER
  5
A
330
20F
100
AcDbSymbolTableRecord
100
AcDbLayerTableRecord
  2
-SYSTEM
 70
     0
 62
     2
  6
MITTEX2
370
    -3
390
5
  0
LAYER
  5
3D
330
20F
100
AcDbSymbolTableRecord
100
AcDbLayerTableRecord
  2
-TEXT2
 70
     0
 62
     3
  6
CONTINUOUS
370
    -3
390
5
  0
LAYER
  5
5A
330
20F
100
AcDbSymbolTableRecord
100
AcDbLayerTableRecord
  2
-TEXT3
 70
     0
 62
     2
  6
CONTINUOUS
370
    -3
390
5
  0
LAYER
  5
34
330
20F
100
AcDbSymbolTableRecord
100
AcDbLayerTableRecord
  2
-SCHRAFFUR
 70
     0
 62
     9
  6
CONTINUOUS
370
    -3
390
5
  0
LAYER
  5
D
330
20F
100
AcDbSymbolTableRecord
100
AcDbLayerTableRecord
  2
-VERGLASUNG
 70
     0
 62
     1
  6
CONTINUOUS
370
    -3
390
5
  0
LAYER
  5
EC
330
20F
100
AcDbSymbolTableRecord
100
AcDbLayerTableRecord
  2
-EDELSTAHL DREHBLANK
 70
     0
 62
     4
  6
CONTINUOUS
370
    -3
390
5
1001
AVE_FINISH
1002
{
1070
     0
1005
0
1002
}
  0
LAYER
  5
128
330
20F
100
AcDbSymbolTableRecord
100
AcDbLayerTableRecord
  2
-BEMASSUNG
 70
     0
 62
     2
  6
CONTINUOUS
370
    -3
390
5
  0
LAYER
  5
142
330
20F
100
AcDbSymbolTableRecord
100
AcDbLayerTableRecord
  2
-PROFILAUSSENKANTE
 70
     0
 62
     4
  6
CONTINUOUS
370
    -3
390
5
1001
AVE_FINISH
1002
{
1070
     0
1005
0
1002
}
  0
LAYER
  5
13A
330
20F
100
AcDbSymbolTableRecord
100
AcDbLayerTableRecord
  2
-TEXT
 70
     0
 62
     7
  6
AUSGEZOGEN
370
    -3
390
5
  0
ENDTAB
  0
TABLE
  2
STYLE
  5
212
330
0
100
AcDbSymbolTable
 70
     1
  0
STYLE
  5
3F
330
212
100
AcDbSymbolTableRecord
100
AcDbTextStyleTableRecord
  2
STANDARD
 70
     0
 40
0.0
 41
1.0
 50
0.0
 71
     0
 42
0.2
  3
GOTHIC.TTF
  4

1001
ACAD
1000
Century Gothic
1071
       34
  0
ENDTAB
  0
TABLE
  2
VIEW
  5
217
330
0
100
AcDbSymbolTable
 70
     0
  0
ENDTAB
  0
TABLE
  2
UCS
  5
218
330
0
100
AcDbSymbolTable
 70
     0
  0
ENDTAB
  0
TABLE
  2
APPID
  5
21B
330
0
100
AcDbSymbolTable
 70
     2
  0
APPID
  5
40
330
21B
100
AcDbSymbolTableRecord
100
AcDbRegAppTableRecord
  2
ACAD
 70
     0
  0
APPID
  5
ED
330
21B
100
AcDbSymbolTableRecord
100
AcDbRegAppTableRecord
  2
AVE_FINISH
 70
     0
  0
ENDTAB
  0
TABLE
  2
DIMSTYLE
  5
21C
330
0
100
AcDbSymbolTable
 70
     3
100
AcDbDimStyleTable
 71
     1
340
129
  0
DIMSTYLE
105
129
102
{ACAD_REACTORS
330
127
330
144
330
171
330
151
330
15E
330
17E
330
1BD
330
1B0
330
1A5
330
190
330
1D4
102
}
330
21C
100
AcDbSymbolTableRecord
100
AcDbDimStyleTableRecord
  2
1-1PRO
 70
     0
 41
3.5
 42
2.0
 43
2.0
 44
1.5
 73
     0
 74
     0
 77
     1
 78
     9
140
3.5
147
1.0
176
   256
177
   256
178
   256
271
     1
272
     1
340
3F
  0
DIMSTYLE
105
5B
102
{ACAD_REACTORS
330
59
330
69
330
99
330
C2
330
CF
330
DC
102
}
330
21C
100
AcDbSymbolTableRecord
100
AcDbDimStyleTableRecord
  2
1-1
 70
     0
 41
3.0
 42
1.0
 43
3.75
 44
1.25
 73
     0
 74
     0
 77
     1
 78
     8
140
3.5
141
2.5
143
0.0394
147
1.0
171
     4
172
     1
176
   256
177
   256
178
   256
271
     1
272
     1
273
     8
274
     4
284
     8
340
3F
  0
DIMSTYLE
105
77
102
{ACAD_REACTORS
330
76
330
8A
330
A6
330
B5
102
}
330
21C
100
AcDbSymbolTableRecord
100
AcDbDimStyleTableRecord
  2
1-1 PUL
 70
     0
 41
3.0
 42
1.0
 43
3.75
 44
1.25
 73
     0
 74
     0
 77
     1
 78
     8
140
3.5
141
2.5
143
0.0394
147
1.0
171
     4
172
     1
173
     1
176
   256
177
   256
178
   256
271
     1
272
     1
273
     8
274
     4
284
     8
340
3F
344
78
  0
ENDTAB
  0
TABLE
  2
BLOCK_RECORD
  5
1
330
0
100
AcDbSymbolTable
 70
    23
  0
BLOCK_RECORD
  5
2
330
1
100
AcDbSymbolTableRecord
100
AcDbBlockTableRecord
  2
*MODEL_SPACE
340
207
  0
BLOCK_RECORD
  5
209
330
1
100
AcDbSymbolTableRecord
100
AcDbBlockTableRecord
  2
*PAPER_SPACE
340
20E
  0
BLOCK_RECORD
  5
2F
330
1
100
AcDbSymbolTableRecord
100
AcDbBlockTableRecord
  2
ANSICHT68
340
0
102
{BLKREFS
331
2E
102
}
  0
BLOCK_RECORD
  5
78
330
1
100
AcDbSymbolTableRecord
100
AcDbBlockTableRecord
  2
_DotSmall
340
0
102
{BLKREFS
331
BC
331
AF
331
93
331
84
102
}
  0
BLOCK_RECORD
  5
5C
330
1
100
AcDbSymbolTableRecord
100
AcDbBlockTableRecord
  2
*D2
340
0
  0
BLOCK_RECORD
  5
6A
330
1
100
AcDbSymbolTableRecord
100
AcDbBlockTableRecord
  2
*D3
340
0
  0
BLOCK_RECORD
  5
7C
330
1
100
AcDbSymbolTableRecord
100
AcDbBlockTableRecord
  2
*D4
340
0
  0
BLOCK_RECORD
  5
8B
330
1
100
AcDbSymbolTableRecord
100
AcDbBlockTableRecord
  2
*D5
340
0
  0
BLOCK_RECORD
  5
9A
330
1
100
AcDbSymbolTableRecord
100
AcDbBlockTableRecord
  2
*D6
340
0
  0
BLOCK_RECORD
  5
A7
330
1
100
AcDbSymbolTableRecord
100
AcDbBlockTableRecord
  2
*D7
340
0
  0
BLOCK_RECORD
  5
B6
330
1
100
AcDbSymbolTableRecord
100
AcDbBlockTableRecord
  2
*D8
340
0
  0
BLOCK_RECORD
  5
C3
330
1
100
AcDbSymbolTableRecord
100
AcDbBlockTableRecord
  2
*D9
340
0
  0
BLOCK_RECORD
  5
D0
330
1
100
AcDbSymbolTableRecord
100
AcDbBlockTableRecord
  2
*D10
340
0
  0
BLOCK_RECORD
  5
DD
330
1
100
AcDbSymbolTableRecord
100
AcDbBlockTableRecord
  2
*D11
340
0
  0
BLOCK_RECORD
  5
12A
330
1
100
AcDbSymbolTableRecord
100
AcDbBlockTableRecord
  2
*D12
340
0
  0
BLOCK_RECORD
  5
145
330
1
100
AcDbSymbolTableRecord
100
AcDbBlockTableRecord
  2
*D13
340
0
  0
BLOCK_RECORD
  5
172
330
1
100
AcDbSymbolTableRecord
100
AcDbBlockTableRecord
  2
*D14
340
0
  0
BLOCK_RECORD
  5
152
330
1
100
AcDbSymbolTableRecord
100
AcDbBlockTableRecord
  2
*D15
340
0
  0
BLOCK_RECORD
  5
15F
330
1
100
AcDbSymbolTableRecord
100
AcDbBlockTableRecord
  2
*D16
340
0
  0
BLOCK_RECORD
  5
17F
330
1
100
AcDbSymbolTableRecord
100
AcDbBlockTableRecord
  2
*D17
340
0
  0
BLOCK_RECORD
  5
1BE
330
1
100
AcDbSymbolTableRecord
100
AcDbBlockTableRecord
  2
*D18
340
0
  0
BLOCK_RECORD
  5
1B1
330
1
100
AcDbSymbolTableRecord
100
AcDbBlockTableRecord
  2
*D19
340
0
  0
BLOCK_RECORD
  5
1A6
330
1
100
AcDbSymbolTableRecord
100
AcDbBlockTableRecord
  2
*D20
340
0
  0
BLOCK_RECORD
  5
191
330
1
100
AcDbSymbolTableRecord
100
AcDbBlockTableRecord
  2
*D21
340
0
  0
BLOCK_RECORD
  5
1D5
330
1
100
AcDbSymbolTableRecord
100
AcDbBlockTableRecord
  2
*D22
340
0
  0
ENDTAB
  0
ENDSEC
  0
SECTION
  2
BLOCKS
  0
BLOCK
  5
3
330
2
100
AcDbEntity
  8
0
100
AcDbBlockBegin
  2
*MODEL_SPACE
 70
     0
 10
0.0
 20
0.0
 30
0.0
  3
*MODEL_SPACE
  1

  0
ENDBLK
  5
206
330
2
100
AcDbEntity
  8
0
100
AcDbBlockEnd
  0
BLOCK
  5
20A
330
209
100
AcDbEntity
 67
     1
  8
0
100
AcDbBlockBegin
  2
*PAPER_SPACE
 70
     0
 10
0.0
 20
0.0
 30
0.0
  3
*PAPER_SPACE
  1

  0
ENDBLK
  5
20D
330
209
100
AcDbEntity
 67
     1
  8
0
100
AcDbBlockEnd
  0
BLOCK
  5
30
330
2F
100
AcDbEntity
  8
0
100
AcDbBlockBegin
  2
ANSICHT68
 70
     0
 10
0.0
 20
0.0
 30
0.0
  3
ANSICHT68
  1

  0
CIRCLE
  5
31
330
2F
100
AcDbEntity
  8
-PROFILAUSSENKANTET
100
AcDbCircle
 10
-0.0000000000241434
 20
-97.34816104632308
 30
0.0
 40
10.0
  0
CIRCLE
  5
33
330
2F
100
AcDbEntity
  8
-SCHRAFFUR
100
AcDbCircle
 10
-0.0000000000241576
 20
-97.34816104632308
 30
0.0
 40
32.32879797461079
  0
LINE
  5
35
330
2F
100
AcDbEntity
  8
-SYSTEM
100
AcDbLine
 10
37.49570426210264
 20
-97.3481610463229
 30
0.0
 11
-37.49570426215092
 21
-97.34816104632324
 31
0.0
  0
LWPOLYLINE
  5
36
330
2F
100
AcDbEntity
  8
-VERGLASUNG
100
AcDbPolyline
 90
        4
 70
     0
 43
0.0
 10
-72.97749106091817
 20
-17.34816104632338
 10
77.99999999997573
 20
-17.34816104632327
 10
79.99999999997573
 20
-19.34816104632327
 10
79.99999999997584
 20
-149.3273672017092
  0
CIRCLE
  5
37
330
2F
100
AcDbEntity
  8
-PROFILAUSSENKANTET
100
AcDbCircle
 10
-0.0000000000241576
 20
-97.34816104632308
 30
0.0
 40
34.0
  0
LINE
  5
38
330
2F
100
AcDbEntity
  8
-SYSTEM
100
AcDbLine
 10
-0.0000000000243281
 20
-59.85245678419627
 30
0.0
 11
-0.000000000023987
 21
-134.8438653084498
 31
0.0
  0
CIRCLE
  5
39
330
2F
100
AcDbEntity
  8
-PROFILAUSSENKANTET
100
AcDbCircle
 10
-3.500000000024129
 20
-103.4103388728141
 30
0.0
 40
1.75
  0
CIRCLE
  5
3A
330
2F
100
AcDbEntity
  8
-PROFILAUSSENKANTET
100
AcDbCircle
 10
-3.500000000024171
 20
-91.28598321983199
 30
0.0
 40
1.75
  0
CIRCLE
  5
3B
330
2F
100
AcDbEntity
  8
-PROFILAUSSENKANTET
100
AcDbCircle
 10
6.999999999975842
 20
-97.34816104632301
 30
0.0
 40
1.75
  0
LWPOLYLINE
  5
3C
330
2F
100
AcDbEntity
  8
-TEXT2
100
AcDbPolyline
 90
        3
 70
     1
 43
0.0
 10
57.78044804003911
 20
-17.34816104632335
 10
61.91438540270016
 20
-10.18797149888712
 10
53.64651067737807
 20
-10.18797149888712
  0
MTEXT
  5
3E
330
2F
100
AcDbEntity
  8
-TEXT2
100
AcDbMText
 10
49.17713572762614
 20
-5.128944079777738
 30
0.0
 40
3.5
 41
17.9978
 71
     1
 72
     5
  1
{\fArial|b0|i0|c0|p34;Glaskante}
 73
     1
 44
1.0
  0
ENDBLK
  5
41
330
2F
100
AcDbEntity
  8
0
100
AcDbBlockEnd
  0
BLOCK
  5
79
330
78
100
AcDbEntity
  8
0
100
AcDbBlockBegin
  2
_DotSmall
 70
     0
 10
0.0
 20
0.0
 30
0.0
  3
_DotSmall
  1

  0
LWPOLYLINE
  5
7A
330
78
100
AcDbEntity
  8
0
  6
ByBlock
 62
     0
100
AcDbPolyline
 90
        2
 70
     1
 43
0.5
 10
-0.0625
 20
0.0
 42
1.0
 10
0.0625
 20
0.0
 42
1.0
  0
ENDBLK
  5
7B
330
78
100
AcDbEntity
  8
0
100
AcDbBlockEnd
  0
BLOCK
  5
5D
330
5C
100
AcDbEntity
  8
0
100
AcDbBlockBegin
  2
*D2
 70
     1
 10
0.0
 20
0.0
 30
0.0
  3
*D2
  1

  0
LINE
  5
5E
330
5C
100
AcDbEntity
  8
-TEXT3
370
    -2
100
AcDbLine
 10
70.55140668890849
 20
516.2888302399903
 30
0.0
 11
7.051406688908458
 21
516.2888302399903
 31
0.0
  0
LINE
  5
5F
330
5C
100
AcDbEntity
  8
-TEXT3
370
    -2
100
AcDbLine
 10
53.7514066889086
 20
532.6888302399902
 30
0.0
 11
7.051406688908454
 21
532.6888302399902
 31
0.0
  0
LINE
  5
60
330
5C
100
AcDbEntity
  8
-TEXT3
370
    -2
100
AcDbLine
 10
8.301406688908453
 20
519.2888302399902
 30
0.0
 11
8.301406688908455
 21
529.6888302399902
 31
0.0
  0
SOLID
  5
61
330
5C
100
AcDbEntity
  8
-TEXT3
100
AcDbTrace
 10
7.801406688908453
 20
519.2888302399902
 30
0.0
 11
8.801406688908453
 21
519.2888302399902
 31
0.0
 12
8.301406688908453
 22
516.2888302399903
 32
0.0
 13
8.301406688908453
 23
516.2888302399903
 33
0.0
  0
SOLID
  5
62
330
5C
100
AcDbEntity
  8
-TEXT3
100
AcDbTrace
 10
7.801406688908455
 20
529.6888302399902
 30
0.0
 11
8.801406688908455
 21
529.6888302399902
 31
0.0
 12
8.301406688908457
 22
532.6888302399902
 32
0.0
 13
8.301406688908457
 23
532.6888302399902
 33
0.0
  0
MTEXT
  5
63
330
5C
100
AcDbEntity
  8
-TEXT3
100
AcDbMText
 10
5.463371338806399
 20
524.4888302399902
 30
0.0
 40
3.5
 41
0.0
 71
     5
 72
     1
  1
\A1;16.4
 11
0.0000000000000001
 21
1.0
 31
0.0
 73
     1
 44
1.0
  0
POINT
  5
64
330
5C
100
AcDbEntity
  8
DEFPOINTS
 62
     0
100
AcDbPoint
 10
71.55140668890848
 20
516.2888302399903
 30
0.0
  0
POINT
  5
66
330
5C
100
AcDbEntity
  8
DEFPOINTS
 62
     0
100
AcDbPoint
 10
54.7514066889086
 20
532.6888302399902
 30
0.0
  0
POINT
  5
67
330
5C
100
AcDbEntity
  8
DEFPOINTS
 62
     0
100
AcDbPoint
 10
8.301406688908457
 20
532.6888302399902
 30
0.0
  0
ENDBLK
  5
68
330
5C
100
AcDbEntity
  8
0
100
AcDbBlockEnd
  0
BLOCK
  5
6B
330
6A
100
AcDbEntity
  8
0
100
AcDbBlockBegin
  2
*D3
 70
     1
 10
0.0
 20
0.0
 30
0.0
  3
*D3
  1

  0
LINE
  5
6C
330
6A
100
AcDbEntity
  8
-TEXT3
370
    -2
100
AcDbLine
 10
53.7514066889086
 20
532.6888302399902
 30
0.0
 11
7.051406688908483
 21
532.6888302399902
 31
0.0
  0
LINE
  5
6D
330
6A
100
AcDbEntity
  8
-TEXT3
370
    -2
100
AcDbLine
 10
17.30140668890846
 20
560.6888300808899
 30
0.0
 11
7.051406688908485
 21
560.6888300808899
 31
0.0
  0
LINE
  5
6E
330
6A
100
AcDbEntity
  8
-TEXT3
370
    -2
100
AcDbLine
 10
8.30140668890848
 20
535.6888302399902
 30
0.0
 11
8.301406688908485
 21
557.6888300808899
 31
0.0
  0
SOLID
  5
6F
330
6A
100
AcDbEntity
  8
-TEXT3
100
AcDbTrace
 10
7.80140668890848
 20
535.6888302399902
 30
0.0
 11
8.80140668890848
 21
535.6888302399902
 31
0.0
 12
8.30140668890848
 22
532.6888302399902
 32
0.0
 13
8.30140668890848
 23
532.6888302399902
 33
0.0
  0
SOLID
  5
70
330
6A
100
AcDbEntity
  8
-TEXT3
100
AcDbTrace
 10
7.801406688908484
 20
557.6888300808899
 30
0.0
 11
8.801406688908485
 21
557.6888300808899
 31
0.0
 12
8.301406688908485
 22
560.6888300808899
 32
0.0
 13
8.301406688908485
 23
560.6888300808899
 33
0.0
  0
MTEXT
  5
71
330
6A
100
AcDbEntity
  8
-TEXT3
100
AcDbMText
 10
5.463371338806424
 20
546.6888301604401
 30
0.0
 40
3.5
 41
0.0
 71
     5
 72
     1
  1
\A1;28
 11
0.0000000000000001
 21
1.0
 31
0.0
 73
     1
 44
1.0
  0
POINT
  5
72
330
6A
100
AcDbEntity
  8
DEFPOINTS
 62
     0
100
AcDbPoint
 10
54.7514066889086
 20
532.6888302399902
 30
0.0
  0
POINT
  5
73
330
6A
100
AcDbEntity
  8
DEFPOINTS
 62
     0
100
AcDbPoint
 10
18.30140668890846
 20
560.6888300808899
 30
0.0
  0
POINT
  5
74
330
6A
100
AcDbEntity
  8
DEFPOINTS
 62
     0
100
AcDbPoint
 10
8.301406688908485
 20
560.6888300808899
 30
0.0
  0
ENDBLK
  5
75
330
6A
100
AcDbEntity
  8
0
100
AcDbBlockEnd
  0
BLOCK
  5
7D
330
7C
100
AcDbEntity
  8
0
100
AcDbBlockBegin
  2
*D4
 70
     1
 10
0.0
 20
0.0
 30
0.0
  3
*D4
  1

  0
LINE
  5
7E
330
7C
100
AcDbEntity
  8
-TEXT3
370
    -2
100
AcDbLine
 10
39.55140668890848
 20
552.6888302399893
 30
0.0
 11
18.301406715425
 21
552.6888302399893
 31
0.0
  0
LINE
  5
7F
330
7C
100
AcDbEntity
  8
-TEXT3
370
    -2
100
AcDbLine
 10
36.55140668890849
 20
557.6888302399892
 30
0.0
 11
18.301406715425
 21
557.6888302399892
 31
0.0
  0
LINE
  5
80
330
7C
100
AcDbEntity
  8
-TEXT3
370
    -2
100
AcDbLine
 10
19.551406715425
 20
549.6888302399893
 30
0.0
 11
19.551406715425
 21
546.6888302399893
 31
0.0
  0
LINE
  5
81
330
7C
100
AcDbEntity
  8
-TEXT3
370
    -2
100
AcDbLine
 10
19.551406715425
 20
557.6888302399892
 30
0.0
 11
19.551406715425
 21
560.6888302399892
 31
0.0
  0
LINE
  5
82
330
7C
100
AcDbEntity
  8
-TEXT3
370
    -2
100
AcDbLine
 10
19.551406715425
 20
552.6888302399893
 30
0.0
 11
19.551406715425
 21
557.6888302399892
 31
0.0
  0
SOLID
  5
83
330
7C
100
AcDbEntity
  8
-TEXT3
100
AcDbTrace
 10
19.051406715425
 20
549.6888302399893
 30
0.0
 11
20.051406715425
 21
549.6888302399893
 31
0.0
 12
19.551406715425
 22
552.6888302399893
 32
0.0
 13
19.551406715425
 23
552.6888302399893
 33
0.0
  0
INSERT
  5
84
330
7C
100
AcDbEntity
  8
-TEXT3
370
    -2
100
AcDbBlockReference
  2
_DotSmall
 10
19.551406715425
 20
557.6888302399892
 30
0.0
 41
3.0
 42
3.0
 43
3.0
 50
270.0
  0
MTEXT
  5
85
330
7C
100
AcDbEntity
  8
-TEXT3
100
AcDbMText
 10
16.75738904037393
 20
555.1888302399893
 30
0.0
 40
3.5
 41
0.0
 71
     5
 72
     1
  1
\A1;5
 11
0.0000000000000001
 21
1.0
 31
0.0
 73
     1
 44
1.0
  0
POINT
  5
86
330
7C
100
AcDbEntity
  8
DEFPOINTS
 62
     0
100
AcDbPoint
 10
40.55140668890849
 20
552.6888302399893
 30
0.0
  0
POINT
  5
87
330
7C
100
AcDbEntity
  8
DEFPOINTS
 62
     0
100
AcDbPoint
 10
37.55140668890849
 20
557.6888302399892
 30
0.0
  0
POINT
  5
88
330
7C
100
AcDbEntity
  8
DEFPOINTS
 62
     0
100
AcDbPoint
 10
19.551406715425
 20
557.6888302399892
 30
0.0
  0
ENDBLK
  5
89
330
7C
100
AcDbEntity
  8
0
100
AcDbBlockEnd
  0
BLOCK
  5
8C
330
8B
100
AcDbEntity
  8
0
100
AcDbBlockBegin
  2
*D5
 70
     1
 10
0.0
 20
0.0
 30
0.0
  3
*D5
  1

  0
LINE
  5
8D
330
8B
100
AcDbEntity
  8
-TEXT3
370
    -2
100
AcDbLine
 10
22.27315357294731
 20
560.6888302399887
 30
0.0
 11
18.30140671542505
 21
560.6888302399887
 31
0.0
  0
LINE
  5
8E
330
8B
100
AcDbEntity
  8
-TEXT3
370
    -2
100
AcDbLine
 10
37.97749106089387
 20
557.6888302399885
 30
0.0
 11
18.30140671542505
 21
557.6888302399885
 31
0.0
  0
LINE
  5
8F
330
8B
100
AcDbEntity
  8
-TEXT3
370
    -2
100
AcDbLine
 10
19.55140671542505
 20
563.6888302399886
 30
0.0
 11
19.55140671542505
 21
566.6888302399886
 31
0.0
  0
LINE
  5
90
330
8B
100
AcDbEntity
  8
-TEXT3
370
    -2
100
AcDbLine
 10
19.55140671542505
 20
557.6888302399885
 30
0.0
 11
19.55140671542505
 21
554.6888302399885
 31
0.0
  0
LINE
  5
91
330
8B
100
AcDbEntity
  8
-TEXT3
370
    -2
100
AcDbLine
 10
19.55140671542505
 20
560.6888302399887
 30
0.0
 11
19.55140671542505
 21
557.6888302399885
 31
0.0
  0
SOLID
  5
92
330
8B
100
AcDbEntity
  8
-TEXT3
100
AcDbTrace
 10
19.05140671542505
 20
563.6888302399886
 30
0.0
 11
20.05140671542505
 21
563.6888302399886
 31
0.0
 12
19.55140671542505
 22
560.6888302399887
 32
0.0
 13
19.55140671542505
 23
560.6888302399887
 33
0.0
  0
INSERT
  5
93
330
8B
100
AcDbEntity
  8
-TEXT3
370
    -2
100
AcDbBlockReference
  2
_DotSmall
 10
19.55140671542505
 20
557.6888302399885
 30
0.0
 41
3.0
 42
3.0
 43
3.0
 50
90.0
  0
MTEXT
  5
94
330
8B
100
AcDbEntity
  8
-TEXT3
100
AcDbMText
 10
16.71337136532299
 20
559.1888302399886
 30
0.0
 40
3.5
 41
0.0
 71
     5
 72
     1
  1
\A1;3
 11
0.0000000000000001
 21
1.0
 31
0.0
 73
     1
 44
1.0
  0
POINT
  5
95
330
8B
100
AcDbEntity
  8
DEFPOINTS
 62
     0
100
AcDbPoint
 10
23.27315357294731
 20
560.6888302399887
 30
0.0
  0
POINT
  5
96
330
8B
100
AcDbEntity
  8
DEFPOINTS
 62
     0
100
AcDbPoint
 10
38.97749106089387
 20
557.6888302399885
 30
0.0
  0
POINT
  5
97
330
8B
100
AcDbEntity
  8
DEFPOINTS
 62
     0
100
AcDbPoint
 10
19.55140671542505
 20
557.6888302399885
 30
0.0
  0
ENDBLK
  5
98
330
8B
100
AcDbEntity
  8
0
100
AcDbBlockEnd
  0
BLOCK
  5
9B
330
9A
100
AcDbEntity
  8
0
100
AcDbBlockBegin
  2
*D6
 70
     1
 10
0.0
 20
0.0
 30
0.0
  3
*D6
  1

  0
LINE
  5
9C
330
9A
100
AcDbEntity
  8
-TEXT3
370
    -2
100
AcDbLine
 10
22.27315357294731
 20
560.6888302399887
 30
0.0
 11
18.30140668890845
 21
560.6888302399887
 31
0.0
  0
LINE
  5
9D
330
9A
100
AcDbEntity
  8
-TEXT3
370
    -2
100
AcDbLine
 10
22.27315357294731
 20
575.6888302399878
 30
0.0
 11
18.30140668890846
 21
575.6888302399878
 31
0.0
  0
LINE
  5
9E
330
9A
100
AcDbEntity
  8
-TEXT3
370
    -2
100
AcDbLine
 10
19.55140668890845
 20
563.6888302399886
 30
0.0
 11
19.55140668890846
 21
572.6888302399878
 31
0.0
  0
SOLID
  5
9F
330
9A
100
AcDbEntity
  8
-TEXT3
100
AcDbTrace
 10
19.05140668890845
 20
563.6888302399886
 30
0.0
 11
20.05140668890845
 21
563.6888302399886
 31
0.0
 12
19.55140668890845
 22
560.6888302399887
 32
0.0
 13
19.55140668890845
 23
560.6888302399887
 33
0.0
  0
SOLID
  5
A0
330
9A
100
AcDbEntity
  8
-TEXT3
100
AcDbTrace
 10
19.05140668890846
 20
572.6888302399878
 30
0.0
 11
20.05140668890846
 21
572.6888302399878
 31
0.0
 12
19.55140668890846
 22
575.6888302399878
 32
0.0
 13
19.55140668890846
 23
575.6888302399878
 33
0.0
  0
MTEXT
  5
A1
330
9A
100
AcDbEntity
  8
-TEXT3
100
AcDbMText
 10
16.71337133880639
 20
568.1888302399881
 30
0.0
 40
3.5
 41
0.0
 71
     5
 72
     1
  1
\A1;G
 11
0.0000000000000001
 21
1.0
 31
0.0
 73
     1
 44
1.0
  0
POINT
  5
A2
330
9A
100
AcDbEntity
  8
DEFPOINTS
 62
     0
100
AcDbPoint
 10
23.27315357294731
 20
560.6888302399887
 30
0.0
  0
POINT
  5
A3
330
9A
100
AcDbEntity
  8
DEFPOINTS
 62
     0
100
AcDbPoint
 10
23.27315357294731
 20
575.6888302399878
 30
0.0
  0
POINT
  5
A4
330
9A
100
AcDbEntity
  8
DEFPOINTS
 62
     0
100
AcDbPoint
 10
19.55140668890846
 20
575.6888302399878
 30
0.0
  0
ENDBLK
  5
A5
330
9A
100
AcDbEntity
  8
0
100
AcDbBlockEnd
  0
BLOCK
  5
A8
330
A7
100
AcDbEntity
  8
0
100
AcDbBlockBegin
  2
*D7
 70
     1
 10
0.0
 20
0.0
 30
0.0
  3
*D7
  1

  0
LINE
  5
A9
330
A7
100
AcDbEntity
  8
-TEXT3
370
    -2
100
AcDbLine
 10
22.27315357294731
 20
575.6888302399878
 30
0.0
 11
18.30140668890851
 21
575.6888302399878
 31
0.0
  0
LINE
  5
AA
330
A7
100
AcDbEntity
  8
-TEXT3
370
    -2
100
AcDbLine
 10
35.55140668890846
 20
578.6888302399878
 30
0.0
 11
18.30140668890851
 21
578.6888302399878
 31
0.0
  0
LINE
  5
AB
330
A7
100
AcDbEntity
  8
-TEXT3
370
    -2
100
AcDbLine
 10
19.55140668890851
 20
572.6888302399878
 30
0.0
 11
19.55140668890851
 21
569.6888302399878
 31
0.0
  0
LINE
  5
AC
330
A7
100
AcDbEntity
  8
-TEXT3
370
    -2
100
AcDbLine
 10
19.55140668890851
 20
578.6888302399878
 30
0.0
 11
19.55140668890851
 21
581.6888302399878
 31
0.0
  0
LINE
  5
AD
330
A7
100
AcDbEntity
  8
-TEXT3
370
    -2
100
AcDbLine
 10
19.55140668890851
 20
575.6888302399878
 30
0.0
 11
19.55140668890851
 21
578.6888302399878
 31
0.0
  0
SOLID
  5
AE
330
A7
100
AcDbEntity
  8
-TEXT3
100
AcDbTrace
 10
19.05140668890851
 20
572.6888302399878
 30
0.0
 11
20.05140668890851
 21
572.6888302399878
 31
0.0
 12
19.55140668890851
 22
575.6888302399878
 32
0.0
 13
19.55140668890851
 23
575.6888302399878
 33
0.0
  0
INSERT
  5
AF
330
A7
100
AcDbEntity
  8
-TEXT3
370
    -2
100
AcDbBlockReference
  2
_DotSmall
 10
19.55140668890851
 20
578.6888302399878
 30
0.0
 41
3.0
 42
3.0
 43
3.0
 50
270.0
  0
MTEXT
  5
B0
330
A7
100
AcDbEntity
  8
-TEXT3
100
AcDbMText
 10
16.71337133880644
 20
577.1888302399879
 30
0.0
 40
3.5
 41
0.0
 71
     5
 72
     1
  1
\A1;3
 11
0.0000000000000001
 21
1.0
 31
0.0
 73
     1
 44
1.0
  0
POINT
  5
B1
330
A7
100
AcDbEntity
  8
DEFPOINTS
 62
     0
100
AcDbPoint
 10
23.27315357294731
 20
575.6888302399878
 30
0.0
  0
POINT
  5
B2
330
A7
100
AcDbEntity
  8
DEFPOINTS
 62
     0
100
AcDbPoint
 10
36.55140668890846
 20
578.6888302399878
 30
0.0
  0
POINT
  5
B3
330
A7
100
AcDbEntity
  8
DEFPOINTS
 62
     0
100
AcDbPoint
 10
19.55140668890851
 20
578.6888302399878
 30
0.0
  0
ENDBLK
  5
B4
330
A7
100
AcDbEntity
  8
0
100
AcDbBlockEnd
  0
BLOCK
  5
B7
330
B6
100
AcDbEntity
  8
0
100
AcDbBlockBegin
  2
*D8
 70
     1
 10
0.0
 20
0.0
 30
0.0
  3
*D8
  1

  0
LINE
  5
B8
330
B6
100
AcDbEntity
  8
-TEXT3
370
    -2
100
AcDbLine
 10
62.96075340659426
 20
586.688830239987
 30
0.0
 11
18.30140668890851
 21
586.688830239987
 31
0.0
  0
LINE
  5
B9
330
B6
100
AcDbEntity
  8
-TEXT3
370
    -2
100
AcDbLine
 10
37.97749106089384
 20
578.6888302399871
 30
0.0
 11
18.30140668890851
 21
578.6888302399871
 31
0.0
  0
LINE
  5
BA
330
B6
100
AcDbEntity
  8
-TEXT3
370
    -2
100
AcDbLine
 10
19.55140668890851
 20
583.688830239987
 30
0.0
 11
19.55140668890851
 21
578.6888302399871
 31
0.0
  0
SOLID
  5
BB
330
B6
100
AcDbEntity
  8
-TEXT3
100
AcDbTrace
 10
19.05140668890851
 20
583.688830239987
 30
0.0
 11
20.05140668890851
 21
583.688830239987
 31
0.0
 12
19.55140668890851
 22
586.688830239987
 32
0.0
 13
19.55140668890851
 23
586.688830239987
 33
0.0
  0
INSERT
  5
BC
330
B6
100
AcDbEntity
  8
-TEXT3
370
    -2
100
AcDbBlockReference
  2
_DotSmall
 10
19.55140668890851
 20
578.6888302399871
 30
0.0
 41
3.0
 42
3.0
 43
3.0
 50
270.0
  0
MTEXT
  5
BD
330
B6
100
AcDbEntity
  8
-TEXT3
100
AcDbMText
 10
16.71337133880644
 20
582.4403621399454
 30
0.0
 40
3.5
 41
0.0
 71
     5
 72
     1
  1
\A1;8
 11
0.0000000000000001
 21
1.0
 31
0.0
 73
     1
 44
1.0
  0
POINT
  5
BE
330
B6
100
AcDbEntity
  8
DEFPOINTS
 62
     0
100
AcDbPoint
 10
63.96075340659426
 20
586.688830239987
 30
0.0
  0
POINT
  5
BF
330
B6
100
AcDbEntity
  8
DEFPOINTS
 62
     0
100
AcDbPoint
 10
38.97749106089384
 20
578.6888302399871
 30
0.0
  0
POINT
  5
C0
330
B6
100
AcDbEntity
  8
DEFPOINTS
 62
     0
100
AcDbPoint
 10
19.55140668890851
 20
578.6888302399871
 30
0.0
  0
ENDBLK
  5
C1
330
B6
100
AcDbEntity
  8
0
100
AcDbBlockEnd
  0
BLOCK
  5
C4
330
C3
100
AcDbEntity
  8
0
100
AcDbBlockBegin
  2
*D9
 70
     1
 10
0.0
 20
0.0
 30
0.0
  3
*D9
  1

  0
LINE
  5
C5
330
C3
100
AcDbEntity
  8
-TEXT3
370
    -2
100
AcDbLine
 10
38.97749106089384
 20
583.4945760632213
 30
0.0
 11
38.97749106089384
 21
598.7445760632197
 31
0.0
  0
LINE
  5
C6
330
C3
100
AcDbEntity
  8
-TEXT3
370
    -2
100
AcDbLine
 10
106.9774910608939
 20
583.4945760632197
 30
0.0
 11
106.9774910608939
 21
598.7445760632197
 31
0.0
  0
LINE
  5
C7
330
C3
100
AcDbEntity
  8
-TEXT3
370
    -2
100
AcDbLine
 10
41.97749106089384
 20
597.4945760632197
 30
0.0
 11
103.9774910608939
 21
597.4945760632197
 31
0.0
  0
SOLID
  5
C8
330
C3
100
AcDbEntity
  8
-TEXT3
100
AcDbTrace
 10
41.97749106089384
 20
597.9945760632197
 30
0.0
 11
41.97749106089384
 21
596.9945760632197
 31
0.0
 12
38.97749106089384
 22
597.4945760632197
 32
0.0
 13
38.97749106089384
 23
597.4945760632197
 33
0.0
  0
SOLID
  5
C9
330
C3
100
AcDbEntity
  8
-TEXT3
100
AcDbTrace
 10
103.9774910608939
 20
597.9945760632197
 30
0.0
 11
103.9774910608939
 21
596.9945760632197
 31
0.0
 12
106.9774910608939
 22
597.4945760632197
 32
0.0
 13
106.9774910608939
 23
597.4945760632197
 33
0.0
  0
MTEXT
  5
CA
330
C3
100
AcDbEntity
  8
-TEXT3
100
AcDbMText
 10
72.97749106089388
 20
600.4420607675025
 30
0.0
 40
3.5
 41
0.0
 71
     5
 72
     1
  1
\A1;%%c68
 73
     1
 44
1.0
  0
POINT
  5
CB
330
C3
100
AcDbEntity
  8
DEFPOINTS
 62
     0
100
AcDbPoint
 10
38.97749106089384
 20
582.4945760632212
 30
0.0
  0
POINT
  5
CC
330
C3
100
AcDbEntity
  8
DEFPOINTS
 62
     0
100
AcDbPoint
 10
106.9774910608939
 20
582.4945760632196
 30
0.0
  0
POINT
  5
CD
330
C3
100
AcDbEntity
  8
DEFPOINTS
 62
     0
100
AcDbPoint
 10
106.9774910608939
 20
597.4945760632197
 30
0.0
  0
ENDBLK
  5
CE
330
C3
100
AcDbEntity
  8
0
100
AcDbBlockEnd
  0
BLOCK
  5
D1
330
D0
100
AcDbEntity
  8
0
100
AcDbBlockBegin
  2
*D10
 70
     1
 10
0.0
 20
0.0
 30
0.0
  3
*D10
  1

  0
LINE
  5
D2
330
D0
100
AcDbEntity
  8
-TEXT3
370
    -2
100
AcDbLine
 10
86.57749106089378
 20
527.6888302399895
 30
0.0
 11
99.04048560386792
 21
527.6888302399895
 31
0.0
  0
LINE
  5
D3
330
D0
100
AcDbEntity
  8
-TEXT3
370
    -2
100
AcDbLine
 10
86.57749106089378
 20
537.6888302399895
 30
0.0
 11
99.04048560386792
 21
537.6888302399895
 31
0.0
  0
LINE
  5
D4
330
D0
100
AcDbEntity
  8
-TEXT3
370
    -2
100
AcDbLine
 10
97.79048560386792
 20
530.6888302399896
 30
0.0
 11
97.79048560386792
 21
534.6888302399896
 31
0.0
  0
SOLID
  5
D5
330
D0
100
AcDbEntity
  8
-TEXT3
100
AcDbTrace
 10
97.29048560386793
 20
530.6888302399896
 30
0.0
 11
98.29048560386793
 21
530.6888302399896
 31
0.0
 12
97.79048560386792
 22
527.6888302399895
 32
0.0
 13
97.79048560386792
 23
527.6888302399895
 33
0.0
  0
SOLID
  5
D6
330
D0
100
AcDbEntity
  8
-TEXT3
100
AcDbTrace
 10
97.29048560386793
 20
534.6888302399896
 30
0.0
 11
98.29048560386793
 21
534.6888302399896
 31
0.0
 12
97.79048560386792
 22
537.6888302399895
 32
0.0
 13
97.79048560386792
 23
537.6888302399895
 33
0.0
  0
MTEXT
  5
D7
330
D0
100
AcDbEntity
  8
-TEXT3
100
AcDbMText
 10
94.84300089958503
 20
532.6888302399895
 30
0.0
 40
3.5
 41
0.0
 71
     5
 72
     1
  1
\A1;%%c10
 11
0.0000000000000001
 21
1.0
 31
0.0
 73
     1
 44
1.0
  0
POINT
  5
D8
330
D0
100
AcDbEntity
  8
DEFPOINTS
 62
     0
100
AcDbPoint
 10
85.57749106089378
 20
527.6888302399895
 30
0.0
  0
POINT
  5
D9
330
D0
100
AcDbEntity
  8
DEFPOINTS
 62
     0
100
AcDbPoint
 10
85.57749106089378
 20
537.6888302399895
 30
0.0
  0
POINT
  5
DA
330
D0
100
AcDbEntity
  8
DEFPOINTS
 62
     0
100
AcDbPoint
 10
97.79048560386792
 20
537.6888302399895
 30
0.0
  0
ENDBLK
  5
DB
330
D0
100
AcDbEntity
  8
0
100
AcDbBlockEnd
  0
BLOCK
  5
DE
330
DD
100
AcDbEntity
  8
0
100
AcDbBlockBegin
  2
*D11
 70
     1
 10
0.0
 20
0.0
 30
0.0
  3
*D11
  1

  0
LINE
  5
DF
330
DD
100
AcDbEntity
  8
-TEXT3
370
    -2
100
AcDbLine
 10
62.97749106089395
 20
520.1888302399887
 30
0.0
 11
62.97749106089395
 21
499.9388302399887
 31
0.0
  0
LINE
  5
E0
330
DD
100
AcDbEntity
  8
-TEXT3
370
    -2
100
AcDbLine
 10
82.97749106089396
 20
520.1888302399887
 30
0.0
 11
82.97749106089396
 21
499.9388302399887
 31
0.0
  0
LINE
  5
E1
330
DD
100
AcDbEntity
  8
-TEXT3
370
    -2
100
AcDbLine
 10
65.97749106089395
 20
501.1888302399888
 30
0.0
 11
79.97749106089395
 21
501.1888302399888
 31
0.0
  0
SOLID
  5
E2
330
DD
100
AcDbEntity
  8
-TEXT3
100
AcDbTrace
 10
65.97749106089395
 20
501.6888302399888
 30
0.0
 11
65.97749106089395
 21
500.6888302399887
 31
0.0
 12
62.97749106089395
 22
501.1888302399888
 32
0.0
 13
62.97749106089395
 23
501.1888302399888
 33
0.0
  0
SOLID
  5
E3
330
DD
100
AcDbEntity
  8
-TEXT3
100
AcDbTrace
 10
79.97749106089395
 20
501.6888302399888
 30
0.0
 11
79.97749106089395
 21
500.6888302399887
 31
0.0
 12
82.97749106089396
 22
501.1888302399888
 32
0.0
 13
82.97749106089396
 23
501.1888302399888
 33
0.0
  0
MTEXT
  5
E4
330
DD
100
AcDbEntity
  8
-TEXT3
100
AcDbMText
 10
72.97749106089395
 20
504.0268655900907
 30
0.0
 40
3.5
 41
0.0
 71
     5
 72
     1
  1
\A1;20
 73
     1
 44
1.0
  0
POINT
  5
E5
330
DD
100
AcDbEntity
  8
DEFPOINTS
 62
     0
100
AcDbPoint
 10
62.97749106089395
 20
521.1888302399887
 30
0.0
  0
POINT
  5
E6
330
DD
100
AcDbEntity
  8
DEFPOINTS
 62
     0
100
AcDbPoint
 10
82.97749106089396
 20
521.1888302399887
 30
0.0
  0
POINT
  5
E7
330
DD
100
AcDbEntity
  8
DEFPOINTS
 62
     0
100
AcDbPoint
 10
82.97749106089396
 20
501.1888302399888
 30
0.0
  0
ENDBLK
  5
E8
330
DD
100
AcDbEntity
  8
0
100
AcDbBlockEnd
  0
BLOCK
  5
12B
330
12A
100
AcDbEntity
  8
0
100
AcDbBlockBegin
  2
*D12
 70
     1
 10
0.0
 20
0.0
 30
0.0
  3
*D12
  1

  0
LINE
  5
12C
330
12A
100
AcDbEntity
  8
-BEMASSUNG
370
    -2
100
AcDbLine
 10
245.4819090244281
 20
519.1888302399886
 30
0.0
 11
245.4819090244281
 21
499.6888302399887
 31
0.0
  0
LINE
  5
12D
330
12A
100
AcDbEntity
  8
-BEMASSUNG
370
    -2
100
AcDbLine
 10
265.4819090244281
 20
519.1888302399886
 30
0.0
 11
265.4819090244281
 21
499.6888302399887
 31
0.0
  0
LINE
  5
12E
330
12A
100
AcDbEntity
  8
-BEMASSUNG
370
    -2
100
AcDbLine
 10
248.9819090244281
 20
501.1888302399888
 30
0.0
 11
261.9819090244281
 21
501.1888302399888
 31
0.0
  0
SOLID
  5
12F
330
12A
100
AcDbEntity
  8
-BEMASSUNG
100
AcDbTrace
 10
248.9819090244281
 20
501.772163573322
 30
0.0
 11
248.9819090244281
 21
500.6054969066554
 31
0.0
 12
245.4819090244281
 22
501.1888302399888
 32
0.0
 13
245.4819090244281
 23
501.1888302399888
 33
0.0
  0
SOLID
  5
130
330
12A
100
AcDbEntity
  8
-BEMASSUNG
100
AcDbTrace
 10
261.9819090244281
 20
501.772163573322
 30
0.0
 11
261.9819090244281
 21
500.6054969066554
 31
0.0
 12
265.4819090244281
 22
501.1888302399888
 32
0.0
 13
265.4819090244281
 23
501.1888302399888
 33
0.0
  0
MTEXT
  5
131
330
12A
100
AcDbEntity
  8
-BEMASSUNG
100
AcDbMText
 10
255.4819090244281
 20
504.0268655900907
 30
0.0
 40
3.5
 41
0.0
 71
     5
 72
     1
  1
\A1;20
 73
     1
 44
1.0
  0
POINT
  5
132
330
12A
100
AcDbEntity
  8
DEFPOINTS
 62
     0
100
AcDbPoint
 10
245.4819090244281
 20
521.1888302399886
 30
0.0
  0
POINT
  5
133
330
12A
100
AcDbEntity
  8
DEFPOINTS
 62
     0
100
AcDbPoint
 10
265.4819090244281
 20
521.1888302399886
 30
0.0
  0
POINT
  5
134
330
12A
100
AcDbEntity
  8
DEFPOINTS
 62
     0
100
AcDbPoint
 10
265.4819090244281
 20
501.1888302399888
 30
0.0
  0
ENDBLK
  5
135
330
12A
100
AcDbEntity
  8
0
100
AcDbBlockEnd
  0
BLOCK
  5
146
330
145
100
AcDbEntity
  8
0
100
AcDbBlockBegin
  2
*D13
 70
     1
 10
0.0
 20
0.0
 30
0.0
  3
*D13
  1

  0
LINE
  5
147
330
145
100
AcDbEntity
  8
-TEXT3
370
    -2
100
AcDbLine
 10
177.774448551116
 20
194.414715726908
 30
0.0
 11
212.3094090543024
 21
194.414715726908
 31
0.0
  0
LINE
  5
148
330
145
100
AcDbEntity
  8
-TEXT3
370
    -2
100
AcDbLine
 10
196.960449444911
 20
178.0147157269081
 30
0.0
 11
212.3094090543023
 21
178.0147157269081
 31
0.0
  0
LINE
  5
149
330
145
100
AcDbEntity
  8
-TEXT3
370
    -2
100
AcDbLine
 10
210.8094090543023
 20
190.914715726908
 30
0.0
 11
210.8094090543023
 21
181.5147157269081
 31
0.0
  0
SOLID
  5
14A
330
145
100
AcDbEntity
  8
-TEXT3
100
AcDbTrace
 10
210.226075720969
 20
190.914715726908
 30
0.0
 11
211.3927423876357
 21
190.914715726908
 31
0.0
 12
210.8094090543024
 22
194.414715726908
 32
0.0
 13
210.8094090543024
 23
194.414715726908
 33
0.0
  0
SOLID
  5
14B
330
145
100
AcDbEntity
  8
-TEXT3
100
AcDbTrace
 10
210.226075720969
 20
181.5147157269081
 30
0.0
 11
211.3927423876357
 21
181.5147157269081
 31
0.0
 12
210.8094090543023
 22
178.0147157269081
 32
0.0
 13
210.8094090543023
 23
178.0147157269081
 33
0.0
  0
MTEXT
  5
14C
330
145
100
AcDbEntity
  8
-TEXT3
100
AcDbMText
 10
207.9713737042003
 20
186.2147157269079
 30
0.0
 40
3.5
 41
0.0
 71
     5
 72
     1
  1
\A1;16.4
 11
0.0000000000000001
 21
1.0
 31
0.0
 73
     1
 44
1.0
  0
POINT
  5
14D
330
145
100
AcDbEntity
  8
DEFPOINTS
 62
     0
100
AcDbPoint
 10
175.774448551116
 20
194.414715726908
 30
0.0
  0
POINT
  5
14E
330
145
100
AcDbEntity
  8
DEFPOINTS
 62
     0
100
AcDbPoint
 10
194.960449444911
 20
178.0147157269081
 30
0.0
  0
POINT
  5
14F
330
145
100
AcDbEntity
  8
DEFPOINTS
 62
     0
100
AcDbPoint
 10
210.8094090543023
 20
178.0147157269081
 30
0.0
  0
ENDBLK
  5
150
330
145
100
AcDbEntity
  8
0
100
AcDbBlockEnd
  0
BLOCK
  5
173
330
172
100
AcDbEntity
  8
0
100
AcDbBlockBegin
  2
*D14
 70
     1
 10
0.0
 20
0.0
 30
0.0
  3
*D14
  1

  0
LINE
  5
174
330
172
100
AcDbEntity
  8
-TEXT3
370
    -2
100
AcDbLine
 10
196.960449444911
 20
178.0147157269081
 30
0.0
 11
212.3094090543023
 21
178.0147157269081
 31
0.0
  0
LINE
  5
175
330
172
100
AcDbEntity
  8
-TEXT3
370
    -2
100
AcDbLine
 10
194.174448551116
 20
152.014715776908
 30
0.0
 11
212.3094090543023
 21
152.014715776908
 31
0.0
  0
LINE
  5
176
330
172
100
AcDbEntity
  8
-TEXT3
370
    -2
100
AcDbLine
 10
210.8094090543023
 20
174.5147157269081
 30
0.0
 11
210.8094090543023
 21
155.514715776908
 31
0.0
  0
SOLID
  5
177
330
172
100
AcDbEntity
  8
-TEXT3
100
AcDbTrace
 10
210.226075720969
 20
174.5147157269081
 30
0.0
 11
211.3927423876357
 21
174.5147157269081
 31
0.0
 12
210.8094090543023
 22
178.0147157269081
 32
0.0
 13
210.8094090543023
 23
178.0147157269081
 33
0.0
  0
SOLID
  5
178
330
172
100
AcDbEntity
  8
-TEXT3
100
AcDbTrace
 10
210.226075720969
 20
155.514715776908
 30
0.0
 11
211.3927423876357
 21
155.514715776908
 31
0.0
 12
210.8094090543023
 22
152.014715776908
 32
0.0
 13
210.8094090543023
 23
152.014715776908
 33
0.0
  0
MTEXT
  5
179
330
172
100
AcDbEntity
  8
-TEXT3
100
AcDbMText
 10
207.9713737042003
 20
165.0147157519081
 30
0.0
 40
3.5
 41
0.0
 71
     5
 72
     1
  1
\A1;26
 11
0.0000000000000001
 21
1.0
 31
0.0
 73
     1
 44
1.0
  0
POINT
  5
17A
330
172
100
AcDbEntity
  8
DEFPOINTS
 62
     0
100
AcDbPoint
 10
194.960449444911
 20
178.0147157269081
 30
0.0
  0
POINT
  5
17B
330
172
100
AcDbEntity
  8
DEFPOINTS
 62
     0
100
AcDbPoint
 10
192.174448551116
 20
152.014715776908
 30
0.0
  0
POINT
  5
17C
330
172
100
AcDbEntity
  8
DEFPOINTS
 62
     0
100
AcDbPoint
 10
210.8094090543023
 20
152.014715776908
 30
0.0
  0
ENDBLK
  5
17D
330
172
100
AcDbEntity
  8
0
100
AcDbBlockEnd
  0
BLOCK
  5
153
330
152
100
AcDbEntity
  8
0
100
AcDbBlockBegin
  2
*D15
 70
     1
 10
0.0
 20
0.0
 30
0.0
  3
*D15
  1

  0
LINE
  5
154
330
152
100
AcDbEntity
  8
-TEXT3
370
    -2
100
AcDbLine
 10
159.3744485511159
 20
180.0147157269081
 30
0.0
 11
159.3744485511159
 21
203.7291708854862
 31
0.0
  0
LINE
  5
155
330
152
100
AcDbEntity
  8
-TEXT3
370
    -2
100
AcDbLine
 10
192.174448551116
 20
180.0147157269081
 30
0.0
 11
192.174448551116
 21
203.7291708854862
 31
0.0
  0
LINE
  5
156
330
152
100
AcDbEntity
  8
-TEXT3
370
    -2
100
AcDbLine
 10
162.8744485511159
 20
202.2291708854863
 30
0.0
 11
188.674448551116
 21
202.2291708854863
 31
0.0
  0
SOLID
  5
157
330
152
100
AcDbEntity
  8
-TEXT3
100
AcDbTrace
 10
162.8744485511159
 20
202.8125042188196
 30
0.0
 11
162.8744485511159
 21
201.6458375521529
 31
0.0
 12
159.3744485511159
 22
202.2291708854863
 32
0.0
 13
159.3744485511159
 23
202.2291708854863
 33
0.0
  0
SOLID
  5
158
330
152
100
AcDbEntity
  8
-TEXT3
100
AcDbTrace
 10
188.674448551116
 20
202.8125042188196
 30
0.0
 11
188.674448551116
 21
201.6458375521529
 31
0.0
 12
192.174448551116
 22
202.2291708854863
 32
0.0
 13
192.174448551116
 23
202.2291708854863
 33
0.0
  0
MTEXT
  5
159
330
152
100
AcDbEntity
  8
-TEXT3
100
AcDbMText
 10
175.7744485511159
 20
205.0672062355882
 30
0.0
 40
3.5
 41
0.0
 71
     5
 72
     1
  1
\A1;32.8
 73
     1
 44
1.0
  0
POINT
  5
15A
330
152
100
AcDbEntity
  8
DEFPOINTS
 62
     0
100
AcDbPoint
 10
159.3744485511159
 20
178.0147157269081
 30
0.0
  0
POINT
  5
15B
330
152
100
AcDbEntity
  8
DEFPOINTS
 62
     0
100
AcDbPoint
 10
192.174448551116
 20
178.0147157269081
 30
0.0
  0
POINT
  5
15C
330
152
100
AcDbEntity
  8
DEFPOINTS
 62
     0
100
AcDbPoint
 10
192.174448551116
 20
202.2291708854863
 30
0.0
  0
ENDBLK
  5
15D
330
152
100
AcDbEntity
  8
0
100
AcDbBlockEnd
  0
BLOCK
  5
160
330
15F
100
AcDbEntity
  8
0
100
AcDbBlockBegin
  2
*D16
 70
     1
 10
0.0
 20
0.0
 30
0.0
  3
*D16
  1

  0
LINE
  5
161
330
15F
100
AcDbEntity
  8
-TEXT3
370
    -2
100
AcDbLine
 10
138.2834562893907
 20
185.1015890419797
 30
0.0
 11
167.1767069646735
 21
179.6399355928824
 31
0.0
  0
MTEXT
  5
162
330
15F
100
AcDbEntity
  8
-TEXT3
100
AcDbMText
 10
146.2966023221981
 20
186.5865565666069
 30
0.0
 40
3.5
 41
0.0
 71
     5
 72
     1
  1
\A1;\U+220510.5
 11
0.9825990384505718
 21
-0.1857394132541917
 31
0.0
 73
     1
 44
1.0
  0
SOLID
  5
163
330
15F
100
AcDbEntity
  8
-TEXT3
100
AcDbTrace
 10
167.2850549557385
 20
180.2131183653118
 30
0.0
 11
167.0683589736085
 21
179.0667528204529
 31
0.0
 12
170.6158035992505
 22
178.9898476464927
 32
0.0
 13
170.6158035992505
 23
178.9898476464927
 33
0.0
  0
LINE
  5
164
330
15F
100
AcDbEntity
  8
-TEXT3
370
    -2
100
AcDbLine
 10
175.684448551116
 20
178.0147157269082
 30
0.0
 11
175.864448551116
 21
178.0147157269082
 31
0.0
  0
LINE
  5
165
330
15F
100
AcDbEntity
  8
-TEXT3
370
    -2
100
AcDbLine
 10
175.7744485511159
 20
177.9247157269082
 30
0.0
 11
175.774448551116
 21
178.1047157269082
 31
0.0
  0
POINT
  5
166
330
15F
100
AcDbEntity
  8
DEFPOINTS
 62
     0
100
AcDbPoint
 10
170.6158035992505
 20
178.9898476464927
 30
0.0
  0
POINT
  5
167
330
15F
100
AcDbEntity
  8
DEFPOINTS
 62
     0
100
AcDbPoint
 10
180.9330935029814
 20
177.0395838073237
 30
0.0
  0
ENDBLK
  5
168
330
15F
100
AcDbEntity
  8
0
100
AcDbBlockEnd
  0
BLOCK
  5
180
330
17F
100
AcDbEntity
  8
0
100
AcDbBlockBegin
  2
*D17
 70
     1
 10
0.0
 20
0.0
 30
0.0
  3
*D17
  1

  0
LINE
  5
181
330
17F
100
AcDbEntity
  8
-TEXT3
370
    -2
100
AcDbLine
 10
69.06286615040196
 20
196.4147157269079
 30
0.0
 11
69.06286615040196
 21
203.7291708854862
 31
0.0
  0
LINE
  5
182
330
17F
100
AcDbEntity
  8
-TEXT3
370
    -2
100
AcDbLine
 10
75.06282615040195
 20
196.4147157269079
 30
0.0
 11
75.06282615040195
 21
203.7291708854862
 31
0.0
  0
LINE
  5
183
330
17F
100
AcDbEntity
  8
-TEXT3
370
    -2
100
AcDbLine
 10
65.56286615040196
 20
202.2291708854863
 30
0.0
 11
62.06286615040196
 21
202.2291708854863
 31
0.0
  0
LINE
  5
184
330
17F
100
AcDbEntity
  8
-TEXT3
370
    -2
100
AcDbLine
 10
78.56282615040194
 20
202.2291708854863
 30
0.0
 11
82.06282615040194
 21
202.2291708854863
 31
0.0
  0
SOLID
  5
185
330
17F
100
AcDbEntity
  8
-TEXT3
100
AcDbTrace
 10
65.56286615040196
 20
202.8125042188196
 30
0.0
 11
65.56286615040196
 21
201.6458375521529
 31
0.0
 12
69.06286615040196
 22
202.2291708854863
 32
0.0
 13
69.06286615040196
 23
202.2291708854863
 33
0.0
  0
SOLID
  5
186
330
17F
100
AcDbEntity
  8
-TEXT3
100
AcDbTrace
 10
78.56282615040194
 20
202.8125042188196
 30
0.0
 11
78.56282615040194
 21
201.6458375521529
 31
0.0
 12
75.06282615040195
 22
202.2291708854863
 32
0.0
 13
75.06282615040195
 23
202.2291708854863
 33
0.0
  0
MTEXT
  5
187
330
17F
100
AcDbEntity
  8
-TEXT3
100
AcDbMText
 10
72.06284615040195
 20
205.0672062355882
 30
0.0
 40
3.5
 41
0.0
 71
     5
 72
     1
  1
\A1;6
 73
     1
 44
1.0
  0
POINT
  5
188
330
17F
100
AcDbEntity
  8
DEFPOINTS
 62
     0
100
AcDbPoint
 10
69.06286615040196
 20
194.4147157269079
 30
0.0
  0
POINT
  5
189
330
17F
100
AcDbEntity
  8
DEFPOINTS
 62
     0
100
AcDbPoint
 10
75.06282615040195
 20
194.4147157269079
 30
0.0
  0
POINT
  5
18A
330
17F
100
AcDbEntity
  8
DEFPOINTS
 62
     0
100
AcDbPoint
 10
75.06282615040195
 20
202.2291708854863
 30
0.0
  0
ENDBLK
  5
18B
330
17F
100
AcDbEntity
  8
0
100
AcDbBlockEnd
  0
BLOCK
  5
1BF
330
1BE
100
AcDbEntity
  8
0
100
AcDbBlockBegin
  2
*D18
 70
     1
 10
0.0
 20
0.0
 30
0.0
  3
*D18
  1

  0
LINE
  5
1C0
330
1BE
100
AcDbEntity
  8
-TEXT3
370
    -2
100
AcDbLine
 10
177.774448551116
 20
9.314455158578198
 30
0.0
 11
212.3094090543023
 21
9.314455158578187
 31
0.0
  0
LINE
  5
1C1
330
1BE
100
AcDbEntity
  8
-TEXT3
370
    -2
100
AcDbLine
 10
196.960449444911
 20
25.71445515857817
 30
0.0
 11
212.3094090543023
 21
25.71445515857817
 31
0.0
  0
LINE
  5
1C2
330
1BE
100
AcDbEntity
  8
-TEXT3
370
    -2
100
AcDbLine
 10
210.8094090543023
 20
12.81445515857819
 30
0.0
 11
210.8094090543023
 21
22.21445515857817
 31
0.0
  0
SOLID
  5
1C3
330
1BE
100
AcDbEntity
  8
-TEXT3
100
AcDbTrace
 10
210.226075720969
 20
12.81445515857819
 30
0.0
 11
211.3927423876357
 21
12.81445515857819
 31
0.0
 12
210.8094090543023
 22
9.314455158578189
 32
0.0
 13
210.8094090543023
 23
9.314455158578189
 33
0.0
  0
SOLID
  5
1C4
330
1BE
100
AcDbEntity
  8
-TEXT3
100
AcDbTrace
 10
210.226075720969
 20
22.21445515857817
 30
0.0
 11
211.3927423876357
 21
22.21445515857817
 31
0.0
 12
210.8094090543023
 22
25.71445515857817
 32
0.0
 13
210.8094090543023
 23
25.71445515857817
 33
0.0
  0
MTEXT
  5
1C5
330
1BE
100
AcDbEntity
  8
-TEXT3
100
AcDbMText
 10
207.9713737042003
 20
17.51445515857836
 30
0.0
 40
3.5
 41
0.0
 71
     5
 72
     1
  1
\A1;16.4
 11
0.0000000000000001
 21
1.0
 31
0.0
 73
     1
 44
1.0
  0
POINT
  5
1C6
330
1BE
100
AcDbEntity
  8
DEFPOINTS
 62
     0
100
AcDbPoint
 10
175.774448551116
 20
9.314455158578198
 30
0.0
  0
POINT
  5
1C7
330
1BE
100
AcDbEntity
  8
DEFPOINTS
 62
     0
100
AcDbPoint
 10
194.960449444911
 20
25.71445515857817
 30
0.0
  0
POINT
  5
1C8
330
1BE
100
AcDbEntity
  8
DEFPOINTS
 62
     0
100
AcDbPoint
 10
210.8094090543023
 20
25.71445515857817
 30
0.0
  0
ENDBLK
  5
1C9
330
1BE
100
AcDbEntity
  8
0
100
AcDbBlockEnd
  0
BLOCK
  5
1B2
330
1B1
100
AcDbEntity
  8
0
100
AcDbBlockBegin
  2
*D19
 70
     1
 10
0.0
 20
0.0
 30
0.0
  3
*D19
  1

  0
LINE
  5
1B3
330
1B1
100
AcDbEntity
  8
-TEXT3
370
    -2
100
AcDbLine
 10
159.3744485511159
 20
23.71445515857818
 30
0.0
 11
159.3744485511159
 21
0.0
 31
0.0
  0
LINE
  5
1B4
330
1B1
100
AcDbEntity
  8
-TEXT3
370
    -2
100
AcDbLine
 10
192.174448551116
 20
23.71445515857818
 30
0.0
 11
192.174448551116
 21
0.0
 31
0.0
  0
LINE
  5
1B5
330
1B1
100
AcDbEntity
  8
-TEXT3
370
    -2
100
AcDbLine
 10
162.8744485511159
 20
1.5
 30
0.0
 11
188.674448551116
 21
1.5
 31
0.0
  0
SOLID
  5
1B6
330
1B1
100
AcDbEntity
  8
-TEXT3
100
AcDbTrace
 10
162.8744485511159
 20
2.083333333333333
 30
0.0
 11
162.8744485511159
 21
0.9166666666666667
 31
0.0
 12
159.3744485511159
 22
1.5
 32
0.0
 13
159.3744485511159
 23
1.5
 33
0.0
  0
SOLID
  5
1B7
330
1B1
100
AcDbEntity
  8
-TEXT3
100
AcDbTrace
 10
188.674448551116
 20
2.083333333333333
 30
0.0
 11
188.674448551116
 21
0.9166666666666667
 31
0.0
 12
192.174448551116
 22
1.5
 32
0.0
 13
192.174448551116
 23
1.5
 33
0.0
  0
MTEXT
  5
1B8
330
1B1
100
AcDbEntity
  8
-TEXT3
100
AcDbMText
 10
175.7744485511159
 20
4.338035350101971
 30
0.0
 40
3.5
 41
0.0
 71
     5
 72
     1
  1
\A1;32.8
 73
     1
 44
1.0
  0
POINT
  5
1B9
330
1B1
100
AcDbEntity
  8
DEFPOINTS
 62
     0
100
AcDbPoint
 10
159.3744485511159
 20
25.71445515857817
 30
0.0
  0
POINT
  5
1BA
330
1B1
100
AcDbEntity
  8
DEFPOINTS
 62
     0
100
AcDbPoint
 10
192.174448551116
 20
25.71445515857817
 30
0.0
  0
POINT
  5
1BB
330
1B1
100
AcDbEntity
  8
DEFPOINTS
 62
     0
100
AcDbPoint
 10
192.174448551116
 20
1.5
 30
0.0
  0
ENDBLK
  5
1BC
330
1B1
100
AcDbEntity
  8
0
100
AcDbBlockEnd
  0
BLOCK
  5
1A7
330
1A6
100
AcDbEntity
  8
0
100
AcDbBlockBegin
  2
*D20
 70
     1
 10
0.0
 20
0.0
 30
0.0
  3
*D20
  1

  0
LINE
  5
1A8
330
1A6
100
AcDbEntity
  8
-TEXT3
370
    -2
100
AcDbLine
 10
138.2834562893908
 20
18.62758184350627
 30
0.0
 11
167.1767069646737
 21
24.08923529260387
 31
0.0
  0
MTEXT
  5
1A9
330
1A6
100
AcDbEntity
  8
-TEXT3
100
AcDbMText
 10
145.2016741630997
 20
22.93500559143124
 30
0.0
 40
3.5
 41
0.0
 71
     5
 72
     1
  1
\A1;\U+220510.5
 11
0.9825990384505708
 21
0.1857394132541993
 31
0.0
 73
     1
 44
1.0
  0
SOLID
  5
1AA
330
1A6
100
AcDbEntity
  8
-TEXT3
100
AcDbTrace
 10
167.0683589736087
 20
24.66241806503337
 30
0.0
 11
167.2850549557386
 21
23.51605252017437
 31
0.0
 12
170.6158035992506
 22
24.73932323899357
 32
0.0
 13
170.6158035992506
 23
24.73932323899357
 33
0.0
  0
LINE
  5
1AB
330
1A6
100
AcDbEntity
  8
-TEXT3
370
    -2
100
AcDbLine
 10
175.684448551116
 20
25.71445515857809
 30
0.0
 11
175.864448551116
 21
25.71445515857809
 31
0.0
  0
LINE
  5
1AC
330
1A6
100
AcDbEntity
  8
-TEXT3
370
    -2
100
AcDbLine
 10
175.774448551116
 20
25.62445515857808
 30
0.0
 11
175.774448551116
 21
25.80445515857809
 31
0.0
  0
POINT
  5
1AD
330
1A6
100
AcDbEntity
  8
DEFPOINTS
 62
     0
100
AcDbPoint
 10
170.6158035992506
 20
24.73932323899357
 30
0.0
  0
POINT
  5
1AE
330
1A6
100
AcDbEntity
  8
DEFPOINTS
 62
     0
100
AcDbPoint
 10
180.9330935029814
 20
26.68958707816262
 30
0.0
  0
ENDBLK
  5
1AF
330
1A6
100
AcDbEntity
  8
0
100
AcDbBlockEnd
  0
BLOCK
  5
192
330
191
100
AcDbEntity
  8
0
100
AcDbBlockBegin
  2
*D21
 70
     1
 10
0.0
 20
0.0
 30
0.0
  3
*D21
  1

  0
LINE
  5
193
330
191
100
AcDbEntity
  8
-TEXT3
370
    -2
100
AcDbLine
 10
196.960449444911
 20
25.71445515857817
 30
0.0
 11
212.3094090543023
 21
25.71445515857817
 31
0.0
  0
LINE
  5
194
330
191
100
AcDbEntity
  8
-TEXT3
370
    -2
100
AcDbLine
 10
194.174448551116
 20
51.71445510857825
 30
0.0
 11
212.3094090543023
 21
51.71445510857824
 31
0.0
  0
LINE
  5
195
330
191
100
AcDbEntity
  8
-TEXT3
370
    -2
100
AcDbLine
 10
210.8094090543023
 20
29.21445515857817
 30
0.0
 11
210.8094090543023
 21
48.21445510857824
 31
0.0
  0
SOLID
  5
196
330
191
100
AcDbEntity
  8
-TEXT3
100
AcDbTrace
 10
210.226075720969
 20
29.21445515857817
 30
0.0
 11
211.3927423876357
 21
29.21445515857817
 31
0.0
 12
210.8094090543023
 22
25.71445515857817
 32
0.0
 13
210.8094090543023
 23
25.71445515857817
 33
0.0
  0
SOLID
  5
197
330
191
100
AcDbEntity
  8
-TEXT3
100
AcDbTrace
 10
210.226075720969
 20
48.21445510857824
 30
0.0
 11
211.3927423876357
 21
48.21445510857824
 31
0.0
 12
210.8094090543023
 22
51.71445510857824
 32
0.0
 13
210.8094090543023
 23
51.71445510857824
 33
0.0
  0
MTEXT
  5
198
330
191
100
AcDbEntity
  8
-TEXT3
100
AcDbMText
 10
207.9713737042003
 20
38.71445513357824
 30
0.0
 40
3.5
 41
0.0
 71
     5
 72
     1
  1
\A1;26
 11
0.0000000000000001
 21
1.0
 31
0.0
 73
     1
 44
1.0
  0
POINT
  5
199
330
191
100
AcDbEntity
  8
DEFPOINTS
 62
     0
100
AcDbPoint
 10
194.960449444911
 20
25.71445515857817
 30
0.0
  0
POINT
  5
19A
330
191
100
AcDbEntity
  8
DEFPOINTS
 62
     0
100
AcDbPoint
 10
192.174448551116
 20
51.71445510857825
 30
0.0
  0
POINT
  5
19B
330
191
100
AcDbEntity
  8
DEFPOINTS
 62
     0
100
AcDbPoint
 10
210.8094090543023
 20
51.71445510857824
 30
0.0
  0
ENDBLK
  5
19C
330
191
100
AcDbEntity
  8
0
100
AcDbBlockEnd
  0
BLOCK
  5
1D6
330
1D5
100
AcDbEntity
  8
0
100
AcDbBlockBegin
  2
*D22
 70
     1
 10
0.0
 20
0.0
 30
0.0
  3
*D22
  1

  0
LINE
  5
1D7
330
1D5
100
AcDbEntity
  8
-TEXT3
370
    -2
100
AcDbLine
 10
69.06286615040196
 20
7.314455158578311
 30
0.0
 11
69.06286615040196
 21
0.0
 31
0.0
  0
LINE
  5
1D8
330
1D5
100
AcDbEntity
  8
-TEXT3
370
    -2
100
AcDbLine
 10
75.06282615040195
 20
7.314455158578311
 30
0.0
 11
75.06282615040195
 21
0.0
 31
0.0
  0
LINE
  5
1D9
330
1D5
100
AcDbEntity
  8
-TEXT3
370
    -2
100
AcDbLine
 10
65.56286615040196
 20
1.5
 30
0.0
 11
62.06286615040196
 21
1.5
 31
0.0
  0
LINE
  5
1DA
330
1D5
100
AcDbEntity
  8
-TEXT3
370
    -2
100
AcDbLine
 10
78.56282615040194
 20
1.5
 30
0.0
 11
82.06282615040194
 21
1.5
 31
0.0
  0
SOLID
  5
1DB
330
1D5
100
AcDbEntity
  8
-TEXT3
100
AcDbTrace
 10
65.56286615040196
 20
2.083333333333333
 30
0.0
 11
65.56286615040196
 21
0.9166666666666667
 31
0.0
 12
69.06286615040196
 22
1.5
 32
0.0
 13
69.06286615040196
 23
1.5
 33
0.0
  0
SOLID
  5
1DC
330
1D5
100
AcDbEntity
  8
-TEXT3
100
AcDbTrace
 10
78.56282615040194
 20
2.083333333333333
 30
0.0
 11
78.56282615040194
 21
0.9166666666666667
 31
0.0
 12
75.06282615040195
 22
1.5
 32
0.0
 13
75.06282615040195
 23
1.5
 33
0.0
  0
MTEXT
  5
1DD
330
1D5
100
AcDbEntity
  8
-TEXT3
100
AcDbMText
 10
72.06284615040195
 20
4.338035350101971
 30
0.0
 40
3.5
 41
0.0
 71
     5
 72
     1
  1
\A1;6
 73
     1
 44
1.0
  0
POINT
  5
1DE
330
1D5
100
AcDbEntity
  8
DEFPOINTS
 62
     0
100
AcDbPoint
 10
69.06286615040196
 20
9.314455158578311
 30
0.0
  0
POINT
  5
1DF
330
1D5
100
AcDbEntity
  8
DEFPOINTS
 62
     0
100
AcDbPoint
 10
75.06282615040195
 20
9.314455158578311
 30
0.0
  0
POINT
  5
1E0
330
1D5
100
AcDbEntity
  8
DEFPOINTS
 62
     0
100
AcDbPoint
 10
75.06282615040195
 20
1.5
 30
0.0
  0
ENDBLK
  5
1E1
330
1D5
100
AcDbEntity
  8
0
100
AcDbBlockEnd
  0
ENDSEC
  0
SECTION
  2
ENTITIES
  0
LINE
  5
9
330
2
100
AcDbEntity
  8
-SYSTEM
100
AcDbLine
 10
72.97749106089383
 20
589.6453957786652
 30
0.0
 11
72.97749106089402
 21
509.5751974890986
 31
0.0
  0
LINE
  5
C
330
2
100
AcDbEntity
  8
-VERGLASUNG
100
AcDbLine
 10
27.58276182980501
 20
560.6888300278562
 30
0.0
 11
31.47663664943105
 21
564.5827048474822
 31
0.0
  0
LINE
  5
E
330
2
100
AcDbEntity
  8
-VERGLASUNG
100
AcDbLine
 10
29.14526182980501
 20
560.6888300278562
 30
0.0
 11
33.03913664943105
 21
564.5827048474822
 31
0.0
  0
LINE
  5
F
330
2
100
AcDbEntity
  8
-VERGLASUNG
100
AcDbLine
 10
25.9276763938143
 20
571.7949552082294
 30
0.0
 11
29.82155121344033
 21
575.6888300278554
 31
0.0
  0
LINE
  5
10
330
2
100
AcDbEntity
  8
-VERGLASUNG
100
AcDbLine
 10
24.3651763938143
 20
571.7949552082294
 30
0.0
 11
28.25905121344033
 21
575.6888300278554
 31
0.0
  0
LINE
  5
11
330
2
100
AcDbEntity
  8
-VERGLASUNG
100
AcDbLine
 10
22.80267639381429
 20
571.7949552082294
 30
0.0
 11
26.69655121344033
 21
575.6888300278554
 31
0.0
  0
LINE
  5
12
330
2
100
AcDbEntity
  8
-VERGLASUNG
100
AcDbLine
 10
26.02026182980501
 20
560.6888300278562
 30
0.0
 11
29.91413664943105
 21
564.5827048474822
 31
0.0
  0
LINE
  5
13
330
2
100
AcDbEntity
  8
-NORMTEIL_VERDECKT
100
AcDbLine
 10
55.89749106089403
 20
560.6888302399885
 30
0.0
 11
90.05749106089387
 21
560.6888302399885
 31
0.0
  0
LINE
  5
16
330
2
100
AcDbEntity
  8
-NORMTEIL_VERDECKT
100
AcDbLine
 10
54.97749106089372
 20
560.6888302399887
 30
0.0
 11
55.89749106089391
 21
560.6888302399887
 31
0.0
  0
LINE
  5
17
330
2
100
AcDbEntity
  8
-NORMTEIL_VERDECKT
100
AcDbLine
 10
54.97749106089441
 20
560.6888302399885
 30
0.0
 11
55.8974910608946
 21
560.6888302399885
 31
0.0
  0
LINE
  5
18
330
2
100
AcDbEntity
  8
-NORMTEIL_VERDECKT
100
AcDbLine
 10
103.977491060894
 20
560.6888302399885
 30
0.0
 11
90.05749106089387
 21
560.6888302399885
 31
0.0
  0
LINE
  5
19
330
2
100
AcDbEntity
  8
-NORMTEIL_VERDECKT
100
AcDbLine
 10
90.97749106089395
 20
560.6888302399887
 30
0.0
 11
90.05749106089377
 21
560.6888302399887
 31
0.0
  0
LINE
  5
1A
330
2
100
AcDbEntity
  8
-NORMTEIL_VERDECKT
100
AcDbLine
 10
90.97749106089464
 20
560.6888302399885
 30
0.0
 11
90.05749106089444
 21
560.6888302399885
 31
0.0
  0
LINE
  5
1B
330
2
100
AcDbEntity
  8
-VERGLASUNG
100
AcDbLine
 10
96.11552644249776
 20
560.688830027856
 30
0.0
 11
100.0094012621238
 21
564.5827048474821
 31
0.0
  0
LINE
  5
1C
330
2
100
AcDbEntity
  8
-VERGLASUNG
100
AcDbLine
 10
94.46044100650704
 20
571.7949552082292
 30
0.0
 11
98.35431582613308
 21
575.6888300278553
 31
0.0
  0
LINE
  5
1D
330
2
100
AcDbEntity
  8
-VERGLASUNG
100
AcDbLine
 10
92.89794100650704
 20
571.7949552082292
 30
0.0
 11
96.79181582613308
 21
575.6888300278553
 31
0.0
  0
LINE
  5
1E
330
2
100
AcDbEntity
  8
-VERGLASUNG
100
AcDbLine
 10
94.55302644249774
 20
560.688830027856
 30
0.0
 11
98.44690126212379
 21
564.5827048474821
 31
0.0
  0
LINE
  5
1F
330
2
100
AcDbEntity
  8
-VERGLASUNG
100
AcDbLine
 10
91.33544100650704
 20
571.7949552082292
 30
0.0
 11
95.22931582613308
 21
575.6888300278553
 31
0.0
  0
LINE
  5
20
330
2
100
AcDbEntity
  8
-VERGLASUNG
100
AcDbLine
 10
97.67802644249776
 20
560.688830027856
 30
0.0
 11
101.5719012621238
 21
564.582704847482
 31
0.0
  0
LINE
  5
21
330
2
100
AcDbEntity
  8
-VERGLASUNG
100
AcDbLine
 10
115.3881979606295
 20
571.7949552789399
 30
0.0
 11
119.2820727802556
 21
575.6888300985659
 31
0.0
  0
LINE
  5
22
330
2
100
AcDbEntity
  8
-VERGLASUNG
100
AcDbLine
 10
112.2631979606295
 20
571.7949552789399
 30
0.0
 11
116.1570727802556
 21
575.6888300985659
 31
0.0
  0
LINE
  5
23
330
2
100
AcDbEntity
  8
-VERGLASUNG
100
AcDbLine
 10
113.8256979606295
 20
571.7949552789399
 30
0.0
 11
117.7195727802556
 21
575.6888300985659
 31
0.0
  0
LINE
  5
24
330
2
100
AcDbEntity
  8
-VERGLASUNG
100
AcDbLine
 10
117.0432833966202
 20
560.6888300985668
 30
0.0
 11
120.9371582162463
 21
564.5827049181928
 31
0.0
  0
LINE
  5
25
330
2
100
AcDbEntity
  8
-VERGLASUNG
100
AcDbLine
 10
115.4807833966202
 20
560.6888300985668
 30
0.0
 11
119.3746582162463
 21
564.5827049181928
 31
0.0
  0
LINE
  5
26
330
2
100
AcDbEntity
  8
-VERGLASUNG
100
AcDbLine
 10
118.6057833966202
 20
560.6888300985668
 30
0.0
 11
122.4996582162463
 21
564.5827049181926
 31
0.0
  0
LINE
  5
27
330
2
100
AcDbEntity
  8
-NORMTEIL_VERDECKT
100
AcDbLine
 10
57.47749106089452
 20
575.6888302399874
 30
0.0
 11
88.47749106089452
 21
575.6888302399874
 31
0.0
  0
LINE
  5
28
330
2
100
AcDbEntity
  8
-VERGLASUNG
100
AcDbLine
 10
50.07301878392752
 20
560.6888300985669
 30
0.0
 11
53.96689360355356
 21
564.5827049181929
 31
0.0
  0
LINE
  5
29
330
2
100
AcDbEntity
  8
-VERGLASUNG
100
AcDbLine
 10
46.94801878392752
 20
560.6888300985669
 30
0.0
 11
50.84189360355356
 21
564.582704918193
 31
0.0
  0
LINE
  5
2A
330
2
100
AcDbEntity
  8
-VERGLASUNG
100
AcDbLine
 10
48.51051878392752
 20
560.6888300985669
 30
0.0
 11
52.40439360355356
 21
564.582704918193
 31
0.0
  0
LINE
  5
2B
330
2
100
AcDbEntity
  8
-VERGLASUNG
100
AcDbLine
 10
45.2929333479368
 20
571.7949552789401
 30
0.0
 11
49.18680816756284
 21
575.6888300985662
 31
0.0
  0
LINE
  5
2C
330
2
100
AcDbEntity
  8
-VERGLASUNG
100
AcDbLine
 10
43.7304333479368
 20
571.7949552789401
 30
0.0
 11
47.62430816756284
 21
575.6888300985662
 31
0.0
  0
LINE
  5
2D
330
2
100
AcDbEntity
  8
-VERGLASUNG
100
AcDbLine
 10
46.8554333479368
 20
571.7949552789401
 30
0.0
 11
50.74930816756284
 21
575.6888300985662
 31
0.0
  0
INSERT
  5
2E
330
2
100
AcDbEntity
  8
-NORMTEIL_VERDECKT
100
AcDbBlockReference
  2
ANSICHT68
 10
72.97749106091817
 20
477.2992089557523
 30
0.0
  0
LWPOLYLINE
  5
42
330
2
100
AcDbEntity
  8
-VERGLASUNG
100
AcDbPolyline
 90
        6
 70
     0
 43
0.0
 10
23.27315357294731
 20
575.6888302399878
 10
150.9774910608939
 20
575.6888302399873
 10
152.9774910608939
 20
573.6888302399872
 10
152.9774910608939
 20
562.6888302399883
 10
150.9774910608939
 20
560.6888302399883
 10
23.27315357294731
 20
560.6888302399887
  0
LINE
  5
43
330
2
100
AcDbEntity
  8
-VERGLASUNG
100
AcDbLine
 10
136.3159549147521
 20
571.7949553496506
 30
0.0
 11
140.2098297343781
 21
575.6888301692766
 31
0.0
  0
LINE
  5
44
330
2
100
AcDbEntity
  8
-VERGLASUNG
100
AcDbLine
 10
133.1909549147521
 20
571.7949553496506
 30
0.0
 11
137.0848297343781
 21
575.6888301692766
 31
0.0
  0
LINE
  5
45
330
2
100
AcDbEntity
  8
-VERGLASUNG
100
AcDbLine
 10
134.7534549147521
 20
571.7949553496506
 30
0.0
 11
138.6473297343781
 21
575.6888301692766
 31
0.0
  0
LINE
  5
46
330
2
100
AcDbEntity
  8
-VERGLASUNG
100
AcDbLine
 10
136.4085403507428
 20
560.6888301692775
 30
0.0
 11
140.3024151703688
 21
564.5827049889034
 31
0.0
  0
LINE
  5
47
330
2
100
AcDbEntity
  8
-VERGLASUNG
100
AcDbLine
 10
139.5335403507428
 20
560.6888301692775
 30
0.0
 11
143.4274151703688
 21
564.5827049889033
 31
0.0
  0
LINE
  5
48
330
2
100
AcDbEntity
  8
-VERGLASUNG
100
AcDbLine
 10
137.9710403507428
 20
560.6888301692775
 30
0.0
 11
141.8649151703688
 21
564.5827049889034
 31
0.0
  0
LWPOLYLINE
  5
49
330
2
100
AcDbEntity
  8
-NORMTEIL_VERDECKT
100
AcDbPolyline
 90
        4
 70
     1
 43
0.0
 10
63.7274910608939
 20
560.6888302399872
 10
82.2274910608939
 20
560.6888302399872
 10
82.2274910608939
 20
575.688830239987
 10
63.7274910608939
 20
575.688830239987
  0
LWPOLYLINE
  5
4A
330
2
100
AcDbEntity
  8
-NORMTEIL_VERDECKT
100
AcDbPolyline
 90
        4
 70
     1
 43
0.0
 10
62.4774910608939
 20
560.6888302399885
 10
83.47749106089386
 20
560.6888302399885
 10
83.47749106089386
 20
575.688830239987
 10
62.4774910608939
 20
575.688830239987
  0
LWPOLYLINE
  5
4B
330
2
100
AcDbEntity
  8
-PROFILAUSSENKANTET
100
AcDbPolyline
 90
       11
 70
     0
 43
0.0
 10
38.97749106089384
 20
578.6888302399871
 10
106.9774910608939
 20
578.688830239987
 10
106.9774910608939
 20
582.4945760632196
 42
0.375901963977188
 10
105.2418185010759
 20
584.4770318645851
 10
83.87589447950478
 20
586.6449697434002
 42
0.033150018187446
 10
83.21507587904978
 20
586.688830239987
 10
63.96075340659456
 20
586.688830239987
 42
0.0413106451481675
 10
63.13875847006795
 20
586.6207998591478
 10
40.64869308628328
 20
584.4673639108854
 42
0.3666293647015965
 10
38.97749106089384
 20
582.4945760632212
 10
38.97749106089384
 20
578.6888302399871
  0
LWPOLYLINE
  5
4C
330
2
100
AcDbEntity
  8
-NORMTEIL_VERDECKT
100
AcDbPolyline
 90
        5
 70
     0
 43
0.0
 10
67.97749106089338
 20
586.6888302399861
 10
67.97749106089338
 20
582.6888302399861
 10
69.47749106089339
 20
581.6888302399861
 10
70.97749106089338
 20
582.6888302399861
 10
70.97749106089338
 20
586.688830239987
  0
LINE
  5
4D
330
2
100
AcDbEntity
  8
-NORMTEIL_VERDECKT
100
AcDbLine
 10
67.97749106089338
 20
582.6888302399861
 30
0.0
 11
70.97749106089338
 21
582.6888302399861
 31
0.0
  0
LWPOLYLINE
  5
4E
330
2
100
AcDbEntity
  8
-NORMTEIL_VERDECKT
100
AcDbPolyline
 90
        5
 70
     0
 43
0.0
 10
78.47749106089338
 20
586.6888302399861
 10
78.47749106089338
 20
582.6888302399861
 10
79.97749106089338
 20
581.6888302399861
 10
81.47749106089339
 20
582.6888302399861
 10
81.47749106089339
 20
586.6888302399861
  0
LINE
  5
4F
330
2
100
AcDbEntity
  8
-NORMTEIL_VERDECKT
100
AcDbLine
 10
78.47749106089338
 20
582.6888302399861
 30
0.0
 11
81.47749106089339
 21
582.6888302399861
 31
0.0
  0
LINE
  5
50
330
2
100
AcDbEntity
  8
-NORMTEIL_VERDECKT
100
AcDbLine
 10
76.30049106089416
 20
565.6888302399872
 30
0.0
 11
76.3004910608945
 21
578.6888302399872
 31
0.0
  0
LWPOLYLINE
  5
51
330
2
100
AcDbEntity
  8
-NORMTEIL_VERDECKT
100
AcDbPolyline
 90
        6
 70
     0
 43
0.0
 10
68.97749106089418
 20
578.6888302399874
 10
68.97749106089384
 20
566.3658302399872
 10
69.65449106089398
 20
565.6888302399872
 10
76.30049106089416
 20
565.6888302399871
 10
76.97749106089384
 20
566.3658302399872
 10
76.97749106089418
 20
578.6888302399872
  0
LINE
  5
52
330
2
100
AcDbEntity
  8
-NORMTEIL_VERDECKT
100
AcDbLine
 10
69.65449106089398
 20
565.6888302399872
 30
0.0
 11
69.65449106089431
 21
578.6888302399875
 31
0.0
  0
LINE
  5
53
330
2
100
AcDbEntity
  8
-NORMTEIL_VERDECKT
100
AcDbLine
 10
68.97749106089384
 20
566.3658302399872
 30
0.0
 11
76.97749106089384
 21
566.3658302399872
 31
0.0
  0
LWPOLYLINE
  5
54
102
{ACAD_REACTORS
330
56
102
}
330
2
100
AcDbEntity
  8
-DICHTUNG
100
AcDbPolyline
 90
        4
 70
     1
 43
0.0
 10
39.4774910608939
 20
575.688830239987
 10
106.4774910608939
 20
575.688830239987
 10
106.4774910608939
 20
578.688830239987
 10
39.4774910608939
 20
578.688830239987
  0
HATCH
  5
56
330
2
100
AcDbEntity
  8
-SCHRAFFUR
100
AcDbHatch
 10
0.0
 20
0.0
 30
-0.0000000000004796
210
0.0
220
0.0
230
1.0
  2
SOLID
 70
     1
 71
     1
 91
        1
 92
        7
 72
     0
 73
     1
 93
        4
 10
39.4774910608939
 20
575.688830239987
 10
106.4774910608939
 20
575.688830239987
 10
106.4774910608939
 20
578.688830239987
 10
39.4774910608939
 20
578.688830239987
 97
        1
330
54
 75
     0
 76
     1
 47
0.1104417393292511
 98
        1
 10
71.53931877128951
 20
578.5585111426164
450
        0
451
        0
460
0.0
461
0.0
452
        1
462
1.0
453
        2
463
0.0
 63
     5
421
      255
463
1.0
 63
     7
421
 16777215
470
LINEAR
  0
HATCH
  5
57
330
2
100
AcDbEntity
  8
-SCHRAFFUR
100
AcDbHatch
 10
0.0
 20
0.0
 30
0.0
210
0.0
220
0.0
230
1.0
  2
SOLID
 70
     1
 71
     1
 91
        1
 92
        7
 72
     0
 73
     1
 93
        4
 10
39.4774910608939
 20
557.6888302399886
 10
106.4774910608939
 20
557.6888302399886
 10
106.4774910608939
 20
560.6888302399885
 10
39.47749106089391
 20
560.6888302399887
 97
        1
330
58
 75
     0
 76
     1
 47
0.1104417393292511
 98
        1
 10
71.53931877128951
 20
560.5585111426178
450
        0
451
        0
460
0.0
461
0.0
452
        1
462
1.0
453
        2
463
0.0
 63
     5
421
      255
463
1.0
 63
     7
421
 16777215
470
LINEAR
  0
LWPOLYLINE
  5
58
102
{ACAD_REACTORS
330
57
102
}
330
2
100
AcDbEntity
  8
-DICHTUNG
100
AcDbPolyline
 90
        4
 70
     1
 43
0.0
 10
39.4774910608939
 20
557.6888302399885
 10
106.4774910608939
 20
557.6888302399885
 10
106.4774910608939
 20
560.6888302399885
 10
39.4774910608939
 20
560.6888302399885
  0
DIMENSION
  5
59
330
2
100
AcDbEntity
  8
-TEXT3
100
AcDbDimension
  2
*D2
 10
8.301406688908457
 20
532.6888302399902
 30
0.0
 11
5.463371338806399
 21
524.4888302399902
 31
0.0
 71
     5
 42
16.39999999999998
  3
1-1
100
AcDbAlignedDimension
 13
71.55140668890848
 23
516.2888302399903
 33
0.0
 14
54.7514066889086
 24
532.6888302399902
 34
0.0
 50
90.0
100
AcDbRotatedDimension
  0
DIMENSION
  5
69
330
2
100
AcDbEntity
  8
-TEXT3
100
AcDbDimension
  2
*D3
 10
8.301406688908485
 20
560.6888300808899
 30
0.0
 11
5.463371338806424
 21
546.6888301604401
 31
0.0
 71
     5
 42
27.9999998408997
  3
1-1
100
AcDbAlignedDimension
 13
54.7514066889086
 23
532.6888302399902
 33
0.0
 14
18.30140668890846
 24
560.6888300808899
 34
0.0
 50
90.0
100
AcDbRotatedDimension
  0
DIMENSION
  5
76
330
2
100
AcDbEntity
  8
-TEXT3
100
AcDbDimension
  2
*D4
 10
19.551406715425
 20
557.6888302399892
 30
0.0
 11
16.75738904037393
 21
555.1888302399893
 31
0.0
 71
     5
 42
4.999999999999886
  3
1-1 PUL
100
AcDbAlignedDimension
 13
40.55140668890849
 23
552.6888302399893
 33
0.0
 14
37.55140668890849
 24
557.6888302399892
 34
0.0
 50
90.0
100
AcDbRotatedDimension
  0
DIMENSION
  5
8A
330
2
100
AcDbEntity
  8
-TEXT3
100
AcDbDimension
  2
*D5
 10
19.55140671542505
 20
557.6888302399885
 30
0.0
 11
19.55140671542496
 21
559.1888302399886
 31
0.0
 70
   128
 71
     5
 42
3.000000000000113
  3
1-1 PUL
100
AcDbAlignedDimension
 13
23.27315357294731
 23
560.6888302399887
 33
0.0
 14
38.97749106089387
 24
557.6888302399885
 34
0.0
 50
90.0
100
AcDbRotatedDimension
  0
DIMENSION
  5
99
330
2
100
AcDbEntity
  8
-TEXT3
100
AcDbDimension
  2
*D6
 10
19.55140668890846
 20
575.6888302399878
 30
0.0
 11
16.71337133880639
 21
568.1888302399881
 31
0.0
  1
G
 71
     5
 42
14.9999999999992
  3
1-1
100
AcDbAlignedDimension
 13
23.27315357294731
 23
560.6888302399887
 33
0.0
 14
23.27315357294731
 24
575.6888302399878
 34
0.0
 50
90.0
100
AcDbRotatedDimension
  0
DIMENSION
  5
A6
330
2
100
AcDbEntity
  8
-TEXT3
100
AcDbDimension
  2
*D7
 10
19.55140668890851
 20
578.6888302399878
 30
0.0
 11
19.55140668890841
 21
577.1888302399879
 31
0.0
 70
   128
 71
     5
 42
3.0
  3
1-1 PUL
100
AcDbAlignedDimension
 13
23.27315357294731
 23
575.6888302399878
 33
0.0
 14
36.55140668890846
 24
578.6888302399878
 34
0.0
 50
90.0
100
AcDbRotatedDimension
  0
DIMENSION
  5
B5
330
2
100
AcDbEntity
  8
-TEXT3
100
AcDbDimension
  2
*D8
 10
19.55140668890851
 20
578.6888302399871
 30
0.0
 11
19.55140668890841
 21
582.4403621399454
 31
0.0
 70
   128
 71
     5
 42
7.999999999999886
  3
1-1 PUL
100
AcDbAlignedDimension
 13
63.96075340659426
 23
586.688830239987
 33
0.0
 14
38.97749106089384
 24
578.6888302399871
 34
0.0
 50
90.0
100
AcDbRotatedDimension
  0
DIMENSION
  5
C2
330
2
100
AcDbEntity
  8
-TEXT3
100
AcDbDimension
  2
*D9
 10
106.9774910608939
 20
597.4945760632197
 30
0.0
 11
72.97749106089388
 21
600.4420607675025
 31
0.0
  1
%%c<>
 71
     5
 42
68.00000000000008
  3
1-1
100
AcDbAlignedDimension
 13
38.97749106089384
 23
582.4945760632212
 33
0.0
 14
106.9774910608939
 24
582.4945760632196
 34
0.0
100
AcDbRotatedDimension
  0
DIMENSION
  5
CF
330
2
100
AcDbEntity
  8
-TEXT3
100
AcDbDimension
  2
*D10
 10
97.79048560386792
 20
537.6888302399895
 30
0.0
 11
97.79048560386783
 21
532.6888302399895
 31
0.0
 70
   128
  1
%%c<>
 71
     5
 42
10.0
  3
1-1
100
AcDbAlignedDimension
 13
85.57749106089378
 23
527.6888302399895
 33
0.0
 14
85.57749106089378
 24
537.6888302399895
 34
0.0
 50
90.0
100
AcDbRotatedDimension
  0
DIMENSION
  5
DC
330
2
100
AcDbEntity
  8
-TEXT3
100
AcDbDimension
  2
*D11
 10
82.97749106089396
 20
501.1888302399888
 30
0.0
 11
72.97749106089395
 21
504.0268655900907
 31
0.0
 71
     5
 42
20.0
  3
1-1
100
AcDbAlignedDimension
 13
62.97749106089395
 23
521.1888302399887
 33
0.0
 14
82.97749106089396
 24
521.1888302399887
 34
0.0
100
AcDbRotatedDimension
  0
LINE
  5
E9
330
2
100
AcDbEntity
  8
-SYSTEM
100
AcDbLine
 10
54.7514066889086
 20
532.6888302399902
 30
0.0
 11
89.24320474666371
 21
532.6888302399902
 31
-0.0000000000000036
  0
LINE
  5
EA
330
2
100
AcDbEntity
  8
-SYSTEM
100
AcDbLine
 10
238.2360099955506
 20
532.6888302399902
 30
0.0000000000000018
 11
272.7278080533057
 21
532.6888302399902
 31
-0.0000000000000018
  0
LWPOLYLINE
  5
EB
330
2
100
AcDbEntity
  8
-EDELSTAHL DREHBLANK
100
AcDbPolyline
 90
        6
 70
     1
 43
0.0
 10
286.4819090244282
 20
552.6888302399886
 42
0.4142135623730951
 10
289.4819090244281
 20
555.6888302399886
 10
289.4819090244281
 20
557.6888302399886
 10
221.4819090244281
 20
557.6888302399885
 10
221.4819090244281
 20
555.6888302399886
 42
0.4142135623730882
 10
224.4819090244281
 20
552.6888302399886
  0
LWPOLYLINE
  5
EE
102
{ACAD_REACTORS
330
EF
102
}
330
2
100
AcDbEntity
  8
-DICHTUNG
100
AcDbPolyline
 90
        4
 70
     1
 43
0.0
 10
221.9819090244282
 20
557.6888302399885
 10
288.9819090244282
 20
557.6888302399885
 10
288.9819090244282
 20
560.6888302399885
 10
221.9819090244282
 20
560.6888302399885
  0
HATCH
  5
EF
330
2
100
AcDbEntity
  8
-SCHRAFFUR
100
AcDbHatch
 10
0.0
 20
0.0
 30
0.0
210
0.0
220
0.0
230
1.0
  2
SOLID
 70
     1
 71
     1
 91
        1
 92
        7
 72
     0
 73
     1
 93
        4
 10
221.9819090244282
 20
557.6888302399886
 10
288.9819090244282
 20
557.6888302399885
 10
288.9819090244282
 20
560.6888302399887
 10
221.9819090244281
 20
560.6888302399885
 97
        1
330
EE
 75
     0
 76
     1
 47
0.1104417393292511
 98
        1
 10
254.0437367348238
 20
560.5585111426178
450
        0
451
        0
460
0.0
461
0.0
452
        1
462
1.0
453
        2
463
0.0
 63
     5
421
      255
463
1.0
 63
     7
421
 16777215
470
LINEAR
  0
HATCH
  5
F0
330
2
100
AcDbEntity
  8
-SCHRAFFUR
100
AcDbHatch
 10
0.0
 20
0.0
 30
-0.0000000000004796
210
0.0
220
0.0
230
1.0
  2
SOLID
 70
     1
 71
     1
 91
        1
 92
        7
 72
     0
 73
     1
 93
        4
 10
221.9819090244282
 20
575.688830239987
 10
288.9819090244282
 20
575.688830239987
 10
288.9819090244282
 20
578.688830239987
 10
221.9819090244281
 20
578.688830239987
 97
        1
330
F1
 75
     0
 76
     1
 47
0.1104417393292511
 98
        1
 10
254.0437367348238
 20
578.5585111426164
450
        0
451
        0
460
0.0
461
0.0
452
        1
462
1.0
453
        2
463
0.0
 63
     5
421
      255
463
1.0
 63
     7
421
 16777215
470
LINEAR
  0
LWPOLYLINE
  5
F1
102
{ACAD_REACTORS
330
F0
102
}
330
2
100
AcDbEntity
  8
-DICHTUNG
100
AcDbPolyline
 90
        4
 70
     1
 43
0.0
 10
221.9819090244282
 20
575.688830239987
 10
288.9819090244282
 20
575.688830239987
 10
288.9819090244282
 20
578.688830239987
 10
221.9819090244282
 20
578.688830239987
  0
LINE
  5
F2
330
2
100
AcDbEntity
  8
-NORMTEIL_VERDECKT
100
AcDbLine
 10
251.4819090244281
 20
566.3658302399872
 30
0.0
 11
259.4819090244281
 21
566.3658302399872
 31
0.0
  0
LINE
  5
F3
330
2
100
AcDbEntity
  8
-NORMTEIL_VERDECKT
100
AcDbLine
 10
252.1589090244282
 20
565.6888302399872
 30
0.0
 11
252.1589090244286
 21
578.6888302399875
 31
0.0
  0
LWPOLYLINE
  5
F4
330
2
100
AcDbEntity
  8
-NORMTEIL_VERDECKT
100
AcDbPolyline
 90
        6
 70
     0
 43
0.0
 10
251.4819090244284
 20
578.6888302399874
 10
251.4819090244281
 20
566.3658302399872
 10
252.1589090244282
 20
565.6888302399872
 10
258.8049090244284
 20
565.6888302399871
 10
259.4819090244281
 20
566.3658302399872
 10
259.4819090244284
 20
578.6888302399872
  0
LINE
  5
F5
330
2
100
AcDbEntity
  8
-NORMTEIL_VERDECKT
100
AcDbLine
 10
258.8049090244284
 20
565.6888302399872
 30
0.0
 11
258.8049090244287
 21
578.6888302399872
 31
0.0
  0
LINE
  5
F6
330
2
100
AcDbEntity
  8
-NORMTEIL_VERDECKT
100
AcDbLine
 10
260.9819090244276
 20
582.6888302399861
 30
0.0
 11
263.9819090244277
 21
582.6888302399861
 31
0.0
  0
LWPOLYLINE
  5
F7
330
2
100
AcDbEntity
  8
-NORMTEIL_VERDECKT
100
AcDbPolyline
 90
        5
 70
     0
 43
0.0
 10
260.9819090244276
 20
586.6888302399861
 10
260.9819090244276
 20
582.6888302399861
 10
262.4819090244276
 20
581.6888302399861
 10
263.9819090244277
 20
582.6888302399861
 10
263.9819090244277
 20
586.6888302399861
  0
LINE
  5
F8
330
2
100
AcDbEntity
  8
-NORMTEIL_VERDECKT
100
AcDbLine
 10
250.4819090244276
 20
582.6888302399861
 30
0.0
 11
253.4819090244276
 21
582.6888302399861
 31
0.0
  0
LWPOLYLINE
  5
F9
330
2
100
AcDbEntity
  8
-NORMTEIL_VERDECKT
100
AcDbPolyline
 90
        5
 70
     0
 43
0.0
 10
250.4819090244276
 20
586.6888302399861
 10
250.4819090244276
 20
582.6888302399861
 10
251.9819090244276
 20
581.6888302399861
 10
253.4819090244276
 20
582.6888302399861
 10
253.4819090244276
 20
586.688830239987
  0
LWPOLYLINE
  5
FA
330
2
100
AcDbEntity
  8
-PROFILAUSSENKANTET
100
AcDbPolyline
 90
       11
 70
     0
 43
0.0
 10
221.4819090244281
 20
578.6888302399871
 10
289.4819090244281
 20
578.688830239987
 10
289.4819090244281
 20
582.4945760632196
 42
0.375901963977188
 10
287.7462364646102
 20
584.4770318645851
 10
266.3803124430391
 20
586.6449697434002
 42
0.033150018187446
 10
265.719493842584
 20
586.688830239987
 10
246.4651713701288
 20
586.688830239987
 42
0.0413106451481675
 10
245.6431764336022
 20
586.6207998591478
 10
223.1531110498175
 20
584.4673639108854
 42
0.3666293647015965
 10
221.4819090244281
 20
582.4945760632212
 10
221.4819090244281
 20
578.6888302399871
  0
LWPOLYLINE
  5
FB
330
2
100
AcDbEntity
  8
-NORMTEIL_VERDECKT
100
AcDbPolyline
 90
        4
 70
     1
 43
0.0
 10
244.9819090244282
 20
560.6888302399885
 10
265.9819090244281
 20
560.6888302399885
 10
265.9819090244281
 20
575.688830239987
 10
244.9819090244282
 20
575.688830239987
  0
LWPOLYLINE
  5
FC
330
2
100
AcDbEntity
  8
-NORMTEIL_VERDECKT
100
AcDbPolyline
 90
        4
 70
     1
 43
0.0
 10
246.2319090244282
 20
560.6888302399872
 10
264.7319090244281
 20
560.6888302399872
 10
264.7319090244281
 20
575.688830239987
 10
246.2319090244282
 20
575.688830239987
  0
LINE
  5
FD
330
2
100
AcDbEntity
  8
-VERGLASUNG
100
AcDbLine
 10
320.475458314277
 20
560.6888301692775
 30
0.0
 11
324.3693331339031
 21
564.5827049889034
 31
0.0
  0
LINE
  5
FE
330
2
100
AcDbEntity
  8
-VERGLASUNG
100
AcDbLine
 10
322.037958314277
 20
560.6888301692775
 30
0.0
 11
325.9318331339031
 21
564.5827049889033
 31
0.0
  0
LINE
  5
FF
330
2
100
AcDbEntity
  8
-VERGLASUNG
100
AcDbLine
 10
318.912958314277
 20
560.6888301692775
 30
0.0
 11
322.8068331339031
 21
564.5827049889034
 31
0.0
  0
LINE
  5
100
330
2
100
AcDbEntity
  8
-VERGLASUNG
100
AcDbLine
 10
317.2578728782863
 20
571.7949553496506
 30
0.0
 11
321.1517476979123
 21
575.6888301692766
 31
0.0
  0
LINE
  5
101
330
2
100
AcDbEntity
  8
-VERGLASUNG
100
AcDbLine
 10
315.6953728782863
 20
571.7949553496506
 30
0.0
 11
319.5892476979123
 21
575.6888301692766
 31
0.0
  0
LINE
  5
102
330
2
100
AcDbEntity
  8
-VERGLASUNG
100
AcDbLine
 10
318.8203728782863
 20
571.7949553496506
 30
0.0
 11
322.7142476979123
 21
575.6888301692766
 31
0.0
  0
LWPOLYLINE
  5
103
330
2
100
AcDbEntity
  8
-VERGLASUNG
100
AcDbPolyline
 90
        6
 70
     0
 43
0.0
 10
205.7775715364816
 20
575.6888302399878
 10
333.4819090244281
 20
575.6888302399873
 10
335.4819090244281
 20
573.6888302399872
 10
335.4819090244281
 20
562.6888302399883
 10
333.4819090244281
 20
560.6888302399883
 10
205.7775715364816
 20
560.6888302399887
  0
LINE
  5
104
330
2
100
AcDbEntity
  8
-VERGLASUNG
100
AcDbLine
 10
229.359851311471
 20
571.7949552789401
 30
0.0
 11
233.2537261310971
 21
575.6888300985662
 31
0.0
  0
LINE
  5
105
330
2
100
AcDbEntity
  8
-VERGLASUNG
100
AcDbLine
 10
226.234851311471
 20
571.7949552789401
 30
0.0
 11
230.1287261310971
 21
575.6888300985662
 31
0.0
  0
LINE
  5
106
330
2
100
AcDbEntity
  8
-VERGLASUNG
100
AcDbLine
 10
227.797351311471
 20
571.7949552789401
 30
0.0
 11
231.6912261310971
 21
575.6888300985662
 31
0.0
  0
LINE
  5
107
330
2
100
AcDbEntity
  8
-VERGLASUNG
100
AcDbLine
 10
231.0149367474618
 20
560.6888300985669
 30
0.0
 11
234.9088115670878
 21
564.582704918193
 31
0.0
  0
LINE
  5
108
330
2
100
AcDbEntity
  8
-VERGLASUNG
100
AcDbLine
 10
229.4524367474618
 20
560.6888300985669
 30
0.0
 11
233.3463115670878
 21
564.582704918193
 31
0.0
  0
LINE
  5
109
330
2
100
AcDbEntity
  8
-VERGLASUNG
100
AcDbLine
 10
232.5774367474618
 20
560.6888300985669
 30
0.0
 11
236.4713115670878
 21
564.5827049181929
 31
0.0
  0
LINE
  5
10A
330
2
100
AcDbEntity
  8
-NORMTEIL_VERDECKT
100
AcDbLine
 10
239.9819090244288
 20
575.6888302399874
 30
0.0
 11
270.9819090244288
 21
575.6888302399874
 31
0.0
  0
LINE
  5
10B
330
2
100
AcDbEntity
  8
-VERGLASUNG
100
AcDbLine
 10
301.1102013601545
 20
560.6888300985668
 30
0.0
 11
305.0040761797806
 21
564.5827049181926
 31
0.0
  0
LINE
  5
10C
330
2
100
AcDbEntity
  8
-VERGLASUNG
100
AcDbLine
 10
297.9852013601545
 20
560.6888300985668
 30
0.0
 11
301.8790761797806
 21
564.5827049181928
 31
0.0
  0
LINE
  5
10D
330
2
100
AcDbEntity
  8
-VERGLASUNG
100
AcDbLine
 10
299.5477013601545
 20
560.6888300985668
 30
0.0
 11
303.4415761797806
 21
564.5827049181928
 31
0.0
  0
LINE
  5
10E
330
2
100
AcDbEntity
  8
-VERGLASUNG
100
AcDbLine
 10
296.3301159241638
 20
571.7949552789399
 30
0.0
 11
300.2239907437898
 21
575.6888300985659
 31
0.0
  0
LINE
  5
10F
330
2
100
AcDbEntity
  8
-VERGLASUNG
100
AcDbLine
 10
294.7676159241638
 20
571.7949552789399
 30
0.0
 11
298.6614907437898
 21
575.6888300985659
 31
0.0
  0
LINE
  5
110
330
2
100
AcDbEntity
  8
-VERGLASUNG
100
AcDbLine
 10
297.8926159241638
 20
571.7949552789399
 30
0.0
 11
301.7864907437898
 21
575.6888300985659
 31
0.0
  0
LINE
  5
111
330
2
100
AcDbEntity
  8
-VERGLASUNG
100
AcDbLine
 10
280.182444406032
 20
560.688830027856
 30
0.0
 11
284.076319225658
 21
564.582704847482
 31
0.0
  0
LINE
  5
112
330
2
100
AcDbEntity
  8
-VERGLASUNG
100
AcDbLine
 10
273.8398589700413
 20
571.7949552082292
 30
0.0
 11
277.7337337896673
 21
575.6888300278553
 31
0.0
  0
LINE
  5
113
330
2
100
AcDbEntity
  8
-VERGLASUNG
100
AcDbLine
 10
277.057444406032
 20
560.688830027856
 30
0.0
 11
280.951319225658
 21
564.5827048474821
 31
0.0
  0
LINE
  5
114
330
2
100
AcDbEntity
  8
-VERGLASUNG
100
AcDbLine
 10
275.4023589700413
 20
571.7949552082292
 30
0.0
 11
279.2962337896673
 21
575.6888300278553
 31
0.0
  0
LINE
  5
115
330
2
100
AcDbEntity
  8
-VERGLASUNG
100
AcDbLine
 10
276.9648589700413
 20
571.7949552082292
 30
0.0
 11
280.8587337896673
 21
575.6888300278553
 31
0.0
  0
LINE
  5
116
330
2
100
AcDbEntity
  8
-VERGLASUNG
100
AcDbLine
 10
278.619944406032
 20
560.688830027856
 30
0.0
 11
282.513819225658
 21
564.5827048474821
 31
0.0
  0
LINE
  5
117
330
2
100
AcDbEntity
  8
-NORMTEIL_VERDECKT
100
AcDbLine
 10
273.4819090244289
 20
560.6888302399885
 30
0.0
 11
272.5619090244287
 21
560.6888302399885
 31
0.0
  0
LINE
  5
118
330
2
100
AcDbEntity
  8
-NORMTEIL_VERDECKT
100
AcDbLine
 10
273.4819090244282
 20
560.6888302399887
 30
0.0
 11
272.561909024428
 21
560.6888302399887
 31
0.0
  0
LINE
  5
119
330
2
100
AcDbEntity
  8
-NORMTEIL_VERDECKT
100
AcDbLine
 10
286.4819090244283
 20
560.6888302399885
 30
0.0
 11
272.5619090244281
 21
560.6888302399885
 31
0.0
  0
LINE
  5
11A
330
2
100
AcDbEntity
  8
-NORMTEIL_VERDECKT
100
AcDbLine
 10
237.4819090244287
 20
560.6888302399885
 30
0.0
 11
238.4019090244288
 21
560.6888302399885
 31
0.0
  0
LINE
  5
11B
330
2
100
AcDbEntity
  8
-NORMTEIL_VERDECKT
100
AcDbLine
 10
237.481909024428
 20
560.6888302399887
 30
0.0
 11
238.4019090244282
 21
560.6888302399887
 31
0.0
  0
LINE
  5
11C
330
2
100
AcDbEntity
  8
-NORMTEIL_VERDECKT
100
AcDbLine
 10
238.4019090244283
 20
560.6888302399885
 30
0.0
 11
272.5619090244281
 21
560.6888302399885
 31
0.0
  0
LINE
  5
11D
330
2
100
AcDbEntity
  8
-VERGLASUNG
100
AcDbLine
 10
208.5246797933393
 20
560.6888300278562
 30
0.0
 11
212.4185546129653
 21
564.5827048474822
 31
0.0
  0
LINE
  5
11E
330
2
100
AcDbEntity
  8
-VERGLASUNG
100
AcDbLine
 10
205.3070943573485
 20
571.7949552082294
 30
0.0
 11
209.2009691769746
 21
575.6888300278554
 31
0.0
  0
LINE
  5
11F
330
2
100
AcDbEntity
  8
-VERGLASUNG
100
AcDbLine
 10
206.8695943573485
 20
571.7949552082294
 30
0.0
 11
210.7634691769746
 21
575.6888300278554
 31
0.0
  0
LINE
  5
120
330
2
100
AcDbEntity
  8
-VERGLASUNG
100
AcDbLine
 10
208.4320943573485
 20
571.7949552082294
 30
0.0
 11
212.3259691769746
 21
575.6888300278554
 31
0.0
  0
LINE
  5
121
330
2
100
AcDbEntity
  8
-VERGLASUNG
100
AcDbLine
 10
211.6496797933393
 20
560.6888300278562
 30
0.0
 11
215.5435546129653
 21
564.5827048474822
 31
0.0
  0
LINE
  5
122
330
2
100
AcDbEntity
  8
-VERGLASUNG
100
AcDbLine
 10
210.0871797933393
 20
560.6888300278562
 30
0.0
 11
213.9810546129653
 21
564.5827048474822
 31
0.0
  0
LINE
  5
123
330
2
100
AcDbEntity
  8
-SYSTEM
100
AcDbLine
 10
255.481909024428
 20
589.6453957786652
 30
0.0
 11
255.4819090244282
 21
509.5751974890986
 31
0.0
  0
CIRCLE
  5
124
330
2
100
AcDbEntity
  8
-EDELSTAHL DREHBLANK
100
AcDbCircle
 10
255.481909024428
 20
532.6888302399895
 30
0.0
 40
9.0
  0
CIRCLE
  5
125
330
2
100
AcDbEntity
  8
-EDELSTAHL DREHBLANK
100
AcDbCircle
 10
255.4819090244281
 20
532.6888302399902
 30
0.0
 40
7.999999999999261
  0
CIRCLE
  5
126
330
2
100
AcDbEntity
  8
-NORMTEIL_VERDECKT
100
AcDbCircle
 10
255.4819090244283
 20
532.6888302399895
 30
0.0
 40
4.999999999999886
  0
DIMENSION
  5
127
330
2
100
AcDbEntity
  8
-BEMASSUNG
100
AcDbDimension
  2
*D12
 10
265.4819090244281
 20
501.1888302399888
 30
0.0
 11
255.4819090244281
 21
504.0268655900907
 31
0.0
 71
     5
 42
20.0
  3
1-1PRO
100
AcDbAlignedDimension
 13
245.4819090244281
 23
521.1888302399886
 33
0.0
 14
265.4819090244281
 24
521.1888302399886
 34
0.0
100
AcDbRotatedDimension
  0
LWPOLYLINE
  5
136
330
2
100
AcDbEntity
  8
-TEXT3
100
AcDbPolyline
 90
        3
 70
     1
 43
0.0
 10
123.2145815495897
 20
152.014715776908
 10
125.9579301220727
 20
156.7663348873201
 10
120.4712329771067
 20
156.7663348873201
  0
LINE
  5
137
330
2
100
AcDbEntity
  8
-TEXT3
100
AcDbLine
 10
111.9438852191371
 20
152.0147157769081
 30
0.0
 11
136.3427526596541
 21
152.0147157769081
 31
0.0
  0
MTEXT
  5
138
330
2
100
AcDbEntity
  8
-TEXT3
100
AcDbMText
 10
111.324589819187
 20
164.1512717193037
 30
0.0
 40
2.5
 41
144.2236618056449
 71
     1
 72
     5
  1
         OK \PUnterkonstruktion
 73
     1
 44
0.9
  0
LINE
  5
139
330
2
100
AcDbEntity
  8
-TEXT
100
AcDbLine
 10
201.1228934507597
 20
152.0147157769081
 30
0.0
 11
150.4260036514722
 21
152.0147157769081
 31
0.0
  0
LINE
  5
13C
330
2
100
AcDbEntity
  8
-TEXT
100
AcDbLine
 10
107.8774073123842
 20
152.0147157769081
 30
0.0
 11
36.24828498841964
 21
152.0147157769081
 31
0.0
  0
LWPOLYLINE
  5
13D
330
2
100
AcDbEntity
  8
-EDELSTAHL DREHBLANK
100
AcDbPolyline
 90
        4
 70
     1
 43
0.0
 10
69.06286615040196
 20
152.0147157769081
 10
75.06282615040195
 20
152.0147157769081
 10
75.06282615040195
 20
194.4147157269079
 10
69.06286615040196
 20
194.4147157269079
  0
LWPOLYLINE
  5
13E
330
2
100
AcDbEntity
  8
-NORMTEIL_VERDECKT
100
AcDbPolyline
 90
        4
 70
     1
 43
0.0
 10
69.06286615040196
 20
172.7647157269081
 10
75.06282615040195
 20
172.7647157269081
 10
75.06282615040195
 20
183.2647157269081
 10
69.06286615040196
 20
183.2647157269081
  0
LINE
  5
13F
330
2
100
AcDbEntity
  8
-SYSTEM
100
AcDbLine
 10
64.52825708193865
 20
178.0147157269081
 30
0.0
 11
79.59743521886526
 21
178.0147157269081
 31
0.0
  0
LINE
  5
140
330
2
100
AcDbEntity
  8
-SYSTEM
100
AcDbLine
 10
156.5884476573208
 20
178.0147157269081
 30
0.0
 11
194.960449444911
 21
178.0147157269081
 31
0.0
  0
CIRCLE
  5
141
330
2
100
AcDbEntity
  8
-PROFILAUSSENKANTE
100
AcDbCircle
 10
175.7744485511159
 20
178.0147157269081
 30
0.0
 40
5.25
  0
LWPOLYLINE
  5
143
330
2
100
AcDbEntity
  8
-EDELSTAHL DREHBLANK
100
AcDbPolyline
 90
        5
 70
     0
 43
0.0
 10
192.174448551116
 20
178.0147157269081
 42
1.0
 10
159.3744485511159
 20
178.0147157269081
 10
159.3744485511159
 20
152.014715776908
 10
192.174448551116
 20
152.014715776908
 10
192.174448551116
 20
178.0147157269081
  0
DIMENSION
  5
144
330
2
100
AcDbEntity
  8
-TEXT3
100
AcDbDimension
  2
*D13
 10
210.8094090543023
 20
178.0147157269081
 30
0.0
 11
210.8094090543023
 21
186.2147157269079
 31
0.0
 70
   128
 71
     5
 42
16.39999999999995
  3
1-1PRO
100
AcDbAlignedDimension
 13
175.774448551116
 23
194.414715726908
 33
0.0
 14
194.960449444911
 24
178.0147157269081
 34
0.0
 50
90.0
100
AcDbRotatedDimension
  0
DIMENSION
  5
151
330
2
100
AcDbEntity
  8
-TEXT3
100
AcDbDimension
  2
*D15
 10
192.174448551116
 20
202.2291708854863
 30
0.0
 11
175.7744485511159
 21
205.0672062355882
 31
0.0
 71
     5
 42
32.80000000000007
  3
1-1PRO
100
AcDbAlignedDimension
 13
159.3744485511159
 23
178.0147157269081
 33
0.0
 14
192.174448551116
 24
178.0147157269081
 34
0.0
100
AcDbRotatedDimension
  0
DIMENSION
  5
15E
330
2
100
AcDbEntity
  8
-TEXT3
100
AcDbDimension
  2
*D16
 10
180.9330935029814
 20
177.0395838073237
 30
0.0
 11
145.7491382426489
 21
183.6903609303308
 31
0.0
 70
   131
 71
     5
 42
10.49999999999994
  3
1-1PRO
100
AcDbDiametricDimension
 15
170.6158035992505
 25
178.9898476464927
 35
0.0
 40
0.0
  0
LINE
  5
169
330
2
100
AcDbEntity
  8
-SYSTEM
100
AcDbLine
 10
175.7744485511159
 20
197.2007166207031
 30
0.0
 11
175.7744485511159
 21
144.3690531651766
 31
0.0
  0
LINE
  5
16A
330
2
100
AcDbEntity
  8
-TEXT3
100
AcDbLine
 10
162.3744485511159
 20
137.8285779228334
 30
0.0
 11
189.1744485511159
 21
137.8285779228334
 31
0.0
  0
SOLID
  5
16B
330
2
100
AcDbEntity
  8
-TEXT3
100
AcDbTrace
 10
189.1744485511159
 20
138.3285779228334
 30
0.0
 11
189.1744485511159
 21
137.3285779228334
 31
0.0
 12
192.1744485511159
 22
137.8285779228334
 32
0.0
 13
192.1744485511159
 23
137.8285779228334
 33
0.0
  0
SOLID
  5
16C
330
2
100
AcDbEntity
  8
-TEXT3
100
AcDbTrace
 10
162.3744485511159
 20
138.3285779228334
 30
0.0
 11
162.3744485511159
 21
137.3285779228334
 31
0.0
 12
159.3744485511159
 22
137.8285779228334
 32
0.0
 13
159.3744485511159
 23
137.8285779228334
 33
0.0
  0
LINE
  5
16D
330
2
100
AcDbEntity
  8
-TEXT3
100
AcDbLine
 10
192.1744485511159
 20
149.014715776908
 30
0.0
 11
192.1744485511159
 21
135.5785779228334
 31
0.0
  0
LINE
  5
16E
330
2
100
AcDbEntity
  8
-TEXT3
100
AcDbLine
 10
159.3744485511159
 20
149.014715776908
 30
0.0
 11
159.3744485511159
 21
135.5785779228334
 31
0.0
  0
MTEXT
  5
16F
330
2
100
AcDbEntity
  8
-TEXT3
100
AcDbMText
 10
242.1914646858925
 20
143.3787770163668
 30
0.0
 40
3.5
 41
0.0
 71
     5
 72
     1
  1
Untere Kantenlänge nach \Pstatischen Erfordernissen (Schweißnaht)
 73
     1
 44
1.0
  0
LINE
  5
170
330
2
100
AcDbEntity
  8
-TEXT3
100
AcDbLine
 10
192.1744485511159
 20
137.8285779228334
 30
0.0
 11
289.3922617457686
 21
137.8285779228334
 31
0.0
  0
DIMENSION
  5
171
330
2
100
AcDbEntity
  8
-TEXT3
100
AcDbDimension
  2
*D14
 10
210.8094090543023
 20
152.014715776908
 30
0.0
 11
207.9713737042003
 21
165.0147157519081
 31
0.0
 71
     5
 42
25.99999995000008
  3
1-1PRO
100
AcDbAlignedDimension
 13
194.960449444911
 23
178.0147157269081
 33
0.0
 14
192.174448551116
 24
152.014715776908
 34
0.0
 50
90.0
100
AcDbRotatedDimension
  0
DIMENSION
  5
17E
330
2
100
AcDbEntity
  8
-TEXT3
100
AcDbDimension
  2
*D17
 10
75.06282615040195
 20
202.2291708854863
 30
0.0
 11
72.06284615040195
 21
205.0672062355882
 31
0.0
 71
     5
 42
5.999959999999987
  3
1-1PRO
100
AcDbAlignedDimension
 13
69.06286615040196
 23
194.4147157269079
 33
0.0
 14
75.06282615040195
 24
194.4147157269079
 34
0.0
100
AcDbRotatedDimension
  0
MTEXT
  5
18C
330
2
100
AcDbEntity
  8
-TEXT2
100
AcDbMText
 10
0.0
 20
226.5691086356768
 30
0.0
 40
3.5
 41
144.2236618056449
 71
     1
 72
     5
  1
{\LAufgestellte Befestigung}
 73
     1
 44
0.9
  0
MTEXT
  5
18D
330
2
100
AcDbEntity
  8
-TEXT2
100
AcDbMText
 10
1.152195518749181
 20
219.6119204185409
 30
0.0
 40
3.0
 41
144.2236618056449
 71
     1
 72
     5
  1
1 bauseitig zu erbringende \PBefestigungslasche
 73
     1
 44
0.9
  0
MTEXT
  5
18E
330
2
100
AcDbEntity
  8
-TEXT2
100
AcDbMText
 10
1.152195518749181
 20
86.32668690694003
 30
0.0
 40
3.0
 41
144.2236618056449
 71
     1
 72
     5
  1
1 bauseitig zu erbringende \PBefestigungslasche
 73
     1
 44
0.9
  0
MTEXT
  5
18F
330
2
100
AcDbEntity
  8
-TEXT2
100
AcDbMText
 10
0.0
 20
93.28387512407596
 30
0.0
 40
3.5
 41
144.2236618056449
 71
     1
 72
     5
  1
{\LAbgehängte Befestigung}
 73
     1
 44
0.9
  0
DIMENSION
  5
190
330
2
100
AcDbEntity
  8
-TEXT3
100
AcDbDimension
  2
*D21
 10
210.8094090543023
 20
51.71445510857824
 30
0.0
 11
207.9713737042003
 21
38.71445513357824
 31
0.0
 71
     5
 42
25.99999995000008
  3
1-1PRO
100
AcDbAlignedDimension
 13
194.960449444911
 23
25.71445515857817
 33
0.0
 14
192.174448551116
 24
51.71445510857825
 34
0.0
 50
270.0
100
AcDbRotatedDimension
  0
LINE
  5
19D
330
2
100
AcDbEntity
  8
-TEXT3
100
AcDbLine
 10
192.1744485511159
 20
65.9005929626528
 30
0.0
 11
289.3922617457686
 21
65.9005929626528
 31
0.0
  0
MTEXT
  5
19E
330
2
100
AcDbEntity
  8
-TEXT3
100
AcDbMText
 10
242.1914646858925
 20
71.45079205618618
 30
0.0
 40
3.5
 41
0.0
 71
     5
 72
     1
  1
Untere Kantenlänge nach \Pstatischen Erfordernissen (Schweißnaht)
 73
     1
 44
1.0
  0
LINE
  5
19F
330
2
100
AcDbEntity
  8
-TEXT3
100
AcDbLine
 10
159.3744485511159
 20
54.71445510857819
 30
0.0
 11
159.3744485511159
 21
68.15059296265281
 31
0.0
  0
LINE
  5
1A0
330
2
100
AcDbEntity
  8
-TEXT3
100
AcDbLine
 10
192.1744485511159
 20
54.71445510857819
 30
0.0
 11
192.1744485511159
 21
68.15059296265281
 31
0.0
  0
SOLID
  5
1A1
330
2
100
AcDbEntity
  8
-TEXT3
100
AcDbTrace
 10
162.3744485511159
 20
65.40059296265281
 30
0.0
 11
162.3744485511159
 21
66.40059296265281
 31
0.0
 12
159.3744485511159
 22
65.9005929626528
 32
0.0
 13
159.3744485511159
 23
65.9005929626528
 33
0.0
  0
SOLID
  5
1A2
330
2
100
AcDbEntity
  8
-TEXT3
100
AcDbTrace
 10
189.1744485511159
 20
65.40059296265281
 30
0.0
 11
189.1744485511159
 21
66.40059296265281
 31
0.0
 12
192.1744485511159
 22
65.9005929626528
 32
0.0
 13
192.1744485511159
 23
65.9005929626528
 33
0.0
  0
LINE
  5
1A3
330
2
100
AcDbEntity
  8
-TEXT3
100
AcDbLine
 10
162.3744485511159
 20
65.9005929626528
 30
0.0
 11
189.1744485511159
 21
65.9005929626528
 31
0.0
  0
LINE
  5
1A4
330
2
100
AcDbEntity
  8
-SYSTEM
100
AcDbLine
 10
175.7744485511159
 20
6.528454264783192
 30
0.0
 11
175.7744485511159
 21
59.36011772030969
 31
0.0
  0
DIMENSION
  5
1A5
330
2
100
AcDbEntity
  8
-TEXT3
100
AcDbDimension
  2
*D20
 10
180.9330935029814
 20
26.68958707816262
 30
0.0
 11
145.749138242649
 21
20.03880995515519
 31
0.0
 70
   131
 71
     5
 42
10.4999999999998
  3
1-1PRO
100
AcDbDiametricDimension
 15
170.6158035992506
 25
24.73932323899357
 35
0.0
 40
0.0
  0
DIMENSION
  5
1B0
330
2
100
AcDbEntity
  8
-TEXT3
100
AcDbDimension
  2
*D19
 10
192.174448551116
 20
1.5
 30
0.0
 11
175.7744485511159
 21
4.338035350101971
 31
0.0
 71
     5
 42
32.80000000000007
  3
1-1PRO
100
AcDbAlignedDimension
 13
159.3744485511159
 23
25.71445515857817
 33
0.0
 14
192.174448551116
 24
25.71445515857817
 34
0.0
100
AcDbRotatedDimension
  0
DIMENSION
  5
1BD
330
2
100
AcDbEntity
  8
-TEXT3
100
AcDbDimension
  2
*D18
 10
210.8094090543023
 20
25.71445515857817
 30
0.0
 11
210.8094090543023
 21
17.51445515857836
 31
0.0
 70
   128
 71
     5
 42
16.39999999999998
  3
1-1PRO
100
AcDbAlignedDimension
 13
175.774448551116
 23
9.314455158578198
 33
0.0
 14
194.960449444911
 24
25.71445515857817
 34
0.0
 50
270.0
100
AcDbRotatedDimension
  0
LWPOLYLINE
  5
1CA
330
2
100
AcDbEntity
  8
-EDELSTAHL DREHBLANK
100
AcDbPolyline
 90
        5
 70
     0
 43
0.0
 10
192.174448551116
 20
25.71445515857817
 42
-1.0
 10
159.3744485511159
 20
25.71445515857817
 10
159.3744485511159
 20
51.71445510857825
 10
192.174448551116
 20
51.71445510857825
 10
192.174448551116
 20
25.71445515857817
  0
CIRCLE
  5
1CB
330
2
100
AcDbEntity
  8
-PROFILAUSSENKANTE
100
AcDbCircle
 10
175.7744485511159
 20
25.71445515857817
 30
0.0
 40
5.25
  0
LINE
  5
1CC
330
2
100
AcDbEntity
  8
-SYSTEM
100
AcDbLine
 10
156.5884476573208
 20
25.71445515857817
 30
0.0
 11
194.960449444911
 21
25.71445515857817
 31
0.0
  0
LINE
  5
1CD
330
2
100
AcDbEntity
  8
-TEXT
100
AcDbLine
 10
107.8774073123842
 20
51.71445510857819
 30
0.0
 11
36.24828498841964
 21
51.71445510857819
 31
0.0
  0
LINE
  5
1CE
330
2
100
AcDbEntity
  8
-TEXT
100
AcDbLine
 10
201.1228934507597
 20
51.71445510857819
 30
0.0
 11
150.4260036514722
 21
51.71445510857819
 31
0.0
  0
MTEXT
  5
1CF
330
2
100
AcDbEntity
  8
-TEXT3
100
AcDbMText
 10
111.324589819187
 20
45.44268094608492
 30
0.0
 40
2.5
 41
144.2236618056449
 71
     1
 72
     5
  1
         OK \PUnterkonstruktion
 73
     1
 44
0.9
  0
LINE
  5
1D0
330
2
100
AcDbEntity
  8
-TEXT3
100
AcDbLine
 10
111.9438852191371
 20
51.71445510857819
 30
0.0
 11
136.3427526596541
 21
51.71445510857819
 31
0.0
  0
LWPOLYLINE
  5
1D1
102
{ACAD_REACTORS
330
1D2
102
}
330
2
100
AcDbEntity
  8
-TEXT3
100
AcDbPolyline
 90
        3
 70
     1
 43
0.0
 10
123.2145815495897
 20
51.71445510857825
 10
125.9579301220727
 20
46.96283599816616
 10
120.4712329771067
 20
46.96283599816609
  0
HATCH
  5
1D2
330
2
100
AcDbEntity
  8
-SCHRAFFUR
100
AcDbHatch
 10
0.0
 20
0.0
 30
0.0
210
0.0
220
0.0
230
1.0
  2
SOLID
 70
     1
 71
     1
 91
        1
 92
        7
 72
     0
 73
     1
 93
        3
 10
123.2145815495897
 20
51.71445510857823
 10
120.4712329771067
 20
46.9628359981661
 10
125.9579301220727
 20
46.96283599816616
 97
        1
330
1D1
 75
     0
 76
     1
 47
0.1304904733253185
 98
        1
 10
124.0536441279729
 20
48.64334301055123
450
        0
451
        0
460
0.0
461
0.0
452
        1
462
1.0
453
        2
463
0.0
 63
     5
421
      255
463
1.0
 63
     7
421
 16777215
470
LINEAR
  0
MTEXT
  5
1D3
330
2
100
AcDbEntity
  8
-TEXT2
100
AcDbMText
 10
0.0
 20
249.6445057311833
 30
0.0
 40
5.0
 41
144.2236618056449
 71
     1
 72
     5
  1
{\LAngaben zu den Befestigungslaschen}
 73
     1
 44
0.9
  0
DIMENSION
  5
1D4
330
2
100
AcDbEntity
  8
-TEXT3
100
AcDbDimension
  2
*D22
 10
75.06282615040195
 20
1.5
 30
0.0
 11
72.06284615040195
 21
4.338035350101971
 31
0.0
 71
     5
 42
5.999959999999987
  3
1-1PRO
100
AcDbAlignedDimension
 13
69.06286615040196
 23
9.314455158578311
 33
0.0
 14
75.06282615040195
 24
9.314455158578311
 34
0.0
100
AcDbRotatedDimension
  0
LINE
  5
1E2
330
2
100
AcDbEntity
  8
-SYSTEM
100
AcDbLine
 10
64.52825708193865
 20
25.71445515857817
 30
0.0
 11
79.59743521886526
 21
25.71445515857817
 31
0.0
  0
LWPOLYLINE
  5
1E3
330
2
100
AcDbEntity
  8
-NORMTEIL_VERDECKT
100
AcDbPolyline
 90
        4
 70
     1
 43
0.0
 10
69.06286615040196
 20
30.96445515857818
 10
75.06282615040195
 20
30.96445515857818
 10
75.06282615040195
 20
20.46445515857818
 10
69.06286615040196
 20
20.46445515857818
  0
LWPOLYLINE
  5
1E4
330
2
100
AcDbEntity
  8
-EDELSTAHL DREHBLANK
100
AcDbPolyline
 90
        4
 70
     1
 43
0.0
 10
69.06286615040196
 20
51.71445510857819
 10
75.06282615040195
 20
51.71445510857819
 10
75.06282615040195
 20
9.314455158578311
 10
69.06286615040196
 20
9.314455158578311
  0
LINE
  5
1E5
330
2
100
AcDbEntity
  8
-EDELSTAHL DREHBLANK
100
AcDbLine
 10
84.57749106089385
 20
526.0388302399887
 30
-0.0000000000000071
 11
84.57749106089385
 21
525.6888302399886
 31
-0.0000000000000071
  0
LINE
  5
1E6
330
2
100
AcDbEntity
  8
-EDELSTAHL DREHBLANK
100
AcDbLine
 10
83.57749106089386
 20
525.6888302399886
 30
-0.0000000000000071
 11
83.57749106089386
 21
526.0388302399887
 31
-0.0000000000000071
  0
LINE
  5
1E7
330
2
100
AcDbEntity
  8
-EDELSTAHL DREHBLANK
100
AcDbLine
 10
84.57749106089385
 20
525.6888302399886
 30
-0.0000000000000071
 11
85.57749106089387
 21
525.6888302399886
 31
-0.0000000000000071
  0
LINE
  5
1E8
330
2
100
AcDbEntity
  8
-EDELSTAHL DREHBLANK
100
AcDbLine
 10
69.97749106089395
 20
525.6888302399886
 30
-0.0000000000000071
 11
75.97749106089395
 21
525.6888302399886
 31
-0.0000000000000071
  0
LINE
  5
1E9
330
2
100
AcDbEntity
  8
-EDELSTAHL DREHBLANK
100
AcDbLine
 10
85.57749106089387
 20
525.6888302399886
 30
-0.0000000000000071
 11
85.97749106089395
 21
526.0888302399886
 31
-0.0000000000000071
  0
LINE
  5
1EA
330
2
100
AcDbEntity
  8
-EDELSTAHL DREHBLANK
100
AcDbLine
 10
85.97749106089395
 20
526.0888302399886
 30
-0.0000000000000071
 11
85.97749106089395
 21
535.2888302399886
 31
-0.0000000000000071
  0
LINE
  5
1EB
330
2
100
AcDbEntity
  8
-EDELSTAHL DREHBLANK
100
AcDbLine
 10
85.97749106089395
 20
535.2888302399886
 30
-0.0000000000000071
 11
85.57749106089387
 21
535.6888302399887
 31
-0.0000000000000071
  0
LINE
  5
1EC
330
2
100
AcDbEntity
  8
-EDELSTAHL DREHBLANK
100
AcDbLine
 10
85.57749106089387
 20
535.6888302399887
 30
-0.0000000000000071
 11
84.57749106089385
 21
535.6888302399887
 31
-0.0000000000000071
  0
LINE
  5
1ED
330
2
100
AcDbEntity
  8
-EDELSTAHL DREHBLANK
100
AcDbLine
 10
84.57749106089385
 20
535.6888302399887
 30
-0.0000000000000071
 11
84.57749106089385
 21
535.3388302399886
 31
-0.0000000000000071
  0
LINE
  5
1EE
330
2
100
AcDbEntity
  8
-EDELSTAHL DREHBLANK
100
AcDbLine
 10
83.57749106089386
 20
535.3388302399886
 30
-0.0000000000000071
 11
83.57749106089386
 21
535.6888302399887
 31
-0.0000000000000071
  0
LINE
  5
1EF
330
2
100
AcDbEntity
  8
-EDELSTAHL DREHBLANK
100
AcDbLine
 10
83.57749106089386
 20
535.6888302399887
 30
-0.0000000000000071
 11
82.97749106089396
 21
535.6888302399887
 31
-0.0000000000000071
  0
LWPOLYLINE
  5
1F0
330
2
100
AcDbEntity
  8
-EDELSTAHL DREHBLANK
100
AcDbPolyline
 90
        6
 70
     1
 43
0.0
 10
103.9774910608939
 20
552.6888302399887
 42
0.4142135623730951
 10
106.9774910608939
 20
555.6888302399888
 10
106.9774910608939
 20
557.6888302399886
 10
38.9774910608939
 20
557.6888302399885
 10
38.9774910608939
 20
555.6888302399886
 42
0.4142135623730882
 10
41.97749106089389
 20
552.6888302399886
  0
LINE
  5
1F1
330
2
100
AcDbEntity
  8
-NORMTEIL_VERDECKT
100
AcDbLine
 10
82.97749106089396
 20
525.4388302399887
 30
0.0000000000000639
 11
75.97749106089395
 21
525.4388302399887
 31
0.0000000000001208
  0
LINE
  5
1F2
330
2
100
AcDbEntity
  8
-NORMTEIL_VERDECKT
100
AcDbLine
 10
69.97749106089395
 20
525.4388302399887
 30
0.0000000000001208
 11
62.97749106089395
 21
525.4388302399887
 31
-0.0000000000001066
  0
LINE
  5
1F3
330
2
100
AcDbEntity
  8
-NORMTEIL_VERDECKT
100
AcDbLine
 10
62.97749106089395
 20
535.9388302399887
 30
-0.0000000000001066
 11
69.97749106089395
 21
535.9388302399887
 31
-0.0000000000001066
  0
LINE
  5
1F4
330
2
100
AcDbEntity
  8
-NORMTEIL_VERDECKT
100
AcDbLine
 10
75.97749106089395
 20
535.9388302399887
 30
-0.0000000000001066
 11
82.97749106089396
 21
535.9388302399887
 31
0.0000000000001208
  0
LWPOLYLINE
  5
1F5
330
2
100
AcDbEntity
  8
-EDELSTAHL DREHBLANK
100
AcDbPolyline
 90
       14
 70
     1
 43
0.0
 10
75.97749106089395
 20
515.1888302399887
 10
76.97749106089395
 20
515.1888302399887
 42
0.4142135623730951
 10
82.97749106089396
 20
521.1888302399887
 10
82.97749106089396
 20
548.0888302399887
 10
87.97749106089396
 20
548.0888302399887
 10
87.97749106089396
 20
552.6888302399887
 10
57.97749106089395
 20
552.6888302399887
 10
57.97749106089395
 20
548.0888302399887
 10
62.97749106089395
 20
548.0888302399887
 10
62.97749106089395
 20
521.1888302399887
 42
0.4142135623730951
 10
68.97749106089396
 20
515.1888302399887
 10
69.97749106089395
 20
515.1888302399887
 10
69.97749106089395
 20
548.0888302399887
 10
75.97749106089395
 20
548.0888302399887
  0
LINE
  5
1F6
330
2
100
AcDbEntity
  8
-EDELSTAHL DREHBLANK
100
AcDbLine
 10
62.97749106089395
 20
548.0888302399887
 30
0.0
 11
69.97749106089395
 21
548.0888302399887
 31
0.0
  0
LINE
  5
1F7
330
2
100
AcDbEntity
  8
-EDELSTAHL DREHBLANK
100
AcDbLine
 10
75.97749106089395
 20
548.0888302399887
 30
0.0
 11
82.97749106089396
 21
548.0888302399887
 31
0.0
  0
LWPOLYLINE
  5
1F8
330
2
100
AcDbEntity
  8
-EDELSTAHL DREHBLANK
100
AcDbPolyline
 90
        6
 70
     1
 43
0.0
 10
59.97749106089395
 20
539.6888302399886
 10
58.97749106089396
 20
538.6888302399886
 10
58.97749106089396
 20
522.6888302399886
 10
59.97749106089395
 20
521.6888302399886
 10
62.97749106089395
 20
521.6888302399886
 10
62.97749106089395
 20
539.6888302399886
  0
LINE
  5
1F9
330
2
100
AcDbEntity
  8
-EDELSTAHL DREHBLANK
100
AcDbLine
 10
59.97749106089395
 20
539.6888302399886
 30
0.0
 11
59.97749106089395
 21
521.6888302399886
 31
0.0
  0
LINE
  5
1FA
330
2
100
AcDbEntity
  8
-EDELSTAHL DREHBLANK
100
AcDbLine
 10
75.97749106089395
 20
535.6888302399887
 30
-0.0000000000000071
 11
69.97749106089395
 21
535.6888302399887
 31
-0.0000000000000071
  0
LINE
  5
1FB
330
2
100
AcDbEntity
  8
-EDELSTAHL DREHBLANK
100
AcDbLine
 10
82.97749106089396
 20
525.6888302399886
 30
-0.0000000000000071
 11
83.57749106089386
 21
525.6888302399886
 31
-0.0000000000000071
  0
LINE
  5
1FC
330
2
100
AcDbEntity
  8
-NORMTEIL_VERDECKT
100
AcDbLine
 10
69.97749106089395
 20
535.6888302399887
 30
-0.0000000000000071
 11
62.97749106089395
 21
535.6888302399887
 31
0.0
  0
LINE
  5
1FD
330
2
100
AcDbEntity
  8
-NORMTEIL_VERDECKT
100
AcDbLine
 10
69.97749106089395
 20
525.6888302399886
 30
0.0
 11
62.97749106089395
 21
525.6888302399886
 31
0.0
  0
LINE
  5
1FE
330
2
100
AcDbEntity
  8
-NORMTEIL_VERDECKT
100
AcDbLine
 10
75.97749106089395
 20
525.6888302399886
 30
0.0
 11
82.97749106089396
 21
525.6888302399886
 31
0.0
  0
LINE
  5
1FF
330
2
100
AcDbEntity
  8
-NORMTEIL_VERDECKT
100
AcDbLine
 10
75.97749106089395
 20
535.6888302399887
 30
-0.0000000000000071
 11
82.97749106089396
 21
535.6888302399887
 31
0.0
  0
LWPOLYLINE
  5
200
330
2
100
AcDbEntity
  8
-EDELSTAHL DREHBLANK
100
AcDbPolyline
 90
        4
 70
     1
 43
0.0
 10
83.57749106089386
 20
524.9582736362688
 10
84.57749106089393
 20
524.9582736362688
 10
84.57749106089393
 20
536.9356056364245
 10
83.57749106089386
 20
536.9356056364245
  0
LINE
  5
201
330
2
100
AcDbEntity
  8
-EDELSTAHL DREHBLANK
100
AcDbLine
 10
82.97749106089396
 20
521.1888302399887
 30
0.0
 11
75.97749106089395
 21
521.1888302399887
 31
0.0
  0
LINE
  5
202
330
2
100
AcDbEntity
  8
-EDELSTAHL DREHBLANK
100
AcDbLine
 10
69.97749106089395
 20
521.1888302399887
 30
0.0
 11
62.97749106089395
 21
521.1888302399887
 31
0.0
  0
LWPOLYLINE
  5
203
330
2
100
AcDbEntity
  8
-EDELSTAHL DREHBLANK
100
AcDbPolyline
 90
       12
 70
     1
 43
0.0
 10
258.4819090244281
 20
515.1888302399886
 10
259.4819090244281
 20
515.1888302399886
 42
0.4142135623730951
 10
265.4819090244281
 20
521.1888302399886
 10
265.4819090244281
 20
548.0888302399886
 10
270.4819090244281
 20
548.0888302399886
 10
270.4819090244281
 20
552.6888302399886
 10
240.4819090244281
 20
552.6888302399886
 10
240.4819090244281
 20
548.0888302399886
 10
245.4819090244281
 20
548.0888302399886
 10
245.4819090244281
 20
521.1888302399886
 42
0.4142135623730951
 10
251.4819090244281
 20
515.1888302399886
 10
252.4819090244281
 20
515.1888302399886
  0
LINE
  5
204
330
2
100
AcDbEntity
  8
-EDELSTAHL DREHBLANK
100
AcDbLine
 10
245.4819090244281
 20
548.0888302399886
 30
0.0
 11
265.4819090244281
 21
548.0888302399886
 31
0.0
  0
LINE
  5
205
330
2
100
AcDbEntity
  8
-SCHRAFFUR
100
AcDbLine
 10
245.4819090244281
 20
521.1888302399886
 30
0.0
 11
265.4819090244281
 21
521.1888302399886
 31
0.0
  0
VIEWPORT
  5
20B
330
209
100
AcDbEntity
 67
     1
  8
0
100
AcDbViewport
 10
5.249999639556163
 20
3.999999883606677
 30
0.0
 40
18.20256095562714
 41
8.992999745766947
 68
     1
 69
     1
 12
5.249999639556163
 22
3.999999883606677
 13
0.0
 23
0.0
 14
10.0
 24
10.0
 15
10.0
 25
10.0
 16
0.0
 26
0.0
 36
1.0
 17
0.0
 27
0.0
 37
0.0
 42
50.0
 43
0.0
 44
0.0
 45
8.992999745766947
 50
0.0
 51
0.0
 72
   100
 90
    32800
  1

281
     0
 71
     1
 74
     0
110
0.0
120
0.0
130
0.0
111
1.0
121
0.0
131
0.0
112
0.0
122
1.0
132
0.0
 79
     0
146
0.0
170
     0
  0
ENDSEC
  0
SECTION
  2
OBJECTS
  0
DICTIONARY
  5
7
330
0
100
AcDbDictionary
281
     1
  3
ACAD_COLOR
350
222
  3
ACAD_GROUP
350
21E
  3
ACAD_LAYOUT
350
208
  3
ACAD_MATERIAL
350
221
  3
ACAD_MLINESTYLE
350
21F
  3
ACAD_PLOTSETTINGS
350
220
  3
ACAD_PLOTSTYLENAME
350
6
  0
DICTIONARY
  5
210
330
20F
100
AcDbDictionary
280
     1
281
     1
  3
ACAD_LAYERSTATES
360
211
  0
DICTIONARY
  5
222
102
{ACAD_REACTORS
330
7
102
}
330
7
100
AcDbDictionary
281
     1
  0
DICTIONARY
  5
21E
102
{ACAD_REACTORS
330
7
102
}
330
7
100
AcDbDictionary
281
     1
  0
DICTIONARY
  5
208
102
{ACAD_REACTORS
330
7
102
}
330
7
100
AcDbDictionary
281
     1
  3
Layout1
350
20E
  3
Model
350
207
  0
DICTIONARY
  5
221
102
{ACAD_REACTORS
330
7
102
}
330
7
100
AcDbDictionary
281
     1
  0
DICTIONARY
  5
21F
102
{ACAD_REACTORS
330
7
102
}
330
7
100
AcDbDictionary
281
     1
  3
STANDARD
350
223
  0
DICTIONARY
  5
220
102
{ACAD_REACTORS
330
7
102
}
330
7
100
AcDbDictionary
281
     1
  0
ACDBDICTIONARYWDFLT
  5
6
102
{ACAD_REACTORS
330
7
102
}
330
7
100
AcDbDictionary
281
     1
  3
Normal
350
5
100
AcDbDictionaryWithDefault
340
5
  0
DICTIONARY
  5
211
102
{ACAD_REACTORS
330
210
102
}
330
210
100
AcDbDictionary
281
     1
  0
LAYOUT
  5
20E
102
{ACAD_REACTORS
330
208
102
}
330
208
100
AcDbPlotSettings
  1

  2
none_device
  4
Letter_(8.50_x_11.00_Inches)
  6

 40
6.349999904632568
 41
6.349999904632568
 42
6.350006103515625
 43
6.350006103515625
 44
215.8999938964844
 45
279.3999938964844
 46
0.0
 47
0.0
 48
0.0
 49
0.0
140
0.0
141
0.0
142
1.0
143
1.0
 70
   688
 72
     0
 73
     1
 74
     5
  7
monochrome.ctb
 75
    16
147
1.0
 76
     0
 77
     2
 78
   300
148
0.0
149
0.0
100
AcDbLayout
  1
Layout1
 70
     1
 71
     1
 10
-0.2500002402958907
 20
-0.2499999962453767
 11
10.74999951940821
 21
8.249999763458731
 12
0.0
 22
0.0
 32
0.0
 14
1.049999952316284
 24
0.7999999523162842
 34
0.0
 15
9.449999570846555
 25
7.199999570846556
 35
0.0
146
0.0
 13
0.0
 23
0.0
 33
0.0
 16
1.0
 26
0.0
 36
0.0
 17
0.0
 27
1.0
 37
0.0
 76
     0
330
209
331
20B
  0
LAYOUT
  5
207
102
{ACAD_REACTORS
330
208
102
}
330
208
100
AcDbPlotSettings
  1

  2
HP DeskJet 1120C Printer
  4

  6

 40
0.0
 41
0.0
 42
0.0
 43
0.0
 44
0.0
 45
0.0
 46
0.0
 47
0.0
 48
0.0
 49
0.0
140
0.0
141
0.0
142
1.0
143
1.0
 70
  1712
 72
     0
 73
     0
 74
     0
  7
monochrome.ctb
 75
     0
147
1.0
 76
     0
 77
     2
 78
   300
148
0.0
149
0.0
100
AcDbLayout
  1
Model
 70
     1
 71
     0
 10
0.0
 20
0.0
 11
12.0
 21
9.0
 12
0.0
 22
0.0
 32
0.0
 14
0.0
 24
0.0
 34
0.0
 15
0.0
 25
0.0
 35
0.0
146
0.0
 13
0.0
 23
0.0
 33
0.0
 16
1.0
 26
0.0
 36
0.0
 17
0.0
 27
1.0
 37
0.0
 76
     0
330
2
  0
MLINESTYLE
  5
223
102
{ACAD_REACTORS
330
21F
102
}
330
21F
100
AcDbMlineStyle
  2
STANDARD
 70
     0
  3

 62
     0
 51
90.0
 52
90.0
 71
     2
 49
0.5
 62
   256
  6
BYLAYER
 49
-0.5
 62
   256
  6
BYLAYER
  0
ACDBPLACEHOLDER
  5
5
102
{ACAD_REACTORS
330
6
102
}
330
6
  0
ENDSEC
  0
EOF
