  0
SECTION
  2
HEADER
  9
$ACADVER
  1
AC1018
  9
$ACADMAINTVER
 70
    76
  9
$DWGCODEPAGE
  3
ANSI_1252
  9
$INSBASE
 10
-327.8288694144876
 20
0.0
 30
0.0
  9
$EXTMIN
 10
-72.97749106089401
 20
-51.97920615538612
 30
0.0
  9
$EXTMAX
 10
80.0
 20
262.3640356915377
 30
0.0
  9
$LIMMIN
 10
0.0
 20
0.0
  9
$LIMMAX
 10
12.0
 20
9.0
  9
$ORTHOMODE
 70
     1
  9
$REGENMODE
 70
     1
  9
$FILLMODE
 70
     1
  9
$QTEXTMODE
 70
     0
  9
$MIRRTEXT
 70
     1
  9
$LTSCALE
 40
2.5
  9
$ATTMODE
 70
     1
  9
$TEXTSIZE
 40
0.2
  9
$TRACEWID
 40
0.05
  9
$TEXTSTYLE
  7
STANDARD
  9
$CLAYER
  8
-VERGLASUNG
  9
$CELTYPE
  6
BYLAYER
  9
$CECOLOR
 62
   256
  9
$CELTSCALE
 40
1.0
  9
$DISPSILH
 70
     0
  9
$DIMSCALE
 40
1.0
  9
$DIMASZ
 40
3.5
  9
$DIMEXO
 40
2.0
  9
$DIMDLI
 40
2.0
  9
$DIMRND
 40
0.0
  9
$DIMDLE
 40
0.0
  9
$DIMEXE
 40
1.5
  9
$DIMTP
 40
0.0
  9
$DIMTM
 40
0.0
  9
$DIMTXT
 40
4.0
  9
$DIMCEN
 40
0.09
  9
$DIMTSZ
 40
0.0
  9
$DIMTOL
 70
     0
  9
$DIMLIM
 70
     0
  9
$DIMTIH
 70
     0
  9
$DIMTOH
 70
     0
  9
$DIMSE1
 70
     0
  9
$DIMSE2
 70
     0
  9
$DIMTAD
 70
     1
  9
$DIMZIN
 70
     9
  9
$DIMBLK
  1

  9
$DIMASO
 70
     1
  9
$DIMSHO
 70
     1
  9
$DIMPOST
  1

  9
$DIMAPOST
  1

  9
$DIMALT
 70
     0
  9
$DIMALTD
 70
     2
  9
$DIMALTF
 40
25.4
  9
$DIMLFAC
 40
1.0
  9
$DIMTOFL
 70
     0
  9
$DIMTVP
 40
0.0
  9
$DIMTIX
 70
     0
  9
$DIMSOXD
 70
     0
  9
$DIMSAH
 70
     1
  9
$DIMBLK1
  1

  9
$DIMBLK2
  1
DOTBLANK
  9
$DIMSTYLE
  2
1-1PRO-PU
  9
$DIMCLRD
 70
   256
  9
$DIMCLRE
 70
   256
  9
$DIMCLRT
 70
   256
  9
$DIMTFAC
 40
1.0
  9
$DIMGAP
 40
1.0
  9
$DIMJUST
 70
     0
  9
$DIMSD1
 70
     0
  9
$DIMSD2
 70
     0
  9
$DIMTOLJ
 70
     1
  9
$DIMTZIN
 70
     0
  9
$DIMALTZ
 70
     0
  9
$DIMALTTZ
 70
     0
  9
$DIMUPT
 70
     0
  9
$DIMDEC
 70
     1
  9
$DIMTDEC
 70
     1
  9
$DIMALTU
 70
     2
  9
$DIMALTTD
 70
     2
  9
$DIMTXSTY
  7
STANDARD
  9
$DIMAUNIT
 70
     0
  9
$DIMADEC
 70
     0
  9
$DIMALTRND
 40
0.0
  9
$DIMAZIN
 70
     0
  9
$DIMDSEP
 70
    46
  9
$DIMATFIT
 70
     3
  9
$DIMFRAC
 70
     0
  9
$DIMLDRBLK
  1

  9
$DIMLUNIT
 70
     2
  9
$DIMLWD
 70
    -2
  9
$DIMLWE
 70
    -2
  9
$DIMTMOVE
 70
     0
  9
$LUNITS
 70
     2
  9
$LUPREC
 70
     4
  9
$SKETCHINC
 40
0.1
  9
$FILLETRAD
 40
0.0
  9
$AUNITS
 70
     0
  9
$AUPREC
 70
     0
  9
$MENU
  1
.
  9
$ELEVATION
 40
0.0
  9
$PELEVATION
 40
0.0
  9
$THICKNESS
 40
0.0
  9
$LIMCHECK
 70
     0
  9
$CHAMFERA
 40
2.0
  9
$CHAMFERB
 40
2.0
  9
$CHAMFERC
 40
1.0
  9
$CHAMFERD
 40
0.0
  9
$SKPOLY
 70
     0
  9
$TDCREATE
 40
2450923.406402199
  9
$TDUCREATE
 40
2450923.364735533
  9
$TDUPDATE
 40
2457744.645389838
  9
$TDUUPDATE
 40
2457744.603723171
  9
$TDINDWG
 40
2.5247779398
  9
$TDUSRTIMER
 40
2.5247779398
  9
$USRTIMER
 70
     1
  9
$ANGBASE
 50
0.0
  9
$ANGDIR
 70
     0
  9
$PDMODE
 70
     0
  9
$PDSIZE
 40
0.0
  9
$PLINEWID
 40
0.0
  9
$SPLFRAME
 70
     0
  9
$SPLINETYPE
 70
     6
  9
$SPLINESEGS
 70
    50
  9
$HANDSEED
  5
16B
  9
$SURFTAB1
 70
     6
  9
$SURFTAB2
 70
     6
  9
$SURFTYPE
 70
     6
  9
$SURFU
 70
     6
  9
$SURFV
 70
     6
  9
$UCSBASE
  2

  9
$UCSNAME
  2

  9
$UCSORG
 10
0.0
 20
0.0
 30
0.0
  9
$UCSXDIR
 10
1.0
 20
0.0
 30
0.0
  9
$UCSYDIR
 10
0.0
 20
1.0
 30
0.0
  9
$UCSORTHOREF
  2

  9
$UCSORTHOVIEW
 70
     0
  9
$UCSORGTOP
 10
0.0
 20
0.0
 30
0.0
  9
$UCSORGBOTTOM
 10
0.0
 20
0.0
 30
0.0
  9
$UCSORGLEFT
 10
0.0
 20
0.0
 30
0.0
  9
$UCSORGRIGHT
 10
0.0
 20
0.0
 30
0.0
  9
$UCSORGFRONT
 10
0.0
 20
0.0
 30
0.0
  9
$UCSORGBACK
 10
0.0
 20
0.0
 30
0.0
  9
$PUCSBASE
  2

  9
$PUCSNAME
  2

  9
$PUCSORG
 10
0.0
 20
0.0
 30
0.0
  9
$PUCSXDIR
 10
1.0
 20
0.0
 30
0.0
  9
$PUCSYDIR
 10
0.0
 20
1.0
 30
0.0
  9
$PUCSORTHOREF
  2

  9
$PUCSORTHOVIEW
 70
     0
  9
$PUCSORGTOP
 10
0.0
 20
0.0
 30
0.0
  9
$PUCSORGBOTTOM
 10
0.0
 20
0.0
 30
0.0
  9
$PUCSORGLEFT
 10
0.0
 20
0.0
 30
0.0
  9
$PUCSORGRIGHT
 10
0.0
 20
0.0
 30
0.0
  9
$PUCSORGFRONT
 10
0.0
 20
0.0
 30
0.0
  9
$PUCSORGBACK
 10
0.0
 20
0.0
 30
0.0
  9
$USERI1
 70
     0
  9
$USERI2
 70
     0
  9
$USERI3
 70
     0
  9
$USERI4
 70
     0
  9
$USERI5
 70
     0
  9
$USERR1
 40
0.0
  9
$USERR2
 40
0.0
  9
$USERR3
 40
0.0
  9
$USERR4
 40
0.0
  9
$USERR5
 40
0.0
  9
$WORLDVIEW
 70
     1
  9
$SHADEDGE
 70
     3
  9
$SHADEDIF
 70
    70
  9
$TILEMODE
 70
     1
  9
$MAXACTVP
 70
    48
  9
$PINSBASE
 10
0.0
 20
0.0
 30
0.0
  9
$PLIMCHECK
 70
     0
  9
$PEXTMIN
 10
1.000000000000000E+20
 20
1.000000000000000E+20
 30
1.000000000000000E+20
  9
$PEXTMAX
 10
-1.000000000000000E+20
 20
-1.000000000000000E+20
 30
-1.000000000000000E+20
  9
$PLIMMIN
 10
0.0
 20
0.0
  9
$PLIMMAX
 10
12.0
 20
9.0
  9
$UNITMODE
 70
     0
  9
$VISRETAIN
 70
     1
  9
$PLINEGEN
 70
     0
  9
$PSLTSCALE
 70
     1
  9
$TREEDEPTH
 70
  3020
  9
$CMLSTYLE
  2
STANDARD
  9
$CMLJUST
 70
     0
  9
$CMLSCALE
 40
1.0
  9
$PROXYGRAPHICS
 70
     1
  9
$MEASUREMENT
 70
     0
  9
$CELWEIGHT
370
    -1
  9
$ENDCAPS
280
     0
  9
$JOINSTYLE
280
     0
  9
$LWDISPLAY
290
     0
  9
$INSUNITS
 70
     0
  9
$HYPERLINKBASE
  1

  9
$STYLESHEET
  1

  9
$XEDIT
290
     1
  9
$CEPSNTYPE
380
     0
  9
$PSTYLEMODE
290
     1
  9
$FINGERPRINTGUID
  2
{3468BB45-FB63-11D4-9C1F-EC81C176A25E}
  9
$VERSIONGUID
  2
{5052D297-0A62-48DE-B37C-8D9ACB2CEC49}
  9
$EXTNAMES
290
     1
  9
$PSVPSCALE
 40
0.0
  9
$OLESTARTUP
290
     0
  9
$SORTENTS
280
   127
  9
$INDEXCTL
280
     0
  9
$HIDETEXT
280
     1
  9
$XCLIPFRAME
290
     0
  9
$HALOGAP
280
     0
  9
$OBSCOLOR
 70
   257
  9
$OBSLTYPE
280
     0
  9
$INTERSECTIONDISPLAY
280
     0
  9
$INTERSECTIONCOLOR
 70
   257
  9
$DIMASSOC
280
     1
  9
$PROJECTNAME
  1

  0
ENDSEC
  0
SECTION
  2
CLASSES
  0
CLASS
  1
DICTIONARYVAR
  2
AcDbDictionaryVar
  3
ObjectDBX Classes
 90
        0
 91
        4
280
     0
281
     0
  0
CLASS
  1
IMAGE
  2
AcDbRasterImage
  3
ISM
 90
      127
 91
        0
280
     0
281
     1
  0
CLASS
  1
IMAGEDEF_REACTOR
  2
AcDbRasterImageDefReactor
  3
ISM
 90
        1
 91
        0
280
     0
281
     0
  0
CLASS
  1
IMAGEDEF
  2
AcDbRasterImageDef
  3
ISM
 90
        0
 91
        0
280
     0
281
     0
  0
CLASS
  1
RASTERVARIABLES
  2
AcDbRasterVariables
  3
ISM
 90
        0
 91
        0
280
     0
281
     0
  0
CLASS
  1
ACDBDICTIONARYWDFLT
  2
AcDbDictionaryWithDefault
  3
ObjectDBX Classes
 90
        0
 91
        1
280
     0
281
     0
  0
CLASS
  1
TABLESTYLE
  2
AcDbTableStyle
  3
ObjectDBX Classes
 90
     2047
 91
        1
280
     0
281
     0
  0
ENDSEC
  0
SECTION
  2
TABLES
  0
TABLE
  2
VPORT
  5
147
330
0
100
AcDbSymbolTable
 70
     3
  0
VPORT
  5
16A
330
147
100
AcDbSymbolTableRecord
100
AcDbViewportTableRecord
  2
*Active
 70
     0
 10
0.0
 20
0.0
 11
1.0
 21
1.0
 12
59.99637342650507
 22
105.9670411211752
 13
0.0
 23
0.0
 14
0.5
 24
0.5
 15
0.5
 25
0.5
 16
0.0
 26
0.0
 36
1.0
 17
0.0
 27
0.0
 37
0.0
 40
318.3348817645281
 41
1.893413173652694
 42
50.0
 43
0.0
 44
0.0
 50
0.0
 51
0.0
 71
     0
 72
   100
 73
     1
 74
     1
 75
     0
 76
     0
 77
     0
 78
     0
281
     0
 65
     1
110
0.0
120
0.0
130
0.0
111
1.0
121
0.0
131
0.0
112
0.0
122
1.0
132
0.0
 79
     0
146
0.0
  0
ENDTAB
  0
TABLE
  2
LTYPE
  5
142
330
0
100
AcDbSymbolTable
 70
     4
  0
LTYPE
  5
143
330
142
100
AcDbSymbolTableRecord
100
AcDbLinetypeTableRecord
  2
BYBLOCK
 70
     0
  3

 72
    65
 73
     0
 40
0.0
  0
LTYPE
  5
144
330
142
100
AcDbSymbolTableRecord
100
AcDbLinetypeTableRecord
  2
BYLAYER
 70
     0
  3

 72
    65
 73
     0
 40
0.0
  0
LTYPE
  5
8
330
142
100
AcDbSymbolTableRecord
100
AcDbLinetypeTableRecord
  2
CONTINUOUS
 70
     0
  3
Solid line
 72
    65
 73
     0
 40
0.0
  0
LTYPE
  5
B
330
142
100
AcDbSymbolTableRecord
100
AcDbLinetypeTableRecord
  2
MITTEX2
 70
     0
  3
Mitte (2x) ________  __  ________  __  _____
 72
    65
 73
     4
 40
4.0
 49
2.5
 74
     0
 49
-0.5
 74
     0
 49
0.5
 74
     0
 49
-0.5
 74
     0
  0
LTYPE
  5
27
330
142
100
AcDbSymbolTableRecord
100
AcDbLinetypeTableRecord
  2
STRICHLINIEX2
 70
     0
  3
Strichlinie (2x) ____  ____  ____  ____  ____  
 72
    65
 73
     2
 40
1.5
 49
1.0
 74
     0
 49
-0.5
 74
     0
  0
LTYPE
  5
C4
330
142
100
AcDbSymbolTableRecord
100
AcDbLinetypeTableRecord
  2
VERDECKT_SEHR_FEIN
 70
     0
  3
_ _ _ _ _ _ _ _ _ _ _ _ _ _ _ _ _ _ _ _ _ _ _
 72
    65
 73
     2
 40
0.09375
 49
0.0625
 74
     0
 49
-0.03125
 74
     0
  0
ENDTAB
  0
TABLE
  2
LAYER
  5
13F
330
0
100
AcDbSymbolTable
 70
    11
  0
LAYER
  5
4
330
13F
100
AcDbSymbolTableRecord
100
AcDbLayerTableRecord
  2
0
 70
     0
 62
     7
  6
CONTINUOUS
370
    -3
390
5
  0
LAYER
  5
31
330
13F
100
AcDbSymbolTableRecord
100
AcDbLayerTableRecord
  2
-PROFILAUSSENKANTET
 70
     0
 62
     4
  6
CONTINUOUS
370
    -3
390
5
  0
LAYER
  5
2E
330
13F
100
AcDbSymbolTableRecord
100
AcDbLayerTableRecord
  2
-DICHTUNG
 70
     0
 62
     3
  6
CONTINUOUS
370
    -3
390
5
  0
LAYER
  5
BA
330
13F
100
AcDbSymbolTableRecord
100
AcDbLayerTableRecord
  2
-NORMTEIL
 70
     0
 62
     6
  6
CONTINUOUS
370
    -3
390
5
  0
LAYER
  5
26
330
13F
100
AcDbSymbolTableRecord
100
AcDbLayerTableRecord
  2
-NORMTEIL_VERDECKT
 70
     0
 62
     9
  6
STRICHLINIEX2
370
    -3
390
5
  0
LAYER
  5
54
330
13F
100
AcDbSymbolTableRecord
100
AcDbLayerTableRecord
  2
DEFPOINTS
 70
     0
 62
     7
  6
CONTINUOUS
290
     0
370
    -3
390
5
  0
LAYER
  5
A
330
13F
100
AcDbSymbolTableRecord
100
AcDbLayerTableRecord
  2
-SYSTEM
 70
     0
 62
     2
  6
MITTEX2
370
    -3
390
5
  0
LAYER
  5
38
330
13F
100
AcDbSymbolTableRecord
100
AcDbLayerTableRecord
  2
-TEXT2
 70
     0
 62
     3
  6
CONTINUOUS
370
    -3
390
5
  0
LAYER
  5
49
330
13F
100
AcDbSymbolTableRecord
100
AcDbLayerTableRecord
  2
-TEXT3
 70
     0
 62
     2
  6
CONTINUOUS
370
    -3
390
5
  0
LAYER
  5
2C
330
13F
100
AcDbSymbolTableRecord
100
AcDbLayerTableRecord
  2
-SCHRAFFUR
 70
     0
 62
     9
  6
CONTINUOUS
370
    -3
390
5
  0
LAYER
  5
D
330
13F
100
AcDbSymbolTableRecord
100
AcDbLayerTableRecord
  2
-VERGLASUNG
 70
     0
 62
     1
  6
CONTINUOUS
370
    -3
390
5
  0
ENDTAB
  0
TABLE
  2
STYLE
  5
140
330
0
100
AcDbSymbolTable
 70
     1
  0
STYLE
  5
39
330
140
100
AcDbSymbolTableRecord
100
AcDbTextStyleTableRecord
  2
STANDARD
 70
     0
 40
0.0
 41
1.0
 50
0.0
 71
     0
 42
0.2
  3
GOTHIC.TTF
  4

1001
ACAD
1000
Century Gothic
1071
       34
  0
ENDTAB
  0
TABLE
  2
VIEW
  5
145
330
0
100
AcDbSymbolTable
 70
     0
  0
ENDTAB
  0
TABLE
  2
UCS
  5
146
330
0
100
AcDbSymbolTable
 70
     0
  0
ENDTAB
  0
TABLE
  2
APPID
  5
149
330
0
100
AcDbSymbolTable
 70
     1
  0
APPID
  5
3A
330
149
100
AcDbSymbolTableRecord
100
AcDbRegAppTableRecord
  2
ACAD
 70
     0
  0
ENDTAB
  0
TABLE
  2
DIMSTYLE
  5
14A
330
0
100
AcDbSymbolTable
 70
     3
100
AcDbDimStyleTable
 71
     2
340
14B
340
59
  0
DIMSTYLE
105
59
102
{ACAD_REACTORS
330
58
330
70
330
7E
330
8C
330
99
330
A6
102
}
330
14A
100
AcDbSymbolTableRecord
100
AcDbDimStyleTableRecord
  2
1-1PRO
 70
     0
 41
3.5
 42
2.0
 43
2.0
 44
1.5
 73
     0
 74
     0
 77
     1
 78
     9
140
4.0
147
1.0
176
   256
177
   256
178
   256
271
     1
272
     1
340
39
  0
DIMSTYLE
105
14B
330
14A
100
AcDbSymbolTableRecord
100
AcDbDimStyleTableRecord
  2
1-1PRO-PU
 70
     0
 41
3.5
 42
2.0
 43
2.0
 44
1.5
 73
     0
 74
     0
 77
     1
 78
     9
140
4.0
147
1.0
173
     1
176
   256
177
   256
178
   256
271
     1
272
     1
340
39
344
14C
  0
DIMSTYLE
105
4A
102
{ACAD_REACTORS
330
48
102
}
330
14A
100
AcDbSymbolTableRecord
100
AcDbDimStyleTableRecord
  2
1-1
 70
     0
 41
2.0
 42
2.0
 43
2.0
 44
1.0
 73
     0
 74
     0
 77
     1
 78
     9
140
3.5
147
1.0
176
     2
177
     2
178
     3
271
     0
289
     2
340
39
  0
ENDTAB
  0
TABLE
  2
BLOCK_RECORD
  5
1
330
0
100
AcDbSymbolTable
 70
    10
  0
BLOCK_RECORD
  5
2
330
1
100
AcDbSymbolTableRecord
100
AcDbBlockTableRecord
  2
*MODEL_SPACE
340
139
  0
BLOCK_RECORD
  5
13B
330
1
100
AcDbSymbolTableRecord
100
AcDbBlockTableRecord
  2
*PAPER_SPACE
340
13E
  0
BLOCK_RECORD
  5
BF
330
1
100
AcDbSymbolTableRecord
100
AcDbBlockTableRecord
  2
571-10
340
0
102
{BLKREFS
331
BE
102
}
  0
BLOCK_RECORD
  5
14C
330
1
100
AcDbSymbolTableRecord
100
AcDbBlockTableRecord
  2
_DOTBLANK
340
0
  0
BLOCK_RECORD
  5
29
330
1
100
AcDbSymbolTableRecord
100
AcDbBlockTableRecord
  2
ANSICHT4268
340
0
102
{BLKREFS
331
28
102
}
  0
BLOCK_RECORD
  5
4B
330
1
100
AcDbSymbolTableRecord
100
AcDbBlockTableRecord
  2
*D3
340
0
  0
BLOCK_RECORD
  5
5A
330
1
100
AcDbSymbolTableRecord
100
AcDbBlockTableRecord
  2
*D4
340
0
  0
BLOCK_RECORD
  5
71
330
1
100
AcDbSymbolTableRecord
100
AcDbBlockTableRecord
  2
*D5
340
0
  0
BLOCK_RECORD
  5
7F
330
1
100
AcDbSymbolTableRecord
100
AcDbBlockTableRecord
  2
*D6
340
0
  0
BLOCK_RECORD
  5
8D
330
1
100
AcDbSymbolTableRecord
100
AcDbBlockTableRecord
  2
*D7
340
0
  0
BLOCK_RECORD
  5
9A
330
1
100
AcDbSymbolTableRecord
100
AcDbBlockTableRecord
  2
*D8
340
0
  0
BLOCK_RECORD
  5
A7
330
1
100
AcDbSymbolTableRecord
100
AcDbBlockTableRecord
  2
*D9
340
0
  0
ENDTAB
  0
ENDSEC
  0
SECTION
  2
BLOCKS
  0
BLOCK
  5
3
330
2
100
AcDbEntity
  8
0
100
AcDbBlockBegin
  2
*MODEL_SPACE
 70
     0
 10
0.0
 20
0.0
 30
0.0
  3
*MODEL_SPACE
  1

  0
ENDBLK
  5
138
330
2
100
AcDbEntity
  8
0
100
AcDbBlockEnd
  0
BLOCK
  5
13C
330
13B
100
AcDbEntity
 67
     1
  8
0
100
AcDbBlockBegin
  2
*PAPER_SPACE
 70
     0
 10
0.0
 20
0.0
 30
0.0
  3
*PAPER_SPACE
  1

  0
ENDBLK
  5
13D
330
13B
100
AcDbEntity
 67
     1
  8
0
100
AcDbBlockEnd
  0
BLOCK
  5
C0
330
BF
100
AcDbEntity
  8
0
100
AcDbBlockBegin
  2
571-10
 70
     0
 10
0.0
 20
0.0
 30
0.0
  3
571-10
  1

  0
LINE
  5
C1
330
BF
100
AcDbEntity
  8
-NORMTEIL
100
AcDbLine
 10
4.907477288111749
 20
7.0
 30
0.0
 11
7.361215932167624
 21
7.0
 31
0.0
  0
LWPOLYLINE
  5
C2
330
BF
100
AcDbEntity
  8
-NORMTEIL
100
AcDbPolyline
 90
        6
 70
     1
 43
0.0
 10
9.814954576223499
 20
6.599999999999909
 42
0.1630165465947134
 10
4.907477288111749
 20
6.599999999999909
 42
0.0815082732973533
 10
-4.907477288111749
 20
6.599999999999909
 42
0.1630165465947091
 10
-9.814954576223726
 20
6.599999999999909
 10
-9.814954576223726
 20
0.0
 10
9.814954576223499
 20
0.0
  0
LINE
  5
C3
330
BF
100
AcDbEntity
  8
-NORMTEIL
  6
VERDECKT_SEHR_FEIN
100
AcDbLine
 10
-4.999999999999772
 20
-19.99999999999977
 30
0.0
 11
-4.999999999999772
 21
0.0
 31
0.0
  0
LINE
  5
C5
330
BF
100
AcDbEntity
  8
-NORMTEIL
  6
VERDECKT_SEHR_FEIN
100
AcDbLine
 10
4.999999999999772
 20
-19.99999999999977
 30
0.0
 11
4.999999999999772
 21
0.0
 31
0.0
  0
LINE
  5
C6
330
BF
100
AcDbEntity
  8
-NORMTEIL
  6
VERDECKT_SEHR_FEIN
100
AcDbLine
 10
4.165951178799787
 20
-35.9145995615545
 30
0.0
 11
3.124940822316148
 21
-36.67093785763132
 31
0.0
  0
LINE
  5
C7
330
BF
100
AcDbEntity
  8
-NORMTEIL
  6
VERDECKT_SEHR_FEIN
100
AcDbLine
 10
3.87401323925178
 20
-22.3777846810815
 30
0.0
 11
4.808013250458088
 21
-23.66332541022393
 31
0.0
  0
LINE
  5
C8
330
BF
100
AcDbEntity
  8
-NORMTEIL
  6
VERDECKT_SEHR_FEIN
100
AcDbLine
 10
4.808013250458088
 20
-23.66332541022393
 30
0.0
 11
3.767002893977178
 21
-24.41966370630371
 31
0.0
  0
LINE
  5
C9
330
BF
100
AcDbEntity
  8
-NORMTEIL
  6
VERDECKT_SEHR_FEIN
100
AcDbLine
 10
3.767002893977178
 20
-24.41966370630371
 30
0.0
 11
3.659992548700984
 21
-26.46154273152593
 31
0.0
  0
LINE
  5
CA
330
BF
100
AcDbEntity
  8
-NORMTEIL
  6
VERDECKT_SEHR_FEIN
100
AcDbLine
 10
3.659992548699619
 20
-26.46154273152593
 30
0.0
 11
4.593992559904336
 21
-27.74708346066836
 31
0.0
  0
LINE
  5
CB
330
BF
100
AcDbEntity
  8
-NORMTEIL
  6
VERDECKT_SEHR_FEIN
100
AcDbLine
 10
3.3389615128699
 20
-32.58717980718961
 30
0.0
 11
3.231951167593706
 21
-34.62905883241183
 31
0.0
  0
LINE
  5
CC
330
BF
100
AcDbEntity
  8
-NORMTEIL
  6
VERDECKT_SEHR_FEIN
100
AcDbLine
 10
3.231951167593706
 20
-34.62905883241183
 30
0.0
 11
4.165951178799787
 21
-35.9145995615545
 31
0.0
  0
LINE
  5
CD
330
BF
100
AcDbEntity
  8
-NORMTEIL
  6
VERDECKT_SEHR_FEIN
100
AcDbLine
 10
3.445971858145867
 20
-30.5453007819674
 30
0.0
 11
4.379971869352175
 21
-31.83084151111007
 31
0.0
  0
LINE
  5
CE
330
BF
100
AcDbEntity
  8
-NORMTEIL
  6
VERDECKT_SEHR_FEIN
100
AcDbLine
 10
4.379971869352175
 20
-31.83084151111007
 30
0.0
 11
3.3389615128699
 21
-32.58717980718961
 31
0.0
  0
LINE
  5
CF
330
BF
100
AcDbEntity
  8
-NORMTEIL
  6
VERDECKT_SEHR_FEIN
100
AcDbLine
 10
3.552982203423425
 20
-28.50342175674518
 30
0.0
 11
3.445971858145867
 21
-30.5453007819674
 31
0.0
  0
LINE
  5
D0
330
BF
100
AcDbEntity
  8
-NORMTEIL
  6
VERDECKT_SEHR_FEIN
100
AcDbLine
 10
4.593992559904336
 20
-27.74708346066836
 30
0.0
 11
3.552982203423425
 21
-28.50342175674518
 31
0.0
  0
LINE
  5
D1
330
BF
100
AcDbEntity
  8
-NORMTEIL
  6
VERDECKT_SEHR_FEIN
100
AcDbLine
 10
4.001370465245145
 20
-19.94766404375627
 30
0.0
 11
3.87401323925178
 21
-22.3777846810815
 31
0.0
  0
LINE
  5
D2
330
BF
100
AcDbEntity
  8
-NORMTEIL
  6
VERDECKT_SEHR_FEIN
100
AcDbLine
 10
-3.984365482240491
 20
-20.27213844883795
 30
0.0
 11
-4.944970719041975
 21
-21.05002123180475
 31
0.0
  0
LINE
  5
D3
330
BF
100
AcDbEntity
  8
-NORMTEIL
  6
VERDECKT_SEHR_FEIN
100
AcDbLine
 10
-4.001370465245145
 20
-19.94766404375627
 30
0.0
 11
-3.984365482242083
 21
-20.27213844883795
 31
0.0
  0
LINE
  5
D4
330
BF
100
AcDbEntity
  8
-NORMTEIL
  6
VERDECKT_SEHR_FEIN
100
AcDbLine
 10
-3.213955548817239
 20
-34.97243569408215
 30
0.0
 11
-3.103896986900053
 21
-37.07247815768915
 31
0.0
  0
LINE
  5
D5
330
BF
100
AcDbEntity
  8
-NORMTEIL
  6
VERDECKT_SEHR_FEIN
100
AcDbLine
 10
-3.103896986900053
 20
-37.07247815768915
 30
0.0
 11
-4.064502223700173
 21
-37.85036094065322
 31
0.0
  0
LINE
  5
D6
330
BF
100
AcDbEntity
  8
-NORMTEIL
  6
VERDECKT_SEHR_FEIN
100
AcDbLine
 10
-3.764248358406575
 20
-24.47222337605217
 30
0.0
 11
-4.724853595206468
 21
-25.25010615901624
 31
0.0
  0
LINE
  5
D7
330
BF
100
AcDbEntity
  8
-NORMTEIL
  6
VERDECKT_SEHR_FEIN
100
AcDbLine
 10
-4.724853595206468
 20
-25.25010615901624
 30
0.0
 11
-3.654189796488026
 21
-26.57226583965644
 31
0.0
  0
LINE
  5
D8
330
BF
100
AcDbEntity
  8
-NORMTEIL
  6
VERDECKT_SEHR_FEIN
100
AcDbLine
 10
-3.874306920324897
 20
-22.37218091244518
 30
0.0
 11
-3.764248358406575
 21
-24.47222337605217
 31
0.0
  0
LINE
  5
D9
330
BF
100
AcDbEntity
  8
-NORMTEIL
  6
VERDECKT_SEHR_FEIN
100
AcDbLine
 10
-3.324014110735561
 20
-32.87239323047493
 30
0.0
 11
-4.284619347535681
 21
-33.65027601344173
 31
0.0
  0
LINE
  5
DA
330
BF
100
AcDbEntity
  8
-NORMTEIL
  6
VERDECKT_SEHR_FEIN
100
AcDbLine
 10
-4.284619347535681
 20
-33.65027601344173
 30
0.0
 11
-3.213955548817239
 21
-34.97243569408215
 31
0.0
  0
LINE
  5
DB
330
BF
100
AcDbEntity
  8
-NORMTEIL
  6
VERDECKT_SEHR_FEIN
100
AcDbLine
 10
-3.544131234569704
 20
-28.67230830326366
 30
0.0
 11
-4.504736471369596
 21
-29.45019108622751
 31
0.0
  0
LINE
  5
DC
330
BF
100
AcDbEntity
  8
-NORMTEIL
  6
VERDECKT_SEHR_FEIN
100
AcDbLine
 10
-4.504736471369596
 20
-29.45019108622751
 30
0.0
 11
-3.434072672652746
 21
-30.77235076687066
 31
0.0
  0
LINE
  5
DD
330
BF
100
AcDbEntity
  8
-NORMTEIL
  6
VERDECKT_SEHR_FEIN
100
AcDbLine
 10
-3.434072672652746
 20
-30.77235076687066
 30
0.0
 11
-3.324014110735561
 21
-32.87239323047493
 31
0.0
  0
LINE
  5
DE
330
BF
100
AcDbEntity
  8
-NORMTEIL
  6
VERDECKT_SEHR_FEIN
100
AcDbLine
 10
-3.65418979648939
 20
-26.57226583965644
 30
0.0
 11
-3.544131234571068
 21
-28.67230830326366
 31
0.0
  0
LINE
  5
DF
330
BF
100
AcDbEntity
  8
-NORMTEIL
  6
VERDECKT_SEHR_FEIN
100
AcDbLine
 10
-4.944970719041975
 20
-21.05002123180475
 30
0.0
 11
-3.874306920323533
 21
-22.37218091244518
 31
0.0
  0
LINE
  5
E0
330
BF
100
AcDbEntity
  8
-NORMTEIL
  6
VERDECKT_SEHR_FEIN
100
AcDbLine
 10
-3.984365482240491
 20
-20.27213844883795
 30
0.0
 11
3.87401323925178
 21
-22.3777846810815
 31
0.0
  0
LINE
  5
E1
330
BF
100
AcDbEntity
  8
-NORMTEIL
  6
VERDECKT_SEHR_FEIN
100
AcDbLine
 10
-4.999999999999772
 20
-19.99999999999977
 30
0.0
 11
4.999999999998181
 21
-19.99999999999977
 31
0.0
  0
LINE
  5
E2
330
BF
100
AcDbEntity
  8
-NORMTEIL
  6
VERDECKT_SEHR_FEIN
100
AcDbLine
 10
-3.874306920323533
 20
-22.37218091244518
 30
0.0
 11
3.767002893977178
 21
-24.41966370630371
 31
0.0
  0
LINE
  5
E3
330
BF
100
AcDbEntity
  8
-NORMTEIL
  6
VERDECKT_SEHR_FEIN
100
AcDbLine
 10
-3.764248358406575
 20
-24.47222337605217
 30
0.0
 11
3.659992548699619
 21
-26.46154273152593
 31
0.0
  0
LINE
  5
E4
330
BF
100
AcDbEntity
  8
-NORMTEIL
  6
VERDECKT_SEHR_FEIN
100
AcDbLine
 10
-3.874306920323533
 20
-22.37218091244518
 30
0.0
 11
3.87401323925178
 21
-22.3777846810815
 31
0.0
  0
LINE
  5
E5
330
BF
100
AcDbEntity
  8
-NORMTEIL
  6
VERDECKT_SEHR_FEIN
100
AcDbLine
 10
-3.65418979648939
 20
-26.57226583965644
 30
0.0
 11
3.659992548699619
 21
-26.46154273152593
 31
0.0
  0
LINE
  5
E6
330
BF
100
AcDbEntity
  8
-NORMTEIL
  6
VERDECKT_SEHR_FEIN
100
AcDbLine
 10
-3.544131234569704
 20
-28.67230830326366
 30
0.0
 11
3.445971858145867
 21
-30.5453007819674
 31
0.0
  0
LINE
  5
E7
330
BF
100
AcDbEntity
  8
-NORMTEIL
  6
VERDECKT_SEHR_FEIN
100
AcDbLine
 10
-3.434072672652746
 20
-30.77235076687066
 30
0.0
 11
3.3389615128699
 21
-32.58717980718961
 31
0.0
  0
LINE
  5
E8
330
BF
100
AcDbEntity
  8
-NORMTEIL
  6
VERDECKT_SEHR_FEIN
100
AcDbLine
 10
-3.324014110734196
 20
-32.87239323047493
 30
0.0
 11
3.231951167593706
 21
-34.62905883241183
 31
0.0
  0
LINE
  5
E9
330
BF
100
AcDbEntity
  8
-NORMTEIL
  6
VERDECKT_SEHR_FEIN
100
AcDbLine
 10
-3.213955548817239
 20
-34.97243569408215
 30
0.0
 11
3.124940822316148
 21
-36.67093785763132
 31
0.0
  0
LINE
  5
EA
330
BF
100
AcDbEntity
  8
-NORMTEIL
  6
VERDECKT_SEHR_FEIN
100
AcDbLine
 10
-3.434072672652746
 20
-30.77235076687066
 30
0.0
 11
3.445971858145867
 21
-30.5453007819674
 31
0.0
  0
LINE
  5
EB
330
BF
100
AcDbEntity
  8
-NORMTEIL
  6
VERDECKT_SEHR_FEIN
100
AcDbLine
 10
-3.213955548817239
 20
-34.97243569408215
 30
0.0
 11
3.231951167593706
 21
-34.62905883241183
 31
0.0
  0
LINE
  5
EC
330
BF
100
AcDbEntity
  8
-NORMTEIL
  6
VERDECKT_SEHR_FEIN
100
AcDbLine
 10
-3.654189796488026
 20
-26.57226583965644
 30
0.0
 11
3.552982203423425
 21
-28.50342175674518
 31
0.0
  0
ARC
  5
ED
330
BF
100
AcDbEntity
  8
-NORMTEIL
  6
VERDECKT_SEHR_FEIN
100
AcDbCircle
 10
-16.54548101745104
 20
-37.68062961210421
 30
0.0
 40
19.62813197681735
100
AcDbArc
 50
345.1937303175753
 51
351.0430563451842
  0
LINE
  5
EE
330
BF
100
AcDbEntity
  8
-NORMTEIL
  6
VERDECKT_SEHR_FEIN
100
AcDbLine
 10
3.017930477041318
 20
-38.71281688285353
 30
0.0
 11
3.951844414335482
 21
-40.00000000003843
 31
0.0
  0
LINE
  5
EF
330
BF
100
AcDbEntity
  8
-NORMTEIL
  6
VERDECKT_SEHR_FEIN
100
AcDbLine
 10
3.951844414335482
 20
-40.00000000003843
 30
0.0
 11
2.843298025800322
 21
-40.73657661939296
 31
0.0
  0
LINE
  5
F0
330
BF
100
AcDbEntity
  8
-NORMTEIL
  6
VERDECKT_SEHR_FEIN
100
AcDbLine
 10
2.430907282176576
 20
-42.696629213493
 30
0.0
 11
3.117703711890953
 21
-43.91593194260781
 31
0.0
  0
LINE
  5
F1
330
BF
100
AcDbEntity
  8
-NORMTEIL
  6
VERDECKT_SEHR_FEIN
100
AcDbLine
 10
3.117703711890953
 20
-43.91593194260781
 30
0.0
 11
1.821154325513361
 21
-44.60379876199271
 31
0.0
  0
LINE
  5
F2
330
BF
100
AcDbEntity
  8
-NORMTEIL
  6
VERDECKT_SEHR_FEIN
100
AcDbLine
 10
1.011103134190761
 20
-46.45729856027105
 30
0.0
 11
1.524569384187543
 21
-47.63015760770577
 31
0.0
  0
ARC
  5
F3
330
BF
100
AcDbEntity
  8
-NORMTEIL
  6
VERDECKT_SEHR_FEIN
100
AcDbCircle
 10
-16.54548101745104
 20
-37.68062961210421
 30
0.0
 40
20.62813197681735
100
AcDbArc
 50
323.3295098482051
 51
331.1624344669203
  0
ARC
  5
F4
330
BF
100
AcDbEntity
  8
-NORMTEIL
  6
VERDECKT_SEHR_FEIN
100
AcDbCircle
 10
-16.54548101745104
 20
-37.68062961210421
 30
0.0
 40
19.62813197681735
100
AcDbArc
 50
333.439186631502
 51
339.3464315262252
  0
LINE
  5
F5
330
BF
100
AcDbEntity
  8
-NORMTEIL
  6
VERDECKT_SEHR_FEIN
100
AcDbLine
 10
-2.744192013676638
 20
-41.30996553641739
 30
0.0
 11
-3.600199022549986
 21
-42.115875330084
 31
0.0
  0
LINE
  5
F6
330
BF
100
AcDbEntity
  8
-NORMTEIL
  6
VERDECKT_SEHR_FEIN
100
AcDbLine
 10
-3.600199022549986
 20
-42.115875330084
 30
0.0
 11
-2.19121513203504
 21
-43.52868760610522
 31
0.0
  0
ARC
  5
F7
330
BF
100
AcDbEntity
  8
-NORMTEIL
  6
VERDECKT_SEHR_FEIN
100
AcDbCircle
 10
16.54548101745104
 20
-37.68062961210421
 30
0.0
 40
19.62813197681735
100
AcDbArc
 50
186.4558313866915
 51
190.6555823996889
  0
LINE
  5
F8
330
BF
100
AcDbEntity
  8
-NORMTEIL
  6
VERDECKT_SEHR_FEIN
100
AcDbLine
 10
-2.993838424981731
 20
-39.17252062129342
 30
0.0
 11
-2.953214879583811
 21
-39.94766404376651
 31
0.0
  0
LINE
  5
F9
330
BF
100
AcDbEntity
  8
-NORMTEIL
  6
VERDECKT_SEHR_FEIN
100
AcDbLine
 10
-1.308268003801003
 20
-45.83582493689664
 30
0.0
 11
-2.015263603772154
 21
-46.68166221724255
 31
0.0
  0
ARC
  5
FA
330
BF
100
AcDbEntity
  8
-NORMTEIL
  6
VERDECKT_SEHR_FEIN
100
AcDbCircle
 10
16.54548101745104
 20
-37.68062961210421
 30
0.0
 40
19.62813197681735
100
AcDbArc
 50
197.3340767728676
 51
204.5498658763077
  0
LINE
  5
FB
330
BF
100
AcDbEntity
  8
-NORMTEIL
  6
VERDECKT_SEHR_FEIN
100
AcDbLine
 10
-2.744192013676638
 20
-41.30996553641739
 30
0.0
 11
2.430907282176576
 21
-42.696629213493
 31
0.0
  0
LINE
  5
FC
330
BF
100
AcDbEntity
  8
-NORMTEIL
  6
VERDECKT_SEHR_FEIN
100
AcDbLine
 10
-2.19121513203504
 20
-43.52868760610522
 30
0.0
 11
1.821154325513361
 21
-44.60379876199271
 31
0.0
  0
LINE
  5
FD
330
BF
100
AcDbEntity
  8
-NORMTEIL
  6
VERDECKT_SEHR_FEIN
100
AcDbLine
 10
-2.993838424981731
 20
-39.17252062129342
 30
0.0
 11
2.843298025726426
 21
-40.73657661937295
 31
0.0
  0
LINE
  5
FE
330
BF
100
AcDbEntity
  8
-NORMTEIL
  6
VERDECKT_SEHR_FEIN
100
AcDbLine
 10
-2.993838424981731
 20
-39.17252062129342
 30
0.0
 11
3.017930477041318
 21
-38.71281688285353
 31
0.0
  0
LINE
  5
FF
330
BF
100
AcDbEntity
  8
-NORMTEIL
  6
VERDECKT_SEHR_FEIN
100
AcDbLine
 10
-2.19121513203504
 20
-43.52868760610522
 30
0.0
 11
2.430907282176576
 21
-42.696629213493
 31
0.0
  0
LINE
  5
100
330
BF
100
AcDbEntity
  8
-NORMTEIL
  6
VERDECKT_SEHR_FEIN
100
AcDbLine
 10
-1.308268003801003
 20
-45.83582493689664
 30
0.0
 11
1.011103134190761
 21
-46.45729856027105
 31
0.0
  0
LINE
  5
101
330
BF
100
AcDbEntity
  8
-NORMTEIL
  6
VERDECKT_SEHR_FEIN
100
AcDbLine
 10
-2.015263603772154
 20
-46.68166221724255
 30
0.0
 11
1.524569384187543
 21
-47.63015760770577
 31
0.0
  0
LINE
  5
102
330
BF
100
AcDbEntity
  8
-NORMTEIL
  6
VERDECKT_SEHR_FEIN
100
AcDbLine
 10
-2.015263603772154
 20
-46.68166221724255
 30
0.0
 11
1.524569384187543
 21
-47.63015760770577
 31
0.0
  0
LINE
  5
103
330
BF
100
AcDbEntity
  8
-NORMTEIL
  6
VERDECKT_SEHR_FEIN
100
AcDbLine
 10
-1.29995807291425
 20
-46.87332775657568
 30
0.0
 11
1.011103134190761
 21
-46.45729856027105
 31
0.0
  0
ARC
  5
104
330
BF
100
AcDbEntity
  8
-NORMTEIL
  6
VERDECKT_SEHR_FEIN
100
AcDbCircle
 10
16.54548101745104
 20
-37.68062961210421
 30
0.0
 40
20.62813197681735
100
AcDbArc
 50
205.8710646891886
 51
216.6704901517949
  0
LINE
  5
105
330
BF
100
AcDbEntity
  8
-NORMTEIL
  6
VERDECKT_SEHR_FEIN
100
AcDbLine
 10
-3.103896986900053
 20
-37.07247815768915
 30
0.0
 11
3.017930477039953
 21
-38.71281688285353
 31
0.0
  0
LINE
  5
106
330
BF
100
AcDbEntity
  8
-NORMTEIL
  6
VERDECKT_SEHR_FEIN
100
AcDbLine
 10
-4.064502223700173
 20
-37.85036094065322
 30
0.0
 11
-2.993838424981731
 21
-39.17252062129342
 31
0.0
  0
LINE
  5
107
330
BF
100
AcDbEntity
  8
-NORMTEIL
  6
VERDECKT_SEHR_FEIN
100
AcDbLine
 10
3.124940822316148
 20
-36.67093785763132
 30
0.0
 11
3.017930477039953
 21
-38.71281688285353
 31
0.0
  0
LINE
  5
108
330
BF
100
AcDbEntity
  8
-NORMTEIL
100
AcDbLine
 10
4.907477288111749
 20
6.599999999999909
 30
0.0
 11
4.907477288111749
 21
0.0
 31
0.0
  0
LINE
  5
109
330
BF
100
AcDbEntity
  8
-NORMTEIL
100
AcDbLine
 10
-4.907477288111749
 20
6.599999999999909
 30
0.0
 11
-4.907477288111749
 21
0.0
 31
0.0
  0
LINE
  5
10A
330
BF
100
AcDbEntity
  8
-NORMTEIL
100
AcDbLine
 10
-7.361215932167851
 20
7.0
 30
0.0
 11
-4.907477288111749
 21
7.0
 31
0.0
  0
LINE
  5
10B
330
BF
100
AcDbEntity
  8
-NORMTEIL
100
AcDbLine
 10
-4.907477288111749
 20
7.0
 30
0.0
 11
4.907477288111749
 21
7.0
 31
0.0
  0
ENDBLK
  5
10C
330
BF
100
AcDbEntity
  8
0
100
AcDbBlockEnd
  0
BLOCK
  5
14D
330
14C
100
AcDbEntity
  8
0
100
AcDbBlockBegin
  2
_DOTBLANK
 70
     0
 10
0.0
 20
0.0
 30
0.0
  3
_DOTBLANK
  1

  0
CIRCLE
  5
14E
330
14C
100
AcDbEntity
  8
0
  6
ByBlock
 62
     0
100
AcDbCircle
 10
0.0
 20
0.0
 30
0.0
 40
0.5
  0
LINE
  5
14F
330
14C
100
AcDbEntity
  8
0
  6
ByBlock
 62
     0
100
AcDbLine
 10
-0.5
 20
0.0
 30
0.0
 11
-1.0
 21
0.0
 31
0.0
  0
ENDBLK
  5
150
330
14C
100
AcDbEntity
  8
0
100
AcDbBlockEnd
  0
BLOCK
  5
2A
330
29
100
AcDbEntity
  8
0
100
AcDbBlockBegin
  2
ANSICHT4268
 70
     0
 10
0.0
 20
0.0
 30
0.0
  3
ANSICHT4268
  1

  0
HATCH
  5
2B
330
29
100
AcDbEntity
  8
-SCHRAFFUR
100
AcDbHatch
 10
0.0
 20
0.0
 30
0.0
210
0.0
220
0.0
230
1.0
  2
SOLID
 70
     1
 71
     1
 91
        2
 92
        1
 93
        1
 72
     2
 10
-0.0000000000241576
 20
-97.34816104632304
 40
23.82842712474431
 50
0.0
 51
360.0
 73
     1
 97
        1
330
2D
 92
       16
 93
        1
 72
     2
 10
-0.0000000000241576
 20
-97.34816104632304
 40
21.0
 50
0.0
 51
360.0
 73
     1
 97
        1
330
30
 75
     0
 76
     1
 98
        1
 10
-116.8222864156285
 20
-148.9416098927
450
        0
451
        0
460
0.0
461
0.0
452
        0
462
0.0
453
        0
470

  0
CIRCLE
  5
2D
102
{ACAD_REACTORS
330
2B
102
}
330
29
100
AcDbEntity
  8
-DICHTUNG
100
AcDbCircle
 10
-0.0000000000241576
 20
-97.34816104632304
 30
0.0
 40
23.82842712474431
  0
CIRCLE
  5
2F
330
29
100
AcDbEntity
  8
-NORMTEIL_VERDECKT
100
AcDbCircle
 10
-0.0000000000241576
 20
-97.34816104632308
 30
0.0
 40
34.0
  0
CIRCLE
  5
30
102
{ACAD_REACTORS
330
2B
102
}
330
29
100
AcDbEntity
  8
-PROFILAUSSENKANTET
100
AcDbCircle
 10
-0.0000000000241576
 20
-97.34816104632304
 30
0.0
 40
21.0
  0
LWPOLYLINE
  5
32
330
29
100
AcDbEntity
  8
-VERGLASUNG
100
AcDbPolyline
 90
        4
 70
     0
 43
0.0
 10
-72.97749106091817
 20
-17.34816104632338
 10
77.99999999997573
 20
-17.34816104632327
 10
79.99999999997573
 20
-19.34816104632327
 10
79.99999999997584
 20
-149.3273672017092
  0
LINE
  5
33
330
29
100
AcDbEntity
  8
-SYSTEM
100
AcDbLine
 10
37.49570426210264
 20
-97.3481610463229
 30
0.0
 11
-37.49570426215092
 21
-97.34816104632324
 31
0.0
  0
LINE
  5
34
330
29
100
AcDbEntity
  8
-SYSTEM
100
AcDbLine
 10
-0.0000000000243281
 20
-59.85245678419628
 30
0.0
 11
-0.000000000023987
 21
-134.8438653084498
 31
0.0
  0
CIRCLE
  5
35
330
29
100
AcDbEntity
  8
-PROFILAUSSENKANTET
100
AcDbCircle
 10
-3.500000000024129
 20
-103.4103388728141
 30
0.0
 40
1.75
  0
CIRCLE
  5
36
330
29
100
AcDbEntity
  8
-PROFILAUSSENKANTET
100
AcDbCircle
 10
-3.500000000024171
 20
-91.28598321983199
 30
0.0
 40
1.75
  0
MTEXT
  5
37
330
29
100
AcDbEntity
  8
-TEXT2
100
AcDbMText
 10
49.17713572762614
 20
-5.128944079777738
 30
0.0
 40
3.5
 41
17.9978
 71
     1
 72
     5
  1
{\fArial|b0|i0|c0|p34;Glaskante}
 73
     1
 44
1.0
  0
CIRCLE
  5
3B
330
29
100
AcDbEntity
  8
-PROFILAUSSENKANTET
100
AcDbCircle
 10
6.999999999975842
 20
-97.34816104632301
 30
0.0
 40
1.75
  0
LWPOLYLINE
  5
3C
330
29
100
AcDbEntity
  8
-TEXT2
100
AcDbPolyline
 90
        3
 70
     1
 43
0.0
 10
57.78044804003911
 20
-17.34816104632335
 10
61.91438540270016
 20
-10.18797149888712
 10
53.64651067737807
 20
-10.18797149888712
  0
ENDBLK
  5
3D
330
29
100
AcDbEntity
  8
0
100
AcDbBlockEnd
  0
BLOCK
  5
4C
330
4B
100
AcDbEntity
  8
0
100
AcDbBlockBegin
  2
*D3
 70
     1
 10
0.0
 20
0.0
 30
0.0
  3
*D3
  1

  0
LINE
  5
4D
330
4B
100
AcDbEntity
  8
-TEXT3
370
    -2
100
AcDbLine
 10
-4.749999999975841
 20
134.4116698447517
 30
0.0
 11
-20.93748913598169
 21
134.4116698447517
 31
0.0
  0
LINE
  5
4E
330
4B
100
AcDbEntity
  8
-TEXT3
370
    -2
100
AcDbLine
 10
-4.749999999975841
 20
123.4116698447517
 30
0.0
 11
-20.93748913598169
 21
123.4116698447517
 31
0.0
  0
LINE
  5
4F
330
4B
100
AcDbEntity
  8
-TEXT3
370
    -2
100
AcDbLine
 10
-19.93748913598168
 20
132.4116698447517
 30
0.0
 11
-19.93748913598168
 21
125.4116698447517
 31
0.0
  0
SOLID
  5
50
330
4B
100
AcDbEntity
  8
-TEXT3
100
AcDbTrace
 10
-20.27082246931502
 20
132.4116698447517
 30
0.0
 11
-19.60415580264835
 21
132.4116698447517
 31
0.0
 12
-19.93748913598168
 22
134.4116698447517
 32
0.0
 13
-19.93748913598168
 23
134.4116698447517
 33
0.0
  0
SOLID
  5
51
330
4B
100
AcDbEntity
  8
-TEXT3
100
AcDbTrace
 10
-20.27082246931502
 20
125.4116698447517
 30
0.0
 11
-19.60415580264835
 21
125.4116698447517
 31
0.0
 12
-19.93748913598168
 22
123.4116698447517
 32
0.0
 13
-19.93748913598168
 23
123.4116698447517
 33
0.0
  0
MTEXT
  5
52
330
4B
100
AcDbEntity
  8
-TEXT3
100
AcDbMText
 10
-22.68748913598171
 20
128.9116698447517
 30
0.0
 40
3.5
 41
0.0
 71
     5
 72
     1
  1
\A1;11
 11
0.0000000000000001
 21
1.0
 31
0.0
 73
     1
 44
1.0
  0
POINT
  5
53
330
4B
100
AcDbEntity
  8
DEFPOINTS
 62
     0
100
AcDbPoint
 10
-2.749999999975841
 20
134.4116698447517
 30
0.0
  0
POINT
  5
55
330
4B
100
AcDbEntity
  8
DEFPOINTS
 62
     0
100
AcDbPoint
 10
-2.749999999975841
 20
123.4116698447517
 30
0.0
  0
POINT
  5
56
330
4B
100
AcDbEntity
  8
DEFPOINTS
 62
     0
100
AcDbPoint
 10
-19.93748913598168
 20
123.4116698447517
 30
0.0
  0
ENDBLK
  5
57
330
4B
100
AcDbEntity
  8
0
100
AcDbBlockEnd
  0
BLOCK
  5
5B
330
5A
100
AcDbEntity
  8
0
100
AcDbBlockBegin
  2
*D4
 70
     1
 10
0.0
 20
0.0
 30
0.0
  3
*D4
  1

  0
LINE
  5
5C
330
5A
100
AcDbEntity
  8
-TEXT3
370
    -2
100
AcDbLine
 10
-8.249999999975841
 20
130.9116698447517
 30
0.0
 11
-8.249999999975839
 21
148.7789584419553
 31
0.0
  0
LINE
  5
5D
330
5A
100
AcDbEntity
  8
-TEXT3
370
    -2
100
AcDbLine
 10
8.250000000024158
 20
130.9116698447517
 30
0.0
 11
8.25000000002416
 21
148.7789584419553
 31
0.0
  0
LINE
  5
5E
330
5A
100
AcDbEntity
  8
-TEXT3
370
    -2
100
AcDbLine
 10
-4.749999999975839
 20
147.2789584419553
 30
0.0
 11
4.75000000002416
 21
147.2789584419553
 31
0.0
  0
SOLID
  5
5F
330
5A
100
AcDbEntity
  8
-TEXT3
100
AcDbTrace
 10
-4.749999999975839
 20
147.8622917752887
 30
0.0
 11
-4.749999999975839
 21
146.695625108622
 31
0.0
 12
-8.249999999975839
 22
147.2789584419553
 32
0.0
 13
-8.249999999975839
 23
147.2789584419553
 33
0.0
  0
SOLID
  5
60
330
5A
100
AcDbEntity
  8
-TEXT3
100
AcDbTrace
 10
4.75000000002416
 20
147.8622917752887
 30
0.0
 11
4.75000000002416
 21
146.695625108622
 31
0.0
 12
8.25000000002416
 22
147.2789584419553
 32
0.0
 13
8.25000000002416
 23
147.2789584419553
 33
0.0
  0
MTEXT
  5
61
330
5A
100
AcDbEntity
  8
-TEXT3
100
AcDbMText
 10
0.0000000000241586
 20
150.3795702706433
 30
0.0
 40
4.0
 41
0.0
 71
     5
 72
     1
  1
\A1;16.5
 73
     1
 44
1.0
  0
POINT
  5
62
330
5A
100
AcDbEntity
  8
DEFPOINTS
 62
     0
100
AcDbPoint
 10
-8.249999999975841
 20
128.9116698447517
 30
0.0
  0
POINT
  5
63
330
5A
100
AcDbEntity
  8
DEFPOINTS
 62
     0
100
AcDbPoint
 10
8.250000000024158
 20
128.9116698447517
 30
0.0
  0
POINT
  5
64
330
5A
100
AcDbEntity
  8
DEFPOINTS
 62
     0
100
AcDbPoint
 10
8.25000000002416
 20
147.2789584419553
 30
0.0
  0
ENDBLK
  5
65
330
5A
100
AcDbEntity
  8
0
100
AcDbBlockEnd
  0
BLOCK
  5
72
330
71
100
AcDbEntity
  8
0
100
AcDbBlockBegin
  2
*D5
 70
     1
 10
0.0
 20
0.0
 30
0.0
  3
*D5
  1

  0
LINE
  5
73
330
71
100
AcDbEntity
  8
-TEXT3
370
    -2
100
AcDbLine
 10
-33.99999999997561
 20
236.6758525294136
 30
0.0
 11
-33.99999999997561
 21
258.638338886643
 31
0.0
  0
LINE
  5
74
330
71
100
AcDbEntity
  8
-TEXT3
370
    -2
100
AcDbLine
 10
34.00000000002697
 20
236.6758525294133
 30
0.0
 11
34.00000000002697
 21
258.638338886643
 31
0.0
  0
LINE
  5
75
330
71
100
AcDbEntity
  8
-TEXT3
370
    -2
100
AcDbLine
 10
-30.49999999997562
 20
257.138338886643
 30
0.0
 11
30.50000000002697
 21
257.138338886643
 31
0.0
  0
SOLID
  5
76
330
71
100
AcDbEntity
  8
-TEXT3
100
AcDbTrace
 10
-30.49999999997562
 20
257.7216722199763
 30
0.0
 11
-30.49999999997562
 21
256.5550055533097
 31
0.0
 12
-33.99999999997561
 22
257.138338886643
 32
0.0
 13
-33.99999999997561
 23
257.138338886643
 33
0.0
  0
SOLID
  5
77
330
71
100
AcDbEntity
  8
-TEXT3
100
AcDbTrace
 10
30.50000000002697
 20
257.7216722199763
 30
0.0
 11
30.50000000002697
 21
256.5550055533097
 31
0.0
 12
34.00000000002697
 22
257.138338886643
 32
0.0
 13
34.00000000002697
 23
257.138338886643
 33
0.0
  0
MTEXT
  5
78
330
71
100
AcDbEntity
  8
-TEXT3
100
AcDbMText
 10
0.0000000000257218
 20
260.3640356915377
 30
0.0
 40
4.0
 41
0.0
 71
     5
 72
     1
  1
\A1;%%c68
 73
     1
 44
1.0
  0
POINT
  5
79
330
71
100
AcDbEntity
  8
DEFPOINTS
 62
     0
100
AcDbPoint
 10
-33.99999999997561
 20
234.6758525294136
 30
0.0
  0
POINT
  5
7A
330
71
100
AcDbEntity
  8
DEFPOINTS
 62
     0
100
AcDbPoint
 10
34.00000000002697
 20
234.6758525294133
 30
0.0
  0
POINT
  5
7B
330
71
100
AcDbEntity
  8
DEFPOINTS
 62
     0
100
AcDbPoint
 10
34.00000000002697
 20
257.138338886643
 30
0.0
  0
ENDBLK
  5
7C
330
71
100
AcDbEntity
  8
0
100
AcDbBlockEnd
  0
BLOCK
  5
80
330
7F
100
AcDbEntity
  8
0
100
AcDbBlockBegin
  2
*D6
 70
     1
 10
0.0
 20
0.0
 30
0.0
  3
*D6
  1

  0
LINE
  5
81
330
7F
100
AcDbEntity
  8
-TEXT3
370
    -2
100
AcDbLine
 10
-20.99999999997601
 20
236.6758525294136
 30
0.0
 11
-20.99999999997601
 21
245.6395029444697
 31
0.0
  0
LINE
  5
82
330
7F
100
AcDbEntity
  8
-TEXT3
370
    -2
100
AcDbLine
 10
21.0000000000241
 20
236.6758525294135
 30
0.0
 11
21.0000000000241
 21
245.6395029444697
 31
0.0
  0
LINE
  5
83
330
7F
100
AcDbEntity
  8
-TEXT3
370
    -2
100
AcDbLine
 10
-17.49999999997601
 20
244.1395029444697
 30
0.0
 11
17.5000000000241
 21
244.1395029444697
 31
0.0
  0
SOLID
  5
84
330
7F
100
AcDbEntity
  8
-TEXT3
100
AcDbTrace
 10
-17.49999999997601
 20
244.7228362778031
 30
0.0
 11
-17.49999999997601
 21
243.5561696111363
 31
0.0
 12
-20.99999999997601
 22
244.1395029444697
 32
0.0
 13
-20.99999999997601
 23
244.1395029444697
 33
0.0
  0
SOLID
  5
85
330
7F
100
AcDbEntity
  8
-TEXT3
100
AcDbTrace
 10
17.5000000000241
 20
244.7228362778031
 30
0.0
 11
17.5000000000241
 21
243.5561696111363
 31
0.0
 12
21.0000000000241
 22
244.1395029444697
 32
0.0
 13
21.0000000000241
 23
244.1395029444697
 33
0.0
  0
MTEXT
  5
86
330
7F
100
AcDbEntity
  8
-TEXT3
100
AcDbMText
 10
0.000000000024045
 20
247.3651997493643
 30
0.0
 40
4.0
 41
0.0
 71
     5
 72
     1
  1
\A1;%%c42
 73
     1
 44
1.0
  0
POINT
  5
87
330
7F
100
AcDbEntity
  8
DEFPOINTS
 62
     0
100
AcDbPoint
 10
-20.99999999997601
 20
234.6758525294136
 30
0.0
  0
POINT
  5
88
330
7F
100
AcDbEntity
  8
DEFPOINTS
 62
     0
100
AcDbPoint
 10
21.0000000000241
 20
234.6758525294135
 30
0.0
  0
POINT
  5
89
330
7F
100
AcDbEntity
  8
DEFPOINTS
 62
     0
100
AcDbPoint
 10
21.0000000000241
 20
244.1395029444697
 30
0.0
  0
ENDBLK
  5
8A
330
7F
100
AcDbEntity
  8
0
100
AcDbBlockEnd
  0
BLOCK
  5
8E
330
8D
100
AcDbEntity
  8
0
100
AcDbBlockBegin
  2
*D7
 70
     1
 10
0.0
 20
0.0
 30
0.0
  3
*D7
  1

  0
LINE
  5
8F
330
8D
100
AcDbEntity
  8
-TEXT3
370
    -2
100
AcDbLine
 10
-51.70433748792252
 20
234.6758525294137
 30
0.0
 11
-56.29566251202809
 21
234.6758525294137
 31
0.0
  0
LINE
  5
90
330
8D
100
AcDbEntity
  8
-TEXT3
370
    -2
100
AcDbLine
 10
-51.70433748792252
 20
222.675852529413
 30
0.0
 11
-56.29566251202809
 21
222.675852529413
 31
0.0
  0
LINE
  5
91
330
8D
100
AcDbEntity
  8
-TEXT3
370
    -2
100
AcDbLine
 10
-54.79566251202808
 20
231.1758525294137
 30
0.0
 11
-54.79566251202808
 21
226.175852529413
 31
0.0
  0
SOLID
  5
92
330
8D
100
AcDbEntity
  8
-TEXT3
100
AcDbTrace
 10
-55.37899584536142
 20
231.1758525294137
 30
0.0
 11
-54.21232917869475
 21
231.1758525294137
 31
0.0
 12
-54.79566251202808
 22
234.6758525294137
 32
0.0
 13
-54.79566251202808
 23
234.6758525294137
 33
0.0
  0
SOLID
  5
93
330
8D
100
AcDbEntity
  8
-TEXT3
100
AcDbTrace
 10
-55.37899584536142
 20
226.175852529413
 30
0.0
 11
-54.21232917869475
 21
226.175852529413
 31
0.0
 12
-54.79566251202808
 22
222.675852529413
 32
0.0
 13
-54.79566251202808
 23
222.675852529413
 33
0.0
  0
MTEXT
  5
94
330
8D
100
AcDbEntity
  8
-TEXT3
100
AcDbMText
 10
-57.89627434071609
 20
228.6758525294134
 30
0.0
 40
4.0
 41
0.0
 71
     5
 72
     1
  1
\A1;G
 11
0.0000000000000001
 21
1.0
 31
0.0
 73
     1
 44
1.0
  0
POINT
  5
95
330
8D
100
AcDbEntity
  8
DEFPOINTS
 62
     0
100
AcDbPoint
 10
-49.70433748792252
 20
234.6758525294137
 30
0.0
  0
POINT
  5
96
330
8D
100
AcDbEntity
  8
DEFPOINTS
 62
     0
100
AcDbPoint
 10
-49.70433748792252
 20
222.675852529413
 30
0.0
  0
POINT
  5
97
330
8D
100
AcDbEntity
  8
DEFPOINTS
 62
     0
100
AcDbPoint
 10
-54.79566251202808
 20
222.675852529413
 30
0.0
  0
ENDBLK
  5
98
330
8D
100
AcDbEntity
  8
0
100
AcDbBlockEnd
  0
BLOCK
  5
9B
330
9A
100
AcDbEntity
  8
0
100
AcDbBlockBegin
  2
*D8
 70
     1
 10
0.0
 20
0.0
 30
0.0
  3
*D8
  1

  0
LINE
  5
9C
330
9A
100
AcDbEntity
  8
-TEXT3
370
    -2
100
AcDbLine
 10
-37.29566251202832
 20
219.6758525294129
 30
0.0
 11
-56.29566251202819
 21
219.6758525294129
 31
0.0
  0
LINE
  5
9D
330
9A
100
AcDbEntity
  8
-TEXT3
370
    -2
100
AcDbLine
 10
-35.9999999999759
 20
194.6758525294128
 30
0.0
 11
-56.2956625120282
 21
194.6758525294128
 31
0.0
  0
LINE
  5
9E
330
9A
100
AcDbEntity
  8
-TEXT3
370
    -2
100
AcDbLine
 10
-54.79566251202819
 20
216.1758525294129
 30
0.0
 11
-54.7956625120282
 21
198.1758525294128
 31
0.0
  0
SOLID
  5
9F
330
9A
100
AcDbEntity
  8
-TEXT3
100
AcDbTrace
 10
-55.37899584536153
 20
216.1758525294129
 30
0.0
 11
-54.21232917869486
 21
216.1758525294129
 31
0.0
 12
-54.79566251202819
 22
219.6758525294129
 32
0.0
 13
-54.79566251202819
 23
219.6758525294129
 33
0.0
  0
SOLID
  5
A0
330
9A
100
AcDbEntity
  8
-TEXT3
100
AcDbTrace
 10
-55.37899584536154
 20
198.1758525294128
 30
0.0
 11
-54.21232917869486
 21
198.1758525294128
 31
0.0
 12
-54.7956625120282
 22
194.6758525294128
 32
0.0
 13
-54.7956625120282
 23
194.6758525294128
 33
0.0
  0
MTEXT
  5
A1
330
9A
100
AcDbEntity
  8
-TEXT3
100
AcDbMText
 10
-57.89627434071619
 20
207.1758525294129
 30
0.0
 40
4.0
 41
0.0
 71
     5
 72
     1
  1
\A1;25
 11
0.0000000000000001
 21
1.0
 31
0.0
 73
     1
 44
1.0
  0
POINT
  5
A2
330
9A
100
AcDbEntity
  8
DEFPOINTS
 62
     0
100
AcDbPoint
 10
-35.29566251202832
 20
219.6758525294129
 30
0.0
  0
POINT
  5
A3
330
9A
100
AcDbEntity
  8
DEFPOINTS
 62
     0
100
AcDbPoint
 10
-33.9999999999759
 20
194.6758525294128
 30
0.0
  0
POINT
  5
A4
330
9A
100
AcDbEntity
  8
DEFPOINTS
 62
     0
100
AcDbPoint
 10
-54.7956625120282
 20
194.6758525294128
 30
0.0
  0
ENDBLK
  5
A5
330
9A
100
AcDbEntity
  8
0
100
AcDbBlockEnd
  0
BLOCK
  5
A8
330
A7
100
AcDbEntity
  8
0
100
AcDbBlockBegin
  2
*D9
 70
     1
 10
0.0
 20
0.0
 30
0.0
  3
*D9
  1

  0
LINE
  5
A9
330
A7
100
AcDbEntity
  8
-TEXT3
370
    -2
100
AcDbLine
 10
-51.70433748792252
 20
222.675852529413
 30
0.0
 11
-56.29566251202805
 21
222.675852529413
 31
0.0
  0
LINE
  5
AA
330
A7
100
AcDbEntity
  8
-TEXT3
370
    -2
100
AcDbLine
 10
-35.99999999997553
 20
219.6758525294129
 30
0.0
 11
-56.29566251202805
 21
219.6758525294129
 31
0.0
  0
LINE
  5
AB
330
A7
100
AcDbEntity
  8
-TEXT3
370
    -2
100
AcDbLine
 10
-54.79566251202805
 20
226.175852529413
 30
0.0
 11
-54.79566251202805
 21
229.675852529413
 31
0.0
  0
LINE
  5
AC
330
A7
100
AcDbEntity
  8
-TEXT3
370
    -2
100
AcDbLine
 10
-54.79566251202805
 20
216.1758525294129
 30
0.0
 11
-54.79566251202805
 21
212.6758525294129
 31
0.0
  0
SOLID
  5
AD
330
A7
100
AcDbEntity
  8
-TEXT3
100
AcDbTrace
 10
-55.37899584536138
 20
226.175852529413
 30
0.0
 11
-54.21232917869471
 21
226.175852529413
 31
0.0
 12
-54.79566251202805
 22
222.675852529413
 32
0.0
 13
-54.79566251202805
 23
222.675852529413
 33
0.0
  0
SOLID
  5
AE
330
A7
100
AcDbEntity
  8
-TEXT3
100
AcDbTrace
 10
-55.37899584536138
 20
216.1758525294129
 30
0.0
 11
-54.21232917869471
 21
216.1758525294129
 31
0.0
 12
-54.79566251202805
 22
219.6758525294129
 32
0.0
 13
-54.79566251202805
 23
219.6758525294129
 33
0.0
  0
MTEXT
  5
AF
330
A7
100
AcDbEntity
  8
-TEXT3
100
AcDbMText
 10
-57.89627434071605
 20
221.175852529413
 30
0.0
 40
4.0
 41
0.0
 71
     5
 72
     1
  1
\A1;3
 11
0.0000000000000001
 21
1.0
 31
0.0
 73
     1
 44
1.0
  0
POINT
  5
B0
330
A7
100
AcDbEntity
  8
DEFPOINTS
 62
     0
100
AcDbPoint
 10
-49.70433748792252
 20
222.675852529413
 30
0.0
  0
POINT
  5
B1
330
A7
100
AcDbEntity
  8
DEFPOINTS
 62
     0
100
AcDbPoint
 10
-33.99999999997553
 20
219.6758525294129
 30
0.0
  0
POINT
  5
B2
330
A7
100
AcDbEntity
  8
DEFPOINTS
 62
     0
100
AcDbPoint
 10
-54.79566251202805
 20
219.6758525294129
 30
0.0
  0
ENDBLK
  5
B3
330
A7
100
AcDbEntity
  8
0
100
AcDbBlockEnd
  0
ENDSEC
  0
SECTION
  2
ENTITIES
  0
LINE
  5
9
330
2
100
AcDbEntity
  8
-SYSTEM
100
AcDbLine
 10
0.0000000000240163
 20
239.4378278652189
 30
0.0
 11
0.0000000000241869
 21
169.9526348180357
 31
0.0
  0
LINE
  5
C
330
2
100
AcDbEntity
  8
-VERGLASUNG
100
AcDbLine
 10
-45.39472923106481
 20
222.6758523172808
 30
0.0
 11
-41.50085441143878
 21
226.5697271369068
 31
0.0
  0
LINE
  5
E
330
2
100
AcDbEntity
  8
-VERGLASUNG
100
AcDbLine
 10
-43.83222923106481
 20
222.6758523172808
 30
0.0
 11
-39.93835441143878
 21
226.5697271369067
 31
0.0
  0
LINE
  5
F
330
2
100
AcDbEntity
  8
-VERGLASUNG
100
AcDbLine
 10
-47.04981466705553
 20
230.7819774976554
 30
0.0
 11
-43.15593984742949
 21
234.6758523172815
 31
0.0
  0
LINE
  5
10
330
2
100
AcDbEntity
  8
-VERGLASUNG
100
AcDbLine
 10
-48.61231466705553
 20
230.7819774976554
 30
0.0
 11
-44.71843984742949
 21
234.6758523172815
 31
0.0
  0
LINE
  5
11
330
2
100
AcDbEntity
  8
-VERGLASUNG
100
AcDbLine
 10
-50.17481466705553
 20
230.7819774976554
 30
0.0
 11
-46.28093984742949
 21
234.6758523172815
 31
0.0
  0
LINE
  5
12
330
2
100
AcDbEntity
  8
-VERGLASUNG
100
AcDbLine
 10
-46.95722923106481
 20
222.6758523172808
 30
0.0
 11
-43.06335441143878
 21
226.5697271369068
 31
0.0
  0
LINE
  5
13
330
2
100
AcDbEntity
  8
-VERGLASUNG
100
AcDbLine
 10
-31.24705771293302
 20
230.7819775683661
 30
0.0
 11
-27.35318289330698
 21
234.6758523879922
 31
0.0
  0
LINE
  5
14
330
2
100
AcDbEntity
  8
-VERGLASUNG
100
AcDbLine
 10
-28.12205771293302
 20
230.7819775683661
 30
0.0
 11
-24.22818289330698
 21
234.6758523879922
 31
0.0
  0
LINE
  5
15
330
2
100
AcDbEntity
  8
-VERGLASUNG
100
AcDbLine
 10
-29.68455771293302
 20
230.7819775683661
 30
0.0
 11
-25.79068289330698
 21
234.6758523879922
 31
0.0
  0
LINE
  5
16
330
2
100
AcDbEntity
  8
-VERGLASUNG
100
AcDbLine
 10
-28.0294722769423
 20
222.6758523879915
 30
0.0
 11
-24.13559745731627
 21
226.5697272076175
 31
0.0
  0
LINE
  5
17
330
2
100
AcDbEntity
  8
-VERGLASUNG
100
AcDbLine
 10
-26.4669722769423
 20
222.6758523879915
 30
0.0
 11
-22.57309745731626
 21
226.5697272076175
 31
0.0
  0
LINE
  5
18
330
2
100
AcDbEntity
  8
-VERGLASUNG
100
AcDbLine
 10
-24.9044722769423
 20
222.6758523879915
 30
0.0
 11
-21.01059745731626
 21
226.5697272076174
 31
0.0
  0
LINE
  5
19
330
2
100
AcDbEntity
  8
-VERGLASUNG
100
AcDbLine
 10
26.13803538162793
 20
222.6758523172805
 30
0.0
 11
30.03191020125397
 21
226.5697271369066
 31
0.0
  0
LINE
  5
1A
330
2
100
AcDbEntity
  8
-VERGLASUNG
100
AcDbLine
 10
24.48294994563722
 20
230.7819774976552
 30
0.0
 11
28.37682476526325
 21
234.6758523172812
 31
0.0
  0
LINE
  5
1B
330
2
100
AcDbEntity
  8
-VERGLASUNG
100
AcDbLine
 10
22.92044994563722
 20
230.7819774976552
 30
0.0
 11
26.81432476526325
 21
234.6758523172812
 31
0.0
  0
LINE
  5
1C
330
2
100
AcDbEntity
  8
-VERGLASUNG
100
AcDbLine
 10
24.57553538162793
 20
222.6758523172805
 30
0.0
 11
28.46941020125397
 21
226.5697271369066
 31
0.0
  0
LINE
  5
1D
330
2
100
AcDbEntity
  8
-VERGLASUNG
100
AcDbLine
 10
21.35794994563722
 20
230.7819774976552
 30
0.0
 11
25.25182476526325
 21
234.6758523172812
 31
0.0
  0
LINE
  5
1E
330
2
100
AcDbEntity
  8
-VERGLASUNG
100
AcDbLine
 10
27.70053538162793
 20
222.6758523172805
 30
0.0
 11
31.59441020125397
 21
226.5697271369065
 31
0.0
  0
LINE
  5
1F
330
2
100
AcDbEntity
  8
-VERGLASUNG
100
AcDbLine
 10
42.41070689975972
 20
230.7819775683659
 30
0.0
 11
46.30458171938577
 21
234.6758523879919
 31
0.0
  0
LINE
  5
20
330
2
100
AcDbEntity
  8
-VERGLASUNG
100
AcDbLine
 10
39.28570689975973
 20
230.7819775683659
 30
0.0
 11
43.17958171938577
 21
234.6758523879919
 31
0.0
  0
LINE
  5
21
330
2
100
AcDbEntity
  8
-VERGLASUNG
100
AcDbLine
 10
40.84820689975972
 20
230.7819775683659
 30
0.0
 11
44.74208171938577
 21
234.6758523879919
 31
0.0
  0
LINE
  5
22
330
2
100
AcDbEntity
  8
-VERGLASUNG
100
AcDbLine
 10
44.06579233575044
 20
222.6758523879913
 30
0.0
 11
47.95966715537647
 21
226.5697272076173
 31
0.0
  0
LINE
  5
23
330
2
100
AcDbEntity
  8
-VERGLASUNG
100
AcDbLine
 10
42.50329233575044
 20
222.6758523879913
 30
0.0
 11
46.39716715537647
 21
226.5697272076173
 31
0.0
  0
LINE
  5
24
330
2
100
AcDbEntity
  8
-VERGLASUNG
100
AcDbLine
 10
45.62829233575044
 20
222.6758523879913
 30
0.0
 11
49.52216715537648
 21
226.5697272076172
 31
0.0
  0
LINE
  5
25
330
2
100
AcDbEntity
  8
-NORMTEIL_VERDECKT
100
AcDbLine
 10
-10.4999999999753
 20
234.6758525294135
 30
0.0
 11
10.5000000000247
 21
234.6758525294135
 31
0.0
  0
INSERT
  5
28
330
2
100
AcDbEntity
  8
-NORMTEIL_VERDECKT
100
AcDbBlockReference
  2
ANSICHT4268
 10
0.0000000000241585
 20
97.34816104632308
 30
0.0
  0
LWPOLYLINE
  5
3E
330
2
100
AcDbEntity
  8
-VERGLASUNG
100
AcDbPolyline
 90
        6
 70
     0
 43
0.0
 10
-49.70433748792252
 20
234.6758525294138
 10
77.99999999999989
 20
234.6758525294132
 10
79.99999999999989
 20
232.6758525294132
 10
79.99999999999992
 20
224.6758525294127
 10
77.99999999999991
 20
222.6758525294127
 10
-49.70433748792252
 20
222.6758525294131
  0
LINE
  5
3F
330
2
100
AcDbEntity
  8
-VERGLASUNG
100
AcDbLine
 10
60.43104928987296
 20
222.6758523879913
 30
0.0
 11
64.32492410949899
 21
226.5697272076173
 31
0.0
  0
LINE
  5
40
330
2
100
AcDbEntity
  8
-VERGLASUNG
100
AcDbLine
 10
61.99354928987296
 20
222.6758523879913
 30
0.0
 11
65.88742410949899
 21
226.5697272076173
 31
0.0
  0
LINE
  5
41
330
2
100
AcDbEntity
  8
-VERGLASUNG
100
AcDbLine
 10
58.77596385388224
 20
230.7819775683659
 30
0.0
 11
62.66983867350828
 21
234.6758523879919
 31
0.0
  0
LINE
  5
42
330
2
100
AcDbEntity
  8
-VERGLASUNG
100
AcDbLine
 10
60.33846385388224
 20
230.7819775683659
 30
0.0
 11
64.23233867350828
 21
234.6758523879919
 31
0.0
  0
LINE
  5
43
330
2
100
AcDbEntity
  8
-VERGLASUNG
100
AcDbLine
 10
57.21346385388224
 20
230.7819775683659
 30
0.0
 11
61.10733867350828
 21
234.6758523879919
 31
0.0
  0
LINE
  5
44
330
2
100
AcDbEntity
  8
-VERGLASUNG
100
AcDbLine
 10
63.55604928987296
 20
222.6758523879913
 30
0.0
 11
67.44992410949899
 21
226.5697272076172
 31
0.0
  0
LINE
  5
45
330
2
100
AcDbEntity
  8
-VERGLASUNG
100
AcDbLine
 10
75.14122080800476
 20
230.7819775683659
 30
0.0
 11
78.51754788452595
 21
234.1583046448871
 31
0.0
  0
LINE
  5
46
330
2
100
AcDbEntity
  8
-VERGLASUNG
100
AcDbLine
 10
78.26622080800476
 20
230.7819775683659
 30
0.0
 11
79.99999999999989
 21
232.515756760361
 31
0.0
  0
LINE
  5
47
330
2
100
AcDbEntity
  8
-VERGLASUNG
100
AcDbLine
 10
76.70372080800476
 20
230.7819775683659
 30
0.0
 11
79.29879788452595
 21
233.3770546448871
 31
0.0
  0
DIMENSION
  5
48
330
2
100
AcDbEntity
  8
-TEXT3
100
AcDbDimension
  2
*D3
 10
-19.93748913598168
 20
123.4116698447517
 30
0.0
 11
-19.93748913598171
 21
128.9116698447517
 31
0.0
 70
   128
 71
     5
 42
11.0
  3
1-1
100
AcDbAlignedDimension
 13
-2.749999999975841
 23
134.4116698447517
 33
0.0
 14
-2.749999999975841
 24
123.4116698447517
 34
0.0
 50
90.0
100
AcDbRotatedDimension
1001
ACAD
1000
DSTYLE
1002
{
1070
   178
1070
   256
1070
   177
1070
   256
1070
   176
1070
   256
1002
}
  0
DIMENSION
  5
58
330
2
100
AcDbEntity
  8
-TEXT3
100
AcDbDimension
  2
*D4
 10
8.25000000002416
 20
147.2789584419553
 30
0.0
 11
0.0000000000241585
 21
147.2789584419553
 31
0.0
 70
   128
 71
     5
 42
16.5
  3
1-1PRO
100
AcDbAlignedDimension
 13
-8.249999999975841
 23
128.9116698447517
 33
0.0
 14
8.250000000024158
 24
128.9116698447517
 34
0.0
100
AcDbRotatedDimension
  0
CIRCLE
  5
66
330
2
100
AcDbEntity
  8
-PROFILAUSSENKANTET
100
AcDbCircle
 10
0.0000000000242153
 20
128.9116698447517
 30
0.0
 40
14.0
  0
LINE
  5
67
330
2
100
AcDbEntity
  8
-NORMTEIL_VERDECKT
100
AcDbLine
 10
-13.92956831035761
 20
229.6758525294128
 30
0.0
 11
13.92956831040575
 21
229.6758525294128
 31
0.0
  0
LINE
  5
68
330
2
100
AcDbEntity
  8
-NORMTEIL_VERDECKT
100
AcDbLine
 10
-14.99999999997601
 20
230.6758525294135
 30
0.0
 11
15.00000000002416
 21
230.6758525294135
 31
0.0
  0
LINE
  5
69
330
2
100
AcDbEntity
  8
-NORMTEIL_VERDECKT
100
AcDbLine
 10
-17.0799999999758
 20
222.6758525294129
 30
0.0
 11
17.08000000002406
 21
222.6758525294129
 31
0.0
  0
MTEXT
  5
6A
330
2
100
AcDbEntity
  8
-TEXT2
100
AcDbMText
 10
-72.18811593188476
 20
172.6379077791259
 30
0.0
 40
4.0
 41
56.11394264854585
 71
     1
 72
     5
  1
Schaft mit Langloch um Toleranzen aus- zugleichen
 73
     1
 44
1.0
  0
MTEXT
  5
6B
330
2
100
AcDbEntity
  8
-TEXT2
100
AcDbMText
 10
-66.74598480112158
 20
192.2567870607123
 30
0.0
 40
4.0
 41
43.30449999999999
 71
     1
 72
     5
  1
Zylinderk.-Schr.\PDIN6912-M10
 73
     1
 44
1.0
  0
LWPOLYLINE
  5
6C
330
2
100
AcDbEntity
  8
-PROFILAUSSENKANTET
100
AcDbPolyline
 90
        4
 70
     0
 43
0.0
 10
-16.94999999997591
 20
219.6758525294129
 10
-33.9999999999759
 20
219.6758525294128
 10
-33.9999999999759
 20
194.6758525294128
 10
34.0000000000241
 20
194.6758525294128
  0
CIRCLE
  5
6D
330
2
100
AcDbEntity
  8
-PROFILAUSSENKANTET
100
AcDbCircle
 10
0.0000000000241016
 20
128.9116698447517
 30
0.0
 40
34.0
  0
LINE
  5
6E
330
2
100
AcDbEntity
  8
-SYSTEM
100
AcDbLine
 10
34.6965815909463
 20
128.9116698447517
 30
0.0
 11
-34.69658159089798
 21
128.9116698447517
 31
0.0
  0
LWPOLYLINE
  5
6F
330
2
100
AcDbEntity
  8
-DICHTUNG
100
AcDbPolyline
 90
        4
 70
     1
 43
0.0
 10
-33.4999999999753
 20
219.6758525294129
 10
33.5000000000247
 20
219.6758525294128
 10
33.50000000002473
 20
222.6758525294128
 10
-33.4999999999753
 20
222.6758525294129
  0
DIMENSION
  5
70
330
2
100
AcDbEntity
  8
-TEXT3
100
AcDbDimension
  2
*D5
 10
34.00000000002697
 20
257.138338886643
 30
0.0
 11
0.0000000000257216
 21
257.138338886643
 31
0.0
 70
   128
  1
%%c<>
 71
     5
 42
68.00000000000259
  3
1-1PRO
100
AcDbAlignedDimension
 13
-33.99999999997561
 23
234.6758525294136
 33
0.0
 14
34.00000000002697
 24
234.6758525294133
 34
0.0
100
AcDbRotatedDimension
1001
ACAD
1000
DSTYLE
1002
{
1002
}
  0
LWPOLYLINE
  5
7D
330
2
100
AcDbEntity
  8
-NORMTEIL_VERDECKT
100
AcDbPolyline
 90
        4
 70
     0
 43
0.0
 10
-20.99999999997601
 20
234.6758525294136
 10
21.0000000000241
 20
234.6758525294135
 10
17.00000000002399
 20
230.6758525294135
 10
-16.99999999997601
 20
230.6758525294135
  0
DIMENSION
  5
7E
330
2
100
AcDbEntity
  8
-TEXT3
100
AcDbDimension
  2
*D6
 10
21.0000000000241
 20
244.1395029444697
 30
0.0
 11
0.000000000024045
 21
247.3651997493643
 31
0.0
  1
%%c<>
 71
     5
 42
42.00000000000011
  3
1-1PRO
100
AcDbAlignedDimension
 13
-20.99999999997601
 23
234.6758525294136
 33
0.0
 14
21.0000000000241
 24
234.6758525294135
 34
0.0
100
AcDbRotatedDimension
  0
HATCH
  5
8B
330
2
100
AcDbEntity
  8
-SCHRAFFUR
100
AcDbHatch
 10
0.0
 20
0.0
 30
0.0
210
0.0
220
0.0
230
1.0
  2
SOLID
 70
     1
 71
     0
 91
        1
 92
        1
 93
        4
 72
     1
 10
-33.4999999999753
 20
219.6758525294129
 11
33.5000000000247
 21
219.6758525294128
 72
     1
 10
33.5000000000247
 20
219.6758525294128
 11
33.50000000002473
 21
222.6758525294128
 72
     1
 10
33.50000000002473
 20
222.6758525294128
 11
-33.4999999999753
 21
222.6758525294129
 72
     1
 10
-33.4999999999753
 20
222.6758525294129
 11
-33.4999999999753
 21
219.6758525294129
 97
        0
 75
     0
 76
     1
 98
        1
 10
-116.7547086937087
 20
-4.054262358439871
450
        0
451
        0
460
0.0
461
0.0
452
        0
462
0.0
453
        0
470

  0
DIMENSION
  5
8C
330
2
100
AcDbEntity
  8
-TEXT3
100
AcDbDimension
  2
*D7
 10
-54.79566251202808
 20
222.675852529413
 30
0.0
 11
-57.89627434071609
 21
228.6758525294134
 31
0.0
  1
G
 71
     5
 42
12.00000000000068
  3
1-1PRO
100
AcDbAlignedDimension
 13
-49.70433748792252
 23
234.6758525294137
 33
0.0
 14
-49.70433748792252
 24
222.675852529413
 34
0.0
 50
90.0
100
AcDbRotatedDimension
  0
DIMENSION
  5
99
330
2
100
AcDbEntity
  8
-TEXT3
100
AcDbDimension
  2
*D8
 10
-54.7956625120282
 20
194.6758525294128
 30
0.0
 11
-57.89627434071619
 21
207.1758525294129
 31
0.0
 71
     5
 42
25.00000000000009
  3
1-1PRO
100
AcDbAlignedDimension
 13
-35.29566251202832
 23
219.6758525294129
 33
0.0
 14
-33.9999999999759
 24
194.6758525294128
 34
0.0
 50
90.0
100
AcDbRotatedDimension
  0
DIMENSION
  5
A6
330
2
100
AcDbEntity
  8
-TEXT3
100
AcDbDimension
  2
*D9
 10
-54.79566251202805
 20
219.6758525294129
 30
0.0
 11
-54.79566251202808
 21
221.175852529413
 31
0.0
 70
   128
 71
     5
 42
3.000000000000113
  3
1-1PRO
100
AcDbAlignedDimension
 13
-49.70433748792252
 23
222.675852529413
 33
0.0
 14
-33.99999999997553
 24
219.6758525294129
 34
0.0
 50
90.0
100
AcDbRotatedDimension
  0
LWPOLYLINE
  5
B4
330
2
100
AcDbEntity
  8
-NORMTEIL_VERDECKT
100
AcDbPolyline
 90
        7
 70
     0
 43
0.0
 10
-20.99999999997556
 20
234.6758525294131
 10
-23.82842712472177
 20
234.6758525294131
 10
-18.99999999997556
 20
229.847425404667
 10
-18.99999999997556
 20
228.6758525294131
 10
-16.99999999997556
 20
228.6758525294131
 10
-16.99999999997556
 20
230.6758525294131
 10
-20.99999999997556
 20
234.6758525294131
  0
LINE
  5
B5
330
2
100
AcDbEntity
  8
-NORMTEIL_VERDECKT
100
AcDbLine
 10
-17.99999999997541
 20
222.6758525294128
 30
0.0
 11
-12.07999999997523
 21
222.6758525294128
 31
0.0
  0
LINE
  5
B6
330
2
100
AcDbEntity
  8
-NORMTEIL_VERDECKT
100
AcDbLine
 10
-17.99999999997609
 20
222.6758525294131
 30
0.0
 11
-12.07999999997591
 21
222.6758525294131
 31
0.0
  0
LINE
  5
B7
330
2
100
AcDbEntity
  8
-NORMTEIL_VERDECKT
100
AcDbLine
 10
-18.99999999997556
 20
228.6758525294131
 30
0.0
 11
-18.99999999997558
 21
222.6758525294129
 31
0.0
  0
LINE
  5
B8
330
2
100
AcDbEntity
  8
-NORMTEIL_VERDECKT
100
AcDbLine
 10
-13.92956831035761
 20
229.6758525294128
 30
0.0
 11
-13.92956831035755
 21
219.6758525294128
 31
0.0
  0
LWPOLYLINE
  5
B9
330
2
100
AcDbEntity
  8
-NORMTEIL
100
AcDbPolyline
 90
        6
 70
     0
 43
0.0
 10
-4.999999999975869
 20
194.6758525294128
 10
-4.999999999975869
 20
175.7498525294128
 10
-3.925999999975857
 20
174.6758525294128
 10
3.926000000024117
 20
174.6758525294128
 10
5.00000000002413
 20
175.7498525294128
 10
5.00000000002413
 20
194.6758525294128
  0
LINE
  5
BB
330
2
100
AcDbEntity
  8
-SCHRAFFUR
100
AcDbLine
 10
-3.925999999975857
 20
174.6758525294128
 30
0.0
 11
-3.925999999975857
 21
194.6758525294128
 31
0.0
  0
LINE
  5
BC
330
2
100
AcDbEntity
  8
-SCHRAFFUR
100
AcDbLine
 10
3.926000000024117
 20
174.6758525294128
 30
0.0
 11
3.926000000024117
 21
194.6758525294128
 31
0.0
  0
MTEXT
  5
BD
330
2
100
AcDbEntity
  8
-TEXT2
100
AcDbMText
 10
26.09115813748113
 20
183.3889394130095
 30
0.0
 40
4.0
 41
43.30449999999999
 71
     1
 72
     5
  1
oder\PHolz-Schr.\PDIN571-%%c8
 73
     1
 44
1.0
  0
INSERT
  5
BE
330
2
100
AcDbEntity
  8
-PROFILAUSSENKANTET
100
AcDbBlockReference
  2
571-10
 10
65.70611717687461
 20
191.4080048817099
 30
0.0
 41
0.8000000000000113
 42
0.7999999999999972
 43
0.8
  0
ARC
  5
10D
330
2
100
AcDbEntity
  8
-SCHRAFFUR
100
AcDbCircle
 10
0.0686989058725942
 20
129.1319309239798
 30
0.0
 40
11.81717906510945
100
AcDbArc
 50
197.0745748496833
 51
110.5409397844105
  0
CIRCLE
  5
10E
330
2
100
AcDbEntity
  8
-PROFILAUSSENKANTET
100
AcDbCircle
 10
0.0000000000241585
 20
128.9116698447517
 30
0.0
 40
11.188
  0
LWPOLYLINE
  5
10F
330
2
100
AcDbEntity
  8
-PROFILAUSSENKANTET
100
AcDbPolyline
 90
        4
 70
     1
 43
0.0
 10
2.750000000024158
 20
134.4116698447517
 10
-2.749999999975841
 20
134.4116698447517
 42
1.0
 10
-2.749999999975841
 20
123.4116698447517
 10
2.750000000024158
 20
123.4116698447517
 42
1.0
  0
LINE
  5
110
330
2
100
AcDbEntity
  8
-SYSTEM
100
AcDbLine
 10
0.0000000000241585
 20
163.6082514356739
 30
0.0
 11
0.0000000000241585
 21
94.21508825382961
 31
0.0
  0
LINE
  5
111
330
2
100
AcDbEntity
  8
-SCHRAFFUR
100
AcDbLine
 10
-4.999999999975869
 20
175.7498525294128
 30
0.0
 11
5.00000000002413
 21
175.7498525294128
 31
0.0
  0
LWPOLYLINE
  5
112
330
2
100
AcDbEntity
  8
-NORMTEIL_VERDECKT
100
AcDbPolyline
 90
        5
 70
     0
 43
0.0
 10
5.500000000024328
 20
234.6758525294127
 10
5.500000000024328
 20
231.6758525294126
 10
7.000000000024328
 20
230.6758525294126
 10
8.500000000024328
 20
231.6758525294126
 10
8.500000000024328
 20
234.6758525294127
  0
LWPOLYLINE
  5
113
330
2
100
AcDbEntity
  8
-NORMTEIL_VERDECKT
100
AcDbPolyline
 90
        5
 70
     0
 43
0.0
 10
-5.271981164003818
 20
234.6758525294131
 10
-5.271981164003818
 20
231.6758525294131
 10
-3.499999999975671
 20
230.6758525294131
 10
-1.771981164003818
 20
231.6758525294131
 10
-1.771981164003818
 20
234.6758525294131
  0
LWPOLYLINE
  5
114
330
2
100
AcDbEntity
  8
-NORMTEIL_VERDECKT
100
AcDbPolyline
 90
        7
 70
     0
 43
0.0
 10
21.00000000002387
 20
234.6758525294134
 10
23.82842712477009
 20
234.6758525294134
 10
19.00000000002387
 20
229.8474254046673
 10
19.00000000002387
 20
228.6758525294134
 10
17.00000000002387
 20
228.6758525294134
 10
17.00000000002387
 20
230.6758525294134
 10
21.00000000002387
 20
234.6758525294134
  0
LWPOLYLINE
  5
115
330
2
100
AcDbEntity
  8
-NORMTEIL_VERDECKT
100
AcDbPolyline
 90
        6
 70
     0
 43
0.0
 10
-11.81717906508558
 20
230.6758525294135
 10
-11.81717906508552
 20
219.4878525294134
 10
-11.00517906508557
 20
218.6758525294135
 10
11.00517906513363
 20
218.6758525294135
 10
11.81717906513364
 20
219.4878525294134
 10
11.81717906513364
 20
230.6758525294134
  0
LINE
  5
116
330
2
100
AcDbEntity
  8
-NORMTEIL_VERDECKT
100
AcDbLine
 10
-11.81717906508552
 20
219.4878525294134
 30
0.0
 11
11.81717906513367
 21
219.4878525294134
 31
0.0
  0
LINE
  5
117
330
2
100
AcDbEntity
  8
-NORMTEIL_VERDECKT
100
AcDbLine
 10
-11.81717906508558
 20
230.6758525294135
 30
0.0
 11
11.81717906513367
 21
230.6758525294135
 31
0.0
  0
LINE
  5
118
330
2
100
AcDbEntity
  8
-NORMTEIL_VERDECKT
100
AcDbLine
 10
11.81717906513361
 20
216.6758525294128
 30
0.0
 11
11.0051790651336
 21
211.472130296966
 31
0.0
  0
LINE
  5
119
330
2
100
AcDbEntity
  8
-NORMTEIL_VERDECKT
100
AcDbLine
 10
11.00517906513369
 20
216.6758525294131
 30
0.0
 11
11.81717906513358
 21
216.6758525294131
 31
0.0
  0
LINE
  5
11A
330
2
100
AcDbEntity
  8
-NORMTEIL_VERDECKT
100
AcDbLine
 10
11.81717906513376
 20
229.6758525294128
 30
0.0
 11
11.00517906513397
 21
228.8638525294131
 31
0.0
  0
LWPOLYLINE
  5
11B
330
2
100
AcDbEntity
  8
-NORMTEIL_VERDECKT
100
AcDbPolyline
 90
        4
 70
     0
 43
0.0
 10
11.0051790651336
 20
229.6758525294128
 10
11.0051790651336
 20
199.6758525294128
 10
-11.00517906508545
 20
199.6758525294128
 10
-11.0051790650858
 20
229.6758525294127
  0
LWPOLYLINE
  5
11C
330
2
100
AcDbEntity
  8
-NORMTEIL_VERDECKT
100
AcDbPolyline
 90
        6
 70
     1
 43
0.0
 10
-7.999999999975869
 20
199.6758525294128
 10
8.00000000002413
 20
199.6758525294128
 10
8.00000000002413
 20
205.1758525294128
 42
0.4142135623730951
 10
7.00000000002413
 20
206.1758525294128
 10
-6.999999999975869
 20
206.1758525294128
 42
0.4142135623730951
 10
-7.999999999975869
 20
205.1758525294128
  0
LWPOLYLINE
  5
11D
330
2
100
AcDbEntity
  8
-NORMTEIL_VERDECKT
100
AcDbPolyline
 90
        4
 70
     0
 43
0.0
 10
-4.618802153492907
 20
206.1758525294128
 10
-4.618802153492907
 20
201.1758525294128
 10
4.618802153541111
 20
201.1758525294128
 10
4.618802153541111
 20
206.1758525294128
  0
LINE
  5
11E
330
2
100
AcDbEntity
  8
-NORMTEIL_VERDECKT
100
AcDbLine
 10
2.30940107678262
 20
201.1758525294128
 30
0.0
 11
2.30940107678262
 21
206.1758525294128
 31
0.0
  0
LINE
  5
11F
330
2
100
AcDbEntity
  8
-NORMTEIL_VERDECKT
100
AcDbLine
 10
-2.309401076734388
 20
201.1758525294128
 30
0.0
 11
-2.309401076734388
 21
206.1758525294128
 31
0.0
  0
LINE
  5
120
330
2
100
AcDbEntity
  8
-NORMTEIL_VERDECKT
100
AcDbLine
 10
5.00000000002413
 20
197.6758525294128
 30
0.0
 11
-4.999999999975869
 21
197.6758525294128
 31
0.0
  0
LINE
  5
121
330
2
100
AcDbEntity
  8
-NORMTEIL_VERDECKT
100
AcDbLine
 10
-8.314286686669674
 20
194.6758525294128
 30
0.0
 11
-8.314286686669674
 21
199.6758525294128
 31
0.0
  0
LINE
  5
122
330
2
100
AcDbEntity
  8
-NORMTEIL_VERDECKT
100
AcDbLine
 10
-4.999999999975869
 20
194.6758525294128
 30
0.0
 11
-4.999999999975869
 21
199.6758525294128
 31
0.0
  0
LINE
  5
123
330
2
100
AcDbEntity
  8
-NORMTEIL_VERDECKT
100
AcDbLine
 10
-3.925999999975857
 20
194.6758525294128
 30
0.0
 11
-3.925999999975857
 21
197.6758525294128
 31
0.0
  0
LINE
  5
124
330
2
100
AcDbEntity
  8
-NORMTEIL_VERDECKT
100
AcDbLine
 10
5.00000000002413
 20
194.6758525294128
 30
0.0
 11
5.00000000002413
 21
199.6758525294128
 31
0.0
  0
LINE
  5
125
330
2
100
AcDbEntity
  8
-NORMTEIL_VERDECKT
100
AcDbLine
 10
3.926000000024117
 20
194.6758525294128
 30
0.0
 11
3.926000000024117
 21
197.6758525294128
 31
0.0
  0
LINE
  5
126
330
2
100
AcDbEntity
  8
-NORMTEIL_VERDECKT
100
AcDbLine
 10
8.17688887502112
 20
194.6758525294128
 30
0.0
 11
8.17688887502112
 21
199.6758525294128
 31
0.0
  0
LINE
  5
127
330
2
100
AcDbEntity
  8
-NORMTEIL_VERDECKT
100
AcDbLine
 10
-11.00517906508574
 20
228.863852529413
 30
0.0
 11
11.00517906513397
 21
228.8638525294131
 31
0.0
  0
LINE
  5
128
330
2
100
AcDbEntity
  8
-NORMTEIL_VERDECKT
100
AcDbLine
 10
-11.81717906508558
 20
219.4878525294134
 30
0.0
 11
-11.81717906508558
 21
216.6758525294128
 31
0.0
  0
LINE
  5
129
330
2
100
AcDbEntity
  8
-NORMTEIL_VERDECKT
100
AcDbLine
 10
-11.81717906508558
 20
216.675852529413
 30
0.0
 11
-11.00517906508568
 21
211.4721302969662
 31
0.0
  0
LINE
  5
12A
330
2
100
AcDbEntity
  8
-NORMTEIL_VERDECKT
100
AcDbLine
 10
-11.81717906508558
 20
216.675852529413
 30
0.0
 11
-11.00517906508568
 21
216.675852529413
 31
0.0
  0
LINE
  5
12B
330
2
100
AcDbEntity
  8
-NORMTEIL_VERDECKT
100
AcDbLine
 10
-11.00517906508574
 20
228.863852529413
 30
0.0
 11
-11.0051790650858
 21
229.6758525294127
 31
0.0
  0
LINE
  5
12C
330
2
100
AcDbEntity
  8
-NORMTEIL_VERDECKT
100
AcDbLine
 10
-11.81717906508564
 20
229.6758525294128
 30
0.0
 11
-11.00517906508585
 21
228.863852529413
 31
0.0
  0
LINE
  5
12D
330
2
100
AcDbEntity
  8
-NORMTEIL_VERDECKT
100
AcDbLine
 10
-5.271981164003818
 20
231.6758525294131
 30
0.0
 11
-1.771981164003818
 21
231.6758525294131
 31
0.0
  0
LINE
  5
12E
330
2
100
AcDbEntity
  8
-NORMTEIL_VERDECKT
100
AcDbLine
 10
5.500000000024328
 20
231.6758525294126
 30
0.0
 11
8.500000000024328
 21
231.6758525294126
 31
0.0
  0
LINE
  5
12F
330
2
100
AcDbEntity
  8
-NORMTEIL_VERDECKT
100
AcDbLine
 10
11.0051790651336
 20
229.6758525294128
 30
0.0
 11
11.0051790651336
 21
228.8638525294127
 31
0.0
  0
LWPOLYLINE
  5
130
330
2
100
AcDbEntity
  8
-PROFILAUSSENKANTET
100
AcDbPolyline
 90
        4
 70
     0
 43
0.0
 10
34.0000000000241
 20
194.6758525294128
 10
34.0000000000241
 20
194.6758525294128
 10
34.0000000000241
 20
219.6758525294128
 10
16.95000000002406
 20
219.6758525294128
  0
LINE
  5
131
330
2
100
AcDbEntity
  8
-NORMTEIL_VERDECKT
100
AcDbLine
 10
23.00000000002424
 20
222.6758525294129
 30
0.0
 11
17.08000000002406
 21
222.6758525294129
 31
0.0
  0
LINE
  5
132
330
2
100
AcDbEntity
  8
-NORMTEIL_VERDECKT
100
AcDbLine
 10
11.81717906513367
 20
219.4878525294134
 30
0.0
 11
11.81717906513361
 21
216.6758525294128
 31
0.0
  0
LINE
  5
133
330
2
100
AcDbEntity
  8
-NORMTEIL_VERDECKT
100
AcDbLine
 10
18.00000000002481
 20
222.6758525294128
 30
0.0
 11
12.08000000002462
 21
222.6758525294128
 31
0.0
  0
LINE
  5
134
330
2
100
AcDbEntity
  8
-NORMTEIL_VERDECKT
100
AcDbLine
 10
18.00000000002413
 20
222.6758525294131
 30
0.0
 11
12.08000000002394
 21
222.6758525294131
 31
0.0
  0
LINE
  5
135
330
2
100
AcDbEntity
  8
-NORMTEIL_VERDECKT
100
AcDbLine
 10
13.92956831040575
 20
229.6758525294128
 30
0.0
 11
13.9295683104057
 21
219.6758525294128
 31
0.0
  0
LINE
  5
136
330
2
100
AcDbEntity
  8
-NORMTEIL_VERDECKT
100
AcDbLine
 10
19.00000000002387
 20
228.6758525294134
 30
0.0
 11
19.00000000002387
 21
222.6758525294129
 31
0.0
  0
LINE
  5
137
330
2
100
AcDbEntity
  8
-NORMTEIL_VERDECKT
100
AcDbLine
 10
-10.4999999999753
 20
234.6758525294135
 30
0.0
 11
10.5000000000247
 21
234.6758525294135
 31
0.0
  0
ENDSEC
  0
SECTION
  2
OBJECTS
  0
DICTIONARY
  5
7
330
0
100
AcDbDictionary
281
     1
  3
ACAD_COLOR
350
156
  3
ACAD_GROUP
350
152
  3
ACAD_LAYOUT
350
13A
  3
ACAD_MATERIAL
350
155
  3
ACAD_MLINESTYLE
350
153
  3
ACAD_PLOTSETTINGS
350
154
  3
ACAD_PLOTSTYLENAME
350
6
  3
ACAD_TABLESTYLE
350
164
  3
AcDbVariableDictionary
350
15F
  0
DICTIONARY
  5
156
102
{ACAD_REACTORS
330
7
102
}
330
7
100
AcDbDictionary
281
     1
  0
DICTIONARY
  5
152
102
{ACAD_REACTORS
330
7
102
}
330
7
100
AcDbDictionary
281
     1
  0
DICTIONARY
  5
13A
102
{ACAD_REACTORS
330
7
102
}
330
7
100
AcDbDictionary
281
     1
  3
Layout1
350
13E
  3
Model
350
139
  0
DICTIONARY
  5
155
102
{ACAD_REACTORS
330
7
102
}
330
7
100
AcDbDictionary
281
     1
  0
DICTIONARY
  5
153
102
{ACAD_REACTORS
330
7
102
}
330
7
100
AcDbDictionary
281
     1
  3
STANDARD
350
157
  0
DICTIONARY
  5
154
102
{ACAD_REACTORS
330
7
102
}
330
7
100
AcDbDictionary
281
     1
  0
ACDBDICTIONARYWDFLT
  5
6
102
{ACAD_REACTORS
330
7
102
}
330
7
100
AcDbDictionary
281
     1
  3
Normal
350
5
100
AcDbDictionaryWithDefault
340
5
  0
DICTIONARY
  5
164
102
{ACAD_REACTORS
330
7
102
}
330
7
100
AcDbDictionary
281
     1
  3
Standard
350
165
  0
DICTIONARY
  5
15F
102
{ACAD_REACTORS
330
7
102
}
330
7
100
AcDbDictionary
281
     1
  3
CTABLESTYLE
350
169
  3
DIMASSOC
350
161
  3
HIDETEXT
350
160
  3
PROJECTNAME
350
162
  0
LAYOUT
  5
13E
102
{ACAD_REACTORS
330
13A
102
}
330
13A
100
AcDbPlotSettings
  1

  2
HP DeskJet 1120C Printer
  4

  6

 40
0.0
 41
0.0
 42
0.0
 43
0.0
 44
0.0
 45
0.0
 46
0.0
 47
0.0
 48
0.0
 49
0.0
140
0.0
141
0.0
142
1.0
143
1.0
 70
   688
 72
     0
 73
     0
 74
     5
  7
monochrome.ctb
 75
    16
147
1.0
 76
     0
 77
     2
 78
   300
148
0.0
149
0.0
100
AcDbLayout
  1
Layout1
 70
     1
 71
     1
 10
0.0
 20
0.0
 11
12.0
 21
9.0
 12
0.0
 22
0.0
 32
0.0
 14
1.000000000000000E+20
 24
1.000000000000000E+20
 34
1.000000000000000E+20
 15
-1.000000000000000E+20
 25
-1.000000000000000E+20
 35
-1.000000000000000E+20
146
0.0
 13
0.0
 23
0.0
 33
0.0
 16
1.0
 26
0.0
 36
0.0
 17
0.0
 27
1.0
 37
0.0
 76
     0
330
13B
  0
LAYOUT
  5
139
102
{ACAD_REACTORS
330
13A
102
}
330
13A
100
AcDbPlotSettings
  1

  2
HP DeskJet 1120C Printer
  4

  6

 40
0.0
 41
0.0
 42
0.0
 43
0.0
 44
0.0
 45
0.0
 46
0.0
 47
0.0
 48
0.0
 49
0.0
140
0.0
141
0.0
142
1.0
143
1.0
 70
  1712
 72
     0
 73
     0
 74
     0
  7
monochrome.ctb
 75
     0
147
1.0
 76
     0
 77
     2
 78
   300
148
0.0
149
0.0
100
AcDbLayout
  1
Model
 70
     1
 71
     0
 10
0.0
 20
0.0
 11
12.0
 21
9.0
 12
0.0
 22
0.0
 32
0.0
 14
0.0
 24
0.0
 34
0.0
 15
0.0
 25
0.0
 35
0.0
146
0.0
 13
0.0
 23
0.0
 33
0.0
 16
1.0
 26
0.0
 36
0.0
 17
0.0
 27
1.0
 37
0.0
 76
     0
330
2
  0
MLINESTYLE
  5
157
102
{ACAD_REACTORS
330
153
102
}
330
153
100
AcDbMlineStyle
  2
STANDARD
 70
     0
  3

 62
     0
 51
90.0
 52
90.0
 71
     2
 49
0.5
 62
   256
  6
BYLAYER
 49
-0.5
 62
   256
  6
BYLAYER
  0
ACDBPLACEHOLDER
  5
5
102
{ACAD_REACTORS
330
6
102
}
330
6
  0
TABLESTYLE
  5
165
102
{ACAD_REACTORS
330
164
102
}
330
164
100
AcDbTableStyle
  3
Standard
 70
     0
 71
     0
 40
0.06
 41
0.06
280
     0
281
     0
  7
STANDARD
140
0.18
170
     2
 62
     0
 63
     7
283
     0
274
    -2
284
     1
 64
     0
275
    -2
285
     1
 65
     0
276
    -2
286
     1
 66
     0
277
    -2
287
     1
 67
     0
278
    -2
288
     1
 68
     0
279
    -2
289
     1
 69
     0
  7
STANDARD
140
0.25
170
     5
 62
     0
 63
     7
283
     0
274
    -2
284
     1
 64
     0
275
    -2
285
     1
 65
     0
276
    -2
286
     1
 66
     0
277
    -2
287
     1
 67
     0
278
    -2
288
     1
 68
     0
279
    -2
289
     1
 69
     0
  7
STANDARD
140
0.18
170
     5
 62
     0
 63
     7
283
     0
274
    -2
284
     1
 64
     0
275
    -2
285
     1
 65
     0
276
    -2
286
     1
 66
     0
277
    -2
287
     1
 67
     0
278
    -2
288
     1
 68
     0
279
    -2
289
     1
 69
     0
  0
DICTIONARYVAR
  5
169
102
{ACAD_REACTORS
330
15F
102
}
330
15F
100
DictionaryVariables
280
     0
  1
STANDARD
  0
DICTIONARYVAR
  5
161
102
{ACAD_REACTORS
330
15F
102
}
330
15F
100
DictionaryVariables
280
     0
  1
1
  0
DICTIONARYVAR
  5
160
102
{ACAD_REACTORS
330
15F
102
}
330
15F
100
DictionaryVariables
280
     0
  1
1
  0
DICTIONARYVAR
  5
162
102
{ACAD_REACTORS
330
15F
102
}
330
15F
100
DictionaryVariables
280
     0
  1

  0
ENDSEC
  0
EOF
