  0
SECTION
  2
HEADER
  9
$ACADVER
  1
AC1018
  9
$ACADMAINTVER
 70
    76
  9
$DWGCODEPAGE
  3
ANSI_1252
  9
$INSBASE
 10
-327.8288694144876
 20
0.0
 30
0.0
  9
$EXTMIN
 10
-72.97749106089401
 20
-51.97920615538612
 30
0.0
  9
$EXTMAX
 10
80.0
 20
257.6658630068699
 30
0.0
  9
$LIMMIN
 10
0.0
 20
0.0
  9
$LIMMAX
 10
12.0
 20
9.0
  9
$ORTHOMODE
 70
     1
  9
$REGENMODE
 70
     1
  9
$FILLMODE
 70
     1
  9
$QTEXTMODE
 70
     0
  9
$MIRRTEXT
 70
     1
  9
$LTSCALE
 40
2.5
  9
$ATTMODE
 70
     1
  9
$TEXTSIZE
 40
0.2
  9
$TRACEWID
 40
0.05
  9
$TEXTSTYLE
  7
STANDARD
  9
$CLAYER
  8
-VERGLASUNG
  9
$CELTYPE
  6
BYLAYER
  9
$CECOLOR
 62
   256
  9
$CELTSCALE
 40
1.0
  9
$DISPSILH
 70
     0
  9
$DIMSCALE
 40
1.0
  9
$DIMASZ
 40
3.5
  9
$DIMEXO
 40
2.0
  9
$DIMDLI
 40
2.0
  9
$DIMRND
 40
0.0
  9
$DIMDLE
 40
0.0
  9
$DIMEXE
 40
1.5
  9
$DIMTP
 40
0.0
  9
$DIMTM
 40
0.0
  9
$DIMTXT
 40
4.0
  9
$DIMCEN
 40
0.09
  9
$DIMTSZ
 40
0.0
  9
$DIMTOL
 70
     0
  9
$DIMLIM
 70
     0
  9
$DIMTIH
 70
     0
  9
$DIMTOH
 70
     0
  9
$DIMSE1
 70
     0
  9
$DIMSE2
 70
     0
  9
$DIMTAD
 70
     1
  9
$DIMZIN
 70
     9
  9
$DIMBLK
  1

  9
$DIMASO
 70
     1
  9
$DIMSHO
 70
     1
  9
$DIMPOST
  1

  9
$DIMAPOST
  1

  9
$DIMALT
 70
     0
  9
$DIMALTD
 70
     2
  9
$DIMALTF
 40
25.4
  9
$DIMLFAC
 40
1.0
  9
$DIMTOFL
 70
     0
  9
$DIMTVP
 40
0.0
  9
$DIMTIX
 70
     0
  9
$DIMSOXD
 70
     0
  9
$DIMSAH
 70
     0
  9
$DIMBLK1
  1

  9
$DIMBLK2
  1

  9
$DIMSTYLE
  2
1-1PRO
  9
$DIMCLRD
 70
   256
  9
$DIMCLRE
 70
   256
  9
$DIMCLRT
 70
   256
  9
$DIMTFAC
 40
1.0
  9
$DIMGAP
 40
1.0
  9
$DIMJUST
 70
     0
  9
$DIMSD1
 70
     0
  9
$DIMSD2
 70
     0
  9
$DIMTOLJ
 70
     1
  9
$DIMTZIN
 70
     0
  9
$DIMALTZ
 70
     0
  9
$DIMALTTZ
 70
     0
  9
$DIMUPT
 70
     0
  9
$DIMDEC
 70
     1
  9
$DIMTDEC
 70
     1
  9
$DIMALTU
 70
     2
  9
$DIMALTTD
 70
     2
  9
$DIMTXSTY
  7
STANDARD
  9
$DIMAUNIT
 70
     0
  9
$DIMADEC
 70
     0
  9
$DIMALTRND
 40
0.0
  9
$DIMAZIN
 70
     0
  9
$DIMDSEP
 70
    46
  9
$DIMATFIT
 70
     3
  9
$DIMFRAC
 70
     0
  9
$DIMLDRBLK
  1

  9
$DIMLUNIT
 70
     2
  9
$DIMLWD
 70
    -2
  9
$DIMLWE
 70
    -2
  9
$DIMTMOVE
 70
     0
  9
$LUNITS
 70
     2
  9
$LUPREC
 70
     4
  9
$SKETCHINC
 40
0.1
  9
$FILLETRAD
 40
0.0
  9
$AUNITS
 70
     0
  9
$AUPREC
 70
     0
  9
$MENU
  1
.
  9
$ELEVATION
 40
0.0
  9
$PELEVATION
 40
0.0
  9
$THICKNESS
 40
0.0
  9
$LIMCHECK
 70
     0
  9
$CHAMFERA
 40
2.0
  9
$CHAMFERB
 40
2.0
  9
$CHAMFERC
 40
1.0
  9
$CHAMFERD
 40
0.0
  9
$SKPOLY
 70
     0
  9
$TDCREATE
 40
2450923.406402199
  9
$TDUCREATE
 40
2450923.364735533
  9
$TDUPDATE
 40
2457744.644381088
  9
$TDUUPDATE
 40
2457744.602714421
  9
$TDINDWG
 40
2.5120126505
  9
$TDUSRTIMER
 40
2.5120126505
  9
$USRTIMER
 70
     1
  9
$ANGBASE
 50
0.0
  9
$ANGDIR
 70
     0
  9
$PDMODE
 70
     0
  9
$PDSIZE
 40
0.0
  9
$PLINEWID
 40
0.0
  9
$SPLFRAME
 70
     0
  9
$SPLINETYPE
 70
     6
  9
$SPLINESEGS
 70
    50
  9
$HANDSEED
  5
159
  9
$SURFTAB1
 70
     6
  9
$SURFTAB2
 70
     6
  9
$SURFTYPE
 70
     6
  9
$SURFU
 70
     6
  9
$SURFV
 70
     6
  9
$UCSBASE
  2

  9
$UCSNAME
  2

  9
$UCSORG
 10
0.0
 20
0.0
 30
0.0
  9
$UCSXDIR
 10
1.0
 20
0.0
 30
0.0
  9
$UCSYDIR
 10
0.0
 20
1.0
 30
0.0
  9
$UCSORTHOREF
  2

  9
$UCSORTHOVIEW
 70
     0
  9
$UCSORGTOP
 10
0.0
 20
0.0
 30
0.0
  9
$UCSORGBOTTOM
 10
0.0
 20
0.0
 30
0.0
  9
$UCSORGLEFT
 10
0.0
 20
0.0
 30
0.0
  9
$UCSORGRIGHT
 10
0.0
 20
0.0
 30
0.0
  9
$UCSORGFRONT
 10
0.0
 20
0.0
 30
0.0
  9
$UCSORGBACK
 10
0.0
 20
0.0
 30
0.0
  9
$PUCSBASE
  2

  9
$PUCSNAME
  2

  9
$PUCSORG
 10
0.0
 20
0.0
 30
0.0
  9
$PUCSXDIR
 10
1.0
 20
0.0
 30
0.0
  9
$PUCSYDIR
 10
0.0
 20
1.0
 30
0.0
  9
$PUCSORTHOREF
  2

  9
$PUCSORTHOVIEW
 70
     0
  9
$PUCSORGTOP
 10
0.0
 20
0.0
 30
0.0
  9
$PUCSORGBOTTOM
 10
0.0
 20
0.0
 30
0.0
  9
$PUCSORGLEFT
 10
0.0
 20
0.0
 30
0.0
  9
$PUCSORGRIGHT
 10
0.0
 20
0.0
 30
0.0
  9
$PUCSORGFRONT
 10
0.0
 20
0.0
 30
0.0
  9
$PUCSORGBACK
 10
0.0
 20
0.0
 30
0.0
  9
$USERI1
 70
     0
  9
$USERI2
 70
     0
  9
$USERI3
 70
     0
  9
$USERI4
 70
     0
  9
$USERI5
 70
     0
  9
$USERR1
 40
0.0
  9
$USERR2
 40
0.0
  9
$USERR3
 40
0.0
  9
$USERR4
 40
0.0
  9
$USERR5
 40
0.0
  9
$WORLDVIEW
 70
     1
  9
$SHADEDGE
 70
     3
  9
$SHADEDIF
 70
    70
  9
$TILEMODE
 70
     1
  9
$MAXACTVP
 70
    48
  9
$PINSBASE
 10
0.0
 20
0.0
 30
0.0
  9
$PLIMCHECK
 70
     0
  9
$PEXTMIN
 10
1.000000000000000E+20
 20
1.000000000000000E+20
 30
1.000000000000000E+20
  9
$PEXTMAX
 10
-1.000000000000000E+20
 20
-1.000000000000000E+20
 30
-1.000000000000000E+20
  9
$PLIMMIN
 10
0.0
 20
0.0
  9
$PLIMMAX
 10
12.0
 20
9.0
  9
$UNITMODE
 70
     0
  9
$VISRETAIN
 70
     1
  9
$PLINEGEN
 70
     0
  9
$PSLTSCALE
 70
     1
  9
$TREEDEPTH
 70
  3020
  9
$CMLSTYLE
  2
STANDARD
  9
$CMLJUST
 70
     0
  9
$CMLSCALE
 40
1.0
  9
$PROXYGRAPHICS
 70
     1
  9
$MEASUREMENT
 70
     0
  9
$CELWEIGHT
370
    -1
  9
$ENDCAPS
280
     0
  9
$JOINSTYLE
280
     0
  9
$LWDISPLAY
290
     0
  9
$INSUNITS
 70
     0
  9
$HYPERLINKBASE
  1

  9
$STYLESHEET
  1

  9
$XEDIT
290
     1
  9
$CEPSNTYPE
380
     0
  9
$PSTYLEMODE
290
     1
  9
$FINGERPRINTGUID
  2
{3468BB40-FB63-11D4-9C1F-EC81C176A25E}
  9
$VERSIONGUID
  2
{47F73425-24C5-48C8-9477-708AFA8D49B7}
  9
$EXTNAMES
290
     1
  9
$PSVPSCALE
 40
0.0
  9
$OLESTARTUP
290
     0
  9
$SORTENTS
280
   127
  9
$INDEXCTL
280
     0
  9
$HIDETEXT
280
     1
  9
$XCLIPFRAME
290
     0
  9
$HALOGAP
280
     0
  9
$OBSCOLOR
 70
   257
  9
$OBSLTYPE
280
     0
  9
$INTERSECTIONDISPLAY
280
     0
  9
$INTERSECTIONCOLOR
 70
   257
  9
$DIMASSOC
280
     1
  9
$PROJECTNAME
  1

  0
ENDSEC
  0
SECTION
  2
CLASSES
  0
CLASS
  1
DICTIONARYVAR
  2
AcDbDictionaryVar
  3
ObjectDBX Classes
 90
        0
 91
        4
280
     0
281
     0
  0
CLASS
  1
IMAGE
  2
AcDbRasterImage
  3
ISM
 90
      127
 91
        0
280
     0
281
     1
  0
CLASS
  1
IMAGEDEF_REACTOR
  2
AcDbRasterImageDefReactor
  3
ISM
 90
        1
 91
        0
280
     0
281
     0
  0
CLASS
  1
IMAGEDEF
  2
AcDbRasterImageDef
  3
ISM
 90
        0
 91
        0
280
     0
281
     0
  0
CLASS
  1
RASTERVARIABLES
  2
AcDbRasterVariables
  3
ISM
 90
        0
 91
        0
280
     0
281
     0
  0
CLASS
  1
ACDBDICTIONARYWDFLT
  2
AcDbDictionaryWithDefault
  3
ObjectDBX Classes
 90
        0
 91
        1
280
     0
281
     0
  0
CLASS
  1
TABLESTYLE
  2
AcDbTableStyle
  3
ObjectDBX Classes
 90
     2047
 91
        1
280
     0
281
     0
  0
ENDSEC
  0
SECTION
  2
TABLES
  0
TABLE
  2
VPORT
  5
13B
330
0
100
AcDbSymbolTable
 70
     3
  0
VPORT
  5
158
330
13B
100
AcDbSymbolTableRecord
100
AcDbViewportTableRecord
  2
*Active
 70
     0
 10
0.0
 20
0.0
 11
1.0
 21
1.0
 12
57.50459429866177
 22
103.6128685502623
 13
0.0
 23
0.0
 14
0.5
 24
0.5
 15
0.5
 25
0.5
 16
0.0
 26
0.0
 36
1.0
 17
0.0
 27
0.0
 37
0.0
 40
313.6691230713179
 41
1.893413173652694
 42
50.0
 43
0.0
 44
0.0
 50
0.0
 51
0.0
 71
     0
 72
   100
 73
     1
 74
     1
 75
     0
 76
     0
 77
     0
 78
     0
281
     0
 65
     1
110
0.0
120
0.0
130
0.0
111
1.0
121
0.0
131
0.0
112
0.0
122
1.0
132
0.0
 79
     0
146
0.0
  0
ENDTAB
  0
TABLE
  2
LTYPE
  5
136
330
0
100
AcDbSymbolTable
 70
     4
  0
LTYPE
  5
137
330
136
100
AcDbSymbolTableRecord
100
AcDbLinetypeTableRecord
  2
BYBLOCK
 70
     0
  3

 72
    65
 73
     0
 40
0.0
  0
LTYPE
  5
138
330
136
100
AcDbSymbolTableRecord
100
AcDbLinetypeTableRecord
  2
BYLAYER
 70
     0
  3

 72
    65
 73
     0
 40
0.0
  0
LTYPE
  5
8
330
136
100
AcDbSymbolTableRecord
100
AcDbLinetypeTableRecord
  2
CONTINUOUS
 70
     0
  3
Solid line
 72
    65
 73
     0
 40
0.0
  0
LTYPE
  5
3C
330
136
100
AcDbSymbolTableRecord
100
AcDbLinetypeTableRecord
  2
MITTEX2
 70
     0
  3
Mitte (2x) ________  __  ________  __  _____
 72
    65
 73
     4
 40
4.0
 49
2.5
 74
     0
 49
-0.5
 74
     0
 49
0.5
 74
     0
 49
-0.5
 74
     0
  0
LTYPE
  5
B
330
136
100
AcDbSymbolTableRecord
100
AcDbLinetypeTableRecord
  2
STRICHLINIEX2
 70
     0
  3
Strichlinie (2x) ____  ____  ____  ____  ____  
 72
    65
 73
     2
 40
1.5
 49
1.0
 74
     0
 49
-0.5
 74
     0
  0
LTYPE
  5
8E
330
136
100
AcDbSymbolTableRecord
100
AcDbLinetypeTableRecord
  2
VERDECKT_SEHR_FEIN
 70
     0
  3
_ _ _ _ _ _ _ _ _ _ _ _ _ _ _ _ _ _ _ _ _ _ _
 72
    65
 73
     2
 40
0.09375
 49
0.0625
 74
     0
 49
-0.03125
 74
     0
  0
ENDTAB
  0
TABLE
  2
LAYER
  5
131
102
{ACAD_XDICTIONARY
360
132
102
}
330
0
100
AcDbSymbolTable
 70
    11
  0
LAYER
  5
4
330
131
100
AcDbSymbolTableRecord
100
AcDbLayerTableRecord
  2
0
 70
     0
 62
     7
  6
CONTINUOUS
370
    -3
390
5
  0
LAYER
  5
1F
330
131
100
AcDbSymbolTableRecord
100
AcDbLayerTableRecord
  2
-PROFILAUSSENKANTET
 70
     0
 62
     4
  6
CONTINUOUS
370
    -3
390
5
  0
LAYER
  5
31
330
131
100
AcDbSymbolTableRecord
100
AcDbLayerTableRecord
  2
-DICHTUNG
 70
     0
 62
     3
  6
CONTINUOUS
370
    -3
390
5
  0
LAYER
  5
85
330
131
100
AcDbSymbolTableRecord
100
AcDbLayerTableRecord
  2
-NORMTEIL
 70
     0
 62
     6
  6
CONTINUOUS
370
    -3
390
5
  0
LAYER
  5
A
330
131
100
AcDbSymbolTableRecord
100
AcDbLayerTableRecord
  2
-NORMTEIL_VERDECKT
 70
     0
 62
     9
  6
STRICHLINIEX2
370
    -3
390
5
  0
LAYER
  5
1A
330
131
100
AcDbSymbolTableRecord
100
AcDbLayerTableRecord
  2
DEFPOINTS
 70
     0
 62
     7
  6
CONTINUOUS
290
     0
370
    -3
390
5
  0
LAYER
  5
3B
330
131
100
AcDbSymbolTableRecord
100
AcDbLayerTableRecord
  2
-SYSTEM
 70
     0
 62
     2
  6
MITTEX2
370
    -3
390
5
  0
LAYER
  5
37
330
131
100
AcDbSymbolTableRecord
100
AcDbLayerTableRecord
  2
-TEXT2
 70
     0
 62
     3
  6
CONTINUOUS
370
    -3
390
5
  0
LAYER
  5
D
330
131
100
AcDbSymbolTableRecord
100
AcDbLayerTableRecord
  2
-TEXT3
 70
     0
 62
     2
  6
CONTINUOUS
370
    -3
390
5
  0
LAYER
  5
2F
330
131
100
AcDbSymbolTableRecord
100
AcDbLayerTableRecord
  2
-SCHRAFFUR
 70
     0
 62
     9
  6
CONTINUOUS
370
    -3
390
5
  0
LAYER
  5
102
330
131
100
AcDbSymbolTableRecord
100
AcDbLayerTableRecord
  2
-VERGLASUNG
 70
     0
 62
     1
  6
CONTINUOUS
370
    -3
390
5
  0
ENDTAB
  0
TABLE
  2
STYLE
  5
134
330
0
100
AcDbSymbolTable
 70
     1
  0
STYLE
  5
F
330
134
100
AcDbSymbolTableRecord
100
AcDbTextStyleTableRecord
  2
STANDARD
 70
     0
 40
0.0
 41
1.0
 50
0.0
 71
     0
 42
0.2
  3
GOTHIC.TTF
  4

1001
ACAD
1000
Century Gothic
1071
       34
  0
ENDTAB
  0
TABLE
  2
VIEW
  5
139
330
0
100
AcDbSymbolTable
 70
     0
  0
ENDTAB
  0
TABLE
  2
UCS
  5
13A
330
0
100
AcDbSymbolTable
 70
     0
  0
ENDTAB
  0
TABLE
  2
APPID
  5
13D
330
0
100
AcDbSymbolTable
 70
     1
  0
APPID
  5
10
330
13D
100
AcDbSymbolTableRecord
100
AcDbRegAppTableRecord
  2
ACAD
 70
     0
  0
ENDTAB
  0
TABLE
  2
DIMSTYLE
  5
13E
330
0
100
AcDbSymbolTable
 70
     2
100
AcDbDimStyleTable
 71
     1
340
E
  0
DIMSTYLE
105
E
102
{ACAD_REACTORS
330
C
330
3D
330
4B
330
58
330
65
330
72
102
}
330
13E
100
AcDbSymbolTableRecord
100
AcDbDimStyleTableRecord
  2
1-1PRO
 70
     0
 41
3.5
 42
2.0
 43
2.0
 44
1.5
 73
     0
 74
     0
 77
     1
 78
     9
140
4.0
147
1.0
176
   256
177
   256
178
   256
271
     1
272
     1
340
F
  0
DIMSTYLE
105
21
102
{ACAD_REACTORS
330
20
102
}
330
13E
100
AcDbSymbolTableRecord
100
AcDbDimStyleTableRecord
  2
1-1
 70
     0
 41
2.0
 42
2.0
 43
2.0
 44
1.0
 73
     0
 74
     0
 77
     1
 78
     9
140
3.5
147
1.0
176
     2
177
     2
178
     3
271
     0
289
     2
340
F
  0
ENDTAB
  0
TABLE
  2
BLOCK_RECORD
  5
1
330
0
100
AcDbSymbolTable
 70
     8
  0
BLOCK_RECORD
  5
2
330
1
100
AcDbSymbolTableRecord
100
AcDbBlockTableRecord
  2
*MODEL_SPACE
340
12B
  0
BLOCK_RECORD
  5
12D
330
1
100
AcDbSymbolTableRecord
100
AcDbBlockTableRecord
  2
*PAPER_SPACE
340
130
  0
BLOCK_RECORD
  5
89
330
1
100
AcDbSymbolTableRecord
100
AcDbBlockTableRecord
  2
571-10
340
0
102
{BLKREFS
331
88
102
}
  0
BLOCK_RECORD
  5
11
330
1
100
AcDbSymbolTableRecord
100
AcDbBlockTableRecord
  2
*D1
340
0
  0
BLOCK_RECORD
  5
22
330
1
100
AcDbSymbolTableRecord
100
AcDbBlockTableRecord
  2
*D2
340
0
  0
BLOCK_RECORD
  5
3E
330
1
100
AcDbSymbolTableRecord
100
AcDbBlockTableRecord
  2
*D3
340
0
  0
BLOCK_RECORD
  5
4C
330
1
100
AcDbSymbolTableRecord
100
AcDbBlockTableRecord
  2
*D4
340
0
  0
BLOCK_RECORD
  5
59
330
1
100
AcDbSymbolTableRecord
100
AcDbBlockTableRecord
  2
*D5
340
0
  0
BLOCK_RECORD
  5
66
330
1
100
AcDbSymbolTableRecord
100
AcDbBlockTableRecord
  2
*D6
340
0
  0
BLOCK_RECORD
  5
73
330
1
100
AcDbSymbolTableRecord
100
AcDbBlockTableRecord
  2
*D7
340
0
  0
ENDTAB
  0
ENDSEC
  0
SECTION
  2
BLOCKS
  0
BLOCK
  5
3
330
2
100
AcDbEntity
  8
0
100
AcDbBlockBegin
  2
*MODEL_SPACE
 70
     0
 10
0.0
 20
0.0
 30
0.0
  3
*MODEL_SPACE
  1

  0
ENDBLK
  5
12A
330
2
100
AcDbEntity
  8
0
100
AcDbBlockEnd
  0
BLOCK
  5
12E
330
12D
100
AcDbEntity
 67
     1
  8
0
100
AcDbBlockBegin
  2
*PAPER_SPACE
 70
     0
 10
0.0
 20
0.0
 30
0.0
  3
*PAPER_SPACE
  1

  0
ENDBLK
  5
12F
330
12D
100
AcDbEntity
 67
     1
  8
0
100
AcDbBlockEnd
  0
BLOCK
  5
8A
330
89
100
AcDbEntity
  8
0
100
AcDbBlockBegin
  2
571-10
 70
     0
 10
0.0
 20
0.0
 30
0.0
  3
571-10
  1

  0
LINE
  5
8B
330
89
100
AcDbEntity
  8
-NORMTEIL
100
AcDbLine
 10
4.907477288111749
 20
7.0
 30
0.0
 11
7.361215932167624
 21
7.0
 31
0.0
  0
LWPOLYLINE
  5
8C
330
89
100
AcDbEntity
  8
-NORMTEIL
100
AcDbPolyline
 90
        6
 70
     1
 43
0.0
 10
9.814954576223499
 20
6.599999999999909
 42
0.1630165465947134
 10
4.907477288111749
 20
6.599999999999909
 42
0.0815082732973533
 10
-4.907477288111749
 20
6.599999999999909
 42
0.1630165465947091
 10
-9.814954576223726
 20
6.599999999999909
 10
-9.814954576223726
 20
0.0
 10
9.814954576223499
 20
0.0
  0
LINE
  5
8D
330
89
100
AcDbEntity
  8
-NORMTEIL
  6
VERDECKT_SEHR_FEIN
100
AcDbLine
 10
-4.999999999999772
 20
-19.99999999999977
 30
0.0
 11
-4.999999999999772
 21
0.0
 31
0.0
  0
LINE
  5
8F
330
89
100
AcDbEntity
  8
-NORMTEIL
  6
VERDECKT_SEHR_FEIN
100
AcDbLine
 10
4.999999999999772
 20
-19.99999999999977
 30
0.0
 11
4.999999999999772
 21
0.0
 31
0.0
  0
LINE
  5
90
330
89
100
AcDbEntity
  8
-NORMTEIL
  6
VERDECKT_SEHR_FEIN
100
AcDbLine
 10
4.165951178799787
 20
-35.9145995615545
 30
0.0
 11
3.124940822316148
 21
-36.67093785763132
 31
0.0
  0
LINE
  5
91
330
89
100
AcDbEntity
  8
-NORMTEIL
  6
VERDECKT_SEHR_FEIN
100
AcDbLine
 10
3.87401323925178
 20
-22.3777846810815
 30
0.0
 11
4.808013250458088
 21
-23.66332541022393
 31
0.0
  0
LINE
  5
92
330
89
100
AcDbEntity
  8
-NORMTEIL
  6
VERDECKT_SEHR_FEIN
100
AcDbLine
 10
4.808013250458088
 20
-23.66332541022393
 30
0.0
 11
3.767002893977178
 21
-24.41966370630371
 31
0.0
  0
LINE
  5
93
330
89
100
AcDbEntity
  8
-NORMTEIL
  6
VERDECKT_SEHR_FEIN
100
AcDbLine
 10
3.767002893977178
 20
-24.41966370630371
 30
0.0
 11
3.659992548700984
 21
-26.46154273152593
 31
0.0
  0
LINE
  5
94
330
89
100
AcDbEntity
  8
-NORMTEIL
  6
VERDECKT_SEHR_FEIN
100
AcDbLine
 10
3.659992548699619
 20
-26.46154273152593
 30
0.0
 11
4.593992559904336
 21
-27.74708346066836
 31
0.0
  0
LINE
  5
95
330
89
100
AcDbEntity
  8
-NORMTEIL
  6
VERDECKT_SEHR_FEIN
100
AcDbLine
 10
3.3389615128699
 20
-32.58717980718961
 30
0.0
 11
3.231951167593706
 21
-34.62905883241183
 31
0.0
  0
LINE
  5
96
330
89
100
AcDbEntity
  8
-NORMTEIL
  6
VERDECKT_SEHR_FEIN
100
AcDbLine
 10
3.231951167593706
 20
-34.62905883241183
 30
0.0
 11
4.165951178799787
 21
-35.9145995615545
 31
0.0
  0
LINE
  5
97
330
89
100
AcDbEntity
  8
-NORMTEIL
  6
VERDECKT_SEHR_FEIN
100
AcDbLine
 10
3.445971858145867
 20
-30.5453007819674
 30
0.0
 11
4.379971869352175
 21
-31.83084151111007
 31
0.0
  0
LINE
  5
98
330
89
100
AcDbEntity
  8
-NORMTEIL
  6
VERDECKT_SEHR_FEIN
100
AcDbLine
 10
4.379971869352175
 20
-31.83084151111007
 30
0.0
 11
3.3389615128699
 21
-32.58717980718961
 31
0.0
  0
LINE
  5
99
330
89
100
AcDbEntity
  8
-NORMTEIL
  6
VERDECKT_SEHR_FEIN
100
AcDbLine
 10
3.552982203423425
 20
-28.50342175674518
 30
0.0
 11
3.445971858145867
 21
-30.5453007819674
 31
0.0
  0
LINE
  5
9A
330
89
100
AcDbEntity
  8
-NORMTEIL
  6
VERDECKT_SEHR_FEIN
100
AcDbLine
 10
4.593992559904336
 20
-27.74708346066836
 30
0.0
 11
3.552982203423425
 21
-28.50342175674518
 31
0.0
  0
LINE
  5
9B
330
89
100
AcDbEntity
  8
-NORMTEIL
  6
VERDECKT_SEHR_FEIN
100
AcDbLine
 10
4.001370465245145
 20
-19.94766404375627
 30
0.0
 11
3.87401323925178
 21
-22.3777846810815
 31
0.0
  0
LINE
  5
9C
330
89
100
AcDbEntity
  8
-NORMTEIL
  6
VERDECKT_SEHR_FEIN
100
AcDbLine
 10
-3.984365482240491
 20
-20.27213844883795
 30
0.0
 11
-4.944970719041975
 21
-21.05002123180475
 31
0.0
  0
LINE
  5
9D
330
89
100
AcDbEntity
  8
-NORMTEIL
  6
VERDECKT_SEHR_FEIN
100
AcDbLine
 10
-4.001370465245145
 20
-19.94766404375627
 30
0.0
 11
-3.984365482242083
 21
-20.27213844883795
 31
0.0
  0
LINE
  5
9E
330
89
100
AcDbEntity
  8
-NORMTEIL
  6
VERDECKT_SEHR_FEIN
100
AcDbLine
 10
-3.213955548817239
 20
-34.97243569408215
 30
0.0
 11
-3.103896986900053
 21
-37.07247815768915
 31
0.0
  0
LINE
  5
9F
330
89
100
AcDbEntity
  8
-NORMTEIL
  6
VERDECKT_SEHR_FEIN
100
AcDbLine
 10
-3.103896986900053
 20
-37.07247815768915
 30
0.0
 11
-4.064502223700173
 21
-37.85036094065322
 31
0.0
  0
LINE
  5
A0
330
89
100
AcDbEntity
  8
-NORMTEIL
  6
VERDECKT_SEHR_FEIN
100
AcDbLine
 10
-3.764248358406575
 20
-24.47222337605217
 30
0.0
 11
-4.724853595206468
 21
-25.25010615901624
 31
0.0
  0
LINE
  5
A1
330
89
100
AcDbEntity
  8
-NORMTEIL
  6
VERDECKT_SEHR_FEIN
100
AcDbLine
 10
-4.724853595206468
 20
-25.25010615901624
 30
0.0
 11
-3.654189796488026
 21
-26.57226583965644
 31
0.0
  0
LINE
  5
A2
330
89
100
AcDbEntity
  8
-NORMTEIL
  6
VERDECKT_SEHR_FEIN
100
AcDbLine
 10
-3.874306920324897
 20
-22.37218091244518
 30
0.0
 11
-3.764248358406575
 21
-24.47222337605217
 31
0.0
  0
LINE
  5
A3
330
89
100
AcDbEntity
  8
-NORMTEIL
  6
VERDECKT_SEHR_FEIN
100
AcDbLine
 10
-3.324014110735561
 20
-32.87239323047493
 30
0.0
 11
-4.284619347535681
 21
-33.65027601344173
 31
0.0
  0
LINE
  5
A4
330
89
100
AcDbEntity
  8
-NORMTEIL
  6
VERDECKT_SEHR_FEIN
100
AcDbLine
 10
-4.284619347535681
 20
-33.65027601344173
 30
0.0
 11
-3.213955548817239
 21
-34.97243569408215
 31
0.0
  0
LINE
  5
A5
330
89
100
AcDbEntity
  8
-NORMTEIL
  6
VERDECKT_SEHR_FEIN
100
AcDbLine
 10
-3.544131234569704
 20
-28.67230830326366
 30
0.0
 11
-4.504736471369596
 21
-29.45019108622751
 31
0.0
  0
LINE
  5
A6
330
89
100
AcDbEntity
  8
-NORMTEIL
  6
VERDECKT_SEHR_FEIN
100
AcDbLine
 10
-4.504736471369596
 20
-29.45019108622751
 30
0.0
 11
-3.434072672652746
 21
-30.77235076687066
 31
0.0
  0
LINE
  5
A7
330
89
100
AcDbEntity
  8
-NORMTEIL
  6
VERDECKT_SEHR_FEIN
100
AcDbLine
 10
-3.434072672652746
 20
-30.77235076687066
 30
0.0
 11
-3.324014110735561
 21
-32.87239323047493
 31
0.0
  0
LINE
  5
A8
330
89
100
AcDbEntity
  8
-NORMTEIL
  6
VERDECKT_SEHR_FEIN
100
AcDbLine
 10
-3.65418979648939
 20
-26.57226583965644
 30
0.0
 11
-3.544131234571068
 21
-28.67230830326366
 31
0.0
  0
LINE
  5
A9
330
89
100
AcDbEntity
  8
-NORMTEIL
  6
VERDECKT_SEHR_FEIN
100
AcDbLine
 10
-4.944970719041975
 20
-21.05002123180475
 30
0.0
 11
-3.874306920323533
 21
-22.37218091244518
 31
0.0
  0
LINE
  5
AA
330
89
100
AcDbEntity
  8
-NORMTEIL
  6
VERDECKT_SEHR_FEIN
100
AcDbLine
 10
-3.984365482240491
 20
-20.27213844883795
 30
0.0
 11
3.87401323925178
 21
-22.3777846810815
 31
0.0
  0
LINE
  5
AB
330
89
100
AcDbEntity
  8
-NORMTEIL
  6
VERDECKT_SEHR_FEIN
100
AcDbLine
 10
-4.999999999999772
 20
-19.99999999999977
 30
0.0
 11
4.999999999998181
 21
-19.99999999999977
 31
0.0
  0
LINE
  5
AC
330
89
100
AcDbEntity
  8
-NORMTEIL
  6
VERDECKT_SEHR_FEIN
100
AcDbLine
 10
-3.874306920323533
 20
-22.37218091244518
 30
0.0
 11
3.767002893977178
 21
-24.41966370630371
 31
0.0
  0
LINE
  5
AD
330
89
100
AcDbEntity
  8
-NORMTEIL
  6
VERDECKT_SEHR_FEIN
100
AcDbLine
 10
-3.764248358406575
 20
-24.47222337605217
 30
0.0
 11
3.659992548699619
 21
-26.46154273152593
 31
0.0
  0
LINE
  5
AE
330
89
100
AcDbEntity
  8
-NORMTEIL
  6
VERDECKT_SEHR_FEIN
100
AcDbLine
 10
-3.874306920323533
 20
-22.37218091244518
 30
0.0
 11
3.87401323925178
 21
-22.3777846810815
 31
0.0
  0
LINE
  5
AF
330
89
100
AcDbEntity
  8
-NORMTEIL
  6
VERDECKT_SEHR_FEIN
100
AcDbLine
 10
-3.65418979648939
 20
-26.57226583965644
 30
0.0
 11
3.659992548699619
 21
-26.46154273152593
 31
0.0
  0
LINE
  5
B0
330
89
100
AcDbEntity
  8
-NORMTEIL
  6
VERDECKT_SEHR_FEIN
100
AcDbLine
 10
-3.544131234569704
 20
-28.67230830326366
 30
0.0
 11
3.445971858145867
 21
-30.5453007819674
 31
0.0
  0
LINE
  5
B1
330
89
100
AcDbEntity
  8
-NORMTEIL
  6
VERDECKT_SEHR_FEIN
100
AcDbLine
 10
-3.434072672652746
 20
-30.77235076687066
 30
0.0
 11
3.3389615128699
 21
-32.58717980718961
 31
0.0
  0
LINE
  5
B2
330
89
100
AcDbEntity
  8
-NORMTEIL
  6
VERDECKT_SEHR_FEIN
100
AcDbLine
 10
-3.324014110734196
 20
-32.87239323047493
 30
0.0
 11
3.231951167593706
 21
-34.62905883241183
 31
0.0
  0
LINE
  5
B3
330
89
100
AcDbEntity
  8
-NORMTEIL
  6
VERDECKT_SEHR_FEIN
100
AcDbLine
 10
-3.213955548817239
 20
-34.97243569408215
 30
0.0
 11
3.124940822316148
 21
-36.67093785763132
 31
0.0
  0
LINE
  5
B4
330
89
100
AcDbEntity
  8
-NORMTEIL
  6
VERDECKT_SEHR_FEIN
100
AcDbLine
 10
-3.434072672652746
 20
-30.77235076687066
 30
0.0
 11
3.445971858145867
 21
-30.5453007819674
 31
0.0
  0
LINE
  5
B5
330
89
100
AcDbEntity
  8
-NORMTEIL
  6
VERDECKT_SEHR_FEIN
100
AcDbLine
 10
-3.213955548817239
 20
-34.97243569408215
 30
0.0
 11
3.231951167593706
 21
-34.62905883241183
 31
0.0
  0
LINE
  5
B6
330
89
100
AcDbEntity
  8
-NORMTEIL
  6
VERDECKT_SEHR_FEIN
100
AcDbLine
 10
-3.654189796488026
 20
-26.57226583965644
 30
0.0
 11
3.552982203423425
 21
-28.50342175674518
 31
0.0
  0
ARC
  5
B7
330
89
100
AcDbEntity
  8
-NORMTEIL
  6
VERDECKT_SEHR_FEIN
100
AcDbCircle
 10
-16.54548101745104
 20
-37.68062961210421
 30
0.0
 40
19.62813197681735
100
AcDbArc
 50
345.1937303175753
 51
351.0430563451842
  0
LINE
  5
B8
330
89
100
AcDbEntity
  8
-NORMTEIL
  6
VERDECKT_SEHR_FEIN
100
AcDbLine
 10
3.017930477041318
 20
-38.71281688285353
 30
0.0
 11
3.951844414335482
 21
-40.00000000003843
 31
0.0
  0
LINE
  5
B9
330
89
100
AcDbEntity
  8
-NORMTEIL
  6
VERDECKT_SEHR_FEIN
100
AcDbLine
 10
3.951844414335482
 20
-40.00000000003843
 30
0.0
 11
2.843298025800322
 21
-40.73657661939296
 31
0.0
  0
LINE
  5
BA
330
89
100
AcDbEntity
  8
-NORMTEIL
  6
VERDECKT_SEHR_FEIN
100
AcDbLine
 10
2.430907282176576
 20
-42.696629213493
 30
0.0
 11
3.117703711890953
 21
-43.91593194260781
 31
0.0
  0
LINE
  5
BB
330
89
100
AcDbEntity
  8
-NORMTEIL
  6
VERDECKT_SEHR_FEIN
100
AcDbLine
 10
3.117703711890953
 20
-43.91593194260781
 30
0.0
 11
1.821154325513361
 21
-44.60379876199271
 31
0.0
  0
LINE
  5
BC
330
89
100
AcDbEntity
  8
-NORMTEIL
  6
VERDECKT_SEHR_FEIN
100
AcDbLine
 10
1.011103134190761
 20
-46.45729856027105
 30
0.0
 11
1.524569384187543
 21
-47.63015760770577
 31
0.0
  0
ARC
  5
BD
330
89
100
AcDbEntity
  8
-NORMTEIL
  6
VERDECKT_SEHR_FEIN
100
AcDbCircle
 10
-16.54548101745104
 20
-37.68062961210421
 30
0.0
 40
20.62813197681735
100
AcDbArc
 50
323.3295098482051
 51
331.1624344669203
  0
ARC
  5
BE
330
89
100
AcDbEntity
  8
-NORMTEIL
  6
VERDECKT_SEHR_FEIN
100
AcDbCircle
 10
-16.54548101745104
 20
-37.68062961210421
 30
0.0
 40
19.62813197681735
100
AcDbArc
 50
333.439186631502
 51
339.3464315262252
  0
LINE
  5
BF
330
89
100
AcDbEntity
  8
-NORMTEIL
  6
VERDECKT_SEHR_FEIN
100
AcDbLine
 10
-2.744192013676638
 20
-41.30996553641739
 30
0.0
 11
-3.600199022549986
 21
-42.115875330084
 31
0.0
  0
LINE
  5
C0
330
89
100
AcDbEntity
  8
-NORMTEIL
  6
VERDECKT_SEHR_FEIN
100
AcDbLine
 10
-3.600199022549986
 20
-42.115875330084
 30
0.0
 11
-2.19121513203504
 21
-43.52868760610522
 31
0.0
  0
ARC
  5
C1
330
89
100
AcDbEntity
  8
-NORMTEIL
  6
VERDECKT_SEHR_FEIN
100
AcDbCircle
 10
16.54548101745104
 20
-37.68062961210421
 30
0.0
 40
19.62813197681735
100
AcDbArc
 50
186.4558313866915
 51
190.6555823996889
  0
LINE
  5
C2
330
89
100
AcDbEntity
  8
-NORMTEIL
  6
VERDECKT_SEHR_FEIN
100
AcDbLine
 10
-2.993838424981731
 20
-39.17252062129342
 30
0.0
 11
-2.953214879583811
 21
-39.94766404376651
 31
0.0
  0
LINE
  5
C3
330
89
100
AcDbEntity
  8
-NORMTEIL
  6
VERDECKT_SEHR_FEIN
100
AcDbLine
 10
-1.308268003801003
 20
-45.83582493689664
 30
0.0
 11
-2.015263603772154
 21
-46.68166221724255
 31
0.0
  0
ARC
  5
C4
330
89
100
AcDbEntity
  8
-NORMTEIL
  6
VERDECKT_SEHR_FEIN
100
AcDbCircle
 10
16.54548101745104
 20
-37.68062961210421
 30
0.0
 40
19.62813197681735
100
AcDbArc
 50
197.3340767728676
 51
204.5498658763077
  0
LINE
  5
C5
330
89
100
AcDbEntity
  8
-NORMTEIL
  6
VERDECKT_SEHR_FEIN
100
AcDbLine
 10
-2.744192013676638
 20
-41.30996553641739
 30
0.0
 11
2.430907282176576
 21
-42.696629213493
 31
0.0
  0
LINE
  5
C6
330
89
100
AcDbEntity
  8
-NORMTEIL
  6
VERDECKT_SEHR_FEIN
100
AcDbLine
 10
-2.19121513203504
 20
-43.52868760610522
 30
0.0
 11
1.821154325513361
 21
-44.60379876199271
 31
0.0
  0
LINE
  5
C7
330
89
100
AcDbEntity
  8
-NORMTEIL
  6
VERDECKT_SEHR_FEIN
100
AcDbLine
 10
-2.993838424981731
 20
-39.17252062129342
 30
0.0
 11
2.843298025726426
 21
-40.73657661937295
 31
0.0
  0
LINE
  5
C8
330
89
100
AcDbEntity
  8
-NORMTEIL
  6
VERDECKT_SEHR_FEIN
100
AcDbLine
 10
-2.993838424981731
 20
-39.17252062129342
 30
0.0
 11
3.017930477041318
 21
-38.71281688285353
 31
0.0
  0
LINE
  5
C9
330
89
100
AcDbEntity
  8
-NORMTEIL
  6
VERDECKT_SEHR_FEIN
100
AcDbLine
 10
-2.19121513203504
 20
-43.52868760610522
 30
0.0
 11
2.430907282176576
 21
-42.696629213493
 31
0.0
  0
LINE
  5
CA
330
89
100
AcDbEntity
  8
-NORMTEIL
  6
VERDECKT_SEHR_FEIN
100
AcDbLine
 10
-1.308268003801003
 20
-45.83582493689664
 30
0.0
 11
1.011103134190761
 21
-46.45729856027105
 31
0.0
  0
LINE
  5
CB
330
89
100
AcDbEntity
  8
-NORMTEIL
  6
VERDECKT_SEHR_FEIN
100
AcDbLine
 10
-2.015263603772154
 20
-46.68166221724255
 30
0.0
 11
1.524569384187543
 21
-47.63015760770577
 31
0.0
  0
LINE
  5
CC
330
89
100
AcDbEntity
  8
-NORMTEIL
  6
VERDECKT_SEHR_FEIN
100
AcDbLine
 10
-2.015263603772154
 20
-46.68166221724255
 30
0.0
 11
1.524569384187543
 21
-47.63015760770577
 31
0.0
  0
LINE
  5
CD
330
89
100
AcDbEntity
  8
-NORMTEIL
  6
VERDECKT_SEHR_FEIN
100
AcDbLine
 10
-1.29995807291425
 20
-46.87332775657568
 30
0.0
 11
1.011103134190761
 21
-46.45729856027105
 31
0.0
  0
ARC
  5
CE
330
89
100
AcDbEntity
  8
-NORMTEIL
  6
VERDECKT_SEHR_FEIN
100
AcDbCircle
 10
16.54548101745104
 20
-37.68062961210421
 30
0.0
 40
20.62813197681735
100
AcDbArc
 50
205.8710646891886
 51
216.6704901517949
  0
LINE
  5
CF
330
89
100
AcDbEntity
  8
-NORMTEIL
  6
VERDECKT_SEHR_FEIN
100
AcDbLine
 10
-3.103896986900053
 20
-37.07247815768915
 30
0.0
 11
3.017930477039953
 21
-38.71281688285353
 31
0.0
  0
LINE
  5
D0
330
89
100
AcDbEntity
  8
-NORMTEIL
  6
VERDECKT_SEHR_FEIN
100
AcDbLine
 10
-4.064502223700173
 20
-37.85036094065322
 30
0.0
 11
-2.993838424981731
 21
-39.17252062129342
 31
0.0
  0
LINE
  5
D1
330
89
100
AcDbEntity
  8
-NORMTEIL
  6
VERDECKT_SEHR_FEIN
100
AcDbLine
 10
3.124940822316148
 20
-36.67093785763132
 30
0.0
 11
3.017930477039953
 21
-38.71281688285353
 31
0.0
  0
LINE
  5
D2
330
89
100
AcDbEntity
  8
-NORMTEIL
100
AcDbLine
 10
4.907477288111749
 20
6.599999999999909
 30
0.0
 11
4.907477288111749
 21
0.0
 31
0.0
  0
LINE
  5
D3
330
89
100
AcDbEntity
  8
-NORMTEIL
100
AcDbLine
 10
-4.907477288111749
 20
6.599999999999909
 30
0.0
 11
-4.907477288111749
 21
0.0
 31
0.0
  0
LINE
  5
D4
330
89
100
AcDbEntity
  8
-NORMTEIL
100
AcDbLine
 10
-7.361215932167851
 20
7.0
 30
0.0
 11
-4.907477288111749
 21
7.0
 31
0.0
  0
LINE
  5
D5
330
89
100
AcDbEntity
  8
-NORMTEIL
100
AcDbLine
 10
-4.907477288111749
 20
7.0
 30
0.0
 11
4.907477288111749
 21
7.0
 31
0.0
  0
ENDBLK
  5
D6
330
89
100
AcDbEntity
  8
0
100
AcDbBlockEnd
  0
BLOCK
  5
12
330
11
100
AcDbEntity
  8
0
100
AcDbBlockBegin
  2
*D1
 70
     1
 10
0.0
 20
0.0
 30
0.0
  3
*D1
  1

  0
LINE
  5
13
330
11
100
AcDbEntity
  8
-TEXT3
370
    -2
100
AcDbLine
 10
-8.318698905824277
 20
125.9932360808559
 30
0.0
 11
-8.318698905824275
 21
143.8605246780595
 31
0.0
  0
LINE
  5
14
330
11
100
AcDbEntity
  8
-TEXT3
370
    -2
100
AcDbLine
 10
8.181301094175722
 20
125.9932360808559
 30
0.0
 11
8.181301094175724
 21
143.8605246780595
 31
0.0
  0
LINE
  5
15
330
11
100
AcDbEntity
  8
-TEXT3
370
    -2
100
AcDbLine
 10
-4.818698905824275
 20
142.3605246780595
 30
0.0
 11
4.681301094175724
 21
142.3605246780595
 31
0.0
  0
SOLID
  5
16
330
11
100
AcDbEntity
  8
-TEXT3
100
AcDbTrace
 10
-4.818698905824275
 20
142.9438580113928
 30
0.0
 11
-4.818698905824275
 21
141.7771913447261
 31
0.0
 12
-8.318698905824275
 22
142.3605246780595
 32
0.0
 13
-8.318698905824275
 23
142.3605246780595
 33
0.0
  0
SOLID
  5
17
330
11
100
AcDbEntity
  8
-TEXT3
100
AcDbTrace
 10
4.681301094175724
 20
142.9438580113928
 30
0.0
 11
4.681301094175724
 21
141.7771913447261
 31
0.0
 12
8.181301094175724
 22
142.3605246780595
 32
0.0
 13
8.181301094175724
 23
142.3605246780595
 33
0.0
  0
MTEXT
  5
18
330
11
100
AcDbEntity
  8
-TEXT3
100
AcDbMText
 10
-0.0686989058242771
 20
145.4611365067474
 30
0.0
 40
4.0
 41
0.0
 71
     5
 72
     1
  1
\A1;16.5
 73
     1
 44
1.0
  0
POINT
  5
19
330
11
100
AcDbEntity
  8
DEFPOINTS
 62
     0
100
AcDbPoint
 10
-8.318698905824277
 20
123.9932360808559
 30
0.0
  0
POINT
  5
1B
330
11
100
AcDbEntity
  8
DEFPOINTS
 62
     0
100
AcDbPoint
 10
8.181301094175722
 20
123.9932360808559
 30
0.0
  0
POINT
  5
1C
330
11
100
AcDbEntity
  8
DEFPOINTS
 62
     0
100
AcDbPoint
 10
8.181301094175724
 20
142.3605246780595
 30
0.0
  0
ENDBLK
  5
1D
330
11
100
AcDbEntity
  8
0
100
AcDbBlockEnd
  0
BLOCK
  5
23
330
22
100
AcDbEntity
  8
0
100
AcDbBlockBegin
  2
*D2
 70
     1
 10
0.0
 20
0.0
 30
0.0
  3
*D2
  1

  0
LINE
  5
24
330
22
100
AcDbEntity
  8
-TEXT3
370
    -2
100
AcDbLine
 10
-4.818698905824277
 20
129.4932360808559
 30
0.0
 11
-21.00618804183012
 21
129.4932360808559
 31
0.0
  0
LINE
  5
25
330
22
100
AcDbEntity
  8
-TEXT3
370
    -2
100
AcDbLine
 10
-4.818698905824277
 20
118.4932360808559
 30
0.0
 11
-21.00618804183012
 21
118.4932360808559
 31
0.0
  0
LINE
  5
26
330
22
100
AcDbEntity
  8
-TEXT3
370
    -2
100
AcDbLine
 10
-20.00618804183012
 20
127.4932360808559
 30
0.0
 11
-20.00618804183012
 21
120.4932360808559
 31
0.0
  0
SOLID
  5
27
330
22
100
AcDbEntity
  8
-TEXT3
100
AcDbTrace
 10
-20.33952137516346
 20
127.4932360808559
 30
0.0
 11
-19.67285470849679
 21
127.4932360808559
 31
0.0
 12
-20.00618804183012
 22
129.4932360808559
 32
0.0
 13
-20.00618804183012
 23
129.4932360808559
 33
0.0
  0
SOLID
  5
28
330
22
100
AcDbEntity
  8
-TEXT3
100
AcDbTrace
 10
-20.33952137516346
 20
120.4932360808559
 30
0.0
 11
-19.67285470849679
 21
120.4932360808559
 31
0.0
 12
-20.00618804183012
 22
118.4932360808559
 32
0.0
 13
-20.00618804183012
 23
118.4932360808559
 33
0.0
  0
MTEXT
  5
29
330
22
100
AcDbEntity
  8
-TEXT3
100
AcDbMText
 10
-22.75618804183014
 20
123.9932360808559
 30
0.0
 40
3.5
 41
0.0
 71
     5
 72
     1
  1
\A1;11
 11
0.0000000000000001
 21
1.0
 31
0.0
 73
     1
 44
1.0
  0
POINT
  5
2A
330
22
100
AcDbEntity
  8
DEFPOINTS
 62
     0
100
AcDbPoint
 10
-2.818698905824277
 20
129.4932360808559
 30
0.0
  0
POINT
  5
2B
330
22
100
AcDbEntity
  8
DEFPOINTS
 62
     0
100
AcDbPoint
 10
-2.818698905824277
 20
118.4932360808559
 30
0.0
  0
POINT
  5
2C
330
22
100
AcDbEntity
  8
DEFPOINTS
 62
     0
100
AcDbPoint
 10
-20.00618804183012
 20
118.4932360808559
 30
0.0
  0
ENDBLK
  5
2D
330
22
100
AcDbEntity
  8
0
100
AcDbBlockEnd
  0
BLOCK
  5
3F
330
3E
100
AcDbEntity
  8
0
100
AcDbBlockBegin
  2
*D3
 70
     1
 10
0.0
 20
0.0
 30
0.0
  3
*D3
  1

  0
LINE
  5
40
330
3E
100
AcDbEntity
  8
-TEXT3
370
    -2
100
AcDbLine
 10
-25.99999999997556
 20
231.9776798447458
 30
0.0
 11
-25.99999999997556
 21
253.9401662019752
 31
0.0
  0
LINE
  5
41
330
3E
100
AcDbEntity
  8
-TEXT3
370
    -2
100
AcDbLine
 10
26.00000000002703
 20
231.9776798447455
 30
0.0
 11
26.00000000002703
 21
253.9401662019752
 31
0.0
  0
LINE
  5
42
330
3E
100
AcDbEntity
  8
-TEXT3
370
    -2
100
AcDbLine
 10
-22.49999999997556
 20
252.4401662019752
 30
0.0
 11
22.50000000002703
 21
252.4401662019752
 31
0.0
  0
SOLID
  5
43
330
3E
100
AcDbEntity
  8
-TEXT3
100
AcDbTrace
 10
-22.49999999997556
 20
253.0234995353085
 30
0.0
 11
-22.49999999997556
 21
251.8568328686419
 31
0.0
 12
-25.99999999997556
 22
252.4401662019752
 32
0.0
 13
-25.99999999997556
 23
252.4401662019752
 33
0.0
  0
SOLID
  5
44
330
3E
100
AcDbEntity
  8
-TEXT3
100
AcDbTrace
 10
22.50000000002703
 20
253.0234995353085
 30
0.0
 11
22.50000000002703
 21
251.8568328686419
 31
0.0
 12
26.00000000002703
 22
252.4401662019752
 32
0.0
 13
26.00000000002703
 23
252.4401662019752
 33
0.0
  0
MTEXT
  5
45
330
3E
100
AcDbEntity
  8
-TEXT3
100
AcDbMText
 10
0.0000000000257787
 20
255.6658630068698
 30
0.0
 40
4.0
 41
0.0
 71
     5
 72
     1
  1
\A1;%%c52
 73
     1
 44
1.0
  0
POINT
  5
46
330
3E
100
AcDbEntity
  8
DEFPOINTS
 62
     0
100
AcDbPoint
 10
-25.99999999997556
 20
229.9776798447458
 30
0.0
  0
POINT
  5
47
330
3E
100
AcDbEntity
  8
DEFPOINTS
 62
     0
100
AcDbPoint
 10
26.00000000002703
 20
229.9776798447455
 30
0.0
  0
POINT
  5
48
330
3E
100
AcDbEntity
  8
DEFPOINTS
 62
     0
100
AcDbPoint
 10
26.00000000002703
 20
252.4401662019752
 30
0.0
  0
ENDBLK
  5
49
330
3E
100
AcDbEntity
  8
0
100
AcDbBlockEnd
  0
BLOCK
  5
4D
330
4C
100
AcDbEntity
  8
0
100
AcDbBlockBegin
  2
*D4
 70
     1
 10
0.0
 20
0.0
 30
0.0
  3
*D4
  1

  0
LINE
  5
4E
330
4C
100
AcDbEntity
  8
-TEXT3
370
    -2
100
AcDbLine
 10
-20.99999999997596
 20
231.9776798447458
 30
0.0
 11
-20.99999999997596
 21
240.9413302598019
 31
0.0
  0
LINE
  5
4F
330
4C
100
AcDbEntity
  8
-TEXT3
370
    -2
100
AcDbLine
 10
21.00000000002416
 20
231.9776798447457
 30
0.0
 11
21.00000000002416
 21
240.9413302598019
 31
0.0
  0
LINE
  5
50
330
4C
100
AcDbEntity
  8
-TEXT3
370
    -2
100
AcDbLine
 10
-17.49999999997595
 20
239.4413302598019
 30
0.0
 11
17.50000000002416
 21
239.4413302598019
 31
0.0
  0
SOLID
  5
51
330
4C
100
AcDbEntity
  8
-TEXT3
100
AcDbTrace
 10
-17.49999999997595
 20
240.0246635931353
 30
0.0
 11
-17.49999999997595
 21
238.8579969264686
 31
0.0
 12
-20.99999999997596
 22
239.4413302598019
 32
0.0
 13
-20.99999999997596
 23
239.4413302598019
 33
0.0
  0
SOLID
  5
52
330
4C
100
AcDbEntity
  8
-TEXT3
100
AcDbTrace
 10
17.50000000002416
 20
240.0246635931353
 30
0.0
 11
17.50000000002416
 21
238.8579969264686
 31
0.0
 12
21.00000000002416
 22
239.4413302598019
 32
0.0
 13
21.00000000002416
 23
239.4413302598019
 33
0.0
  0
MTEXT
  5
53
330
4C
100
AcDbEntity
  8
-TEXT3
100
AcDbMText
 10
0.0000000000241018
 20
242.6670270646965
 30
0.0
 40
4.0
 41
0.0
 71
     5
 72
     1
  1
\A1;%%c42
 73
     1
 44
1.0
  0
POINT
  5
54
330
4C
100
AcDbEntity
  8
DEFPOINTS
 62
     0
100
AcDbPoint
 10
-20.99999999997596
 20
229.9776798447458
 30
0.0
  0
POINT
  5
55
330
4C
100
AcDbEntity
  8
DEFPOINTS
 62
     0
100
AcDbPoint
 10
21.00000000002416
 20
229.9776798447457
 30
0.0
  0
POINT
  5
56
330
4C
100
AcDbEntity
  8
DEFPOINTS
 62
     0
100
AcDbPoint
 10
21.00000000002416
 20
239.4413302598019
 30
0.0
  0
ENDBLK
  5
57
330
4C
100
AcDbEntity
  8
0
100
AcDbBlockEnd
  0
BLOCK
  5
5A
330
59
100
AcDbEntity
  8
0
100
AcDbBlockBegin
  2
*D5
 70
     1
 10
0.0
 20
0.0
 30
0.0
  3
*D5
  1

  0
LINE
  5
5B
330
59
100
AcDbEntity
  8
-TEXT3
370
    -2
100
AcDbLine
 10
-51.70433748792246
 20
229.9776798447459
 30
0.0
 11
-56.29566251202803
 21
229.9776798447459
 31
0.0
  0
LINE
  5
5C
330
59
100
AcDbEntity
  8
-TEXT3
370
    -2
100
AcDbLine
 10
-51.70433748792246
 20
217.9776798447452
 30
0.0
 11
-56.29566251202803
 21
217.9776798447452
 31
0.0
  0
LINE
  5
5D
330
59
100
AcDbEntity
  8
-TEXT3
370
    -2
100
AcDbLine
 10
-54.79566251202803
 20
226.4776798447459
 30
0.0
 11
-54.79566251202803
 21
221.4776798447452
 31
0.0
  0
SOLID
  5
5E
330
59
100
AcDbEntity
  8
-TEXT3
100
AcDbTrace
 10
-55.37899584536137
 20
226.4776798447459
 30
0.0
 11
-54.2123291786947
 21
226.4776798447459
 31
0.0
 12
-54.79566251202803
 22
229.9776798447459
 32
0.0
 13
-54.79566251202803
 23
229.9776798447459
 33
0.0
  0
SOLID
  5
5F
330
59
100
AcDbEntity
  8
-TEXT3
100
AcDbTrace
 10
-55.37899584536137
 20
221.4776798447452
 30
0.0
 11
-54.2123291786947
 21
221.4776798447452
 31
0.0
 12
-54.79566251202803
 22
217.9776798447452
 32
0.0
 13
-54.79566251202803
 23
217.9776798447452
 33
0.0
  0
MTEXT
  5
60
330
59
100
AcDbEntity
  8
-TEXT3
100
AcDbMText
 10
-57.89627434071603
 20
223.9776798447456
 30
0.0
 40
4.0
 41
0.0
 71
     5
 72
     1
  1
\A1;G
 11
0.0000000000000001
 21
1.0
 31
0.0
 73
     1
 44
1.0
  0
POINT
  5
61
330
59
100
AcDbEntity
  8
DEFPOINTS
 62
     0
100
AcDbPoint
 10
-49.70433748792245
 20
229.9776798447459
 30
0.0
  0
POINT
  5
62
330
59
100
AcDbEntity
  8
DEFPOINTS
 62
     0
100
AcDbPoint
 10
-49.70433748792245
 20
217.9776798447452
 30
0.0
  0
POINT
  5
63
330
59
100
AcDbEntity
  8
DEFPOINTS
 62
     0
100
AcDbPoint
 10
-54.79566251202803
 20
217.9776798447452
 30
0.0
  0
ENDBLK
  5
64
330
59
100
AcDbEntity
  8
0
100
AcDbBlockEnd
  0
BLOCK
  5
67
330
66
100
AcDbEntity
  8
0
100
AcDbBlockBegin
  2
*D6
 70
     1
 10
0.0
 20
0.0
 30
0.0
  3
*D6
  1

  0
LINE
  5
68
330
66
100
AcDbEntity
  8
-TEXT3
370
    -2
100
AcDbLine
 10
-29.29566251202826
 20
214.9776798447451
 30
0.0
 11
-56.29566251202813
 21
214.9776798447451
 31
0.0
  0
LINE
  5
69
330
66
100
AcDbEntity
  8
-TEXT3
370
    -2
100
AcDbLine
 10
-27.99999999997584
 20
189.977679844745
 30
0.0
 11
-56.29566251202814
 21
189.977679844745
 31
0.0
  0
LINE
  5
6A
330
66
100
AcDbEntity
  8
-TEXT3
370
    -2
100
AcDbLine
 10
-54.79566251202814
 20
211.4776798447451
 30
0.0
 11
-54.79566251202815
 21
193.477679844745
 31
0.0
  0
SOLID
  5
6B
330
66
100
AcDbEntity
  8
-TEXT3
100
AcDbTrace
 10
-55.37899584536147
 20
211.4776798447451
 30
0.0
 11
-54.2123291786948
 21
211.4776798447451
 31
0.0
 12
-54.79566251202814
 22
214.9776798447451
 32
0.0
 13
-54.79566251202814
 23
214.9776798447451
 33
0.0
  0
SOLID
  5
6C
330
66
100
AcDbEntity
  8
-TEXT3
100
AcDbTrace
 10
-55.37899584536148
 20
193.477679844745
 30
0.0
 11
-54.21232917869481
 21
193.477679844745
 31
0.0
 12
-54.79566251202815
 22
189.977679844745
 32
0.0
 13
-54.79566251202815
 23
189.977679844745
 33
0.0
  0
MTEXT
  5
6D
330
66
100
AcDbEntity
  8
-TEXT3
100
AcDbMText
 10
-57.89627434071614
 20
202.477679844745
 30
0.0
 40
4.0
 41
0.0
 71
     5
 72
     1
  1
\A1;25
 11
0.0000000000000001
 21
1.0
 31
0.0
 73
     1
 44
1.0
  0
POINT
  5
6E
330
66
100
AcDbEntity
  8
DEFPOINTS
 62
     0
100
AcDbPoint
 10
-27.29566251202826
 20
214.9776798447451
 30
0.0
  0
POINT
  5
6F
330
66
100
AcDbEntity
  8
DEFPOINTS
 62
     0
100
AcDbPoint
 10
-25.99999999997584
 20
189.977679844745
 30
0.0
  0
POINT
  5
70
330
66
100
AcDbEntity
  8
DEFPOINTS
 62
     0
100
AcDbPoint
 10
-54.79566251202815
 20
189.977679844745
 30
0.0
  0
ENDBLK
  5
71
330
66
100
AcDbEntity
  8
0
100
AcDbBlockEnd
  0
BLOCK
  5
74
330
73
100
AcDbEntity
  8
0
100
AcDbBlockBegin
  2
*D7
 70
     1
 10
0.0
 20
0.0
 30
0.0
  3
*D7
  1

  0
LINE
  5
75
330
73
100
AcDbEntity
  8
-TEXT3
370
    -2
100
AcDbLine
 10
-51.70433748792246
 20
217.9776798447452
 30
0.0
 11
-56.29566251202799
 21
217.9776798447452
 31
0.0
  0
LINE
  5
76
330
73
100
AcDbEntity
  8
-TEXT3
370
    -2
100
AcDbLine
 10
-27.99999999997548
 20
214.9776798447451
 30
0.0
 11
-56.29566251202799
 21
214.9776798447451
 31
0.0
  0
LINE
  5
77
330
73
100
AcDbEntity
  8
-TEXT3
370
    -2
100
AcDbLine
 10
-54.795662512028
 20
221.4776798447452
 30
0.0
 11
-54.795662512028
 21
224.9776798447452
 31
0.0
  0
LINE
  5
78
330
73
100
AcDbEntity
  8
-TEXT3
370
    -2
100
AcDbLine
 10
-54.795662512028
 20
211.4776798447451
 30
0.0
 11
-54.795662512028
 21
207.9776798447451
 31
0.0
  0
SOLID
  5
79
330
73
100
AcDbEntity
  8
-TEXT3
100
AcDbTrace
 10
-55.37899584536133
 20
221.4776798447452
 30
0.0
 11
-54.21232917869466
 21
221.4776798447452
 31
0.0
 12
-54.795662512028
 22
217.9776798447452
 32
0.0
 13
-54.795662512028
 23
217.9776798447452
 33
0.0
  0
SOLID
  5
7A
330
73
100
AcDbEntity
  8
-TEXT3
100
AcDbTrace
 10
-55.37899584536133
 20
211.4776798447451
 30
0.0
 11
-54.21232917869466
 21
211.4776798447451
 31
0.0
 12
-54.795662512028
 22
214.9776798447451
 32
0.0
 13
-54.795662512028
 23
214.9776798447451
 33
0.0
  0
MTEXT
  5
7B
330
73
100
AcDbEntity
  8
-TEXT3
100
AcDbMText
 10
-57.896274340716
 20
216.4776798447451
 30
0.0
 40
4.0
 41
0.0
 71
     5
 72
     1
  1
\A1;3
 11
0.0000000000000001
 21
1.0
 31
0.0
 73
     1
 44
1.0
  0
POINT
  5
7C
330
73
100
AcDbEntity
  8
DEFPOINTS
 62
     0
100
AcDbPoint
 10
-49.70433748792245
 20
217.9776798447452
 30
0.0
  0
POINT
  5
7D
330
73
100
AcDbEntity
  8
DEFPOINTS
 62
     0
100
AcDbPoint
 10
-25.99999999997547
 20
214.9776798447451
 30
0.0
  0
POINT
  5
7E
330
73
100
AcDbEntity
  8
DEFPOINTS
 62
     0
100
AcDbPoint
 10
-54.795662512028
 20
214.9776798447451
 30
0.0
  0
ENDBLK
  5
7F
330
73
100
AcDbEntity
  8
0
100
AcDbBlockEnd
  0
ENDSEC
  0
SECTION
  2
ENTITIES
  0
LINE
  5
9
330
2
100
AcDbEntity
  8
-NORMTEIL_VERDECKT
100
AcDbLine
 10
-13.92956831035755
 20
224.977679844745
 30
0.0
 11
13.92956831040581
 21
224.977679844745
 31
0.0
  0
DIMENSION
  5
C
330
2
100
AcDbEntity
  8
-TEXT3
100
AcDbDimension
  2
*D1
 10
8.181301094175724
 20
142.3605246780595
 30
0.0
 11
-0.0686989058242773
 21
142.3605246780595
 31
0.0
 70
   128
 71
     5
 42
16.5
  3
1-1PRO
100
AcDbAlignedDimension
 13
-8.318698905824277
 23
123.9932360808559
 33
0.0
 14
8.181301094175722
 24
123.9932360808559
 34
0.0
100
AcDbRotatedDimension
  0
CIRCLE
  5
1E
330
2
100
AcDbEntity
  8
-PROFILAUSSENKANTET
100
AcDbCircle
 10
-0.0686989058242205
 20
123.9932360808559
 30
0.0
 40
14.0
  0
DIMENSION
  5
20
330
2
100
AcDbEntity
  8
-TEXT3
100
AcDbDimension
  2
*D2
 10
-20.00618804183012
 20
118.4932360808559
 30
0.0
 11
-20.00618804183014
 21
123.9932360808559
 31
0.0
 70
   128
 71
     5
 42
11.0
  3
1-1
100
AcDbAlignedDimension
 13
-2.818698905824277
 23
129.4932360808559
 33
0.0
 14
-2.818698905824277
 24
118.4932360808559
 34
0.0
 50
90.0
100
AcDbRotatedDimension
1001
ACAD
1000
DSTYLE
1002
{
1070
   178
1070
   256
1070
   177
1070
   256
1070
   176
1070
   256
1002
}
  0
HATCH
  5
2E
330
2
100
AcDbEntity
  8
-SCHRAFFUR
100
AcDbHatch
 10
0.0
 20
0.0
 30
0.0
210
0.0
220
0.0
230
1.0
  2
SOLID
 70
     1
 71
     1
 91
        1
 92
        1
 93
        4
 72
     1
 10
-25.49999999997524
 20
214.9776798447451
 11
25.50000000002476
 21
214.977679844745
 72
     1
 10
25.50000000002476
 20
214.977679844745
 11
25.50000000002479
 21
217.977679844745
 72
     1
 10
25.50000000002479
 20
217.977679844745
 11
-25.49999999997524
 21
217.9776798447451
 72
     1
 10
-25.49999999997524
 20
217.9776798447451
 11
-25.49999999997524
 21
214.9776798447451
 97
        1
330
30
 75
     0
 76
     1
 98
        1
 10
-86.30366043333802
 20
88.56684253226829
450
        0
451
        0
460
0.0
461
0.0
452
        0
462
0.0
453
        0
470

  0
LWPOLYLINE
  5
30
102
{ACAD_REACTORS
330
2E
102
}
330
2
100
AcDbEntity
  8
-DICHTUNG
100
AcDbPolyline
 90
        4
 70
     1
 43
0.0
 10
-25.49999999997524
 20
214.9776798447451
 10
25.50000000002476
 20
214.977679844745
 10
25.50000000002479
 20
217.977679844745
 10
-25.49999999997524
 20
217.9776798447451
  0
CIRCLE
  5
32
330
2
100
AcDbEntity
  8
-PROFILAUSSENKANTET
100
AcDbCircle
 10
0.0000000000241585
 20
124.2134971600839
 30
0.0
 40
26.0
  0
LINE
  5
33
330
2
100
AcDbEntity
  8
-NORMTEIL_VERDECKT
100
AcDbLine
 10
-17.99999999997536
 20
217.977679844745
 30
0.0
 11
-12.07999999997517
 21
217.977679844745
 31
0.0
  0
LINE
  5
34
330
2
100
AcDbEntity
  8
-NORMTEIL_VERDECKT
100
AcDbLine
 10
-17.99999999997604
 20
217.9776798447453
 30
0.0
 11
-12.07999999997585
 21
217.9776798447453
 31
0.0
  0
LINE
  5
35
330
2
100
AcDbEntity
  8
-NORMTEIL_VERDECKT
100
AcDbLine
 10
-17.07999999997574
 20
217.9776798447451
 30
0.0
 11
17.08000000002411
 21
217.9776798447451
 31
0.0
  0
MTEXT
  5
36
330
2
100
AcDbEntity
  8
-TEXT2
100
AcDbMText
 10
-66.47314104539137
 20
167.9397350944581
 30
0.0
 40
4.0
 41
56.11394264854585
 71
     1
 72
     5
  1
Schaft mit Langloch um Toleranzen aus- zugleichen
 73
     1
 44
1.0
  0
MTEXT
  5
38
330
2
100
AcDbEntity
  8
-TEXT2
100
AcDbMText
 10
-65.74945069321441
 20
187.5586143760445
 30
0.0
 40
4.0
 41
43.30449999999999
 71
     1
 72
     5
  1
Zylinderk.-Schr.\PDIN6912-M10
 73
     1
 44
1.0
  0
LWPOLYLINE
  5
39
330
2
100
AcDbEntity
  8
-PROFILAUSSENKANTET
100
AcDbPolyline
 90
        4
 70
     0
 43
0.0
 10
-16.94999999997586
 20
214.9776798447451
 10
-25.99999999997584
 20
214.977679844745
 10
-25.99999999997584
 20
189.977679844745
 10
26.00000000002416
 20
189.977679844745
  0
LINE
  5
3A
330
2
100
AcDbEntity
  8
-SYSTEM
100
AcDbLine
 10
34.69658159094635
 20
124.2134971600839
 30
0.0
 11
-34.69658159089792
 21
124.2134971600839
 31
0.0
  0
DIMENSION
  5
3D
330
2
100
AcDbEntity
  8
-TEXT3
100
AcDbDimension
  2
*D3
 10
26.00000000002703
 20
252.4401662019752
 30
0.0
 11
0.0000000000257785
 21
252.4401662019752
 31
0.0
 70
   128
  1
%%c<>
 71
     5
 42
52.00000000000258
  3
1-1PRO
100
AcDbAlignedDimension
 13
-25.99999999997556
 23
229.9776798447458
 33
0.0
 14
26.00000000002703
 24
229.9776798447455
 34
0.0
100
AcDbRotatedDimension
1001
ACAD
1000
DSTYLE
1002
{
1002
}
  0
LWPOLYLINE
  5
4A
330
2
100
AcDbEntity
  8
-NORMTEIL_VERDECKT
100
AcDbPolyline
 90
        4
 70
     0
 43
0.0
 10
-20.99999999997596
 20
229.9776798447458
 10
21.00000000002416
 20
229.9776798447457
 10
17.00000000002404
 20
225.9776798447457
 10
-16.99999999997595
 20
225.9776798447457
  0
DIMENSION
  5
4B
330
2
100
AcDbEntity
  8
-TEXT3
100
AcDbDimension
  2
*D4
 10
21.00000000002416
 20
239.4413302598019
 30
0.0
 11
0.0000000000241018
 21
242.6670270646965
 31
0.0
  1
%%c<>
 71
     5
 42
42.00000000000011
  3
1-1PRO
100
AcDbAlignedDimension
 13
-20.99999999997596
 23
229.9776798447458
 33
0.0
 14
21.00000000002416
 24
229.9776798447457
 34
0.0
100
AcDbRotatedDimension
  0
DIMENSION
  5
58
330
2
100
AcDbEntity
  8
-TEXT3
100
AcDbDimension
  2
*D5
 10
-54.79566251202803
 20
217.9776798447452
 30
0.0
 11
-57.89627434071603
 21
223.9776798447456
 31
0.0
  1
G
 71
     5
 42
12.00000000000068
  3
1-1PRO
100
AcDbAlignedDimension
 13
-49.70433748792245
 23
229.9776798447459
 33
0.0
 14
-49.70433748792245
 24
217.9776798447452
 34
0.0
 50
90.0
100
AcDbRotatedDimension
  0
DIMENSION
  5
65
330
2
100
AcDbEntity
  8
-TEXT3
100
AcDbDimension
  2
*D6
 10
-54.79566251202815
 20
189.977679844745
 30
0.0
 11
-57.89627434071614
 21
202.477679844745
 31
0.0
 71
     5
 42
25.00000000000009
  3
1-1PRO
100
AcDbAlignedDimension
 13
-27.29566251202826
 23
214.9776798447451
 33
0.0
 14
-25.99999999997584
 24
189.977679844745
 34
0.0
 50
90.0
100
AcDbRotatedDimension
  0
DIMENSION
  5
72
330
2
100
AcDbEntity
  8
-TEXT3
100
AcDbDimension
  2
*D7
 10
-54.795662512028
 20
214.9776798447451
 30
0.0
 11
-54.79566251202803
 21
216.4776798447451
 31
0.0
 70
   128
 71
     5
 42
3.000000000000113
  3
1-1PRO
100
AcDbAlignedDimension
 13
-49.70433748792245
 23
217.9776798447452
 33
0.0
 14
-25.99999999997547
 24
214.9776798447451
 34
0.0
 50
90.0
100
AcDbRotatedDimension
  0
LWPOLYLINE
  5
80
330
2
100
AcDbEntity
  8
-NORMTEIL_VERDECKT
100
AcDbPolyline
 90
        7
 70
     0
 43
0.0
 10
-20.9999999999755
 20
229.9776798447453
 10
-23.82842712472172
 20
229.9776798447453
 10
-18.9999999999755
 20
225.1492527199992
 10
-18.9999999999755
 20
223.9776798447453
 10
-16.9999999999755
 20
223.9776798447453
 10
-16.9999999999755
 20
225.9776798447453
 10
-20.9999999999755
 20
229.9776798447453
  0
LINE
  5
81
330
2
100
AcDbEntity
  8
-NORMTEIL_VERDECKT
100
AcDbLine
 10
-13.92956831035755
 20
224.977679844745
 30
0.0
 11
-13.92956831035749
 21
214.977679844745
 31
0.0
  0
LINE
  5
82
330
2
100
AcDbEntity
  8
-SCHRAFFUR
100
AcDbLine
 10
3.926000000024174
 20
169.977679844745
 30
0.0
 11
3.926000000024174
 21
189.9776798447449
 31
0.0
  0
LINE
  5
83
330
2
100
AcDbEntity
  8
-SCHRAFFUR
100
AcDbLine
 10
-3.9259999999758
 20
169.977679844745
 30
0.0
 11
-3.9259999999758
 21
189.9776798447449
 31
0.0
  0
LWPOLYLINE
  5
84
330
2
100
AcDbEntity
  8
-NORMTEIL
100
AcDbPolyline
 90
        6
 70
     0
 43
0.0
 10
-4.999999999975813
 20
189.9776798447449
 10
-4.999999999975813
 20
171.051679844745
 10
-3.9259999999758
 20
169.977679844745
 10
3.926000000024174
 20
169.977679844745
 10
5.000000000024186
 20
171.051679844745
 10
5.000000000024186
 20
189.9776798447449
  0
LINE
  5
86
330
2
100
AcDbEntity
  8
-SYSTEM
100
AcDbLine
 10
0.0000000000240732
 20
234.4779840698962
 30
0.0
 11
0.0000000000242437
 21
166.5071176583816
 31
0.0
  0
MTEXT
  5
87
330
2
100
AcDbEntity
  8
-TEXT2
100
AcDbMText
 10
21.0432479887763
 20
178.6907667283417
 30
0.0
 40
4.0
 41
43.30449999999999
 71
     1
 72
     5
  1
oder\PHolz-Schr.\PDIN571-%%c8
 73
     1
 44
1.0
  0
INSERT
  5
88
330
2
100
AcDbEntity
  8
-PROFILAUSSENKANTET
100
AcDbBlockReference
  2
571-10
 10
64.00901311979925
 20
186.7098321970421
 30
0.0
 41
0.7999999999999972
 42
0.7999999999999972
 43
0.8
  0
LWPOLYLINE
  5
D7
330
2
100
AcDbEntity
  8
-PROFILAUSSENKANTET
100
AcDbPolyline
 90
        4
 70
     1
 43
0.0
 10
2.681301094175722
 20
129.4932360808559
 10
-2.818698905824277
 20
129.4932360808559
 42
1.0
 10
-2.818698905824277
 20
118.4932360808559
 10
2.681301094175722
 20
118.4932360808559
 42
1.0
  0
CIRCLE
  5
D8
330
2
100
AcDbEntity
  8
-PROFILAUSSENKANTET
100
AcDbCircle
 10
-0.0686989058242773
 20
123.9932360808559
 30
0.0
 40
11.188
  0
ARC
  5
D9
330
2
100
AcDbEntity
  8
-SCHRAFFUR
100
AcDbCircle
 10
0.0000000000241585
 20
124.2134971600839
 30
0.0
 40
11.81717906510945
100
AcDbArc
 50
197.0745748496833
 51
110.5409397844105
  0
LINE
  5
DA
330
2
100
AcDbEntity
  8
-SYSTEM
100
AcDbLine
 10
0.0000000000242153
 20
158.910078751006
 30
0.0
 11
0.0000000000242153
 21
89.51691556916179
 31
0.0
  0
LINE
  5
DB
330
2
100
AcDbEntity
  8
-SCHRAFFUR
100
AcDbLine
 10
-4.999999999975813
 20
171.051679844745
 30
0.0
 11
5.000000000024186
 21
171.051679844745
 31
0.0
  0
LWPOLYLINE
  5
DC
330
2
100
AcDbEntity
  8
-NORMTEIL_VERDECKT
100
AcDbPolyline
 90
        5
 70
     0
 43
0.0
 10
5.500000000024385
 20
229.9776798447449
 10
5.500000000024385
 20
226.9776798447448
 10
7.000000000024385
 20
225.9776798447448
 10
8.500000000024385
 20
226.9776798447448
 10
8.500000000024385
 20
229.9776798447449
  0
LWPOLYLINE
  5
DD
330
2
100
AcDbEntity
  8
-NORMTEIL_VERDECKT
100
AcDbPolyline
 90
        5
 70
     0
 43
0.0
 10
-5.271981164003761
 20
229.9776798447453
 10
-5.271981164003761
 20
226.9776798447453
 10
-3.499999999975614
 20
225.9776798447453
 10
-1.771981164003761
 20
226.9776798447453
 10
-1.771981164003761
 20
229.9776798447453
  0
LWPOLYLINE
  5
DE
330
2
100
AcDbEntity
  8
-NORMTEIL_VERDECKT
100
AcDbPolyline
 90
        7
 70
     0
 43
0.0
 10
21.00000000002393
 20
229.9776798447456
 10
23.82842712477014
 20
229.9776798447456
 10
19.00000000002393
 20
225.1492527199995
 10
19.00000000002393
 20
223.9776798447456
 10
17.00000000002393
 20
223.9776798447456
 10
17.00000000002393
 20
225.9776798447456
 10
21.00000000002393
 20
229.9776798447456
  0
LINE
  5
DF
330
2
100
AcDbEntity
  8
-NORMTEIL_VERDECKT
100
AcDbLine
 10
-11.00517906508568
 20
224.1656798447452
 30
0.0
 11
11.00517906513403
 21
224.1656798447452
 31
0.0
  0
LWPOLYLINE
  5
E0
330
2
100
AcDbEntity
  8
-NORMTEIL_VERDECKT
100
AcDbPolyline
 90
        4
 70
     0
 43
0.0
 10
11.00517906513366
 20
224.977679844745
 10
11.00517906513366
 20
194.977679844745
 10
-11.0051790650854
 20
194.977679844745
 10
-11.00517906508574
 20
224.9776798447449
  0
LINE
  5
E1
330
2
100
AcDbEntity
  8
-NORMTEIL_VERDECKT
100
AcDbLine
 10
-11.81717906508552
 20
225.9776798447457
 30
0.0
 11
11.81717906513373
 21
225.9776798447457
 31
0.0
  0
LINE
  5
E2
330
2
100
AcDbEntity
  8
-NORMTEIL_VERDECKT
100
AcDbLine
 10
-11.81717906508547
 20
214.7896798447456
 30
0.0
 11
11.81717906513373
 21
214.7896798447455
 31
0.0
  0
LWPOLYLINE
  5
E3
330
2
100
AcDbEntity
  8
-NORMTEIL_VERDECKT
100
AcDbPolyline
 90
        6
 70
     0
 43
0.0
 10
-11.81717906508552
 20
225.9776798447457
 10
-11.81717906508547
 20
214.7896798447456
 10
-11.00517906508551
 20
213.9776798447456
 10
11.00517906513369
 20
213.9776798447456
 10
11.8171790651337
 20
214.7896798447455
 10
11.8171790651337
 20
225.9776798447456
  0
LINE
  5
E4
330
2
100
AcDbEntity
  8
-NORMTEIL_VERDECKT
100
AcDbLine
 10
-2.309401076734332
 20
196.477679844745
 30
0.0
 11
-2.309401076734332
 21
201.477679844745
 31
0.0
  0
LINE
  5
E5
330
2
100
AcDbEntity
  8
-NORMTEIL_VERDECKT
100
AcDbLine
 10
2.309401076782677
 20
196.477679844745
 30
0.0
 11
2.309401076782677
 21
201.477679844745
 31
0.0
  0
LWPOLYLINE
  5
E6
330
2
100
AcDbEntity
  8
-NORMTEIL_VERDECKT
100
AcDbPolyline
 90
        4
 70
     0
 43
0.0
 10
-4.61880215349285
 20
201.477679844745
 10
-4.61880215349285
 20
196.4776798447449
 10
4.618802153541167
 20
196.477679844745
 10
4.618802153541167
 20
201.477679844745
  0
LWPOLYLINE
  5
E7
330
2
100
AcDbEntity
  8
-NORMTEIL_VERDECKT
100
AcDbPolyline
 90
        6
 70
     1
 43
0.0
 10
-7.999999999975813
 20
194.977679844745
 10
8.000000000024186
 20
194.977679844745
 10
8.000000000024186
 20
200.477679844745
 42
0.4142135623730951
 10
7.000000000024186
 20
201.477679844745
 10
-6.999999999975813
 20
201.477679844745
 42
0.4142135623730951
 10
-7.999999999975813
 20
200.477679844745
  0
LINE
  5
E8
330
2
100
AcDbEntity
  8
-NORMTEIL_VERDECKT
100
AcDbLine
 10
5.000000000024186
 20
192.977679844745
 30
0.0
 11
-4.999999999975813
 21
192.977679844745
 31
0.0
  0
LINE
  5
E9
330
2
100
AcDbEntity
  8
-NORMTEIL_VERDECKT
100
AcDbLine
 10
-8.314286686669618
 20
189.977679844745
 30
0.0
 11
-8.314286686669618
 21
194.977679844745
 31
0.0
  0
LINE
  5
EA
330
2
100
AcDbEntity
  8
-NORMTEIL_VERDECKT
100
AcDbLine
 10
-4.999999999975813
 20
189.9776798447449
 30
0.0
 11
-4.999999999975813
 21
194.977679844745
 31
0.0
  0
LINE
  5
EB
330
2
100
AcDbEntity
  8
-NORMTEIL_VERDECKT
100
AcDbLine
 10
-3.9259999999758
 20
189.9776798447449
 30
0.0
 11
-3.9259999999758
 21
192.977679844745
 31
0.0
  0
LINE
  5
EC
330
2
100
AcDbEntity
  8
-NORMTEIL_VERDECKT
100
AcDbLine
 10
3.926000000024174
 20
189.9776798447449
 30
0.0
 11
3.926000000024174
 21
192.977679844745
 31
0.0
  0
LINE
  5
ED
330
2
100
AcDbEntity
  8
-NORMTEIL_VERDECKT
100
AcDbLine
 10
8.176888875021177
 20
189.977679844745
 30
0.0
 11
8.176888875021177
 21
194.977679844745
 31
0.0
  0
LINE
  5
EE
330
2
100
AcDbEntity
  8
-NORMTEIL_VERDECKT
100
AcDbLine
 10
5.000000000024186
 20
189.9776798447449
 30
0.0
 11
5.000000000024186
 21
194.977679844745
 31
0.0
  0
LINE
  5
EF
330
2
100
AcDbEntity
  8
-NORMTEIL_VERDECKT
100
AcDbLine
 10
-11.81717906508552
 20
214.7896798447456
 30
0.0
 11
-11.81717906508552
 21
211.977679844745
 31
0.0
  0
LINE
  5
F0
330
2
100
AcDbEntity
  8
-NORMTEIL_VERDECKT
100
AcDbLine
 10
-11.81717906508552
 20
211.9776798447452
 30
0.0
 11
-11.00517906508563
 21
206.7739576122984
 31
0.0
  0
LINE
  5
F1
330
2
100
AcDbEntity
  8
-NORMTEIL_VERDECKT
100
AcDbLine
 10
-11.81717906508552
 20
211.9776798447452
 30
0.0
 11
-11.00517906508563
 21
211.9776798447452
 31
0.0
  0
LINE
  5
F2
330
2
100
AcDbEntity
  8
-NORMTEIL_VERDECKT
100
AcDbLine
 10
-11.81717906508558
 20
224.977679844745
 30
0.0
 11
-11.0051790650858
 21
224.1656798447452
 31
0.0
  0
LINE
  5
F3
330
2
100
AcDbEntity
  8
-NORMTEIL_VERDECKT
100
AcDbLine
 10
-11.00517906508568
 20
224.1656798447452
 30
0.0
 11
-11.00517906508574
 21
224.9776798447449
 31
0.0
  0
LINE
  5
F4
330
2
100
AcDbEntity
  8
-NORMTEIL_VERDECKT
100
AcDbLine
 10
-5.271981164003761
 20
226.9776798447453
 30
0.0
 11
-1.771981164003761
 21
226.9776798447453
 31
0.0
  0
LINE
  5
F5
330
2
100
AcDbEntity
  8
-NORMTEIL_VERDECKT
100
AcDbLine
 10
5.500000000024385
 20
226.9776798447448
 30
0.0
 11
8.500000000024385
 21
226.9776798447448
 31
0.0
  0
LWPOLYLINE
  5
F6
330
2
100
AcDbEntity
  8
-PROFILAUSSENKANTET
100
AcDbPolyline
 90
        4
 70
     0
 43
0.0
 10
26.00000000002416
 20
189.977679844745
 10
26.00000000002416
 20
189.977679844745
 10
26.00000000002416
 20
214.977679844745
 10
16.95000000002412
 20
214.977679844745
  0
LINE
  5
F7
330
2
100
AcDbEntity
  8
-NORMTEIL_VERDECKT
100
AcDbLine
 10
23.0000000000243
 20
217.9776798447451
 30
0.0
 11
17.08000000002411
 21
217.9776798447451
 31
0.0
  0
LINE
  5
F8
330
2
100
AcDbEntity
  8
-NORMTEIL_VERDECKT
100
AcDbLine
 10
11.81717906513373
 20
214.7896798447455
 30
0.0
 11
11.81717906513367
 21
211.977679844745
 31
0.0
  0
LINE
  5
F9
330
2
100
AcDbEntity
  8
-NORMTEIL_VERDECKT
100
AcDbLine
 10
11.81717906513367
 20
211.977679844745
 30
0.0
 11
11.00517906513366
 21
206.7739576122982
 31
0.0
  0
LINE
  5
FA
330
2
100
AcDbEntity
  8
-NORMTEIL_VERDECKT
100
AcDbLine
 10
11.00517906513374
 20
211.9776798447452
 30
0.0
 11
11.81717906513364
 21
211.9776798447452
 31
0.0
  0
LINE
  5
FB
330
2
100
AcDbEntity
  8
-NORMTEIL_VERDECKT
100
AcDbLine
 10
18.00000000002487
 20
217.977679844745
 30
0.0
 11
12.08000000002468
 21
217.977679844745
 31
0.0
  0
LINE
  5
FC
330
2
100
AcDbEntity
  8
-NORMTEIL_VERDECKT
100
AcDbLine
 10
18.00000000002419
 20
217.9776798447453
 30
0.0
 11
12.080000000024
 21
217.9776798447453
 31
0.0
  0
LINE
  5
FD
330
2
100
AcDbEntity
  8
-NORMTEIL_VERDECKT
100
AcDbLine
 10
13.92956831040581
 20
224.977679844745
 30
0.0
 11
13.92956831040575
 21
214.977679844745
 31
0.0
  0
LINE
  5
FE
330
2
100
AcDbEntity
  8
-NORMTEIL_VERDECKT
100
AcDbLine
 10
11.81717906513381
 20
224.977679844745
 30
0.0
 11
11.00517906513403
 21
224.1656798447452
 31
0.0
  0
LINE
  5
FF
330
2
100
AcDbEntity
  8
-NORMTEIL_VERDECKT
100
AcDbLine
 10
11.00517906513366
 20
224.977679844745
 30
0.0
 11
11.00517906513366
 21
224.1656798447448
 31
0.0
  0
LINE
  5
100
330
2
100
AcDbEntity
  8
-NORMTEIL_VERDECKT
100
AcDbLine
 10
-10.49999999997524
 20
229.9776798447457
 30
0.0
 11
10.50000000002475
 21
229.9776798447457
 31
0.0
  0
LWPOLYLINE
  5
101
330
2
100
AcDbEntity
  8
-VERGLASUNG
100
AcDbPolyline
 90
        6
 70
     0
 43
0.0
 10
-49.70433748792245
 20
229.977679844746
 10
77.99999999999997
 20
229.9776798447454
 10
79.99999999999997
 20
227.9776798447454
 10
79.99999999999992
 20
219.9776798447448
 10
77.99999999999991
 20
217.9776798447448
 10
-49.70433748792245
 20
217.9776798447452
  0
LINE
  5
103
330
2
100
AcDbEntity
  8
-VERGLASUNG
100
AcDbLine
 10
51.97400131823949
 20
217.9776798447448
 30
0.0
 11
55.86787613786552
 21
221.8715546643707
 31
0.0
  0
LINE
  5
104
330
2
100
AcDbEntity
  8
-VERGLASUNG
100
AcDbLine
 10
48.84900131823949
 20
217.9776798447448
 30
0.0
 11
52.74287613786552
 21
221.8715546643708
 31
0.0
  0
LINE
  5
105
330
2
100
AcDbEntity
  8
-VERGLASUNG
100
AcDbLine
 10
50.41150131823949
 20
217.9776798447448
 30
0.0
 11
54.30537613786552
 21
221.8715546643708
 31
0.0
  0
LINE
  5
106
330
2
100
AcDbEntity
  8
-VERGLASUNG
100
AcDbLine
 10
48.75641588224877
 20
226.0838050251194
 30
0.0
 11
52.6502907018748
 21
229.9776798447455
 31
0.0
  0
LINE
  5
107
330
2
100
AcDbEntity
  8
-VERGLASUNG
100
AcDbLine
 10
47.19391588224877
 20
226.0838050251194
 30
0.0
 11
51.0877907018748
 21
229.9776798447455
 31
0.0
  0
LINE
  5
108
330
2
100
AcDbEntity
  8
-VERGLASUNG
100
AcDbLine
 10
45.63141588224877
 20
226.0838050251194
 30
0.0
 11
49.5252907018748
 21
229.9776798447455
 31
0.0
  0
LINE
  5
109
330
2
100
AcDbEntity
  8
-VERGLASUNG
100
AcDbLine
 10
72.776758272362
 20
217.9776800568769
 30
0.0
 11
76.67063309198804
 21
221.8715548765029
 31
0.0
  0
LINE
  5
10A
330
2
100
AcDbEntity
  8
-VERGLASUNG
100
AcDbLine
 10
75.901758272362
 20
217.9776800568769
 30
0.0
 11
79.79563309198804
 21
221.8715548765028
 31
0.0
  0
LINE
  5
10B
330
2
100
AcDbEntity
  8
-VERGLASUNG
100
AcDbLine
 10
74.339258272362
 20
217.9776800568769
 30
0.0
 11
78.23313309198804
 21
221.8715548765029
 31
0.0
  0
LINE
  5
10C
330
2
100
AcDbEntity
  8
-VERGLASUNG
100
AcDbLine
 10
72.68417283637129
 20
226.0838052372515
 30
0.0
 11
76.57804765599732
 21
229.9776800568776
 31
0.0
  0
LINE
  5
10D
330
2
100
AcDbEntity
  8
-VERGLASUNG
100
AcDbLine
 10
69.55917283637129
 20
226.0838052372515
 30
0.0
 11
73.45304765599732
 21
229.9776800568776
 31
0.0
  0
LINE
  5
10E
330
2
100
AcDbEntity
  8
-VERGLASUNG
100
AcDbLine
 10
71.12167283637129
 20
226.0838052372515
 30
0.0
 11
75.01554765599732
 21
229.9776800568776
 31
0.0
  0
LINE
  5
10F
330
2
100
AcDbEntity
  8
-VERGLASUNG
100
AcDbLine
 10
28.04624436411697
 20
217.9776796326127
 30
0.0
 11
31.94011918374301
 21
221.8715544522386
 31
0.0
  0
LINE
  5
110
330
2
100
AcDbEntity
  8
-VERGLASUNG
100
AcDbLine
 10
24.92124436411697
 20
217.9776796326127
 30
0.0
 11
28.81511918374301
 21
221.8715544522387
 31
0.0
  0
LINE
  5
111
330
2
100
AcDbEntity
  8
-VERGLASUNG
100
AcDbLine
 10
26.48374436411697
 20
217.9776796326127
 30
0.0
 11
30.37761918374301
 21
221.8715544522387
 31
0.0
  0
LINE
  5
112
330
2
100
AcDbEntity
  8
-VERGLASUNG
100
AcDbLine
 10
23.26615892812626
 20
226.0838048129873
 30
0.0
 11
27.1600337477523
 21
229.9776796326134
 31
0.0
  0
LINE
  5
113
330
2
100
AcDbEntity
  8
-VERGLASUNG
100
AcDbLine
 10
24.82865892812626
 20
226.0838048129873
 30
0.0
 11
28.7225337477523
 21
229.9776796326134
 31
0.0
  0
LINE
  5
114
330
2
100
AcDbEntity
  8
-VERGLASUNG
100
AcDbLine
 10
21.70365892812626
 20
226.0838048129873
 30
0.0
 11
25.5975337477523
 21
229.9776796326134
 31
0.0
  0
LINE
  5
115
330
2
100
AcDbEntity
  8
-VERGLASUNG
100
AcDbLine
 10
-51.65045347435128
 20
226.0838048129876
 30
0.0
 11
-47.75657865472524
 21
229.9776796326136
 31
0.0
  0
LINE
  5
116
330
2
100
AcDbEntity
  8
-VERGLASUNG
100
AcDbLine
 10
-27.63011108423806
 20
217.9776797033236
 30
0.0
 11
-23.73623626461202
 21
221.8715545229497
 31
0.0
  0
LINE
  5
117
330
2
100
AcDbEntity
  8
-VERGLASUNG
100
AcDbLine
 10
-29.28519652022877
 20
226.0838048836983
 30
0.0
 11
-25.39132170060273
 21
229.9776797033243
 31
0.0
  0
LINE
  5
118
330
2
100
AcDbEntity
  8
-VERGLASUNG
100
AcDbLine
 10
-27.72269652022877
 20
226.0838048836983
 30
0.0
 11
-23.82882170060273
 21
229.9776797033243
 31
0.0
  0
LINE
  5
119
330
2
100
AcDbEntity
  8
-VERGLASUNG
100
AcDbLine
 10
-48.43286803836057
 20
217.9776796326129
 30
0.0
 11
-44.53899321873453
 21
221.8715544522388
 31
0.0
  0
LINE
  5
11A
330
2
100
AcDbEntity
  8
-VERGLASUNG
100
AcDbLine
 10
-49.99536803836057
 20
217.9776796326129
 30
0.0
 11
-46.10149321873453
 21
221.8715544522389
 31
0.0
  0
LINE
  5
11B
330
2
100
AcDbEntity
  8
-VERGLASUNG
100
AcDbLine
 10
-30.84769652022877
 20
226.0838048836983
 30
0.0
 11
-26.95382170060273
 21
229.9776797033243
 31
0.0
  0
LINE
  5
11C
330
2
100
AcDbEntity
  8
-VERGLASUNG
100
AcDbLine
 10
-24.50511108423806
 20
217.9776797033236
 30
0.0
 11
-20.61123626461202
 21
221.8715545229495
 31
0.0
  0
LINE
  5
11D
330
2
100
AcDbEntity
  8
-VERGLASUNG
100
AcDbLine
 10
-26.06761108423806
 20
217.9776797033236
 30
0.0
 11
-22.17373626461202
 21
221.8715545229497
 31
0.0
  0
LINE
  5
11E
330
2
100
AcDbEntity
  8
-SYSTEM
100
AcDbLine
 10
29.99656340970143
 20
0.0000000000001421
 30
0.0
 11
-29.99656340970141
 21
-0.0000000000001421
 31
0.0
  0
LWPOLYLINE
  5
11F
330
2
100
AcDbEntity
  8
-VERGLASUNG
100
AcDbPolyline
 90
        4
 70
     0
 43
0.0
 10
-72.97749106089401
 20
79.99999999999968
 10
77.99999999999989
 20
79.9999999999998
 10
79.99999999999989
 20
77.9999999999998
 10
80.0
 20
-51.97920615538612
  0
HATCH
  5
120
330
2
100
AcDbEntity
  8
-SCHRAFFUR
100
AcDbHatch
 10
0.0
 20
0.0
 30
0.0
210
0.0
220
0.0
230
1.0
  2
SOLID
 70
     1
 71
     1
 91
        2
 92
       16
 93
        1
 72
     2
 10
0.0000000000000009
 20
0.0
 40
21.00000000002393
 50
0.0
 51
360.0
 73
     1
 97
        1
330
122
 92
        1
 93
        1
 72
     2
 10
0.0000000000000009
 20
0.0
 40
23.82842712477017
 50
0.0
 51
360.0
 73
     1
 97
        1
330
123
 75
     0
 76
     1
 98
        1
 10
-112.3080184930272
 20
-55.26206494037433
450
        0
451
        0
460
0.0
461
0.0
452
        0
462
0.0
453
        0
470

  0
CIRCLE
  5
121
330
2
100
AcDbEntity
  8
-PROFILAUSSENKANTET
100
AcDbCircle
 10
7.0
 20
0.0000000000000426
 30
0.0
 40
1.75
  0
CIRCLE
  5
122
102
{ACAD_REACTORS
330
120
102
}
330
2
100
AcDbEntity
  8
-PROFILAUSSENKANTET
100
AcDbCircle
 10
0.0000000000000009
 20
0.0
 30
0.0
 40
21.00000000002393
  0
CIRCLE
  5
123
102
{ACAD_REACTORS
330
120
102
}
330
2
100
AcDbEntity
  8
-DICHTUNG
100
AcDbCircle
 10
0.0000000000000009
 20
0.0
 30
0.0
 40
23.82842712477017
  0
CIRCLE
  5
124
330
2
100
AcDbEntity
  8
-NORMTEIL_VERDECKT
100
AcDbCircle
 10
0.0000000000000009
 20
0.0
 30
0.0
 40
26.0
  0
LINE
  5
125
330
2
100
AcDbEntity
  8
-SYSTEM
100
AcDbLine
 10
-0.0000000000001412
 20
29.99656340970143
 30
0.0
 11
0.000000000000143
 21
-29.9965634097014
 31
0.0
  0
CIRCLE
  5
126
330
2
100
AcDbEntity
  8
-PROFILAUSSENKANTET
100
AcDbCircle
 10
-3.49999999999997
 20
-6.062177826491051
 30
0.0
 40
1.75
  0
CIRCLE
  5
127
330
2
100
AcDbEntity
  8
-PROFILAUSSENKANTET
100
AcDbCircle
 10
-3.500000000000013
 20
6.06217782649108
 30
0.0
 40
1.75
  0
LWPOLYLINE
  5
128
330
2
100
AcDbEntity
  8
-TEXT2
100
AcDbPolyline
 90
        3
 70
     1
 43
0.0
 10
57.78044804006327
 20
79.99999999999971
 10
61.91438540272432
 20
87.16018954743594
 10
53.64651067740223
 20
87.16018954743594
  0
MTEXT
  5
129
330
2
100
AcDbEntity
  8
-TEXT2
100
AcDbMText
 10
49.1771357276503
 20
92.21921696654533
 30
0.0
 40
3.5
 41
17.9978
 71
     1
 72
     5
  1
{\fArial|b0|i0|c0|p34;Glaskante}
 73
     1
 44
1.0
  0
ENDSEC
  0
SECTION
  2
OBJECTS
  0
DICTIONARY
  5
7
330
0
100
AcDbDictionary
281
     1
  3
ACAD_COLOR
350
144
  3
ACAD_GROUP
350
140
  3
ACAD_LAYOUT
350
12C
  3
ACAD_MATERIAL
350
143
  3
ACAD_MLINESTYLE
350
141
  3
ACAD_PLOTSETTINGS
350
142
  3
ACAD_PLOTSTYLENAME
350
6
  3
ACAD_TABLESTYLE
350
152
  3
AcDbVariableDictionary
350
14D
  0
DICTIONARY
  5
132
330
131
100
AcDbDictionary
280
     1
281
     1
  3
ACAD_LAYERSTATES
360
133
  0
DICTIONARY
  5
144
102
{ACAD_REACTORS
330
7
102
}
330
7
100
AcDbDictionary
281
     1
  0
DICTIONARY
  5
140
102
{ACAD_REACTORS
330
7
102
}
330
7
100
AcDbDictionary
281
     1
  0
DICTIONARY
  5
12C
102
{ACAD_REACTORS
330
7
102
}
330
7
100
AcDbDictionary
281
     1
  3
Layout1
350
130
  3
Model
350
12B
  0
DICTIONARY
  5
143
102
{ACAD_REACTORS
330
7
102
}
330
7
100
AcDbDictionary
281
     1
  0
DICTIONARY
  5
141
102
{ACAD_REACTORS
330
7
102
}
330
7
100
AcDbDictionary
281
     1
  3
STANDARD
350
145
  0
DICTIONARY
  5
142
102
{ACAD_REACTORS
330
7
102
}
330
7
100
AcDbDictionary
281
     1
  0
ACDBDICTIONARYWDFLT
  5
6
102
{ACAD_REACTORS
330
7
102
}
330
7
100
AcDbDictionary
281
     1
  3
Normal
350
5
100
AcDbDictionaryWithDefault
340
5
  0
DICTIONARY
  5
152
102
{ACAD_REACTORS
330
7
102
}
330
7
100
AcDbDictionary
281
     1
  3
Standard
350
153
  0
DICTIONARY
  5
14D
102
{ACAD_REACTORS
330
7
102
}
330
7
100
AcDbDictionary
281
     1
  3
CTABLESTYLE
350
157
  3
DIMASSOC
350
14F
  3
HIDETEXT
350
14E
  3
PROJECTNAME
350
150
  0
DICTIONARY
  5
133
102
{ACAD_REACTORS
330
132
102
}
330
132
100
AcDbDictionary
281
     1
  0
LAYOUT
  5
130
102
{ACAD_REACTORS
330
12C
102
}
330
12C
100
AcDbPlotSettings
  1

  2
HP DeskJet 1120C Printer
  4

  6

 40
0.0
 41
0.0
 42
0.0
 43
0.0
 44
0.0
 45
0.0
 46
0.0
 47
0.0
 48
0.0
 49
0.0
140
0.0
141
0.0
142
1.0
143
1.0
 70
   688
 72
     0
 73
     0
 74
     5
  7
monochrome.ctb
 75
    16
147
1.0
 76
     0
 77
     2
 78
   300
148
0.0
149
0.0
100
AcDbLayout
  1
Layout1
 70
     1
 71
     1
 10
0.0
 20
0.0
 11
12.0
 21
9.0
 12
0.0
 22
0.0
 32
0.0
 14
1.000000000000000E+20
 24
1.000000000000000E+20
 34
1.000000000000000E+20
 15
-1.000000000000000E+20
 25
-1.000000000000000E+20
 35
-1.000000000000000E+20
146
0.0
 13
0.0
 23
0.0
 33
0.0
 16
1.0
 26
0.0
 36
0.0
 17
0.0
 27
1.0
 37
0.0
 76
     0
330
12D
  0
LAYOUT
  5
12B
102
{ACAD_REACTORS
330
12C
102
}
330
12C
100
AcDbPlotSettings
  1

  2
none_device
  4
Letter_(8.50_x_11.00_Inches)
  6

 40
6.349999904632568
 41
6.349999904632568
 42
6.350006103515625
 43
6.350006103515625
 44
215.8999938964844
 45
279.3999938964844
 46
0.0
 47
0.0
 48
0.0
 49
0.0
140
0.0
141
0.0
142
1.0
143
1.0
 70
 11952
 72
     0
 73
     1
 74
     0
  7
monochrome.ctb
 75
     0
147
1.0
 76
     0
 77
     2
 78
   300
148
3894.394781096405
149
1351.831001829074
100
AcDbLayout
  1
Model
 70
     1
 71
     0
 10
0.0
 20
0.0
 11
12.0
 21
9.0
 12
0.0
 22
0.0
 32
0.0
 14
0.0
 24
0.0
 34
0.0
 15
0.0
 25
0.0
 35
0.0
146
0.0
 13
0.0
 23
0.0
 33
0.0
 16
1.0
 26
0.0
 36
0.0
 17
0.0
 27
1.0
 37
0.0
 76
     0
330
2
  0
MLINESTYLE
  5
145
102
{ACAD_REACTORS
330
141
102
}
330
141
100
AcDbMlineStyle
  2
STANDARD
 70
     0
  3

 62
     0
 51
90.0
 52
90.0
 71
     2
 49
0.5
 62
   256
  6
BYLAYER
 49
-0.5
 62
   256
  6
BYLAYER
  0
ACDBPLACEHOLDER
  5
5
102
{ACAD_REACTORS
330
6
102
}
330
6
  0
TABLESTYLE
  5
153
102
{ACAD_REACTORS
330
152
102
}
330
152
100
AcDbTableStyle
  3
Standard
 70
     0
 71
     0
 40
0.06
 41
0.06
280
     0
281
     0
  7
STANDARD
140
0.18
170
     2
 62
     0
 63
     7
283
     0
274
    -2
284
     1
 64
     0
275
    -2
285
     1
 65
     0
276
    -2
286
     1
 66
     0
277
    -2
287
     1
 67
     0
278
    -2
288
     1
 68
     0
279
    -2
289
     1
 69
     0
  7
STANDARD
140
0.25
170
     5
 62
     0
 63
     7
283
     0
274
    -2
284
     1
 64
     0
275
    -2
285
     1
 65
     0
276
    -2
286
     1
 66
     0
277
    -2
287
     1
 67
     0
278
    -2
288
     1
 68
     0
279
    -2
289
     1
 69
     0
  7
STANDARD
140
0.18
170
     5
 62
     0
 63
     7
283
     0
274
    -2
284
     1
 64
     0
275
    -2
285
     1
 65
     0
276
    -2
286
     1
 66
     0
277
    -2
287
     1
 67
     0
278
    -2
288
     1
 68
     0
279
    -2
289
     1
 69
     0
  0
DICTIONARYVAR
  5
157
102
{ACAD_REACTORS
330
14D
102
}
330
14D
100
DictionaryVariables
280
     0
  1
STANDARD
  0
DICTIONARYVAR
  5
14F
102
{ACAD_REACTORS
330
14D
102
}
330
14D
100
DictionaryVariables
280
     0
  1
1
  0
DICTIONARYVAR
  5
14E
102
{ACAD_REACTORS
330
14D
102
}
330
14D
100
DictionaryVariables
280
     0
  1
1
  0
DICTIONARYVAR
  5
150
102
{ACAD_REACTORS
330
14D
102
}
330
14D
100
DictionaryVariables
280
     0
  1

  0
ENDSEC
  0
EOF
