  0
SECTION
  2
HEADER
  9
$ACADVER
  1
AC1018
  9
$ACADMAINTVER
 70
    76
  9
$DWGCODEPAGE
  3
ANSI_1252
  9
$INSBASE
 10
-327.8288694144876
 20
0.0
 30
0.0
  9
$EXTMIN
 10
-72.97749106089401
 20
-51.97920615538612
 30
0.0
  9
$EXTMAX
 10
80.0
 20
241.6911185370676
 30
0.0
  9
$LIMMIN
 10
0.0
 20
0.0
  9
$LIMMAX
 10
12.0
 20
9.0
  9
$ORTHOMODE
 70
     1
  9
$REGENMODE
 70
     1
  9
$FILLMODE
 70
     1
  9
$QTEXTMODE
 70
     0
  9
$MIRRTEXT
 70
     1
  9
$LTSCALE
 40
2.5
  9
$ATTMODE
 70
     1
  9
$TEXTSIZE
 40
0.2
  9
$TRACEWID
 40
0.05
  9
$TEXTSTYLE
  7
STANDARD
  9
$CLAYER
  8
-TEXT3
  9
$CELTYPE
  6
BYLAYER
  9
$CECOLOR
 62
   256
  9
$CELTSCALE
 40
1.0
  9
$DISPSILH
 70
     0
  9
$DIMSCALE
 40
1.0
  9
$DIMASZ
 40
3.5
  9
$DIMEXO
 40
2.0
  9
$DIMDLI
 40
2.0
  9
$DIMRND
 40
0.0
  9
$DIMDLE
 40
0.0
  9
$DIMEXE
 40
1.5
  9
$DIMTP
 40
0.0
  9
$DIMTM
 40
0.0
  9
$DIMTXT
 40
4.0
  9
$DIMCEN
 40
0.09
  9
$DIMTSZ
 40
0.0
  9
$DIMTOL
 70
     0
  9
$DIMLIM
 70
     0
  9
$DIMTIH
 70
     0
  9
$DIMTOH
 70
     0
  9
$DIMSE1
 70
     0
  9
$DIMSE2
 70
     0
  9
$DIMTAD
 70
     1
  9
$DIMZIN
 70
     9
  9
$DIMBLK
  1

  9
$DIMASO
 70
     1
  9
$DIMSHO
 70
     1
  9
$DIMPOST
  1

  9
$DIMAPOST
  1

  9
$DIMALT
 70
     0
  9
$DIMALTD
 70
     2
  9
$DIMALTF
 40
25.4
  9
$DIMLFAC
 40
1.0
  9
$DIMTOFL
 70
     0
  9
$DIMTVP
 40
0.0
  9
$DIMTIX
 70
     0
  9
$DIMSOXD
 70
     0
  9
$DIMSAH
 70
     0
  9
$DIMBLK1
  1

  9
$DIMBLK2
  1

  9
$DIMSTYLE
  2
1-1PRO
  9
$DIMCLRD
 70
   256
  9
$DIMCLRE
 70
   256
  9
$DIMCLRT
 70
   256
  9
$DIMTFAC
 40
1.0
  9
$DIMGAP
 40
1.0
  9
$DIMJUST
 70
     0
  9
$DIMSD1
 70
     0
  9
$DIMSD2
 70
     0
  9
$DIMTOLJ
 70
     1
  9
$DIMTZIN
 70
     0
  9
$DIMALTZ
 70
     0
  9
$DIMALTTZ
 70
     0
  9
$DIMUPT
 70
     0
  9
$DIMDEC
 70
     1
  9
$DIMTDEC
 70
     1
  9
$DIMALTU
 70
     2
  9
$DIMALTTD
 70
     2
  9
$DIMTXSTY
  7
STANDARD
  9
$DIMAUNIT
 70
     0
  9
$DIMADEC
 70
     0
  9
$DIMALTRND
 40
0.0
  9
$DIMAZIN
 70
     0
  9
$DIMDSEP
 70
    46
  9
$DIMATFIT
 70
     3
  9
$DIMFRAC
 70
     0
  9
$DIMLDRBLK
  1

  9
$DIMLUNIT
 70
     2
  9
$DIMLWD
 70
    -2
  9
$DIMLWE
 70
    -2
  9
$DIMTMOVE
 70
     0
  9
$LUNITS
 70
     2
  9
$LUPREC
 70
     4
  9
$SKETCHINC
 40
0.1
  9
$FILLETRAD
 40
0.0
  9
$AUNITS
 70
     0
  9
$AUPREC
 70
     0
  9
$MENU
  1
.
  9
$ELEVATION
 40
0.0
  9
$PELEVATION
 40
0.0
  9
$THICKNESS
 40
0.0
  9
$LIMCHECK
 70
     0
  9
$CHAMFERA
 40
2.0
  9
$CHAMFERB
 40
2.0
  9
$CHAMFERC
 40
1.0
  9
$CHAMFERD
 40
0.0
  9
$SKPOLY
 70
     0
  9
$TDCREATE
 40
2450923.406402199
  9
$TDUCREATE
 40
2450923.364735533
  9
$TDUPDATE
 40
2457744.643981968
  9
$TDUUPDATE
 40
2457744.602315301
  9
$TDINDWG
 40
2.4632800116
  9
$TDUSRTIMER
 40
2.4632800116
  9
$USRTIMER
 70
     1
  9
$ANGBASE
 50
0.0
  9
$ANGDIR
 70
     0
  9
$PDMODE
 70
     0
  9
$PDSIZE
 40
0.0
  9
$PLINEWID
 40
0.0
  9
$SPLFRAME
 70
     0
  9
$SPLINETYPE
 70
     6
  9
$SPLINESEGS
 70
    50
  9
$HANDSEED
  5
153
  9
$SURFTAB1
 70
     6
  9
$SURFTAB2
 70
     6
  9
$SURFTYPE
 70
     6
  9
$SURFU
 70
     6
  9
$SURFV
 70
     6
  9
$UCSBASE
  2

  9
$UCSNAME
  2

  9
$UCSORG
 10
0.0
 20
0.0
 30
0.0
  9
$UCSXDIR
 10
1.0
 20
0.0
 30
0.0
  9
$UCSYDIR
 10
0.0
 20
1.0
 30
0.0
  9
$UCSORTHOREF
  2

  9
$UCSORTHOVIEW
 70
     0
  9
$UCSORGTOP
 10
0.0
 20
0.0
 30
0.0
  9
$UCSORGBOTTOM
 10
0.0
 20
0.0
 30
0.0
  9
$UCSORGLEFT
 10
0.0
 20
0.0
 30
0.0
  9
$UCSORGRIGHT
 10
0.0
 20
0.0
 30
0.0
  9
$UCSORGFRONT
 10
0.0
 20
0.0
 30
0.0
  9
$UCSORGBACK
 10
0.0
 20
0.0
 30
0.0
  9
$PUCSBASE
  2

  9
$PUCSNAME
  2

  9
$PUCSORG
 10
0.0
 20
0.0
 30
0.0
  9
$PUCSXDIR
 10
1.0
 20
0.0
 30
0.0
  9
$PUCSYDIR
 10
0.0
 20
1.0
 30
0.0
  9
$PUCSORTHOREF
  2

  9
$PUCSORTHOVIEW
 70
     0
  9
$PUCSORGTOP
 10
0.0
 20
0.0
 30
0.0
  9
$PUCSORGBOTTOM
 10
0.0
 20
0.0
 30
0.0
  9
$PUCSORGLEFT
 10
0.0
 20
0.0
 30
0.0
  9
$PUCSORGRIGHT
 10
0.0
 20
0.0
 30
0.0
  9
$PUCSORGFRONT
 10
0.0
 20
0.0
 30
0.0
  9
$PUCSORGBACK
 10
0.0
 20
0.0
 30
0.0
  9
$USERI1
 70
     0
  9
$USERI2
 70
     0
  9
$USERI3
 70
     0
  9
$USERI4
 70
     0
  9
$USERI5
 70
     0
  9
$USERR1
 40
0.0
  9
$USERR2
 40
0.0
  9
$USERR3
 40
0.0
  9
$USERR4
 40
0.0
  9
$USERR5
 40
0.0
  9
$WORLDVIEW
 70
     1
  9
$SHADEDGE
 70
     3
  9
$SHADEDIF
 70
    70
  9
$TILEMODE
 70
     1
  9
$MAXACTVP
 70
    48
  9
$PINSBASE
 10
0.0
 20
0.0
 30
0.0
  9
$PLIMCHECK
 70
     0
  9
$PEXTMIN
 10
1.000000000000000E+20
 20
1.000000000000000E+20
 30
1.000000000000000E+20
  9
$PEXTMAX
 10
-1.000000000000000E+20
 20
-1.000000000000000E+20
 30
-1.000000000000000E+20
  9
$PLIMMIN
 10
0.0
 20
0.0
  9
$PLIMMAX
 10
12.0
 20
9.0
  9
$UNITMODE
 70
     0
  9
$VISRETAIN
 70
     1
  9
$PLINEGEN
 70
     0
  9
$PSLTSCALE
 70
     1
  9
$TREEDEPTH
 70
  3020
  9
$CMLSTYLE
  2
STANDARD
  9
$CMLJUST
 70
     0
  9
$CMLSCALE
 40
1.0
  9
$PROXYGRAPHICS
 70
     1
  9
$MEASUREMENT
 70
     0
  9
$CELWEIGHT
370
    -1
  9
$ENDCAPS
280
     0
  9
$JOINSTYLE
280
     0
  9
$LWDISPLAY
290
     0
  9
$INSUNITS
 70
     0
  9
$HYPERLINKBASE
  1

  9
$STYLESHEET
  1

  9
$XEDIT
290
     1
  9
$CEPSNTYPE
380
     0
  9
$PSTYLEMODE
290
     1
  9
$FINGERPRINTGUID
  2
{3A2E4F69-FB61-11D4-9C1F-EC81C176A25E}
  9
$VERSIONGUID
  2
{0F40FBFA-788A-46B1-B133-E5D8469C58DA}
  9
$EXTNAMES
290
     1
  9
$PSVPSCALE
 40
0.0
  9
$OLESTARTUP
290
     0
  9
$SORTENTS
280
   127
  9
$INDEXCTL
280
     0
  9
$HIDETEXT
280
     1
  9
$XCLIPFRAME
290
     0
  9
$HALOGAP
280
     0
  9
$OBSCOLOR
 70
   257
  9
$OBSLTYPE
280
     0
  9
$INTERSECTIONDISPLAY
280
     0
  9
$INTERSECTIONCOLOR
 70
   257
  9
$DIMASSOC
280
     1
  9
$PROJECTNAME
  1

  0
ENDSEC
  0
SECTION
  2
CLASSES
  0
CLASS
  1
DICTIONARYVAR
  2
AcDbDictionaryVar
  3
ObjectDBX Classes
 90
        0
 91
        4
280
     0
281
     0
  0
CLASS
  1
IMAGE
  2
AcDbRasterImage
  3
ISM
 90
      127
 91
        0
280
     0
281
     1
  0
CLASS
  1
IMAGEDEF_REACTOR
  2
AcDbRasterImageDefReactor
  3
ISM
 90
        1
 91
        0
280
     0
281
     0
  0
CLASS
  1
IMAGEDEF
  2
AcDbRasterImageDef
  3
ISM
 90
        0
 91
        0
280
     0
281
     0
  0
CLASS
  1
RASTERVARIABLES
  2
AcDbRasterVariables
  3
ISM
 90
        0
 91
        0
280
     0
281
     0
  0
CLASS
  1
ACDBDICTIONARYWDFLT
  2
AcDbDictionaryWithDefault
  3
ObjectDBX Classes
 90
        0
 91
        1
280
     0
281
     0
  0
CLASS
  1
TABLESTYLE
  2
AcDbTableStyle
  3
ObjectDBX Classes
 90
     2047
 91
        1
280
     0
281
     0
  0
ENDSEC
  0
SECTION
  2
TABLES
  0
TABLE
  2
VPORT
  5
135
330
0
100
AcDbSymbolTable
 70
     3
  0
VPORT
  5
152
330
135
100
AcDbSymbolTableRecord
100
AcDbViewportTableRecord
  2
*Active
 70
     0
 10
0.0
 20
0.0
 11
1.0
 21
1.0
 12
54.73201384877026
 22
95.62320946417328
 13
0.0
 23
0.0
 14
0.5
 24
0.5
 15
0.5
 25
0.5
 16
0.0
 26
0.0
 36
1.0
 17
0.0
 27
0.0
 37
0.0
 40
297.5635020359064
 41
1.893413173652694
 42
50.0
 43
0.0
 44
0.0
 50
0.0
 51
0.0
 71
     0
 72
   100
 73
     1
 74
     1
 75
     0
 76
     0
 77
     0
 78
     0
281
     0
 65
     1
110
0.0
120
0.0
130
0.0
111
1.0
121
0.0
131
0.0
112
0.0
122
1.0
132
0.0
 79
     0
146
0.0
  0
ENDTAB
  0
TABLE
  2
LTYPE
  5
130
330
0
100
AcDbSymbolTable
 70
     4
  0
LTYPE
  5
131
330
130
100
AcDbSymbolTableRecord
100
AcDbLinetypeTableRecord
  2
BYBLOCK
 70
     0
  3

 72
    65
 73
     0
 40
0.0
  0
LTYPE
  5
132
330
130
100
AcDbSymbolTableRecord
100
AcDbLinetypeTableRecord
  2
BYLAYER
 70
     0
  3

 72
    65
 73
     0
 40
0.0
  0
LTYPE
  5
8
330
130
100
AcDbSymbolTableRecord
100
AcDbLinetypeTableRecord
  2
CONTINUOUS
 70
     0
  3
Solid line
 72
    65
 73
     0
 40
0.0
  0
LTYPE
  5
18
330
130
100
AcDbSymbolTableRecord
100
AcDbLinetypeTableRecord
  2
MITTEX2
 70
     0
  3
Mitte (2x) ________  __  ________  __  _____
 72
    65
 73
     4
 40
4.0
 49
2.5
 74
     0
 49
-0.5
 74
     0
 49
0.5
 74
     0
 49
-0.5
 74
     0
  0
LTYPE
  5
15
330
130
100
AcDbSymbolTableRecord
100
AcDbLinetypeTableRecord
  2
STRICHLINIEX2
 70
     0
  3
Strichlinie (2x) ____  ____  ____  ____  ____  
 72
    65
 73
     2
 40
1.5
 49
1.0
 74
     0
 49
-0.5
 74
     0
  0
LTYPE
  5
DD
330
130
100
AcDbSymbolTableRecord
100
AcDbLinetypeTableRecord
  2
VERDECKT_SEHR_FEIN
 70
     0
  3
_ _ _ _ _ _ _ _ _ _ _ _ _ _ _ _ _ _ _ _ _ _ _
 72
    65
 73
     2
 40
0.09375
 49
0.0625
 74
     0
 49
-0.03125
 74
     0
  0
ENDTAB
  0
TABLE
  2
LAYER
  5
12B
102
{ACAD_XDICTIONARY
360
12C
102
}
330
0
100
AcDbSymbolTable
 70
    11
  0
LAYER
  5
4
330
12B
100
AcDbSymbolTableRecord
100
AcDbLayerTableRecord
  2
0
 70
     0
 62
     7
  6
CONTINUOUS
370
    -3
390
5
  0
LAYER
  5
1B
330
12B
100
AcDbSymbolTableRecord
100
AcDbLayerTableRecord
  2
-PROFILAUSSENKANTET
 70
     0
 62
     4
  6
CONTINUOUS
370
    -3
390
5
  0
LAYER
  5
12
330
12B
100
AcDbSymbolTableRecord
100
AcDbLayerTableRecord
  2
-DICHTUNG
 70
     0
 62
     3
  6
CONTINUOUS
370
    -3
390
5
  0
LAYER
  5
93
330
12B
100
AcDbSymbolTableRecord
100
AcDbLayerTableRecord
  2
-NORMTEIL
 70
     0
 62
     6
  6
CONTINUOUS
370
    -3
390
5
  0
LAYER
  5
14
330
12B
100
AcDbSymbolTableRecord
100
AcDbLayerTableRecord
  2
-NORMTEIL_VERDECKT
 70
     0
 62
     9
  6
STRICHLINIEX2
370
    -3
390
5
  0
LAYER
  5
35
330
12B
100
AcDbSymbolTableRecord
100
AcDbLayerTableRecord
  2
DEFPOINTS
 70
     0
 62
     7
  6
CONTINUOUS
290
     0
370
    -3
390
5
  0
LAYER
  5
17
330
12B
100
AcDbSymbolTableRecord
100
AcDbLayerTableRecord
  2
-SYSTEM
 70
     0
 62
     2
  6
MITTEX2
370
    -3
390
5
  0
LAYER
  5
20
330
12B
100
AcDbSymbolTableRecord
100
AcDbLayerTableRecord
  2
-TEXT2
 70
     0
 62
     3
  6
CONTINUOUS
370
    -3
390
5
  0
LAYER
  5
A
330
12B
100
AcDbSymbolTableRecord
100
AcDbLayerTableRecord
  2
-TEXT3
 70
     0
 62
     2
  6
CONTINUOUS
370
    -3
390
5
  0
LAYER
  5
10
330
12B
100
AcDbSymbolTableRecord
100
AcDbLayerTableRecord
  2
-SCHRAFFUR
 70
     0
 62
     9
  6
CONTINUOUS
370
    -3
390
5
  0
LAYER
  5
E
330
12B
100
AcDbSymbolTableRecord
100
AcDbLayerTableRecord
  2
-VERGLASUNG
 70
     0
 62
     1
  6
CONTINUOUS
370
    -3
390
5
  0
ENDTAB
  0
TABLE
  2
STYLE
  5
12E
330
0
100
AcDbSymbolTable
 70
     1
  0
STYLE
  5
22
330
12E
100
AcDbSymbolTableRecord
100
AcDbTextStyleTableRecord
  2
STANDARD
 70
     0
 40
0.0
 41
1.0
 50
0.0
 71
     0
 42
0.2
  3
GOTHIC.TTF
  4

1001
ACAD
1000
Century Gothic
1071
       34
  0
ENDTAB
  0
TABLE
  2
VIEW
  5
133
330
0
100
AcDbSymbolTable
 70
     0
  0
ENDTAB
  0
TABLE
  2
UCS
  5
134
330
0
100
AcDbSymbolTable
 70
     0
  0
ENDTAB
  0
TABLE
  2
APPID
  5
137
330
0
100
AcDbSymbolTable
 70
     1
  0
APPID
  5
23
330
137
100
AcDbSymbolTableRecord
100
AcDbRegAppTableRecord
  2
ACAD
 70
     0
  0
ENDTAB
  0
TABLE
  2
DIMSTYLE
  5
138
330
0
100
AcDbSymbolTable
 70
     1
100
AcDbDimStyleTable
 71
     1
340
2B
  0
DIMSTYLE
105
2B
102
{ACAD_REACTORS
330
2A
330
3B
330
4A
330
57
330
64
330
77
330
AB
102
}
330
138
100
AcDbSymbolTableRecord
100
AcDbDimStyleTableRecord
  2
1-1PRO
 70
     0
 41
3.5
 42
2.0
 43
2.0
 44
1.5
 73
     0
 74
     0
 77
     1
 78
     9
140
4.0
147
1.0
176
   256
177
   256
178
   256
271
     1
272
     1
340
22
  0
ENDTAB
  0
TABLE
  2
BLOCK_RECORD
  5
1
330
0
100
AcDbSymbolTable
 70
     9
  0
BLOCK_RECORD
  5
2
330
1
100
AcDbSymbolTableRecord
100
AcDbBlockTableRecord
  2
*MODEL_SPACE
340
125
  0
BLOCK_RECORD
  5
127
330
1
100
AcDbSymbolTableRecord
100
AcDbBlockTableRecord
  2
*PAPER_SPACE
340
12A
  0
BLOCK_RECORD
  5
DA
330
1
100
AcDbSymbolTableRecord
100
AcDbBlockTableRecord
  2
96-8
340
0
102
{BLKREFS
331
D9
102
}
  0
BLOCK_RECORD
  5
B
330
1
100
AcDbSymbolTableRecord
100
AcDbBlockTableRecord
  2
ANSICHT2035
340
0
102
{BLKREFS
331
9
102
}
  0
BLOCK_RECORD
  5
2C
330
1
100
AcDbSymbolTableRecord
100
AcDbBlockTableRecord
  2
*D2
340
0
  0
BLOCK_RECORD
  5
3C
330
1
100
AcDbSymbolTableRecord
100
AcDbBlockTableRecord
  2
*D3
340
0
  0
BLOCK_RECORD
  5
4B
330
1
100
AcDbSymbolTableRecord
100
AcDbBlockTableRecord
  2
*D4
340
0
  0
BLOCK_RECORD
  5
58
330
1
100
AcDbSymbolTableRecord
100
AcDbBlockTableRecord
  2
*D5
340
0
  0
BLOCK_RECORD
  5
65
330
1
100
AcDbSymbolTableRecord
100
AcDbBlockTableRecord
  2
*D6
340
0
  0
BLOCK_RECORD
  5
78
330
1
100
AcDbSymbolTableRecord
100
AcDbBlockTableRecord
  2
*D7
340
0
  0
BLOCK_RECORD
  5
AC
330
1
100
AcDbSymbolTableRecord
100
AcDbBlockTableRecord
  2
*D8
340
0
  0
ENDTAB
  0
ENDSEC
  0
SECTION
  2
BLOCKS
  0
BLOCK
  5
3
330
2
100
AcDbEntity
  8
0
100
AcDbBlockBegin
  2
*MODEL_SPACE
 70
     0
 10
0.0
 20
0.0
 30
0.0
  3
*MODEL_SPACE
  1

  0
ENDBLK
  5
124
330
2
100
AcDbEntity
  8
0
100
AcDbBlockEnd
  0
BLOCK
  5
128
330
127
100
AcDbEntity
 67
     1
  8
0
100
AcDbBlockBegin
  2
*PAPER_SPACE
 70
     0
 10
0.0
 20
0.0
 30
0.0
  3
*PAPER_SPACE
  1

  0
ENDBLK
  5
129
330
127
100
AcDbEntity
 67
     1
  8
0
100
AcDbBlockEnd
  0
BLOCK
  5
DB
330
DA
100
AcDbEntity
  8
0
100
AcDbBlockBegin
  2
96-8
 70
     0
 10
0.0
 20
0.0
 30
0.0
  3
96-8
  1

  0
LINE
  5
DC
330
DA
100
AcDbEntity
  8
-NORMTEIL
  6
VERDECKT_SEHR_FEIN
100
AcDbLine
 10
3.201096372196161
 20
-10.51813123500324
 30
0.0
 11
3.099210591401515
 21
-12.46222774486341
 31
0.0
  0
LINE
  5
DE
330
DA
100
AcDbEntity
  8
-NORMTEIL
  6
VERDECKT_SEHR_FEIN
100
AcDbLine
 10
-3.201096372196161
 20
-10.51813123500324
 30
0.0
 11
-3.187492385793575
 21
-10.77771075906867
 31
0.0
  0
LINE
  5
DF
330
DA
100
AcDbEntity
  8
-NORMTEIL
  6
VERDECKT_SEHR_FEIN
100
AcDbLine
 10
3.099210591401515
 20
-12.46222774486341
 30
0.0
 11
3.846410600366425
 21
-13.49066032817745
 31
0.0
  0
LINE
  5
E0
330
DA
100
AcDbEntity
  8
-NORMTEIL
  6
VERDECKT_SEHR_FEIN
100
AcDbLine
 10
3.846410600366425
 20
-13.49066032817745
 30
0.0
 11
3.013602315181742
 21
-14.09573096504118
 31
0.0
  0
LINE
  5
E1
330
DA
100
AcDbEntity
  8
-NORMTEIL
  6
VERDECKT_SEHR_FEIN
100
AcDbLine
 10
3.013602315181742
 20
-14.09573096504118
 30
0.0
 11
2.927994038960832
 21
-15.72923418521895
 31
0.0
  0
LINE
  5
E2
330
DA
100
AcDbEntity
  8
-NORMTEIL
  6
VERDECKT_SEHR_FEIN
100
AcDbLine
 10
-3.187492385792438
 20
-10.77771075906867
 30
0.0
 11
-3.955976575233535
 21
-11.4000169854421
 31
0.0
  0
LINE
  5
E3
330
DA
100
AcDbEntity
  8
-NORMTEIL
  6
VERDECKT_SEHR_FEIN
100
AcDbLine
 10
-3.955976575233535
 20
-11.4000169854421
 30
0.0
 11
-3.099445536258826
 21
-12.45774472995435
 31
0.0
  0
LINE
  5
E4
330
DA
100
AcDbEntity
  8
-NORMTEIL
  6
VERDECKT_SEHR_FEIN
100
AcDbLine
 10
-3.011398686725215
 20
-14.13777870084004
 30
0.0
 11
-3.779882876165174
 21
-14.76008492721121
 31
0.0
  0
LINE
  5
E5
330
DA
100
AcDbEntity
  8
-NORMTEIL
  6
VERDECKT_SEHR_FEIN
100
AcDbLine
 10
-3.779882876165174
 20
-14.76008492721121
 30
0.0
 11
-2.923351837190466
 21
-15.81781267172346
 31
0.0
  0
LINE
  5
E6
330
DA
100
AcDbEntity
  8
-NORMTEIL
  6
VERDECKT_SEHR_FEIN
100
AcDbLine
 10
-3.099445536259963
 20
-12.45774472995435
 30
0.0
 11
-3.011398686725215
 21
-14.13777870084004
 31
0.0
  0
LINE
  5
E7
330
DA
100
AcDbEntity
  8
-NORMTEIL
  6
VERDECKT_SEHR_FEIN
100
AcDbLine
 10
-3.187492385792438
 20
-10.77771075906867
 30
0.0
 11
3.099210591401515
 21
-12.46222774486341
 31
0.0
  0
LINE
  5
E8
330
DA
100
AcDbEntity
  8
-NORMTEIL
  6
VERDECKT_SEHR_FEIN
100
AcDbLine
 10
-3.099445536258826
 20
-12.45774472995435
 30
0.0
 11
3.013602315181742
 21
-14.09573096504118
 31
0.0
  0
LINE
  5
E9
330
DA
100
AcDbEntity
  8
-NORMTEIL
  6
VERDECKT_SEHR_FEIN
100
AcDbLine
 10
-3.011398686725215
 20
-14.13777870084004
 30
0.0
 11
2.927994038959695
 21
-15.72923418521895
 31
0.0
  0
LINE
  5
EA
330
DA
100
AcDbEntity
  8
-NORMTEIL
  6
VERDECKT_SEHR_FEIN
100
AcDbLine
 10
-3.099445536258826
 20
-12.45774472995435
 30
0.0
 11
3.099210591401515
 21
-12.46222774486341
 31
0.0
  0
LINE
  5
EB
330
DA
100
AcDbEntity
  8
-NORMTEIL
  6
VERDECKT_SEHR_FEIN
100
AcDbLine
 10
-2.923351837191603
 20
-15.81781267172346
 30
0.0
 11
2.927994038959695
 21
-15.72923418521895
 31
0.0
  0
LINE
  5
EC
330
DA
100
AcDbEntity
  8
-NORMTEIL
  6
VERDECKT_SEHR_FEIN
100
AcDbLine
 10
3.675194047923469
 20
-16.757666768533
 30
0.0
 11
2.842385762738786
 21
-17.36273740539445
 31
0.0
  0
LINE
  5
ED
330
DA
100
AcDbEntity
  8
-NORMTEIL
  6
VERDECKT_SEHR_FEIN
100
AcDbLine
 10
2.756777486516739
 20
-18.99624062557222
 30
0.0
 11
3.503977495481649
 21
-20.02467320888627
 31
0.0
  0
LINE
  5
EE
330
DA
100
AcDbEntity
  8
-NORMTEIL
  6
VERDECKT_SEHR_FEIN
100
AcDbLine
 10
3.503977495481649
 20
-20.02467320888627
 30
0.0
 11
2.671169210295829
 21
-20.62974384575
 31
0.0
  0
LINE
  5
EF
330
DA
100
AcDbEntity
  8
-NORMTEIL
  6
VERDECKT_SEHR_FEIN
100
AcDbLine
 10
2.585560934074919
 20
-22.26324706592777
 30
0.0
 11
3.332760943039829
 21
-23.29167964924181
 31
0.0
  0
LINE
  5
F0
330
DA
100
AcDbEntity
  8
-NORMTEIL
  6
VERDECKT_SEHR_FEIN
100
AcDbLine
 10
3.332760943039829
 20
-23.29167964924181
 30
0.0
 11
2.499952657852873
 21
-23.89675028610327
 31
0.0
  0
LINE
  5
F1
330
DA
100
AcDbEntity
  8
-NORMTEIL
  6
VERDECKT_SEHR_FEIN
100
AcDbLine
 10
2.842385762738786
 20
-17.36273740539445
 30
0.0
 11
2.756777486516739
 21
-18.99624062557222
 31
0.0
  0
LINE
  5
F2
330
DA
100
AcDbEntity
  8
-NORMTEIL
  6
VERDECKT_SEHR_FEIN
100
AcDbLine
 10
2.671169210295829
 20
-20.62974384575
 30
0.0
 11
2.585560934074919
 21
-22.26324706592777
 31
0.0
  0
LINE
  5
F3
330
DA
100
AcDbEntity
  8
-NORMTEIL
  6
VERDECKT_SEHR_FEIN
100
AcDbLine
 10
-2.483117589520134
 20
-24.21798252614963
 30
0.0
 11
-3.251601778960093
 21
-24.84028875252079
 31
0.0
  0
LINE
  5
F4
330
DA
100
AcDbEntity
  8
-NORMTEIL
  6
VERDECKT_SEHR_FEIN
100
AcDbLine
 10
-2.835304987655717
 20
-17.49784664260914
 30
0.0
 11
-3.603789177095677
 21
-18.12015286898031
 31
0.0
  0
LINE
  5
F5
330
DA
100
AcDbEntity
  8
-NORMTEIL
  6
VERDECKT_SEHR_FEIN
100
AcDbLine
 10
-3.603789177095677
 20
-18.12015286898031
 30
0.0
 11
-2.747258138122106
 21
-19.17788061349483
 31
0.0
  0
LINE
  5
F6
330
DA
100
AcDbEntity
  8
-NORMTEIL
  6
VERDECKT_SEHR_FEIN
100
AcDbLine
 10
-2.659211288588494
 20
-20.85791458437825
 30
0.0
 11
-3.427695478028454
 21
-21.48022081075169
 31
0.0
  0
LINE
  5
F7
330
DA
100
AcDbEntity
  8
-NORMTEIL
  6
VERDECKT_SEHR_FEIN
100
AcDbLine
 10
-3.427695478028454
 20
-21.48022081075169
 30
0.0
 11
-2.571164439053745
 21
-22.53794855526394
 31
0.0
  0
LINE
  5
F8
330
DA
100
AcDbEntity
  8
-NORMTEIL
  6
VERDECKT_SEHR_FEIN
100
AcDbLine
 10
-2.571164439053745
 20
-22.53794855526394
 30
0.0
 11
-2.483117589520134
 21
-24.21798252614963
 31
0.0
  0
LINE
  5
F9
330
DA
100
AcDbEntity
  8
-NORMTEIL
  6
VERDECKT_SEHR_FEIN
100
AcDbLine
 10
-2.747258138122106
 20
-19.17788061349483
 30
0.0
 11
-2.659211288588494
 21
-20.85791458437825
 31
0.0
  0
LINE
  5
FA
330
DA
100
AcDbEntity
  8
-NORMTEIL
  6
VERDECKT_SEHR_FEIN
100
AcDbLine
 10
-2.835304987655717
 20
-17.49784664260914
 30
0.0
 11
2.756777486516739
 21
-18.99624062557222
 31
0.0
  0
LINE
  5
FB
330
DA
100
AcDbEntity
  8
-NORMTEIL
  6
VERDECKT_SEHR_FEIN
100
AcDbLine
 10
-2.747258138122106
 20
-19.17788061349483
 30
0.0
 11
2.671169210295829
 21
-20.62974384575
 31
0.0
  0
LINE
  5
FC
330
DA
100
AcDbEntity
  8
-NORMTEIL
  6
VERDECKT_SEHR_FEIN
100
AcDbLine
 10
-2.659211288587357
 20
-20.85791458437825
 30
0.0
 11
2.585560934074919
 21
-22.26324706592777
 31
0.0
  0
LINE
  5
FD
330
DA
100
AcDbEntity
  8
-NORMTEIL
  6
VERDECKT_SEHR_FEIN
100
AcDbLine
 10
-2.571164439053745
 20
-22.53794855526394
 30
0.0
 11
2.499952657852873
 21
-23.89675028610327
 31
0.0
  0
LINE
  5
FE
330
DA
100
AcDbEntity
  8
-NORMTEIL
  6
VERDECKT_SEHR_FEIN
100
AcDbLine
 10
-2.747258138122106
 20
-19.17788061349483
 30
0.0
 11
2.756777486516739
 21
-18.99624062557222
 31
0.0
  0
LINE
  5
FF
330
DA
100
AcDbEntity
  8
-NORMTEIL
  6
VERDECKT_SEHR_FEIN
100
AcDbLine
 10
-2.571164439053745
 20
-22.53794855526394
 30
0.0
 11
2.585560934074919
 21
-22.26324706592777
 31
0.0
  0
ARC
  5
100
330
DA
100
AcDbEntity
  8
-NORMTEIL
  6
VERDECKT_SEHR_FEIN
100
AcDbCircle
 10
-13.23638481396074
 20
-24.70450368968159
 30
0.0
 40
15.70250558145388
100
AcDbArc
 50
345.1937303175753
 51
351.0430563451842
  0
LINE
  5
101
330
DA
100
AcDbEntity
  8
-NORMTEIL
  6
VERDECKT_SEHR_FEIN
100
AcDbLine
 10
2.4143443816331
 20
-25.53025350628104
 30
0.0
 11
3.16147553146834
 21
-26.56000000002905
 31
0.0
  0
LINE
  5
102
330
DA
100
AcDbEntity
  8
-NORMTEIL
  6
VERDECKT_SEHR_FEIN
100
AcDbLine
 10
3.16147553146834
 20
-26.56000000002905
 30
0.0
 11
2.274638420640258
 21
-27.14926129551259
 31
0.0
  0
LINE
  5
103
330
DA
100
AcDbEntity
  8
-NORMTEIL
  6
VERDECKT_SEHR_FEIN
100
AcDbLine
 10
1.944725825741215
 20
-28.7173033707927
 30
0.0
 11
2.494162969512672
 21
-29.69274555408447
 31
0.0
  0
LINE
  5
104
330
DA
100
AcDbEntity
  8
-NORMTEIL
  6
VERDECKT_SEHR_FEIN
100
AcDbLine
 10
2.494162969512672
 20
-29.69274555408447
 30
0.0
 11
1.456923460410735
 21
-30.24303900959239
 31
0.0
  0
LINE
  5
105
330
DA
100
AcDbEntity
  8
-NORMTEIL
  6
VERDECKT_SEHR_FEIN
100
AcDbLine
 10
0.808882507352564
 20
-31.72583884821506
 30
0.0
 11
1.219655507350125
 21
-32.66412608616292
 31
0.0
  0
ARC
  5
106
330
DA
100
AcDbEntity
  8
-NORMTEIL
  6
VERDECKT_SEHR_FEIN
100
AcDbCircle
 10
-13.23638481396074
 20
-24.70450368968159
 30
0.0
 40
15.70250558145388
100
AcDbArc
 50
333.439186631502
 51
339.3464315262252
  0
ARC
  5
107
330
DA
100
AcDbEntity
  8
-NORMTEIL
  6
VERDECKT_SEHR_FEIN
100
AcDbCircle
 10
13.23638481396074
 20
-24.70450368968159
 30
0.0
 40
15.70250558145388
100
AcDbArc
 50
197.3340767728676
 51
204.5498658763077
  0
LINE
  5
108
330
DA
100
AcDbEntity
  8
-NORMTEIL
  6
VERDECKT_SEHR_FEIN
100
AcDbLine
 10
-2.19535361094131
 20
-27.60797242913213
 30
0.0
 11
-2.880159218040034
 21
-28.25270026406542
 31
0.0
  0
LINE
  5
109
330
DA
100
AcDbEntity
  8
-NORMTEIL
  6
VERDECKT_SEHR_FEIN
100
AcDbLine
 10
-2.880159218040034
 20
-28.25270026406542
 30
0.0
 11
-1.752972105628032
 21
-29.38295008488239
 31
0.0
  0
LINE
  5
10A
330
DA
100
AcDbEntity
  8
-NORMTEIL
  6
VERDECKT_SEHR_FEIN
100
AcDbLine
 10
-1.046614403040848
 20
-31.22865994951553
 30
0.0
 11
-1.612210883017723
 21
-31.90532977379235
 31
0.0
  0
ARC
  5
10B
330
DA
100
AcDbEntity
  8
-NORMTEIL
  6
VERDECKT_SEHR_FEIN
100
AcDbCircle
 10
13.23638481396074
 20
-24.70450368968159
 30
0.0
 40
15.70250558145388
100
AcDbArc
 50
186.4558313866915
 51
190.6555823996889
  0
LINE
  5
10C
330
DA
100
AcDbEntity
  8
-NORMTEIL
  6
VERDECKT_SEHR_FEIN
100
AcDbLine
 10
-2.395070739985385
 20
-25.89801649703304
 30
0.0
 11
-2.362571903667003
 21
-26.51813123501142
 31
0.0
  0
LINE
  5
10D
330
DA
100
AcDbEntity
  8
-NORMTEIL
  6
VERDECKT_SEHR_FEIN
100
AcDbLine
 10
-2.19535361094131
 20
-27.60797242913213
 30
0.0
 11
1.944725825741215
 21
-28.7173033707927
 31
0.0
  0
LINE
  5
10E
330
DA
100
AcDbEntity
  8
-NORMTEIL
  6
VERDECKT_SEHR_FEIN
100
AcDbLine
 10
-1.752972105628032
 20
-29.38295008488239
 30
0.0
 11
1.456923460410735
 21
-30.24303900959239
 31
0.0
  0
LINE
  5
10F
330
DA
100
AcDbEntity
  8
-NORMTEIL
  6
VERDECKT_SEHR_FEIN
100
AcDbLine
 10
-1.046614403040848
 20
-31.22865994951553
 30
0.0
 11
0.808882507352564
 21
-31.72583884821506
 31
0.0
  0
LINE
  5
110
330
DA
100
AcDbEntity
  8
-NORMTEIL
  6
VERDECKT_SEHR_FEIN
100
AcDbLine
 10
-1.612210883017723
 20
-31.90532977379235
 30
0.0
 11
1.219655507350125
 21
-32.66412608616292
 31
0.0
  0
LINE
  5
111
330
DA
100
AcDbEntity
  8
-NORMTEIL
  6
VERDECKT_SEHR_FEIN
100
AcDbLine
 10
-1.612210883017723
 20
-31.90532977379235
 30
0.0
 11
1.219655507350125
 21
-32.66412608616292
 31
0.0
  0
LINE
  5
112
330
DA
100
AcDbEntity
  8
-NORMTEIL
  6
VERDECKT_SEHR_FEIN
100
AcDbLine
 10
-2.395070739985385
 20
-25.89801649703304
 30
0.0
 11
2.27463842058114
 21
-27.14926129549667
 31
0.0
  0
LINE
  5
113
330
DA
100
AcDbEntity
  8
-NORMTEIL
  6
VERDECKT_SEHR_FEIN
100
AcDbLine
 10
-2.395070739985385
 20
-25.89801649703304
 30
0.0
 11
2.4143443816331
 21
-25.53025350628104
 31
0.0
  0
LINE
  5
114
330
DA
100
AcDbEntity
  8
-NORMTEIL
  6
VERDECKT_SEHR_FEIN
100
AcDbLine
 10
-1.752972105628032
 20
-29.38295008488239
 30
0.0
 11
1.944725825741215
 21
-28.7173033707927
 31
0.0
  0
LINE
  5
115
330
DA
100
AcDbEntity
  8
-NORMTEIL
  6
VERDECKT_SEHR_FEIN
100
AcDbLine
 10
-1.039966458331491
 20
-32.05866220525877
 30
0.0
 11
0.808882507352564
 21
-31.72583884821506
 31
0.0
  0
LINE
  5
116
330
DA
100
AcDbEntity
  8
-NORMTEIL
  6
VERDECKT_SEHR_FEIN
100
AcDbLine
 10
-2.483117589520134
 20
-24.21798252614963
 30
0.0
 11
2.414344381631963
 21
-25.53025350628104
 31
0.0
  0
LINE
  5
117
330
DA
100
AcDbEntity
  8
-NORMTEIL
  6
VERDECKT_SEHR_FEIN
100
AcDbLine
 10
2.499952657852873
 20
-23.89675028610327
 30
0.0
 11
2.414344381631963
 21
-25.53025350628104
 31
0.0
  0
LINE
  5
118
330
DA
100
AcDbEntity
  8
-NORMTEIL
  6
VERDECKT_SEHR_FEIN
100
AcDbLine
 10
-3.251601778960093
 20
-24.84028875252079
 30
0.0
 11
-2.395070739985385
 21
-25.89801649703304
 31
0.0
  0
ARC
  5
119
330
DA
100
AcDbEntity
  8
-NORMTEIL
  6
VERDECKT_SEHR_FEIN
100
AcDbCircle
 10
-13.23638481396074
 20
-24.70450368968159
 30
0.0
 40
16.50250558145388
100
AcDbArc
 50
323.3295098482051
 51
331.1624344669203
  0
ARC
  5
11A
330
DA
100
AcDbEntity
  8
-NORMTEIL
  6
VERDECKT_SEHR_FEIN
100
AcDbCircle
 10
13.23638481396074
 20
-24.70450368968159
 30
0.0
 40
16.50250558145388
100
AcDbArc
 50
205.8710646891886
 51
216.6704901517949
  0
LINE
  5
11B
330
DA
100
AcDbEntity
  8
-NORMTEIL
  6
VERDECKT_SEHR_FEIN
100
AcDbLine
 10
-2.923351837190466
 20
-15.81781267172346
 30
0.0
 11
2.842385762738786
 21
-17.36273740539445
 31
0.0
  0
LINE
  5
11C
330
DA
100
AcDbEntity
  8
-NORMTEIL
  6
VERDECKT_SEHR_FEIN
100
AcDbLine
 10
-2.923351837191603
 20
-15.81781267172346
 30
0.0
 11
-2.835304987656854
 21
-17.49784664260914
 31
0.0
  0
LINE
  5
11D
330
DA
100
AcDbEntity
  8
-NORMTEIL
  6
VERDECKT_SEHR_FEIN
100
AcDbLine
 10
2.927994038959695
 20
-15.72923418521895
 30
0.0
 11
3.675194047923469
 21
-16.757666768533
 31
0.0
  0
LINE
  5
11E
330
DA
100
AcDbEntity
  8
-NORMTEIL
  6
VERDECKT_SEHR_FEIN
100
AcDbLine
 10
-3.999999999999772
 20
-10.55999999999812
 30
0.0
 11
3.999999999998635
 21
-10.55999999999812
 31
0.0
  0
LINE
  5
11F
330
DA
100
AcDbEntity
  8
-NORMTEIL
  6
VERDECKT_SEHR_FEIN
100
AcDbLine
 10
-3.999999999999772
 20
-10.55999999999812
 30
0.0
 11
-3.999999999999772
 21
0.0
 31
0.0
  0
LINE
  5
120
330
DA
100
AcDbEntity
  8
-NORMTEIL
  6
VERDECKT_SEHR_FEIN
100
AcDbLine
 10
3.999999999999772
 20
-10.55999999999812
 30
0.0
 11
3.999999999999772
 21
0.0
 31
0.0
  0
LWPOLYLINE
  5
121
330
DA
100
AcDbEntity
  8
-NORMTEIL
100
AcDbPolyline
 90
       10
 70
     1
 43
0.0
 10
1.0
 20
5.600000000000022
 10
1.0
 20
1.999999999999886
 10
-1.0
 20
2.000000000000113
 10
-1.0
 20
5.600000000000022
 10
-3.0
 20
5.600000000000022
 42
0.4142135623730951
 10
-8.0
 20
0.6000000000000228
 10
-8.0
 20
0.0
 10
8.0
 20
0.0
 10
8.0
 20
0.6000000000000228
 42
0.4142135623730927
 10
3.0
 20
5.600000000000022
  0
ENDBLK
  5
122
330
DA
100
AcDbEntity
  8
0
100
AcDbBlockEnd
  0
BLOCK
  5
C
330
B
100
AcDbEntity
  8
0
100
AcDbBlockBegin
  2
ANSICHT2035
 70
     0
 10
0.0
 20
0.0
 30
0.0
  3
ANSICHT2035
  1

  0
LWPOLYLINE
  5
D
330
B
100
AcDbEntity
  8
-VERGLASUNG
100
AcDbPolyline
 90
        4
 70
     0
 43
0.0
 10
-72.97749106091709
 20
79.99999999999968
 10
77.9999999999768
 20
79.9999999999998
 10
79.9999999999768
 20
77.9999999999998
 10
79.99999999997692
 20
-51.97920615538612
  0
HATCH
  5
F
330
B
100
AcDbEntity
  8
-SCHRAFFUR
100
AcDbHatch
 10
0.0
 20
0.0
 30
0.0
210
0.0
220
0.0
230
1.0
  2
SOLID
 70
     1
 71
     1
 91
        2
 92
        1
 93
        1
 72
     2
 10
-0.0000000000230642
 20
0.0
 40
12.82842712474625
 50
0.0
 51
360.0
 73
     1
 97
        1
330
11
 92
       16
 93
        1
 72
     2
 10
-0.0000000000230642
 20
0.0
 40
10.0
 50
0.0
 51
360.0
 73
     1
 97
        1
330
1D
 75
     0
 76
     1
 98
        1
 10
-115.3606543144287
 20
-75.92676775997318
450
        0
451
        0
460
0.0
461
0.0
452
        0
462
0.0
453
        0
470

  0
CIRCLE
  5
11
102
{ACAD_REACTORS
330
F
102
}
330
B
100
AcDbEntity
  8
-DICHTUNG
100
AcDbCircle
 10
-0.0000000000230642
 20
0.0
 30
0.0
 40
12.82842712474625
  0
CIRCLE
  5
13
330
B
100
AcDbEntity
  8
-NORMTEIL_VERDECKT
100
AcDbCircle
 10
-0.0000000000230784
 20
0.0000000000000142
 30
0.0
 40
17.5
  0
LINE
  5
16
330
B
100
AcDbEntity
  8
-SYSTEM
100
AcDbLine
 10
-0.0000000000231921
 20
23.99725072776114
 30
0.0
 11
-0.0000000000229647
 21
-23.99725072776111
 31
0.0
  0
LINE
  5
19
330
B
100
AcDbEntity
  8
-SYSTEM
100
AcDbLine
 10
23.99725072773808
 20
0.0000000000001137
 30
0.0
 11
-23.99725072778421
 21
-0.0000000000001137
 31
0.0
  0
CIRCLE
  5
1A
330
B
100
AcDbEntity
  8
-PROFILAUSSENKANTET
100
AcDbCircle
 10
-2.500000000023106
 20
-4.330127018922212
 30
0.0
 40
1.75
  0
CIRCLE
  5
1C
330
B
100
AcDbEntity
  8
-PROFILAUSSENKANTET
100
AcDbCircle
 10
-2.500000000023092
 20
4.33012701892224
 30
0.0
 40
1.75
  0
CIRCLE
  5
1D
102
{ACAD_REACTORS
330
F
102
}
330
B
100
AcDbEntity
  8
-PROFILAUSSENKANTET
100
AcDbCircle
 10
-0.0000000000230642
 20
0.0
 30
0.0
 40
10.0
  0
CIRCLE
  5
1E
330
B
100
AcDbEntity
  8
-PROFILAUSSENKANTET
100
AcDbCircle
 10
4.999999999976921
 20
0.0000000000000284
 30
0.0
 40
1.75
  0
LWPOLYLINE
  5
1F
330
B
100
AcDbEntity
  8
-TEXT2
100
AcDbPolyline
 90
        3
 70
     1
 43
0.0
 10
57.7804480400402
 20
79.99999999999971
 10
61.91438540270124
 20
87.16018954743594
 10
53.64651067737916
 20
87.16018954743594
  0
MTEXT
  5
21
330
B
100
AcDbEntity
  8
-TEXT2
100
AcDbMText
 10
49.17713572762721
 20
92.21921696654533
 30
0.0
 40
3.5
 41
17.9978
 71
     1
 72
     5
  1
{\fArial|b0|i0|c0|p34;Glaskante}
 73
     1
 44
1.0
  0
ENDBLK
  5
24
330
B
100
AcDbEntity
  8
0
100
AcDbBlockEnd
  0
BLOCK
  5
2D
330
2C
100
AcDbEntity
  8
0
100
AcDbBlockBegin
  2
*D2
 70
     1
 10
0.0
 20
0.0
 30
0.0
  3
*D2
  1

  0
LINE
  5
2E
330
2C
100
AcDbEntity
  8
-TEXT3
370
    -2
100
AcDbLine
 10
-17.50000000000057
 20
219.0029353749436
 30
0.0
 11
-17.50000000000057
 21
237.965421732173
 31
0.0
  0
LINE
  5
2F
330
2C
100
AcDbEntity
  8
-TEXT3
370
    -2
100
AcDbLine
 10
17.49999999999943
 20
219.0029353749434
 30
0.0
 11
17.49999999999943
 21
237.965421732173
 31
0.0
  0
LINE
  5
30
330
2C
100
AcDbEntity
  8
-TEXT3
370
    -2
100
AcDbLine
 10
-14.00000000000057
 20
236.465421732173
 30
0.0
 11
13.99999999999943
 21
236.465421732173
 31
0.0
  0
SOLID
  5
31
330
2C
100
AcDbEntity
  8
-TEXT3
100
AcDbTrace
 10
-14.00000000000057
 20
237.0487550655063
 30
0.0
 11
-14.00000000000057
 21
235.8820883988396
 31
0.0
 12
-17.50000000000057
 22
236.465421732173
 32
0.0
 13
-17.50000000000057
 23
236.465421732173
 33
0.0
  0
SOLID
  5
32
330
2C
100
AcDbEntity
  8
-TEXT3
100
AcDbTrace
 10
13.99999999999943
 20
237.0487550655063
 30
0.0
 11
13.99999999999943
 21
235.8820883988396
 31
0.0
 12
17.49999999999943
 22
236.465421732173
 32
0.0
 13
17.49999999999943
 23
236.465421732173
 33
0.0
  0
MTEXT
  5
33
330
2C
100
AcDbEntity
  8
-TEXT3
100
AcDbMText
 10
-0.0000000000021883
 20
239.6911185370676
 30
0.0
 40
4.0
 41
0.0
 71
     5
 72
     1
  1
\A1;%%c35
 73
     1
 44
1.0
  0
POINT
  5
34
330
2C
100
AcDbEntity
  8
DEFPOINTS
 62
     0
100
AcDbPoint
 10
-17.50000000000057
 20
217.0029353749436
 30
0.0
  0
POINT
  5
36
330
2C
100
AcDbEntity
  8
DEFPOINTS
 62
     0
100
AcDbPoint
 10
17.49999999999943
 20
217.0029353749434
 30
0.0
  0
POINT
  5
37
330
2C
100
AcDbEntity
  8
DEFPOINTS
 62
     0
100
AcDbPoint
 10
17.49999999999943
 20
236.465421732173
 30
0.0
  0
ENDBLK
  5
38
330
2C
100
AcDbEntity
  8
0
100
AcDbBlockEnd
  0
BLOCK
  5
3D
330
3C
100
AcDbEntity
  8
0
100
AcDbBlockBegin
  2
*D3
 70
     1
 10
0.0
 20
0.0
 30
0.0
  3
*D3
  1

  0
LINE
  5
3E
330
3C
100
AcDbEntity
  8
-TEXT3
370
    -2
100
AcDbLine
 10
-3.750000000000397
 20
115.4887526902817
 30
0.0
 11
-24.45791386318308
 21
115.4887526902817
 31
0.0
  0
LINE
  5
3F
330
3C
100
AcDbEntity
  8
-TEXT3
370
    -2
100
AcDbLine
 10
-3.750000000000398
 20
106.9887526902817
 30
0.0
 11
-24.45791386318308
 21
106.9887526902817
 31
0.0
  0
LINE
  5
40
330
3C
100
AcDbEntity
  8
-TEXT3
370
    -2
100
AcDbLine
 10
-22.95791386318308
 20
118.9887526902817
 30
0.0
 11
-22.95791386318308
 21
122.4887526902817
 31
0.0
  0
LINE
  5
41
330
3C
100
AcDbEntity
  8
-TEXT3
370
    -2
100
AcDbLine
 10
-22.95791386318308
 20
103.4887526902817
 30
0.0
 11
-22.95791386318308
 21
90.70663168416345
 31
0.0
  0
SOLID
  5
42
330
3C
100
AcDbEntity
  8
-TEXT3
100
AcDbTrace
 10
-23.54124719651641
 20
118.9887526902817
 30
0.0
 11
-22.37458052984975
 21
118.9887526902817
 31
0.0
 12
-22.95791386318308
 22
115.4887526902817
 32
0.0
 13
-22.95791386318308
 23
115.4887526902817
 33
0.0
  0
SOLID
  5
43
330
3C
100
AcDbEntity
  8
-TEXT3
100
AcDbTrace
 10
-23.54124719651641
 20
103.4887526902817
 30
0.0
 11
-22.37458052984975
 21
103.4887526902817
 31
0.0
 12
-22.95791386318308
 22
106.9887526902817
 32
0.0
 13
-22.95791386318308
 23
106.9887526902817
 33
0.0
  0
MTEXT
  5
44
330
3C
100
AcDbEntity
  8
-TEXT3
100
AcDbMText
 10
-26.05852569187107
 20
95.3476921872226
 30
0.0
 40
4.0
 41
0.0
 71
     5
 72
     1
  1
\A1;8.5
 11
0.0000000000000001
 21
1.0
 31
0.0
 73
     1
 44
1.0
  0
POINT
  5
45
330
3C
100
AcDbEntity
  8
DEFPOINTS
 62
     0
100
AcDbPoint
 10
-1.750000000000397
 20
115.4887526902817
 30
0.0
  0
POINT
  5
46
330
3C
100
AcDbEntity
  8
DEFPOINTS
 62
     0
100
AcDbPoint
 10
-1.750000000000397
 20
106.9887526902817
 30
0.0
  0
POINT
  5
47
330
3C
100
AcDbEntity
  8
DEFPOINTS
 62
     0
100
AcDbPoint
 10
-22.95791386318308
 20
106.9887526902817
 30
0.0
  0
ENDBLK
  5
48
330
3C
100
AcDbEntity
  8
0
100
AcDbBlockEnd
  0
BLOCK
  5
4C
330
4B
100
AcDbEntity
  8
0
100
AcDbBlockBegin
  2
*D4
 70
     1
 10
0.0
 20
0.0
 30
0.0
  3
*D4
  1

  0
LINE
  5
4D
330
4B
100
AcDbEntity
  8
-TEXT3
370
    -2
100
AcDbLine
 10
-51.7043374879471
 20
217.0029353749437
 30
0.0
 11
-56.29566251205266
 21
217.0029353749437
 31
0.0
  0
LINE
  5
4E
330
4B
100
AcDbEntity
  8
-TEXT3
370
    -2
100
AcDbLine
 10
-51.7043374879471
 20
205.002935374943
 30
0.0
 11
-56.29566251205267
 21
205.002935374943
 31
0.0
  0
LINE
  5
4F
330
4B
100
AcDbEntity
  8
-TEXT3
370
    -2
100
AcDbLine
 10
-54.79566251205266
 20
213.5029353749437
 30
0.0
 11
-54.79566251205266
 21
208.502935374943
 31
0.0
  0
SOLID
  5
50
330
4B
100
AcDbEntity
  8
-TEXT3
100
AcDbTrace
 10
-55.378995845386
 20
213.5029353749437
 30
0.0
 11
-54.21232917871932
 21
213.5029353749437
 31
0.0
 12
-54.79566251205266
 22
217.0029353749437
 32
0.0
 13
-54.79566251205266
 23
217.0029353749437
 33
0.0
  0
SOLID
  5
51
330
4B
100
AcDbEntity
  8
-TEXT3
100
AcDbTrace
 10
-55.378995845386
 20
208.502935374943
 30
0.0
 11
-54.21232917871932
 21
208.502935374943
 31
0.0
 12
-54.79566251205267
 22
205.002935374943
 32
0.0
 13
-54.79566251205267
 23
205.002935374943
 33
0.0
  0
MTEXT
  5
52
330
4B
100
AcDbEntity
  8
-TEXT3
100
AcDbMText
 10
-57.89627434074066
 20
211.0029353749434
 30
0.0
 40
4.0
 41
0.0
 71
     5
 72
     1
  1
\A1;G
 11
0.0000000000000001
 21
1.0
 31
0.0
 73
     1
 44
1.0
  0
POINT
  5
53
330
4B
100
AcDbEntity
  8
DEFPOINTS
 62
     0
100
AcDbPoint
 10
-49.7043374879471
 20
217.0029353749437
 30
0.0
  0
POINT
  5
54
330
4B
100
AcDbEntity
  8
DEFPOINTS
 62
     0
100
AcDbPoint
 10
-49.7043374879471
 20
205.002935374943
 30
0.0
  0
POINT
  5
55
330
4B
100
AcDbEntity
  8
DEFPOINTS
 62
     0
100
AcDbPoint
 10
-54.79566251205267
 20
205.002935374943
 30
0.0
  0
ENDBLK
  5
56
330
4B
100
AcDbEntity
  8
0
100
AcDbBlockEnd
  0
BLOCK
  5
59
330
58
100
AcDbEntity
  8
0
100
AcDbBlockBegin
  2
*D5
 70
     1
 10
0.0
 20
0.0
 30
0.0
  3
*D5
  1

  0
LINE
  5
5A
330
58
100
AcDbEntity
  8
-TEXT3
370
    -2
100
AcDbLine
 10
-20.79566251205287
 20
202.0029353749429
 30
0.0
 11
-56.29566251205279
 21
202.0029353749429
 31
0.0
  0
LINE
  5
5B
330
58
100
AcDbEntity
  8
-TEXT3
370
    -2
100
AcDbLine
 10
-19.50000000000045
 20
182.0029353749428
 30
0.0
 11
-56.29566251205279
 21
182.0029353749428
 31
0.0
  0
LINE
  5
5C
330
58
100
AcDbEntity
  8
-TEXT3
370
    -2
100
AcDbLine
 10
-54.79566251205278
 20
198.5029353749429
 30
0.0
 11
-54.79566251205278
 21
185.5029353749428
 31
0.0
  0
SOLID
  5
5D
330
58
100
AcDbEntity
  8
-TEXT3
100
AcDbTrace
 10
-55.37899584538612
 20
198.5029353749429
 30
0.0
 11
-54.21232917871945
 21
198.5029353749429
 31
0.0
 12
-54.79566251205278
 22
202.0029353749429
 32
0.0
 13
-54.79566251205278
 23
202.0029353749429
 33
0.0
  0
SOLID
  5
5E
330
58
100
AcDbEntity
  8
-TEXT3
100
AcDbTrace
 10
-55.37899584538612
 20
185.5029353749428
 30
0.0
 11
-54.21232917871945
 21
185.5029353749428
 31
0.0
 12
-54.79566251205278
 22
182.0029353749428
 32
0.0
 13
-54.79566251205278
 23
182.0029353749428
 33
0.0
  0
MTEXT
  5
5F
330
58
100
AcDbEntity
  8
-TEXT3
100
AcDbMText
 10
-57.89627434074078
 20
192.0029353749428
 30
0.0
 40
4.0
 41
0.0
 71
     5
 72
     1
  1
\A1;20
 11
0.0000000000000001
 21
1.0
 31
0.0
 73
     1
 44
1.0
  0
POINT
  5
60
330
58
100
AcDbEntity
  8
DEFPOINTS
 62
     0
100
AcDbPoint
 10
-18.79566251205287
 20
202.0029353749429
 30
0.0
  0
POINT
  5
61
330
58
100
AcDbEntity
  8
DEFPOINTS
 62
     0
100
AcDbPoint
 10
-17.50000000000045
 20
182.0029353749428
 30
0.0
  0
POINT
  5
62
330
58
100
AcDbEntity
  8
DEFPOINTS
 62
     0
100
AcDbPoint
 10
-54.79566251205278
 20
182.0029353749428
 30
0.0
  0
ENDBLK
  5
63
330
58
100
AcDbEntity
  8
0
100
AcDbBlockEnd
  0
BLOCK
  5
66
330
65
100
AcDbEntity
  8
0
100
AcDbBlockBegin
  2
*D6
 70
     1
 10
0.0
 20
0.0
 30
0.0
  3
*D6
  1

  0
LINE
  5
67
330
65
100
AcDbEntity
  8
-TEXT3
370
    -2
100
AcDbLine
 10
-51.7043374879471
 20
205.002935374943
 30
0.0
 11
-56.29566251205265
 21
205.002935374943
 31
0.0
  0
LINE
  5
68
330
65
100
AcDbEntity
  8
-TEXT3
370
    -2
100
AcDbLine
 10
-19.50000000000008
 20
202.0029353749429
 30
0.0
 11
-56.29566251205265
 21
202.0029353749429
 31
0.0
  0
LINE
  5
69
330
65
100
AcDbEntity
  8
-TEXT3
370
    -2
100
AcDbLine
 10
-54.79566251205263
 20
208.502935374943
 30
0.0
 11
-54.79566251205263
 21
212.002935374943
 31
0.0
  0
LINE
  5
6A
330
65
100
AcDbEntity
  8
-TEXT3
370
    -2
100
AcDbLine
 10
-54.79566251205264
 20
198.5029353749429
 30
0.0
 11
-54.79566251205264
 21
195.0029353749429
 31
0.0
  0
SOLID
  5
6B
330
65
100
AcDbEntity
  8
-TEXT3
100
AcDbTrace
 10
-55.37899584538597
 20
208.502935374943
 30
0.0
 11
-54.2123291787193
 21
208.502935374943
 31
0.0
 12
-54.79566251205264
 22
205.002935374943
 32
0.0
 13
-54.79566251205264
 23
205.002935374943
 33
0.0
  0
SOLID
  5
6C
330
65
100
AcDbEntity
  8
-TEXT3
100
AcDbTrace
 10
-55.37899584538598
 20
198.5029353749429
 30
0.0
 11
-54.21232917871931
 21
198.5029353749429
 31
0.0
 12
-54.79566251205264
 22
202.0029353749429
 32
0.0
 13
-54.79566251205264
 23
202.0029353749429
 33
0.0
  0
MTEXT
  5
6D
330
65
100
AcDbEntity
  8
-TEXT3
100
AcDbMText
 10
-57.89627434074064
 20
203.5029353749429
 30
0.0
 40
4.0
 41
0.0
 71
     5
 72
     1
  1
\A1;3
 11
0.0000000000000001
 21
1.0
 31
0.0
 73
     1
 44
1.0
  0
POINT
  5
6E
330
65
100
AcDbEntity
  8
DEFPOINTS
 62
     0
100
AcDbPoint
 10
-49.7043374879471
 20
205.002935374943
 30
0.0
  0
POINT
  5
6F
330
65
100
AcDbEntity
  8
DEFPOINTS
 62
     0
100
AcDbPoint
 10
-17.50000000000008
 20
202.0029353749429
 30
0.0
  0
POINT
  5
70
330
65
100
AcDbEntity
  8
DEFPOINTS
 62
     0
100
AcDbPoint
 10
-54.79566251205264
 20
202.0029353749429
 30
0.0
  0
ENDBLK
  5
71
330
65
100
AcDbEntity
  8
0
100
AcDbBlockEnd
  0
BLOCK
  5
79
330
78
100
AcDbEntity
  8
0
100
AcDbBlockBegin
  2
*D7
 70
     1
 10
0.0
 20
0.0
 30
0.0
  3
*D7
  1

  0
LINE
  5
7A
330
78
100
AcDbEntity
  8
-TEXT3
370
    -2
100
AcDbLine
 10
-6.000000000000397
 20
113.2387526902817
 30
0.0
 11
-6.000000000000396
 21
135.2566163802207
 31
0.0
  0
LINE
  5
7B
330
78
100
AcDbEntity
  8
-TEXT3
370
    -2
100
AcDbLine
 10
5.999999999999545
 20
113.2387526902817
 30
0.0
 11
5.999999999999547
 21
135.2566163802207
 31
0.0
  0
LINE
  5
7C
330
78
100
AcDbEntity
  8
-TEXT3
370
    -2
100
AcDbLine
 10
-2.500000000000396
 20
133.7566163802207
 30
0.0
 11
2.499999999999547
 21
133.7566163802207
 31
0.0
  0
SOLID
  5
7D
330
78
100
AcDbEntity
  8
-TEXT3
100
AcDbTrace
 10
-2.500000000000396
 20
134.339949713554
 30
0.0
 11
-2.500000000000396
 21
133.1732830468874
 31
0.0
 12
-6.000000000000396
 22
133.7566163802207
 32
0.0
 13
-6.000000000000396
 23
133.7566163802207
 33
0.0
  0
SOLID
  5
7E
330
78
100
AcDbEntity
  8
-TEXT3
100
AcDbTrace
 10
2.499999999999547
 20
134.339949713554
 30
0.0
 11
2.499999999999547
 21
133.1732830468874
 31
0.0
 12
5.999999999999547
 22
133.7566163802207
 32
0.0
 13
5.999999999999547
 23
133.7566163802207
 33
0.0
  0
MTEXT
  5
7F
330
78
100
AcDbEntity
  8
-TEXT3
100
AcDbMText
 10
-0.0000000000004261
 20
136.8069222945647
 30
0.0
 40
4.0
 41
0.0
 71
     5
 72
     1
  1
\A1;12
 73
     1
 44
1.0
  0
POINT
  5
80
330
78
100
AcDbEntity
  8
DEFPOINTS
 62
     0
100
AcDbPoint
 10
-6.000000000000397
 20
111.2387526902817
 30
0.0
  0
POINT
  5
81
330
78
100
AcDbEntity
  8
DEFPOINTS
 62
     0
100
AcDbPoint
 10
5.999999999999545
 20
111.2387526902817
 30
0.0
  0
POINT
  5
82
330
78
100
AcDbEntity
  8
DEFPOINTS
 62
     0
100
AcDbPoint
 10
5.999999999999547
 20
133.7566163802207
 30
0.0
  0
ENDBLK
  5
83
330
78
100
AcDbEntity
  8
0
100
AcDbBlockEnd
  0
BLOCK
  5
AD
330
AC
100
AcDbEntity
  8
0
100
AcDbBlockBegin
  2
*D8
 70
     1
 10
0.0
 20
0.0
 30
0.0
  3
*D8
  1

  0
LINE
  5
AE
330
AC
100
AcDbEntity
  8
-TEXT3
370
    -2
100
AcDbLine
 10
-13.00000000000051
 20
219.0029353749435
 30
0.0
 11
-13.00000000000051
 21
228.606161557619
 31
0.0
  0
LINE
  5
AF
330
AC
100
AcDbEntity
  8
-TEXT3
370
    -2
100
AcDbLine
 10
12.99999999999949
 20
219.0029353749435
 30
0.0
 11
12.99999999999949
 21
228.606161557619
 31
0.0
  0
LINE
  5
B0
330
AC
100
AcDbEntity
  8
-TEXT3
370
    -2
100
AcDbLine
 10
-9.500000000000511
 20
227.106161557619
 30
0.0
 11
9.499999999999488
 21
227.106161557619
 31
0.0
  0
SOLID
  5
B1
330
AC
100
AcDbEntity
  8
-TEXT3
100
AcDbTrace
 10
-9.500000000000511
 20
227.6894948909523
 30
0.0
 11
-9.500000000000511
 21
226.5228282242856
 31
0.0
 12
-13.00000000000051
 22
227.106161557619
 32
0.0
 13
-13.00000000000051
 23
227.106161557619
 33
0.0
  0
SOLID
  5
B2
330
AC
100
AcDbEntity
  8
-TEXT3
100
AcDbTrace
 10
9.499999999999488
 20
227.6894948909523
 30
0.0
 11
9.499999999999488
 21
226.5228282242856
 31
0.0
 12
12.99999999999949
 22
227.106161557619
 32
0.0
 13
12.99999999999949
 23
227.106161557619
 33
0.0
  0
MTEXT
  5
B3
330
AC
100
AcDbEntity
  8
-TEXT3
100
AcDbMText
 10
-0.0000000000005114
 20
230.3318583625136
 30
0.0
 40
4.0
 41
0.0
 71
     5
 72
     1
  1
\A1;%%c26
 73
     1
 44
1.0
  0
POINT
  5
B4
330
AC
100
AcDbEntity
  8
DEFPOINTS
 62
     0
100
AcDbPoint
 10
-13.00000000000051
 20
217.0029353749435
 30
0.0
  0
POINT
  5
B5
330
AC
100
AcDbEntity
  8
DEFPOINTS
 62
     0
100
AcDbPoint
 10
12.99999999999949
 20
217.0029353749435
 30
0.0
  0
POINT
  5
B6
330
AC
100
AcDbEntity
  8
DEFPOINTS
 62
     0
100
AcDbPoint
 10
12.99999999999949
 20
227.106161557619
 30
0.0
  0
ENDBLK
  5
B7
330
AC
100
AcDbEntity
  8
0
100
AcDbBlockEnd
  0
ENDSEC
  0
SECTION
  2
ENTITIES
  0
INSERT
  5
9
330
2
100
AcDbEntity
  8
-TEXT3
100
AcDbBlockReference
  2
ANSICHT2035
 10
0.0000000000230784
 20
0.0
 30
0.0
  0
LWPOLYLINE
  5
25
330
2
100
AcDbEntity
  8
-NORMTEIL_VERDECKT
100
AcDbPolyline
 90
        6
 70
     0
 43
0.0
 10
-13.00000000000051
 20
217.0029353749435
 10
-15.82842712474672
 20
217.0029353749435
 10
-10.90000000000054
 20
212.0745082501973
 10
-10.90000000000054
 20
211.0029353749435
 10
-9.050000000000522
 20
211.0029353749435
 10
-9.050000000000522
 20
212.5529353749435
  0
HATCH
  5
26
330
2
100
AcDbEntity
  8
-SCHRAFFUR
100
AcDbHatch
 10
0.0
 20
0.0
 30
0.0
210
0.0
220
0.0
230
1.0
  2
SOLID
 70
     1
 71
     1
 91
        1
 92
        1
 93
        4
 72
     1
 10
-16.99999999999983
 20
202.0029353749429
 11
17.00000000000011
 21
202.0029353749428
 72
     1
 10
17.00000000000011
 20
202.0029353749428
 11
17.00000000000017
 21
205.0029353749428
 72
     1
 10
17.00000000000017
 20
205.0029353749428
 11
-16.99999999999983
 21
205.0029353749429
 72
     1
 10
-16.99999999999983
 20
205.0029353749429
 11
-16.99999999999983
 21
202.0029353749429
 97
        1
330
27
 75
     0
 76
     1
 98
        1
 10
-116.7547086937333
 20
-21.72717951290987
450
        0
451
        0
460
0.0
461
0.0
452
        0
462
0.0
453
        0
470

  0
LWPOLYLINE
  5
27
102
{ACAD_REACTORS
330
26
102
}
330
2
100
AcDbEntity
  8
-DICHTUNG
100
AcDbPolyline
 90
        4
 70
     1
 43
0.0
 10
-16.99999999999983
 20
202.0029353749429
 10
17.00000000000011
 20
202.0029353749428
 10
17.00000000000017
 20
205.0029353749428
 10
-16.99999999999983
 20
205.0029353749429
  0
MTEXT
  5
28
330
2
100
AcDbEntity
  8
-TEXT2
100
AcDbMText
 10
-58.9724382220162
 20
174.5838699062423
 30
0.0
 40
4.0
 41
43.30449999999999
 71
     1
 72
     5
  1
Zylinderk.-Schr.\PDIN6912-M8
 73
     1
 44
1.0
  0
LWPOLYLINE
  5
29
330
2
100
AcDbEntity
  8
-PROFILAUSSENKANTET
100
AcDbPolyline
 90
        4
 70
     0
 43
0.0
 10
-16.9500000000005
 20
202.0029353749429
 10
-17.50000000000045
 20
202.0029353749428
 10
-17.50000000000045
 20
182.0029353749428
 10
17.49999999999954
 20
182.0029353749428
  0
DIMENSION
  5
2A
330
2
100
AcDbEntity
  8
-TEXT3
100
AcDbDimension
  2
*D2
 10
17.49999999999943
 20
236.465421732173
 30
0.0
 11
-0.0000000000021885
 21
236.465421732173
 31
0.0
 70
   128
  1
%%c<>
 71
     5
 42
35.0
  3
1-1PRO
100
AcDbAlignedDimension
 13
-17.50000000000057
 23
217.0029353749436
 33
0.0
 14
17.49999999999943
 24
217.0029353749434
 34
0.0
100
AcDbRotatedDimension
1001
ACAD
1000
DSTYLE
1002
{
1002
}
  0
CIRCLE
  5
39
330
2
100
AcDbEntity
  8
-PROFILAUSSENKANTET
100
AcDbCircle
 10
-0.0000000000004263
 20
111.2387526902817
 30
0.0
 40
17.5
  0
LINE
  5
3A
330
2
100
AcDbEntity
  8
-SYSTEM
100
AcDbLine
 10
21.07817331648476
 20
111.2387526902817
 30
0.0
 11
-21.07817331648562
 21
111.2387526902817
 31
0.0
  0
DIMENSION
  5
3B
330
2
100
AcDbEntity
  8
-TEXT3
100
AcDbDimension
  2
*D3
 10
-22.95791386318308
 20
106.9887526902817
 30
0.0
 11
-26.05852569187107
 21
95.3476921872226
 31
0.0
 71
     5
 42
8.5
  3
1-1PRO
100
AcDbAlignedDimension
 13
-1.750000000000397
 23
115.4887526902817
 33
0.0
 14
-1.750000000000397
 24
106.9887526902817
 34
0.0
 50
90.0
100
AcDbRotatedDimension
  0
MTEXT
  5
49
330
2
100
AcDbEntity
  8
-TEXT2
100
AcDbMText
 10
-60.5235267879616
 20
148.5552579216204
 30
0.0
 40
4.0
 41
56.11394264854585
 71
     1
 72
     5
  1
Schaft mit Langloch um Toleranzen aus- zugleichen
 73
     1
 44
1.0
  0
DIMENSION
  5
4A
330
2
100
AcDbEntity
  8
-TEXT3
100
AcDbDimension
  2
*D4
 10
-54.79566251205267
 20
205.002935374943
 30
0.0
 11
-57.89627434074066
 21
211.0029353749434
 31
0.0
  1
G
 71
     5
 42
12.00000000000068
  3
1-1PRO
100
AcDbAlignedDimension
 13
-49.7043374879471
 23
217.0029353749437
 33
0.0
 14
-49.7043374879471
 24
205.002935374943
 34
0.0
 50
90.0
100
AcDbRotatedDimension
  0
DIMENSION
  5
57
330
2
100
AcDbEntity
  8
-TEXT3
100
AcDbDimension
  2
*D5
 10
-54.79566251205278
 20
182.0029353749428
 30
0.0
 11
-57.89627434074078
 21
192.0029353749428
 31
0.0
 71
     5
 42
20.00000000000006
  3
1-1PRO
100
AcDbAlignedDimension
 13
-18.79566251205287
 23
202.0029353749429
 33
0.0
 14
-17.50000000000045
 24
182.0029353749428
 34
0.0
 50
90.0
100
AcDbRotatedDimension
  0
DIMENSION
  5
64
330
2
100
AcDbEntity
  8
-TEXT3
100
AcDbDimension
  2
*D6
 10
-54.79566251205264
 20
202.0029353749429
 30
0.0
 11
-54.79566251205267
 21
203.5029353749429
 31
0.0
 70
   128
 71
     5
 42
3.000000000000113
  3
1-1PRO
100
AcDbAlignedDimension
 13
-49.7043374879471
 23
205.002935374943
 33
0.0
 14
-17.50000000000008
 24
202.0029353749429
 34
0.0
 50
90.0
100
AcDbRotatedDimension
  0
LINE
  5
72
330
2
100
AcDbEntity
  8
-SYSTEM
100
AcDbLine
 10
-0.0000000000005684
 20
224.9666523408409
 30
0.0
 11
-0.0000000000003979
 21
153.5323731885794
 31
0.0
  0
LWPOLYLINE
  5
73
330
2
100
AcDbEntity
  8
-PROFILAUSSENKANTET
100
AcDbPolyline
 90
        4
 70
     1
 43
0.0
 10
1.749999999999545
 20
115.4887526902817
 10
-1.750000000000397
 20
115.4887526902817
 42
1.0
 10
-1.750000000000397
 20
106.9887526902817
 10
1.749999999999545
 20
106.9887526902817
 42
1.0
  0
CIRCLE
  5
74
330
2
100
AcDbEntity
  8
-PROFILAUSSENKANTET
100
AcDbCircle
 10
-0.0000000000004832
 20
111.2387526902817
 30
0.0
 40
8.458500000000015
  0
ARC
  5
75
330
2
100
AcDbEntity
  8
-SCHRAFFUR
100
AcDbCircle
 10
-0.0000000000004832
 20
111.2387526902817
 30
0.0
 40
9.0
100
AcDbArc
 50
200.0000000000001
 51
109.9999999999982
  0
CIRCLE
  5
76
330
2
100
AcDbEntity
  8
-PROFILAUSSENKANTET
100
AcDbCircle
 10
-0.0000000000004832
 20
111.2387526902817
 30
0.0
 40
10.00000000000005
  0
DIMENSION
  5
77
330
2
100
AcDbEntity
  8
-TEXT3
100
AcDbDimension
  2
*D7
 10
5.999999999999547
 20
133.7566163802207
 30
0.0
 11
-0.0000000000004263
 21
133.7566163802207
 31
0.0
 70
   128
 71
     5
 42
11.99999999999994
  3
1-1PRO
100
AcDbAlignedDimension
 13
-6.000000000000397
 23
111.2387526902817
 33
0.0
 14
5.999999999999545
 24
111.2387526902817
 34
0.0
100
AcDbRotatedDimension
  0
LINE
  5
84
330
2
100
AcDbEntity
  8
-SYSTEM
100
AcDbLine
 10
-0.0000000000004263
 20
132.3169260067669
 30
0.0
 11
-0.0000000000004263
 21
90.16057937379654
 31
0.0
  0
LWPOLYLINE
  5
85
330
2
100
AcDbEntity
  8
-NORMTEIL_VERDECKT
100
AcDbPolyline
 90
        6
 70
     0
 43
0.0
 10
12.99999999999949
 20
217.0029353749435
 10
15.8284271247457
 20
217.0029353749435
 10
10.89999999999946
 20
212.0745082501973
 10
10.89999999999946
 20
211.0029353749435
 10
9.049999999999471
 20
211.0029353749435
 10
9.049999999999471
 20
212.5529353749435
  0
LWPOLYLINE
  5
86
330
2
100
AcDbEntity
  8
-NORMTEIL_VERDECKT
100
AcDbPolyline
 90
        6
 70
     1
 43
0.0
 10
12.99999999999949
 20
217.0029353749435
 10
12.99999999999949
 20
216.5029353749435
 10
8.999999999999488
 20
212.5029353749435
 10
-9.000000000000511
 20
212.5029353749435
 10
-13.00000000000051
 20
216.5029353749435
 10
-13.00000000000051
 20
217.0029353749435
  0
LINE
  5
87
330
2
100
AcDbEntity
  8
-NORMTEIL_VERDECKT
100
AcDbLine
 10
-9.000000000000483
 20
202.8149353749435
 30
0.0
 11
8.999999999999573
 21
202.8149353749433
 31
0.0
  0
LWPOLYLINE
  5
88
330
2
100
AcDbEntity
  8
-NORMTEIL_VERDECKT
100
AcDbPolyline
 90
        6
 70
     1
 43
0.0
 10
-6.500000000000454
 20
185.0029353749428
 10
6.499999999999545
 20
185.0029353749428
 10
6.499999999999545
 20
189.0029353749428
 42
0.4142135623730951
 10
5.499999999999545
 20
190.0029353749428
 10
-5.500000000000454
 20
190.0029353749428
 42
0.4142135623730951
 10
-6.500000000000454
 20
189.0029353749428
  0
LINE
  5
89
330
2
100
AcDbEntity
  8
-NORMTEIL_VERDECKT
100
AcDbLine
 10
-9.00000000000054
 20
210.5029353749435
 30
0.0
 11
8.999999999999545
 21
210.5029353749435
 31
0.0
  0
LWPOLYLINE
  5
8A
330
2
100
AcDbEntity
  8
-NORMTEIL_VERDECKT
100
AcDbPolyline
 90
        6
 70
     0
 43
0.0
 10
-9.00000000000054
 20
212.5029353749435
 10
-9.000000000000483
 20
202.8149353749435
 10
-8.458500000000583
 20
202.0029353749435
 10
8.45849999999956
 20
202.0029353749435
 10
8.999999999999545
 20
202.8149353749433
 10
8.999999999999545
 20
212.5029353749435
  0
LWPOLYLINE
  5
8B
330
2
100
AcDbEntity
  8
-NORMTEIL_VERDECKT
100
AcDbPolyline
 90
        6
 70
     0
 43
0.0
 10
8.458499999999531
 20
208.6909353749426
 10
8.458499999999531
 20
185.0029353749428
 10
-8.458500000000469
 20
185.0029353749428
 10
-8.45850000000081
 20
208.690935374943
 10
-9.000000000000454
 20
209.5029353749428
 10
-10.00000000000054
 20
209.5029353749428
  0
LINE
  5
8C
330
2
100
AcDbEntity
  8
-NORMTEIL_VERDECKT
100
AcDbLine
 10
-10.00000000000054
 20
209.5029353749428
 30
0.0
 11
9.999999999999431
 21
209.5029353749428
 31
0.0
  0
LINE
  5
8D
330
2
100
AcDbEntity
  8
-NORMTEIL_VERDECKT
100
AcDbLine
 10
1.443375672973616
 20
190.0029353749428
 30
0.0
 11
1.443375672973616
 21
187.0029353749428
 31
0.0
  0
LINE
  5
8E
330
2
100
AcDbEntity
  8
-NORMTEIL_VERDECKT
100
AcDbLine
 10
-1.443375672974525
 20
190.0029353749428
 30
0.0
 11
-1.443375672974525
 21
187.0029353749428
 31
0.0
  0
LWPOLYLINE
  5
8F
330
2
100
AcDbEntity
  8
-NORMTEIL_VERDECKT
100
AcDbPolyline
 90
        4
 70
     0
 43
0.0
 10
-2.886751345948596
 20
190.0029353749428
 10
-2.886751345948596
 20
187.0029353749428
 10
2.886751345947686
 20
187.0029353749428
 10
2.886751345947686
 20
190.0029353749428
  0
LINE
  5
90
330
2
100
AcDbEntity
  8
-NORMTEIL_VERDECKT
100
AcDbLine
 10
-6.000000000000454
 20
182.0029353749428
 30
0.0
 11
-6.000000000000454
 21
185.0029353749428
 31
0.0
  0
LINE
  5
91
330
2
100
AcDbEntity
  8
-SCHRAFFUR
100
AcDbLine
 10
-3.233000000000458
 20
170.0029353749428
 30
0.0
 11
-3.233000000000458
 21
182.0029353749428
 31
0.0
  0
LWPOLYLINE
  5
92
330
2
100
AcDbEntity
  8
-NORMTEIL
100
AcDbPolyline
 90
        6
 70
     0
 43
0.0
 10
-4.000000000000454
 20
182.0029353749428
 10
-4.000000000000454
 20
170.7699353749428
 10
-3.233000000000458
 20
170.0029353749428
 10
3.232999999999549
 20
170.0029353749428
 10
3.999999999999545
 20
170.7699353749428
 10
3.999999999999545
 20
182.0029353749428
  0
LINE
  5
94
330
2
100
AcDbEntity
  8
-SCHRAFFUR
100
AcDbLine
 10
3.232999999999549
 20
170.0029353749428
 30
0.0
 11
3.232999999999549
 21
182.0029353749428
 31
0.0
  0
LINE
  5
95
330
2
100
AcDbEntity
  8
-SCHRAFFUR
100
AcDbLine
 10
-4.000000000000454
 20
170.7699353749428
 30
0.0
 11
3.999999999999545
 21
170.7699353749428
 31
0.0
  0
LINE
  5
96
330
2
100
AcDbEntity
  8
-NORMTEIL_VERDECKT
100
AcDbLine
 10
-4.000000000000454
 20
185.0029353749428
 30
0.0
 11
3.999999999999545
 21
185.0029353749428
 31
0.0
  0
LINE
  5
97
330
2
100
AcDbEntity
  8
-NORMTEIL_VERDECKT
100
AcDbLine
 10
-4.000000000000454
 20
182.0029353749428
 30
0.0
 11
-4.000000000000454
 21
185.0029353749428
 31
0.0
  0
LINE
  5
98
330
2
100
AcDbEntity
  8
-NORMTEIL_VERDECKT
100
AcDbLine
 10
-3.233000000000458
 20
182.0029353749428
 30
0.0
 11
-3.233000000000458
 21
185.0029353749428
 31
0.0
  0
LINE
  5
99
330
2
100
AcDbEntity
  8
-NORMTEIL_VERDECKT
100
AcDbLine
 10
3.232999999999549
 20
182.0029353749428
 30
0.0
 11
3.232999999999549
 21
185.0029353749428
 31
0.0
  0
LINE
  5
9A
330
2
100
AcDbEntity
  8
-NORMTEIL_VERDECKT
100
AcDbLine
 10
3.999999999999545
 20
182.0029353749428
 30
0.0
 11
3.999999999999545
 21
185.0029353749428
 31
0.0
  0
LINE
  5
9B
330
2
100
AcDbEntity
  8
-NORMTEIL_VERDECKT
100
AcDbLine
 10
-9.000000000000511
 20
202.8149353749435
 30
0.0
 11
-9.000000000000511
 21
199.0029353749428
 31
0.0
  0
LINE
  5
9C
330
2
100
AcDbEntity
  8
-NORMTEIL_VERDECKT
100
AcDbLine
 10
-9.000000000000511
 20
199.002935374943
 30
0.0
 11
-8.458500000000697
 21
193.7992131424962
 31
0.0
  0
LINE
  5
9D
330
2
100
AcDbEntity
  8
-NORMTEIL_VERDECKT
100
AcDbLine
 10
-9.000000000000511
 20
199.002935374943
 30
0.0
 11
-8.458500000000697
 21
199.002935374943
 31
0.0
  0
LINE
  5
9E
330
2
100
AcDbEntity
  8
-NORMTEIL_VERDECKT
100
AcDbLine
 10
-10.00000000000054
 20
211.0029353749435
 30
0.0
 11
-10.00000000000054
 21
202.0029353749429
 31
0.0
  0
LINE
  5
9F
330
2
100
AcDbEntity
  8
-NORMTEIL_VERDECKT
100
AcDbLine
 10
-9.00000000000054
 20
212.5029353749435
 30
0.0
 11
-9.00000000000054
 21
202.0029353749429
 31
0.0
  0
LINE
  5
A0
330
2
100
AcDbEntity
  8
-NORMTEIL_VERDECKT
100
AcDbLine
 10
-8.45850000000081
 20
208.690935374943
 30
0.0
 11
-8.458500000000867
 21
210.5029353749435
 31
0.0
  0
LWPOLYLINE
  5
A1
330
2
100
AcDbEntity
  8
-PROFILAUSSENKANTET
100
AcDbPolyline
 90
        4
 70
     0
 43
0.0
 10
17.49999999999954
 20
182.0029353749428
 10
17.49999999999954
 20
182.0029353749428
 10
17.49999999999954
 20
202.0029353749428
 10
16.94999999999948
 20
202.0029353749428
  0
LINE
  5
A2
330
2
100
AcDbEntity
  8
-NORMTEIL_VERDECKT
100
AcDbLine
 10
5.999999999999545
 20
182.0029353749428
 30
0.0
 11
5.999999999999545
 21
185.0029353749428
 31
0.0
  0
LINE
  5
A3
330
2
100
AcDbEntity
  8
-NORMTEIL_VERDECKT
100
AcDbLine
 10
8.999999999999573
 20
202.8149353749433
 30
0.0
 11
8.999999999999516
 21
199.0029353749427
 31
0.0
  0
LINE
  5
A4
330
2
100
AcDbEntity
  8
-NORMTEIL_VERDECKT
100
AcDbLine
 10
8.999999999999516
 20
199.0029353749427
 30
0.0
 11
8.458499999999531
 21
193.799213142496
 31
0.0
  0
LINE
  5
A5
330
2
100
AcDbEntity
  8
-NORMTEIL_VERDECKT
100
AcDbLine
 10
8.458499999999531
 20
199.0029353749428
 30
0.0
 11
8.999999999999516
 21
199.0029353749425
 31
0.0
  0
LINE
  5
A6
330
2
100
AcDbEntity
  8
-NORMTEIL_VERDECKT
100
AcDbLine
 10
9.999999999999431
 20
211.0029353749435
 30
0.0
 11
9.999999999999374
 21
202.0029353749428
 31
0.0
  0
LINE
  5
A7
330
2
100
AcDbEntity
  8
-NORMTEIL_VERDECKT
  6
Continuous
100
AcDbLine
 10
8.999999999999488
 20
212.5029353749435
 30
0.0
 11
8.232999999999321
 21
212.5029353749435
 31
0.0
  0
LINE
  5
A8
330
2
100
AcDbEntity
  8
-NORMTEIL_VERDECKT
100
AcDbLine
 10
8.458499999999503
 20
210.5029353749435
 30
0.0
 11
8.458499999999503
 21
208.6909353749426
 31
0.0
  0
LINE
  5
A9
330
2
100
AcDbEntity
  8
-NORMTEIL_VERDECKT
100
AcDbLine
 10
5.249999999999488
 20
214.002935374943
 30
0.0
 11
8.749999999999488
 21
214.002935374943
 31
0.0
  0
LWPOLYLINE
  5
AA
330
2
100
AcDbEntity
  8
-NORMTEIL_VERDECKT
100
AcDbPolyline
 90
        5
 70
     0
 43
0.0
 10
5.249999999999488
 20
217.002935374943
 10
5.249999999999488
 20
214.002935374943
 10
6.999999999999488
 20
213.002935374943
 10
8.749999999999488
 20
214.002935374943
 10
8.749999999999488
 20
217.002935374943
  0
DIMENSION
  5
AB
330
2
100
AcDbEntity
  8
-TEXT3
100
AcDbDimension
  2
*D8
 10
12.99999999999949
 20
227.106161557619
 30
0.0
 11
-0.0000000000005114
 21
230.3318583625136
 31
0.0
  1
%%c<>
 71
     5
 42
26.0
  3
1-1PRO
100
AcDbAlignedDimension
 13
-13.00000000000051
 23
217.0029353749435
 33
0.0
 14
12.99999999999949
 24
217.0029353749435
 34
0.0
100
AcDbRotatedDimension
  0
LINE
  5
B8
330
2
100
AcDbEntity
  8
-NORMTEIL_VERDECKT
100
AcDbLine
 10
-5.271981164028545
 20
214.0029353749435
 30
0.0
 11
-1.771981164028773
 21
214.0029353749435
 31
0.0
  0
LWPOLYLINE
  5
B9
330
2
100
AcDbEntity
  8
-NORMTEIL_VERDECKT
100
AcDbPolyline
 90
        5
 70
     0
 43
0.0
 10
-5.271981164028545
 20
217.0029353749435
 10
-5.271981164028545
 20
214.0029353749435
 10
-3.500000000000397
 20
213.0029353749435
 10
-1.771981164028773
 20
214.0029353749435
 10
-1.771981164028659
 20
217.0029353749435
  0
LWPOLYLINE
  5
BA
330
2
100
AcDbEntity
  8
-VERGLASUNG
100
AcDbPolyline
 90
        6
 70
     0
 43
0.0
 10
-49.70433748794707
 20
217.0029353749437
 10
77.99999999999949
 20
217.0029353749431
 10
79.99999999999949
 20
215.0029353749431
 10
79.99999999999954
 20
207.0029353749427
 10
77.99999999999954
 20
205.0029353749427
 10
-49.70433748794707
 20
205.002935374943
  0
LINE
  5
BB
330
2
100
AcDbEntity
  8
-VERGLASUNG
100
AcDbLine
 10
40.84820689973517
 20
213.1090604138958
 30
0.0
 11
44.74208171936121
 21
217.0029352335218
 31
0.0
  0
LINE
  5
BC
330
2
100
AcDbEntity
  8
-VERGLASUNG
100
AcDbLine
 10
39.28570689973517
 20
213.1090604138958
 30
0.0
 11
43.17958171936121
 21
217.0029352335218
 31
0.0
  0
LINE
  5
BD
330
2
100
AcDbEntity
  8
-VERGLASUNG
100
AcDbLine
 10
42.41070689973517
 20
213.1090604138958
 30
0.0
 11
46.30458171936121
 21
217.0029352335218
 31
0.0
  0
LINE
  5
BE
330
2
100
AcDbEntity
  8
-VERGLASUNG
100
AcDbLine
 10
42.50329233572588
 20
205.0029352335211
 30
0.0
 11
46.39716715535192
 21
208.8968100531471
 31
0.0
  0
LINE
  5
BF
330
2
100
AcDbEntity
  8
-VERGLASUNG
100
AcDbLine
 10
44.06579233572588
 20
205.0029352335211
 30
0.0
 11
47.95966715535192
 21
208.8968100531471
 31
0.0
  0
LINE
  5
C0
330
2
100
AcDbEntity
  8
-VERGLASUNG
100
AcDbLine
 10
45.62829233572588
 20
205.0029352335211
 30
0.0
 11
49.52216715535195
 21
208.8968100531471
 31
0.0
  0
LINE
  5
C1
330
2
100
AcDbEntity
  8
-VERGLASUNG
100
AcDbLine
 10
64.77596385385772
 20
213.1090604846065
 30
0.0
 11
68.66983867348375
 21
217.0029353042325
 31
0.0
  0
LINE
  5
C2
330
2
100
AcDbEntity
  8
-VERGLASUNG
100
AcDbLine
 10
66.33846385385772
 20
213.1090604846065
 30
0.0
 11
70.23233867348375
 21
217.0029353042325
 31
0.0
  0
LINE
  5
C3
330
2
100
AcDbEntity
  8
-VERGLASUNG
100
AcDbLine
 10
63.21346385385772
 20
213.1090604846065
 30
0.0
 11
67.10733867348375
 21
217.0029353042325
 31
0.0
  0
LINE
  5
C4
330
2
100
AcDbEntity
  8
-VERGLASUNG
100
AcDbLine
 10
66.43104928984843
 20
205.0029353042318
 30
0.0
 11
70.32492410947447
 21
208.8968101238579
 31
0.0
  0
LINE
  5
C5
330
2
100
AcDbEntity
  8
-VERGLASUNG
100
AcDbLine
 10
67.99354928984843
 20
205.0029353042318
 30
0.0
 11
71.88742410947447
 21
208.8968101238579
 31
0.0
  0
LINE
  5
C6
330
2
100
AcDbEntity
  8
-VERGLASUNG
100
AcDbLine
 10
69.55604928984843
 20
205.0029353042318
 30
0.0
 11
73.44992410947447
 21
208.8968101238577
 31
0.0
  0
LINE
  5
C7
330
2
100
AcDbEntity
  8
-VERGLASUNG
100
AcDbLine
 10
15.35794994561266
 20
213.1090603431851
 30
0.0
 11
19.25182476523869
 21
217.0029351628111
 31
0.0
  0
LINE
  5
C8
330
2
100
AcDbEntity
  8
-VERGLASUNG
100
AcDbLine
 10
16.92044994561266
 20
213.1090603431851
 30
0.0
 11
20.8143247652387
 21
217.0029351628111
 31
0.0
  0
LINE
  5
C9
330
2
100
AcDbEntity
  8
-VERGLASUNG
100
AcDbLine
 10
18.48294994561266
 20
213.1090603431851
 30
0.0
 11
22.3768247652387
 21
217.0029351628111
 31
0.0
  0
LINE
  5
CA
330
2
100
AcDbEntity
  8
-VERGLASUNG
100
AcDbLine
 10
18.57553538160337
 20
205.0029351628104
 30
0.0
 11
22.46941020122941
 21
208.8968099824365
 31
0.0
  0
LINE
  5
CB
330
2
100
AcDbEntity
  8
-VERGLASUNG
100
AcDbLine
 10
20.13803538160337
 20
205.0029351628104
 30
0.0
 11
24.03191020122941
 21
208.8968099824365
 31
0.0
  0
LINE
  5
CC
330
2
100
AcDbEntity
  8
-VERGLASUNG
100
AcDbLine
 10
21.70053538160337
 20
205.0029351628104
 30
0.0
 11
25.59441020122941
 21
208.8968099824363
 31
0.0
  0
LINE
  5
CD
330
2
100
AcDbEntity
  8
-VERGLASUNG
100
AcDbLine
 10
-46.95722923108937
 20
205.0029351628106
 30
0.0
 11
-43.06335441146333
 21
208.8968099824367
 31
0.0
  0
LINE
  5
CE
330
2
100
AcDbEntity
  8
-VERGLASUNG
100
AcDbLine
 10
-48.61231466708009
 20
213.1090603431853
 30
0.0
 11
-44.71843984745405
 21
217.0029351628113
 31
0.0
  0
LINE
  5
CF
330
2
100
AcDbEntity
  8
-VERGLASUNG
100
AcDbLine
 10
-47.04981466708008
 20
213.1090603431853
 30
0.0
 11
-43.15593984745405
 21
217.0029351628113
 31
0.0
  0
LINE
  5
D0
330
2
100
AcDbEntity
  8
-VERGLASUNG
100
AcDbLine
 10
-50.17481466708009
 20
213.1090603431853
 30
0.0
 11
-46.28093984745405
 21
217.0029351628113
 31
0.0
  0
LINE
  5
D1
330
2
100
AcDbEntity
  8
-VERGLASUNG
100
AcDbLine
 10
-23.12205771295757
 20
213.109060413896
 30
0.0
 11
-19.22818289333153
 21
217.002935233522
 31
0.0
  0
LINE
  5
D2
330
2
100
AcDbEntity
  8
-VERGLASUNG
100
AcDbLine
 10
-24.68455771295757
 20
213.109060413896
 30
0.0
 11
-20.79068289333154
 21
217.002935233522
 31
0.0
  0
LINE
  5
D3
330
2
100
AcDbEntity
  8
-VERGLASUNG
100
AcDbLine
 10
-23.02947227696686
 20
205.0029352335214
 30
0.0
 11
-19.13559745734082
 21
208.8968100531474
 31
0.0
  0
LINE
  5
D4
330
2
100
AcDbEntity
  8
-VERGLASUNG
100
AcDbLine
 10
-43.83222923108937
 20
205.0029351628106
 30
0.0
 11
-39.93835441146334
 21
208.8968099824366
 31
0.0
  0
LINE
  5
D5
330
2
100
AcDbEntity
  8
-VERGLASUNG
100
AcDbLine
 10
-45.39472923108937
 20
205.0029351628106
 30
0.0
 11
-41.50085441146333
 21
208.8968099824367
 31
0.0
  0
LINE
  5
D6
330
2
100
AcDbEntity
  8
-VERGLASUNG
100
AcDbLine
 10
-26.24705771295757
 20
213.109060413896
 30
0.0
 11
-22.35318289333154
 21
217.002935233522
 31
0.0
  0
LINE
  5
D7
330
2
100
AcDbEntity
  8
-VERGLASUNG
100
AcDbLine
 10
-21.46697227696686
 20
205.0029352335214
 30
0.0
 11
-17.57309745734082
 21
208.8968100531474
 31
0.0
  0
LINE
  5
D8
330
2
100
AcDbEntity
  8
-VERGLASUNG
100
AcDbLine
 10
-19.90447227696686
 20
205.0029352335214
 30
0.0
 11
-16.01059745734082
 21
208.8968100531473
 31
0.0
  0
INSERT
  5
D9
330
2
100
AcDbEntity
  8
-TEXT3
100
AcDbBlockReference
  2
96-8
 10
64.7623381737996
 20
189.5855340005082
 30
0.0
  0
MTEXT
  5
123
330
2
100
AcDbEntity
  8
-TEXT2
100
AcDbMText
 10
25.06735454933568
 20
185.5408194096846
 30
0.0
 40
4.0
 41
43.30449999999999
 71
     1
 72
     5
  1
oder\PHolz-Schr.\PDIN96-%%c8
 73
     1
 44
1.0
  0
ENDSEC
  0
SECTION
  2
OBJECTS
  0
DICTIONARY
  5
7
330
0
100
AcDbDictionary
281
     1
  3
ACAD_COLOR
350
13E
  3
ACAD_GROUP
350
13A
  3
ACAD_LAYOUT
350
126
  3
ACAD_MATERIAL
350
13D
  3
ACAD_MLINESTYLE
350
13B
  3
ACAD_PLOTSETTINGS
350
13C
  3
ACAD_PLOTSTYLENAME
350
6
  3
ACAD_TABLESTYLE
350
14C
  3
AcDbVariableDictionary
350
147
  0
DICTIONARY
  5
12C
330
12B
100
AcDbDictionary
280
     1
281
     1
  3
ACAD_LAYERSTATES
360
12D
  0
DICTIONARY
  5
13E
102
{ACAD_REACTORS
330
7
102
}
330
7
100
AcDbDictionary
281
     1
  0
DICTIONARY
  5
13A
102
{ACAD_REACTORS
330
7
102
}
330
7
100
AcDbDictionary
281
     1
  0
DICTIONARY
  5
126
102
{ACAD_REACTORS
330
7
102
}
330
7
100
AcDbDictionary
281
     1
  3
Layout1
350
12A
  3
Model
350
125
  0
DICTIONARY
  5
13D
102
{ACAD_REACTORS
330
7
102
}
330
7
100
AcDbDictionary
281
     1
  0
DICTIONARY
  5
13B
102
{ACAD_REACTORS
330
7
102
}
330
7
100
AcDbDictionary
281
     1
  3
STANDARD
350
13F
  0
DICTIONARY
  5
13C
102
{ACAD_REACTORS
330
7
102
}
330
7
100
AcDbDictionary
281
     1
  0
ACDBDICTIONARYWDFLT
  5
6
102
{ACAD_REACTORS
330
7
102
}
330
7
100
AcDbDictionary
281
     1
  3
Normal
350
5
100
AcDbDictionaryWithDefault
340
5
  0
DICTIONARY
  5
14C
102
{ACAD_REACTORS
330
7
102
}
330
7
100
AcDbDictionary
281
     1
  3
Standard
350
14D
  0
DICTIONARY
  5
147
102
{ACAD_REACTORS
330
7
102
}
330
7
100
AcDbDictionary
281
     1
  3
CTABLESTYLE
350
151
  3
DIMASSOC
350
149
  3
HIDETEXT
350
148
  3
PROJECTNAME
350
14A
  0
DICTIONARY
  5
12D
102
{ACAD_REACTORS
330
12C
102
}
330
12C
100
AcDbDictionary
281
     1
  0
LAYOUT
  5
12A
102
{ACAD_REACTORS
330
126
102
}
330
126
100
AcDbPlotSettings
  1

  2
HP DeskJet 1120C Printer
  4

  6

 40
0.0
 41
0.0
 42
0.0
 43
0.0
 44
0.0
 45
0.0
 46
0.0
 47
0.0
 48
0.0
 49
0.0
140
0.0
141
0.0
142
1.0
143
1.0
 70
   688
 72
     0
 73
     0
 74
     5
  7
monochrome.ctb
 75
    16
147
1.0
 76
     0
 77
     2
 78
   300
148
0.0
149
0.0
100
AcDbLayout
  1
Layout1
 70
     1
 71
     1
 10
0.0
 20
0.0
 11
12.0
 21
9.0
 12
0.0
 22
0.0
 32
0.0
 14
1.000000000000000E+20
 24
1.000000000000000E+20
 34
1.000000000000000E+20
 15
-1.000000000000000E+20
 25
-1.000000000000000E+20
 35
-1.000000000000000E+20
146
0.0
 13
0.0
 23
0.0
 33
0.0
 16
1.0
 26
0.0
 36
0.0
 17
0.0
 27
1.0
 37
0.0
 76
     0
330
127
  0
LAYOUT
  5
125
102
{ACAD_REACTORS
330
126
102
}
330
126
100
AcDbPlotSettings
  1

  2
HP DeskJet 1120C Printer
  4

  6

 40
0.0
 41
0.0
 42
0.0
 43
0.0
 44
0.0
 45
0.0
 46
0.0
 47
0.0
 48
0.0
 49
0.0
140
0.0
141
0.0
142
1.0
143
1.0
 70
  1712
 72
     0
 73
     0
 74
     0
  7
monochrome.ctb
 75
     0
147
1.0
 76
     0
 77
     2
 78
   300
148
0.0
149
0.0
100
AcDbLayout
  1
Model
 70
     1
 71
     0
 10
0.0
 20
0.0
 11
12.0
 21
9.0
 12
0.0
 22
0.0
 32
0.0
 14
0.0
 24
0.0
 34
0.0
 15
0.0
 25
0.0
 35
0.0
146
0.0
 13
0.0
 23
0.0
 33
0.0
 16
1.0
 26
0.0
 36
0.0
 17
0.0
 27
1.0
 37
0.0
 76
     0
330
2
  0
MLINESTYLE
  5
13F
102
{ACAD_REACTORS
330
13B
102
}
330
13B
100
AcDbMlineStyle
  2
STANDARD
 70
     0
  3

 62
     0
 51
90.0
 52
90.0
 71
     2
 49
0.5
 62
   256
  6
BYLAYER
 49
-0.5
 62
   256
  6
BYLAYER
  0
ACDBPLACEHOLDER
  5
5
102
{ACAD_REACTORS
330
6
102
}
330
6
  0
TABLESTYLE
  5
14D
102
{ACAD_REACTORS
330
14C
102
}
330
14C
100
AcDbTableStyle
  3
Standard
 70
     0
 71
     0
 40
0.06
 41
0.06
280
     0
281
     0
  7
STANDARD
140
0.18
170
     2
 62
     0
 63
     7
283
     0
274
    -2
284
     1
 64
     0
275
    -2
285
     1
 65
     0
276
    -2
286
     1
 66
     0
277
    -2
287
     1
 67
     0
278
    -2
288
     1
 68
     0
279
    -2
289
     1
 69
     0
  7
STANDARD
140
0.25
170
     5
 62
     0
 63
     7
283
     0
274
    -2
284
     1
 64
     0
275
    -2
285
     1
 65
     0
276
    -2
286
     1
 66
     0
277
    -2
287
     1
 67
     0
278
    -2
288
     1
 68
     0
279
    -2
289
     1
 69
     0
  7
STANDARD
140
0.18
170
     5
 62
     0
 63
     7
283
     0
274
    -2
284
     1
 64
     0
275
    -2
285
     1
 65
     0
276
    -2
286
     1
 66
     0
277
    -2
287
     1
 67
     0
278
    -2
288
     1
 68
     0
279
    -2
289
     1
 69
     0
  0
DICTIONARYVAR
  5
151
102
{ACAD_REACTORS
330
147
102
}
330
147
100
DictionaryVariables
280
     0
  1
STANDARD
  0
DICTIONARYVAR
  5
149
102
{ACAD_REACTORS
330
147
102
}
330
147
100
DictionaryVariables
280
     0
  1
1
  0
DICTIONARYVAR
  5
148
102
{ACAD_REACTORS
330
147
102
}
330
147
100
DictionaryVariables
280
     0
  1
1
  0
DICTIONARYVAR
  5
14A
102
{ACAD_REACTORS
330
147
102
}
330
147
100
DictionaryVariables
280
     0
  1

  0
ENDSEC
  0
EOF
