  0
SECTION
  2
HEADER
  9
$ACADVER
  1
AC1018
  9
$ACADMAINTVER
 70
    76
  9
$DWGCODEPAGE
  3
ANSI_1252
  9
$INSBASE
 10
-327.8288694144876
 20
0.0
 30
0.0
  9
$EXTMIN
 10
37.92218947360209
 20
20.46707031589026
 30
0.0
  9
$EXTMAX
 10
190.8996805344961
 20
249.3744482616057
 30
0.0
  9
$LIMMIN
 10
0.0
 20
0.0
  9
$LIMMAX
 10
12.0
 20
9.0
  9
$ORTHOMODE
 70
     1
  9
$REGENMODE
 70
     1
  9
$FILLMODE
 70
     1
  9
$QTEXTMODE
 70
     0
  9
$MIRRTEXT
 70
     1
  9
$LTSCALE
 40
2.5
  9
$ATTMODE
 70
     1
  9
$TEXTSIZE
 40
0.2
  9
$TRACEWID
 40
0.05
  9
$TEXTSTYLE
  7
STANDARD
  9
$CLAYER
  8
-VERGLASUNG
  9
$CELTYPE
  6
BYLAYER
  9
$CECOLOR
 62
   256
  9
$CELTSCALE
 40
1.0
  9
$DISPSILH
 70
     0
  9
$DIMSCALE
 40
1.0
  9
$DIMASZ
 40
3.5
  9
$DIMEXO
 40
2.0
  9
$DIMDLI
 40
2.0
  9
$DIMRND
 40
0.0
  9
$DIMDLE
 40
0.0
  9
$DIMEXE
 40
1.5
  9
$DIMTP
 40
0.0
  9
$DIMTM
 40
0.0
  9
$DIMTXT
 40
4.0
  9
$DIMCEN
 40
0.09
  9
$DIMTSZ
 40
0.0
  9
$DIMTOL
 70
     0
  9
$DIMLIM
 70
     0
  9
$DIMTIH
 70
     0
  9
$DIMTOH
 70
     0
  9
$DIMSE1
 70
     0
  9
$DIMSE2
 70
     0
  9
$DIMTAD
 70
     1
  9
$DIMZIN
 70
     9
  9
$DIMBLK
  1

  9
$DIMASO
 70
     1
  9
$DIMSHO
 70
     1
  9
$DIMPOST
  1

  9
$DIMAPOST
  1

  9
$DIMALT
 70
     0
  9
$DIMALTD
 70
     2
  9
$DIMALTF
 40
25.4
  9
$DIMLFAC
 40
1.0
  9
$DIMTOFL
 70
     0
  9
$DIMTVP
 40
0.0
  9
$DIMTIX
 70
     0
  9
$DIMSOXD
 70
     0
  9
$DIMSAH
 70
     0
  9
$DIMBLK1
  1

  9
$DIMBLK2
  1

  9
$DIMSTYLE
  2
1-1PRO
  9
$DIMCLRD
 70
   256
  9
$DIMCLRE
 70
   256
  9
$DIMCLRT
 70
   256
  9
$DIMTFAC
 40
1.0
  9
$DIMGAP
 40
1.0
  9
$DIMJUST
 70
     0
  9
$DIMSD1
 70
     0
  9
$DIMSD2
 70
     0
  9
$DIMTOLJ
 70
     1
  9
$DIMTZIN
 70
     0
  9
$DIMALTZ
 70
     0
  9
$DIMALTTZ
 70
     0
  9
$DIMUPT
 70
     0
  9
$DIMDEC
 70
     0
  9
$DIMTDEC
 70
     0
  9
$DIMALTU
 70
     2
  9
$DIMALTTD
 70
     2
  9
$DIMTXSTY
  7
STANDARD
  9
$DIMAUNIT
 70
     0
  9
$DIMADEC
 70
     0
  9
$DIMALTRND
 40
0.0
  9
$DIMAZIN
 70
     0
  9
$DIMDSEP
 70
    46
  9
$DIMATFIT
 70
     3
  9
$DIMFRAC
 70
     0
  9
$DIMLDRBLK
  1

  9
$DIMLUNIT
 70
     2
  9
$DIMLWD
 70
    -2
  9
$DIMLWE
 70
    -2
  9
$DIMTMOVE
 70
     0
  9
$LUNITS
 70
     2
  9
$LUPREC
 70
     4
  9
$SKETCHINC
 40
0.1
  9
$FILLETRAD
 40
0.0
  9
$AUNITS
 70
     0
  9
$AUPREC
 70
     0
  9
$MENU
  1
.
  9
$ELEVATION
 40
0.0
  9
$PELEVATION
 40
0.0
  9
$THICKNESS
 40
0.0
  9
$LIMCHECK
 70
     0
  9
$CHAMFERA
 40
2.0
  9
$CHAMFERB
 40
2.0
  9
$CHAMFERC
 40
1.0
  9
$CHAMFERD
 40
0.0
  9
$SKPOLY
 70
     0
  9
$TDCREATE
 40
2450923.406402199
  9
$TDUCREATE
 40
2450923.364735533
  9
$TDUPDATE
 40
2457744.644745127
  9
$TDUUPDATE
 40
2457744.603078461
  9
$TDINDWG
 40
2.4333046644
  9
$TDUSRTIMER
 40
2.4333046644
  9
$USRTIMER
 70
     1
  9
$ANGBASE
 50
0.0
  9
$ANGDIR
 70
     0
  9
$PDMODE
 70
     0
  9
$PDSIZE
 40
0.0
  9
$PLINEWID
 40
0.0
  9
$SPLFRAME
 70
     0
  9
$SPLINETYPE
 70
     6
  9
$SPLINESEGS
 70
    50
  9
$HANDSEED
  5
E8
  9
$SURFTAB1
 70
     6
  9
$SURFTAB2
 70
     6
  9
$SURFTYPE
 70
     6
  9
$SURFU
 70
     6
  9
$SURFV
 70
     6
  9
$UCSBASE
  2

  9
$UCSNAME
  2

  9
$UCSORG
 10
0.0
 20
0.0
 30
0.0
  9
$UCSXDIR
 10
1.0
 20
0.0
 30
0.0
  9
$UCSYDIR
 10
0.0
 20
1.0
 30
0.0
  9
$UCSORTHOREF
  2

  9
$UCSORTHOVIEW
 70
     0
  9
$UCSORGTOP
 10
0.0
 20
0.0
 30
0.0
  9
$UCSORGBOTTOM
 10
0.0
 20
0.0
 30
0.0
  9
$UCSORGLEFT
 10
0.0
 20
0.0
 30
0.0
  9
$UCSORGRIGHT
 10
0.0
 20
0.0
 30
0.0
  9
$UCSORGFRONT
 10
0.0
 20
0.0
 30
0.0
  9
$UCSORGBACK
 10
0.0
 20
0.0
 30
0.0
  9
$PUCSBASE
  2

  9
$PUCSNAME
  2

  9
$PUCSORG
 10
0.0
 20
0.0
 30
0.0
  9
$PUCSXDIR
 10
1.0
 20
0.0
 30
0.0
  9
$PUCSYDIR
 10
0.0
 20
1.0
 30
0.0
  9
$PUCSORTHOREF
  2

  9
$PUCSORTHOVIEW
 70
     0
  9
$PUCSORGTOP
 10
0.0
 20
0.0
 30
0.0
  9
$PUCSORGBOTTOM
 10
0.0
 20
0.0
 30
0.0
  9
$PUCSORGLEFT
 10
0.0
 20
0.0
 30
0.0
  9
$PUCSORGRIGHT
 10
0.0
 20
0.0
 30
0.0
  9
$PUCSORGFRONT
 10
0.0
 20
0.0
 30
0.0
  9
$PUCSORGBACK
 10
0.0
 20
0.0
 30
0.0
  9
$USERI1
 70
     0
  9
$USERI2
 70
     0
  9
$USERI3
 70
     0
  9
$USERI4
 70
     0
  9
$USERI5
 70
     0
  9
$USERR1
 40
0.0
  9
$USERR2
 40
0.0
  9
$USERR3
 40
0.0
  9
$USERR4
 40
0.0
  9
$USERR5
 40
0.0
  9
$WORLDVIEW
 70
     1
  9
$SHADEDGE
 70
     3
  9
$SHADEDIF
 70
    70
  9
$TILEMODE
 70
     1
  9
$MAXACTVP
 70
    48
  9
$PINSBASE
 10
0.0
 20
0.0
 30
0.0
  9
$PLIMCHECK
 70
     0
  9
$PEXTMIN
 10
1.000000000000000E+20
 20
1.000000000000000E+20
 30
1.000000000000000E+20
  9
$PEXTMAX
 10
-1.000000000000000E+20
 20
-1.000000000000000E+20
 30
-1.000000000000000E+20
  9
$PLIMMIN
 10
0.0
 20
0.0
  9
$PLIMMAX
 10
12.0
 20
9.0
  9
$UNITMODE
 70
     0
  9
$VISRETAIN
 70
     1
  9
$PLINEGEN
 70
     0
  9
$PSLTSCALE
 70
     1
  9
$TREEDEPTH
 70
  3020
  9
$CMLSTYLE
  2
STANDARD
  9
$CMLJUST
 70
     0
  9
$CMLSCALE
 40
1.0
  9
$PROXYGRAPHICS
 70
     1
  9
$MEASUREMENT
 70
     0
  9
$CELWEIGHT
370
    -1
  9
$ENDCAPS
280
     0
  9
$JOINSTYLE
280
     0
  9
$LWDISPLAY
290
     0
  9
$INSUNITS
 70
     0
  9
$HYPERLINKBASE
  1

  9
$STYLESHEET
  1

  9
$XEDIT
290
     1
  9
$CEPSNTYPE
380
     0
  9
$PSTYLEMODE
290
     1
  9
$FINGERPRINTGUID
  2
{3A2E4F60-FB61-11D4-9C1F-EC81C176A25E}
  9
$VERSIONGUID
  2
{01DBFDD5-233D-41D1-91DF-A776F6399406}
  9
$EXTNAMES
290
     1
  9
$PSVPSCALE
 40
0.0
  9
$OLESTARTUP
290
     0
  9
$SORTENTS
280
   127
  9
$INDEXCTL
280
     0
  9
$HIDETEXT
280
     1
  9
$XCLIPFRAME
290
     0
  9
$HALOGAP
280
     0
  9
$OBSCOLOR
 70
   257
  9
$OBSLTYPE
280
     0
  9
$INTERSECTIONDISPLAY
280
     0
  9
$INTERSECTIONCOLOR
 70
   257
  9
$DIMASSOC
280
     1
  9
$PROJECTNAME
  1

  0
ENDSEC
  0
SECTION
  2
CLASSES
  0
CLASS
  1
DICTIONARYVAR
  2
AcDbDictionaryVar
  3
ObjectDBX Classes
 90
        0
 91
        4
280
     0
281
     0
  0
CLASS
  1
IMAGE
  2
AcDbRasterImage
  3
ISM
 90
      127
 91
        0
280
     0
281
     1
  0
CLASS
  1
IMAGEDEF_REACTOR
  2
AcDbRasterImageDefReactor
  3
ISM
 90
        1
 91
        0
280
     0
281
     0
  0
CLASS
  1
IMAGEDEF
  2
AcDbRasterImageDef
  3
ISM
 90
        0
 91
        0
280
     0
281
     0
  0
CLASS
  1
RASTERVARIABLES
  2
AcDbRasterVariables
  3
ISM
 90
        0
 91
        0
280
     0
281
     0
  0
CLASS
  1
ACDBDICTIONARYWDFLT
  2
AcDbDictionaryWithDefault
  3
ObjectDBX Classes
 90
        0
 91
        1
280
     0
281
     0
  0
CLASS
  1
TABLESTYLE
  2
AcDbTableStyle
  3
ObjectDBX Classes
 90
     2047
 91
        1
280
     0
281
     0
  0
ENDSEC
  0
SECTION
  2
TABLES
  0
TABLE
  2
VPORT
  5
CA
330
0
100
AcDbSymbolTable
 70
     3
  0
VPORT
  5
E7
330
CA
100
AcDbSymbolTableRecord
100
AcDbViewportTableRecord
  2
*Active
 70
     0
 10
0.0
 20
0.0
 11
1.0
 21
1.0
 12
154.3899756061553
 22
135.6953239006921
 13
0.0
 23
0.0
 14
0.5
 24
0.5
 15
0.5
 25
0.5
 16
0.0
 26
0.0
 36
1.0
 17
0.0
 27
0.0
 37
0.0
 40
232.2858874968098
 41
1.893413173652694
 42
50.0
 43
0.0
 44
0.0
 50
0.0
 51
0.0
 71
     0
 72
   100
 73
     1
 74
     1
 75
     0
 76
     0
 77
     0
 78
     0
281
     0
 65
     1
110
0.0
120
0.0
130
0.0
111
1.0
121
0.0
131
0.0
112
0.0
122
1.0
132
0.0
 79
     0
146
0.0
  0
ENDTAB
  0
TABLE
  2
LTYPE
  5
C5
330
0
100
AcDbSymbolTable
 70
     3
  0
LTYPE
  5
C6
330
C5
100
AcDbSymbolTableRecord
100
AcDbLinetypeTableRecord
  2
BYBLOCK
 70
     0
  3

 72
    65
 73
     0
 40
0.0
  0
LTYPE
  5
C7
330
C5
100
AcDbSymbolTableRecord
100
AcDbLinetypeTableRecord
  2
BYLAYER
 70
     0
  3

 72
    65
 73
     0
 40
0.0
  0
LTYPE
  5
8
330
C5
100
AcDbSymbolTableRecord
100
AcDbLinetypeTableRecord
  2
CONTINUOUS
 70
     0
  3
Solid line
 72
    65
 73
     0
 40
0.0
  0
LTYPE
  5
B
330
C5
100
AcDbSymbolTableRecord
100
AcDbLinetypeTableRecord
  2
MITTEX2
 70
     0
  3
Mitte (2x) ________  __  ________  __  _____
 72
    65
 73
     4
 40
4.0
 49
2.5
 74
     0
 49
-0.5
 74
     0
 49
0.5
 74
     0
 49
-0.5
 74
     0
  0
LTYPE
  5
5D
330
C5
100
AcDbSymbolTableRecord
100
AcDbLinetypeTableRecord
  2
STRICHLINIEX2
 70
     0
  3
Strichlinie (2x) ____  ____  ____  ____  ____  
 72
    65
 73
     2
 40
1.5
 49
1.0
 74
     0
 49
-0.5
 74
     0
  0
ENDTAB
  0
TABLE
  2
LAYER
  5
C0
102
{ACAD_XDICTIONARY
360
C1
102
}
330
0
100
AcDbSymbolTable
 70
    11
  0
LAYER
  5
4
330
C0
100
AcDbSymbolTableRecord
100
AcDbLayerTableRecord
  2
0
 70
     0
 62
     7
  6
CONTINUOUS
370
    -3
390
5
  0
LAYER
  5
6C
330
C0
100
AcDbSymbolTableRecord
100
AcDbLayerTableRecord
  2
-PROFILAUSSENKANTET
 70
     0
 62
     4
  6
CONTINUOUS
370
    -3
390
5
  0
LAYER
  5
67
330
C0
100
AcDbSymbolTableRecord
100
AcDbLayerTableRecord
  2
-DICHTUNG
 70
     0
 62
     3
  6
CONTINUOUS
370
    -3
390
5
  0
LAYER
  5
70
330
C0
100
AcDbSymbolTableRecord
100
AcDbLayerTableRecord
  2
-NORMTEIL
 70
     0
 62
     6
  6
CONTINUOUS
370
    -3
390
5
  0
LAYER
  5
5C
330
C0
100
AcDbSymbolTableRecord
100
AcDbLayerTableRecord
  2
-NORMTEIL_VERDECKT
 70
     0
 62
     9
  6
STRICHLINIEX2
370
    -3
390
5
  0
LAYER
  5
1D
330
C0
100
AcDbSymbolTableRecord
100
AcDbLayerTableRecord
  2
DEFPOINTS
 70
     0
 62
     7
  6
CONTINUOUS
290
     0
370
    -3
390
5
  0
LAYER
  5
A
330
C0
100
AcDbSymbolTableRecord
100
AcDbLayerTableRecord
  2
-SYSTEM
 70
     0
 62
     2
  6
MITTEX2
370
    -3
390
5
  0
LAYER
  5
5A
330
C0
100
AcDbSymbolTableRecord
100
AcDbLayerTableRecord
  2
-TEXT2
 70
     0
 62
     3
  6
CONTINUOUS
370
    -3
390
5
  0
LAYER
  5
10
330
C0
100
AcDbSymbolTableRecord
100
AcDbLayerTableRecord
  2
-TEXT3
 70
     0
 62
     2
  6
CONTINUOUS
370
    -3
390
5
  0
LAYER
  5
65
330
C0
100
AcDbSymbolTableRecord
100
AcDbLayerTableRecord
  2
-SCHRAFFUR
 70
     0
 62
     9
  6
CONTINUOUS
370
    -3
390
5
  0
LAYER
  5
D
330
C0
100
AcDbSymbolTableRecord
100
AcDbLayerTableRecord
  2
-VERGLASUNG
 70
     0
 62
     1
  6
CONTINUOUS
370
    -3
390
5
  0
ENDTAB
  0
TABLE
  2
STYLE
  5
C3
330
0
100
AcDbSymbolTable
 70
     1
  0
STYLE
  5
12
330
C3
100
AcDbSymbolTableRecord
100
AcDbTextStyleTableRecord
  2
STANDARD
 70
     0
 40
0.0
 41
1.0
 50
0.0
 71
     0
 42
0.2
  3
GOTHIC.TTF
  4

1001
ACAD
1000
Century Gothic
1071
       34
  0
ENDTAB
  0
TABLE
  2
VIEW
  5
C8
330
0
100
AcDbSymbolTable
 70
     0
  0
ENDTAB
  0
TABLE
  2
UCS
  5
C9
330
0
100
AcDbSymbolTable
 70
     0
  0
ENDTAB
  0
TABLE
  2
APPID
  5
CC
330
0
100
AcDbSymbolTable
 70
     1
  0
APPID
  5
13
330
CC
100
AcDbSymbolTableRecord
100
AcDbRegAppTableRecord
  2
ACAD
 70
     0
  0
ENDTAB
  0
TABLE
  2
DIMSTYLE
  5
CD
330
0
100
AcDbSymbolTable
 70
     1
100
AcDbDimStyleTable
 71
     1
340
11
  0
DIMSTYLE
105
11
102
{ACAD_REACTORS
330
F
330
3E
330
4B
330
85
330
92
330
A1
102
}
330
CD
100
AcDbSymbolTableRecord
100
AcDbDimStyleTableRecord
  2
1-1PRO
 70
     0
 41
3.5
 42
2.0
 43
2.0
 44
1.5
 73
     0
 74
     0
 77
     1
 78
     9
140
4.0
147
1.0
176
   256
177
   256
178
   256
271
     0
272
     0
340
12
  0
ENDTAB
  0
TABLE
  2
BLOCK_RECORD
  5
1
330
0
100
AcDbSymbolTable
 70
     6
  0
BLOCK_RECORD
  5
2
330
1
100
AcDbSymbolTableRecord
100
AcDbBlockTableRecord
  2
*MODEL_SPACE
340
BA
  0
BLOCK_RECORD
  5
BC
330
1
100
AcDbSymbolTableRecord
100
AcDbBlockTableRecord
  2
*PAPER_SPACE
340
BF
  0
BLOCK_RECORD
  5
14
330
1
100
AcDbSymbolTableRecord
100
AcDbBlockTableRecord
  2
*D0
340
0
  0
BLOCK_RECORD
  5
3F
330
1
100
AcDbSymbolTableRecord
100
AcDbBlockTableRecord
  2
*D1
340
0
  0
BLOCK_RECORD
  5
4C
330
1
100
AcDbSymbolTableRecord
100
AcDbBlockTableRecord
  2
*D2
340
0
  0
BLOCK_RECORD
  5
86
330
1
100
AcDbSymbolTableRecord
100
AcDbBlockTableRecord
  2
*D3
340
0
  0
BLOCK_RECORD
  5
93
330
1
100
AcDbSymbolTableRecord
100
AcDbBlockTableRecord
  2
*D4
340
0
  0
BLOCK_RECORD
  5
A2
330
1
100
AcDbSymbolTableRecord
100
AcDbBlockTableRecord
  2
*D5
340
0
  0
ENDTAB
  0
ENDSEC
  0
SECTION
  2
BLOCKS
  0
BLOCK
  5
3
330
2
100
AcDbEntity
  8
0
100
AcDbBlockBegin
  2
*MODEL_SPACE
 70
     0
 10
0.0
 20
0.0
 30
0.0
  3
*MODEL_SPACE
  1

  0
ENDBLK
  5
B9
330
2
100
AcDbEntity
  8
0
100
AcDbBlockEnd
  0
BLOCK
  5
BD
330
BC
100
AcDbEntity
 67
     1
  8
0
100
AcDbBlockBegin
  2
*PAPER_SPACE
 70
     0
 10
0.0
 20
0.0
 30
0.0
  3
*PAPER_SPACE
  1

  0
ENDBLK
  5
BE
330
BC
100
AcDbEntity
 67
     1
  8
0
100
AcDbBlockEnd
  0
BLOCK
  5
15
330
14
100
AcDbEntity
  8
0
100
AcDbBlockBegin
  2
*D0
 70
     1
 10
0.0
 20
0.0
 30
0.0
  3
*D0
  1

  0
LINE
  5
16
330
14
100
AcDbEntity
  8
-TEXT3
370
    -2
100
AcDbLine
 10
59.1953430465494
 20
224.6862650994817
 30
0.0
 11
54.60401802244382
 21
224.6862650994817
 31
0.0
  0
LINE
  5
17
330
14
100
AcDbEntity
  8
-TEXT3
370
    -2
100
AcDbLine
 10
59.1953430465494
 20
212.686265099481
 30
0.0
 11
54.60401802244382
 21
212.686265099481
 31
0.0
  0
LINE
  5
18
330
14
100
AcDbEntity
  8
-TEXT3
370
    -2
100
AcDbLine
 10
56.10401802244382
 20
221.1862650994818
 30
0.0
 11
56.10401802244382
 21
216.1862650994811
 31
0.0
  0
SOLID
  5
19
330
14
100
AcDbEntity
  8
-TEXT3
100
AcDbTrace
 10
55.52068468911048
 20
221.1862650994818
 30
0.0
 11
56.68735135577716
 21
221.1862650994818
 31
0.0
 12
56.10401802244382
 22
224.6862650994817
 32
0.0
 13
56.10401802244382
 23
224.6862650994817
 33
0.0
  0
SOLID
  5
1A
330
14
100
AcDbEntity
  8
-TEXT3
100
AcDbTrace
 10
55.52068468911048
 20
216.1862650994811
 30
0.0
 11
56.68735135577716
 21
216.1862650994811
 31
0.0
 12
56.10401802244382
 22
212.686265099481
 32
0.0
 13
56.10401802244382
 23
212.686265099481
 33
0.0
  0
MTEXT
  5
1B
330
14
100
AcDbEntity
  8
-TEXT3
100
AcDbMText
 10
53.00340619375582
 20
218.6862650994814
 30
0.0
 40
4.0
 41
0.0
 71
     5
 72
     1
  1
\A1;G
 11
0.0000000000000001
 21
1.0
 31
0.0
 73
     1
 44
1.0
  0
POINT
  5
1C
330
14
100
AcDbEntity
  8
DEFPOINTS
 62
     0
100
AcDbPoint
 10
61.1953430465494
 20
224.6862650994817
 30
0.0
  0
POINT
  5
1E
330
14
100
AcDbEntity
  8
DEFPOINTS
 62
     0
100
AcDbPoint
 10
61.1953430465494
 20
212.686265099481
 30
0.0
  0
POINT
  5
1F
330
14
100
AcDbEntity
  8
DEFPOINTS
 62
     0
100
AcDbPoint
 10
56.10401802244382
 20
212.686265099481
 30
0.0
  0
ENDBLK
  5
20
330
14
100
AcDbEntity
  8
0
100
AcDbBlockEnd
  0
BLOCK
  5
40
330
3F
100
AcDbEntity
  8
0
100
AcDbBlockBegin
  2
*D1
 70
     1
 10
0.0
 20
0.0
 30
0.0
  3
*D1
  1

  0
LINE
  5
41
330
3F
100
AcDbEntity
  8
-TEXT3
370
    -2
100
AcDbLine
 10
93.10401802244362
 20
211.6862650994809
 30
0.0
 11
54.60611410220815
 21
211.6862650994809
 31
0.0
  0
LINE
  5
42
330
3F
100
AcDbEntity
  8
-TEXT3
370
    -2
100
AcDbLine
 10
96.39968053449603
 20
196.6862650994808
 30
0.0
 11
54.60611410220814
 21
196.6862650994809
 31
0.0
  0
LINE
  5
43
330
3F
100
AcDbEntity
  8
-TEXT3
370
    -2
100
AcDbLine
 10
56.10611410220815
 20
208.186265099481
 30
0.0
 11
56.10611410220815
 21
200.1862650994809
 31
0.0
  0
SOLID
  5
44
330
3F
100
AcDbEntity
  8
-TEXT3
100
AcDbTrace
 10
55.52278076887482
 20
208.186265099481
 30
0.0
 11
56.68944743554149
 21
208.186265099481
 31
0.0
 12
56.10611410220815
 22
211.6862650994809
 32
0.0
 13
56.10611410220815
 23
211.6862650994809
 33
0.0
  0
SOLID
  5
45
330
3F
100
AcDbEntity
  8
-TEXT3
100
AcDbTrace
 10
55.52278076887481
 20
200.1862650994809
 30
0.0
 11
56.68944743554148
 21
200.1862650994809
 31
0.0
 12
56.10611410220815
 22
196.6862650994809
 32
0.0
 13
56.10611410220815
 23
196.6862650994809
 33
0.0
  0
MTEXT
  5
46
330
3F
100
AcDbEntity
  8
-TEXT3
100
AcDbMText
 10
53.05580818786413
 20
204.1862650994809
 30
0.0
 40
4.0
 41
0.0
 71
     5
 72
     1
  1
\A1;15
 11
0.0000000000000001
 21
1.0
 31
0.0
 73
     1
 44
1.0
  0
POINT
  5
47
330
3F
100
AcDbEntity
  8
DEFPOINTS
 62
     0
100
AcDbPoint
 10
95.10401802244361
 20
211.6862650994809
 30
0.0
  0
POINT
  5
48
330
3F
100
AcDbEntity
  8
DEFPOINTS
 62
     0
100
AcDbPoint
 10
98.39968053449602
 20
196.6862650994808
 30
0.0
  0
POINT
  5
49
330
3F
100
AcDbEntity
  8
DEFPOINTS
 62
     0
100
AcDbPoint
 10
56.10611410220815
 20
196.6862650994809
 30
0.0
  0
ENDBLK
  5
4A
330
3F
100
AcDbEntity
  8
0
100
AcDbBlockEnd
  0
BLOCK
  5
4D
330
4C
100
AcDbEntity
  8
0
100
AcDbBlockBegin
  2
*D2
 70
     1
 10
0.0
 20
0.0
 30
0.0
  3
*D2
  1

  0
LINE
  5
4E
330
4C
100
AcDbEntity
  8
-TEXT3
370
    -2
100
AcDbLine
 10
60.19534304654939
 20
212.686265099481
 30
0.0
 11
54.60611410220814
 21
212.686265099481
 31
0.0
  0
LINE
  5
4F
330
4C
100
AcDbEntity
  8
-TEXT3
370
    -2
100
AcDbLine
 10
96.3996805344964
 20
211.6862650994809
 30
0.0
 11
54.60611410220814
 21
211.6862650994809
 31
0.0
  0
LINE
  5
50
330
4C
100
AcDbEntity
  8
-TEXT3
370
    -2
100
AcDbLine
 10
56.10611410220815
 20
216.1862650994811
 30
0.0
 11
56.10611410220815
 21
219.6862650994811
 31
0.0
  0
LINE
  5
51
330
4C
100
AcDbEntity
  8
-TEXT3
370
    -2
100
AcDbLine
 10
56.10611410220815
 20
208.186265099481
 30
0.0
 11
56.10611410220814
 21
204.686265099481
 31
0.0
  0
SOLID
  5
52
330
4C
100
AcDbEntity
  8
-TEXT3
100
AcDbTrace
 10
55.52278076887481
 20
216.1862650994811
 30
0.0
 11
56.68944743554148
 21
216.1862650994811
 31
0.0
 12
56.10611410220815
 22
212.686265099481
 32
0.0
 13
56.10611410220815
 23
212.686265099481
 33
0.0
  0
SOLID
  5
53
330
4C
100
AcDbEntity
  8
-TEXT3
100
AcDbTrace
 10
55.52278076887481
 20
208.186265099481
 30
0.0
 11
56.68944743554148
 21
208.186265099481
 31
0.0
 12
56.10611410220815
 22
211.6862650994809
 32
0.0
 13
56.10611410220815
 23
211.6862650994809
 33
0.0
  0
MTEXT
  5
54
330
4C
100
AcDbEntity
  8
-TEXT3
100
AcDbMText
 10
53.10611410220811
 20
212.186265099481
 30
0.0
 40
4.0
 41
0.0
 71
     5
 72
     1
  1
\A1;1
 11
0.0000000000000001
 21
1.0
 31
0.0
 73
     1
 44
1.0
  0
POINT
  5
55
330
4C
100
AcDbEntity
  8
DEFPOINTS
 62
     0
100
AcDbPoint
 10
62.19534304654938
 20
212.686265099481
 30
0.0
  0
POINT
  5
56
330
4C
100
AcDbEntity
  8
DEFPOINTS
 62
     0
100
AcDbPoint
 10
98.3996805344964
 20
211.6862650994809
 30
0.0
  0
POINT
  5
57
330
4C
100
AcDbEntity
  8
DEFPOINTS
 62
     0
100
AcDbPoint
 10
56.10611410220815
 20
211.6862650994809
 30
0.0
  0
ENDBLK
  5
58
330
4C
100
AcDbEntity
  8
0
100
AcDbBlockEnd
  0
BLOCK
  5
87
330
86
100
AcDbEntity
  8
0
100
AcDbBlockBegin
  2
*D3
 70
     1
 10
0.0
 20
0.0
 30
0.0
  3
*D3
  1

  0
LINE
  5
88
330
86
100
AcDbEntity
  8
-TEXT3
370
    -2
100
AcDbLine
 10
100.8996805344959
 20
226.6862650994815
 30
0.0
 11
100.8996805344959
 21
236.289491282157
 31
0.0
  0
LINE
  5
89
330
86
100
AcDbEntity
  8
-TEXT3
370
    -2
100
AcDbLine
 10
120.8996805344959
 20
226.6862650994815
 30
0.0
 11
120.8996805344959
 21
236.289491282157
 31
0.0
  0
LINE
  5
8A
330
86
100
AcDbEntity
  8
-TEXT3
370
    -2
100
AcDbLine
 10
104.3996805344959
 20
234.789491282157
 30
0.0
 11
117.3996805344959
 21
234.789491282157
 31
0.0
  0
SOLID
  5
8B
330
86
100
AcDbEntity
  8
-TEXT3
100
AcDbTrace
 10
104.3996805344959
 20
235.3728246154903
 30
0.0
 11
104.3996805344959
 21
234.2061579488236
 31
0.0
 12
100.8996805344959
 22
234.789491282157
 32
0.0
 13
100.8996805344959
 23
234.789491282157
 33
0.0
  0
SOLID
  5
8C
330
86
100
AcDbEntity
  8
-TEXT3
100
AcDbTrace
 10
117.3996805344959
 20
235.3728246154903
 30
0.0
 11
117.3996805344959
 21
234.2061579488236
 31
0.0
 12
120.8996805344959
 22
234.789491282157
 32
0.0
 13
120.8996805344959
 23
234.789491282157
 33
0.0
  0
MTEXT
  5
8D
330
86
100
AcDbEntity
  8
-TEXT3
100
AcDbMText
 10
110.8996805344959
 20
238.0151880870516
 30
0.0
 40
4.0
 41
0.0
 71
     5
 72
     1
  1
\A1;%%c20
 73
     1
 44
1.0
  0
POINT
  5
8E
330
86
100
AcDbEntity
  8
DEFPOINTS
 62
     0
100
AcDbPoint
 10
100.8996805344959
 20
224.6862650994815
 30
0.0
  0
POINT
  5
8F
330
86
100
AcDbEntity
  8
DEFPOINTS
 62
     0
100
AcDbPoint
 10
120.8996805344959
 20
224.6862650994815
 30
0.0
  0
POINT
  5
90
330
86
100
AcDbEntity
  8
DEFPOINTS
 62
     0
100
AcDbPoint
 10
120.8996805344959
 20
234.789491282157
 30
0.0
  0
ENDBLK
  5
91
330
86
100
AcDbEntity
  8
0
100
AcDbBlockEnd
  0
BLOCK
  5
94
330
93
100
AcDbEntity
  8
0
100
AcDbBlockBegin
  2
*D4
 70
     1
 10
0.0
 20
0.0
 30
0.0
  3
*D4
  1

  0
LINE
  5
95
330
93
100
AcDbEntity
  8
-TEXT3
370
    -2
100
AcDbLine
 10
98.07125340974973
 20
226.6862650994815
 30
0.0
 11
98.07125340974973
 21
245.648751456711
 31
0.0
  0
LINE
  5
96
330
93
100
AcDbEntity
  8
-TEXT3
370
    -2
100
AcDbLine
 10
123.7281076592421
 20
226.6862650994815
 30
0.0
 11
123.7281076592421
 21
245.648751456711
 31
0.0
  0
LINE
  5
97
330
93
100
AcDbEntity
  8
-TEXT3
370
    -2
100
AcDbLine
 10
101.5712534097497
 20
244.148751456711
 30
0.0
 11
120.2281076592421
 21
244.148751456711
 31
0.0
  0
SOLID
  5
98
330
93
100
AcDbEntity
  8
-TEXT3
100
AcDbTrace
 10
101.5712534097497
 20
244.7320847900444
 30
0.0
 11
101.5712534097497
 21
243.5654181233777
 31
0.0
 12
98.07125340974973
 22
244.148751456711
 32
0.0
 13
98.07125340974973
 23
244.148751456711
 33
0.0
  0
SOLID
  5
99
330
93
100
AcDbEntity
  8
-TEXT3
100
AcDbTrace
 10
120.2281076592421
 20
244.7320847900444
 30
0.0
 11
120.2281076592421
 21
243.5654181233777
 31
0.0
 12
123.7281076592421
 22
244.148751456711
 32
0.0
 13
123.7281076592421
 23
244.148751456711
 33
0.0
  0
MTEXT
  5
9A
330
93
100
AcDbEntity
  8
-TEXT3
100
AcDbMText
 10
110.8996805344943
 20
247.3744482616056
 30
0.0
 40
4.0
 41
0.0
 71
     5
 72
     1
  1
\A1;%%c26
 73
     1
 44
1.0
  0
POINT
  5
9B
330
93
100
AcDbEntity
  8
DEFPOINTS
 62
     0
100
AcDbPoint
 10
98.07125340974973
 20
224.6862650994815
 30
0.0
  0
POINT
  5
9C
330
93
100
AcDbEntity
  8
DEFPOINTS
 62
     0
100
AcDbPoint
 10
123.7281076592421
 20
224.6862650994815
 30
0.0
  0
POINT
  5
9D
330
93
100
AcDbEntity
  8
DEFPOINTS
 62
     0
100
AcDbPoint
 10
123.7281076592421
 20
244.148751456711
 30
0.0
  0
ENDBLK
  5
9E
330
93
100
AcDbEntity
  8
0
100
AcDbBlockEnd
  0
BLOCK
  5
A3
330
A2
100
AcDbEntity
  8
0
100
AcDbBlockBegin
  2
*D5
 70
     1
 10
0.0
 20
0.0
 30
0.0
  3
*D5
  1

  0
LINE
  5
A4
330
A2
100
AcDbEntity
  8
-TEXT3
370
    -2
100
AcDbLine
 10
98.39968053449602
 20
194.6862650994808
 30
0.0
 11
98.39968053449602
 21
174.2237787422514
 31
0.0
  0
LINE
  5
A5
330
A2
100
AcDbEntity
  8
-TEXT3
370
    -2
100
AcDbLine
 10
123.399680534496
 20
194.6862650994811
 30
0.0
 11
123.399680534496
 21
174.2237787422514
 31
0.0
  0
LINE
  5
A6
330
A2
100
AcDbEntity
  8
-TEXT3
370
    -2
100
AcDbLine
 10
101.899680534496
 20
175.7237787422514
 30
0.0
 11
119.899680534496
 21
175.7237787422514
 31
0.0
  0
SOLID
  5
A7
330
A2
100
AcDbEntity
  8
-TEXT3
100
AcDbTrace
 10
101.899680534496
 20
176.3071120755848
 30
0.0
 11
101.899680534496
 21
175.1404454089181
 31
0.0
 12
98.39968053449602
 22
175.7237787422514
 32
0.0
 13
98.39968053449602
 23
175.7237787422514
 33
0.0
  0
SOLID
  5
A8
330
A2
100
AcDbEntity
  8
-TEXT3
100
AcDbTrace
 10
119.899680534496
 20
176.3071120755848
 30
0.0
 11
119.899680534496
 21
175.1404454089181
 31
0.0
 12
123.399680534496
 22
175.7237787422514
 32
0.0
 13
123.399680534496
 23
175.7237787422514
 33
0.0
  0
MTEXT
  5
A9
330
A2
100
AcDbEntity
  8
-TEXT3
100
AcDbMText
 10
110.8996805344944
 20
178.9494755471461
 30
0.0
 40
4.0
 41
0.0
 71
     5
 72
     1
  1
\A1;%%c25
 73
     1
 44
1.0
  0
POINT
  5
AA
330
A2
100
AcDbEntity
  8
DEFPOINTS
 62
     0
100
AcDbPoint
 10
98.39968053449602
 20
196.6862650994808
 30
0.0
  0
POINT
  5
AB
330
A2
100
AcDbEntity
  8
DEFPOINTS
 62
     0
100
AcDbPoint
 10
123.399680534496
 20
196.6862650994811
 30
0.0
  0
POINT
  5
AC
330
A2
100
AcDbEntity
  8
DEFPOINTS
 62
     0
100
AcDbPoint
 10
123.399680534496
 20
175.7237787422514
 30
0.0
  0
ENDBLK
  5
AD
330
A2
100
AcDbEntity
  8
0
100
AcDbBlockEnd
  0
ENDSEC
  0
SECTION
  2
ENTITIES
  0
LINE
  5
9
330
2
100
AcDbEntity
  8
-SYSTEM
100
AcDbLine
 10
110.8996805344959
 20
229.3115839989935
 30
0.0
 11
110.8996805344961
 21
181.1299186412704
 31
0.0
  0
LINE
  5
C
330
2
100
AcDbEntity
  8
-VERGLASUNG
100
AcDbLine
 10
65.5049513034071
 20
212.6862648873487
 30
0.0
 11
69.39882612303313
 21
216.5801397069747
 31
0.0
  0
LINE
  5
E
330
2
100
AcDbEntity
  8
-VERGLASUNG
100
AcDbLine
 10
67.0674513034071
 20
212.6862648873487
 30
0.0
 11
70.96132612303313
 21
216.5801397069746
 31
0.0
  0
DIMENSION
  5
F
330
2
100
AcDbEntity
  8
-TEXT3
100
AcDbDimension
  2
*D0
 10
56.10401802244382
 20
212.686265099481
 30
0.0
 11
53.00340619375582
 21
218.6862650994814
 31
0.0
  1
G
 71
     5
 42
12.00000000000068
  3
1-1PRO
100
AcDbAlignedDimension
 13
61.1953430465494
 23
224.6862650994817
 33
0.0
 14
61.1953430465494
 24
212.686265099481
 34
0.0
 50
90.0
100
AcDbRotatedDimension
  0
LINE
  5
21
330
2
100
AcDbEntity
  8
-VERGLASUNG
100
AcDbLine
 10
63.84986586741638
 20
220.7923900677233
 30
0.0
 11
67.74374068704242
 21
224.6862648873494
 31
0.0
  0
LINE
  5
22
330
2
100
AcDbEntity
  8
-VERGLASUNG
100
AcDbLine
 10
62.28736586741638
 20
220.7923900677233
 30
0.0
 11
66.18124068704242
 21
224.6862648873494
 31
0.0
  0
LINE
  5
23
330
2
100
AcDbEntity
  8
-VERGLASUNG
100
AcDbLine
 10
60.72486586741638
 20
220.7923900677233
 30
0.0
 11
64.61874068704242
 21
224.6862648873494
 31
0.0
  0
LINE
  5
24
330
2
100
AcDbEntity
  8
-VERGLASUNG
100
AcDbLine
 10
63.9424513034071
 20
212.6862648873487
 30
0.0
 11
67.83632612303313
 21
216.5801397069747
 31
0.0
  0
LINE
  5
25
330
2
100
AcDbEntity
  8
-VERGLASUNG
100
AcDbLine
 10
84.6526228215389
 20
220.7923901384341
 30
0.0
 11
88.54649764116492
 21
224.6862649580601
 31
0.0
  0
LINE
  5
26
330
2
100
AcDbEntity
  8
-VERGLASUNG
100
AcDbLine
 10
87.7776228215389
 20
220.7923901384341
 30
0.0
 11
91.67149764116492
 21
224.6862649580601
 31
0.0
  0
LINE
  5
27
330
2
100
AcDbEntity
  8
-VERGLASUNG
100
AcDbLine
 10
86.2151228215389
 20
220.7923901384341
 30
0.0
 11
90.10899764116492
 21
224.6862649580601
 31
0.0
  0
LINE
  5
28
330
2
100
AcDbEntity
  8
-VERGLASUNG
100
AcDbLine
 10
87.87020825752961
 20
212.6862649580594
 30
0.0
 11
91.76408307715565
 21
216.5801397776855
 31
0.0
  0
LINE
  5
29
330
2
100
AcDbEntity
  8
-VERGLASUNG
100
AcDbLine
 10
89.43270825752961
 20
212.6862649580594
 30
0.0
 11
93.32658307715565
 21
216.5801397776855
 31
0.0
  0
LINE
  5
2A
330
2
100
AcDbEntity
  8
-VERGLASUNG
100
AcDbLine
 10
90.99520825752961
 20
212.6862649580594
 30
0.0
 11
94.88908307715565
 21
216.5801397776853
 31
0.0
  0
LINE
  5
2B
330
2
100
AcDbEntity
  8
-VERGLASUNG
100
AcDbLine
 10
131.0377159160998
 20
212.6862648873485
 30
0.0
 11
134.9315907357258
 21
216.5801397069745
 31
0.0
  0
LINE
  5
2C
330
2
100
AcDbEntity
  8
-VERGLASUNG
100
AcDbLine
 10
129.3826304801091
 20
220.7923900677231
 30
0.0
 11
133.2765052997351
 21
224.6862648873491
 31
0.0
  0
LINE
  5
2D
330
2
100
AcDbEntity
  8
-VERGLASUNG
100
AcDbLine
 10
127.8201304801091
 20
220.7923900677231
 30
0.0
 11
131.7140052997351
 21
224.6862648873491
 31
0.0
  0
LINE
  5
2E
330
2
100
AcDbEntity
  8
-VERGLASUNG
100
AcDbLine
 10
129.4752159160998
 20
212.6862648873485
 30
0.0
 11
133.3690907357258
 21
216.5801397069745
 31
0.0
  0
LINE
  5
2F
330
2
100
AcDbEntity
  8
-VERGLASUNG
100
AcDbLine
 10
126.2576304801091
 20
220.7923900677231
 30
0.0
 11
130.1515052997351
 21
224.6862648873491
 31
0.0
  0
LINE
  5
30
330
2
100
AcDbEntity
  8
-VERGLASUNG
100
AcDbLine
 10
132.6002159160998
 20
212.6862648873485
 30
0.0
 11
136.4940907357258
 21
216.5801397069744
 31
0.0
  0
LINE
  5
31
330
2
100
AcDbEntity
  8
-VERGLASUNG
100
AcDbLine
 10
153.3103874342316
 20
220.7923901384338
 30
0.0
 11
157.2042622538577
 21
224.6862649580599
 31
0.0
  0
LINE
  5
32
330
2
100
AcDbEntity
  8
-VERGLASUNG
100
AcDbLine
 10
150.1853874342316
 20
220.7923901384338
 30
0.0
 11
154.0792622538577
 21
224.6862649580599
 31
0.0
  0
LINE
  5
33
330
2
100
AcDbEntity
  8
-VERGLASUNG
100
AcDbLine
 10
151.7478874342316
 20
220.7923901384338
 30
0.0
 11
155.6417622538577
 21
224.6862649580599
 31
0.0
  0
LINE
  5
34
330
2
100
AcDbEntity
  8
-VERGLASUNG
100
AcDbLine
 10
154.9654728702223
 20
212.6862649580592
 30
0.0
 11
158.8593476898484
 21
216.5801397776852
 31
0.0
  0
LINE
  5
35
330
2
100
AcDbEntity
  8
-VERGLASUNG
100
AcDbLine
 10
153.4029728702223
 20
212.6862649580592
 30
0.0
 11
157.2968476898484
 21
216.5801397776852
 31
0.0
  0
LINE
  5
36
330
2
100
AcDbEntity
  8
-VERGLASUNG
100
AcDbLine
 10
156.5279728702223
 20
212.6862649580592
 30
0.0
 11
160.4218476898484
 21
216.5801397776851
 31
0.0
  0
LWPOLYLINE
  5
37
330
2
100
AcDbEntity
  8
-VERGLASUNG
100
AcDbPolyline
 90
        6
 70
     0
 43
0.0
 10
61.1953430465494
 20
224.6862650994817
 10
188.8996805344959
 20
224.6862650994811
 10
190.8996805344959
 20
222.6862650994811
 10
190.8996805344959
 20
214.6862650994806
 10
188.8996805344959
 20
212.6862650994806
 10
61.1953430465494
 20
212.686265099481
  0
LINE
  5
38
330
2
100
AcDbEntity
  8
-VERGLASUNG
100
AcDbLine
 10
174.1131443883541
 20
220.7923902091446
 30
0.0
 11
178.0070192079802
 21
224.6862650287706
 31
0.0
  0
LINE
  5
39
330
2
100
AcDbEntity
  8
-VERGLASUNG
100
AcDbLine
 10
178.8932298243449
 20
212.6862650287699
 30
0.0
 11
182.7871046439709
 21
216.5801398483959
 31
0.0
  0
LINE
  5
3A
330
2
100
AcDbEntity
  8
-VERGLASUNG
100
AcDbLine
 10
177.3307298243449
 20
212.6862650287699
 30
0.0
 11
181.2246046439709
 21
216.5801398483959
 31
0.0
  0
LINE
  5
3B
330
2
100
AcDbEntity
  8
-VERGLASUNG
100
AcDbLine
 10
180.4557298243448
 20
212.6862650287699
 30
0.0
 11
184.3496046439709
 21
216.5801398483958
 31
0.0
  0
LINE
  5
3C
330
2
100
AcDbEntity
  8
-VERGLASUNG
100
AcDbLine
 10
177.2381443883541
 20
220.7923902091446
 30
0.0
 11
181.1320192079802
 21
224.6862650287706
 31
0.0
  0
LINE
  5
3D
330
2
100
AcDbEntity
  8
-VERGLASUNG
100
AcDbLine
 10
175.6756443883541
 20
220.7923902091446
 30
0.0
 11
179.5695192079802
 21
224.6862650287706
 31
0.0
  0
DIMENSION
  5
3E
330
2
100
AcDbEntity
  8
-TEXT3
100
AcDbDimension
  2
*D1
 10
56.10611410220815
 20
196.6862650994809
 30
0.0
 11
53.05580818786413
 21
204.1862650994809
 31
0.0
 71
     5
 42
15.00000000000006
  3
1-1PRO
100
AcDbAlignedDimension
 13
95.10401802244361
 23
211.6862650994809
 33
0.0
 14
98.39968053449602
 24
196.6862650994808
 34
0.0
 50
90.0
100
AcDbRotatedDimension
  0
DIMENSION
  5
4B
330
2
100
AcDbEntity
  8
-TEXT3
100
AcDbDimension
  2
*D2
 10
56.10611410220815
 20
211.6862650994809
 30
0.0
 11
56.10611410220811
 21
212.186265099481
 31
0.0
 70
   128
 71
     5
 42
1.000000000000113
  3
1-1PRO
100
AcDbAlignedDimension
 13
62.19534304654938
 23
212.686265099481
 33
0.0
 14
98.3996805344964
 24
211.6862650994809
 34
0.0
 50
90.0
100
AcDbRotatedDimension
  0
MTEXT
  5
59
330
2
100
AcDbEntity
  8
-TEXT2
100
AcDbMText
 10
42.44655420238517
 20
187.9234698904587
 30
0.0
 40
4.0
 41
43.30449999999999
 71
     1
 72
     5
  1
Zylinderk.-Schr.\PDIN6912-M6
 73
     1
 44
1.0
  0
LWPOLYLINE
  5
5B
330
2
100
AcDbEntity
  8
-NORMTEIL_VERDECKT
100
AcDbPolyline
 90
        4
 70
     1
 43
0.0
 10
105.8996805344959
 20
219.6862650994815
 10
103.0712534097497
 20
219.6862650994815
 10
98.07125340974973
 20
224.6862650994815
 10
100.8996805344959
 20
224.6862650994815
  0
LWPOLYLINE
  5
5E
330
2
100
AcDbEntity
  8
-NORMTEIL_VERDECKT
100
AcDbPolyline
 90
        3
 70
     0
 43
0.0
 10
114.3996805344959
 20
224.6862650994815
 10
114.3996805344959
 20
220.6862650994815
 10
115.8996805344959
 20
219.6862650994815
  0
LWPOLYLINE
  5
5F
330
2
100
AcDbEntity
  8
-NORMTEIL_VERDECKT
100
AcDbPolyline
 90
        4
 70
     1
 43
0.0
 10
115.8996805344959
 20
219.6862650994815
 10
118.7281076592421
 20
219.6862650994815
 10
123.7281076592421
 20
224.6862650994815
 10
120.8996805344959
 20
224.6862650994815
  0
LWPOLYLINE
  5
60
330
2
100
AcDbEntity
  8
-NORMTEIL_VERDECKT
100
AcDbPolyline
 90
        5
 70
     0
 43
0.0
 10
106.8996805344959
 20
224.6862650994815
 10
106.8996805344959
 20
220.6862650994815
 10
108.3996805344959
 20
219.6862650994815
 10
109.8996805344959
 20
220.6862650994815
 10
109.8996805344959
 20
224.6862650994824
  0
LWPOLYLINE
  5
61
330
2
100
AcDbEntity
  8
-NORMTEIL_VERDECKT
100
AcDbPolyline
 90
        5
 70
     0
 43
0.0
 10
100.8996805344959
 20
224.6862650994815
 10
120.8996805344959
 20
224.6862650994815
 10
115.8996805344959
 20
219.6862650994815
 10
105.8996805344959
 20
219.6862650994815
 10
100.8996805344959
 20
224.6862650994815
  0
LINE
  5
62
330
2
100
AcDbEntity
  8
-NORMTEIL_VERDECKT
100
AcDbLine
 10
106.899680534496
 20
199.6862650994808
 30
0.0
 11
114.899680534496
 21
199.6862650994808
 31
0.0
  0
LWPOLYLINE
  5
63
330
2
100
AcDbEntity
  8
-NORMTEIL_VERDECKT
100
AcDbPolyline
 90
        6
 70
     1
 43
0.0
 10
105.899680534496
 20
199.6862650994808
 10
115.899680534496
 20
199.6862650994808
 10
115.899680534496
 20
202.6862650994809
 42
0.4142135623730951
 10
114.899680534496
 20
203.6862650994808
 10
106.899680534496
 20
203.6862650994808
 42
0.4142135623730951
 10
105.899680534496
 20
202.6862650994809
  0
HATCH
  5
64
330
2
100
AcDbEntity
  8
-SCHRAFFUR
100
AcDbHatch
 10
0.0
 20
0.0
 30
0.0
210
0.0
220
0.0
230
1.0
  2
SOLID
 70
     1
 71
     1
 91
        1
 92
        1
 93
        4
 72
     1
 10
98.89968053449663
 20
211.6862650994809
 11
122.8996805344966
 21
211.6862650994808
 72
     1
 10
122.8996805344966
 20
211.6862650994808
 11
122.8996805344966
 21
212.6862650994808
 72
     1
 10
122.8996805344966
 20
212.6862650994808
 11
98.89968053449663
 21
212.6862650994809
 72
     1
 10
98.89968053449663
 20
212.6862650994809
 11
98.89968053449663
 21
211.6862650994809
 97
        1
330
66
 75
     0
 76
     1
 98
        1
 10
-5.855028159236795
 20
-12.04384978837184
450
        0
451
        0
460
0.0
461
0.0
452
        0
462
0.0
453
        0
470

  0
LWPOLYLINE
  5
66
102
{ACAD_REACTORS
330
64
102
}
330
2
100
AcDbEntity
  8
-DICHTUNG
100
AcDbPolyline
 90
        4
 70
     1
 43
0.0
 10
98.89968053449663
 20
211.6862650994809
 10
122.8996805344966
 20
211.6862650994808
 10
122.8996805344966
 20
212.6862650994808
 10
98.89968053449663
 20
212.6862650994809
  0
LINE
  5
68
330
2
100
AcDbEntity
  8
-NORMTEIL_VERDECKT
100
AcDbLine
 10
104.8996805344959
 20
218.1862650994815
 30
0.0
 11
116.899680534496
 21
218.1862650994815
 31
0.0
  0
LWPOLYLINE
  5
69
330
2
100
AcDbEntity
  8
-NORMTEIL_VERDECKT
100
AcDbPolyline
 90
        6
 70
     0
 43
0.0
 10
104.8996805344959
 20
219.6862650994815
 10
104.899680534496
 20
212.4982650994815
 10
105.4411805344959
 20
211.6862650994816
 10
116.358180534496
 20
211.6862650994815
 10
116.899680534496
 20
212.4982650994813
 10
116.899680534496
 20
219.6862650994815
  0
LINE
  5
6A
330
2
100
AcDbEntity
  8
-NORMTEIL_VERDECKT
100
AcDbLine
 10
103.8996805344959
 20
217.1862650994808
 30
0.0
 11
117.8996805344959
 21
217.1862650994808
 31
0.0
  0
LWPOLYLINE
  5
6B
330
2
100
AcDbEntity
  8
-PROFILAUSSENKANTET
100
AcDbPolyline
 90
        4
 70
     0
 43
0.0
 10
98.949680534496
 20
211.6862650994809
 10
98.39968053449602
 20
211.6862650994808
 10
98.39968053449602
 20
196.6862650994808
 10
123.399680534496
 20
196.6862650994808
  0
LINE
  5
6D
330
2
100
AcDbEntity
  8
-SCHRAFFUR
100
AcDbLine
 10
113.132680534496
 20
184.6862650994808
 30
0.0
 11
113.132680534496
 21
196.6862650994808
 31
0.0
  0
LINE
  5
6E
330
2
100
AcDbEntity
  8
-SCHRAFFUR
100
AcDbLine
 10
108.666680534496
 20
184.6862650994808
 30
0.0
 11
108.666680534496
 21
196.6862650994808
 31
0.0
  0
LWPOLYLINE
  5
6F
330
2
100
AcDbEntity
  8
-NORMTEIL
100
AcDbPolyline
 90
        6
 70
     0
 43
0.0
 10
107.899680534496
 20
196.6862650994808
 10
107.899680534496
 20
185.4532650994808
 10
108.666680534496
 20
184.6862650994808
 10
113.132680534496
 20
184.6862650994808
 10
113.899680534496
 20
185.4532650994808
 10
113.899680534496
 20
196.6862650994808
  0
LINE
  5
71
330
2
100
AcDbEntity
  8
-SCHRAFFUR
100
AcDbLine
 10
107.899680534496
 20
185.4532650994808
 30
0.0
 11
113.899680534496
 21
185.4532650994808
 31
0.0
  0
LINE
  5
72
330
2
100
AcDbEntity
  8
-NORMTEIL_VERDECKT
100
AcDbLine
 10
104.8996805344959
 20
208.6862650994811
 30
0.0
 11
105.4411805344958
 21
208.6862650994811
 31
0.0
  0
LINE
  5
73
330
2
100
AcDbEntity
  8
-NORMTEIL_VERDECKT
100
AcDbLine
 10
104.8996805344959
 20
208.6862650994811
 30
0.0
 11
105.4411805344958
 21
203.4825428670343
 31
0.0
  0
LINE
  5
74
330
2
100
AcDbEntity
  8
-NORMTEIL_VERDECKT
100
AcDbLine
 10
104.8996805344959
 20
220.1862650994815
 30
0.0
 11
104.8996805344959
 21
211.6862650994809
 31
0.0
  0
LINE
  5
75
330
2
100
AcDbEntity
  8
-NORMTEIL_VERDECKT
100
AcDbLine
 10
103.8996805344959
 20
218.6862650994815
 30
0.0
 11
103.8996805344959
 21
211.6862650994809
 31
0.0
  0
LINE
  5
76
330
2
100
AcDbEntity
  8
-NORMTEIL_VERDECKT
100
AcDbLine
 10
104.8996805344959
 20
212.4982650994815
 30
0.0
 11
104.8996805344959
 21
208.6862650994809
 31
0.0
  0
LINE
  5
77
330
2
100
AcDbEntity
  8
-TEXT3
100
AcDbLine
 10
107.899680534496
 20
196.6862650994808
 30
0.0
 11
113.899680534496
 21
196.6862650994808
 31
0.0
  0
LWPOLYLINE
  5
78
330
2
100
AcDbEntity
  8
-NORMTEIL_VERDECKT
100
AcDbPolyline
 90
        4
 70
     0
 43
0.0
 10
108.0129291885479
 20
203.6862650994808
 10
108.0129291885479
 20
200.6862650994809
 10
113.7864318804442
 20
200.6862650994809
 10
113.7864318804442
 20
203.6862650994808
  0
LINE
  5
79
330
2
100
AcDbEntity
  8
-NORMTEIL_VERDECKT
100
AcDbLine
 10
109.456304861522
 20
203.6862650994808
 30
0.0
 11
109.456304861522
 21
200.6862650994809
 31
0.0
  0
LINE
  5
7A
330
2
100
AcDbEntity
  8
-NORMTEIL_VERDECKT
100
AcDbLine
 10
107.649680534496
 20
196.6862650994808
 30
0.0
 11
107.649680534496
 21
199.6862650994808
 31
0.0
  0
LINE
  5
7B
330
2
100
AcDbEntity
  8
-NORMTEIL_VERDECKT
100
AcDbLine
 10
112.3430562074701
 20
203.6862650994808
 30
0.0
 11
112.3430562074701
 21
200.6862650994809
 31
0.0
  0
LINE
  5
7C
330
2
100
AcDbEntity
  8
-NORMTEIL_VERDECKT
100
AcDbLine
 10
114.149680534496
 20
196.6862650994808
 30
0.0
 11
114.149680534496
 21
199.6862650994808
 31
0.0
  0
LINE
  5
7D
330
2
100
AcDbEntity
  8
-NORMTEIL_VERDECKT
100
AcDbLine
 10
105.4411805344956
 20
199.6862650994808
 30
0.0
 11
105.4411805344956
 21
218.1862650994816
 31
0.0
  0
LINE
  5
7E
330
2
100
AcDbEntity
  8
-NORMTEIL_VERDECKT
100
AcDbLine
 10
116.899680534496
 20
208.6862650994808
 30
0.0
 11
116.358180534496
 21
203.482542867034
 31
0.0
  0
LWPOLYLINE
  5
7F
330
2
100
AcDbEntity
  8
-PROFILAUSSENKANTET
100
AcDbPolyline
 90
        4
 70
     0
 43
0.0
 10
123.399680534496
 20
196.6862650994808
 10
123.399680534496
 20
196.6862650994808
 10
123.399680534496
 20
211.6862650994808
 10
122.8496805344959
 20
211.6862650994808
  0
LINE
  5
80
330
2
100
AcDbEntity
  8
-NORMTEIL_VERDECKT
100
AcDbLine
 10
117.8996805344959
 20
218.6862650994815
 30
0.0
 11
117.8996805344958
 21
211.6862650994808
 31
0.0
  0
LINE
  5
81
330
2
100
AcDbEntity
  8
-NORMTEIL_VERDECKT
100
AcDbLine
 10
116.899680534496
 20
212.4982650994813
 30
0.0
 11
116.899680534496
 21
208.6862650994808
 31
0.0
  0
LINE
  5
82
330
2
100
AcDbEntity
  8
-NORMTEIL_VERDECKT
100
AcDbLine
 10
116.358180534496
 20
208.6862650994809
 30
0.0
 11
116.899680534496
 21
208.6862650994806
 31
0.0
  0
LINE
  5
83
330
2
100
AcDbEntity
  8
-NORMTEIL_VERDECKT
100
AcDbLine
 10
116.358180534496
 20
218.1862650994815
 30
0.0
 11
116.358180534496
 21
199.6862650994808
 31
0.0
  0
LINE
  5
84
330
2
100
AcDbEntity
  8
-NORMTEIL_VERDECKT
100
AcDbLine
 10
114.3996805344959
 20
220.6862650994815
 30
0.0
 11
116.8996805344959
 21
220.6862650994815
 31
0.0
  0
DIMENSION
  5
85
330
2
100
AcDbEntity
  8
-TEXT3
100
AcDbDimension
  2
*D3
 10
120.8996805344959
 20
234.789491282157
 30
0.0
 11
110.8996805344959
 21
238.0151880870516
 31
0.0
  1
%%c<>
 71
     5
 42
20.0
  3
1-1PRO
100
AcDbAlignedDimension
 13
100.8996805344959
 23
224.6862650994815
 33
0.0
 14
120.8996805344959
 24
224.6862650994815
 34
0.0
100
AcDbRotatedDimension
  0
DIMENSION
  5
92
330
2
100
AcDbEntity
  8
-TEXT3
100
AcDbDimension
  2
*D4
 10
123.7281076592421
 20
244.148751456711
 30
0.0
 11
110.8996805344943
 21
244.148751456711
 31
0.0
 70
   128
  1
%%c<>
 71
     5
 42
25.65685424949243
  3
1-1PRO
100
AcDbAlignedDimension
 13
98.07125340974973
 23
224.6862650994815
 33
0.0
 14
123.7281076592421
 24
224.6862650994815
 34
0.0
100
AcDbRotatedDimension
1001
ACAD
1000
DSTYLE
1002
{
1002
}
  0
LINE
  5
9F
330
2
100
AcDbEntity
  8
-NORMTEIL_VERDECKT
100
AcDbLine
 10
106.8996805344959
 20
220.6862650994815
 30
0.0
 11
109.8996805344959
 21
220.6862650994815
 31
0.0
  0
LWPOLYLINE
  5
A0
330
2
100
AcDbEntity
  8
-NORMTEIL_VERDECKT
100
AcDbPolyline
 90
        2
 70
     0
 43
0.0
 10
117.3996805344959
 20
221.1862650994814
 10
117.3996805344959
 20
224.6862650994815
  0
DIMENSION
  5
A1
330
2
100
AcDbEntity
  8
-TEXT3
100
AcDbDimension
  2
*D5
 10
123.399680534496
 20
175.7237787422514
 30
0.0
 11
110.8996805344944
 21
175.7237787422514
 31
0.0
 70
   128
  1
%%c<>
 71
     5
 42
25.0
  3
1-1PRO
100
AcDbAlignedDimension
 13
98.39968053449602
 23
196.6862650994808
 33
0.0
 14
123.399680534496
 24
196.6862650994811
 34
0.0
100
AcDbRotatedDimension
1001
ACAD
1000
DSTYLE
1002
{
1002
}
  0
LINE
  5
AE
330
2
100
AcDbEntity
  8
-SYSTEM
100
AcDbLine
 10
133.3971030917721
 20
72.44627647127649
 30
0.0
 11
88.40225797722004
 21
72.44627647127626
 31
0.0
  0
LWPOLYLINE
  5
AF
330
2
100
AcDbEntity
  8
-VERGLASUNG
100
AcDbPolyline
 90
        4
 70
     0
 43
0.0
 10
37.92218947360209
 20
152.446276471276
 10
188.899680534496
 20
152.4462764712762
 10
190.899680534496
 20
150.4462764712761
 10
190.8996805344961
 20
20.46707031589026
  0
HATCH
  5
B0
330
2
100
AcDbEntity
  8
-SCHRAFFUR
100
AcDbHatch
 10
0.0
 20
0.0
 30
0.0
210
0.0
220
0.0
230
1.0
  2
SOLID
 70
     1
 71
     1
 91
        2
 92
       16
 93
        1
 72
     2
 10
110.8996805344961
 20
72.44627647127638
 40
13.0
 50
0.0
 51
360.0
 73
     1
 97
        1
330
B2
 92
        1
 93
        1
 72
     2
 10
110.8996805344961
 20
72.44627647127638
 40
15.82842712474638
 50
0.0
 51
360.0
 73
     1
 97
        1
330
B3
 75
     0
 76
     1
 98
        1
 10
-1.408337958531092
 20
17.18421153090204
450
        0
451
        0
460
0.0
461
0.0
452
        0
462
0.0
453
        0
470

  0
CIRCLE
  5
B1
330
2
100
AcDbEntity
  8
-PROFILAUSSENKANTET
100
AcDbCircle
 10
117.8996805344961
 20
72.44627647127642
 30
0.0
 40
1.75
  0
CIRCLE
  5
B2
102
{ACAD_REACTORS
330
B0
102
}
330
2
100
AcDbEntity
  8
-PROFILAUSSENKANTET
100
AcDbCircle
 10
110.8996805344961
 20
72.44627647127638
 30
0.0
 40
13.0
  0
CIRCLE
  5
B3
102
{ACAD_REACTORS
330
B0
102
}
330
2
100
AcDbEntity
  8
-DICHTUNG
100
AcDbCircle
 10
110.8996805344961
 20
72.44627647127638
 30
0.0
 40
15.82842712474638
  0
LINE
  5
B4
330
2
100
AcDbEntity
  8
-SYSTEM
100
AcDbLine
 10
110.899680534496
 20
94.94369902855245
 30
0.0
 11
110.8996805344962
 21
49.94885391400033
 31
0.0
  0
CIRCLE
  5
B5
330
2
100
AcDbEntity
  8
-PROFILAUSSENKANTET
100
AcDbCircle
 10
107.3996805344961
 20
66.38409864478532
 30
0.0
 40
1.75
  0
CIRCLE
  5
B6
330
2
100
AcDbEntity
  8
-PROFILAUSSENKANTET
100
AcDbCircle
 10
107.3996805344961
 20
78.50845429776746
 30
0.0
 40
1.75
  0
LWPOLYLINE
  5
B7
330
2
100
AcDbEntity
  8
-TEXT2
100
AcDbPolyline
 90
        3
 70
     1
 43
0.0
 10
168.6801285745594
 20
152.4462764712761
 10
172.8140659372204
 20
159.6064660187123
 10
164.5461912118983
 20
159.6064660187123
  0
MTEXT
  5
B8
330
2
100
AcDbEntity
  8
-TEXT2
100
AcDbMText
 10
160.0768162621464
 20
164.6654934378217
 30
0.0
 40
3.5
 41
17.9978
 71
     1
 72
     5
  1
{\fArial|b0|i0|c0|p34;Glaskante}
 73
     1
 44
1.0
  0
ENDSEC
  0
SECTION
  2
OBJECTS
  0
DICTIONARY
  5
7
330
0
100
AcDbDictionary
281
     1
  3
ACAD_COLOR
350
D3
  3
ACAD_GROUP
350
CF
  3
ACAD_LAYOUT
350
BB
  3
ACAD_MATERIAL
350
D2
  3
ACAD_MLINESTYLE
350
D0
  3
ACAD_PLOTSETTINGS
350
D1
  3
ACAD_PLOTSTYLENAME
350
6
  3
ACAD_TABLESTYLE
350
E1
  3
AcDbVariableDictionary
350
DC
  0
DICTIONARY
  5
C1
330
C0
100
AcDbDictionary
280
     1
281
     1
  3
ACAD_LAYERSTATES
360
C2
  0
DICTIONARY
  5
D3
102
{ACAD_REACTORS
330
7
102
}
330
7
100
AcDbDictionary
281
     1
  0
DICTIONARY
  5
CF
102
{ACAD_REACTORS
330
7
102
}
330
7
100
AcDbDictionary
281
     1
  0
DICTIONARY
  5
BB
102
{ACAD_REACTORS
330
7
102
}
330
7
100
AcDbDictionary
281
     1
  3
Layout1
350
BF
  3
Model
350
BA
  0
DICTIONARY
  5
D2
102
{ACAD_REACTORS
330
7
102
}
330
7
100
AcDbDictionary
281
     1
  0
DICTIONARY
  5
D0
102
{ACAD_REACTORS
330
7
102
}
330
7
100
AcDbDictionary
281
     1
  3
STANDARD
350
D4
  0
DICTIONARY
  5
D1
102
{ACAD_REACTORS
330
7
102
}
330
7
100
AcDbDictionary
281
     1
  0
ACDBDICTIONARYWDFLT
  5
6
102
{ACAD_REACTORS
330
7
102
}
330
7
100
AcDbDictionary
281
     1
  3
Normal
350
5
100
AcDbDictionaryWithDefault
340
5
  0
DICTIONARY
  5
E1
102
{ACAD_REACTORS
330
7
102
}
330
7
100
AcDbDictionary
281
     1
  3
Standard
350
E2
  0
DICTIONARY
  5
DC
102
{ACAD_REACTORS
330
7
102
}
330
7
100
AcDbDictionary
281
     1
  3
CTABLESTYLE
350
E6
  3
DIMASSOC
350
DE
  3
HIDETEXT
350
DD
  3
PROJECTNAME
350
DF
  0
DICTIONARY
  5
C2
102
{ACAD_REACTORS
330
C1
102
}
330
C1
100
AcDbDictionary
281
     1
  0
LAYOUT
  5
BF
102
{ACAD_REACTORS
330
BB
102
}
330
BB
100
AcDbPlotSettings
  1

  2
HP DeskJet 1120C Printer
  4

  6

 40
0.0
 41
0.0
 42
0.0
 43
0.0
 44
0.0
 45
0.0
 46
0.0
 47
0.0
 48
0.0
 49
0.0
140
0.0
141
0.0
142
1.0
143
1.0
 70
   688
 72
     0
 73
     0
 74
     5
  7
monochrome.ctb
 75
    16
147
1.0
 76
     0
 77
     2
 78
   300
148
0.0
149
0.0
100
AcDbLayout
  1
Layout1
 70
     1
 71
     1
 10
0.0
 20
0.0
 11
12.0
 21
9.0
 12
0.0
 22
0.0
 32
0.0
 14
1.000000000000000E+20
 24
1.000000000000000E+20
 34
1.000000000000000E+20
 15
-1.000000000000000E+20
 25
-1.000000000000000E+20
 35
-1.000000000000000E+20
146
0.0
 13
0.0
 23
0.0
 33
0.0
 16
1.0
 26
0.0
 36
0.0
 17
0.0
 27
1.0
 37
0.0
 76
     0
330
BC
  0
LAYOUT
  5
BA
102
{ACAD_REACTORS
330
BB
102
}
330
BB
100
AcDbPlotSettings
  1

  2
HP DeskJet 1120C Printer
  4

  6

 40
0.0
 41
0.0
 42
0.0
 43
0.0
 44
0.0
 45
0.0
 46
0.0
 47
0.0
 48
0.0
 49
0.0
140
0.0
141
0.0
142
1.0
143
1.0
 70
  1712
 72
     0
 73
     0
 74
     0
  7
monochrome.ctb
 75
     0
147
1.0
 76
     0
 77
     2
 78
   300
148
0.0
149
0.0
100
AcDbLayout
  1
Model
 70
     1
 71
     0
 10
0.0
 20
0.0
 11
12.0
 21
9.0
 12
0.0
 22
0.0
 32
0.0
 14
0.0
 24
0.0
 34
0.0
 15
0.0
 25
0.0
 35
0.0
146
0.0
 13
0.0
 23
0.0
 33
0.0
 16
1.0
 26
0.0
 36
0.0
 17
0.0
 27
1.0
 37
0.0
 76
     0
330
2
  0
MLINESTYLE
  5
D4
102
{ACAD_REACTORS
330
D0
102
}
330
D0
100
AcDbMlineStyle
  2
STANDARD
 70
     0
  3

 62
     0
 51
90.0
 52
90.0
 71
     2
 49
0.5
 62
   256
  6
BYLAYER
 49
-0.5
 62
   256
  6
BYLAYER
  0
ACDBPLACEHOLDER
  5
5
102
{ACAD_REACTORS
330
6
102
}
330
6
  0
TABLESTYLE
  5
E2
102
{ACAD_REACTORS
330
E1
102
}
330
E1
100
AcDbTableStyle
  3
Standard
 70
     0
 71
     0
 40
0.06
 41
0.06
280
     0
281
     0
  7
STANDARD
140
0.18
170
     2
 62
     0
 63
     7
283
     0
274
    -2
284
     1
 64
     0
275
    -2
285
     1
 65
     0
276
    -2
286
     1
 66
     0
277
    -2
287
     1
 67
     0
278
    -2
288
     1
 68
     0
279
    -2
289
     1
 69
     0
  7
STANDARD
140
0.25
170
     5
 62
     0
 63
     7
283
     0
274
    -2
284
     1
 64
     0
275
    -2
285
     1
 65
     0
276
    -2
286
     1
 66
     0
277
    -2
287
     1
 67
     0
278
    -2
288
     1
 68
     0
279
    -2
289
     1
 69
     0
  7
STANDARD
140
0.18
170
     5
 62
     0
 63
     7
283
     0
274
    -2
284
     1
 64
     0
275
    -2
285
     1
 65
     0
276
    -2
286
     1
 66
     0
277
    -2
287
     1
 67
     0
278
    -2
288
     1
 68
     0
279
    -2
289
     1
 69
     0
  0
DICTIONARYVAR
  5
E6
102
{ACAD_REACTORS
330
DC
102
}
330
DC
100
DictionaryVariables
280
     0
  1
STANDARD
  0
DICTIONARYVAR
  5
DE
102
{ACAD_REACTORS
330
DC
102
}
330
DC
100
DictionaryVariables
280
     0
  1
1
  0
DICTIONARYVAR
  5
DD
102
{ACAD_REACTORS
330
DC
102
}
330
DC
100
DictionaryVariables
280
     0
  1
1
  0
DICTIONARYVAR
  5
DF
102
{ACAD_REACTORS
330
DC
102
}
330
DC
100
DictionaryVariables
280
     0
  1

  0
ENDSEC
  0
EOF
