  0
SECTION
  2
HEADER
  9
$ACADVER
  1
AC1015
  9
$ACADMAINTVER
 70
    18
  9
$DWGCODEPAGE
  3
ANSI_1252
  9
$INSBASE
 10
-327.8288694144876
 20
0.0
 30
0.0
  9
$EXTMIN
 10
1.000000000000000E+20
 20
1.000000000000000E+20
 30
1.000000000000000E+20
  9
$EXTMAX
 10
0.0
 20
0.0
 30
0.0
  9
$LIMMIN
 10
0.0
 20
0.0
  9
$LIMMAX
 10
12.0
 20
9.0
  9
$ORTHOMODE
 70
     1
  9
$REGENMODE
 70
     1
  9
$FILLMODE
 70
     1
  9
$QTEXTMODE
 70
     0
  9
$MIRRTEXT
 70
     1
  9
$LTSCALE
 40
2.5
  9
$ATTMODE
 70
     1
  9
$TEXTSIZE
 40
0.2
  9
$TRACEWID
 40
0.05
  9
$TEXTSTYLE
  7
STANDARD
  9
$CLAYER
  8
-SCHRAFFUR
  9
$CELTYPE
  6
BYLAYER
  9
$CECOLOR
 62
   256
  9
$CELTSCALE
 40
1.0
  9
$DISPSILH
 70
     0
  9
$DIMSCALE
 40
1.0
  9
$DIMASZ
 40
3.5
  9
$DIMEXO
 40
2.0
  9
$DIMDLI
 40
2.0
  9
$DIMRND
 40
0.0
  9
$DIMDLE
 40
0.0
  9
$DIMEXE
 40
1.5
  9
$DIMTP
 40
0.0
  9
$DIMTM
 40
0.0
  9
$DIMTXT
 40
4.0
  9
$DIMCEN
 40
0.09
  9
$DIMTSZ
 40
0.0
  9
$DIMTOL
 70
     0
  9
$DIMLIM
 70
     0
  9
$DIMTIH
 70
     0
  9
$DIMTOH
 70
     0
  9
$DIMSE1
 70
     0
  9
$DIMSE2
 70
     0
  9
$DIMTAD
 70
     1
  9
$DIMZIN
 70
     9
  9
$DIMBLK
  1

  9
$DIMASO
 70
     1
  9
$DIMSHO
 70
     1
  9
$DIMPOST
  1

  9
$DIMAPOST
  1

  9
$DIMALT
 70
     0
  9
$DIMALTD
 70
     2
  9
$DIMALTF
 40
25.4
  9
$DIMLFAC
 40
1.0
  9
$DIMTOFL
 70
     0
  9
$DIMTVP
 40
0.0
  9
$DIMTIX
 70
     0
  9
$DIMSOXD
 70
     0
  9
$DIMSAH
 70
     0
  9
$DIMBLK1
  1

  9
$DIMBLK2
  1

  9
$DIMSTYLE
  2
1-1PRO
  9
$DIMCLRD
 70
     2
  9
$DIMCLRE
 70
     2
  9
$DIMCLRT
 70
     2
  9
$DIMTFAC
 40
1.0
  9
$DIMGAP
 40
1.0
  9
$DIMJUST
 70
     0
  9
$DIMSD1
 70
     0
  9
$DIMSD2
 70
     0
  9
$DIMTOLJ
 70
     1
  9
$DIMTZIN
 70
     0
  9
$DIMALTZ
 70
     0
  9
$DIMALTTZ
 70
     0
  9
$DIMUPT
 70
     0
  9
$DIMDEC
 70
     1
  9
$DIMTDEC
 70
     4
  9
$DIMALTU
 70
     2
  9
$DIMALTTD
 70
     2
  9
$DIMTXSTY
  7
STANDARD
  9
$DIMAUNIT
 70
     0
  9
$DIMADEC
 70
     0
  9
$DIMALTRND
 40
0.0
  9
$DIMAZIN
 70
     0
  9
$DIMDSEP
 70
    46
  9
$DIMATFIT
 70
     3
  9
$DIMFRAC
 70
     0
  9
$DIMLDRBLK
  1

  9
$DIMLUNIT
 70
     2
  9
$DIMLWD
 70
    -2
  9
$DIMLWE
 70
    -2
  9
$DIMTMOVE
 70
     0
  9
$LUNITS
 70
     2
  9
$LUPREC
 70
     4
  9
$SKETCHINC
 40
0.1
  9
$FILLETRAD
 40
0.0
  9
$AUNITS
 70
     0
  9
$AUPREC
 70
     0
  9
$MENU
  1
.
  9
$ELEVATION
 40
0.0
  9
$PELEVATION
 40
0.0
  9
$THICKNESS
 40
0.0
  9
$LIMCHECK
 70
     0
  9
$CHAMFERA
 40
2.0
  9
$CHAMFERB
 40
2.0
  9
$CHAMFERC
 40
1.0
  9
$CHAMFERD
 40
0.0
  9
$SKPOLY
 70
     0
  9
$TDCREATE
 40
2450923.406402199
  9
$TDUCREATE
 40
2450923.364735533
  9
$TDUPDATE
 40
2453398.331683623
  9
$TDUUPDATE
 40
2453398.290016956
  9
$TDINDWG
 40
2.6578695949
  9
$TDUSRTIMER
 40
2.6578695949
  9
$USRTIMER
 70
     1
  9
$ANGBASE
 50
0.0
  9
$ANGDIR
 70
     0
  9
$PDMODE
 70
     0
  9
$PDSIZE
 40
0.0
  9
$PLINEWID
 40
0.0
  9
$SPLFRAME
 70
     0
  9
$SPLINETYPE
 70
     6
  9
$SPLINESEGS
 70
     8
  9
$HANDSEED
  5
E0
  9
$SURFTAB1
 70
     6
  9
$SURFTAB2
 70
     6
  9
$SURFTYPE
 70
     6
  9
$SURFU
 70
     6
  9
$SURFV
 70
     6
  9
$UCSBASE
  2

  9
$UCSNAME
  2

  9
$UCSORG
 10
0.0
 20
0.0
 30
0.0
  9
$UCSXDIR
 10
1.0
 20
0.0
 30
0.0
  9
$UCSYDIR
 10
0.0
 20
1.0
 30
0.0
  9
$UCSORTHOREF
  2

  9
$UCSORTHOVIEW
 70
     0
  9
$UCSORGTOP
 10
0.0
 20
0.0
 30
0.0
  9
$UCSORGBOTTOM
 10
0.0
 20
0.0
 30
0.0
  9
$UCSORGLEFT
 10
0.0
 20
0.0
 30
0.0
  9
$UCSORGRIGHT
 10
0.0
 20
0.0
 30
0.0
  9
$UCSORGFRONT
 10
0.0
 20
0.0
 30
0.0
  9
$UCSORGBACK
 10
0.0
 20
0.0
 30
0.0
  9
$PUCSBASE
  2

  9
$PUCSNAME
  2

  9
$PUCSORG
 10
0.0
 20
0.0
 30
0.0
  9
$PUCSXDIR
 10
1.0
 20
0.0
 30
0.0
  9
$PUCSYDIR
 10
0.0
 20
1.0
 30
0.0
  9
$PUCSORTHOREF
  2

  9
$PUCSORTHOVIEW
 70
     0
  9
$PUCSORGTOP
 10
0.0
 20
0.0
 30
0.0
  9
$PUCSORGBOTTOM
 10
0.0
 20
0.0
 30
0.0
  9
$PUCSORGLEFT
 10
0.0
 20
0.0
 30
0.0
  9
$PUCSORGRIGHT
 10
0.0
 20
0.0
 30
0.0
  9
$PUCSORGFRONT
 10
0.0
 20
0.0
 30
0.0
  9
$PUCSORGBACK
 10
0.0
 20
0.0
 30
0.0
  9
$USERI1
 70
     0
  9
$USERI2
 70
     0
  9
$USERI3
 70
     0
  9
$USERI4
 70
     0
  9
$USERI5
 70
     0
  9
$USERR1
 40
0.0
  9
$USERR2
 40
0.0
  9
$USERR3
 40
0.0
  9
$USERR4
 40
0.0
  9
$USERR5
 40
0.0
  9
$WORLDVIEW
 70
     1
  9
$SHADEDGE
 70
     3
  9
$SHADEDIF
 70
    70
  9
$TILEMODE
 70
     1
  9
$MAXACTVP
 70
    48
  9
$PINSBASE
 10
0.0
 20
0.0
 30
0.0
  9
$PLIMCHECK
 70
     0
  9
$PEXTMIN
 10
1.000000000000000E+20
 20
1.000000000000000E+20
 30
1.000000000000000E+20
  9
$PEXTMAX
 10
-1.000000000000000E+20
 20
-1.000000000000000E+20
 30
-1.000000000000000E+20
  9
$PLIMMIN
 10
0.0
 20
0.0
  9
$PLIMMAX
 10
12.0
 20
9.0
  9
$UNITMODE
 70
     0
  9
$VISRETAIN
 70
     1
  9
$PLINEGEN
 70
     0
  9
$PSLTSCALE
 70
     1
  9
$TREEDEPTH
 70
  3020
  9
$CMLSTYLE
  2
STANDARD
  9
$CMLJUST
 70
     0
  9
$CMLSCALE
 40
1.0
  9
$PROXYGRAPHICS
 70
     1
  9
$MEASUREMENT
 70
     0
  9
$CELWEIGHT
370
    -1
  9
$ENDCAPS
280
     0
  9
$JOINSTYLE
280
     0
  9
$LWDISPLAY
290
     0
  9
$INSUNITS
 70
     0
  9
$HYPERLINKBASE
  1

  9
$STYLESHEET
  1

  9
$XEDIT
290
     1
  9
$CEPSNTYPE
380
     0
  9
$PSTYLEMODE
290
     1
  9
$FINGERPRINTGUID
  2
{45688A0D-FAC4-11D4-9C1F-D9C58A29B85E}
  9
$VERSIONGUID
  2
{9463EFD0-658A-48AA-9798-9690ACBC357B}
  9
$EXTNAMES
290
     1
  9
$PSVPSCALE
 40
0.0
  9
$OLESTARTUP
290
     0
  0
ENDSEC
  0
SECTION
  2
CLASSES
  0
CLASS
  1
DICTIONARYVAR
  2
AcDbDictionaryVar
  3
ObjectDBX Classes
 90
        0
280
     0
281
     0
  0
CLASS
  1
IMAGE
  2
AcDbRasterImage
  3
ISM
 90
    32895
280
     0
281
     1
  0
CLASS
  1
IMAGEDEF_REACTOR
  2
AcDbRasterImageDefReactor
  3
ISM
 90
    32769
280
     0
281
     0
  0
CLASS
  1
IMAGEDEF
  2
AcDbRasterImageDef
  3
ISM
 90
    32768
280
     0
281
     0
  0
CLASS
  1
RASTERVARIABLES
  2
AcDbRasterVariables
  3
ISM
 90
    32768
280
     0
281
     0
  0
CLASS
  1
ACDBDICTIONARYWDFLT
  2
AcDbDictionaryWithDefault
  3
ObjectDBX Classes
 90
        0
280
     0
281
     0
  0
CLASS
  1
ACDBPLACEHOLDER
  2
AcDbPlaceHolder
  3
ObjectDBX Classes
 90
        0
280
     0
281
     0
  0
CLASS
  1
LAYOUT
  2
AcDbLayout
  3
ObjectDBX Classes
 90
        0
280
     0
281
     0
  0
ENDSEC
  0
SECTION
  2
TABLES
  0
TABLE
  2
VPORT
  5
C8
330
0
100
AcDbSymbolTable
 70
     1
  0
VPORT
  5
C9
330
C8
100
AcDbSymbolTableRecord
100
AcDbViewportTableRecord
  2
*Active
 70
     0
 10
0.0
 20
0.0
 11
1.0
 21
1.0
 12
118.861699368022
 22
149.1070702039168
 13
0.0
 23
0.0
 14
0.5
 24
0.5
 15
0.5
 25
0.5
 16
0.0
 26
0.0
 36
1.0
 17
0.0
 27
0.0
 37
0.0
 40
252.3238034211233
 41
1.549148099606815
 42
50.0
 43
0.0
 44
0.0
 50
0.0
 51
0.0
 71
     0
 72
   100
 73
     1
 74
     1
 75
     0
 76
     0
 77
     0
 78
     0
281
     0
 65
     1
110
0.0
120
0.0
130
0.0
111
1.0
121
0.0
131
0.0
112
0.0
122
1.0
132
0.0
 79
     0
146
0.0
  0
ENDTAB
  0
TABLE
  2
LTYPE
  5
C3
330
0
100
AcDbSymbolTable
 70
     3
  0
LTYPE
  5
C4
330
C3
100
AcDbSymbolTableRecord
100
AcDbLinetypeTableRecord
  2
BYBLOCK
 70
     0
  3

 72
    65
 73
     0
 40
0.0
  0
LTYPE
  5
C5
330
C3
100
AcDbSymbolTableRecord
100
AcDbLinetypeTableRecord
  2
BYLAYER
 70
     0
  3

 72
    65
 73
     0
 40
0.0
  0
LTYPE
  5
8
330
C3
100
AcDbSymbolTableRecord
100
AcDbLinetypeTableRecord
  2
CONTINUOUS
 70
     0
  3
Solid line
 72
    65
 73
     0
 40
0.0
  0
LTYPE
  5
12
330
C3
100
AcDbSymbolTableRecord
100
AcDbLinetypeTableRecord
  2
MITTEX2
 70
     0
  3
Mitte (2x) ________  __  ________  __  _____
 72
    65
 73
     4
 40
4.0
 49
2.5
 74
     0
 49
-0.5
 74
     0
 49
0.5
 74
     0
 49
-0.5
 74
     0
  0
LTYPE
  5
15
330
C3
100
AcDbSymbolTableRecord
100
AcDbLinetypeTableRecord
  2
STRICHLINIEX2
 70
     0
  3
Strichlinie (2x) ____  ____  ____  ____  ____  
 72
    65
 73
     2
 40
1.5
 49
1.0
 74
     0
 49
-0.5
 74
     0
  0
ENDTAB
  0
TABLE
  2
LAYER
  5
C0
330
0
100
AcDbSymbolTable
 70
    11
  0
LAYER
  5
4
330
C0
100
AcDbSymbolTableRecord
100
AcDbLayerTableRecord
  2
0
 70
     0
 62
     7
  6
CONTINUOUS
370
    -3
390
5
  0
LAYER
  5
17
330
C0
100
AcDbSymbolTableRecord
100
AcDbLayerTableRecord
  2
-PROFILAUSSENKANTET
 70
     0
 62
     4
  6
CONTINUOUS
370
    -3
390
5
  0
LAYER
  5
1B
330
C0
100
AcDbSymbolTableRecord
100
AcDbLayerTableRecord
  2
-DICHTUNG
 70
     0
 62
     3
  6
CONTINUOUS
370
    -3
390
5
  0
LAYER
  5
37
330
C0
100
AcDbSymbolTableRecord
100
AcDbLayerTableRecord
  2
-NORMTEIL
 70
     0
 62
     6
  6
CONTINUOUS
370
    -3
390
5
  0
LAYER
  5
14
330
C0
100
AcDbSymbolTableRecord
100
AcDbLayerTableRecord
  2
-NORMTEIL_VERDECKT
 70
     0
 62
     9
  6
STRICHLINIEX2
370
    -3
390
5
  0
LAYER
  5
32
330
C0
100
AcDbSymbolTableRecord
100
AcDbLayerTableRecord
  2
DEFPOINTS
 70
     0
 62
     7
  6
CONTINUOUS
290
     0
370
    -3
390
5
  0
LAYER
  5
11
330
C0
100
AcDbSymbolTableRecord
100
AcDbLayerTableRecord
  2
-SYSTEM
 70
     0
 62
     2
  6
MITTEX2
370
    -3
390
5
  0
LAYER
  5
C
330
C0
100
AcDbSymbolTableRecord
100
AcDbLayerTableRecord
  2
-TEXT2
 70
     0
 62
     3
  6
CONTINUOUS
370
    -3
390
5
  0
LAYER
  5
26
330
C0
100
AcDbSymbolTableRecord
100
AcDbLayerTableRecord
  2
-TEXT3
 70
     0
 62
     2
  6
CONTINUOUS
370
    -3
390
5
  0
LAYER
  5
1D
330
C0
100
AcDbSymbolTableRecord
100
AcDbLayerTableRecord
  2
-SCHRAFFUR
 70
     0
 62
     9
  6
CONTINUOUS
370
    -3
390
5
  0
LAYER
  5
A
330
C0
100
AcDbSymbolTableRecord
100
AcDbLayerTableRecord
  2
-VERGLASUNG
 70
     0
 62
     1
  6
CONTINUOUS
370
    -3
390
5
  0
ENDTAB
  0
TABLE
  2
STYLE
  5
C1
330
0
100
AcDbSymbolTable
 70
     1
  0
STYLE
  5
D
330
C1
100
AcDbSymbolTableRecord
100
AcDbTextStyleTableRecord
  2
STANDARD
 70
     0
 40
0.0
 41
1.0
 50
0.0
 71
     0
 42
0.2
  3
GOTHIC.TTF
  4

1001
ACAD
1000
Century Gothic
1071
       34
  0
ENDTAB
  0
TABLE
  2
VIEW
  5
C6
330
0
100
AcDbSymbolTable
 70
     0
  0
ENDTAB
  0
TABLE
  2
UCS
  5
C7
330
0
100
AcDbSymbolTable
 70
     0
  0
ENDTAB
  0
TABLE
  2
APPID
  5
CA
330
0
100
AcDbSymbolTable
 70
     1
  0
APPID
  5
E
330
CA
100
AcDbSymbolTableRecord
100
AcDbRegAppTableRecord
  2
ACAD
 70
     0
  0
ENDTAB
  0
TABLE
  2
DIMSTYLE
  5
CB
330
0
100
AcDbSymbolTable
 70
     1
100
AcDbDimStyleTable
 71
     0
  0
DIMSTYLE
105
27
102
{ACAD_REACTORS
330
47
330
3A
330
25
330
65
330
73
330
58
330
83
102
}
330
CB
100
AcDbSymbolTableRecord
100
AcDbDimStyleTableRecord
  2
1-1PRO
 70
     0
 41
3.5
 42
2.0
 43
2.0
 44
1.5
 73
     0
 74
     0
 77
     1
 78
     9
140
4.0
147
1.0
176
     2
177
     2
178
     2
271
     1
340
D
  0
ENDTAB
  0
TABLE
  2
BLOCK_RECORD
  5
1
330
0
100
AcDbSymbolTable
 70
     7
  0
BLOCK_RECORD
  5
2
330
1
100
AcDbSymbolTableRecord
100
AcDbBlockTableRecord
  2
*MODEL_SPACE
340
BA
  0
BLOCK_RECORD
  5
BC
330
1
100
AcDbSymbolTableRecord
100
AcDbBlockTableRecord
  2
*PAPER_SPACE
340
BF
  0
BLOCK_RECORD
  5
48
330
1
100
AcDbSymbolTableRecord
100
AcDbBlockTableRecord
  2
*D0
340
0
  0
BLOCK_RECORD
  5
3B
330
1
100
AcDbSymbolTableRecord
100
AcDbBlockTableRecord
  2
*D1
340
0
  0
BLOCK_RECORD
  5
28
330
1
100
AcDbSymbolTableRecord
100
AcDbBlockTableRecord
  2
*D2
340
0
  0
BLOCK_RECORD
  5
66
330
1
100
AcDbSymbolTableRecord
100
AcDbBlockTableRecord
  2
*D3
340
0
  0
BLOCK_RECORD
  5
74
330
1
100
AcDbSymbolTableRecord
100
AcDbBlockTableRecord
  2
*D4
340
0
  0
BLOCK_RECORD
  5
59
330
1
100
AcDbSymbolTableRecord
100
AcDbBlockTableRecord
  2
*D5
340
0
  0
BLOCK_RECORD
  5
84
330
1
100
AcDbSymbolTableRecord
100
AcDbBlockTableRecord
  2
*D6
340
0
  0
ENDTAB
  0
ENDSEC
  0
SECTION
  2
BLOCKS
  0
BLOCK
  5
3
330
2
100
AcDbEntity
  8
0
100
AcDbBlockBegin
  2
*MODEL_SPACE
 70
     0
 10
0.0
 20
0.0
 30
0.0
  3
*MODEL_SPACE
  1

  0
ENDBLK
  5
B9
330
2
100
AcDbEntity
  8
0
100
AcDbBlockEnd
  0
BLOCK
  5
BD
330
BC
100
AcDbEntity
 67
     1
  8
0
100
AcDbBlockBegin
  2
*PAPER_SPACE
 70
     0
 10
0.0
 20
0.0
 30
0.0
  3
*PAPER_SPACE
  1

  0
ENDBLK
  5
BE
330
BC
100
AcDbEntity
 67
     1
  8
0
100
AcDbBlockEnd
  0
BLOCK
  5
49
330
48
100
AcDbEntity
  8
0
100
AcDbBlockBegin
  2
*D0
 70
     1
 10
0.0
 20
0.0
 30
0.0
  3
*D0
  1

  0
LINE
  5
4A
330
48
100
AcDbEntity
  8
-TEXT3
 62
     2
370
    -2
100
AcDbLine
 10
97.86065431442978
 20
249.49435300566
 30
0.0
 11
97.86065431442978
 21
268.9943530056602
 31
0.0
  0
LINE
  5
4B
330
48
100
AcDbEntity
  8
-TEXT3
 62
     2
370
    -2
100
AcDbLine
 10
132.8606543144298
 20
249.4943530056599
 30
0.0
 11
132.8606543144298
 21
268.9943530056602
 31
0.0
  0
LINE
  5
4C
330
48
100
AcDbEntity
  8
-TEXT3
 62
     2
370
    -2
100
AcDbLine
 10
101.3606543144297
 20
267.4943530056602
 30
0.0
 11
129.3606543144298
 21
267.4943530056602
 31
0.0
  0
SOLID
  5
4D
330
48
100
AcDbEntity
  8
-TEXT3
 62
     2
100
AcDbTrace
 10
101.3606543144297
 20
268.0776863389935
 30
0.0
 11
101.3606543144297
 21
266.9110196723269
 31
0.0
 12
97.86065431442978
 22
267.4943530056602
 32
0.0
 13
97.86065431442978
 23
267.4943530056602
 33
0.0
  0
SOLID
  5
4E
330
48
100
AcDbEntity
  8
-TEXT3
 62
     2
100
AcDbTrace
 10
129.3606543144298
 20
268.0776863389935
 30
0.0
 11
129.3606543144298
 21
266.9110196723269
 31
0.0
 12
132.8606543144298
 22
267.4943530056602
 32
0.0
 13
132.8606543144298
 23
267.4943530056602
 33
0.0
  0
MTEXT
  5
4F
330
48
100
AcDbEntity
  8
-TEXT3
 62
     2
100
AcDbMText
 10
115.3606543144298
 20
270.7200498105548
 30
0.0
 40
4.0
 41
0.0
 71
     5
 72
     1
  1
\A1;%%c35
 73
     1
 44
1.0
1001
ACAD
1000
MTEXTBEGIN
1070
    73
1070
     1
1070
    44
1040
1.0
1070
    74
1070
     0
1000
MTEXTEND
  0
POINT
  5
50
330
48
100
AcDbEntity
  8
DEFPOINTS
 62
     0
100
AcDbPoint
 10
97.86065431442978
 20
247.49435300566
 30
0.0
  0
POINT
  5
51
330
48
100
AcDbEntity
  8
DEFPOINTS
 62
     0
100
AcDbPoint
 10
132.8606543144298
 20
247.4943530056599
 30
0.0
  0
POINT
  5
52
330
48
100
AcDbEntity
  8
DEFPOINTS
 62
     0
100
AcDbPoint
 10
132.8606543144298
 20
267.4943530056602
 30
0.0
  0
ENDBLK
  5
53
330
48
100
AcDbEntity
  8
0
100
AcDbBlockEnd
  0
BLOCK
  5
3C
330
3B
100
AcDbEntity
  8
0
100
AcDbBlockBegin
  2
*D1
 70
     1
 10
0.0
 20
0.0
 30
0.0
  3
*D1
  1

  0
LINE
  5
3D
330
3B
100
AcDbEntity
  8
-TEXT3
 62
     2
370
    -2
100
AcDbLine
 10
105.3606543144297
 20
249.49435300566
 30
0.0
 11
105.3606543144297
 21
258.9943530056602
 31
0.0
  0
LINE
  5
3E
330
3B
100
AcDbEntity
  8
-TEXT3
 62
     2
370
    -2
100
AcDbLine
 10
125.3606543144297
 20
249.49435300566
 30
0.0
 11
125.3606543144297
 21
258.9943530056602
 31
0.0
  0
LINE
  5
3F
330
3B
100
AcDbEntity
  8
-TEXT3
 62
     2
370
    -2
100
AcDbLine
 10
108.8606543144297
 20
257.4943530056602
 30
0.0
 11
121.8606543144298
 21
257.4943530056602
 31
0.0
  0
SOLID
  5
40
330
3B
100
AcDbEntity
  8
-TEXT3
 62
     2
100
AcDbTrace
 10
108.8606543144297
 20
258.0776863389935
 30
0.0
 11
108.8606543144297
 21
256.9110196723269
 31
0.0
 12
105.3606543144297
 22
257.4943530056602
 32
0.0
 13
105.3606543144297
 23
257.4943530056602
 33
0.0
  0
SOLID
  5
41
330
3B
100
AcDbEntity
  8
-TEXT3
 62
     2
100
AcDbTrace
 10
121.8606543144298
 20
258.0776863389935
 30
0.0
 11
121.8606543144298
 21
256.9110196723269
 31
0.0
 12
125.3606543144297
 22
257.4943530056602
 32
0.0
 13
125.3606543144297
 23
257.4943530056602
 33
0.0
  0
MTEXT
  5
42
330
3B
100
AcDbEntity
  8
-TEXT3
 62
     2
100
AcDbMText
 10
115.3606543144297
 20
260.7200498105548
 30
0.0
 40
4.0
 41
0.0
 71
     5
 72
     1
  1
\A1;%%c20
 73
     1
 44
1.0
1001
ACAD
1000
MTEXTBEGIN
1070
    73
1070
     1
1070
    44
1040
1.0
1070
    74
1070
     0
1000
MTEXTEND
  0
POINT
  5
43
330
3B
100
AcDbEntity
  8
DEFPOINTS
 62
     0
100
AcDbPoint
 10
105.3606543144297
 20
247.49435300566
 30
0.0
  0
POINT
  5
44
330
3B
100
AcDbEntity
  8
DEFPOINTS
 62
     0
100
AcDbPoint
 10
125.3606543144297
 20
247.49435300566
 30
0.0
  0
POINT
  5
45
330
3B
100
AcDbEntity
  8
DEFPOINTS
 62
     0
100
AcDbPoint
 10
125.3606543144297
 20
257.4943530056602
 30
0.0
  0
ENDBLK
  5
46
330
3B
100
AcDbEntity
  8
0
100
AcDbBlockEnd
  0
BLOCK
  5
29
330
28
100
AcDbEntity
  8
0
100
AcDbBlockBegin
  2
*D2
 70
     1
 10
0.0
 20
0.0
 30
0.0
  3
*D2
  1

  0
LINE
  5
2A
330
28
100
AcDbEntity
  8
-TEXT3
 62
     2
370
    -2
100
AcDbLine
 10
110.3606543144298
 20
196.4143530056593
 30
0.0
 11
110.3606543144298
 21
180.5892317214231
 31
0.0
  0
LINE
  5
2B
330
28
100
AcDbEntity
  8
-TEXT3
 62
     2
370
    -2
100
AcDbLine
 10
120.3606543144298
 20
196.4143530056593
 30
0.0
 11
120.3606543144298
 21
180.5892317214231
 31
0.0
  0
LINE
  5
2C
330
28
100
AcDbEntity
  8
-TEXT3
 62
     2
370
    -2
100
AcDbLine
 10
113.8606543144297
 20
182.0892317214231
 30
0.0
 11
116.8606543144298
 21
182.0892317214231
 31
0.0
  0
LINE
  5
2D
330
28
100
AcDbEntity
  8
-TEXT3
 62
     2
370
    -2
100
AcDbLine
 10
120.3606543144298
 20
182.0892317214231
 30
0.0
 11
136.6669085632401
 21
182.0892317214231
 31
0.0
  0
SOLID
  5
2E
330
28
100
AcDbEntity
  8
-TEXT3
 62
     2
100
AcDbTrace
 10
113.8606543144297
 20
182.6725650547564
 30
0.0
 11
113.8606543144297
 21
181.5058983880897
 31
0.0
 12
110.3606543144298
 22
182.0892317214231
 32
0.0
 13
110.3606543144298
 23
182.0892317214231
 33
0.0
  0
SOLID
  5
2F
330
28
100
AcDbEntity
  8
-TEXT3
 62
     2
100
AcDbTrace
 10
116.8606543144298
 20
182.6725650547564
 30
0.0
 11
116.8606543144298
 21
181.5058983880897
 31
0.0
 12
120.3606543144298
 22
182.0892317214231
 32
0.0
 13
120.3606543144298
 23
182.0892317214231
 33
0.0
  0
MTEXT
  5
30
330
28
100
AcDbEntity
  8
-TEXT3
 62
     2
100
AcDbMText
 10
130.2637814388349
 20
185.189843550111
 30
0.0
 40
4.0
 41
0.0
 71
     5
 72
     1
  1
\A1;M10
 73
     1
 44
1.0
1001
ACAD
1000
MTEXTBEGIN
1070
    73
1070
     1
1070
    44
1040
1.0
1070
    74
1070
     0
1000
MTEXTEND
  0
POINT
  5
31
330
28
100
AcDbEntity
  8
DEFPOINTS
 62
     0
100
AcDbPoint
 10
110.3606543144298
 20
198.4143530056593
 30
0.0
  0
POINT
  5
33
330
28
100
AcDbEntity
  8
DEFPOINTS
 62
     0
100
AcDbPoint
 10
120.3606543144298
 20
198.4143530056593
 30
0.0
  0
POINT
  5
34
330
28
100
AcDbEntity
  8
DEFPOINTS
 62
     0
100
AcDbPoint
 10
120.3606543144298
 20
182.0892317214231
 30
0.0
  0
ENDBLK
  5
35
330
28
100
AcDbEntity
  8
0
100
AcDbBlockEnd
  0
BLOCK
  5
67
330
66
100
AcDbEntity
  8
0
100
AcDbBlockBegin
  2
*D3
 70
     1
 10
0.0
 20
0.0
 30
0.0
  3
*D3
  1

  0
LINE
  5
68
330
66
100
AcDbEntity
  8
-TEXT3
 62
     2
370
    -2
100
AcDbLine
 10
63.65631682648153
 20
235.4943530056595
 30
0.0
 11
59.06499180237601
 21
235.4943530056595
 31
0.0
  0
LINE
  5
69
330
66
100
AcDbEntity
  8
-TEXT3
 62
     2
370
    -2
100
AcDbLine
 10
95.86065431442978
 20
232.4943530056594
 30
0.0
 11
59.06499180237601
 21
232.4943530056594
 31
0.0
  0
LINE
  5
6A
330
66
100
AcDbEntity
  8
-TEXT3
 62
     2
370
    -2
100
AcDbLine
 10
60.56499180237601
 20
238.9943530056596
 30
0.0
 11
60.56499180237601
 21
242.4943530056595
 31
0.0
  0
LINE
  5
6B
330
66
100
AcDbEntity
  8
-TEXT3
 62
     2
370
    -2
100
AcDbLine
 10
60.56499180237601
 20
228.9943530056594
 30
0.0
 11
60.56499180237601
 21
225.4943530056594
 31
0.0
  0
SOLID
  5
6C
330
66
100
AcDbEntity
  8
-TEXT3
 62
     2
100
AcDbTrace
 10
59.98165846904267
 20
238.9943530056596
 30
0.0
 11
61.14832513570934
 21
238.9943530056596
 31
0.0
 12
60.56499180237601
 22
235.4943530056595
 32
0.0
 13
60.56499180237601
 23
235.4943530056595
 33
0.0
  0
SOLID
  5
6D
330
66
100
AcDbEntity
  8
-TEXT3
 62
     2
100
AcDbTrace
 10
59.98165846904267
 20
228.9943530056594
 30
0.0
 11
61.14832513570934
 21
228.9943530056594
 31
0.0
 12
60.56499180237601
 22
232.4943530056594
 32
0.0
 13
60.56499180237601
 23
232.4943530056594
 33
0.0
  0
MTEXT
  5
6E
330
66
100
AcDbEntity
  8
-TEXT3
 62
     2
100
AcDbMText
 10
57.46437997368801
 20
233.9943530056595
 30
0.0
 40
4.0
 41
0.0
 71
     5
 72
     1
  1
\A1;3
 11
0.0000000000000001
 21
1.0
 31
0.0
 73
     1
 44
1.0
1001
ACAD
1000
MTEXTBEGIN
1070
    73
1070
     1
1070
    44
1040
1.0
1070
    74
1070
     0
1000
MTEXTEND
  0
POINT
  5
6F
330
66
100
AcDbEntity
  8
DEFPOINTS
 62
     0
100
AcDbPoint
 10
65.65631682648154
 20
235.4943530056595
 30
0.0
  0
POINT
  5
70
330
66
100
AcDbEntity
  8
DEFPOINTS
 62
     0
100
AcDbPoint
 10
97.86065431442978
 20
232.4943530056594
 30
0.0
  0
POINT
  5
71
330
66
100
AcDbEntity
  8
DEFPOINTS
 62
     0
100
AcDbPoint
 10
60.56499180237601
 20
232.4943530056594
 30
0.0
  0
ENDBLK
  5
72
330
66
100
AcDbEntity
  8
0
100
AcDbBlockEnd
  0
BLOCK
  5
75
330
74
100
AcDbEntity
  8
0
100
AcDbBlockBegin
  2
*D4
 70
     1
 10
0.0
 20
0.0
 30
0.0
  3
*D4
  1

  0
LINE
  5
76
330
74
100
AcDbEntity
  8
-TEXT3
 62
     2
370
    -2
100
AcDbLine
 10
95.86065431442978
 20
222.4943530056594
 30
0.0
 11
59.06499180237586
 21
222.4943530056594
 31
0.0
  0
LINE
  5
77
330
74
100
AcDbEntity
  8
-TEXT3
 62
     2
370
    -2
100
AcDbLine
 10
109.2806543144298
 20
197.4943530056594
 30
0.0
 11
59.06499180237585
 21
197.4943530056594
 31
0.0
  0
LINE
  5
78
330
74
100
AcDbEntity
  8
-TEXT3
 62
     2
370
    -2
100
AcDbLine
 10
60.56499180237587
 20
218.9943530056594
 30
0.0
 11
60.56499180237586
 21
200.9943530056594
 31
0.0
  0
SOLID
  5
79
330
74
100
AcDbEntity
  8
-TEXT3
 62
     2
100
AcDbTrace
 10
59.98165846904253
 20
218.9943530056594
 30
0.0
 11
61.1483251357092
 21
218.9943530056594
 31
0.0
 12
60.56499180237587
 22
222.4943530056594
 32
0.0
 13
60.56499180237587
 23
222.4943530056594
 33
0.0
  0
SOLID
  5
7A
330
74
100
AcDbEntity
  8
-TEXT3
 62
     2
100
AcDbTrace
 10
59.98165846904252
 20
200.9943530056594
 30
0.0
 11
61.14832513570919
 21
200.9943530056594
 31
0.0
 12
60.56499180237586
 22
197.4943530056594
 32
0.0
 13
60.56499180237586
 23
197.4943530056594
 33
0.0
  0
MTEXT
  5
7B
330
74
100
AcDbEntity
  8
-TEXT3
 62
     2
100
AcDbMText
 10
57.56499180237582
 20
209.9943530056594
 30
0.0
 40
4.0
 41
0.0
 71
     5
 72
     1
  1
\A1;D
 11
0.0000000000000001
 21
1.0
 31
0.0
 73
     1
 44
1.0
1001
ACAD
1000
MTEXTBEGIN
1070
    73
1070
     1
1070
    44
1040
1.0
1070
    74
1070
     0
1000
MTEXTEND
  0
POINT
  5
7C
330
74
100
AcDbEntity
  8
DEFPOINTS
 62
     0
100
AcDbPoint
 10
97.86065431442978
 20
222.4943530056594
 30
0.0
  0
POINT
  5
7D
330
74
100
AcDbEntity
  8
DEFPOINTS
 62
     0
100
AcDbPoint
 10
111.2806543144298
 20
197.4943530056594
 30
0.0
  0
POINT
  5
7E
330
74
100
AcDbEntity
  8
DEFPOINTS
 62
     0
100
AcDbPoint
 10
60.56499180237586
 20
197.4943530056594
 30
0.0
  0
ENDBLK
  5
7F
330
74
100
AcDbEntity
  8
0
100
AcDbBlockEnd
  0
BLOCK
  5
5A
330
59
100
AcDbEntity
  8
0
100
AcDbBlockBegin
  2
*D5
 70
     1
 10
0.0
 20
0.0
 30
0.0
  3
*D5
  1

  0
LINE
  5
5B
330
59
100
AcDbEntity
  8
-TEXT3
 62
     2
370
    -2
100
AcDbLine
 10
78.06499180237574
 20
232.4943530056594
 30
0.0
 11
59.06499180237585
 21
232.4943530056594
 31
0.0
  0
LINE
  5
5C
330
59
100
AcDbEntity
  8
-TEXT3
 62
     2
370
    -2
100
AcDbLine
 10
95.86065431442978
 20
222.4943530056594
 30
0.0
 11
59.06499180237585
 21
222.4943530056594
 31
0.0
  0
LINE
  5
5D
330
59
100
AcDbEntity
  8
-TEXT3
 62
     2
370
    -2
100
AcDbLine
 10
60.56499180237586
 20
228.9943530056594
 30
0.0
 11
60.56499180237586
 21
225.9943530056594
 31
0.0
  0
SOLID
  5
5E
330
59
100
AcDbEntity
  8
-TEXT3
 62
     2
100
AcDbTrace
 10
59.98165846904252
 20
228.9943530056594
 30
0.0
 11
61.14832513570919
 21
228.9943530056594
 31
0.0
 12
60.56499180237586
 22
232.4943530056594
 32
0.0
 13
60.56499180237586
 23
232.4943530056594
 33
0.0
  0
SOLID
  5
5F
330
59
100
AcDbEntity
  8
-TEXT3
 62
     2
100
AcDbTrace
 10
59.98165846904252
 20
225.9943530056594
 30
0.0
 11
61.14832513570919
 21
225.9943530056594
 31
0.0
 12
60.56499180237586
 22
222.4943530056594
 32
0.0
 13
60.56499180237586
 23
222.4943530056594
 33
0.0
  0
MTEXT
  5
60
330
59
100
AcDbEntity
  8
-TEXT3
 62
     2
100
AcDbMText
 10
57.46437997368786
 20
227.4943530056594
 30
0.0
 40
4.0
 41
0.0
 71
     5
 72
     1
  1
\A1;10
 11
0.0000000000000001
 21
1.0
 31
0.0
 73
     1
 44
1.0
1001
ACAD
1000
MTEXTBEGIN
1070
    73
1070
     1
1070
    44
1040
1.0
1070
    74
1070
     0
1000
MTEXTEND
  0
POINT
  5
61
330
59
100
AcDbEntity
  8
DEFPOINTS
 62
     0
100
AcDbPoint
 10
80.06499180237574
 20
232.4943530056594
 30
0.0
  0
POINT
  5
62
330
59
100
AcDbEntity
  8
DEFPOINTS
 62
     0
100
AcDbPoint
 10
97.86065431442978
 20
222.4943530056594
 30
0.0
  0
POINT
  5
63
330
59
100
AcDbEntity
  8
DEFPOINTS
 62
     0
100
AcDbPoint
 10
60.56499180237586
 20
222.4943530056594
 30
0.0
  0
ENDBLK
  5
64
330
59
100
AcDbEntity
  8
0
100
AcDbBlockEnd
  0
BLOCK
  5
85
330
84
100
AcDbEntity
  8
0
100
AcDbBlockBegin
  2
*D6
 70
     1
 10
0.0
 20
0.0
 30
0.0
  3
*D6
  1

  0
LINE
  5
86
330
84
100
AcDbEntity
  8
-TEXT3
 62
     2
370
    -2
100
AcDbLine
 10
63.65631682648154
 20
247.4943530056602
 30
0.0
 11
59.06499180237598
 21
247.4943530056602
 31
0.0
  0
LINE
  5
87
330
84
100
AcDbEntity
  8
-TEXT3
 62
     2
370
    -2
100
AcDbLine
 10
63.65631682648153
 20
235.4943530056595
 30
0.0
 11
59.06499180237597
 21
235.4943530056595
 31
0.0
  0
LINE
  5
88
330
84
100
AcDbEntity
  8
-TEXT3
 62
     2
370
    -2
100
AcDbLine
 10
60.56499180237597
 20
243.9943530056602
 30
0.0
 11
60.56499180237597
 21
238.9943530056596
 31
0.0
  0
SOLID
  5
89
330
84
100
AcDbEntity
  8
-TEXT3
 62
     2
100
AcDbTrace
 10
59.98165846904264
 20
243.9943530056602
 30
0.0
 11
61.14832513570931
 21
243.9943530056602
 31
0.0
 12
60.56499180237597
 22
247.4943530056602
 32
0.0
 13
60.56499180237597
 23
247.4943530056602
 33
0.0
  0
SOLID
  5
8A
330
84
100
AcDbEntity
  8
-TEXT3
 62
     2
100
AcDbTrace
 10
59.98165846904264
 20
238.9943530056596
 30
0.0
 11
61.14832513570931
 21
238.9943530056596
 31
0.0
 12
60.56499180237597
 22
235.4943530056595
 32
0.0
 13
60.56499180237597
 23
235.4943530056595
 33
0.0
  0
MTEXT
  5
8B
330
84
100
AcDbEntity
  8
-TEXT3
 62
     2
100
AcDbMText
 10
57.46437997368797
 20
241.4943530056599
 30
0.0
 40
4.0
 41
0.0
 71
     5
 72
     1
  1
\A1;G
 11
0.0000000000000001
 21
1.0
 31
0.0
 73
     1
 44
1.0
1001
ACAD
1000
MTEXTBEGIN
1070
    73
1070
     1
1070
    44
1040
1.0
1070
    74
1070
     0
1000
MTEXTEND
  0
POINT
  5
8C
330
84
100
AcDbEntity
  8
DEFPOINTS
 62
     0
100
AcDbPoint
 10
65.65631682648154
 20
247.4943530056602
 30
0.0
  0
POINT
  5
8D
330
84
100
AcDbEntity
  8
DEFPOINTS
 62
     0
100
AcDbPoint
 10
65.65631682648154
 20
235.4943530056595
 30
0.0
  0
POINT
  5
8E
330
84
100
AcDbEntity
  8
DEFPOINTS
 62
     0
100
AcDbPoint
 10
60.56499180237597
 20
235.4943530056595
 30
0.0
  0
ENDBLK
  5
8F
330
84
100
AcDbEntity
  8
0
100
AcDbBlockEnd
  0
ENDSEC
  0
SECTION
  2
ENTITIES
  0
LWPOLYLINE
  5
9
330
2
100
AcDbEntity
  8
-VERGLASUNG
100
AcDbPolyline
 90
        4
 70
     0
 43
0.0
 10
42.38316325351158
 20
155.9267677599728
 10
193.3606543144055
 20
155.926767759973
 10
195.3606543144054
 20
153.9267677599729
 10
195.3606543144056
 20
23.94756160458706
  0
MTEXT
  5
B
330
2
100
AcDbEntity
  8
-TEXT2
100
AcDbMText
 10
164.5377900420559
 20
168.1459847265185
 30
0.0
 40
3.5
 41
17.9978
 71
     1
 72
     5
  1
{\fArial|b0|i0|c0|p34;Glaskante}
 73
     1
 44
1.0
1001
ACAD
1000
MTEXTBEGIN
1070
    73
1070
     1
1070
    44
1040
1.0
1070
    74
1070
     0
1000
MTEXTEND
  0
LWPOLYLINE
  5
F
330
2
100
AcDbEntity
  8
-TEXT2
100
AcDbPolyline
 90
        3
 70
     1
 43
0.0
 10
173.1411023544688
 20
155.9267677599729
 10
177.2750397171299
 20
163.0869573074091
 10
169.0071649918078
 20
163.0869573074091
  0
LINE
  5
10
330
2
100
AcDbEntity
  8
-SYSTEM
100
AcDbLine
 10
139.3579050421667
 20
75.9267677599733
 30
0.0
 11
91.36340358664446
 21
75.92676775997308
 31
0.0
  0
CIRCLE
  5
13
330
2
100
AcDbEntity
  8
-NORMTEIL_VERDECKT
100
AcDbCircle
 10
115.3606543144056
 20
75.9267677599732
 30
0.0
 40
17.5
  0
CIRCLE
  5
16
330
2
100
AcDbEntity
  8
-PROFILAUSSENKANTET
100
AcDbCircle
 10
120.3606543144056
 20
75.92676775997322
 30
0.0
 40
1.75
  0
CIRCLE
  5
18
102
{ACAD_REACTORS
330
1C
102
}
330
2
100
AcDbEntity
  8
-PROFILAUSSENKANTET
100
AcDbCircle
 10
115.3606543144056
 20
75.92676775997318
 30
0.0
 40
10.0
  0
LINE
  5
19
330
2
100
AcDbEntity
  8
-SYSTEM
100
AcDbLine
 10
115.3606543144054
 20
99.92401848773432
 30
0.0
 11
115.3606543144057
 21
51.92951703221208
 31
0.0
  0
CIRCLE
  5
1A
102
{ACAD_REACTORS
330
1C
102
}
330
2
100
AcDbEntity
  8
-DICHTUNG
100
AcDbCircle
 10
115.3606543144056
 20
75.92676775997318
 30
0.0
 40
12.82842712474625
  0
HATCH
  5
1C
330
2
100
AcDbEntity
  8
-SCHRAFFUR
100
AcDbHatch
 10
0.0
 20
0.0
 30
0.0
210
0.0
220
0.0
230
1.0
  2
SOLID
 70
     1
 71
     1
 91
        2
 92
        1
 93
        1
 72
     2
 10
115.3606543144056
 20
75.92676775997318
 40
12.82842712474625
 50
0.0
 51
360.0
 73
     1
 97
        1
330
1A
 92
       16
 93
        1
 72
     2
 10
115.3606543144056
 20
75.92676775997318
 40
10.0
 50
0.0
 51
360.0
 73
     1
 97
        1
330
18
 75
     0
 76
     1
 98
        1
 10
0.0
 20
0.0
  0
CIRCLE
  5
1E
330
2
100
AcDbEntity
  8
-PROFILAUSSENKANTET
100
AcDbCircle
 10
112.8606543144055
 20
80.25689477889542
 30
0.0
 40
1.75
  0
CIRCLE
  5
1F
330
2
100
AcDbEntity
  8
-PROFILAUSSENKANTET
100
AcDbCircle
 10
112.8606543144055
 20
71.59664074105098
 30
0.0
 40
1.75
  0
LWPOLYLINE
  5
20
330
2
100
AcDbEntity
  8
-VERGLASUNG
100
AcDbPolyline
 90
        6
 70
     0
 43
0.0
 10
65.65631682648154
 20
247.4943530056602
 10
193.3606543144054
 20
247.4943530056597
 10
195.3606543144054
 20
245.4943530056597
 10
195.3606543144054
 20
237.4943530056592
 10
193.3606543144054
 20
235.4943530056592
 10
65.65631682648154
 20
235.4943530056595
  0
HATCH
  5
21
330
2
100
AcDbEntity
  8
-SCHRAFFUR
100
AcDbHatch
 10
0.0
 20
0.0
 30
0.0
210
0.0
220
0.0
230
1.0
  2
SOLID
 70
     1
 71
     0
 91
        1
 92
        1
 93
        4
 72
     1
 10
98.36065431443138
 20
232.4943530056594
 11
132.3606543144314
 21
232.4943530056594
 72
     1
 10
132.3606543144314
 20
232.4943530056594
 11
132.3606543144314
 21
235.4943530056594
 72
     1
 10
132.3606543144314
 20
235.4943530056594
 11
98.36065431443138
 21
235.4943530056594
 72
     1
 10
98.36065431443138
 20
235.4943530056594
 11
98.36065431443138
 21
232.4943530056594
 97
        0
 75
     0
 76
     1
 98
        1
 10
21.14903443919519
 20
34.4620751036476
  0
LWPOLYLINE
  5
22
330
2
100
AcDbEntity
  8
-DICHTUNG
100
AcDbPolyline
 90
        4
 70
     1
 43
0.0
 10
98.36065431443138
 20
232.4943530056594
 10
132.3606543144314
 20
232.4943530056594
 10
132.3606543144314
 20
235.4943530056594
 10
98.36065431443138
 20
235.4943530056594
  0
LWPOLYLINE
  5
23
330
2
100
AcDbEntity
  8
-NORMTEIL_VERDECKT
100
AcDbPolyline
 90
        5
 70
     0
 43
0.0
 10
111.3606543144298
 20
247.49435300566
 10
111.3606543144298
 20
243.49435300566
 10
112.8606543144297
 20
242.49435300566
 10
114.3606543144298
 20
243.49435300566
 10
114.3606543144298
 20
247.4943530056609
  0
LINE
  5
24
330
2
100
AcDbEntity
  8
-NORMTEIL_VERDECKT
100
AcDbLine
 10
111.3606543144298
 20
243.49435300566
 30
0.0
 11
114.3606543144298
 21
243.49435300566
 31
0.0
  0
DIMENSION
  5
25
330
2
100
AcDbEntity
  8
-TEXT3
100
AcDbDimension
  2
*D2
 10
120.3606543144298
 20
182.0892317214231
 30
0.0
 11
130.2637814388349
 21
185.189843550111
 31
0.0
  1
M<>
 71
     5
 42
10.0
  3
1-1PRO
100
AcDbAlignedDimension
 13
110.3606543144298
 23
198.4143530056593
 33
0.0
 14
120.3606543144298
 24
198.4143530056593
 34
0.0
100
AcDbRotatedDimension
  0
LWPOLYLINE
  5
36
330
2
100
AcDbEntity
  8
-NORMTEIL
100
AcDbPolyline
 90
        6
 70
     0
 43
0.0
 10
110.3606543144298
 20
222.4943530056594
 10
110.3606543144298
 20
198.4143530056593
 10
111.2806543144298
 20
197.4943530056594
 10
119.4406543144299
 20
197.4943530056594
 10
120.3606543144298
 20
198.4143530056593
 10
120.3606543144298
 20
222.4943530056593
  0
LINE
  5
38
330
2
100
AcDbEntity
  8
-SCHRAFFUR
100
AcDbLine
 10
110.3606543144298
 20
198.4143530056593
 30
0.0
 11
120.3606543144298
 21
198.4143530056593
 31
0.0
  0
LWPOLYLINE
  5
39
330
2
100
AcDbEntity
  8
-PROFILAUSSENKANTET
100
AcDbPolyline
 90
        6
 70
     1
 43
0.0
 10
97.86065431442978
 20
232.4943530056594
 10
97.86065431442978
 20
222.4943530056594
 10
110.3606543144298
 20
222.4943530056594
 10
132.8606543144298
 20
222.4943530056594
 10
132.8606543144298
 20
232.4943530056594
 10
110.3606543144298
 20
232.4943530056594
  0
DIMENSION
  5
3A
330
2
100
AcDbEntity
  8
-TEXT3
100
AcDbDimension
  2
*D1
 10
125.3606543144297
 20
257.4943530056602
 30
0.0
 11
115.3606543144297
 21
260.7200498105548
 31
0.0
  1
%%c<>
 71
     5
 42
20.00000000000006
  3
1-1PRO
100
AcDbAlignedDimension
 13
105.3606543144297
 23
247.49435300566
 33
0.0
 14
125.3606543144297
 24
247.49435300566
 34
0.0
100
AcDbRotatedDimension
  0
DIMENSION
  5
47
330
2
100
AcDbEntity
  8
-TEXT3
100
AcDbDimension
  2
*D0
 10
132.8606543144298
 20
267.4943530056602
 30
0.0
 11
115.3606543144298
 21
270.7200498105548
 31
0.0
  1
%%c<>
 71
     5
 42
35.0
  3
1-1PRO
100
AcDbAlignedDimension
 13
97.86065431442978
 23
247.49435300566
 33
0.0
 14
132.8606543144298
 24
247.4943530056599
 34
0.0
100
AcDbRotatedDimension
  0
LWPOLYLINE
  5
54
330
2
100
AcDbEntity
  8
-NORMTEIL_VERDECKT
100
AcDbPolyline
 90
       12
 70
     0
 43
0.0
 10
112.8206543144298
 20
242.49435300566
 10
112.8206543144298
 20
242.1063442910003
 42
-0.2679491924311216
 10
112.5206543144298
 20
241.5867290487296
 10
112.3606543144298
 20
241.4943530056593
 10
112.3606543144298
 20
232.9543530056593
 10
112.8206543144298
 20
232.4943530056593
 10
117.9006543144297
 20
232.4943530056593
 10
118.3606543144298
 20
232.9543530056593
 10
118.3606543144298
 20
241.4943530056593
 10
118.2006543144299
 20
241.5867290487296
 42
-0.2679491924311217
 10
117.9006543144297
 20
242.1063442910003
 10
117.9006543144297
 20
242.49435300566
  0
LWPOLYLINE
  5
55
330
2
100
AcDbEntity
  8
-NORMTEIL_VERDECKT
100
AcDbPolyline
 90
        3
 70
     0
 43
0.0
 10
120.3606543144298
 20
232.4943530056594
 10
120.3606543144298
 20
240.4943530056593
 10
110.3606543144298
 20
240.4943530056593
  0
LINE
  5
56
330
2
100
AcDbEntity
  8
-NORMTEIL_VERDECKT
100
AcDbLine
 10
112.3606543144298
 20
232.9543530056593
 30
0.0
 11
118.3606543144298
 21
232.9543530056593
 31
0.0
  0
LWPOLYLINE
  5
57
330
2
100
AcDbEntity
  8
-NORMTEIL_VERDECKT
100
AcDbPolyline
 90
        5
 70
     0
 43
0.0
 10
105.3606543144298
 20
247.49435300566
 10
125.3606543144297
 20
247.49435300566
 10
120.3606543144298
 20
242.49435300566
 10
110.3606543144298
 20
242.49435300566
 10
105.3606543144298
 20
247.49435300566
  0
DIMENSION
  5
58
330
2
100
AcDbEntity
  8
-TEXT3
100
AcDbDimension
  2
*D5
 10
60.56499180237586
 20
222.4943530056594
 30
0.0
 11
57.46437997368786
 21
227.4943530056594
 31
0.0
 71
     5
 42
10.00000000000003
  3
1-1PRO
100
AcDbAlignedDimension
 13
80.06499180237574
 23
232.4943530056594
 33
0.0
 14
97.86065431442978
 24
222.4943530056594
 34
0.0
 50
90.0
100
AcDbRotatedDimension
  0
DIMENSION
  5
65
330
2
100
AcDbEntity
  8
-TEXT3
100
AcDbDimension
  2
*D3
 10
60.56499180237601
 20
232.4943530056594
 30
0.0
 11
60.56499180237597
 21
233.9943530056595
 31
0.0
 70
   128
 71
     5
 42
3.000000000000142
  3
1-1PRO
100
AcDbAlignedDimension
 13
65.65631682648154
 23
235.4943530056595
 33
0.0
 14
97.86065431442978
 24
232.4943530056594
 34
0.0
 50
90.0
100
AcDbRotatedDimension
  0
DIMENSION
  5
73
330
2
100
AcDbEntity
  8
-TEXT3
100
AcDbDimension
  2
*D4
 10
60.56499180237586
 20
197.4943530056594
 30
0.0
 11
57.56499180237582
 21
209.9943530056594
 31
0.0
  1
D
 71
     5
 42
25.0
  3
1-1PRO
100
AcDbAlignedDimension
 13
97.86065431442978
 23
222.4943530056594
 33
0.0
 14
111.2806543144298
 24
197.4943530056594
 34
0.0
 50
270.0
100
AcDbRotatedDimension
1001
ACAD
1000
DSTYLE
1002
{
1002
}
  0
LINE
  5
80
330
2
100
AcDbEntity
  8
-SCHRAFFUR
100
AcDbLine
 10
111.2806543144298
 20
197.4943530056594
 30
0.0
 11
111.2806543144298
 21
222.4943530056594
 31
0.0
  0
LINE
  5
81
330
2
100
AcDbEntity
  8
-VERGLASUNG
100
AcDbLine
 10
66.74833964734853
 20
243.6004779739018
 30
0.0
 11
70.64221446697456
 21
247.4943527935278
 31
0.0
  0
LINE
  5
82
330
2
100
AcDbEntity
  8
-VERGLASUNG
100
AcDbLine
 10
65.18583964734853
 20
243.6004779739018
 30
0.0
 11
69.07971446697456
 21
247.4943527935278
 31
0.0
  0
DIMENSION
  5
83
330
2
100
AcDbEntity
  8
-TEXT3
100
AcDbDimension
  2
*D6
 10
60.56499180237597
 20
235.4943530056595
 30
0.0
 11
57.46437997368797
 21
241.4943530056599
 31
0.0
  1
G
 71
     5
 42
12.00000000000068
  3
1-1PRO
100
AcDbAlignedDimension
 13
65.65631682648154
 23
247.4943530056602
 33
0.0
 14
65.65631682648154
 24
235.4943530056595
 34
0.0
 50
90.0
100
AcDbRotatedDimension
  0
LINE
  5
90
330
2
100
AcDbEntity
  8
-VERGLASUNG
100
AcDbLine
 10
69.96592508333924
 20
235.4943527935271
 30
0.0
 11
73.85979990296528
 21
239.3882276131531
 31
0.0
  0
LINE
  5
91
330
2
100
AcDbEntity
  8
-VERGLASUNG
100
AcDbLine
 10
68.40342508333924
 20
235.4943527935271
 30
0.0
 11
72.29729990296528
 21
239.3882276131531
 31
0.0
  0
LINE
  5
92
330
2
100
AcDbEntity
  8
-VERGLASUNG
100
AcDbLine
 10
71.52842508333924
 20
235.4943527935271
 30
0.0
 11
75.42229990296528
 21
239.3882276131531
 31
0.0
  0
LINE
  5
93
330
2
100
AcDbEntity
  8
-VERGLASUNG
100
AcDbLine
 10
68.31083964734853
 20
243.6004779739018
 30
0.0
 11
72.20471446697456
 21
247.4943527935278
 31
0.0
  0
LINE
  5
94
330
2
100
AcDbEntity
  8
-VERGLASUNG
100
AcDbLine
 10
95.45618203746176
 20
235.4943528642378
 30
0.0
 11
99.3500568570878
 21
239.3882276838638
 31
0.0
  0
LINE
  5
95
330
2
100
AcDbEntity
  8
-VERGLASUNG
100
AcDbLine
 10
90.67609660147104
 20
243.6004780446125
 30
0.0
 11
94.56997142109708
 21
247.4943528642385
 31
0.0
  0
LINE
  5
96
330
2
100
AcDbEntity
  8
-VERGLASUNG
100
AcDbLine
 10
89.11359660147104
 20
243.6004780446125
 30
0.0
 11
93.00747142109708
 21
247.4943528642385
 31
0.0
  0
LINE
  5
97
330
2
100
AcDbEntity
  8
-VERGLASUNG
100
AcDbLine
 10
92.33118203746176
 20
235.4943528642378
 30
0.0
 11
96.2250568570878
 21
239.3882276838639
 31
0.0
  0
LINE
  5
98
330
2
100
AcDbEntity
  8
-VERGLASUNG
100
AcDbLine
 10
93.89368203746176
 20
235.4943528642378
 30
0.0
 11
97.7875568570878
 21
239.3882276838639
 31
0.0
  0
LINE
  5
99
330
2
100
AcDbEntity
  8
-VERGLASUNG
100
AcDbLine
 10
92.23859660147104
 20
243.6004780446125
 30
0.0
 11
96.13247142109708
 21
247.4943528642385
 31
0.0
  0
LWPOLYLINE
  5
9A
330
2
100
AcDbEntity
  8
-NORMTEIL_VERDECKT
100
AcDbPolyline
 90
        4
 70
     1
 43
0.0
 10
110.3606543144298
 20
242.49435300566
 10
107.5322271896835
 20
242.49435300566
 10
102.5322271896836
 20
247.49435300566
 10
105.3606543144298
 20
247.49435300566
  0
LWPOLYLINE
  5
9B
330
2
100
AcDbEntity
  8
-NORMTEIL_VERDECKT
100
AcDbPolyline
 90
        5
 70
     0
 43
0.0
 10
110.3606543144298
 20
241.4943530056593
 10
110.3606543144298
 20
242.49435300566
 10
108.8606543144297
 20
242.49435300566
 10
108.8606543144297
 20
235.4943530056594
 10
110.3606543144298
 20
235.4943530056594
  0
LWPOLYLINE
  5
9C
330
2
100
AcDbEntity
  8
-DICHTUNG
100
AcDbPolyline
 90
        4
 70
     1
 43
0.0
 10
110.3606543144298
 20
235.4943530056594
 10
108.8606543144297
 20
235.4943530056594
 10
108.8606543144297
 20
235.4943530056594
 10
110.3606543144298
 20
235.4943530056594
  0
LWPOLYLINE
  5
9D
330
2
100
AcDbEntity
  8
-NORMTEIL_VERDECKT
100
AcDbPolyline
 90
        3
 70
     0
 43
0.0
 10
110.3606543144298
 20
241.4943530056593
 10
110.3606543144298
 20
241.4943530056593
 10
110.3606543144298
 20
232.4943530056594
  0
LINE
  5
9E
330
2
100
AcDbEntity
  8
-NORMTEIL_VERDECKT
100
AcDbLine
 10
112.8206543144298
 20
242.1063442910003
 30
0.0
 11
112.8206543144298
 21
232.4943530056593
 31
0.0
  0
LINE
  5
9F
330
2
100
AcDbEntity
  8
-SYSTEM
100
AcDbLine
 10
115.3606543144281
 20
252.532970269706
 30
0.0
 11
115.3606543144283
 21
191.783593492833
 31
0.0
  0
LINE
  5
A0
330
2
100
AcDbEntity
  8
-SCHRAFFUR
100
AcDbLine
 10
119.4406543144299
 20
197.4943530056594
 30
0.0
 11
119.4406543144299
 21
222.4943530056593
 31
0.0
  0
LINE
  5
A1
330
2
100
AcDbEntity
  8
-NORMTEIL_VERDECKT
100
AcDbLine
 10
118.8606543144297
 20
243.49435300566
 30
0.0
 11
121.3606543144297
 21
243.49435300566
 31
0.0
  0
LWPOLYLINE
  5
A2
330
2
100
AcDbEntity
  8
-NORMTEIL_VERDECKT
100
AcDbPolyline
 90
        5
 70
     0
 43
0.0
 10
120.3606543144298
 20
241.4943530056593
 10
120.3606543144298
 20
242.49435300566
 10
121.8606543144298
 20
242.49435300566
 10
121.8606543144298
 20
235.4943530056594
 10
120.3606543144298
 20
235.4943530056594
  0
LWPOLYLINE
  5
A3
330
2
100
AcDbEntity
  8
-NORMTEIL_VERDECKT
100
AcDbPolyline
 90
        4
 70
     1
 43
0.0
 10
120.3606543144298
 20
242.49435300566
 10
123.189081439176
 20
242.49435300566
 10
128.189081439176
 20
247.49435300566
 10
125.3606543144297
 20
247.49435300566
  0
LINE
  5
A4
330
2
100
AcDbEntity
  8
-NORMTEIL_VERDECKT
100
AcDbLine
 10
117.9006543144297
 20
242.1063442910003
 30
0.0
 11
117.9006543144297
 21
232.4943530056593
 31
0.0
  0
LWPOLYLINE
  5
A5
330
2
100
AcDbEntity
  8
-NORMTEIL_VERDECKT
100
AcDbPolyline
 90
        3
 70
     0
 43
0.0
 10
118.8606543144297
 20
247.49435300566
 10
118.8606543144297
 20
243.49435300566
 10
120.3606543144297
 20
242.49435300566
  0
LWPOLYLINE
  5
A6
330
2
100
AcDbEntity
  8
-NORMTEIL_VERDECKT
100
AcDbPolyline
 90
        2
 70
     0
 43
0.0
 10
121.8606543144297
 20
243.9943530056599
 10
121.8606543144297
 20
247.49435300566
  0
LINE
  5
A7
330
2
100
AcDbEntity
  8
-VERGLASUNG
100
AcDbLine
 10
135.498689696032
 20
235.4943527935269
 30
0.0
 11
139.392564515658
 21
239.3882276131529
 31
0.0
  0
LINE
  5
A8
330
2
100
AcDbEntity
  8
-VERGLASUNG
100
AcDbLine
 10
133.936189696032
 20
235.4943527935269
 30
0.0
 11
137.830064515658
 21
239.3882276131529
 31
0.0
  0
LINE
  5
A9
330
2
100
AcDbEntity
  8
-VERGLASUNG
100
AcDbLine
 10
133.8436042600412
 20
243.6004779739016
 30
0.0
 11
137.7374790796673
 21
247.4943527935276
 31
0.0
  0
LINE
  5
AA
330
2
100
AcDbEntity
  8
-VERGLASUNG
100
AcDbLine
 10
132.2811042600412
 20
243.6004779739016
 30
0.0
 11
136.1749790796673
 21
247.4943527935276
 31
0.0
  0
LINE
  5
AB
330
2
100
AcDbEntity
  8
-VERGLASUNG
100
AcDbLine
 10
130.7186042600412
 20
243.6004779739016
 30
0.0
 11
134.6124790796673
 21
247.4943527935276
 31
0.0
  0
LINE
  5
AC
330
2
100
AcDbEntity
  8
-VERGLASUNG
100
AcDbLine
 10
137.061189696032
 20
235.4943527935269
 30
0.0
 11
140.955064515658
 21
239.3882276131528
 31
0.0
  0
LINE
  5
AD
330
2
100
AcDbEntity
  8
-VERGLASUNG
100
AcDbLine
 10
159.4264466501545
 20
235.4943528642376
 30
0.0
 11
163.3203214697805
 21
239.3882276838636
 31
0.0
  0
LINE
  5
AE
330
2
100
AcDbEntity
  8
-VERGLASUNG
100
AcDbLine
 10
157.7713612141638
 20
243.6004780446122
 30
0.0
 11
161.6652360337898
 21
247.4943528642383
 31
0.0
  0
LINE
  5
AF
330
2
100
AcDbEntity
  8
-VERGLASUNG
100
AcDbLine
 10
156.2088612141638
 20
243.6004780446122
 30
0.0
 11
160.1027360337898
 21
247.4943528642383
 31
0.0
  0
LINE
  5
B0
330
2
100
AcDbEntity
  8
-VERGLASUNG
100
AcDbLine
 10
157.8639466501545
 20
235.4943528642376
 30
0.0
 11
161.7578214697805
 21
239.3882276838636
 31
0.0
  0
LINE
  5
B1
330
2
100
AcDbEntity
  8
-VERGLASUNG
100
AcDbLine
 10
154.6463612141638
 20
243.6004780446122
 30
0.0
 11
158.5402360337898
 21
247.4943528642383
 31
0.0
  0
LINE
  5
B2
330
2
100
AcDbEntity
  8
-VERGLASUNG
100
AcDbLine
 10
160.9889466501545
 20
235.4943528642376
 30
0.0
 11
164.8828214697805
 21
239.3882276838635
 31
0.0
  0
LINE
  5
B3
330
2
100
AcDbEntity
  8
-VERGLASUNG
100
AcDbLine
 10
181.791703604277
 20
235.4943528642375
 30
0.0
 11
185.685578423903
 21
239.3882276838635
 31
0.0
  0
LINE
  5
B4
330
2
100
AcDbEntity
  8
-VERGLASUNG
100
AcDbLine
 10
180.1366181682863
 20
243.6004780446121
 30
0.0
 11
184.0304929879123
 21
247.4943528642381
 31
0.0
  0
LINE
  5
B5
330
2
100
AcDbEntity
  8
-VERGLASUNG
100
AcDbLine
 10
178.5741181682863
 20
243.6004780446121
 30
0.0
 11
182.4679929879123
 21
247.4943528642381
 31
0.0
  0
LINE
  5
B6
330
2
100
AcDbEntity
  8
-VERGLASUNG
100
AcDbLine
 10
181.6991181682863
 20
243.6004780446121
 30
0.0
 11
185.5929929879123
 21
247.4943528642381
 31
0.0
  0
LINE
  5
B7
330
2
100
AcDbEntity
  8
-VERGLASUNG
100
AcDbLine
 10
183.354203604277
 20
235.4943528642375
 30
0.0
 11
187.248078423903
 21
239.3882276838635
 31
0.0
  0
LINE
  5
B8
330
2
100
AcDbEntity
  8
-VERGLASUNG
100
AcDbLine
 10
184.916703604277
 20
235.4943528642375
 30
0.0
 11
188.810578423903
 21
239.3882276838634
 31
0.0
  0
ENDSEC
  0
SECTION
  2
OBJECTS
  0
DICTIONARY
  5
7
330
0
100
AcDbDictionary
281
     1
  3
ACAD_COLOR
350
D1
  3
ACAD_GROUP
350
CD
  3
ACAD_LAYOUT
350
BB
  3
ACAD_MATERIAL
350
D0
  3
ACAD_MLINESTYLE
350
CE
  3
ACAD_PLOTSETTINGS
350
CF
  3
ACAD_PLOTSTYLENAME
350
6
  3
ACDBHEADERROUNDTRIPXREC
350
D7
  3
AcDbVariableDictionary
350
D3
  0
DICTIONARY
  5
D1
102
{ACAD_REACTORS
330
7
102
}
330
7
100
AcDbDictionary
281
     1
  0
DICTIONARY
  5
CD
102
{ACAD_REACTORS
330
7
102
}
330
7
100
AcDbDictionary
281
     1
  0
DICTIONARY
  5
BB
102
{ACAD_REACTORS
330
7
102
}
330
7
100
AcDbDictionary
281
     1
  3
Layout1
350
BF
  3
Model
350
BA
  0
DICTIONARY
  5
D0
102
{ACAD_REACTORS
330
7
102
}
330
7
100
AcDbDictionary
281
     1
  0
DICTIONARY
  5
CE
102
{ACAD_REACTORS
330
7
102
}
330
7
100
AcDbDictionary
281
     1
  3
STANDARD
350
D2
  0
DICTIONARY
  5
CF
102
{ACAD_REACTORS
330
7
102
}
330
7
100
AcDbDictionary
281
     1
  0
ACDBDICTIONARYWDFLT
  5
6
102
{ACAD_REACTORS
330
7
102
}
330
7
100
AcDbDictionary
281
     1
  3
Normal
350
5
100
AcDbDictionaryWithDefault
340
5
  0
DICTIONARY
  5
D7
102
{ACAD_REACTORS
330
7
102
}
330
7
100
AcDbDictionary
281
     1
  3
COLORDICT
350
D9
  3
MATERIALDICT
350
D8
  0
DICTIONARY
  5
D3
102
{ACAD_REACTORS
330
7
102
}
330
7
100
AcDbDictionary
281
     1
  3
DIMASSOC
350
D5
  3
HIDETEXT
350
D4
  3
PROJECTNAME
350
D6
  0
LAYOUT
  5
BF
102
{ACAD_XDICTIONARY
360
DE
102
}
102
{ACAD_REACTORS
330
BB
102
}
330
BB
100
AcDbPlotSettings
  1

  2
HP DeskJet 1120C Printer
  4

  6

 40
0.0
 41
0.0
 42
0.0
 43
0.0
 44
0.0
 45
0.0
 46
0.0
 47
0.0
 48
0.0
 49
0.0
140
0.0
141
0.0
142
1.0
143
1.0
 70
   688
 72
     0
 73
     0
 74
     5
  7
monochrome.ctb
 75
    16
147
1.0
148
0.0
149
0.0
100
AcDbLayout
  1
Layout1
 70
     1
 71
     1
 10
0.0
 20
0.0
 11
12.0
 21
9.0
 12
0.0
 22
0.0
 32
0.0
 14
1.000000000000000E+20
 24
1.000000000000000E+20
 34
1.000000000000000E+20
 15
-1.000000000000000E+20
 25
-1.000000000000000E+20
 35
-1.000000000000000E+20
146
0.0
 13
0.0
 23
0.0
 33
0.0
 16
1.0
 26
0.0
 36
0.0
 17
0.0
 27
1.0
 37
0.0
 76
     0
330
BC
  0
LAYOUT
  5
BA
102
{ACAD_XDICTIONARY
360
DC
102
}
102
{ACAD_REACTORS
330
BB
102
}
330
BB
100
AcDbPlotSettings
  1

  2
HP DeskJet 1120C Printer
  4

  6

 40
0.0
 41
0.0
 42
0.0
 43
0.0
 44
0.0
 45
0.0
 46
0.0
 47
0.0
 48
0.0
 49
0.0
140
0.0
141
0.0
142
1.0
143
1.0
 70
  1712
 72
     0
 73
     0
 74
     0
  7
monochrome.ctb
 75
     0
147
1.0
148
0.0
149
0.0
100
AcDbLayout
  1
Model
 70
     1
 71
     0
 10
0.0
 20
0.0
 11
12.0
 21
9.0
 12
0.0
 22
0.0
 32
0.0
 14
0.0
 24
0.0
 34
0.0
 15
0.0
 25
0.0
 35
0.0
146
0.0
 13
0.0
 23
0.0
 33
0.0
 16
1.0
 26
0.0
 36
0.0
 17
0.0
 27
1.0
 37
0.0
 76
     0
330
2
  0
MLINESTYLE
  5
D2
102
{ACAD_REACTORS
330
CE
102
}
330
CE
100
AcDbMlineStyle
  2
STANDARD
 70
     0
  3

 62
     0
 51
90.0
 52
90.0
 71
     2
 49
0.5
 62
   256
  6
BYLAYER
 49
-0.5
 62
   256
  6
BYLAYER
  0
ACDBPLACEHOLDER
  5
5
102
{ACAD_REACTORS
330
6
102
}
330
6
  0
XRECORD
  5
D9
102
{ACAD_REACTORS
330
D7
102
}
330
D7
100
AcDbXrecord
280
     1
340
D1
  0
XRECORD
  5
D8
102
{ACAD_REACTORS
330
D7
102
}
330
D7
100
AcDbXrecord
280
     1
340
D0
  0
DICTIONARYVAR
  5
D5
102
{ACAD_REACTORS
330
D3
102
}
330
D3
100
DictionaryVariables
280
     0
  1
1
  0
DICTIONARYVAR
  5
D4
102
{ACAD_REACTORS
330
D3
102
}
330
D3
100
DictionaryVariables
280
     0
  1
1
  0
DICTIONARYVAR
  5
D6
102
{ACAD_REACTORS
330
D3
102
}
330
D3
100
DictionaryVariables
280
     0
  1

  0
DICTIONARY
  5
DE
330
BF
100
AcDbDictionary
280
     1
281
     1
  3
ACAD_XREC_ROUNDTRIP
360
DF
  0
DICTIONARY
  5
DC
330
BA
100
AcDbDictionary
280
     1
281
     1
  3
ACAD_XREC_ROUNDTRIP
360
DD
  0
XRECORD
  5
DF
102
{ACAD_REACTORS
330
DE
102
}
330
DE
100
AcDbXrecord
280
     1
102
SHADEPLOT
 70
     0
102
SHADEPLOTRESLEVEL
 70
     2
102
SHADEPLOTCUSTOMDPI
 70
   300
  0
XRECORD
  5
DD
102
{ACAD_REACTORS
330
DC
102
}
330
DC
100
AcDbXrecord
280
     1
102
SHADEPLOT
 70
     0
102
SHADEPLOTRESLEVEL
 70
     2
102
SHADEPLOTCUSTOMDPI
 70
   300
  0
ENDSEC
  0
EOF
