  0
SECTION
  2
HEADER
  9
$ACADVER
  1
AC1015
  9
$ACADMAINTVER
 70
    18
  9
$DWGCODEPAGE
  3
ANSI_1252
  9
$INSBASE
 10
-327.8288694144876
 20
0.0
 30
0.0
  9
$EXTMIN
 10
1.000000000000000E+20
 20
1.000000000000000E+20
 30
1.000000000000000E+20
  9
$EXTMAX
 10
0.0
 20
0.0
 30
0.0
  9
$LIMMIN
 10
0.0
 20
0.0
  9
$LIMMAX
 10
12.0
 20
9.0
  9
$ORTHOMODE
 70
     1
  9
$REGENMODE
 70
     1
  9
$FILLMODE
 70
     1
  9
$QTEXTMODE
 70
     0
  9
$MIRRTEXT
 70
     1
  9
$LTSCALE
 40
2.5
  9
$ATTMODE
 70
     1
  9
$TEXTSIZE
 40
0.2
  9
$TRACEWID
 40
0.05
  9
$TEXTSTYLE
  7
STANDARD
  9
$CLAYER
  8
0
  9
$CELTYPE
  6
BYLAYER
  9
$CECOLOR
 62
   256
  9
$CELTSCALE
 40
1.0
  9
$DISPSILH
 70
     0
  9
$DIMSCALE
 40
1.0
  9
$DIMASZ
 40
3.5
  9
$DIMEXO
 40
2.0
  9
$DIMDLI
 40
2.0
  9
$DIMRND
 40
0.0
  9
$DIMDLE
 40
0.0
  9
$DIMEXE
 40
1.5
  9
$DIMTP
 40
0.0
  9
$DIMTM
 40
0.0
  9
$DIMTXT
 40
5.0
  9
$DIMCEN
 40
0.09
  9
$DIMTSZ
 40
0.0
  9
$DIMTOL
 70
     0
  9
$DIMLIM
 70
     0
  9
$DIMTIH
 70
     0
  9
$DIMTOH
 70
     0
  9
$DIMSE1
 70
     0
  9
$DIMSE2
 70
     0
  9
$DIMTAD
 70
     1
  9
$DIMZIN
 70
     9
  9
$DIMBLK
  1

  9
$DIMASO
 70
     1
  9
$DIMSHO
 70
     1
  9
$DIMPOST
  1

  9
$DIMAPOST
  1

  9
$DIMALT
 70
     0
  9
$DIMALTD
 70
     2
  9
$DIMALTF
 40
25.4
  9
$DIMLFAC
 40
1.0
  9
$DIMTOFL
 70
     0
  9
$DIMTVP
 40
0.0
  9
$DIMTIX
 70
     0
  9
$DIMSOXD
 70
     0
  9
$DIMSAH
 70
     0
  9
$DIMBLK1
  1

  9
$DIMBLK2
  1

  9
$DIMSTYLE
  2
1-1PRO
  9
$DIMCLRD
 70
   256
  9
$DIMCLRE
 70
   256
  9
$DIMCLRT
 70
   256
  9
$DIMTFAC
 40
1.0
  9
$DIMGAP
 40
1.0
  9
$DIMJUST
 70
     0
  9
$DIMSD1
 70
     0
  9
$DIMSD2
 70
     0
  9
$DIMTOLJ
 70
     1
  9
$DIMTZIN
 70
     0
  9
$DIMALTZ
 70
     0
  9
$DIMALTTZ
 70
     0
  9
$DIMUPT
 70
     0
  9
$DIMDEC
 70
     1
  9
$DIMTDEC
 70
     1
  9
$DIMALTU
 70
     2
  9
$DIMALTTD
 70
     2
  9
$DIMTXSTY
  7
STANDARD
  9
$DIMAUNIT
 70
     0
  9
$DIMADEC
 70
     0
  9
$DIMALTRND
 40
0.0
  9
$DIMAZIN
 70
     0
  9
$DIMDSEP
 70
    46
  9
$DIMATFIT
 70
     3
  9
$DIMFRAC
 70
     0
  9
$DIMLDRBLK
  1

  9
$DIMLUNIT
 70
     2
  9
$DIMLWD
 70
    -2
  9
$DIMLWE
 70
    -2
  9
$DIMTMOVE
 70
     0
  9
$LUNITS
 70
     2
  9
$LUPREC
 70
     4
  9
$SKETCHINC
 40
0.1
  9
$FILLETRAD
 40
0.0
  9
$AUNITS
 70
     0
  9
$AUPREC
 70
     0
  9
$MENU
  1
.
  9
$ELEVATION
 40
0.0
  9
$PELEVATION
 40
0.0
  9
$THICKNESS
 40
0.0
  9
$LIMCHECK
 70
     0
  9
$CHAMFERA
 40
2.0
  9
$CHAMFERB
 40
2.0
  9
$CHAMFERC
 40
1.0
  9
$CHAMFERD
 40
0.0
  9
$SKPOLY
 70
     0
  9
$TDCREATE
 40
2450923.406402199
  9
$TDUCREATE
 40
2450923.364735533
  9
$TDUPDATE
 40
2453396.530042084
  9
$TDUUPDATE
 40
2453396.488375417
  9
$TDINDWG
 40
2.6991460185
  9
$TDUSRTIMER
 40
2.6991460185
  9
$USRTIMER
 70
     1
  9
$ANGBASE
 50
0.0
  9
$ANGDIR
 70
     0
  9
$PDMODE
 70
     0
  9
$PDSIZE
 40
0.0
  9
$PLINEWID
 40
0.0
  9
$SPLFRAME
 70
     0
  9
$SPLINETYPE
 70
     6
  9
$SPLINESEGS
 70
    50
  9
$HANDSEED
  5
16E
  9
$SURFTAB1
 70
     6
  9
$SURFTAB2
 70
     6
  9
$SURFTYPE
 70
     6
  9
$SURFU
 70
     6
  9
$SURFV
 70
     6
  9
$UCSBASE
  2

  9
$UCSNAME
  2

  9
$UCSORG
 10
0.0
 20
0.0
 30
0.0
  9
$UCSXDIR
 10
1.0
 20
0.0
 30
0.0
  9
$UCSYDIR
 10
0.0
 20
1.0
 30
0.0
  9
$UCSORTHOREF
  2

  9
$UCSORTHOVIEW
 70
     0
  9
$UCSORGTOP
 10
0.0
 20
0.0
 30
0.0
  9
$UCSORGBOTTOM
 10
0.0
 20
0.0
 30
0.0
  9
$UCSORGLEFT
 10
0.0
 20
0.0
 30
0.0
  9
$UCSORGRIGHT
 10
0.0
 20
0.0
 30
0.0
  9
$UCSORGFRONT
 10
0.0
 20
0.0
 30
0.0
  9
$UCSORGBACK
 10
0.0
 20
0.0
 30
0.0
  9
$PUCSBASE
  2

  9
$PUCSNAME
  2

  9
$PUCSORG
 10
0.0
 20
0.0
 30
0.0
  9
$PUCSXDIR
 10
1.0
 20
0.0
 30
0.0
  9
$PUCSYDIR
 10
0.0
 20
1.0
 30
0.0
  9
$PUCSORTHOREF
  2

  9
$PUCSORTHOVIEW
 70
     0
  9
$PUCSORGTOP
 10
0.0
 20
0.0
 30
0.0
  9
$PUCSORGBOTTOM
 10
0.0
 20
0.0
 30
0.0
  9
$PUCSORGLEFT
 10
0.0
 20
0.0
 30
0.0
  9
$PUCSORGRIGHT
 10
0.0
 20
0.0
 30
0.0
  9
$PUCSORGFRONT
 10
0.0
 20
0.0
 30
0.0
  9
$PUCSORGBACK
 10
0.0
 20
0.0
 30
0.0
  9
$USERI1
 70
     0
  9
$USERI2
 70
     0
  9
$USERI3
 70
     0
  9
$USERI4
 70
     0
  9
$USERI5
 70
     0
  9
$USERR1
 40
0.0
  9
$USERR2
 40
0.0
  9
$USERR3
 40
0.0
  9
$USERR4
 40
0.0
  9
$USERR5
 40
0.0
  9
$WORLDVIEW
 70
     1
  9
$SHADEDGE
 70
     3
  9
$SHADEDIF
 70
    70
  9
$TILEMODE
 70
     1
  9
$MAXACTVP
 70
    48
  9
$PINSBASE
 10
0.0
 20
0.0
 30
0.0
  9
$PLIMCHECK
 70
     0
  9
$PEXTMIN
 10
1.000000000000000E+20
 20
1.000000000000000E+20
 30
1.000000000000000E+20
  9
$PEXTMAX
 10
-1.000000000000000E+20
 20
-1.000000000000000E+20
 30
-1.000000000000000E+20
  9
$PLIMMIN
 10
0.0
 20
0.0
  9
$PLIMMAX
 10
12.0
 20
9.0
  9
$UNITMODE
 70
     0
  9
$VISRETAIN
 70
     1
  9
$PLINEGEN
 70
     0
  9
$PSLTSCALE
 70
     1
  9
$TREEDEPTH
 70
  3020
  9
$CMLSTYLE
  2
STANDARD
  9
$CMLJUST
 70
     0
  9
$CMLSCALE
 40
1.0
  9
$PROXYGRAPHICS
 70
     1
  9
$MEASUREMENT
 70
     0
  9
$CELWEIGHT
370
    -1
  9
$ENDCAPS
280
     0
  9
$JOINSTYLE
280
     0
  9
$LWDISPLAY
290
     0
  9
$INSUNITS
 70
     0
  9
$HYPERLINKBASE
  1

  9
$STYLESHEET
  1

  9
$XEDIT
290
     1
  9
$CEPSNTYPE
380
     0
  9
$PSTYLEMODE
290
     1
  9
$FINGERPRINTGUID
  2
{E1561640-FB5E-11D4-9C1F-EC81C176A25E}
  9
$VERSIONGUID
  2
{3784074E-38BC-4D61-8105-EA465617CB18}
  9
$EXTNAMES
290
     1
  9
$PSVPSCALE
 40
0.0
  9
$OLESTARTUP
290
     0
  0
ENDSEC
  0
SECTION
  2
CLASSES
  0
CLASS
  1
DICTIONARYVAR
  2
AcDbDictionaryVar
  3
ObjectDBX Classes
 90
        0
280
     0
281
     0
  0
CLASS
  1
IMAGE
  2
AcDbRasterImage
  3
ISM
 90
    32895
280
     0
281
     1
  0
CLASS
  1
IMAGEDEF_REACTOR
  2
AcDbRasterImageDefReactor
  3
ISM
 90
    32769
280
     0
281
     0
  0
CLASS
  1
IMAGEDEF
  2
AcDbRasterImageDef
  3
ISM
 90
    32768
280
     0
281
     0
  0
CLASS
  1
RASTERVARIABLES
  2
AcDbRasterVariables
  3
ISM
 90
    32768
280
     0
281
     0
  0
CLASS
  1
ACDBDICTIONARYWDFLT
  2
AcDbDictionaryWithDefault
  3
ObjectDBX Classes
 90
        0
280
     0
281
     0
  0
CLASS
  1
ACDBPLACEHOLDER
  2
AcDbPlaceHolder
  3
ObjectDBX Classes
 90
        0
280
     0
281
     0
  0
CLASS
  1
LAYOUT
  2
AcDbLayout
  3
ObjectDBX Classes
 90
        0
280
     0
281
     0
  0
ENDSEC
  0
SECTION
  2
TABLES
  0
TABLE
  2
VPORT
  5
156
330
0
100
AcDbSymbolTable
 70
     1
  0
VPORT
  5
157
330
156
100
AcDbSymbolTableRecord
100
AcDbViewportTableRecord
  2
*Active
 70
     0
 10
0.0
 20
0.0
 11
1.0
 21
1.0
 12
122.0693798740894
 22
124.9606747712379
 13
0.0
 23
0.0
 14
0.5
 24
0.5
 15
0.5
 25
0.5
 16
0.0
 26
0.0
 36
1.0
 17
0.0
 27
0.0
 37
0.0
 40
305.3879380567543
 41
1.548512289780077
 42
50.0
 43
0.0
 44
0.0
 50
0.0
 51
0.0
 71
     0
 72
   100
 73
     1
 74
     1
 75
     0
 76
     0
 77
     0
 78
     0
281
     0
 65
     1
110
0.0
120
0.0
130
0.0
111
1.0
121
0.0
131
0.0
112
0.0
122
1.0
132
0.0
 79
     0
146
0.0
  0
ENDTAB
  0
TABLE
  2
LTYPE
  5
151
330
0
100
AcDbSymbolTable
 70
     4
  0
LTYPE
  5
152
330
151
100
AcDbSymbolTableRecord
100
AcDbLinetypeTableRecord
  2
BYBLOCK
 70
     0
  3

 72
    65
 73
     0
 40
0.0
  0
LTYPE
  5
153
330
151
100
AcDbSymbolTableRecord
100
AcDbLinetypeTableRecord
  2
BYLAYER
 70
     0
  3

 72
    65
 73
     0
 40
0.0
  0
LTYPE
  5
8
330
151
100
AcDbSymbolTableRecord
100
AcDbLinetypeTableRecord
  2
CONTINUOUS
 70
     0
  3
Solid line
 72
    65
 73
     0
 40
0.0
  0
LTYPE
  5
15
330
151
100
AcDbSymbolTableRecord
100
AcDbLinetypeTableRecord
  2
MITTEX2
 70
     0
  3
Mitte (2x) ________  __  ________  __  _____
 72
    65
 73
     4
 40
4.0
 49
2.5
 74
     0
 49
-0.5
 74
     0
 49
0.5
 74
     0
 49
-0.5
 74
     0
  0
LTYPE
  5
22
330
151
100
AcDbSymbolTableRecord
100
AcDbLinetypeTableRecord
  2
STRICHLINIEX2
 70
     0
  3
Strichlinie (2x) ____  ____  ____  ____  ____  
 72
    65
 73
     2
 40
1.5
 49
1.0
 74
     0
 49
-0.5
 74
     0
  0
LTYPE
  5
DE
330
151
100
AcDbSymbolTableRecord
100
AcDbLinetypeTableRecord
  2
VERDECKT_SEHR_FEIN
 70
     0
  3
_ _ _ _ _ _ _ _ _ _ _ _ _ _ _ _ _ _ _ _ _ _ _
 72
    65
 73
     2
 40
0.09375
 49
0.0625
 74
     0
 49
-0.03125
 74
     0
  0
ENDTAB
  0
TABLE
  2
LAYER
  5
14E
330
0
100
AcDbSymbolTable
 70
    11
  0
LAYER
  5
4
330
14E
100
AcDbSymbolTableRecord
100
AcDbLayerTableRecord
  2
0
 70
     0
 62
     7
  6
CONTINUOUS
370
    -3
390
5
  0
LAYER
  5
A
330
14E
100
AcDbSymbolTableRecord
100
AcDbLayerTableRecord
  2
-PROFILAUSSENKANTET
 70
     0
 62
     4
  6
CONTINUOUS
370
    -3
390
5
  0
LAYER
  5
65
330
14E
100
AcDbSymbolTableRecord
100
AcDbLayerTableRecord
  2
-DICHTUNG
 70
     0
 62
     3
  6
CONTINUOUS
370
    -3
390
5
  0
LAYER
  5
2C
330
14E
100
AcDbSymbolTableRecord
100
AcDbLayerTableRecord
  2
-NORMTEIL
 70
     0
 62
     6
  6
CONTINUOUS
370
    -3
390
5
  0
LAYER
  5
21
330
14E
100
AcDbSymbolTableRecord
100
AcDbLayerTableRecord
  2
-NORMTEIL_VERDECKT
 70
     0
 62
     9
  6
STRICHLINIEX2
370
    -3
390
5
  0
LAYER
  5
41
330
14E
100
AcDbSymbolTableRecord
100
AcDbLayerTableRecord
  2
DEFPOINTS
 70
     0
 62
     7
  6
CONTINUOUS
290
     0
370
    -3
390
5
  0
LAYER
  5
14
330
14E
100
AcDbSymbolTableRecord
100
AcDbLayerTableRecord
  2
-SYSTEM
 70
     0
 62
     2
  6
MITTEX2
370
    -3
390
5
  0
LAYER
  5
1A
330
14E
100
AcDbSymbolTableRecord
100
AcDbLayerTableRecord
  2
-TEXT2
 70
     0
 62
     3
  6
CONTINUOUS
370
    -3
390
5
  0
LAYER
  5
36
330
14E
100
AcDbSymbolTableRecord
100
AcDbLayerTableRecord
  2
-TEXT3
 70
     0
 62
     2
  6
CONTINUOUS
370
    -3
390
5
  0
LAYER
  5
F
330
14E
100
AcDbSymbolTableRecord
100
AcDbLayerTableRecord
  2
-SCHRAFFUR
 70
     0
 62
     9
  6
CONTINUOUS
370
    -3
390
5
  0
LAYER
  5
12
330
14E
100
AcDbSymbolTableRecord
100
AcDbLayerTableRecord
  2
-VERGLASUNG
 70
     0
 62
     1
  6
CONTINUOUS
370
    -3
390
5
  0
ENDTAB
  0
TABLE
  2
STYLE
  5
14F
330
0
100
AcDbSymbolTable
 70
     1
  0
STYLE
  5
1B
330
14F
100
AcDbSymbolTableRecord
100
AcDbTextStyleTableRecord
  2
STANDARD
 70
     0
 40
0.0
 41
1.0
 50
0.0
 71
     0
 42
0.2
  3
GOTHIC.TTF
  4

1001
ACAD
1000
Century Gothic
1071
       34
  0
ENDTAB
  0
TABLE
  2
VIEW
  5
154
330
0
100
AcDbSymbolTable
 70
     0
  0
ENDTAB
  0
TABLE
  2
UCS
  5
155
330
0
100
AcDbSymbolTable
 70
     0
  0
ENDTAB
  0
TABLE
  2
APPID
  5
158
330
0
100
AcDbSymbolTable
 70
     1
  0
APPID
  5
1C
330
158
100
AcDbSymbolTableRecord
100
AcDbRegAppTableRecord
  2
ACAD
 70
     0
  0
ENDTAB
  0
TABLE
  2
DIMSTYLE
  5
159
330
0
100
AcDbSymbolTable
 70
     3
100
AcDbDimStyleTable
 71
     3
340
46
340
37
340
9B
  0
DIMSTYLE
105
46
102
{ACAD_REACTORS
330
45
330
57
330
72
330
7F
330
8D
102
}
330
159
100
AcDbSymbolTableRecord
100
AcDbDimStyleTableRecord
  2
1-1PRO
 70
     0
 41
3.5
 42
2.0
 43
2.0
 44
1.5
 73
     0
 74
     0
 77
     1
 78
     9
140
5.0
147
1.0
176
   256
177
   256
178
   256
271
     1
272
     1
340
1B
  0
DIMSTYLE
105
9B
102
{ACAD_REACTORS
330
9A
330
AE
102
}
330
159
100
AcDbSymbolTableRecord
100
AcDbDimStyleTableRecord
  2
1-1PRO-PU
 70
     0
 41
3.5
 42
2.0
 43
2.0
 44
1.5
 73
     0
 74
     0
 77
     1
 78
     9
140
4.0
147
1.0
173
     1
176
   256
177
   256
178
   256
271
     1
272
     1
340
1B
344
9C
  0
DIMSTYLE
105
37
102
{ACAD_REACTORS
330
35
102
}
330
159
100
AcDbSymbolTableRecord
100
AcDbDimStyleTableRecord
  2
1-1
 70
     0
 41
2.0
 42
2.0
 43
2.0
 44
1.0
 73
     0
 74
     0
 77
     1
 78
     9
140
3.5
147
1.0
176
     2
177
     2
178
     3
271
     0
289
     2
340
1B
  0
ENDTAB
  0
TABLE
  2
BLOCK_RECORD
  5
1
330
0
100
AcDbSymbolTable
 70
    11
  0
BLOCK_RECORD
  5
2
330
1
100
AcDbSymbolTableRecord
100
AcDbBlockTableRecord
  2
*MODEL_SPACE
340
148
  0
BLOCK_RECORD
  5
14A
330
1
100
AcDbSymbolTableRecord
100
AcDbBlockTableRecord
  2
*PAPER_SPACE
340
14D
  0
BLOCK_RECORD
  5
D9
330
1
100
AcDbSymbolTableRecord
100
AcDbBlockTableRecord
  2
571-10
340
0
102
{BLKREFS
331
D8
102
}
  0
BLOCK_RECORD
  5
9C
330
1
100
AcDbSymbolTableRecord
100
AcDbBlockTableRecord
  2
_DOTBLANK
340
0
102
{BLKREFS
331
B6
331
A8
102
}
  0
BLOCK_RECORD
  5
B
330
1
100
AcDbSymbolTableRecord
100
AcDbBlockTableRecord
  2
ANSICHT52
340
0
102
{BLKREFS
331
9
102
}
  0
BLOCK_RECORD
  5
38
330
1
100
AcDbSymbolTableRecord
100
AcDbBlockTableRecord
  2
*D3
340
0
  0
BLOCK_RECORD
  5
47
330
1
100
AcDbSymbolTableRecord
100
AcDbBlockTableRecord
  2
*D4
340
0
  0
BLOCK_RECORD
  5
58
330
1
100
AcDbSymbolTableRecord
100
AcDbBlockTableRecord
  2
*D5
340
0
  0
BLOCK_RECORD
  5
73
330
1
100
AcDbSymbolTableRecord
100
AcDbBlockTableRecord
  2
*D6
340
0
  0
BLOCK_RECORD
  5
80
330
1
100
AcDbSymbolTableRecord
100
AcDbBlockTableRecord
  2
*D7
340
0
  0
BLOCK_RECORD
  5
8E
330
1
100
AcDbSymbolTableRecord
100
AcDbBlockTableRecord
  2
*D8
340
0
  0
BLOCK_RECORD
  5
A1
330
1
100
AcDbSymbolTableRecord
100
AcDbBlockTableRecord
  2
*D9
340
0
  0
BLOCK_RECORD
  5
AF
330
1
100
AcDbSymbolTableRecord
100
AcDbBlockTableRecord
  2
*D10
340
0
  0
ENDTAB
  0
ENDSEC
  0
SECTION
  2
BLOCKS
  0
BLOCK
  5
3
330
2
100
AcDbEntity
  8
0
100
AcDbBlockBegin
  2
*MODEL_SPACE
 70
     0
 10
0.0
 20
0.0
 30
0.0
  3
*MODEL_SPACE
  1

  0
ENDBLK
  5
147
330
2
100
AcDbEntity
  8
0
100
AcDbBlockEnd
  0
BLOCK
  5
14B
330
14A
100
AcDbEntity
 67
     1
  8
0
100
AcDbBlockBegin
  2
*PAPER_SPACE
 70
     0
 10
0.0
 20
0.0
 30
0.0
  3
*PAPER_SPACE
  1

  0
ENDBLK
  5
14C
330
14A
100
AcDbEntity
 67
     1
  8
0
100
AcDbBlockEnd
  0
BLOCK
  5
DA
330
D9
100
AcDbEntity
  8
0
100
AcDbBlockBegin
  2
571-10
 70
     0
 10
0.0
 20
0.0
 30
0.0
  3
571-10
  1

  0
LINE
  5
DB
330
D9
100
AcDbEntity
  8
-NORMTEIL
100
AcDbLine
 10
4.907477288111749
 20
7.0
 30
0.0
 11
7.361215932167624
 21
7.0
 31
0.0
  0
LWPOLYLINE
  5
DC
330
D9
100
AcDbEntity
  8
-NORMTEIL
100
AcDbPolyline
 90
        6
 70
     1
 43
0.0
 10
9.814954576223499
 20
6.599999999999909
 42
0.1630165465947134
 10
4.907477288111749
 20
6.599999999999909
 42
0.0815082732973533
 10
-4.907477288111749
 20
6.599999999999909
 42
0.1630165465947091
 10
-9.814954576223726
 20
6.599999999999909
 10
-9.814954576223726
 20
0.0
 10
9.814954576223499
 20
0.0
  0
LINE
  5
DD
330
D9
100
AcDbEntity
  8
-NORMTEIL
  6
VERDECKT_SEHR_FEIN
100
AcDbLine
 10
-4.999999999999772
 20
-19.99999999999977
 30
0.0
 11
-4.999999999999772
 21
0.0
 31
0.0
  0
LINE
  5
DF
330
D9
100
AcDbEntity
  8
-NORMTEIL
  6
VERDECKT_SEHR_FEIN
100
AcDbLine
 10
4.999999999999772
 20
-19.99999999999977
 30
0.0
 11
4.999999999999772
 21
0.0
 31
0.0
  0
LINE
  5
E0
330
D9
100
AcDbEntity
  8
-NORMTEIL
  6
VERDECKT_SEHR_FEIN
100
AcDbLine
 10
4.165951178799787
 20
-35.9145995615545
 30
0.0
 11
3.124940822316148
 21
-36.67093785763132
 31
0.0
  0
LINE
  5
E1
330
D9
100
AcDbEntity
  8
-NORMTEIL
  6
VERDECKT_SEHR_FEIN
100
AcDbLine
 10
3.87401323925178
 20
-22.3777846810815
 30
0.0
 11
4.808013250458088
 21
-23.66332541022393
 31
0.0
  0
LINE
  5
E2
330
D9
100
AcDbEntity
  8
-NORMTEIL
  6
VERDECKT_SEHR_FEIN
100
AcDbLine
 10
4.808013250458088
 20
-23.66332541022393
 30
0.0
 11
3.767002893977178
 21
-24.41966370630371
 31
0.0
  0
LINE
  5
E3
330
D9
100
AcDbEntity
  8
-NORMTEIL
  6
VERDECKT_SEHR_FEIN
100
AcDbLine
 10
3.767002893977178
 20
-24.41966370630371
 30
0.0
 11
3.659992548700984
 21
-26.46154273152593
 31
0.0
  0
LINE
  5
E4
330
D9
100
AcDbEntity
  8
-NORMTEIL
  6
VERDECKT_SEHR_FEIN
100
AcDbLine
 10
3.659992548699619
 20
-26.46154273152593
 30
0.0
 11
4.593992559904336
 21
-27.74708346066836
 31
0.0
  0
LINE
  5
E5
330
D9
100
AcDbEntity
  8
-NORMTEIL
  6
VERDECKT_SEHR_FEIN
100
AcDbLine
 10
3.3389615128699
 20
-32.58717980718961
 30
0.0
 11
3.231951167593706
 21
-34.62905883241183
 31
0.0
  0
LINE
  5
E6
330
D9
100
AcDbEntity
  8
-NORMTEIL
  6
VERDECKT_SEHR_FEIN
100
AcDbLine
 10
3.231951167593706
 20
-34.62905883241183
 30
0.0
 11
4.165951178799787
 21
-35.9145995615545
 31
0.0
  0
LINE
  5
E7
330
D9
100
AcDbEntity
  8
-NORMTEIL
  6
VERDECKT_SEHR_FEIN
100
AcDbLine
 10
3.445971858145867
 20
-30.5453007819674
 30
0.0
 11
4.379971869352175
 21
-31.83084151111007
 31
0.0
  0
LINE
  5
E8
330
D9
100
AcDbEntity
  8
-NORMTEIL
  6
VERDECKT_SEHR_FEIN
100
AcDbLine
 10
4.379971869352175
 20
-31.83084151111007
 30
0.0
 11
3.3389615128699
 21
-32.58717980718961
 31
0.0
  0
LINE
  5
E9
330
D9
100
AcDbEntity
  8
-NORMTEIL
  6
VERDECKT_SEHR_FEIN
100
AcDbLine
 10
3.552982203423425
 20
-28.50342175674518
 30
0.0
 11
3.445971858145867
 21
-30.5453007819674
 31
0.0
  0
LINE
  5
EA
330
D9
100
AcDbEntity
  8
-NORMTEIL
  6
VERDECKT_SEHR_FEIN
100
AcDbLine
 10
4.593992559904336
 20
-27.74708346066836
 30
0.0
 11
3.552982203423425
 21
-28.50342175674518
 31
0.0
  0
LINE
  5
EB
330
D9
100
AcDbEntity
  8
-NORMTEIL
  6
VERDECKT_SEHR_FEIN
100
AcDbLine
 10
4.001370465245145
 20
-19.94766404375627
 30
0.0
 11
3.87401323925178
 21
-22.3777846810815
 31
0.0
  0
LINE
  5
EC
330
D9
100
AcDbEntity
  8
-NORMTEIL
  6
VERDECKT_SEHR_FEIN
100
AcDbLine
 10
-3.984365482240491
 20
-20.27213844883795
 30
0.0
 11
-4.944970719041975
 21
-21.05002123180475
 31
0.0
  0
LINE
  5
ED
330
D9
100
AcDbEntity
  8
-NORMTEIL
  6
VERDECKT_SEHR_FEIN
100
AcDbLine
 10
-4.001370465245145
 20
-19.94766404375627
 30
0.0
 11
-3.984365482242083
 21
-20.27213844883795
 31
0.0
  0
LINE
  5
EE
330
D9
100
AcDbEntity
  8
-NORMTEIL
  6
VERDECKT_SEHR_FEIN
100
AcDbLine
 10
-3.213955548817239
 20
-34.97243569408215
 30
0.0
 11
-3.103896986900053
 21
-37.07247815768915
 31
0.0
  0
LINE
  5
EF
330
D9
100
AcDbEntity
  8
-NORMTEIL
  6
VERDECKT_SEHR_FEIN
100
AcDbLine
 10
-3.103896986900053
 20
-37.07247815768915
 30
0.0
 11
-4.064502223700173
 21
-37.85036094065322
 31
0.0
  0
LINE
  5
F0
330
D9
100
AcDbEntity
  8
-NORMTEIL
  6
VERDECKT_SEHR_FEIN
100
AcDbLine
 10
-3.764248358406575
 20
-24.47222337605217
 30
0.0
 11
-4.724853595206468
 21
-25.25010615901624
 31
0.0
  0
LINE
  5
F1
330
D9
100
AcDbEntity
  8
-NORMTEIL
  6
VERDECKT_SEHR_FEIN
100
AcDbLine
 10
-4.724853595206468
 20
-25.25010615901624
 30
0.0
 11
-3.654189796488026
 21
-26.57226583965644
 31
0.0
  0
LINE
  5
F2
330
D9
100
AcDbEntity
  8
-NORMTEIL
  6
VERDECKT_SEHR_FEIN
100
AcDbLine
 10
-3.874306920324897
 20
-22.37218091244518
 30
0.0
 11
-3.764248358406575
 21
-24.47222337605217
 31
0.0
  0
LINE
  5
F3
330
D9
100
AcDbEntity
  8
-NORMTEIL
  6
VERDECKT_SEHR_FEIN
100
AcDbLine
 10
-3.324014110735561
 20
-32.87239323047493
 30
0.0
 11
-4.284619347535681
 21
-33.65027601344173
 31
0.0
  0
LINE
  5
F4
330
D9
100
AcDbEntity
  8
-NORMTEIL
  6
VERDECKT_SEHR_FEIN
100
AcDbLine
 10
-4.284619347535681
 20
-33.65027601344173
 30
0.0
 11
-3.213955548817239
 21
-34.97243569408215
 31
0.0
  0
LINE
  5
F5
330
D9
100
AcDbEntity
  8
-NORMTEIL
  6
VERDECKT_SEHR_FEIN
100
AcDbLine
 10
-3.544131234569704
 20
-28.67230830326366
 30
0.0
 11
-4.504736471369596
 21
-29.45019108622751
 31
0.0
  0
LINE
  5
F6
330
D9
100
AcDbEntity
  8
-NORMTEIL
  6
VERDECKT_SEHR_FEIN
100
AcDbLine
 10
-4.504736471369596
 20
-29.45019108622751
 30
0.0
 11
-3.434072672652746
 21
-30.77235076687066
 31
0.0
  0
LINE
  5
F7
330
D9
100
AcDbEntity
  8
-NORMTEIL
  6
VERDECKT_SEHR_FEIN
100
AcDbLine
 10
-3.434072672652746
 20
-30.77235076687066
 30
0.0
 11
-3.324014110735561
 21
-32.87239323047493
 31
0.0
  0
LINE
  5
F8
330
D9
100
AcDbEntity
  8
-NORMTEIL
  6
VERDECKT_SEHR_FEIN
100
AcDbLine
 10
-3.65418979648939
 20
-26.57226583965644
 30
0.0
 11
-3.544131234571068
 21
-28.67230830326366
 31
0.0
  0
LINE
  5
F9
330
D9
100
AcDbEntity
  8
-NORMTEIL
  6
VERDECKT_SEHR_FEIN
100
AcDbLine
 10
-4.944970719041975
 20
-21.05002123180475
 30
0.0
 11
-3.874306920323533
 21
-22.37218091244518
 31
0.0
  0
LINE
  5
FA
330
D9
100
AcDbEntity
  8
-NORMTEIL
  6
VERDECKT_SEHR_FEIN
100
AcDbLine
 10
-3.984365482240491
 20
-20.27213844883795
 30
0.0
 11
3.87401323925178
 21
-22.3777846810815
 31
0.0
  0
LINE
  5
FB
330
D9
100
AcDbEntity
  8
-NORMTEIL
  6
VERDECKT_SEHR_FEIN
100
AcDbLine
 10
-4.999999999999772
 20
-19.99999999999977
 30
0.0
 11
4.999999999998181
 21
-19.99999999999977
 31
0.0
  0
LINE
  5
FC
330
D9
100
AcDbEntity
  8
-NORMTEIL
  6
VERDECKT_SEHR_FEIN
100
AcDbLine
 10
-3.874306920323533
 20
-22.37218091244518
 30
0.0
 11
3.767002893977178
 21
-24.41966370630371
 31
0.0
  0
LINE
  5
FD
330
D9
100
AcDbEntity
  8
-NORMTEIL
  6
VERDECKT_SEHR_FEIN
100
AcDbLine
 10
-3.764248358406575
 20
-24.47222337605217
 30
0.0
 11
3.659992548699619
 21
-26.46154273152593
 31
0.0
  0
LINE
  5
FE
330
D9
100
AcDbEntity
  8
-NORMTEIL
  6
VERDECKT_SEHR_FEIN
100
AcDbLine
 10
-3.874306920323533
 20
-22.37218091244518
 30
0.0
 11
3.87401323925178
 21
-22.3777846810815
 31
0.0
  0
LINE
  5
FF
330
D9
100
AcDbEntity
  8
-NORMTEIL
  6
VERDECKT_SEHR_FEIN
100
AcDbLine
 10
-3.65418979648939
 20
-26.57226583965644
 30
0.0
 11
3.659992548699619
 21
-26.46154273152593
 31
0.0
  0
LINE
  5
100
330
D9
100
AcDbEntity
  8
-NORMTEIL
  6
VERDECKT_SEHR_FEIN
100
AcDbLine
 10
-3.544131234569704
 20
-28.67230830326366
 30
0.0
 11
3.445971858145867
 21
-30.5453007819674
 31
0.0
  0
LINE
  5
101
330
D9
100
AcDbEntity
  8
-NORMTEIL
  6
VERDECKT_SEHR_FEIN
100
AcDbLine
 10
-3.434072672652746
 20
-30.77235076687066
 30
0.0
 11
3.3389615128699
 21
-32.58717980718961
 31
0.0
  0
LINE
  5
102
330
D9
100
AcDbEntity
  8
-NORMTEIL
  6
VERDECKT_SEHR_FEIN
100
AcDbLine
 10
-3.324014110734196
 20
-32.87239323047493
 30
0.0
 11
3.231951167593706
 21
-34.62905883241183
 31
0.0
  0
LINE
  5
103
330
D9
100
AcDbEntity
  8
-NORMTEIL
  6
VERDECKT_SEHR_FEIN
100
AcDbLine
 10
-3.213955548817239
 20
-34.97243569408215
 30
0.0
 11
3.124940822316148
 21
-36.67093785763132
 31
0.0
  0
LINE
  5
104
330
D9
100
AcDbEntity
  8
-NORMTEIL
  6
VERDECKT_SEHR_FEIN
100
AcDbLine
 10
-3.434072672652746
 20
-30.77235076687066
 30
0.0
 11
3.445971858145867
 21
-30.5453007819674
 31
0.0
  0
LINE
  5
105
330
D9
100
AcDbEntity
  8
-NORMTEIL
  6
VERDECKT_SEHR_FEIN
100
AcDbLine
 10
-3.213955548817239
 20
-34.97243569408215
 30
0.0
 11
3.231951167593706
 21
-34.62905883241183
 31
0.0
  0
LINE
  5
106
330
D9
100
AcDbEntity
  8
-NORMTEIL
  6
VERDECKT_SEHR_FEIN
100
AcDbLine
 10
-3.654189796488026
 20
-26.57226583965644
 30
0.0
 11
3.552982203423425
 21
-28.50342175674518
 31
0.0
  0
ARC
  5
107
330
D9
100
AcDbEntity
  8
-NORMTEIL
  6
VERDECKT_SEHR_FEIN
100
AcDbCircle
 10
-16.54548101745104
 20
-37.68062961210421
 30
0.0
 40
19.62813197681735
100
AcDbArc
 50
345.1937303175753
 51
351.0430563451842
  0
LINE
  5
108
330
D9
100
AcDbEntity
  8
-NORMTEIL
  6
VERDECKT_SEHR_FEIN
100
AcDbLine
 10
3.017930477041318
 20
-38.71281688285353
 30
0.0
 11
3.951844414335482
 21
-40.00000000003843
 31
0.0
  0
LINE
  5
109
330
D9
100
AcDbEntity
  8
-NORMTEIL
  6
VERDECKT_SEHR_FEIN
100
AcDbLine
 10
3.951844414335482
 20
-40.00000000003843
 30
0.0
 11
2.843298025800322
 21
-40.73657661939296
 31
0.0
  0
LINE
  5
10A
330
D9
100
AcDbEntity
  8
-NORMTEIL
  6
VERDECKT_SEHR_FEIN
100
AcDbLine
 10
2.430907282176576
 20
-42.696629213493
 30
0.0
 11
3.117703711890953
 21
-43.91593194260781
 31
0.0
  0
LINE
  5
10B
330
D9
100
AcDbEntity
  8
-NORMTEIL
  6
VERDECKT_SEHR_FEIN
100
AcDbLine
 10
3.117703711890953
 20
-43.91593194260781
 30
0.0
 11
1.821154325513361
 21
-44.60379876199271
 31
0.0
  0
LINE
  5
10C
330
D9
100
AcDbEntity
  8
-NORMTEIL
  6
VERDECKT_SEHR_FEIN
100
AcDbLine
 10
1.011103134190761
 20
-46.45729856027105
 30
0.0
 11
1.524569384187543
 21
-47.63015760770577
 31
0.0
  0
ARC
  5
10D
330
D9
100
AcDbEntity
  8
-NORMTEIL
  6
VERDECKT_SEHR_FEIN
100
AcDbCircle
 10
-16.54548101745104
 20
-37.68062961210421
 30
0.0
 40
20.62813197681735
100
AcDbArc
 50
323.3295098482051
 51
331.1624344669203
  0
ARC
  5
10E
330
D9
100
AcDbEntity
  8
-NORMTEIL
  6
VERDECKT_SEHR_FEIN
100
AcDbCircle
 10
-16.54548101745104
 20
-37.68062961210421
 30
0.0
 40
19.62813197681735
100
AcDbArc
 50
333.439186631502
 51
339.3464315262252
  0
LINE
  5
10F
330
D9
100
AcDbEntity
  8
-NORMTEIL
  6
VERDECKT_SEHR_FEIN
100
AcDbLine
 10
-2.744192013676638
 20
-41.30996553641739
 30
0.0
 11
-3.600199022549986
 21
-42.115875330084
 31
0.0
  0
LINE
  5
110
330
D9
100
AcDbEntity
  8
-NORMTEIL
  6
VERDECKT_SEHR_FEIN
100
AcDbLine
 10
-3.600199022549986
 20
-42.115875330084
 30
0.0
 11
-2.19121513203504
 21
-43.52868760610522
 31
0.0
  0
ARC
  5
111
330
D9
100
AcDbEntity
  8
-NORMTEIL
  6
VERDECKT_SEHR_FEIN
100
AcDbCircle
 10
16.54548101745104
 20
-37.68062961210421
 30
0.0
 40
19.62813197681735
100
AcDbArc
 50
186.4558313866915
 51
190.6555823996889
  0
LINE
  5
112
330
D9
100
AcDbEntity
  8
-NORMTEIL
  6
VERDECKT_SEHR_FEIN
100
AcDbLine
 10
-2.993838424981731
 20
-39.17252062129342
 30
0.0
 11
-2.953214879583811
 21
-39.94766404376651
 31
0.0
  0
LINE
  5
113
330
D9
100
AcDbEntity
  8
-NORMTEIL
  6
VERDECKT_SEHR_FEIN
100
AcDbLine
 10
-1.308268003801003
 20
-45.83582493689664
 30
0.0
 11
-2.015263603772154
 21
-46.68166221724255
 31
0.0
  0
ARC
  5
114
330
D9
100
AcDbEntity
  8
-NORMTEIL
  6
VERDECKT_SEHR_FEIN
100
AcDbCircle
 10
16.54548101745104
 20
-37.68062961210421
 30
0.0
 40
19.62813197681735
100
AcDbArc
 50
197.3340767728676
 51
204.5498658763077
  0
LINE
  5
115
330
D9
100
AcDbEntity
  8
-NORMTEIL
  6
VERDECKT_SEHR_FEIN
100
AcDbLine
 10
-2.744192013676638
 20
-41.30996553641739
 30
0.0
 11
2.430907282176576
 21
-42.696629213493
 31
0.0
  0
LINE
  5
116
330
D9
100
AcDbEntity
  8
-NORMTEIL
  6
VERDECKT_SEHR_FEIN
100
AcDbLine
 10
-2.19121513203504
 20
-43.52868760610522
 30
0.0
 11
1.821154325513361
 21
-44.60379876199271
 31
0.0
  0
LINE
  5
117
330
D9
100
AcDbEntity
  8
-NORMTEIL
  6
VERDECKT_SEHR_FEIN
100
AcDbLine
 10
-2.993838424981731
 20
-39.17252062129342
 30
0.0
 11
2.843298025726426
 21
-40.73657661937295
 31
0.0
  0
LINE
  5
118
330
D9
100
AcDbEntity
  8
-NORMTEIL
  6
VERDECKT_SEHR_FEIN
100
AcDbLine
 10
-2.993838424981731
 20
-39.17252062129342
 30
0.0
 11
3.017930477041318
 21
-38.71281688285353
 31
0.0
  0
LINE
  5
119
330
D9
100
AcDbEntity
  8
-NORMTEIL
  6
VERDECKT_SEHR_FEIN
100
AcDbLine
 10
-2.19121513203504
 20
-43.52868760610522
 30
0.0
 11
2.430907282176576
 21
-42.696629213493
 31
0.0
  0
LINE
  5
11A
330
D9
100
AcDbEntity
  8
-NORMTEIL
  6
VERDECKT_SEHR_FEIN
100
AcDbLine
 10
-1.308268003801003
 20
-45.83582493689664
 30
0.0
 11
1.011103134190761
 21
-46.45729856027105
 31
0.0
  0
LINE
  5
11B
330
D9
100
AcDbEntity
  8
-NORMTEIL
  6
VERDECKT_SEHR_FEIN
100
AcDbLine
 10
-2.015263603772154
 20
-46.68166221724255
 30
0.0
 11
1.524569384187543
 21
-47.63015760770577
 31
0.0
  0
LINE
  5
11C
330
D9
100
AcDbEntity
  8
-NORMTEIL
  6
VERDECKT_SEHR_FEIN
100
AcDbLine
 10
-2.015263603772154
 20
-46.68166221724255
 30
0.0
 11
1.524569384187543
 21
-47.63015760770577
 31
0.0
  0
LINE
  5
11D
330
D9
100
AcDbEntity
  8
-NORMTEIL
  6
VERDECKT_SEHR_FEIN
100
AcDbLine
 10
-1.29995807291425
 20
-46.87332775657568
 30
0.0
 11
1.011103134190761
 21
-46.45729856027105
 31
0.0
  0
ARC
  5
11E
330
D9
100
AcDbEntity
  8
-NORMTEIL
  6
VERDECKT_SEHR_FEIN
100
AcDbCircle
 10
16.54548101745104
 20
-37.68062961210421
 30
0.0
 40
20.62813197681735
100
AcDbArc
 50
205.8710646891886
 51
216.6704901517949
  0
LINE
  5
11F
330
D9
100
AcDbEntity
  8
-NORMTEIL
  6
VERDECKT_SEHR_FEIN
100
AcDbLine
 10
-3.103896986900053
 20
-37.07247815768915
 30
0.0
 11
3.017930477039953
 21
-38.71281688285353
 31
0.0
  0
LINE
  5
120
330
D9
100
AcDbEntity
  8
-NORMTEIL
  6
VERDECKT_SEHR_FEIN
100
AcDbLine
 10
-4.064502223700173
 20
-37.85036094065322
 30
0.0
 11
-2.993838424981731
 21
-39.17252062129342
 31
0.0
  0
LINE
  5
121
330
D9
100
AcDbEntity
  8
-NORMTEIL
  6
VERDECKT_SEHR_FEIN
100
AcDbLine
 10
3.124940822316148
 20
-36.67093785763132
 30
0.0
 11
3.017930477039953
 21
-38.71281688285353
 31
0.0
  0
LINE
  5
122
330
D9
100
AcDbEntity
  8
-NORMTEIL
100
AcDbLine
 10
4.907477288111749
 20
6.599999999999909
 30
0.0
 11
4.907477288111749
 21
0.0
 31
0.0
  0
LINE
  5
123
330
D9
100
AcDbEntity
  8
-NORMTEIL
100
AcDbLine
 10
-4.907477288111749
 20
6.599999999999909
 30
0.0
 11
-4.907477288111749
 21
0.0
 31
0.0
  0
LINE
  5
124
330
D9
100
AcDbEntity
  8
-NORMTEIL
100
AcDbLine
 10
-7.361215932167851
 20
7.0
 30
0.0
 11
-4.907477288111749
 21
7.0
 31
0.0
  0
LINE
  5
125
330
D9
100
AcDbEntity
  8
-NORMTEIL
100
AcDbLine
 10
-4.907477288111749
 20
7.0
 30
0.0
 11
4.907477288111749
 21
7.0
 31
0.0
  0
ENDBLK
  5
126
330
D9
100
AcDbEntity
  8
0
100
AcDbBlockEnd
  0
BLOCK
  5
9D
330
9C
100
AcDbEntity
  8
0
100
AcDbBlockBegin
  2
_DOTBLANK
 70
     0
 10
0.0
 20
0.0
 30
0.0
  3
_DOTBLANK
  1

  0
CIRCLE
  5
9E
330
9C
100
AcDbEntity
  8
0
  6
ByBlock
 62
     0
100
AcDbCircle
 10
0.0
 20
0.0
 30
0.0
 40
0.5
  0
LINE
  5
9F
330
9C
100
AcDbEntity
  8
0
  6
ByBlock
 62
     0
100
AcDbLine
 10
-0.5
 20
0.0
 30
0.0
 11
-1.0
 21
0.0
 31
0.0
  0
ENDBLK
  5
A0
330
9C
100
AcDbEntity
  8
0
100
AcDbBlockEnd
  0
BLOCK
  5
C
330
B
100
AcDbEntity
  8
0
100
AcDbBlockBegin
  2
ANSICHT52
 70
     0
 10
0.0
 20
0.0
 30
0.0
  3
ANSICHT52
  1

  0
CIRCLE
  5
D
330
B
100
AcDbEntity
  8
-PROFILAUSSENKANTET
100
AcDbCircle
 10
-0.0000000000241505
 20
-97.34816104632308
 30
0.0
 40
10.0
  0
CIRCLE
  5
E
330
B
100
AcDbEntity
  8
-SCHRAFFUR
100
AcDbCircle
 10
-0.0000000000241567
 20
-97.34816104632308
 30
0.0
 40
24.32879797461047
  0
CIRCLE
  5
10
330
B
100
AcDbEntity
  8
-PROFILAUSSENKANTET
100
AcDbCircle
 10
-0.0000000000241567
 20
-97.34816104632308
 30
0.0
 40
26.0
  0
LWPOLYLINE
  5
11
330
B
100
AcDbEntity
  8
-VERGLASUNG
100
AcDbPolyline
 90
        4
 70
     0
 43
0.0
 10
-72.97749106091817
 20
-17.34816104632338
 10
77.99999999997573
 20
-17.34816104632327
 10
79.99999999997573
 20
-19.34816104632327
 10
79.99999999997584
 20
-149.3273672017092
  0
LINE
  5
13
330
B
100
AcDbEntity
  8
-SYSTEM
100
AcDbLine
 10
29.99656340967727
 20
-97.34816104632294
 30
0.0
 11
-29.99656340972557
 21
-97.34816104632322
 31
0.0
  0
LINE
  5
16
330
B
100
AcDbEntity
  8
-SYSTEM
100
AcDbLine
 10
-0.0000000000242988
 20
-67.35159763662164
 30
0.0
 11
-0.0000000000240146
 21
-127.3447244560244
 31
0.0
  0
CIRCLE
  5
17
330
B
100
AcDbEntity
  8
-PROFILAUSSENKANTET
100
AcDbCircle
 10
-3.500000000024128
 20
-103.4103388728141
 30
0.0
 40
1.75
  0
CIRCLE
  5
18
330
B
100
AcDbEntity
  8
-PROFILAUSSENKANTET
100
AcDbCircle
 10
-3.50000000002417
 20
-91.28598321983199
 30
0.0
 40
1.75
  0
MTEXT
  5
19
330
B
100
AcDbEntity
  8
-TEXT2
100
AcDbMText
 10
49.17713572762614
 20
-5.128944079777738
 30
0.0
 40
3.5
 41
17.9978
 71
     1
 72
     5
  1
{\fArial|b0|i0|c0|p34;Glaskante}
 73
     1
 44
1.0
1001
ACAD
1000
MTEXTBEGIN
1070
    73
1070
     1
1070
    44
1040
1.0
1070
    74
1070
     0
1000
MTEXTEND
  0
CIRCLE
  5
1D
330
B
100
AcDbEntity
  8
-PROFILAUSSENKANTET
100
AcDbCircle
 10
6.999999999975843
 20
-97.34816104632303
 30
0.0
 40
1.75
  0
LWPOLYLINE
  5
1E
330
B
100
AcDbEntity
  8
-TEXT2
100
AcDbPolyline
 90
        3
 70
     1
 43
0.0
 10
57.78044804003911
 20
-17.34816104632335
 10
61.91438540270016
 20
-10.18797149888712
 10
53.64651067737807
 20
-10.18797149888712
  0
ENDBLK
  5
1F
330
B
100
AcDbEntity
  8
0
100
AcDbBlockEnd
  0
BLOCK
  5
39
330
38
100
AcDbEntity
  8
0
100
AcDbBlockBegin
  2
*D3
 70
     1
 10
0.0
 20
0.0
 30
0.0
  3
*D3
  1

  0
LINE
  5
3A
330
38
100
AcDbEntity
  8
-TEXT3
370
    -2
100
AcDbLine
 10
113.9563844889405
 20
149.6622133311877
 30
0.0
 11
97.76889535293465
 21
149.6622133311877
 31
0.0
  0
LINE
  5
3B
330
38
100
AcDbEntity
  8
-TEXT3
370
    -2
100
AcDbLine
 10
113.9563844889405
 20
138.6622133311877
 30
0.0
 11
97.76889535293465
 21
138.6622133311877
 31
0.0
  0
LINE
  5
3C
330
38
100
AcDbEntity
  8
-TEXT3
370
    -2
100
AcDbLine
 10
98.76889535293464
 20
147.6622133311877
 30
0.0
 11
98.76889535293464
 21
140.6622133311877
 31
0.0
  0
SOLID
  5
3D
330
38
100
AcDbEntity
  8
-TEXT3
100
AcDbTrace
 10
98.43556201960133
 20
147.6622133311877
 30
0.0
 11
99.10222868626798
 21
147.6622133311877
 31
0.0
 12
98.76889535293464
 22
149.6622133311877
 32
0.0
 13
98.76889535293464
 23
149.6622133311877
 33
0.0
  0
SOLID
  5
3E
330
38
100
AcDbEntity
  8
-TEXT3
100
AcDbTrace
 10
98.43556201960133
 20
140.6622133311877
 30
0.0
 11
99.10222868626798
 21
140.6622133311877
 31
0.0
 12
98.76889535293464
 22
138.6622133311877
 32
0.0
 13
98.76889535293464
 23
138.6622133311877
 33
0.0
  0
MTEXT
  5
3F
330
38
100
AcDbEntity
  8
-TEXT3
100
AcDbMText
 10
96.01889535293464
 20
144.1622133311877
 30
0.0
 40
3.5
 41
0.0
 71
     5
 72
     1
  1
\A1;11
 11
0.0000000000000001
 21
1.0
 31
0.0
 73
     1
 44
1.0
1001
ACAD
1000
MTEXTBEGIN
1070
    73
1070
     1
1070
    44
1040
1.0
1070
    74
1070
     0
1000
MTEXTEND
  0
POINT
  5
40
330
38
100
AcDbEntity
  8
DEFPOINTS
 62
     0
100
AcDbPoint
 10
115.9563844889405
 20
149.6622133311877
 30
0.0
  0
POINT
  5
42
330
38
100
AcDbEntity
  8
DEFPOINTS
 62
     0
100
AcDbPoint
 10
115.9563844889405
 20
138.6622133311877
 30
0.0
  0
POINT
  5
43
330
38
100
AcDbEntity
  8
DEFPOINTS
 62
     0
100
AcDbPoint
 10
98.76889535293464
 20
138.6622133311877
 30
0.0
  0
ENDBLK
  5
44
330
38
100
AcDbEntity
  8
0
100
AcDbBlockEnd
  0
BLOCK
  5
48
330
47
100
AcDbEntity
  8
0
100
AcDbBlockBegin
  2
*D4
 70
     1
 10
0.0
 20
0.0
 30
0.0
  3
*D4
  1

  0
LINE
  5
49
330
47
100
AcDbEntity
  8
-TEXT3
370
    -2
100
AcDbLine
 10
110.4563844889405
 20
146.1622133311877
 30
0.0
 11
110.4563844889405
 21
164.0295019283913
 31
0.0
  0
LINE
  5
4A
330
47
100
AcDbEntity
  8
-TEXT3
370
    -2
100
AcDbLine
 10
126.9563844889405
 20
146.1622133311877
 30
0.0
 11
126.9563844889405
 21
164.0295019283913
 31
0.0
  0
LINE
  5
4B
330
47
100
AcDbEntity
  8
-TEXT3
370
    -2
100
AcDbLine
 10
106.9563844889405
 20
162.5295019283913
 30
0.0
 11
103.4563844889405
 21
162.5295019283913
 31
0.0
  0
LINE
  5
4C
330
47
100
AcDbEntity
  8
-TEXT3
370
    -2
100
AcDbLine
 10
130.4563844889405
 20
162.5295019283913
 30
0.0
 11
133.9563844889405
 21
162.5295019283913
 31
0.0
  0
SOLID
  5
4D
330
47
100
AcDbEntity
  8
-TEXT3
100
AcDbTrace
 10
106.9563844889405
 20
163.1128352617247
 30
0.0
 11
106.9563844889405
 21
161.946168595058
 31
0.0
 12
110.4563844889405
 22
162.5295019283913
 32
0.0
 13
110.4563844889405
 23
162.5295019283913
 33
0.0
  0
SOLID
  5
4E
330
47
100
AcDbEntity
  8
-TEXT3
100
AcDbTrace
 10
130.4563844889405
 20
163.1128352617247
 30
0.0
 11
130.4563844889405
 21
161.946168595058
 31
0.0
 12
126.9563844889405
 22
162.5295019283913
 32
0.0
 13
126.9563844889405
 23
162.5295019283913
 33
0.0
  0
MTEXT
  5
4F
330
47
100
AcDbEntity
  8
-TEXT3
100
AcDbMText
 10
118.7063844889405
 20
166.1552667142513
 30
0.0
 40
5.0
 41
0.0
 71
     5
 72
     1
  1
\A1;16.5
 73
     1
 44
1.0
1001
ACAD
1000
MTEXTBEGIN
1070
    73
1070
     1
1070
    44
1040
1.0
1070
    74
1070
     0
1000
MTEXTEND
  0
POINT
  5
50
330
47
100
AcDbEntity
  8
DEFPOINTS
 62
     0
100
AcDbPoint
 10
110.4563844889405
 20
144.1622133311877
 30
0.0
  0
POINT
  5
51
330
47
100
AcDbEntity
  8
DEFPOINTS
 62
     0
100
AcDbPoint
 10
126.9563844889405
 20
144.1622133311877
 30
0.0
  0
POINT
  5
52
330
47
100
AcDbEntity
  8
DEFPOINTS
 62
     0
100
AcDbPoint
 10
126.9563844889405
 20
162.5295019283913
 30
0.0
  0
ENDBLK
  5
53
330
47
100
AcDbEntity
  8
0
100
AcDbBlockEnd
  0
BLOCK
  5
59
330
58
100
AcDbEntity
  8
0
100
AcDbBlockBegin
  2
*D5
 70
     1
 10
0.0
 20
0.0
 30
0.0
  3
*D5
  1

  0
LINE
  5
5A
330
58
100
AcDbEntity
  8
-TEXT3
370
    -2
100
AcDbLine
 10
92.7063844889408
 20
254.6035231796502
 30
0.0
 11
92.7063844889408
 21
269.7602637136462
 31
0.0
  0
LINE
  5
5B
330
58
100
AcDbEntity
  8
-TEXT3
370
    -2
100
AcDbLine
 10
144.7063844889433
 20
254.6035231796501
 30
0.0
 11
144.7063844889433
 21
269.7602637136462
 31
0.0
  0
LINE
  5
5C
330
58
100
AcDbEntity
  8
-TEXT3
370
    -2
100
AcDbLine
 10
96.20638448894082
 20
268.2602637136461
 30
0.0
 11
141.2063844889433
 21
268.2602637136461
 31
0.0
  0
SOLID
  5
5D
330
58
100
AcDbEntity
  8
-TEXT3
100
AcDbTrace
 10
96.20638448894082
 20
268.8435970469795
 30
0.0
 11
96.20638448894082
 21
267.6769303803129
 31
0.0
 12
92.7063844889408
 22
268.2602637136461
 32
0.0
 13
92.7063844889408
 23
268.2602637136461
 33
0.0
  0
SOLID
  5
5E
330
58
100
AcDbEntity
  8
-TEXT3
100
AcDbTrace
 10
141.2063844889433
 20
268.8435970469795
 30
0.0
 11
141.2063844889433
 21
267.6769303803129
 31
0.0
 12
144.7063844889433
 22
268.2602637136461
 32
0.0
 13
144.7063844889433
 23
268.2602637136461
 33
0.0
  0
MTEXT
  5
5F
330
58
100
AcDbEntity
  8
-TEXT3
100
AcDbMText
 10
118.7063844889421
 20
272.0423847197645
 30
0.0
 40
5.0
 41
0.0
 71
     5
 72
     1
  1
\A1;%%c52
 73
     1
 44
1.0
1001
ACAD
1000
MTEXTBEGIN
1070
    73
1070
     1
1070
    44
1040
1.0
1070
    74
1070
     0
1000
MTEXTEND
  0
POINT
  5
60
330
58
100
AcDbEntity
  8
DEFPOINTS
 62
     0
100
AcDbPoint
 10
92.7063844889408
 20
252.6035231796502
 30
0.0
  0
POINT
  5
61
330
58
100
AcDbEntity
  8
DEFPOINTS
 62
     0
100
AcDbPoint
 10
144.7063844889433
 20
252.6035231796501
 30
0.0
  0
POINT
  5
62
330
58
100
AcDbEntity
  8
DEFPOINTS
 62
     0
100
AcDbPoint
 10
144.7063844889433
 20
268.2602637136461
 30
0.0
  0
ENDBLK
  5
63
330
58
100
AcDbEntity
  8
0
100
AcDbBlockEnd
  0
BLOCK
  5
74
330
73
100
AcDbEntity
  8
0
100
AcDbBlockBegin
  2
*D6
 70
     1
 10
0.0
 20
0.0
 30
0.0
  3
*D6
  1

  0
LINE
  5
75
330
73
100
AcDbEntity
  8
-TEXT3
370
    -2
100
AcDbLine
 10
67.00204700099388
 20
245.7977773564169
 30
0.0
 11
62.41072197688832
 21
245.7977773564169
 31
0.0
  0
LINE
  5
76
330
73
100
AcDbEntity
  8
-TEXT3
370
    -2
100
AcDbLine
 10
67.00204700099388
 20
233.7977773564162
 30
0.0
 11
62.41072197688831
 21
233.7977773564162
 31
0.0
  0
LINE
  5
77
330
73
100
AcDbEntity
  8
-TEXT3
370
    -2
100
AcDbLine
 10
63.91072197688831
 20
242.2977773564169
 30
0.0
 11
63.91072197688831
 21
237.2977773564162
 31
0.0
  0
SOLID
  5
78
330
73
100
AcDbEntity
  8
-TEXT3
100
AcDbTrace
 10
63.32738864355498
 20
242.2977773564169
 30
0.0
 11
64.49405531022165
 21
242.2977773564169
 31
0.0
 12
63.91072197688831
 22
245.7977773564169
 32
0.0
 13
63.91072197688831
 23
245.7977773564169
 33
0.0
  0
SOLID
  5
79
330
73
100
AcDbEntity
  8
-TEXT3
100
AcDbTrace
 10
63.32738864355498
 20
237.2977773564162
 30
0.0
 11
64.49405531022165
 21
237.2977773564162
 31
0.0
 12
63.91072197688831
 22
233.7977773564162
 32
0.0
 13
63.91072197688831
 23
233.7977773564162
 33
0.0
  0
MTEXT
  5
7A
330
73
100
AcDbEntity
  8
-TEXT3
100
AcDbMText
 10
60.28495719102831
 20
239.7977773564166
 30
0.0
 40
5.0
 41
0.0
 71
     5
 72
     1
  1
\A1;G
 11
0.0000000000000001
 21
1.0
 31
0.0
 73
     1
 44
1.0
1001
ACAD
1000
MTEXTBEGIN
1070
    73
1070
     1
1070
    44
1040
1.0
1070
    74
1070
     0
1000
MTEXTEND
  0
POINT
  5
7B
330
73
100
AcDbEntity
  8
DEFPOINTS
 62
     0
100
AcDbPoint
 10
69.00204700099388
 20
245.7977773564169
 30
0.0
  0
POINT
  5
7C
330
73
100
AcDbEntity
  8
DEFPOINTS
 62
     0
100
AcDbPoint
 10
69.00204700099388
 20
233.7977773564162
 30
0.0
  0
POINT
  5
7D
330
73
100
AcDbEntity
  8
DEFPOINTS
 62
     0
100
AcDbPoint
 10
63.91072197688831
 20
233.7977773564162
 30
0.0
  0
ENDBLK
  5
7E
330
73
100
AcDbEntity
  8
0
100
AcDbBlockEnd
  0
BLOCK
  5
81
330
80
100
AcDbEntity
  8
0
100
AcDbBlockBegin
  2
*D7
 70
     1
 10
0.0
 20
0.0
 30
0.0
  3
*D7
  1

  0
LINE
  5
82
330
80
100
AcDbEntity
  8
-TEXT3
370
    -2
100
AcDbLine
 10
67.00204700099388
 20
233.7977773564162
 30
0.0
 11
62.41072197688835
 21
233.7977773564162
 31
0.0
  0
LINE
  5
83
330
80
100
AcDbEntity
  8
-TEXT3
370
    -2
100
AcDbLine
 10
90.70638448894086
 20
230.7977773564161
 30
0.0
 11
62.41072197688835
 21
230.7977773564161
 31
0.0
  0
LINE
  5
84
330
80
100
AcDbEntity
  8
-TEXT3
370
    -2
100
AcDbLine
 10
63.91072197688835
 20
237.2977773564162
 30
0.0
 11
63.91072197688835
 21
240.7977773564162
 31
0.0
  0
LINE
  5
85
330
80
100
AcDbEntity
  8
-TEXT3
370
    -2
100
AcDbLine
 10
63.91072197688835
 20
227.2977773564161
 30
0.0
 11
63.91072197688835
 21
223.7977773564161
 31
0.0
  0
SOLID
  5
86
330
80
100
AcDbEntity
  8
-TEXT3
100
AcDbTrace
 10
63.32738864355501
 20
237.2977773564162
 30
0.0
 11
64.49405531022168
 21
237.2977773564162
 31
0.0
 12
63.91072197688835
 22
233.7977773564162
 32
0.0
 13
63.91072197688835
 23
233.7977773564162
 33
0.0
  0
SOLID
  5
87
330
80
100
AcDbEntity
  8
-TEXT3
100
AcDbTrace
 10
63.32738864355501
 20
227.2977773564161
 30
0.0
 11
64.49405531022168
 21
227.2977773564161
 31
0.0
 12
63.91072197688835
 22
230.7977773564161
 32
0.0
 13
63.91072197688835
 23
230.7977773564161
 33
0.0
  0
MTEXT
  5
88
330
80
100
AcDbEntity
  8
-TEXT3
100
AcDbMText
 10
60.28495719102835
 20
232.2977773564161
 30
0.0
 40
5.0
 41
0.0
 71
     5
 72
     1
  1
\A1;3
 11
0.0000000000000001
 21
1.0
 31
0.0
 73
     1
 44
1.0
1001
ACAD
1000
MTEXTBEGIN
1070
    73
1070
     1
1070
    44
1040
1.0
1070
    74
1070
     0
1000
MTEXTEND
  0
POINT
  5
89
330
80
100
AcDbEntity
  8
DEFPOINTS
 62
     0
100
AcDbPoint
 10
69.00204700099388
 20
233.7977773564162
 30
0.0
  0
POINT
  5
8A
330
80
100
AcDbEntity
  8
DEFPOINTS
 62
     0
100
AcDbPoint
 10
92.70638448894088
 20
230.7977773564161
 30
0.0
  0
POINT
  5
8B
330
80
100
AcDbEntity
  8
DEFPOINTS
 62
     0
100
AcDbPoint
 10
63.91072197688835
 20
230.7977773564161
 30
0.0
  0
ENDBLK
  5
8C
330
80
100
AcDbEntity
  8
0
100
AcDbBlockEnd
  0
BLOCK
  5
8F
330
8E
100
AcDbEntity
  8
0
100
AcDbBlockBegin
  2
*D8
 70
     1
 10
0.0
 20
0.0
 30
0.0
  3
*D8
  1

  0
LINE
  5
90
330
8E
100
AcDbEntity
  8
-TEXT3
370
    -2
100
AcDbLine
 10
89.41072197688809
 20
230.7977773564161
 30
0.0
 11
62.4107219768882
 21
230.7977773564161
 31
0.0
  0
LINE
  5
91
330
8E
100
AcDbEntity
  8
-TEXT3
370
    -2
100
AcDbLine
 10
90.70638448894049
 20
205.797777356416
 30
0.0
 11
62.41072197688819
 21
205.797777356416
 31
0.0
  0
LINE
  5
92
330
8E
100
AcDbEntity
  8
-TEXT3
370
    -2
100
AcDbLine
 10
63.91072197688821
 20
227.2977773564161
 30
0.0
 11
63.91072197688821
 21
209.297777356416
 31
0.0
  0
SOLID
  5
93
330
8E
100
AcDbEntity
  8
-TEXT3
100
AcDbTrace
 10
63.32738864355487
 20
227.2977773564161
 30
0.0
 11
64.49405531022154
 21
227.2977773564161
 31
0.0
 12
63.91072197688821
 22
230.7977773564161
 32
0.0
 13
63.91072197688821
 23
230.7977773564161
 33
0.0
  0
SOLID
  5
94
330
8E
100
AcDbEntity
  8
-TEXT3
100
AcDbTrace
 10
63.32738864355487
 20
209.297777356416
 30
0.0
 11
64.49405531022152
 21
209.297777356416
 31
0.0
 12
63.9107219768882
 22
205.797777356416
 32
0.0
 13
63.9107219768882
 23
205.797777356416
 33
0.0
  0
MTEXT
  5
95
330
8E
100
AcDbEntity
  8
-TEXT3
100
AcDbMText
 10
60.28495719102821
 20
218.2977773564161
 30
0.0
 40
5.0
 41
0.0
 71
     5
 72
     1
  1
\A1;25
 11
0.0000000000000001
 21
1.0
 31
0.0
 73
     1
 44
1.0
1001
ACAD
1000
MTEXTBEGIN
1070
    73
1070
     1
1070
    44
1040
1.0
1070
    74
1070
     0
1000
MTEXTEND
  0
POINT
  5
96
330
8E
100
AcDbEntity
  8
DEFPOINTS
 62
     0
100
AcDbPoint
 10
91.41072197688808
 20
230.7977773564161
 30
0.0
  0
POINT
  5
97
330
8E
100
AcDbEntity
  8
DEFPOINTS
 62
     0
100
AcDbPoint
 10
92.7063844889405
 20
205.797777356416
 30
0.0
  0
POINT
  5
98
330
8E
100
AcDbEntity
  8
DEFPOINTS
 62
     0
100
AcDbPoint
 10
63.9107219768882
 20
205.797777356416
 30
0.0
  0
ENDBLK
  5
99
330
8E
100
AcDbEntity
  8
0
100
AcDbBlockEnd
  0
BLOCK
  5
A2
330
A1
100
AcDbEntity
  8
0
100
AcDbBlockBegin
  2
*D9
 70
     1
 10
0.0
 20
0.0
 30
0.0
  3
*D9
  1

  0
LINE
  5
A3
330
A1
100
AcDbEntity
  8
-TEXT3
370
    -2
100
AcDbLine
 10
67.00204700099388
 20
245.7977773564169
 30
0.0
 11
62.41072197688835
 21
245.7977773564169
 31
0.0
  0
LINE
  5
A4
330
A1
100
AcDbEntity
  8
-TEXT3
370
    -2
100
AcDbLine
 10
90.7063844889404
 20
248.7977773564168
 30
0.0
 11
62.41072197688835
 21
248.7977773564168
 31
0.0
  0
LINE
  5
A5
330
A1
100
AcDbEntity
  8
-TEXT3
370
    -2
100
AcDbLine
 10
63.91072197688835
 20
242.2977773564169
 30
0.0
 11
63.91072197688835
 21
238.7977773564169
 31
0.0
  0
LINE
  5
A6
330
A1
100
AcDbEntity
  8
-TEXT3
370
    -2
100
AcDbLine
 10
63.91072197688835
 20
252.2977773564168
 30
0.0
 11
63.91072197688835
 21
255.7977773564168
 31
0.0
  0
SOLID
  5
A7
330
A1
100
AcDbEntity
  8
-TEXT3
100
AcDbTrace
 10
63.32738864355501
 20
242.2977773564169
 30
0.0
 11
64.49405531022168
 21
242.2977773564169
 31
0.0
 12
63.91072197688835
 22
245.7977773564169
 32
0.0
 13
63.91072197688835
 23
245.7977773564169
 33
0.0
  0
INSERT
  5
A8
330
A1
100
AcDbEntity
  8
-TEXT3
370
    -2
100
AcDbBlockReference
  2
_DOTBLANK
 10
63.91072197688835
 20
248.7977773564168
 30
0.0
 41
3.5
 42
3.5
 43
3.5
 50
270.0
  0
MTEXT
  5
A9
330
A1
100
AcDbEntity
  8
-TEXT3
100
AcDbMText
 10
60.81011014820035
 20
247.2977773564168
 30
0.0
 40
4.0
 41
0.0
 71
     5
 72
     1
  1
\A1;3
 11
0.0000000000000001
 21
1.0
 31
0.0
 73
     1
 44
1.0
1001
ACAD
1000
MTEXTBEGIN
1070
    73
1070
     1
1070
    44
1040
1.0
1070
    74
1070
     0
1000
MTEXTEND
  0
POINT
  5
AA
330
A1
100
AcDbEntity
  8
DEFPOINTS
 62
     0
100
AcDbPoint
 10
69.00204700099388
 20
245.7977773564169
 30
0.0
  0
POINT
  5
AB
330
A1
100
AcDbEntity
  8
DEFPOINTS
 62
     0
100
AcDbPoint
 10
92.7063844889404
 20
248.7977773564168
 30
0.0
  0
POINT
  5
AC
330
A1
100
AcDbEntity
  8
DEFPOINTS
 62
     0
100
AcDbPoint
 10
63.91072197688835
 20
248.7977773564168
 30
0.0
  0
ENDBLK
  5
AD
330
A1
100
AcDbEntity
  8
0
100
AcDbBlockEnd
  0
BLOCK
  5
B0
330
AF
100
AcDbEntity
  8
0
100
AcDbBlockBegin
  2
*D10
 70
     1
 10
0.0
 20
0.0
 30
0.0
  3
*D10
  1

  0
LINE
  5
B1
330
AF
100
AcDbEntity
  8
-TEXT3
370
    -2
100
AcDbLine
 10
107.6896468346411
 20
256.7977773564166
 30
0.0
 11
62.41072197688831
 21
256.7977773564166
 31
0.0
  0
LINE
  5
B2
330
AF
100
AcDbEntity
  8
-TEXT3
370
    -2
100
AcDbLine
 10
90.7063844889404
 20
248.7977773564168
 30
0.0
 11
62.41072197688831
 21
248.7977773564168
 31
0.0
  0
LINE
  5
B3
330
AF
100
AcDbEntity
  8
-TEXT3
370
    -2
100
AcDbLine
 10
63.91072197688831
 20
260.2977773564167
 30
0.0
 11
63.91072197688831
 21
263.7977773564166
 31
0.0
  0
LINE
  5
B4
330
AF
100
AcDbEntity
  8
-TEXT3
370
    -2
100
AcDbLine
 10
63.91072197688831
 20
245.2977773564168
 30
0.0
 11
63.91072197688831
 21
241.7977773564168
 31
0.0
  0
SOLID
  5
B5
330
AF
100
AcDbEntity
  8
-TEXT3
100
AcDbTrace
 10
63.32738864355498
 20
260.2977773564167
 30
0.0
 11
64.49405531022164
 21
260.2977773564167
 31
0.0
 12
63.91072197688831
 22
256.7977773564166
 32
0.0
 13
63.91072197688831
 23
256.7977773564166
 33
0.0
  0
INSERT
  5
B6
330
AF
100
AcDbEntity
  8
-TEXT3
370
    -2
100
AcDbBlockReference
  2
_DOTBLANK
 10
63.91072197688831
 20
248.7977773564168
 30
0.0
 41
3.5
 42
3.5
 43
3.5
 50
90.0
  0
MTEXT
  5
B7
330
AF
100
AcDbEntity
  8
-TEXT3
100
AcDbMText
 10
60.8101101482003
 20
252.7977773564167
 30
0.0
 40
4.0
 41
0.0
 71
     5
 72
     1
  1
\A1;8
 11
0.0000000000000001
 21
1.0
 31
0.0
 73
     1
 44
1.0
1001
ACAD
1000
MTEXTBEGIN
1070
    73
1070
     1
1070
    44
1040
1.0
1070
    74
1070
     0
1000
MTEXTEND
  0
POINT
  5
B8
330
AF
100
AcDbEntity
  8
DEFPOINTS
 62
     0
100
AcDbPoint
 10
109.6896468346411
 20
256.7977773564166
 30
0.0
  0
POINT
  5
B9
330
AF
100
AcDbEntity
  8
DEFPOINTS
 62
     0
100
AcDbPoint
 10
92.7063844889404
 20
248.7977773564168
 30
0.0
  0
POINT
  5
BA
330
AF
100
AcDbEntity
  8
DEFPOINTS
 62
     0
100
AcDbPoint
 10
63.91072197688831
 20
248.7977773564168
 30
0.0
  0
ENDBLK
  5
BB
330
AF
100
AcDbEntity
  8
0
100
AcDbBlockEnd
  0
ENDSEC
  0
SECTION
  2
ENTITIES
  0
INSERT
  5
9
330
2
100
AcDbEntity
  8
-PROFILAUSSENKANTET
100
AcDbBlockReference
  2
ANSICHT52
 10
118.7063844889406
 20
122.8095212939941
 30
0.0
  0
LWPOLYLINE
  5
20
330
2
100
AcDbEntity
  8
-NORMTEIL_VERDECKT
100
AcDbPolyline
 90
        6
 70
     0
 43
0.0
 10
106.8892054238308
 20
245.7977773564166
 10
106.8892054238308
 20
230.6097773564166
 10
107.7012054238308
 20
229.7977773564166
 10
129.71156355405
 20
229.7977773564166
 10
130.52356355405
 20
230.6097773564165
 10
130.52356355405
 20
245.7977773564166
  0
LWPOLYLINE
  5
23
330
2
100
AcDbEntity
  8
-NORMTEIL_VERDECKT
100
AcDbPolyline
 90
        4
 70
     0
 43
0.0
 10
129.71156355405
 20
244.7977773564159
 10
129.71156355405
 20
210.797777356416
 10
107.7012054238309
 20
210.797777356416
 10
107.7012054238306
 20
244.7977773564159
  0
LINE
  5
24
330
2
100
AcDbEntity
  8
-NORMTEIL_VERDECKT
100
AcDbLine
 10
107.7012054238306
 20
243.9857773564161
 30
0.0
 11
129.7115635540504
 21
243.9857773564162
 31
0.0
  0
LINE
  5
25
330
2
100
AcDbEntity
  8
-NORMTEIL_VERDECKT
100
AcDbLine
 10
106.8892054238308
 20
245.7977773564166
 30
0.0
 11
130.52356355405
 21
245.7977773564166
 31
0.0
  0
LINE
  5
26
330
2
100
AcDbEntity
  8
-NORMTEIL_VERDECKT
100
AcDbLine
 10
106.8892054238308
 20
230.6097773564166
 30
0.0
 11
130.5235635540501
 21
230.6097773564165
 31
0.0
  0
LINE
  5
27
330
2
100
AcDbEntity
  8
-NORMTEIL_VERDECKT
100
AcDbLine
 10
123.7063844889405
 20
208.797777356416
 30
0.0
 11
113.7063844889405
 21
208.797777356416
 31
0.0
  0
LWPOLYLINE
  5
28
330
2
100
AcDbEntity
  8
-NORMTEIL_VERDECKT
100
AcDbPolyline
 90
        6
 70
     1
 43
0.0
 10
110.7063844889405
 20
210.797777356416
 10
126.7063844889405
 20
210.797777356416
 10
126.7063844889405
 20
216.2977773564159
 42
0.4142135623730951
 10
125.7063844889405
 20
217.297777356416
 10
111.7063844889405
 20
217.297777356416
 42
0.4142135623730951
 10
110.7063844889405
 20
216.2977773564159
  0
LWPOLYLINE
  5
29
330
2
100
AcDbEntity
  8
-NORMTEIL_VERDECKT
100
AcDbPolyline
 90
        4
 70
     0
 43
0.0
 10
114.0875823354235
 20
217.297777356416
 10
114.0875823354235
 20
212.2977773564159
 10
123.3251866424575
 20
212.2977773564159
 10
123.3251866424575
 20
217.297777356416
  0
LINE
  5
2A
330
2
100
AcDbEntity
  8
-SCHRAFFUR
100
AcDbLine
 10
113.7063844889405
 20
186.871777356416
 30
0.0
 11
123.7063844889405
 21
186.871777356416
 31
0.0
  0
LWPOLYLINE
  5
2B
330
2
100
AcDbEntity
  8
-NORMTEIL
100
AcDbPolyline
 90
        6
 70
     0
 43
0.0
 10
113.7063844889405
 20
205.797777356416
 10
113.7063844889405
 20
186.871777356416
 10
114.7803844889405
 20
185.797777356416
 10
122.6323844889405
 20
185.7977773564159
 10
123.7063844889405
 20
186.871777356416
 10
123.7063844889405
 20
205.797777356416
  0
LINE
  5
2D
330
2
100
AcDbEntity
  8
-NORMTEIL_VERDECKT
100
AcDbLine
 10
101.6263844889406
 20
233.7977773564161
 30
0.0
 11
135.7863844889404
 21
233.7977773564161
 31
0.0
  0
LINE
  5
2E
330
2
100
AcDbEntity
  8
-NORMTEIL_VERDECKT
100
AcDbLine
 10
101.7563844889404
 20
246.7977773564159
 30
0.0
 11
135.6563844889405
 21
246.7977773564159
 31
0.0
  0
LINE
  5
2F
330
2
100
AcDbEntity
  8
-NORMTEIL_VERDECKT
100
AcDbLine
 10
104.7768161785587
 20
244.7977773564159
 30
0.0
 11
132.6359527993221
 21
244.7977773564159
 31
0.0
  0
LINE
  5
30
330
2
100
AcDbEntity
  8
-NORMTEIL_VERDECKT
100
AcDbLine
 10
101.6263844889406
 20
233.7977773564161
 30
0.0
 11
135.7863844889404
 21
233.7977773564161
 31
0.0
  0
ARC
  5
31
330
2
100
AcDbEntity
  8
-SCHRAFFUR
100
AcDbCircle
 10
118.7750833947889
 20
144.3824744104158
 30
0.0
 40
11.81717906510945
100
AcDbArc
 50
197.0745748496833
 51
110.5409397844105
  0
CIRCLE
  5
32
330
2
100
AcDbEntity
  8
-PROFILAUSSENKANTET
100
AcDbCircle
 10
118.7063844889405
 20
144.1622133311877
 30
0.0
 40
11.188
  0
LWPOLYLINE
  5
33
330
2
100
AcDbEntity
  8
-PROFILAUSSENKANTET
100
AcDbPolyline
 90
        4
 70
     1
 43
0.0
 10
121.4563844889405
 20
149.6622133311877
 10
115.9563844889405
 20
149.6622133311877
 42
1.0
 10
115.9563844889405
 20
138.6622133311877
 10
121.4563844889405
 20
138.6622133311877
 42
1.0
  0
CIRCLE
  5
34
330
2
100
AcDbEntity
  8
-PROFILAUSSENKANTET
100
AcDbCircle
 10
118.7063844889405
 20
144.1622133311877
 30
0.0
 40
14.0
  0
DIMENSION
  5
35
330
2
100
AcDbEntity
  8
-TEXT3
100
AcDbDimension
  2
*D3
 10
98.76889535293464
 20
138.6622133311877
 30
0.0
 11
98.76889535293464
 21
144.1622133311877
 31
0.0
 70
   128
 71
     5
 42
11.0
  3
1-1
100
AcDbAlignedDimension
 13
115.9563844889405
 23
149.6622133311877
 33
0.0
 14
115.9563844889405
 24
138.6622133311877
 34
0.0
 50
90.0
100
AcDbRotatedDimension
1001
ACAD
1000
DSTYLE
1002
{
1070
   178
1070
   256
1070
   177
1070
   256
1070
   176
1070
   256
1002
}
  0
DIMENSION
  5
45
330
2
100
AcDbEntity
  8
-TEXT3
100
AcDbDimension
  2
*D4
 10
126.9563844889405
 20
162.5295019283913
 30
0.0
 11
118.7063844889405
 21
162.5295019283913
 31
0.0
 70
   128
 71
     5
 42
16.5
  3
1-1PRO
100
AcDbAlignedDimension
 13
110.4563844889405
 23
144.1622133311877
 33
0.0
 14
126.9563844889405
 24
144.1622133311877
 34
0.0
100
AcDbRotatedDimension
  0
CIRCLE
  5
54
330
2
100
AcDbEntity
  8
-PROFILAUSSENKANTET
100
AcDbCircle
 10
118.7063844889405
 20
144.1622133311877
 30
0.0
 40
26.0
  0
LWPOLYLINE
  5
55
330
2
100
AcDbEntity
  8
-NORMTEIL_VERDECKT
100
AcDbPolyline
 90
        5
 70
     0
 43
0.0
 10
113.7063844889399
 20
256.7977773564158
 10
113.7063844889399
 20
252.7977773564157
 10
115.2063844889399
 20
251.7977773564157
 10
116.7063844889399
 20
252.7977773564157
 10
116.7063844889399
 20
256.7977773564166
  0
LINE
  5
56
330
2
100
AcDbEntity
  8
-NORMTEIL_VERDECKT
100
AcDbLine
 10
113.7063844889399
 20
252.7977773564157
 30
0.0
 11
116.7063844889399
 21
252.7977773564157
 31
0.0
  0
DIMENSION
  5
57
330
2
100
AcDbEntity
  8
-TEXT3
100
AcDbDimension
  2
*D5
 10
144.7063844889433
 20
268.2602637136461
 30
0.0
 11
118.7063844889421
 21
268.2602637136461
 31
0.0
 70
   128
  1
%%c<>
 71
     5
 42
52.00000000000255
  3
1-1PRO
100
AcDbAlignedDimension
 13
92.7063844889408
 23
252.6035231796502
 33
0.0
 14
144.7063844889433
 24
252.6035231796501
 34
0.0
100
AcDbRotatedDimension
1001
ACAD
1000
DSTYLE
1002
{
1002
}
  0
LWPOLYLINE
  5
64
102
{ACAD_REACTORS
330
6D
102
}
330
2
100
AcDbEntity
  8
-DICHTUNG
100
AcDbPolyline
 90
        4
 70
     1
 43
0.0
 10
93.20638448894111
 20
230.7977773564161
 10
144.2063844889411
 20
230.797777356416
 10
144.2063844889411
 20
233.797777356416
 10
93.20638448894111
 20
233.7977773564161
  0
LINE
  5
66
330
2
100
AcDbEntity
  8
-VERGLASUNG
100
AcDbLine
 10
69.00204700099388
 20
245.7977773564169
 30
0.0
 11
168.4107219768903
 21
245.7977773564164
 31
0.0
  0
LINE
  5
67
330
2
100
AcDbEntity
  8
-VERGLASUNG
100
AcDbLine
 10
168.4107219768903
 20
233.7977773564158
 30
0.0
 11
69.00204700099388
 21
233.7977773564162
 31
0.0
  0
LWPOLYLINE
  5
68
330
2
100
AcDbEntity
  8
-PROFILAUSSENKANTET
100
AcDbPolyline
 90
       11
 70
     0
 43
0.0
 10
92.7063844889404
 20
248.7977773564168
 10
144.7063844889404
 20
248.7977773564166
 10
144.7063844889404
 20
252.6035231796492
 42
0.375901963977188
 10
142.9707119291224
 20
254.5859789810147
 10
129.6047879075513
 20
256.7539168598298
 42
0.033150018187446
 10
128.9439693070963
 20
256.7977773564166
 10
109.6896468346411
 20
256.7977773564166
 42
0.0413106451481675
 10
108.8676518981145
 20
256.7297469755774
 10
94.37758651432984
 20
254.576311027315
 42
0.3666293647015965
 10
92.7063844889404
 20
252.6035231796508
 10
92.7063844889404
 20
248.7977773564168
  0
LWPOLYLINE
  5
69
102
{ACAD_REACTORS
330
6C
102
}
330
2
100
AcDbEntity
  8
-DICHTUNG
100
AcDbPolyline
 90
        4
 70
     1
 43
0.0
 10
93.2063844889404
 20
245.7977773564167
 10
144.2063844889404
 20
245.7977773564166
 10
144.2063844889404
 20
248.7977773564166
 10
93.2063844889404
 20
248.7977773564166
  0
LINE
  5
6A
330
2
100
AcDbEntity
  8
-SYSTEM
100
AcDbLine
 10
153.4029660798627
 20
144.1622133311877
 30
0.0
 11
84.00980289801841
 21
144.1622133311877
 31
0.0
  0
LWPOLYLINE
  5
6B
330
2
100
AcDbEntity
  8
-PROFILAUSSENKANTET
100
AcDbPolyline
 90
        4
 70
     0
 43
0.0
 10
101.7563844889405
 20
230.797777356416
 10
92.7063844889405
 20
230.797777356416
 10
92.7063844889405
 20
205.797777356416
 10
144.7063844889405
 20
205.797777356416
  0
HATCH
  5
6C
330
2
100
AcDbEntity
  8
-SCHRAFFUR
100
AcDbHatch
 10
0.0
 20
0.0
 30
0.0
210
0.0
220
0.0
230
1.0
  2
SOLID
 70
     1
 71
     1
 91
        1
 92
        1
 93
        4
 72
     1
 10
93.2063844889404
 20
245.7977773564167
 11
144.2063844889404
 21
245.7977773564166
 72
     1
 10
144.2063844889404
 20
245.7977773564166
 11
144.2063844889404
 21
248.7977773564166
 72
     1
 10
144.2063844889404
 20
248.7977773564166
 11
93.2063844889404
 21
248.7977773564166
 72
     1
 10
93.2063844889404
 20
248.7977773564166
 11
93.2063844889404
 21
245.7977773564167
 97
        1
330
69
 75
     0
 76
     1
 98
        1
 10
1.951675795207705
 20
7.067662468563298
  0
HATCH
  5
6D
330
2
100
AcDbEntity
  8
-SCHRAFFUR
100
AcDbHatch
 10
0.0
 20
0.0
 30
0.0
210
0.0
220
0.0
230
1.0
  2
SOLID
 70
     1
 71
     1
 91
        1
 92
        1
 93
        4
 72
     1
 10
93.20638448894111
 20
230.7977773564161
 11
144.2063844889411
 21
230.797777356416
 72
     1
 10
144.2063844889411
 20
230.797777356416
 11
144.2063844889411
 21
233.797777356416
 72
     1
 10
144.2063844889411
 20
233.797777356416
 11
93.20638448894111
 21
233.7977773564161
 72
     1
 10
93.20638448894111
 20
233.7977773564161
 11
93.20638448894111
 21
230.7977773564161
 97
        1
330
64
 75
     0
 76
     1
 98
        1
 10
1.951675795207705
 20
7.067662468563298
  0
LINE
  5
6E
330
2
100
AcDbEntity
  8
-SCHRAFFUR
100
AcDbLine
 10
114.7803844889405
 20
185.797777356416
 30
0.0
 11
114.7803844889405
 21
205.797777356416
 31
0.0
  0
MTEXT
  5
6F
330
2
100
AcDbEntity
  8
-TEXT2
100
AcDbMText
 10
70.70158911357927
 20
203.3787118877155
 30
0.0
 40
4.0
 41
43.30449999999999
 71
     1
 72
     5
  1
Zylinderk.-Schr.\PDIN6912-M10
 73
     1
 44
1.0
1001
ACAD
1000
MTEXTBEGIN
1070
    73
1070
     1
1070
    44
1040
1.0
1070
    74
1070
     0
1000
MTEXTEND
  0
MTEXT
  5
70
330
2
100
AcDbEntity
  8
-TEXT2
100
AcDbMText
 10
45.7885293334219
 20
184.7919872709873
 30
0.0
 40
4.0
 41
56.11394264854585
 71
     1
 72
     5
  1
Schaft mit Langloch um Toleranzen aus- zugleichen
 73
     1
 44
1.0
1001
ACAD
1000
MTEXTBEGIN
1070
    73
1070
     1
1070
    44
1040
1.0
1070
    74
1070
     0
1000
MTEXTEND
  0
LINE
  5
71
330
2
100
AcDbEntity
  8
-VERGLASUNG
100
AcDbLine
 10
68.53156982186087
 20
241.9039023246585
 30
0.0
 11
72.4254446414869
 21
245.7977771442845
 31
0.0
  0
DIMENSION
  5
72
330
2
100
AcDbEntity
  8
-TEXT3
100
AcDbDimension
  2
*D6
 10
63.91072197688831
 20
233.7977773564162
 30
0.0
 11
60.28495719102831
 21
239.7977773564166
 31
0.0
  1
G
 71
     5
 42
12.00000000000068
  3
1-1PRO
100
AcDbAlignedDimension
 13
69.00204700099388
 23
245.7977773564169
 33
0.0
 14
69.00204700099388
 24
233.7977773564162
 34
0.0
 50
90.0
100
AcDbRotatedDimension
  0
DIMENSION
  5
7F
330
2
100
AcDbEntity
  8
-TEXT3
100
AcDbDimension
  2
*D7
 10
63.91072197688835
 20
230.7977773564161
 30
0.0
 11
63.91072197688831
 21
232.2977773564161
 31
0.0
 70
   128
 71
     5
 42
3.000000000000113
  3
1-1PRO
100
AcDbAlignedDimension
 13
69.00204700099388
 23
233.7977773564162
 33
0.0
 14
92.70638448894088
 24
230.7977773564161
 34
0.0
 50
90.0
100
AcDbRotatedDimension
  0
DIMENSION
  5
8D
330
2
100
AcDbEntity
  8
-TEXT3
100
AcDbDimension
  2
*D8
 10
63.9107219768882
 20
205.797777356416
 30
0.0
 11
60.28495719102821
 21
218.2977773564161
 31
0.0
 71
     5
 42
25.00000000000009
  3
1-1PRO
100
AcDbAlignedDimension
 13
91.41072197688808
 23
230.7977773564161
 33
0.0
 14
92.7063844889405
 24
205.797777356416
 34
0.0
 50
90.0
100
AcDbRotatedDimension
  0
DIMENSION
  5
9A
330
2
100
AcDbEntity
  8
-TEXT3
100
AcDbDimension
  2
*D9
 10
63.91072197688835
 20
248.7977773564168
 30
0.0
 11
63.91072197688831
 21
247.2977773564168
 31
0.0
 70
   128
 71
     5
 42
2.999999999999886
  3
1-1PRO-PU
100
AcDbAlignedDimension
 13
69.00204700099388
 23
245.7977773564169
 33
0.0
 14
92.7063844889404
 24
248.7977773564168
 34
0.0
 50
90.0
100
AcDbRotatedDimension
  0
DIMENSION
  5
AE
330
2
100
AcDbEntity
  8
-TEXT3
100
AcDbDimension
  2
*D10
 10
63.91072197688831
 20
248.7977773564168
 30
0.0
 11
60.8101101482003
 21
252.7977773564167
 31
0.0
 71
     5
 42
7.999999999999857
  3
1-1PRO-PU
100
AcDbAlignedDimension
 13
109.6896468346411
 23
256.7977773564166
 33
0.0
 14
92.7063844889404
 24
248.7977773564168
 34
0.0
 50
90.0
100
AcDbRotatedDimension
  0
LINE
  5
BC
330
2
100
AcDbEntity
  8
-NORMTEIL_VERDECKT
100
AcDbLine
 10
104.7768161785587
 20
245.7977773564166
 30
0.0
 11
104.7768161785588
 21
230.797777356416
 31
0.0
  0
LINE
  5
BD
330
2
100
AcDbEntity
  8
-NORMTEIL_VERDECKT
100
AcDbLine
 10
103.2063844889405
 20
245.7977773564167
 30
0.0
 11
103.2063844889405
 21
230.797777356416
 31
0.0
  0
LINE
  5
BE
330
2
100
AcDbEntity
  8
-NORMTEIL_VERDECKT
100
AcDbLine
 10
100.7563844889405
 20
245.7977773564167
 30
0.0
 11
100.7563844889405
 21
230.797777356416
 31
0.0
  0
LINE
  5
BF
330
2
100
AcDbEntity
  8
-VERGLASUNG
100
AcDbLine
 10
92.45932677598338
 20
241.9039023953692
 30
0.0
 11
96.35320159560942
 21
245.7977772149952
 31
0.0
  0
LINE
  5
C0
330
2
100
AcDbEntity
  8
-VERGLASUNG
100
AcDbLine
 10
94.02182677598338
 20
241.9039023953692
 30
0.0
 11
97.91570159560942
 21
245.7977772149952
 31
0.0
  0
LINE
  5
C1
330
2
100
AcDbEntity
  8
-VERGLASUNG
100
AcDbLine
 10
95.58432677598338
 20
241.9039023953692
 30
0.0
 11
99.47820159560942
 21
245.7977772149952
 31
0.0
  0
LINE
  5
C2
330
2
100
AcDbEntity
  8
-VERGLASUNG
100
AcDbLine
 10
71.65656982186087
 20
241.9039023246585
 30
0.0
 11
75.5504446414869
 21
245.7977771442845
 31
0.0
  0
LINE
  5
C3
330
2
100
AcDbEntity
  8
-VERGLASUNG
100
AcDbLine
 10
70.09406982186087
 20
241.9039023246585
 30
0.0
 11
73.9879446414869
 21
245.7977771442845
 31
0.0
  0
LINE
  5
C4
330
2
100
AcDbEntity
  8
-VERGLASUNG
100
AcDbLine
 10
73.31165525785158
 20
233.7977771442838
 30
0.0
 11
77.20553007747762
 21
237.6916519639099
 31
0.0
  0
LINE
  5
C5
330
2
100
AcDbEntity
  8
-VERGLASUNG
100
AcDbLine
 10
71.74915525785158
 20
233.7977771442838
 30
0.0
 11
75.64303007747762
 21
237.6916519639099
 31
0.0
  0
LINE
  5
C6
330
2
100
AcDbEntity
  8
-VERGLASUNG
100
AcDbLine
 10
74.87415525785158
 20
233.7977771442838
 30
0.0
 11
78.76803007747762
 21
237.6916519639098
 31
0.0
  0
LINE
  5
C7
330
2
100
AcDbEntity
  8
-NORMTEIL_VERDECKT
100
AcDbLine
 10
110.3920978022467
 20
205.797777356416
 30
0.0
 11
110.3920978022467
 21
210.797777356416
 31
0.0
  0
LINE
  5
C8
330
2
100
AcDbEntity
  8
-NORMTEIL_VERDECKT
100
AcDbLine
 10
114.7803844889405
 20
205.797777356416
 30
0.0
 11
114.7803844889405
 21
208.797777356416
 31
0.0
  0
LINE
  5
C9
330
2
100
AcDbEntity
  8
-NORMTEIL_VERDECKT
100
AcDbLine
 10
113.7063844889405
 20
205.797777356416
 30
0.0
 11
113.7063844889405
 21
210.797777356416
 31
0.0
  0
LINE
  5
CA
330
2
100
AcDbEntity
  8
-NORMTEIL_VERDECKT
100
AcDbLine
 10
100.706384488941
 20
233.797777356416
 30
0.0
 11
106.6263844889411
 21
233.797777356416
 31
0.0
  0
LINE
  5
CB
330
2
100
AcDbEntity
  8
-NORMTEIL_VERDECKT
100
AcDbLine
 10
100.7063844889403
 20
233.7977773564163
 30
0.0
 11
106.6263844889405
 21
233.7977773564163
 31
0.0
  0
LINE
  5
CC
330
2
100
AcDbEntity
  8
-NORMTEIL_VERDECKT
100
AcDbLine
 10
100.706384488941
 20
233.797777356416
 30
0.0
 11
106.6263844889411
 21
233.797777356416
 31
0.0
  0
LINE
  5
CD
330
2
100
AcDbEntity
  8
-NORMTEIL_VERDECKT
100
AcDbLine
 10
100.7063844889403
 20
233.7977773564163
 30
0.0
 11
106.6263844889405
 21
233.7977773564163
 31
0.0
  0
LINE
  5
CE
330
2
100
AcDbEntity
  8
-VERGLASUNG
100
AcDbLine
 10
95.6769122119741
 20
233.7977772149945
 30
0.0
 11
99.57078703160014
 21
237.6916520346206
 31
0.0
  0
LINE
  5
CF
330
2
100
AcDbEntity
  8
-VERGLASUNG
100
AcDbLine
 10
97.2394122119741
 20
233.7977772149945
 30
0.0
 11
101.1332870316001
 21
237.6916520346206
 31
0.0
  0
LINE
  5
D0
330
2
100
AcDbEntity
  8
-NORMTEIL_VERDECKT
100
AcDbLine
 10
106.8892054238308
 20
227.7977773564162
 30
0.0
 11
107.7012054238307
 21
222.5940551239694
 31
0.0
  0
LINE
  5
D1
330
2
100
AcDbEntity
  8
-NORMTEIL_VERDECKT
100
AcDbLine
 10
106.8892054238308
 20
227.7977773564162
 30
0.0
 11
107.7012054238307
 21
227.7977773564162
 31
0.0
  0
LINE
  5
D2
330
2
100
AcDbEntity
  8
-NORMTEIL_VERDECKT
100
AcDbLine
 10
106.8892054238308
 20
230.6097773564166
 30
0.0
 11
106.8892054238308
 21
227.797777356416
 31
0.0
  0
LINE
  5
D3
330
2
100
AcDbEntity
  8
-NORMTEIL_VERDECKT
100
AcDbLine
 10
106.8892054238307
 20
244.7977773564159
 30
0.0
 11
107.7012054238305
 21
243.9857773564161
 31
0.0
  0
LINE
  5
D4
330
2
100
AcDbEntity
  8
-NORMTEIL_VERDECKT
100
AcDbLine
 10
107.7012054238306
 20
243.9857773564161
 30
0.0
 11
107.7012054238306
 21
244.7977773564159
 31
0.0
  0
LINE
  5
D5
330
2
100
AcDbEntity
  8
-SCHRAFFUR
100
AcDbLine
 10
122.6323844889405
 20
185.7977773564159
 30
0.0
 11
122.6323844889405
 21
205.797777356416
 31
0.0
  0
LINE
  5
D6
330
2
100
AcDbEntity
  8
-SYSTEM
100
AcDbLine
 10
118.7063844889404
 20
259.7543428950942
 30
0.0
 11
118.7063844889406
 21
182.3272151700525
 31
0.0
  0
MTEXT
  5
D7
330
2
100
AcDbEntity
  8
-TEXT2
100
AcDbMText
 10
141.6712518834096
 20
198.6394828994456
 30
0.0
 40
4.0
 41
43.30449999999999
 71
     1
 72
     5
  1
oder\PHolz-Schr.\PDIN571-%%c8
 73
     1
 44
1.0
1001
ACAD
1000
MTEXTBEGIN
1070
    73
1070
     1
1070
    44
1040
1.0
1070
    74
1070
     0
1000
MTEXTEND
  0
INSERT
  5
D8
330
2
100
AcDbEntity
  8
-PROFILAUSSENKANTET
100
AcDbBlockReference
  2
571-10
 10
179.3812183583972
 20
206.658548368146
 30
0.0
 41
0.7999999999999972
 42
0.7999999999999972
 43
0.8
  0
LINE
  5
127
330
2
100
AcDbEntity
  8
-SYSTEM
100
AcDbLine
 10
118.7063844889405
 20
178.8587949221099
 30
0.0
 11
118.7063844889405
 21
109.4656317402656
 31
0.0
  0
LINE
  5
128
330
2
100
AcDbEntity
  8
-VERGLASUNG
100
AcDbLine
 10
157.9920913886761
 20
241.903902395369
 30
0.0
 11
161.8859662083021
 21
245.797777214995
 31
0.0
  0
LINE
  5
129
330
2
100
AcDbEntity
  8
-VERGLASUNG
100
AcDbLine
 10
159.5545913886761
 20
241.903902395369
 30
0.0
 11
163.4484662083021
 21
245.797777214995
 31
0.0
  0
LINE
  5
12A
330
2
100
AcDbEntity
  8
-VERGLASUNG
100
AcDbLine
 10
161.1170913886761
 20
241.903902395369
 30
0.0
 11
165.0109662083021
 21
245.797777214995
 31
0.0
  0
LINE
  5
12B
330
2
100
AcDbEntity
  8
-VERGLASUNG
100
AcDbLine
 10
161.2096768246668
 20
233.7977772149943
 30
0.0
 11
165.1035516442929
 21
237.6916520346203
 31
0.0
  0
LINE
  5
12C
330
2
100
AcDbEntity
  8
-NORMTEIL_VERDECKT
100
AcDbLine
 10
132.6359527993221
 20
245.7977773564166
 30
0.0
 11
132.6359527993221
 21
230.797777356416
 31
0.0
  0
LINE
  5
12D
330
2
100
AcDbEntity
  8
-NORMTEIL_VERDECKT
100
AcDbLine
 10
134.2063844889405
 20
245.7977773564166
 30
0.0
 11
134.2063844889404
 21
230.797777356416
 31
0.0
  0
LINE
  5
12E
330
2
100
AcDbEntity
  8
-NORMTEIL_VERDECKT
100
AcDbLine
 10
136.6563844889405
 20
245.7977773564166
 30
0.0
 11
136.6563844889404
 21
230.797777356416
 31
0.0
  0
LINE
  5
12F
330
2
100
AcDbEntity
  8
-VERGLASUNG
100
AcDbLine
 10
135.6268344345536
 20
241.9039023246583
 30
0.0
 11
139.5207092541796
 21
245.7977771442843
 31
0.0
  0
LINE
  5
130
330
2
100
AcDbEntity
  8
-VERGLASUNG
100
AcDbLine
 10
137.1893344345536
 20
241.9039023246583
 30
0.0
 11
141.0832092541796
 21
245.7977771442843
 31
0.0
  0
LINE
  5
131
330
2
100
AcDbEntity
  8
-NORMTEIL_VERDECKT
100
AcDbLine
 10
141.7063844889406
 20
233.7977773564161
 30
0.0
 11
135.7863844889404
 21
233.7977773564161
 31
0.0
  0
LINE
  5
132
330
2
100
AcDbEntity
  8
-VERGLASUNG
100
AcDbLine
 10
137.2819198705443
 20
233.7977771442836
 30
0.0
 11
141.1757946901703
 21
237.6916519639096
 31
0.0
  0
LWPOLYLINE
  5
133
330
2
100
AcDbEntity
  8
-PROFILAUSSENKANTET
100
AcDbPolyline
 90
        4
 70
     0
 43
0.0
 10
144.7063844889405
 20
205.797777356416
 10
144.7063844889405
 20
205.797777356416
 10
144.7063844889405
 20
230.797777356416
 10
135.6563844889404
 20
230.797777356416
  0
LINE
  5
134
330
2
100
AcDbEntity
  8
-NORMTEIL_VERDECKT
100
AcDbLine
 10
116.396983412182
 20
212.2977773564159
 30
0.0
 11
116.396983412182
 21
217.297777356416
 31
0.0
  0
LINE
  5
135
330
2
100
AcDbEntity
  8
-NORMTEIL_VERDECKT
100
AcDbLine
 10
122.6323844889405
 20
205.797777356416
 30
0.0
 11
122.6323844889405
 21
208.797777356416
 31
0.0
  0
LINE
  5
136
330
2
100
AcDbEntity
  8
-NORMTEIL_VERDECKT
100
AcDbLine
 10
123.7063844889405
 20
205.797777356416
 30
0.0
 11
123.7063844889405
 21
210.797777356416
 31
0.0
  0
LINE
  5
137
330
2
100
AcDbEntity
  8
-NORMTEIL_VERDECKT
100
AcDbLine
 10
121.015785565699
 20
212.2977773564159
 30
0.0
 11
121.015785565699
 21
217.297777356416
 31
0.0
  0
LINE
  5
138
330
2
100
AcDbEntity
  8
-NORMTEIL_VERDECKT
100
AcDbLine
 10
126.8832733639375
 20
205.797777356416
 30
0.0
 11
126.8832733639375
 21
210.797777356416
 31
0.0
  0
LINE
  5
139
330
2
100
AcDbEntity
  8
-NORMTEIL_VERDECKT
100
AcDbLine
 10
130.52356355405
 20
227.797777356416
 30
0.0
 11
129.71156355405
 21
222.5940551239692
 31
0.0
  0
LINE
  5
13A
330
2
100
AcDbEntity
  8
-NORMTEIL_VERDECKT
100
AcDbLine
 10
130.5235635540501
 20
230.6097773564165
 30
0.0
 11
130.52356355405
 21
227.797777356416
 31
0.0
  0
LINE
  5
13B
330
2
100
AcDbEntity
  8
-NORMTEIL_VERDECKT
100
AcDbLine
 10
129.7115635540501
 20
227.7977773564162
 30
0.0
 11
130.52356355405
 21
227.7977773564162
 31
0.0
  0
LINE
  5
13C
330
2
100
AcDbEntity
  8
-NORMTEIL_VERDECKT
100
AcDbLine
 10
136.7063844889412
 20
233.797777356416
 30
0.0
 11
130.786384488941
 21
233.797777356416
 31
0.0
  0
LINE
  5
13D
330
2
100
AcDbEntity
  8
-NORMTEIL_VERDECKT
100
AcDbLine
 10
136.7063844889405
 20
233.7977773564163
 30
0.0
 11
130.7863844889403
 21
233.7977773564163
 31
0.0
  0
LINE
  5
13E
330
2
100
AcDbEntity
  8
-VERGLASUNG
100
AcDbLine
 10
140.4069198705443
 20
233.7977771442836
 30
0.0
 11
144.3007946901703
 21
237.6916519639095
 31
0.0
  0
LINE
  5
13F
330
2
100
AcDbEntity
  8
-VERGLASUNG
100
AcDbLine
 10
138.8444198705443
 20
233.7977771442836
 30
0.0
 11
142.7382946901703
 21
237.6916519639096
 31
0.0
  0
LINE
  5
140
330
2
100
AcDbEntity
  8
-NORMTEIL_VERDECKT
100
AcDbLine
 10
124.2063844889399
 20
252.7977773564157
 30
0.0
 11
127.2063844889399
 21
252.7977773564157
 31
0.0
  0
LWPOLYLINE
  5
141
330
2
100
AcDbEntity
  8
-NORMTEIL_VERDECKT
100
AcDbPolyline
 90
        5
 70
     0
 43
0.0
 10
124.2063844889399
 20
256.7977773564158
 10
124.2063844889399
 20
252.7977773564157
 10
125.7063844889399
 20
251.7977773564157
 10
127.2063844889399
 20
252.7977773564157
 10
127.2063844889399
 20
256.7977773564158
  0
LINE
  5
142
330
2
100
AcDbEntity
  8
-NORMTEIL_VERDECKT
100
AcDbLine
 10
130.5235635540501
 20
244.797777356416
 30
0.0
 11
129.7115635540504
 21
243.9857773564162
 31
0.0
  0
LINE
  5
143
330
2
100
AcDbEntity
  8
-NORMTEIL_VERDECKT
100
AcDbLine
 10
129.71156355405
 20
244.7977773564159
 30
0.0
 11
129.71156355405
 21
243.9857773564158
 31
0.0
  0
LWPOLYLINE
  5
144
330
2
100
AcDbEntity
  8
-NORMTEIL_VERDECKT
100
AcDbPolyline
 90
        2
 70
     0
 43
0.0
 10
135.6563844889405
 20
246.7977773564159
 10
133.7063844889406
 20
246.7977773564159
  0
LINE
  5
145
330
2
100
AcDbEntity
  8
-VERGLASUNG
100
AcDbLine
 10
164.3346768246668
 20
233.7977772149943
 30
0.0
 11
168.2285516442929
 21
237.6916520346203
 31
0.0
  0
LINE
  5
146
330
2
100
AcDbEntity
  8
-VERGLASUNG
100
AcDbLine
 10
162.7721768246668
 20
233.7977772149943
 30
0.0
 11
166.6660516442929
 21
237.6916520346203
 31
0.0
  0
ENDSEC
  0
SECTION
  2
OBJECTS
  0
DICTIONARY
  5
7
330
0
100
AcDbDictionary
281
     1
  3
ACAD_COLOR
350
15F
  3
ACAD_GROUP
350
15B
  3
ACAD_LAYOUT
350
149
  3
ACAD_MATERIAL
350
15E
  3
ACAD_MLINESTYLE
350
15C
  3
ACAD_PLOTSETTINGS
350
15D
  3
ACAD_PLOTSTYLENAME
350
6
  3
ACDBHEADERROUNDTRIPXREC
350
165
  3
AcDbVariableDictionary
350
161
  0
DICTIONARY
  5
15F
102
{ACAD_REACTORS
330
7
102
}
330
7
100
AcDbDictionary
281
     1
  0
DICTIONARY
  5
15B
102
{ACAD_REACTORS
330
7
102
}
330
7
100
AcDbDictionary
281
     1
  0
DICTIONARY
  5
149
102
{ACAD_REACTORS
330
7
102
}
330
7
100
AcDbDictionary
281
     1
  3
Layout1
350
14D
  3
Model
350
148
  0
DICTIONARY
  5
15E
102
{ACAD_REACTORS
330
7
102
}
330
7
100
AcDbDictionary
281
     1
  0
DICTIONARY
  5
15C
102
{ACAD_REACTORS
330
7
102
}
330
7
100
AcDbDictionary
281
     1
  3
STANDARD
350
160
  0
DICTIONARY
  5
15D
102
{ACAD_REACTORS
330
7
102
}
330
7
100
AcDbDictionary
281
     1
  0
ACDBDICTIONARYWDFLT
  5
6
102
{ACAD_REACTORS
330
7
102
}
330
7
100
AcDbDictionary
281
     1
  3
Normal
350
5
100
AcDbDictionaryWithDefault
340
5
  0
DICTIONARY
  5
165
102
{ACAD_REACTORS
330
7
102
}
330
7
100
AcDbDictionary
281
     1
  3
COLORDICT
350
167
  3
MATERIALDICT
350
166
  0
DICTIONARY
  5
161
102
{ACAD_REACTORS
330
7
102
}
330
7
100
AcDbDictionary
281
     1
  3
DIMASSOC
350
163
  3
HIDETEXT
350
162
  3
PROJECTNAME
350
164
  0
LAYOUT
  5
14D
102
{ACAD_XDICTIONARY
360
16C
102
}
102
{ACAD_REACTORS
330
149
102
}
330
149
100
AcDbPlotSettings
  1

  2
HP DeskJet 1120C Printer
  4

  6

 40
0.0
 41
0.0
 42
0.0
 43
0.0
 44
0.0
 45
0.0
 46
0.0
 47
0.0
 48
0.0
 49
0.0
140
0.0
141
0.0
142
1.0
143
1.0
 70
   688
 72
     0
 73
     0
 74
     5
  7
monochrome.ctb
 75
    16
147
1.0
148
0.0
149
0.0
100
AcDbLayout
  1
Layout1
 70
     1
 71
     1
 10
0.0
 20
0.0
 11
12.0
 21
9.0
 12
0.0
 22
0.0
 32
0.0
 14
1.000000000000000E+20
 24
1.000000000000000E+20
 34
1.000000000000000E+20
 15
-1.000000000000000E+20
 25
-1.000000000000000E+20
 35
-1.000000000000000E+20
146
0.0
 13
0.0
 23
0.0
 33
0.0
 16
1.0
 26
0.0
 36
0.0
 17
0.0
 27
1.0
 37
0.0
 76
     0
330
14A
  0
LAYOUT
  5
148
102
{ACAD_XDICTIONARY
360
16A
102
}
102
{ACAD_REACTORS
330
149
102
}
330
149
100
AcDbPlotSettings
  1

  2
HP DeskJet 1220C.pc3
  4
A4
  6

 40
4.180416584014892
 41
13.4937515258789
 42
4.180404663085937
 43
3.67242431640625
 44
209.9733276367187
 45
297.0106506347656
 46
18.27
 47
-7.179999999999999
 48
-382.9604338586287
 49
-121.4784643575026
140
-52.79796600890358
141
466.9417073402494
142
1.0
143
2.0
 70
 11956
 72
     1
 73
     0
 74
     4
  7
monochrome.ctb
 75
    17
147
0.5
148
382.9604338586287
149
121.4784643575026
100
AcDbLayout
  1
Model
 70
     1
 71
     0
 10
0.0
 20
0.0
 11
12.0
 21
9.0
 12
0.0
 22
0.0
 32
0.0
 14
0.0
 24
0.0
 34
0.0
 15
0.0
 25
0.0
 35
0.0
146
0.0
 13
0.0
 23
0.0
 33
0.0
 16
1.0
 26
0.0
 36
0.0
 17
0.0
 27
1.0
 37
0.0
 76
     0
330
2
  0
MLINESTYLE
  5
160
102
{ACAD_REACTORS
330
15C
102
}
330
15C
100
AcDbMlineStyle
  2
STANDARD
 70
     0
  3

 62
     0
 51
90.0
 52
90.0
 71
     2
 49
0.5
 62
   256
  6
BYLAYER
 49
-0.5
 62
   256
  6
BYLAYER
  0
ACDBPLACEHOLDER
  5
5
102
{ACAD_REACTORS
330
6
102
}
330
6
  0
XRECORD
  5
167
102
{ACAD_REACTORS
330
165
102
}
330
165
100
AcDbXrecord
280
     1
340
15F
  0
XRECORD
  5
166
102
{ACAD_REACTORS
330
165
102
}
330
165
100
AcDbXrecord
280
     1
340
15E
  0
DICTIONARYVAR
  5
163
102
{ACAD_REACTORS
330
161
102
}
330
161
100
DictionaryVariables
280
     0
  1
1
  0
DICTIONARYVAR
  5
162
102
{ACAD_REACTORS
330
161
102
}
330
161
100
DictionaryVariables
280
     0
  1
1
  0
DICTIONARYVAR
  5
164
102
{ACAD_REACTORS
330
161
102
}
330
161
100
DictionaryVariables
280
     0
  1

  0
DICTIONARY
  5
16C
330
14D
100
AcDbDictionary
280
     1
281
     1
  3
ACAD_XREC_ROUNDTRIP
360
16D
  0
DICTIONARY
  5
16A
330
148
100
AcDbDictionary
280
     1
281
     1
  3
ACAD_XREC_ROUNDTRIP
360
16B
  0
XRECORD
  5
16D
102
{ACAD_REACTORS
330
16C
102
}
330
16C
100
AcDbXrecord
280
     1
102
SHADEPLOT
 70
     0
102
SHADEPLOTRESLEVEL
 70
     2
102
SHADEPLOTCUSTOMDPI
 70
   300
  0
XRECORD
  5
16B
102
{ACAD_REACTORS
330
16A
102
}
330
16A
100
AcDbXrecord
280
     1
102
SHADEPLOT
 70
     0
102
SHADEPLOTRESLEVEL
 70
     2
102
SHADEPLOTCUSTOMDPI
 70
   300
  0
ENDSEC
  0
EOF
