  0
SECTION
  2
HEADER
  9
$ACADVER
  1
AC1015
  9
$ACADMAINTVER
 70
    18
  9
$DWGCODEPAGE
  3
ANSI_1252
  9
$INSBASE
 10
-327.8288694144876
 20
0.0
 30
0.0
  9
$EXTMIN
 10
1.000000000000000E+20
 20
1.000000000000000E+20
 30
1.000000000000000E+20
  9
$EXTMAX
 10
0.0
 20
0.0
 30
0.0
  9
$LIMMIN
 10
0.0
 20
0.0
  9
$LIMMAX
 10
12.0
 20
9.0
  9
$ORTHOMODE
 70
     1
  9
$REGENMODE
 70
     1
  9
$FILLMODE
 70
     1
  9
$QTEXTMODE
 70
     0
  9
$MIRRTEXT
 70
     1
  9
$LTSCALE
 40
2.5
  9
$ATTMODE
 70
     1
  9
$TEXTSIZE
 40
0.2
  9
$TRACEWID
 40
0.05
  9
$TEXTSTYLE
  7
STANDARD
  9
$CLAYER
  8
-TEXT3
  9
$CELTYPE
  6
BYLAYER
  9
$CECOLOR
 62
   256
  9
$CELTSCALE
 40
1.0
  9
$DISPSILH
 70
     0
  9
$DIMSCALE
 40
1.0
  9
$DIMASZ
 40
3.5
  9
$DIMEXO
 40
2.0
  9
$DIMDLI
 40
2.0
  9
$DIMRND
 40
0.0
  9
$DIMDLE
 40
0.0
  9
$DIMEXE
 40
1.5
  9
$DIMTP
 40
0.0
  9
$DIMTM
 40
0.0
  9
$DIMTXT
 40
4.0
  9
$DIMCEN
 40
0.09
  9
$DIMTSZ
 40
0.0
  9
$DIMTOL
 70
     0
  9
$DIMLIM
 70
     0
  9
$DIMTIH
 70
     0
  9
$DIMTOH
 70
     0
  9
$DIMSE1
 70
     0
  9
$DIMSE2
 70
     0
  9
$DIMTAD
 70
     1
  9
$DIMZIN
 70
     9
  9
$DIMBLK
  1

  9
$DIMASO
 70
     1
  9
$DIMSHO
 70
     1
  9
$DIMPOST
  1

  9
$DIMAPOST
  1

  9
$DIMALT
 70
     0
  9
$DIMALTD
 70
     2
  9
$DIMALTF
 40
25.4
  9
$DIMLFAC
 40
1.0
  9
$DIMTOFL
 70
     0
  9
$DIMTVP
 40
0.0
  9
$DIMTIX
 70
     0
  9
$DIMSOXD
 70
     0
  9
$DIMSAH
 70
     0
  9
$DIMBLK1
  1

  9
$DIMBLK2
  1

  9
$DIMSTYLE
  2
1-1PRO
  9
$DIMCLRD
 70
   256
  9
$DIMCLRE
 70
   256
  9
$DIMCLRT
 70
   256
  9
$DIMTFAC
 40
1.0
  9
$DIMGAP
 40
1.0
  9
$DIMJUST
 70
     0
  9
$DIMSD1
 70
     0
  9
$DIMSD2
 70
     0
  9
$DIMTOLJ
 70
     1
  9
$DIMTZIN
 70
     0
  9
$DIMALTZ
 70
     0
  9
$DIMALTTZ
 70
     0
  9
$DIMUPT
 70
     0
  9
$DIMDEC
 70
     1
  9
$DIMTDEC
 70
     1
  9
$DIMALTU
 70
     2
  9
$DIMALTTD
 70
     2
  9
$DIMTXSTY
  7
STANDARD
  9
$DIMAUNIT
 70
     0
  9
$DIMADEC
 70
     0
  9
$DIMALTRND
 40
0.0
  9
$DIMAZIN
 70
     0
  9
$DIMDSEP
 70
    46
  9
$DIMATFIT
 70
     3
  9
$DIMFRAC
 70
     0
  9
$DIMLDRBLK
  1

  9
$DIMLUNIT
 70
     2
  9
$DIMLWD
 70
    -2
  9
$DIMLWE
 70
    -2
  9
$DIMTMOVE
 70
     0
  9
$LUNITS
 70
     2
  9
$LUPREC
 70
     4
  9
$SKETCHINC
 40
0.1
  9
$FILLETRAD
 40
0.0
  9
$AUNITS
 70
     0
  9
$AUPREC
 70
     0
  9
$MENU
  1
.
  9
$ELEVATION
 40
0.0
  9
$PELEVATION
 40
0.0
  9
$THICKNESS
 40
0.0
  9
$LIMCHECK
 70
     0
  9
$CHAMFERA
 40
2.0
  9
$CHAMFERB
 40
2.0
  9
$CHAMFERC
 40
1.0
  9
$CHAMFERD
 40
0.0
  9
$SKPOLY
 70
     0
  9
$TDCREATE
 40
2450923.406402199
  9
$TDUCREATE
 40
2450923.364735533
  9
$TDUPDATE
 40
2453396.427591135
  9
$TDUUPDATE
 40
2453396.385924468
  9
$TDINDWG
 40
2.4561748727
  9
$TDUSRTIMER
 40
2.4561748727
  9
$USRTIMER
 70
     1
  9
$ANGBASE
 50
0.0
  9
$ANGDIR
 70
     0
  9
$PDMODE
 70
     0
  9
$PDSIZE
 40
0.0
  9
$PLINEWID
 40
0.0
  9
$SPLFRAME
 70
     0
  9
$SPLINETYPE
 70
     6
  9
$SPLINESEGS
 70
    50
  9
$HANDSEED
  5
163
  9
$SURFTAB1
 70
     6
  9
$SURFTAB2
 70
     6
  9
$SURFTYPE
 70
     6
  9
$SURFU
 70
     6
  9
$SURFV
 70
     6
  9
$UCSBASE
  2

  9
$UCSNAME
  2

  9
$UCSORG
 10
0.0
 20
0.0
 30
0.0
  9
$UCSXDIR
 10
1.0
 20
0.0
 30
0.0
  9
$UCSYDIR
 10
0.0
 20
1.0
 30
0.0
  9
$UCSORTHOREF
  2

  9
$UCSORTHOVIEW
 70
     0
  9
$UCSORGTOP
 10
0.0
 20
0.0
 30
0.0
  9
$UCSORGBOTTOM
 10
0.0
 20
0.0
 30
0.0
  9
$UCSORGLEFT
 10
0.0
 20
0.0
 30
0.0
  9
$UCSORGRIGHT
 10
0.0
 20
0.0
 30
0.0
  9
$UCSORGFRONT
 10
0.0
 20
0.0
 30
0.0
  9
$UCSORGBACK
 10
0.0
 20
0.0
 30
0.0
  9
$PUCSBASE
  2

  9
$PUCSNAME
  2

  9
$PUCSORG
 10
0.0
 20
0.0
 30
0.0
  9
$PUCSXDIR
 10
1.0
 20
0.0
 30
0.0
  9
$PUCSYDIR
 10
0.0
 20
1.0
 30
0.0
  9
$PUCSORTHOREF
  2

  9
$PUCSORTHOVIEW
 70
     0
  9
$PUCSORGTOP
 10
0.0
 20
0.0
 30
0.0
  9
$PUCSORGBOTTOM
 10
0.0
 20
0.0
 30
0.0
  9
$PUCSORGLEFT
 10
0.0
 20
0.0
 30
0.0
  9
$PUCSORGRIGHT
 10
0.0
 20
0.0
 30
0.0
  9
$PUCSORGFRONT
 10
0.0
 20
0.0
 30
0.0
  9
$PUCSORGBACK
 10
0.0
 20
0.0
 30
0.0
  9
$USERI1
 70
     0
  9
$USERI2
 70
     0
  9
$USERI3
 70
     0
  9
$USERI4
 70
     0
  9
$USERI5
 70
     0
  9
$USERR1
 40
0.0
  9
$USERR2
 40
0.0
  9
$USERR3
 40
0.0
  9
$USERR4
 40
0.0
  9
$USERR5
 40
0.0
  9
$WORLDVIEW
 70
     1
  9
$SHADEDGE
 70
     3
  9
$SHADEDIF
 70
    70
  9
$TILEMODE
 70
     1
  9
$MAXACTVP
 70
    48
  9
$PINSBASE
 10
0.0
 20
0.0
 30
0.0
  9
$PLIMCHECK
 70
     0
  9
$PEXTMIN
 10
1.000000000000000E+20
 20
1.000000000000000E+20
 30
1.000000000000000E+20
  9
$PEXTMAX
 10
-1.000000000000000E+20
 20
-1.000000000000000E+20
 30
-1.000000000000000E+20
  9
$PLIMMIN
 10
0.0
 20
0.0
  9
$PLIMMAX
 10
12.0
 20
9.0
  9
$UNITMODE
 70
     0
  9
$VISRETAIN
 70
     1
  9
$PLINEGEN
 70
     0
  9
$PSLTSCALE
 70
     1
  9
$TREEDEPTH
 70
  3020
  9
$CMLSTYLE
  2
STANDARD
  9
$CMLJUST
 70
     0
  9
$CMLSCALE
 40
1.0
  9
$PROXYGRAPHICS
 70
     1
  9
$MEASUREMENT
 70
     0
  9
$CELWEIGHT
370
    -1
  9
$ENDCAPS
280
     0
  9
$JOINSTYLE
280
     0
  9
$LWDISPLAY
290
     0
  9
$INSUNITS
 70
     0
  9
$HYPERLINKBASE
  1

  9
$STYLESHEET
  1

  9
$XEDIT
290
     1
  9
$CEPSNTYPE
380
     0
  9
$PSTYLEMODE
290
     1
  9
$FINGERPRINTGUID
  2
{3A6C66AE-FB5D-11D4-9C1F-EC81C176A25E}
  9
$VERSIONGUID
  2
{DEFA03D6-F4FB-4E29-8C00-ED203511E4C0}
  9
$EXTNAMES
290
     1
  9
$PSVPSCALE
 40
0.0
  9
$OLESTARTUP
290
     0
  0
ENDSEC
  0
SECTION
  2
CLASSES
  0
CLASS
  1
DICTIONARYVAR
  2
AcDbDictionaryVar
  3
ObjectDBX Classes
 90
        0
280
     0
281
     0
  0
CLASS
  1
IMAGE
  2
AcDbRasterImage
  3
ISM
 90
    32895
280
     0
281
     1
  0
CLASS
  1
IMAGEDEF_REACTOR
  2
AcDbRasterImageDefReactor
  3
ISM
 90
    32769
280
     0
281
     0
  0
CLASS
  1
IMAGEDEF
  2
AcDbRasterImageDef
  3
ISM
 90
    32768
280
     0
281
     0
  0
CLASS
  1
RASTERVARIABLES
  2
AcDbRasterVariables
  3
ISM
 90
    32768
280
     0
281
     0
  0
CLASS
  1
ACDBDICTIONARYWDFLT
  2
AcDbDictionaryWithDefault
  3
ObjectDBX Classes
 90
        0
280
     0
281
     0
  0
CLASS
  1
ACDBPLACEHOLDER
  2
AcDbPlaceHolder
  3
ObjectDBX Classes
 90
        0
280
     0
281
     0
  0
CLASS
  1
LAYOUT
  2
AcDbLayout
  3
ObjectDBX Classes
 90
        0
280
     0
281
     0
  0
ENDSEC
  0
SECTION
  2
TABLES
  0
TABLE
  2
VPORT
  5
14B
330
0
100
AcDbSymbolTable
 70
     1
  0
VPORT
  5
14C
330
14B
100
AcDbSymbolTableRecord
100
AcDbViewportTableRecord
  2
*Active
 70
     0
 10
0.0
 20
0.0
 11
1.0
 21
1.0
 12
3.511653317898947
 22
97.48959336689109
 13
0.0
 23
0.0
 14
0.5
 24
0.5
 15
0.5
 25
0.5
 16
0.0
 26
0.0
 36
1.0
 17
0.0
 27
0.0
 37
0.0
 40
301.2955584052446
 41
1.548512289780077
 42
50.0
 43
0.0
 44
0.0
 50
0.0
 51
0.0
 71
     0
 72
   100
 73
     1
 74
     1
 75
     0
 76
     0
 77
     0
 78
     0
281
     0
 65
     1
110
0.0
120
0.0
130
0.0
111
1.0
121
0.0
131
0.0
112
0.0
122
1.0
132
0.0
 79
     0
146
0.0
  0
ENDTAB
  0
TABLE
  2
LTYPE
  5
146
330
0
100
AcDbSymbolTable
 70
     4
  0
LTYPE
  5
147
330
146
100
AcDbSymbolTableRecord
100
AcDbLinetypeTableRecord
  2
BYBLOCK
 70
     0
  3

 72
    65
 73
     0
 40
0.0
  0
LTYPE
  5
148
330
146
100
AcDbSymbolTableRecord
100
AcDbLinetypeTableRecord
  2
BYLAYER
 70
     0
  3

 72
    65
 73
     0
 40
0.0
  0
LTYPE
  5
8
330
146
100
AcDbSymbolTableRecord
100
AcDbLinetypeTableRecord
  2
CONTINUOUS
 70
     0
  3
Solid line
 72
    65
 73
     0
 40
0.0
  0
LTYPE
  5
16
330
146
100
AcDbSymbolTableRecord
100
AcDbLinetypeTableRecord
  2
MITTEX2
 70
     0
  3
Mitte (2x) ________  __  ________  __  _____
 72
    65
 73
     4
 40
4.0
 49
2.5
 74
     0
 49
-0.5
 74
     0
 49
0.5
 74
     0
 49
-0.5
 74
     0
  0
LTYPE
  5
A8
330
146
100
AcDbSymbolTableRecord
100
AcDbLinetypeTableRecord
  2
STRICHLINIEX2
 70
     0
  3
Strichlinie (2x) ____  ____  ____  ____  ____  
 72
    65
 73
     2
 40
1.5
 49
1.0
 74
     0
 49
-0.5
 74
     0
  0
LTYPE
  5
F5
330
146
100
AcDbSymbolTableRecord
100
AcDbLinetypeTableRecord
  2
VERDECKT_SEHR_FEIN
 70
     0
  3
_ _ _ _ _ _ _ _ _ _ _ _ _ _ _ _ _ _ _ _ _ _ _
 72
    65
 73
     2
 40
0.09375
 49
0.0625
 74
     0
 49
-0.03125
 74
     0
  0
ENDTAB
  0
TABLE
  2
LAYER
  5
143
330
0
100
AcDbSymbolTable
 70
    11
  0
LAYER
  5
4
330
143
100
AcDbSymbolTableRecord
100
AcDbLayerTableRecord
  2
0
 70
     0
 62
     7
  6
CONTINUOUS
370
    -3
390
5
  0
LAYER
  5
1A
330
143
100
AcDbSymbolTableRecord
100
AcDbLayerTableRecord
  2
-PROFILAUSSENKANTET
 70
     0
 62
     4
  6
CONTINUOUS
370
    -3
390
5
  0
LAYER
  5
33
330
143
100
AcDbSymbolTableRecord
100
AcDbLayerTableRecord
  2
-DICHTUNG
 70
     0
 62
     3
  6
CONTINUOUS
370
    -3
390
5
  0
LAYER
  5
B7
330
143
100
AcDbSymbolTableRecord
100
AcDbLayerTableRecord
  2
-NORMTEIL
 70
     0
 62
     6
  6
CONTINUOUS
370
    -3
390
5
  0
LAYER
  5
A7
330
143
100
AcDbSymbolTableRecord
100
AcDbLayerTableRecord
  2
-NORMTEIL_VERDECKT
 70
     0
 62
     9
  6
STRICHLINIEX2
370
    -3
390
5
  0
LAYER
  5
2D
330
143
100
AcDbSymbolTableRecord
100
AcDbLayerTableRecord
  2
DEFPOINTS
 70
     0
 62
     7
  6
CONTINUOUS
290
     0
370
    -3
390
5
  0
LAYER
  5
15
330
143
100
AcDbSymbolTableRecord
100
AcDbLayerTableRecord
  2
-SYSTEM
 70
     0
 62
     2
  6
MITTEX2
370
    -3
390
5
  0
LAYER
  5
10
330
143
100
AcDbSymbolTableRecord
100
AcDbLayerTableRecord
  2
-TEXT2
 70
     0
 62
     3
  6
CONTINUOUS
370
    -3
390
5
  0
LAYER
  5
A
330
143
100
AcDbSymbolTableRecord
100
AcDbLayerTableRecord
  2
-TEXT3
 70
     0
 62
     2
  6
CONTINUOUS
370
    -3
390
5
  0
LAYER
  5
18
330
143
100
AcDbSymbolTableRecord
100
AcDbLayerTableRecord
  2
-SCHRAFFUR
 70
     0
 62
     9
  6
CONTINUOUS
370
    -3
390
5
  0
LAYER
  5
E
330
143
100
AcDbSymbolTableRecord
100
AcDbLayerTableRecord
  2
-VERGLASUNG
 70
     0
 62
     1
  6
CONTINUOUS
370
    -3
390
5
  0
ENDTAB
  0
TABLE
  2
STYLE
  5
144
330
0
100
AcDbSymbolTable
 70
     1
  0
STYLE
  5
11
330
144
100
AcDbSymbolTableRecord
100
AcDbTextStyleTableRecord
  2
STANDARD
 70
     0
 40
0.0
 41
1.0
 50
0.0
 71
     0
 42
0.2
  3
GOTHIC.TTF
  4

1001
ACAD
1000
Century Gothic
1071
       34
  0
ENDTAB
  0
TABLE
  2
VIEW
  5
149
330
0
100
AcDbSymbolTable
 70
     0
  0
ENDTAB
  0
TABLE
  2
UCS
  5
14A
330
0
100
AcDbSymbolTable
 70
     0
  0
ENDTAB
  0
TABLE
  2
APPID
  5
14D
330
0
100
AcDbSymbolTable
 70
     1
  0
APPID
  5
12
330
14D
100
AcDbSymbolTableRecord
100
AcDbRegAppTableRecord
  2
ACAD
 70
     0
  0
ENDTAB
  0
TABLE
  2
DIMSTYLE
  5
14E
330
0
100
AcDbSymbolTable
 70
     2
100
AcDbDimStyleTable
 71
     1
340
23
  0
DIMSTYLE
105
23
102
{ACAD_REACTORS
330
22
330
4D
330
5D
330
78
330
85
330
99
102
}
330
14E
100
AcDbSymbolTableRecord
100
AcDbDimStyleTableRecord
  2
1-1PRO
 70
     0
 41
3.5
 42
2.0
 43
2.0
 44
1.5
 73
     0
 74
     0
 77
     1
 78
     9
140
4.0
147
1.0
176
   256
177
   256
178
   256
271
     1
272
     1
340
11
  0
DIMSTYLE
105
38
102
{ACAD_REACTORS
330
37
330
6A
102
}
330
14E
100
AcDbSymbolTableRecord
100
AcDbDimStyleTableRecord
  2
1-1PRO-PU
 70
     0
 41
3.5
 42
2.0
 43
2.0
 44
1.5
 73
     0
 74
     0
 77
     1
 78
     9
140
4.0
147
1.0
173
     1
176
   256
177
   256
178
   256
271
     1
272
     1
340
11
344
39
  0
ENDTAB
  0
TABLE
  2
BLOCK_RECORD
  5
1
330
0
100
AcDbSymbolTable
 70
    11
  0
BLOCK_RECORD
  5
2
330
1
100
AcDbSymbolTableRecord
100
AcDbBlockTableRecord
  2
*MODEL_SPACE
340
13D
  0
BLOCK_RECORD
  5
13F
330
1
100
AcDbSymbolTableRecord
100
AcDbBlockTableRecord
  2
*PAPER_SPACE
340
142
  0
BLOCK_RECORD
  5
F2
330
1
100
AcDbSymbolTableRecord
100
AcDbBlockTableRecord
  2
96-8
340
0
102
{BLKREFS
331
F1
102
}
  0
BLOCK_RECORD
  5
B
330
1
100
AcDbSymbolTableRecord
100
AcDbBlockTableRecord
  2
ANSICHT35
340
0
102
{BLKREFS
331
9
102
}
  0
BLOCK_RECORD
  5
39
330
1
100
AcDbSymbolTableRecord
100
AcDbBlockTableRecord
  2
_DOTBLANK
340
0
102
{BLKREFS
331
45
331
72
102
}
  0
BLOCK_RECORD
  5
24
330
1
100
AcDbSymbolTableRecord
100
AcDbBlockTableRecord
  2
*D3
340
0
  0
BLOCK_RECORD
  5
3E
330
1
100
AcDbSymbolTableRecord
100
AcDbBlockTableRecord
  2
*D4
340
0
  0
BLOCK_RECORD
  5
4E
330
1
100
AcDbSymbolTableRecord
100
AcDbBlockTableRecord
  2
*D5
340
0
  0
BLOCK_RECORD
  5
5E
330
1
100
AcDbSymbolTableRecord
100
AcDbBlockTableRecord
  2
*D6
340
0
  0
BLOCK_RECORD
  5
6B
330
1
100
AcDbSymbolTableRecord
100
AcDbBlockTableRecord
  2
*D7
340
0
  0
BLOCK_RECORD
  5
79
330
1
100
AcDbSymbolTableRecord
100
AcDbBlockTableRecord
  2
*D8
340
0
  0
BLOCK_RECORD
  5
86
330
1
100
AcDbSymbolTableRecord
100
AcDbBlockTableRecord
  2
*D9
340
0
  0
BLOCK_RECORD
  5
9A
330
1
100
AcDbSymbolTableRecord
100
AcDbBlockTableRecord
  2
*D10
340
0
  0
ENDTAB
  0
ENDSEC
  0
SECTION
  2
BLOCKS
  0
BLOCK
  5
3
330
2
100
AcDbEntity
  8
0
100
AcDbBlockBegin
  2
*MODEL_SPACE
 70
     0
 10
0.0
 20
0.0
 30
0.0
  3
*MODEL_SPACE
  1

  0
ENDBLK
  5
13C
330
2
100
AcDbEntity
  8
0
100
AcDbBlockEnd
  0
BLOCK
  5
140
330
13F
100
AcDbEntity
 67
     1
  8
0
100
AcDbBlockBegin
  2
*PAPER_SPACE
 70
     0
 10
0.0
 20
0.0
 30
0.0
  3
*PAPER_SPACE
  1

  0
ENDBLK
  5
141
330
13F
100
AcDbEntity
 67
     1
  8
0
100
AcDbBlockEnd
  0
BLOCK
  5
F3
330
F2
100
AcDbEntity
  8
0
100
AcDbBlockBegin
  2
96-8
 70
     0
 10
0.0
 20
0.0
 30
0.0
  3
96-8
  1

  0
LINE
  5
F4
330
F2
100
AcDbEntity
  8
-NORMTEIL
  6
VERDECKT_SEHR_FEIN
100
AcDbLine
 10
3.201096372196161
 20
-10.51813123500324
 30
0.0
 11
3.099210591401515
 21
-12.46222774486341
 31
0.0
  0
LINE
  5
F6
330
F2
100
AcDbEntity
  8
-NORMTEIL
  6
VERDECKT_SEHR_FEIN
100
AcDbLine
 10
-3.201096372196161
 20
-10.51813123500324
 30
0.0
 11
-3.187492385793575
 21
-10.77771075906867
 31
0.0
  0
LINE
  5
F7
330
F2
100
AcDbEntity
  8
-NORMTEIL
  6
VERDECKT_SEHR_FEIN
100
AcDbLine
 10
3.099210591401515
 20
-12.46222774486341
 30
0.0
 11
3.846410600366425
 21
-13.49066032817745
 31
0.0
  0
LINE
  5
F8
330
F2
100
AcDbEntity
  8
-NORMTEIL
  6
VERDECKT_SEHR_FEIN
100
AcDbLine
 10
3.846410600366425
 20
-13.49066032817745
 30
0.0
 11
3.013602315181742
 21
-14.09573096504118
 31
0.0
  0
LINE
  5
F9
330
F2
100
AcDbEntity
  8
-NORMTEIL
  6
VERDECKT_SEHR_FEIN
100
AcDbLine
 10
3.013602315181742
 20
-14.09573096504118
 30
0.0
 11
2.927994038960832
 21
-15.72923418521895
 31
0.0
  0
LINE
  5
FA
330
F2
100
AcDbEntity
  8
-NORMTEIL
  6
VERDECKT_SEHR_FEIN
100
AcDbLine
 10
-3.187492385792438
 20
-10.77771075906867
 30
0.0
 11
-3.955976575233535
 21
-11.4000169854421
 31
0.0
  0
LINE
  5
FB
330
F2
100
AcDbEntity
  8
-NORMTEIL
  6
VERDECKT_SEHR_FEIN
100
AcDbLine
 10
-3.955976575233535
 20
-11.4000169854421
 30
0.0
 11
-3.099445536258826
 21
-12.45774472995435
 31
0.0
  0
LINE
  5
FC
330
F2
100
AcDbEntity
  8
-NORMTEIL
  6
VERDECKT_SEHR_FEIN
100
AcDbLine
 10
-3.011398686725215
 20
-14.13777870084004
 30
0.0
 11
-3.779882876165174
 21
-14.76008492721121
 31
0.0
  0
LINE
  5
FD
330
F2
100
AcDbEntity
  8
-NORMTEIL
  6
VERDECKT_SEHR_FEIN
100
AcDbLine
 10
-3.779882876165174
 20
-14.76008492721121
 30
0.0
 11
-2.923351837190466
 21
-15.81781267172346
 31
0.0
  0
LINE
  5
FE
330
F2
100
AcDbEntity
  8
-NORMTEIL
  6
VERDECKT_SEHR_FEIN
100
AcDbLine
 10
-3.099445536259963
 20
-12.45774472995435
 30
0.0
 11
-3.011398686725215
 21
-14.13777870084004
 31
0.0
  0
LINE
  5
FF
330
F2
100
AcDbEntity
  8
-NORMTEIL
  6
VERDECKT_SEHR_FEIN
100
AcDbLine
 10
-3.187492385792438
 20
-10.77771075906867
 30
0.0
 11
3.099210591401515
 21
-12.46222774486341
 31
0.0
  0
LINE
  5
100
330
F2
100
AcDbEntity
  8
-NORMTEIL
  6
VERDECKT_SEHR_FEIN
100
AcDbLine
 10
-3.099445536258826
 20
-12.45774472995435
 30
0.0
 11
3.013602315181742
 21
-14.09573096504118
 31
0.0
  0
LINE
  5
101
330
F2
100
AcDbEntity
  8
-NORMTEIL
  6
VERDECKT_SEHR_FEIN
100
AcDbLine
 10
-3.011398686725215
 20
-14.13777870084004
 30
0.0
 11
2.927994038959695
 21
-15.72923418521895
 31
0.0
  0
LINE
  5
102
330
F2
100
AcDbEntity
  8
-NORMTEIL
  6
VERDECKT_SEHR_FEIN
100
AcDbLine
 10
-3.099445536258826
 20
-12.45774472995435
 30
0.0
 11
3.099210591401515
 21
-12.46222774486341
 31
0.0
  0
LINE
  5
103
330
F2
100
AcDbEntity
  8
-NORMTEIL
  6
VERDECKT_SEHR_FEIN
100
AcDbLine
 10
-2.923351837191603
 20
-15.81781267172346
 30
0.0
 11
2.927994038959695
 21
-15.72923418521895
 31
0.0
  0
LINE
  5
104
330
F2
100
AcDbEntity
  8
-NORMTEIL
  6
VERDECKT_SEHR_FEIN
100
AcDbLine
 10
3.675194047923469
 20
-16.757666768533
 30
0.0
 11
2.842385762738786
 21
-17.36273740539445
 31
0.0
  0
LINE
  5
105
330
F2
100
AcDbEntity
  8
-NORMTEIL
  6
VERDECKT_SEHR_FEIN
100
AcDbLine
 10
2.756777486516739
 20
-18.99624062557222
 30
0.0
 11
3.503977495481649
 21
-20.02467320888627
 31
0.0
  0
LINE
  5
106
330
F2
100
AcDbEntity
  8
-NORMTEIL
  6
VERDECKT_SEHR_FEIN
100
AcDbLine
 10
3.503977495481649
 20
-20.02467320888627
 30
0.0
 11
2.671169210295829
 21
-20.62974384575
 31
0.0
  0
LINE
  5
107
330
F2
100
AcDbEntity
  8
-NORMTEIL
  6
VERDECKT_SEHR_FEIN
100
AcDbLine
 10
2.585560934074919
 20
-22.26324706592777
 30
0.0
 11
3.332760943039829
 21
-23.29167964924181
 31
0.0
  0
LINE
  5
108
330
F2
100
AcDbEntity
  8
-NORMTEIL
  6
VERDECKT_SEHR_FEIN
100
AcDbLine
 10
3.332760943039829
 20
-23.29167964924181
 30
0.0
 11
2.499952657852873
 21
-23.89675028610327
 31
0.0
  0
LINE
  5
109
330
F2
100
AcDbEntity
  8
-NORMTEIL
  6
VERDECKT_SEHR_FEIN
100
AcDbLine
 10
2.842385762738786
 20
-17.36273740539445
 30
0.0
 11
2.756777486516739
 21
-18.99624062557222
 31
0.0
  0
LINE
  5
10A
330
F2
100
AcDbEntity
  8
-NORMTEIL
  6
VERDECKT_SEHR_FEIN
100
AcDbLine
 10
2.671169210295829
 20
-20.62974384575
 30
0.0
 11
2.585560934074919
 21
-22.26324706592777
 31
0.0
  0
LINE
  5
10B
330
F2
100
AcDbEntity
  8
-NORMTEIL
  6
VERDECKT_SEHR_FEIN
100
AcDbLine
 10
-2.483117589520134
 20
-24.21798252614963
 30
0.0
 11
-3.251601778960093
 21
-24.84028875252079
 31
0.0
  0
LINE
  5
10C
330
F2
100
AcDbEntity
  8
-NORMTEIL
  6
VERDECKT_SEHR_FEIN
100
AcDbLine
 10
-2.835304987655717
 20
-17.49784664260914
 30
0.0
 11
-3.603789177095677
 21
-18.12015286898031
 31
0.0
  0
LINE
  5
10D
330
F2
100
AcDbEntity
  8
-NORMTEIL
  6
VERDECKT_SEHR_FEIN
100
AcDbLine
 10
-3.603789177095677
 20
-18.12015286898031
 30
0.0
 11
-2.747258138122106
 21
-19.17788061349483
 31
0.0
  0
LINE
  5
10E
330
F2
100
AcDbEntity
  8
-NORMTEIL
  6
VERDECKT_SEHR_FEIN
100
AcDbLine
 10
-2.659211288588494
 20
-20.85791458437825
 30
0.0
 11
-3.427695478028454
 21
-21.48022081075169
 31
0.0
  0
LINE
  5
10F
330
F2
100
AcDbEntity
  8
-NORMTEIL
  6
VERDECKT_SEHR_FEIN
100
AcDbLine
 10
-3.427695478028454
 20
-21.48022081075169
 30
0.0
 11
-2.571164439053745
 21
-22.53794855526394
 31
0.0
  0
LINE
  5
110
330
F2
100
AcDbEntity
  8
-NORMTEIL
  6
VERDECKT_SEHR_FEIN
100
AcDbLine
 10
-2.571164439053745
 20
-22.53794855526394
 30
0.0
 11
-2.483117589520134
 21
-24.21798252614963
 31
0.0
  0
LINE
  5
111
330
F2
100
AcDbEntity
  8
-NORMTEIL
  6
VERDECKT_SEHR_FEIN
100
AcDbLine
 10
-2.747258138122106
 20
-19.17788061349483
 30
0.0
 11
-2.659211288588494
 21
-20.85791458437825
 31
0.0
  0
LINE
  5
112
330
F2
100
AcDbEntity
  8
-NORMTEIL
  6
VERDECKT_SEHR_FEIN
100
AcDbLine
 10
-2.835304987655717
 20
-17.49784664260914
 30
0.0
 11
2.756777486516739
 21
-18.99624062557222
 31
0.0
  0
LINE
  5
113
330
F2
100
AcDbEntity
  8
-NORMTEIL
  6
VERDECKT_SEHR_FEIN
100
AcDbLine
 10
-2.747258138122106
 20
-19.17788061349483
 30
0.0
 11
2.671169210295829
 21
-20.62974384575
 31
0.0
  0
LINE
  5
114
330
F2
100
AcDbEntity
  8
-NORMTEIL
  6
VERDECKT_SEHR_FEIN
100
AcDbLine
 10
-2.659211288587357
 20
-20.85791458437825
 30
0.0
 11
2.585560934074919
 21
-22.26324706592777
 31
0.0
  0
LINE
  5
115
330
F2
100
AcDbEntity
  8
-NORMTEIL
  6
VERDECKT_SEHR_FEIN
100
AcDbLine
 10
-2.571164439053745
 20
-22.53794855526394
 30
0.0
 11
2.499952657852873
 21
-23.89675028610327
 31
0.0
  0
LINE
  5
116
330
F2
100
AcDbEntity
  8
-NORMTEIL
  6
VERDECKT_SEHR_FEIN
100
AcDbLine
 10
-2.747258138122106
 20
-19.17788061349483
 30
0.0
 11
2.756777486516739
 21
-18.99624062557222
 31
0.0
  0
LINE
  5
117
330
F2
100
AcDbEntity
  8
-NORMTEIL
  6
VERDECKT_SEHR_FEIN
100
AcDbLine
 10
-2.571164439053745
 20
-22.53794855526394
 30
0.0
 11
2.585560934074919
 21
-22.26324706592777
 31
0.0
  0
ARC
  5
118
330
F2
100
AcDbEntity
  8
-NORMTEIL
  6
VERDECKT_SEHR_FEIN
100
AcDbCircle
 10
-13.23638481396074
 20
-24.70450368968159
 30
0.0
 40
15.70250558145388
100
AcDbArc
 50
345.1937303175753
 51
351.0430563451842
  0
LINE
  5
119
330
F2
100
AcDbEntity
  8
-NORMTEIL
  6
VERDECKT_SEHR_FEIN
100
AcDbLine
 10
2.4143443816331
 20
-25.53025350628104
 30
0.0
 11
3.16147553146834
 21
-26.56000000002905
 31
0.0
  0
LINE
  5
11A
330
F2
100
AcDbEntity
  8
-NORMTEIL
  6
VERDECKT_SEHR_FEIN
100
AcDbLine
 10
3.16147553146834
 20
-26.56000000002905
 30
0.0
 11
2.274638420640258
 21
-27.14926129551259
 31
0.0
  0
LINE
  5
11B
330
F2
100
AcDbEntity
  8
-NORMTEIL
  6
VERDECKT_SEHR_FEIN
100
AcDbLine
 10
1.944725825741215
 20
-28.7173033707927
 30
0.0
 11
2.494162969512672
 21
-29.69274555408447
 31
0.0
  0
LINE
  5
11C
330
F2
100
AcDbEntity
  8
-NORMTEIL
  6
VERDECKT_SEHR_FEIN
100
AcDbLine
 10
2.494162969512672
 20
-29.69274555408447
 30
0.0
 11
1.456923460410735
 21
-30.24303900959239
 31
0.0
  0
LINE
  5
11D
330
F2
100
AcDbEntity
  8
-NORMTEIL
  6
VERDECKT_SEHR_FEIN
100
AcDbLine
 10
0.808882507352564
 20
-31.72583884821506
 30
0.0
 11
1.219655507350125
 21
-32.66412608616292
 31
0.0
  0
ARC
  5
11E
330
F2
100
AcDbEntity
  8
-NORMTEIL
  6
VERDECKT_SEHR_FEIN
100
AcDbCircle
 10
-13.23638481396074
 20
-24.70450368968159
 30
0.0
 40
15.70250558145388
100
AcDbArc
 50
333.439186631502
 51
339.3464315262252
  0
ARC
  5
11F
330
F2
100
AcDbEntity
  8
-NORMTEIL
  6
VERDECKT_SEHR_FEIN
100
AcDbCircle
 10
13.23638481396074
 20
-24.70450368968159
 30
0.0
 40
15.70250558145388
100
AcDbArc
 50
197.3340767728676
 51
204.5498658763077
  0
LINE
  5
120
330
F2
100
AcDbEntity
  8
-NORMTEIL
  6
VERDECKT_SEHR_FEIN
100
AcDbLine
 10
-2.19535361094131
 20
-27.60797242913213
 30
0.0
 11
-2.880159218040034
 21
-28.25270026406542
 31
0.0
  0
LINE
  5
121
330
F2
100
AcDbEntity
  8
-NORMTEIL
  6
VERDECKT_SEHR_FEIN
100
AcDbLine
 10
-2.880159218040034
 20
-28.25270026406542
 30
0.0
 11
-1.752972105628032
 21
-29.38295008488239
 31
0.0
  0
LINE
  5
122
330
F2
100
AcDbEntity
  8
-NORMTEIL
  6
VERDECKT_SEHR_FEIN
100
AcDbLine
 10
-1.046614403040848
 20
-31.22865994951553
 30
0.0
 11
-1.612210883017723
 21
-31.90532977379235
 31
0.0
  0
ARC
  5
123
330
F2
100
AcDbEntity
  8
-NORMTEIL
  6
VERDECKT_SEHR_FEIN
100
AcDbCircle
 10
13.23638481396074
 20
-24.70450368968159
 30
0.0
 40
15.70250558145388
100
AcDbArc
 50
186.4558313866915
 51
190.6555823996889
  0
LINE
  5
124
330
F2
100
AcDbEntity
  8
-NORMTEIL
  6
VERDECKT_SEHR_FEIN
100
AcDbLine
 10
-2.395070739985385
 20
-25.89801649703304
 30
0.0
 11
-2.362571903667003
 21
-26.51813123501142
 31
0.0
  0
LINE
  5
125
330
F2
100
AcDbEntity
  8
-NORMTEIL
  6
VERDECKT_SEHR_FEIN
100
AcDbLine
 10
-2.19535361094131
 20
-27.60797242913213
 30
0.0
 11
1.944725825741215
 21
-28.7173033707927
 31
0.0
  0
LINE
  5
126
330
F2
100
AcDbEntity
  8
-NORMTEIL
  6
VERDECKT_SEHR_FEIN
100
AcDbLine
 10
-1.752972105628032
 20
-29.38295008488239
 30
0.0
 11
1.456923460410735
 21
-30.24303900959239
 31
0.0
  0
LINE
  5
127
330
F2
100
AcDbEntity
  8
-NORMTEIL
  6
VERDECKT_SEHR_FEIN
100
AcDbLine
 10
-1.046614403040848
 20
-31.22865994951553
 30
0.0
 11
0.808882507352564
 21
-31.72583884821506
 31
0.0
  0
LINE
  5
128
330
F2
100
AcDbEntity
  8
-NORMTEIL
  6
VERDECKT_SEHR_FEIN
100
AcDbLine
 10
-1.612210883017723
 20
-31.90532977379235
 30
0.0
 11
1.219655507350125
 21
-32.66412608616292
 31
0.0
  0
LINE
  5
129
330
F2
100
AcDbEntity
  8
-NORMTEIL
  6
VERDECKT_SEHR_FEIN
100
AcDbLine
 10
-1.612210883017723
 20
-31.90532977379235
 30
0.0
 11
1.219655507350125
 21
-32.66412608616292
 31
0.0
  0
LINE
  5
12A
330
F2
100
AcDbEntity
  8
-NORMTEIL
  6
VERDECKT_SEHR_FEIN
100
AcDbLine
 10
-2.395070739985385
 20
-25.89801649703304
 30
0.0
 11
2.27463842058114
 21
-27.14926129549667
 31
0.0
  0
LINE
  5
12B
330
F2
100
AcDbEntity
  8
-NORMTEIL
  6
VERDECKT_SEHR_FEIN
100
AcDbLine
 10
-2.395070739985385
 20
-25.89801649703304
 30
0.0
 11
2.4143443816331
 21
-25.53025350628104
 31
0.0
  0
LINE
  5
12C
330
F2
100
AcDbEntity
  8
-NORMTEIL
  6
VERDECKT_SEHR_FEIN
100
AcDbLine
 10
-1.752972105628032
 20
-29.38295008488239
 30
0.0
 11
1.944725825741215
 21
-28.7173033707927
 31
0.0
  0
LINE
  5
12D
330
F2
100
AcDbEntity
  8
-NORMTEIL
  6
VERDECKT_SEHR_FEIN
100
AcDbLine
 10
-1.039966458331491
 20
-32.05866220525877
 30
0.0
 11
0.808882507352564
 21
-31.72583884821506
 31
0.0
  0
LINE
  5
12E
330
F2
100
AcDbEntity
  8
-NORMTEIL
  6
VERDECKT_SEHR_FEIN
100
AcDbLine
 10
-2.483117589520134
 20
-24.21798252614963
 30
0.0
 11
2.414344381631963
 21
-25.53025350628104
 31
0.0
  0
LINE
  5
12F
330
F2
100
AcDbEntity
  8
-NORMTEIL
  6
VERDECKT_SEHR_FEIN
100
AcDbLine
 10
2.499952657852873
 20
-23.89675028610327
 30
0.0
 11
2.414344381631963
 21
-25.53025350628104
 31
0.0
  0
LINE
  5
130
330
F2
100
AcDbEntity
  8
-NORMTEIL
  6
VERDECKT_SEHR_FEIN
100
AcDbLine
 10
-3.251601778960093
 20
-24.84028875252079
 30
0.0
 11
-2.395070739985385
 21
-25.89801649703304
 31
0.0
  0
ARC
  5
131
330
F2
100
AcDbEntity
  8
-NORMTEIL
  6
VERDECKT_SEHR_FEIN
100
AcDbCircle
 10
-13.23638481396074
 20
-24.70450368968159
 30
0.0
 40
16.50250558145388
100
AcDbArc
 50
323.3295098482051
 51
331.1624344669203
  0
ARC
  5
132
330
F2
100
AcDbEntity
  8
-NORMTEIL
  6
VERDECKT_SEHR_FEIN
100
AcDbCircle
 10
13.23638481396074
 20
-24.70450368968159
 30
0.0
 40
16.50250558145388
100
AcDbArc
 50
205.8710646891886
 51
216.6704901517949
  0
LINE
  5
133
330
F2
100
AcDbEntity
  8
-NORMTEIL
  6
VERDECKT_SEHR_FEIN
100
AcDbLine
 10
-2.923351837190466
 20
-15.81781267172346
 30
0.0
 11
2.842385762738786
 21
-17.36273740539445
 31
0.0
  0
LINE
  5
134
330
F2
100
AcDbEntity
  8
-NORMTEIL
  6
VERDECKT_SEHR_FEIN
100
AcDbLine
 10
-2.923351837191603
 20
-15.81781267172346
 30
0.0
 11
-2.835304987656854
 21
-17.49784664260914
 31
0.0
  0
LINE
  5
135
330
F2
100
AcDbEntity
  8
-NORMTEIL
  6
VERDECKT_SEHR_FEIN
100
AcDbLine
 10
2.927994038959695
 20
-15.72923418521895
 30
0.0
 11
3.675194047923469
 21
-16.757666768533
 31
0.0
  0
LINE
  5
136
330
F2
100
AcDbEntity
  8
-NORMTEIL
  6
VERDECKT_SEHR_FEIN
100
AcDbLine
 10
-3.999999999999772
 20
-10.55999999999812
 30
0.0
 11
3.999999999998635
 21
-10.55999999999812
 31
0.0
  0
LINE
  5
137
330
F2
100
AcDbEntity
  8
-NORMTEIL
  6
VERDECKT_SEHR_FEIN
100
AcDbLine
 10
-3.999999999999772
 20
-10.55999999999812
 30
0.0
 11
-3.999999999999772
 21
0.0
 31
0.0
  0
LINE
  5
138
330
F2
100
AcDbEntity
  8
-NORMTEIL
  6
VERDECKT_SEHR_FEIN
100
AcDbLine
 10
3.999999999999772
 20
-10.55999999999812
 30
0.0
 11
3.999999999999772
 21
0.0
 31
0.0
  0
LWPOLYLINE
  5
139
330
F2
100
AcDbEntity
  8
-NORMTEIL
100
AcDbPolyline
 90
       10
 70
     1
 43
0.0
 10
1.0
 20
5.600000000000022
 10
1.0
 20
1.999999999999886
 10
-1.0
 20
2.000000000000113
 10
-1.0
 20
5.600000000000022
 10
-3.0
 20
5.600000000000022
 42
0.4142135623730951
 10
-8.0
 20
0.6000000000000228
 10
-8.0
 20
0.0
 10
8.0
 20
0.0
 10
8.0
 20
0.6000000000000228
 42
0.4142135623730927
 10
3.0
 20
5.600000000000022
  0
ENDBLK
  5
13A
330
F2
100
AcDbEntity
  8
0
100
AcDbBlockEnd
  0
BLOCK
  5
C
330
B
100
AcDbEntity
  8
0
100
AcDbBlockBegin
  2
ANSICHT35
 70
     0
 10
0.0
 20
0.0
 30
0.0
  3
ANSICHT35
  1

  0
LWPOLYLINE
  5
D
330
B
100
AcDbEntity
  8
-VERGLASUNG
100
AcDbPolyline
 90
        4
 70
     0
 43
0.0
 10
-72.97749106091817
 20
-17.34816104632338
 10
77.99999999997573
 20
-17.34816104632327
 10
79.99999999997573
 20
-19.34816104632327
 10
79.99999999997584
 20
-149.3273672017092
  0
MTEXT
  5
F
330
B
100
AcDbEntity
  8
-TEXT2
100
AcDbMText
 10
49.17713572762614
 20
-5.128944079777738
 30
0.0
 40
3.5
 41
17.9978
 71
     1
 72
     5
  1
{\fArial|b0|i0|c0|p34;Glaskante}
 73
     1
 44
1.0
1001
ACAD
1000
MTEXTBEGIN
1070
    73
1070
     1
1070
    44
1040
1.0
1070
    74
1070
     0
1000
MTEXTEND
  0
LWPOLYLINE
  5
13
330
B
100
AcDbEntity
  8
-TEXT2
100
AcDbPolyline
 90
        3
 70
     1
 43
0.0
 10
57.78044804003911
 20
-17.34816104632335
 10
61.91438540270016
 20
-10.18797149888712
 10
53.64651067737807
 20
-10.18797149888712
  0
LINE
  5
14
330
B
100
AcDbEntity
  8
-SYSTEM
100
AcDbLine
 10
23.99725072773698
 20
-97.34816104632296
 30
0.0
 11
-23.99725072778529
 21
-97.34816104632319
 31
0.0
  0
CIRCLE
  5
17
330
B
100
AcDbEntity
  8
-SCHRAFFUR
100
AcDbCircle
 10
-0.0000000000241576
 20
-97.34816104632306
 30
0.0
 40
15.82879797458653
  0
CIRCLE
  5
19
330
B
100
AcDbEntity
  8
-PROFILAUSSENKANTET
100
AcDbCircle
 10
-0.0000000000241576
 20
-97.34816104632306
 30
0.0
 40
17.5
  0
CIRCLE
  5
1B
330
B
100
AcDbEntity
  8
-PROFILAUSSENKANTET
100
AcDbCircle
 10
6.999999999975842
 20
-97.34816104632303
 30
0.0
 40
1.75
  0
CIRCLE
  5
1C
330
B
100
AcDbEntity
  8
-PROFILAUSSENKANTET
100
AcDbCircle
 10
-0.0000000000241434
 20
-97.34816104632308
 30
0.0
 40
10.0
  0
LINE
  5
1D
330
B
100
AcDbEntity
  8
-SYSTEM
100
AcDbLine
 10
-0.0000000000242698
 20
-73.35091031856193
 30
0.0
 11
-0.0000000000240425
 21
-121.3454117740841
 31
0.0
  0
CIRCLE
  5
1E
330
B
100
AcDbEntity
  8
-PROFILAUSSENKANTET
100
AcDbCircle
 10
-3.500000000024129
 20
-103.4103388728141
 30
0.0
 40
1.75
  0
CIRCLE
  5
1F
330
B
100
AcDbEntity
  8
-PROFILAUSSENKANTET
100
AcDbCircle
 10
-3.500000000024171
 20
-91.28598321983199
 30
0.0
 40
1.75
  0
ENDBLK
  5
20
330
B
100
AcDbEntity
  8
0
100
AcDbBlockEnd
  0
BLOCK
  5
3A
330
39
100
AcDbEntity
  8
0
100
AcDbBlockBegin
  2
_DOTBLANK
 70
     0
 10
0.0
 20
0.0
 30
0.0
  3
_DOTBLANK
  1

  0
CIRCLE
  5
3B
330
39
100
AcDbEntity
  8
0
  6
ByBlock
 62
     0
100
AcDbCircle
 10
0.0
 20
0.0
 30
0.0
 40
0.5
  0
LINE
  5
3C
330
39
100
AcDbEntity
  8
0
  6
ByBlock
 62
     0
100
AcDbLine
 10
-0.5
 20
0.0
 30
0.0
 11
-1.0
 21
0.0
 31
0.0
  0
ENDBLK
  5
3D
330
39
100
AcDbEntity
  8
0
100
AcDbBlockEnd
  0
BLOCK
  5
25
330
24
100
AcDbEntity
  8
0
100
AcDbBlockBegin
  2
*D3
 70
     1
 10
0.0
 20
0.0
 30
0.0
  3
*D3
  1

  0
LINE
  5
26
330
24
100
AcDbEntity
  8
-TEXT3
370
    -2
100
AcDbLine
 10
-17.4999999999759
 20
226.546026421753
 30
0.0
 11
-17.4999999999759
 21
241.7027669557489
 31
0.0
  0
LINE
  5
27
330
24
100
AcDbEntity
  8
-TEXT3
370
    -2
100
AcDbLine
 10
17.5000000000241
 20
226.5460264217529
 30
0.0
 11
17.5000000000241
 21
241.7027669557489
 31
0.0
  0
LINE
  5
28
330
24
100
AcDbEntity
  8
-TEXT3
370
    -2
100
AcDbLine
 10
-13.9999999999759
 20
240.2027669557489
 30
0.0
 11
14.0000000000241
 21
240.2027669557489
 31
0.0
  0
SOLID
  5
29
330
24
100
AcDbEntity
  8
-TEXT3
100
AcDbTrace
 10
-13.9999999999759
 20
240.7861002890823
 30
0.0
 11
-13.9999999999759
 21
239.6194336224156
 31
0.0
 12
-17.4999999999759
 22
240.2027669557489
 32
0.0
 13
-17.4999999999759
 23
240.2027669557489
 33
0.0
  0
SOLID
  5
2A
330
24
100
AcDbEntity
  8
-TEXT3
100
AcDbTrace
 10
14.0000000000241
 20
240.7861002890823
 30
0.0
 11
14.0000000000241
 21
239.6194336224156
 31
0.0
 12
17.5000000000241
 22
240.2027669557489
 32
0.0
 13
17.5000000000241
 23
240.2027669557489
 33
0.0
  0
MTEXT
  5
2B
330
24
100
AcDbEntity
  8
-TEXT3
100
AcDbMText
 10
0.0000000000224818
 20
243.4284637606435
 30
0.0
 40
4.0
 41
0.0
 71
     5
 72
     1
  1
\A1;%%c35
 73
     1
 44
1.0
1001
ACAD
1000
MTEXTBEGIN
1070
    73
1070
     1
1070
    44
1040
1.0
1070
    74
1070
     0
1000
MTEXTEND
  0
POINT
  5
2C
330
24
100
AcDbEntity
  8
DEFPOINTS
 62
     0
100
AcDbPoint
 10
-17.4999999999759
 20
224.546026421753
 30
0.0
  0
POINT
  5
2E
330
24
100
AcDbEntity
  8
DEFPOINTS
 62
     0
100
AcDbPoint
 10
17.5000000000241
 20
224.5460264217529
 30
0.0
  0
POINT
  5
2F
330
24
100
AcDbEntity
  8
DEFPOINTS
 62
     0
100
AcDbPoint
 10
17.5000000000241
 20
240.2027669557489
 30
0.0
  0
ENDBLK
  5
30
330
24
100
AcDbEntity
  8
0
100
AcDbBlockEnd
  0
BLOCK
  5
3F
330
3E
100
AcDbEntity
  8
0
100
AcDbBlockBegin
  2
*D4
 70
     1
 10
0.0
 20
0.0
 30
0.0
  3
*D4
  1

  0
LINE
  5
40
330
3E
100
AcDbEntity
  8
-TEXT3
370
    -2
100
AcDbLine
 10
-11.01673765427517
 20
228.7402805985194
 30
0.0
 11
-56.295662512028
 21
228.7402805985194
 31
0.0
  0
LINE
  5
41
330
3E
100
AcDbEntity
  8
-TEXT3
370
    -2
100
AcDbLine
 10
-19.49999999997629
 20
223.7402805985196
 30
0.0
 11
-56.295662512028
 21
223.7402805985196
 31
0.0
  0
LINE
  5
42
330
3E
100
AcDbEntity
  8
-TEXT3
370
    -2
100
AcDbLine
 10
-54.795662512028
 20
232.2402805985194
 30
0.0
 11
-54.795662512028
 21
235.7402805985194
 31
0.0
  0
LINE
  5
43
330
3E
100
AcDbEntity
  8
-TEXT3
370
    -2
100
AcDbLine
 10
-54.795662512028
 20
220.2402805985196
 30
0.0
 11
-54.795662512028
 21
216.7402805985196
 31
0.0
  0
SOLID
  5
44
330
3E
100
AcDbEntity
  8
-TEXT3
100
AcDbTrace
 10
-55.37899584536134
 20
232.2402805985194
 30
0.0
 11
-54.21232917869467
 21
232.2402805985194
 31
0.0
 12
-54.795662512028
 22
228.7402805985194
 32
0.0
 13
-54.795662512028
 23
228.7402805985194
 33
0.0
  0
INSERT
  5
45
330
3E
100
AcDbEntity
  8
-TEXT3
370
    -2
100
AcDbBlockReference
  2
_DOTBLANK
 10
-54.795662512028
 20
223.7402805985196
 30
0.0
 41
3.5
 42
3.5
 43
3.5
 50
90.0
  0
MTEXT
  5
46
330
3E
100
AcDbEntity
  8
-TEXT3
100
AcDbMText
 10
-57.84596842637203
 20
226.2402805985195
 30
0.0
 40
4.0
 41
0.0
 71
     5
 72
     1
  1
\A1;5
 11
0.0000000000000001
 21
1.0
 31
0.0
 73
     1
 44
1.0
1001
ACAD
1000
MTEXTBEGIN
1070
    73
1070
     1
1070
    44
1040
1.0
1070
    74
1070
     0
1000
MTEXTEND
  0
POINT
  5
47
330
3E
100
AcDbEntity
  8
DEFPOINTS
 62
     0
100
AcDbPoint
 10
-9.016737654275175
 20
228.7402805985194
 30
0.0
  0
POINT
  5
48
330
3E
100
AcDbEntity
  8
DEFPOINTS
 62
     0
100
AcDbPoint
 10
-17.49999999997629
 20
223.7402805985196
 30
0.0
  0
POINT
  5
49
330
3E
100
AcDbEntity
  8
DEFPOINTS
 62
     0
100
AcDbPoint
 10
-54.795662512028
 20
223.7402805985196
 30
0.0
  0
ENDBLK
  5
4A
330
3E
100
AcDbEntity
  8
0
100
AcDbBlockEnd
  0
BLOCK
  5
4F
330
4E
100
AcDbEntity
  8
0
100
AcDbBlockBegin
  2
*D5
 70
     1
 10
0.0
 20
0.0
 30
0.0
  3
*D5
  1

  0
LINE
  5
50
330
4E
100
AcDbEntity
  8
-TEXT3
370
    -2
100
AcDbLine
 10
-3.749999999975727
 20
119.2260979138577
 30
0.0
 11
-24.45791386315841
 21
119.2260979138577
 31
0.0
  0
LINE
  5
51
330
4E
100
AcDbEntity
  8
-TEXT3
370
    -2
100
AcDbLine
 10
-3.749999999975728
 20
110.7260979138577
 30
0.0
 11
-24.45791386315841
 21
110.7260979138577
 31
0.0
  0
LINE
  5
52
330
4E
100
AcDbEntity
  8
-TEXT3
370
    -2
100
AcDbLine
 10
-22.95791386315841
 20
122.7260979138577
 30
0.0
 11
-22.95791386315841
 21
126.2260979138577
 31
0.0
  0
LINE
  5
53
330
4E
100
AcDbEntity
  8
-TEXT3
370
    -2
100
AcDbLine
 10
-22.95791386315841
 20
107.2260979138577
 30
0.0
 11
-22.95791386315841
 21
94.44397690773939
 31
0.0
  0
SOLID
  5
54
330
4E
100
AcDbEntity
  8
-TEXT3
100
AcDbTrace
 10
-23.54124719649174
 20
122.7260979138577
 30
0.0
 11
-22.37458052982507
 21
122.7260979138577
 31
0.0
 12
-22.95791386315841
 22
119.2260979138577
 32
0.0
 13
-22.95791386315841
 23
119.2260979138577
 33
0.0
  0
SOLID
  5
55
330
4E
100
AcDbEntity
  8
-TEXT3
100
AcDbTrace
 10
-23.54124719649174
 20
107.2260979138577
 30
0.0
 11
-22.37458052982508
 21
107.2260979138577
 31
0.0
 12
-22.95791386315841
 22
110.7260979138577
 32
0.0
 13
-22.95791386315841
 23
110.7260979138577
 33
0.0
  0
MTEXT
  5
56
330
4E
100
AcDbEntity
  8
-TEXT3
100
AcDbMText
 10
-26.05852569184639
 20
99.08503741079854
 30
0.0
 40
4.0
 41
0.0
 71
     5
 72
     1
  1
\A1;8.5
 11
0.0000000000000001
 21
1.0
 31
0.0
 73
     1
 44
1.0
1001
ACAD
1000
MTEXTBEGIN
1070
    73
1070
     1
1070
    44
1040
1.0
1070
    74
1070
     0
1000
MTEXTEND
  0
POINT
  5
57
330
4E
100
AcDbEntity
  8
DEFPOINTS
 62
     0
100
AcDbPoint
 10
-1.749999999975727
 20
119.2260979138577
 30
0.0
  0
POINT
  5
58
330
4E
100
AcDbEntity
  8
DEFPOINTS
 62
     0
100
AcDbPoint
 10
-1.749999999975727
 20
110.7260979138577
 30
0.0
  0
POINT
  5
59
330
4E
100
AcDbEntity
  8
DEFPOINTS
 62
     0
100
AcDbPoint
 10
-22.95791386315841
 20
110.7260979138577
 30
0.0
  0
ENDBLK
  5
5A
330
4E
100
AcDbEntity
  8
0
100
AcDbBlockEnd
  0
BLOCK
  5
5F
330
5E
100
AcDbEntity
  8
0
100
AcDbBlockBegin
  2
*D6
 70
     1
 10
0.0
 20
0.0
 30
0.0
  3
*D6
  1

  0
LINE
  5
60
330
5E
100
AcDbEntity
  8
-TEXT3
370
    -2
100
AcDbLine
 10
-51.70433748792243
 20
220.7402805985196
 30
0.0
 11
-56.295662512028
 21
220.7402805985196
 31
0.0
  0
LINE
  5
61
330
5E
100
AcDbEntity
  8
-TEXT3
370
    -2
100
AcDbLine
 10
-51.70433748792243
 20
208.740280598519
 30
0.0
 11
-56.295662512028
 21
208.740280598519
 31
0.0
  0
LINE
  5
62
330
5E
100
AcDbEntity
  8
-TEXT3
370
    -2
100
AcDbLine
 10
-54.795662512028
 20
217.2402805985196
 30
0.0
 11
-54.795662512028
 21
212.2402805985189
 31
0.0
  0
SOLID
  5
63
330
5E
100
AcDbEntity
  8
-TEXT3
100
AcDbTrace
 10
-55.37899584536134
 20
217.2402805985196
 30
0.0
 11
-54.21232917869467
 21
217.2402805985196
 31
0.0
 12
-54.795662512028
 22
220.7402805985196
 32
0.0
 13
-54.795662512028
 23
220.7402805985196
 33
0.0
  0
SOLID
  5
64
330
5E
100
AcDbEntity
  8
-TEXT3
100
AcDbTrace
 10
-55.37899584536134
 20
212.2402805985189
 30
0.0
 11
-54.21232917869467
 21
212.2402805985189
 31
0.0
 12
-54.795662512028
 22
208.740280598519
 32
0.0
 13
-54.795662512028
 23
208.740280598519
 33
0.0
  0
MTEXT
  5
65
330
5E
100
AcDbEntity
  8
-TEXT3
100
AcDbMText
 10
-57.89627434071601
 20
214.7402805985193
 30
0.0
 40
4.0
 41
0.0
 71
     5
 72
     1
  1
\A1;G
 11
0.0000000000000001
 21
1.0
 31
0.0
 73
     1
 44
1.0
1001
ACAD
1000
MTEXTBEGIN
1070
    73
1070
     1
1070
    44
1040
1.0
1070
    74
1070
     0
1000
MTEXTEND
  0
POINT
  5
66
330
5E
100
AcDbEntity
  8
DEFPOINTS
 62
     0
100
AcDbPoint
 10
-49.70433748792243
 20
220.7402805985196
 30
0.0
  0
POINT
  5
67
330
5E
100
AcDbEntity
  8
DEFPOINTS
 62
     0
100
AcDbPoint
 10
-49.70433748792243
 20
208.740280598519
 30
0.0
  0
POINT
  5
68
330
5E
100
AcDbEntity
  8
DEFPOINTS
 62
     0
100
AcDbPoint
 10
-54.795662512028
 20
208.740280598519
 30
0.0
  0
ENDBLK
  5
69
330
5E
100
AcDbEntity
  8
0
100
AcDbBlockEnd
  0
BLOCK
  5
6C
330
6B
100
AcDbEntity
  8
0
100
AcDbBlockBegin
  2
*D7
 70
     1
 10
0.0
 20
0.0
 30
0.0
  3
*D7
  1

  0
LINE
  5
6D
330
6B
100
AcDbEntity
  8
-TEXT3
370
    -2
100
AcDbLine
 10
-51.70433748792243
 20
220.7402805985196
 30
0.0
 11
-56.29566251202796
 21
220.7402805985196
 31
0.0
  0
LINE
  5
6E
330
6B
100
AcDbEntity
  8
-TEXT3
370
    -2
100
AcDbLine
 10
-19.49999999997629
 20
223.7402805985196
 30
0.0
 11
-56.29566251202796
 21
223.7402805985196
 31
0.0
  0
LINE
  5
6F
330
6B
100
AcDbEntity
  8
-TEXT3
370
    -2
100
AcDbLine
 10
-54.79566251202797
 20
217.2402805985196
 30
0.0
 11
-54.79566251202797
 21
213.7402805985196
 31
0.0
  0
LINE
  5
70
330
6B
100
AcDbEntity
  8
-TEXT3
370
    -2
100
AcDbLine
 10
-54.79566251202797
 20
227.2402805985196
 30
0.0
 11
-54.79566251202797
 21
230.7402805985196
 31
0.0
  0
SOLID
  5
71
330
6B
100
AcDbEntity
  8
-TEXT3
100
AcDbTrace
 10
-55.3789958453613
 20
217.2402805985196
 30
0.0
 11
-54.21232917869463
 21
217.2402805985196
 31
0.0
 12
-54.79566251202797
 22
220.7402805985196
 32
0.0
 13
-54.79566251202797
 23
220.7402805985196
 33
0.0
  0
INSERT
  5
72
330
6B
100
AcDbEntity
  8
-TEXT3
370
    -2
100
AcDbBlockReference
  2
_DOTBLANK
 10
-54.79566251202797
 20
223.7402805985196
 30
0.0
 41
3.5
 42
3.5
 43
3.5
 50
270.0
  0
MTEXT
  5
73
330
6B
100
AcDbEntity
  8
-TEXT3
100
AcDbMText
 10
-57.89627434071597
 20
222.2402805985196
 30
0.0
 40
4.0
 41
0.0
 71
     5
 72
     1
  1
\A1;3
 11
0.0000000000000001
 21
1.0
 31
0.0
 73
     1
 44
1.0
1001
ACAD
1000
MTEXTBEGIN
1070
    73
1070
     1
1070
    44
1040
1.0
1070
    74
1070
     0
1000
MTEXTEND
  0
POINT
  5
74
330
6B
100
AcDbEntity
  8
DEFPOINTS
 62
     0
100
AcDbPoint
 10
-49.70433748792243
 20
220.7402805985196
 30
0.0
  0
POINT
  5
75
330
6B
100
AcDbEntity
  8
DEFPOINTS
 62
     0
100
AcDbPoint
 10
-17.49999999997629
 20
223.7402805985196
 30
0.0
  0
POINT
  5
76
330
6B
100
AcDbEntity
  8
DEFPOINTS
 62
     0
100
AcDbPoint
 10
-54.79566251202797
 20
223.7402805985196
 30
0.0
  0
ENDBLK
  5
77
330
6B
100
AcDbEntity
  8
0
100
AcDbBlockEnd
  0
BLOCK
  5
7A
330
79
100
AcDbEntity
  8
0
100
AcDbBlockBegin
  2
*D8
 70
     1
 10
0.0
 20
0.0
 30
0.0
  3
*D8
  1

  0
LINE
  5
7B
330
79
100
AcDbEntity
  8
-TEXT3
370
    -2
100
AcDbLine
 10
-20.7956625120282
 20
205.7402805985188
 30
0.0
 11
-56.29566251202811
 21
205.7402805985188
 31
0.0
  0
LINE
  5
7C
330
79
100
AcDbEntity
  8
-TEXT3
370
    -2
100
AcDbLine
 10
-19.49999999997578
 20
185.7402805985188
 30
0.0
 11
-56.29566251202811
 21
185.7402805985188
 31
0.0
  0
LINE
  5
7D
330
79
100
AcDbEntity
  8
-TEXT3
370
    -2
100
AcDbLine
 10
-54.79566251202811
 20
202.2402805985188
 30
0.0
 11
-54.79566251202811
 21
189.2402805985188
 31
0.0
  0
SOLID
  5
7E
330
79
100
AcDbEntity
  8
-TEXT3
100
AcDbTrace
 10
-55.37899584536145
 20
202.2402805985188
 30
0.0
 11
-54.21232917869478
 21
202.2402805985188
 31
0.0
 12
-54.79566251202811
 22
205.7402805985188
 32
0.0
 13
-54.79566251202811
 23
205.7402805985188
 33
0.0
  0
SOLID
  5
7F
330
79
100
AcDbEntity
  8
-TEXT3
100
AcDbTrace
 10
-55.37899584536145
 20
189.2402805985188
 30
0.0
 11
-54.21232917869478
 21
189.2402805985188
 31
0.0
 12
-54.79566251202811
 22
185.7402805985188
 32
0.0
 13
-54.79566251202811
 23
185.7402805985188
 33
0.0
  0
MTEXT
  5
80
330
79
100
AcDbEntity
  8
-TEXT3
100
AcDbMText
 10
-57.89627434071611
 20
195.7402805985188
 30
0.0
 40
4.0
 41
0.0
 71
     5
 72
     1
  1
\A1;20
 11
0.0000000000000001
 21
1.0
 31
0.0
 73
     1
 44
1.0
1001
ACAD
1000
MTEXTBEGIN
1070
    73
1070
     1
1070
    44
1040
1.0
1070
    74
1070
     0
1000
MTEXTEND
  0
POINT
  5
81
330
79
100
AcDbEntity
  8
DEFPOINTS
 62
     0
100
AcDbPoint
 10
-18.7956625120282
 20
205.7402805985188
 30
0.0
  0
POINT
  5
82
330
79
100
AcDbEntity
  8
DEFPOINTS
 62
     0
100
AcDbPoint
 10
-17.49999999997578
 20
185.7402805985188
 30
0.0
  0
POINT
  5
83
330
79
100
AcDbEntity
  8
DEFPOINTS
 62
     0
100
AcDbPoint
 10
-54.79566251202811
 20
185.7402805985188
 30
0.0
  0
ENDBLK
  5
84
330
79
100
AcDbEntity
  8
0
100
AcDbBlockEnd
  0
BLOCK
  5
87
330
86
100
AcDbEntity
  8
0
100
AcDbBlockBegin
  2
*D9
 70
     1
 10
0.0
 20
0.0
 30
0.0
  3
*D9
  1

  0
LINE
  5
88
330
86
100
AcDbEntity
  8
-TEXT3
370
    -2
100
AcDbLine
 10
-51.70433748792243
 20
208.740280598519
 30
0.0
 11
-56.29566251202796
 21
208.740280598519
 31
0.0
  0
LINE
  5
89
330
86
100
AcDbEntity
  8
-TEXT3
370
    -2
100
AcDbLine
 10
-19.49999999997541
 20
205.7402805985188
 30
0.0
 11
-56.29566251202797
 21
205.7402805985188
 31
0.0
  0
LINE
  5
8A
330
86
100
AcDbEntity
  8
-TEXT3
370
    -2
100
AcDbLine
 10
-54.79566251202797
 20
212.2402805985189
 30
0.0
 11
-54.79566251202797
 21
215.7402805985189
 31
0.0
  0
LINE
  5
8B
330
86
100
AcDbEntity
  8
-TEXT3
370
    -2
100
AcDbLine
 10
-54.79566251202797
 20
202.2402805985188
 30
0.0
 11
-54.79566251202797
 21
198.7402805985188
 31
0.0
  0
SOLID
  5
8C
330
86
100
AcDbEntity
  8
-TEXT3
100
AcDbTrace
 10
-55.3789958453613
 20
212.2402805985189
 30
0.0
 11
-54.21232917869463
 21
212.2402805985189
 31
0.0
 12
-54.79566251202797
 22
208.740280598519
 32
0.0
 13
-54.79566251202797
 23
208.740280598519
 33
0.0
  0
SOLID
  5
8D
330
86
100
AcDbEntity
  8
-TEXT3
100
AcDbTrace
 10
-55.3789958453613
 20
202.2402805985188
 30
0.0
 11
-54.21232917869463
 21
202.2402805985188
 31
0.0
 12
-54.79566251202797
 22
205.7402805985188
 32
0.0
 13
-54.79566251202797
 23
205.7402805985188
 33
0.0
  0
MTEXT
  5
8E
330
86
100
AcDbEntity
  8
-TEXT3
100
AcDbMText
 10
-57.89627434071597
 20
207.2402805985189
 30
0.0
 40
4.0
 41
0.0
 71
     5
 72
     1
  1
\A1;3
 11
0.0000000000000001
 21
1.0
 31
0.0
 73
     1
 44
1.0
1001
ACAD
1000
MTEXTBEGIN
1070
    73
1070
     1
1070
    44
1040
1.0
1070
    74
1070
     0
1000
MTEXTEND
  0
POINT
  5
8F
330
86
100
AcDbEntity
  8
DEFPOINTS
 62
     0
100
AcDbPoint
 10
-49.70433748792243
 20
208.740280598519
 30
0.0
  0
POINT
  5
90
330
86
100
AcDbEntity
  8
DEFPOINTS
 62
     0
100
AcDbPoint
 10
-17.49999999997541
 20
205.7402805985188
 30
0.0
  0
POINT
  5
91
330
86
100
AcDbEntity
  8
DEFPOINTS
 62
     0
100
AcDbPoint
 10
-54.79566251202797
 20
205.7402805985188
 30
0.0
  0
ENDBLK
  5
92
330
86
100
AcDbEntity
  8
0
100
AcDbBlockEnd
  0
BLOCK
  5
9B
330
9A
100
AcDbEntity
  8
0
100
AcDbBlockBegin
  2
*D10
 70
     1
 10
0.0
 20
0.0
 30
0.0
  3
*D10
  1

  0
LINE
  5
9C
330
9A
100
AcDbEntity
  8
-TEXT3
370
    -2
100
AcDbLine
 10
-5.999999999975727
 20
116.9760979138577
 30
0.0
 11
-5.999999999975726
 21
138.9939616037966
 31
0.0
  0
LINE
  5
9D
330
9A
100
AcDbEntity
  8
-TEXT3
370
    -2
100
AcDbLine
 10
6.000000000024215
 20
116.9760979138577
 30
0.0
 11
6.000000000024217
 21
138.9939616037966
 31
0.0
  0
LINE
  5
9E
330
9A
100
AcDbEntity
  8
-TEXT3
370
    -2
100
AcDbLine
 10
-2.499999999975726
 20
137.4939616037966
 30
0.0
 11
2.500000000024217
 21
137.4939616037966
 31
0.0
  0
SOLID
  5
9F
330
9A
100
AcDbEntity
  8
-TEXT3
100
AcDbTrace
 10
-2.499999999975726
 20
138.07729493713
 30
0.0
 11
-2.499999999975726
 21
136.9106282704633
 31
0.0
 12
-5.999999999975726
 22
137.4939616037966
 32
0.0
 13
-5.999999999975726
 23
137.4939616037966
 33
0.0
  0
SOLID
  5
A0
330
9A
100
AcDbEntity
  8
-TEXT3
100
AcDbTrace
 10
2.500000000024217
 20
138.07729493713
 30
0.0
 11
2.500000000024217
 21
136.9106282704633
 31
0.0
 12
6.000000000024217
 22
137.4939616037966
 32
0.0
 13
6.000000000024217
 23
137.4939616037966
 33
0.0
  0
MTEXT
  5
A1
330
9A
100
AcDbEntity
  8
-TEXT3
100
AcDbMText
 10
0.0000000000242439
 20
140.5442675181406
 30
0.0
 40
4.0
 41
0.0
 71
     5
 72
     1
  1
\A1;12
 73
     1
 44
1.0
1001
ACAD
1000
MTEXTBEGIN
1070
    73
1070
     1
1070
    44
1040
1.0
1070
    74
1070
     0
1000
MTEXTEND
  0
POINT
  5
A2
330
9A
100
AcDbEntity
  8
DEFPOINTS
 62
     0
100
AcDbPoint
 10
-5.999999999975727
 20
114.9760979138576
 30
0.0
  0
POINT
  5
A3
330
9A
100
AcDbEntity
  8
DEFPOINTS
 62
     0
100
AcDbPoint
 10
6.000000000024215
 20
114.9760979138576
 30
0.0
  0
POINT
  5
A4
330
9A
100
AcDbEntity
  8
DEFPOINTS
 62
     0
100
AcDbPoint
 10
6.000000000024217
 20
137.4939616037966
 30
0.0
  0
ENDBLK
  5
A5
330
9A
100
AcDbEntity
  8
0
100
AcDbBlockEnd
  0
ENDSEC
  0
SECTION
  2
ENTITIES
  0
INSERT
  5
9
330
2
100
AcDbEntity
  8
-TEXT3
100
AcDbBlockReference
  2
ANSICHT35
 10
0.0000000000241585
 20
97.34816104632306
 30
0.0
  0
LWPOLYLINE
  5
21
330
2
100
AcDbEntity
  8
-PROFILAUSSENKANTET
100
AcDbPolyline
 90
       11
 70
     0
 43
0.0
 10
-17.49999999997629
 20
223.7402805985196
 10
17.5000000000212
 20
223.7402805985194
 10
17.5000000000212
 20
224.546026421752
 42
0.375901963977188
 10
15.7643274402032
 20
226.5284822231174
 10
10.89840341863504
 20
228.6964201019326
 42
0.033150018187446
 10
10.23758481818004
 20
228.7402805985194
 10
-9.016737654275175
 20
228.7402805985194
 42
0.0413106451481675
 10
-9.838732590801782
 20
228.6722502176802
 10
-15.82879797458685
 20
226.5188142694178
 42
0.3666293647015965
 10
-17.49999999997629
 20
224.5460264217536
 10
-17.49999999997629
 20
223.7402805985196
  0
DIMENSION
  5
22
330
2
100
AcDbEntity
  8
-TEXT3
100
AcDbDimension
  2
*D3
 10
17.5000000000241
 20
240.2027669557489
 30
0.0
 11
0.0000000000224816
 21
240.2027669557489
 31
0.0
 70
   128
  1
%%c<>
 71
     5
 42
35.0
  3
1-1PRO
100
AcDbAlignedDimension
 13
-17.4999999999759
 23
224.546026421753
 33
0.0
 14
17.5000000000241
 24
224.5460264217529
 34
0.0
100
AcDbRotatedDimension
1001
ACAD
1000
DSTYLE
1002
{
1002
}
  0
HATCH
  5
31
330
2
100
AcDbEntity
  8
-SCHRAFFUR
100
AcDbHatch
 10
0.0
 20
0.0
 30
0.0
210
0.0
220
0.0
230
1.0
  2
SOLID
 70
     1
 71
     1
 91
        1
 92
        1
 93
        4
 72
     1
 10
-16.99999999997516
 20
205.7402805985188
 11
17.00000000002478
 21
205.7402805985187
 72
     1
 10
17.00000000002478
 20
205.7402805985187
 11
17.00000000002484
 21
208.7402805985187
 72
     1
 10
17.00000000002484
 20
208.7402805985187
 11
-16.99999999997516
 21
208.7402805985188
 72
     1
 10
-16.99999999997516
 20
208.7402805985188
 11
-16.99999999997516
 21
205.7402805985188
 97
        1
330
32
 75
     0
 76
     1
 98
        1
 10
-116.7547086937086
 20
-17.98983428933393
  0
LWPOLYLINE
  5
32
102
{ACAD_REACTORS
330
31
102
}
330
2
100
AcDbEntity
  8
-DICHTUNG
100
AcDbPolyline
 90
        4
 70
     1
 43
0.0
 10
-16.99999999997516
 20
205.7402805985188
 10
17.00000000002478
 20
205.7402805985187
 10
17.00000000002484
 20
208.7402805985187
 10
-16.99999999997516
 20
208.7402805985188
  0
LWPOLYLINE
  5
34
330
2
100
AcDbEntity
  8
-PROFILAUSSENKANTET
100
AcDbPolyline
 90
        4
 70
     0
 43
0.0
 10
-16.94999999997583
 20
205.7402805985188
 10
-17.49999999997578
 20
205.7402805985188
 10
-17.49999999997578
 20
185.7402805985188
 10
17.50000000002421
 20
185.7402805985188
  0
HATCH
  5
35
330
2
100
AcDbEntity
  8
-SCHRAFFUR
100
AcDbHatch
 10
0.0
 20
0.0
 30
0.0
210
0.0
220
0.0
230
1.0
  2
SOLID
 70
     1
 71
     1
 91
        1
 92
        1
 93
        4
 72
     1
 10
-16.99999999997629
 20
220.7402805985195
 11
17.0000000000212
 21
220.7402805985193
 72
     1
 10
17.0000000000212
 20
220.7402805985193
 11
17.0000000000212
 21
223.7402805985194
 72
     1
 10
17.0000000000212
 20
223.7402805985194
 11
-16.99999999997629
 21
223.7402805985194
 72
     1
 10
-16.99999999997629
 20
223.7402805985194
 11
-16.99999999997629
 21
220.7402805985195
 97
        1
330
36
 75
     0
 76
     1
 98
        1
 10
-116.7547086937086
 20
-17.98983428933393
  0
LWPOLYLINE
  5
36
102
{ACAD_REACTORS
330
35
102
}
330
2
100
AcDbEntity
  8
-DICHTUNG
100
AcDbPolyline
 90
        4
 70
     1
 43
0.0
 10
-16.99999999997629
 20
220.7402805985195
 10
17.0000000000212
 20
220.7402805985193
 10
17.0000000000212
 20
223.7402805985194
 10
-16.99999999997629
 20
223.7402805985194
  0
DIMENSION
  5
37
330
2
100
AcDbEntity
  8
-TEXT3
100
AcDbDimension
  2
*D4
 10
-54.795662512028
 20
223.7402805985196
 30
0.0
 11
-57.84596842637203
 21
226.2402805985195
 31
0.0
 71
     5
 42
4.999999999999829
  3
1-1PRO-PU
100
AcDbAlignedDimension
 13
-9.016737654275175
 23
228.7402805985194
 33
0.0
 14
-17.49999999997629
 24
223.7402805985196
 34
0.0
 50
90.0
100
AcDbRotatedDimension
  0
MTEXT
  5
4B
330
2
100
AcDbEntity
  8
-TEXT2
100
AcDbMText
 10
-60.52352678793693
 20
158.7023358482318
 30
0.0
 40
4.0
 41
56.11394264854585
 71
     1
 72
     5
  1
Schaft mit Langloch um Toleranzen aus- zugleichen
 73
     1
 44
1.0
1001
ACAD
1000
MTEXTBEGIN
1070
    73
1070
     1
1070
    44
1040
1.0
1070
    74
1070
     0
1000
MTEXTEND
  0
MTEXT
  5
4C
330
2
100
AcDbEntity
  8
-TEXT2
100
AcDbMText
 10
-44.72690913441261
 20
178.3212151298183
 30
0.0
 40
4.0
 41
43.30449999999999
 71
     1
 72
     5
  1
Zylinderk.-Schr.\PDIN6912-M8
 73
     1
 44
1.0
1001
ACAD
1000
MTEXTBEGIN
1070
    73
1070
     1
1070
    44
1040
1.0
1070
    74
1070
     0
1000
MTEXTEND
  0
DIMENSION
  5
4D
330
2
100
AcDbEntity
  8
-TEXT3
100
AcDbDimension
  2
*D5
 10
-22.95791386315841
 20
110.7260979138577
 30
0.0
 11
-26.05852569184639
 21
99.08503741079854
 31
0.0
 71
     5
 42
8.5
  3
1-1PRO
100
AcDbAlignedDimension
 13
-1.749999999975727
 23
119.2260979138577
 33
0.0
 14
-1.749999999975727
 24
110.7260979138577
 34
0.0
 50
90.0
100
AcDbRotatedDimension
  0
CIRCLE
  5
5B
330
2
100
AcDbEntity
  8
-PROFILAUSSENKANTET
100
AcDbCircle
 10
0.0000000000242437
 20
114.9760979138576
 30
0.0
 40
17.5
  0
LINE
  5
5C
330
2
100
AcDbEntity
  8
-SYSTEM
100
AcDbLine
 10
21.07817331650943
 20
114.9760979138576
 30
0.0
 11
-21.07817331646095
 21
114.9760979138576
 31
0.0
  0
DIMENSION
  5
5D
330
2
100
AcDbEntity
  8
-TEXT3
100
AcDbDimension
  2
*D6
 10
-54.795662512028
 20
208.740280598519
 30
0.0
 11
-57.89627434071601
 21
214.7402805985193
 31
0.0
  1
G
 71
     5
 42
12.00000000000068
  3
1-1PRO
100
AcDbAlignedDimension
 13
-49.70433748792243
 23
220.7402805985196
 33
0.0
 14
-49.70433748792243
 24
208.740280598519
 34
0.0
 50
90.0
100
AcDbRotatedDimension
  0
DIMENSION
  5
6A
330
2
100
AcDbEntity
  8
-TEXT3
100
AcDbDimension
  2
*D7
 10
-54.79566251202797
 20
223.7402805985196
 30
0.0
 11
-54.795662512028
 21
222.2402805985196
 31
0.0
 70
   128
 71
     5
 42
2.999999999999943
  3
1-1PRO-PU
100
AcDbAlignedDimension
 13
-49.70433748792243
 23
220.7402805985196
 33
0.0
 14
-17.49999999997629
 24
223.7402805985196
 34
0.0
 50
90.0
100
AcDbRotatedDimension
  0
DIMENSION
  5
78
330
2
100
AcDbEntity
  8
-TEXT3
100
AcDbDimension
  2
*D8
 10
-54.79566251202811
 20
185.7402805985188
 30
0.0
 11
-57.89627434071611
 21
195.7402805985188
 31
0.0
 71
     5
 42
20.00000000000006
  3
1-1PRO
100
AcDbAlignedDimension
 13
-18.7956625120282
 23
205.7402805985188
 33
0.0
 14
-17.49999999997578
 24
185.7402805985188
 34
0.0
 50
90.0
100
AcDbRotatedDimension
  0
DIMENSION
  5
85
330
2
100
AcDbEntity
  8
-TEXT3
100
AcDbDimension
  2
*D9
 10
-54.79566251202797
 20
205.7402805985188
 30
0.0
 11
-54.795662512028
 21
207.2402805985189
 31
0.0
 70
   128
 71
     5
 42
3.000000000000113
  3
1-1PRO
100
AcDbAlignedDimension
 13
-49.70433748792243
 23
208.740280598519
 33
0.0
 14
-17.49999999997541
 24
205.7402805985188
 34
0.0
 50
90.0
100
AcDbRotatedDimension
  0
LINE
  5
93
330
2
100
AcDbEntity
  8
-SYSTEM
100
AcDbLine
 10
0.0000000000241016
 20
231.696846137197
 30
0.0
 11
0.0000000000242721
 21
157.2697184121553
 31
0.0
  0
CIRCLE
  5
94
330
2
100
AcDbEntity
  8
-PROFILAUSSENKANTET
100
AcDbCircle
 10
0.0000000000241869
 20
114.9760979138576
 30
0.0
 40
10.00000000000005
  0
LWPOLYLINE
  5
95
330
2
100
AcDbEntity
  8
-PROFILAUSSENKANTET
100
AcDbPolyline
 90
        4
 70
     1
 43
0.0
 10
1.750000000024215
 20
119.2260979138577
 10
-1.749999999975727
 20
119.2260979138577
 42
1.0
 10
-1.749999999975727
 20
110.7260979138577
 10
1.750000000024215
 20
110.7260979138577
 42
1.0
  0
CIRCLE
  5
96
330
2
100
AcDbEntity
  8
-PROFILAUSSENKANTET
100
AcDbCircle
 10
0.0000000000241869
 20
114.9760979138576
 30
0.0
 40
8.458500000000015
  0
ARC
  5
97
330
2
100
AcDbEntity
  8
-SCHRAFFUR
100
AcDbCircle
 10
0.0000000000241869
 20
114.9760979138576
 30
0.0
 40
9.0
100
AcDbArc
 50
200.0000000000001
 51
109.9999999999982
  0
LINE
  5
98
330
2
100
AcDbEntity
  8
-SYSTEM
100
AcDbLine
 10
0.0000000000242437
 20
136.0542712303428
 30
0.0
 11
0.0000000000242437
 21
93.89792459737249
 31
0.0
  0
DIMENSION
  5
99
330
2
100
AcDbEntity
  8
-TEXT3
100
AcDbDimension
  2
*D10
 10
6.000000000024217
 20
137.4939616037966
 30
0.0
 11
0.0000000000242437
 21
137.4939616037966
 31
0.0
 70
   128
 71
     5
 42
11.99999999999994
  3
1-1PRO
100
AcDbAlignedDimension
 13
-5.999999999975727
 23
114.9760979138576
 33
0.0
 14
6.000000000024215
 24
114.9760979138576
 34
0.0
100
AcDbRotatedDimension
  0
LINE
  5
A6
330
2
100
AcDbEntity
  8
-NORMTEIL_VERDECKT
100
AcDbLine
 10
11.50000000002424
 20
220.7402805985193
 30
0.0
 11
11.50000000002416
 21
205.7402805985188
 31
0.0
  0
LINE
  5
A9
330
2
100
AcDbEntity
  8
-NORMTEIL_VERDECKT
100
AcDbLine
 10
12.50000000002424
 20
220.7402805985193
 30
0.0
 11
12.50000000002416
 21
205.7402805985188
 31
0.0
  0
LINE
  5
AA
330
2
100
AcDbEntity
  8
-NORMTEIL_VERDECKT
100
AcDbLine
 10
-11.49999999997587
 20
220.7402805985194
 30
0.0
 11
-11.49999999997587
 21
205.7402805985188
 31
0.0
  0
LWPOLYLINE
  5
AB
330
2
100
AcDbEntity
  8
-NORMTEIL_VERDECKT
100
AcDbPolyline
 90
        6
 70
     0
 43
0.0
 10
-8.999999999975869
 20
220.7402805985194
 10
-8.999999999975813
 20
206.5522805985194
 10
-8.458499999975913
 20
205.7402805985195
 10
8.45850000002423
 20
205.7402805985194
 10
9.000000000024215
 20
206.5522805985192
 10
9.000000000024215
 20
220.7402805985194
  0
LINE
  5
AC
330
2
100
AcDbEntity
  8
-NORMTEIL_VERDECKT
100
AcDbLine
 10
-12.49999999997587
 20
220.7402805985194
 30
0.0
 11
-12.49999999997587
 21
205.7402805985188
 31
0.0
  0
LWPOLYLINE
  5
AD
330
2
100
AcDbEntity
  8
-NORMTEIL_VERDECKT
100
AcDbPolyline
 90
        6
 70
     0
 43
0.0
 10
8.458500000024201
 20
216.9282805985186
 10
8.458500000024201
 20
188.7402805985187
 10
-8.458499999975799
 20
188.7402805985187
 10
-8.45849999997614
 20
216.928280598519
 10
-8.999999999975784
 20
217.7402805985187
 10
-12.49999999997587
 20
217.7402805985187
  0
LINE
  5
AE
330
2
100
AcDbEntity
  8
-NORMTEIL_VERDECKT
100
AcDbLine
 10
-8.999999999975813
 20
206.5522805985194
 30
0.0
 11
9.000000000024243
 21
206.5522805985192
 31
0.0
  0
LWPOLYLINE
  5
AF
330
2
100
AcDbEntity
  8
-NORMTEIL_VERDECKT
100
AcDbPolyline
 90
        6
 70
     1
 43
0.0
 10
-6.499999999975784
 20
188.7402805985187
 10
6.500000000024215
 20
188.7402805985187
 10
6.500000000024215
 20
192.7402805985187
 42
0.4142135623730951
 10
5.500000000024215
 20
193.7402805985188
 10
-5.499999999975784
 20
193.7402805985188
 42
0.4142135623730951
 10
-6.499999999975784
 20
192.7402805985187
  0
LINE
  5
B0
330
2
100
AcDbEntity
  8
-NORMTEIL_VERDECKT
100
AcDbLine
 10
1.443375672998286
 20
193.7402805985188
 30
0.0
 11
1.443375672998286
 21
190.7402805985188
 31
0.0
  0
LINE
  5
B1
330
2
100
AcDbEntity
  8
-NORMTEIL_VERDECKT
100
AcDbLine
 10
-1.443375672949855
 20
193.7402805985188
 30
0.0
 11
-1.443375672949855
 21
190.7402805985188
 31
0.0
  0
LWPOLYLINE
  5
B2
330
2
100
AcDbEntity
  8
-NORMTEIL_VERDECKT
100
AcDbPolyline
 90
        4
 70
     0
 43
0.0
 10
-2.886751345923926
 20
193.7402805985188
 10
-2.886751345923926
 20
190.7402805985188
 10
2.886751345972356
 20
190.7402805985188
 10
2.886751345972356
 20
193.7402805985188
  0
LINE
  5
B3
330
2
100
AcDbEntity
  8
-NORMTEIL_VERDECKT
100
AcDbLine
 10
-5.999999999975784
 20
185.7402805985188
 30
0.0
 11
-5.999999999975784
 21
188.7402805985187
 31
0.0
  0
LINE
  5
B4
330
2
100
AcDbEntity
  8
-SCHRAFFUR
100
AcDbLine
 10
-3.232999999975788
 20
173.7402805985188
 30
0.0
 11
-3.232999999975788
 21
185.7402805985188
 31
0.0
  0
LINE
  5
B5
330
2
100
AcDbEntity
  8
-SCHRAFFUR
100
AcDbLine
 10
3.233000000024219
 20
173.7402805985188
 30
0.0
 11
3.233000000024219
 21
185.7402805985188
 31
0.0
  0
LWPOLYLINE
  5
B6
330
2
100
AcDbEntity
  8
-NORMTEIL
100
AcDbPolyline
 90
        6
 70
     0
 43
0.0
 10
-3.999999999975784
 20
185.7402805985188
 10
-3.999999999975784
 20
174.5072805985188
 10
-3.232999999975788
 20
173.7402805985188
 10
3.233000000024219
 20
173.7402805985188
 10
4.000000000024215
 20
174.5072805985188
 10
4.000000000024215
 20
185.7402805985188
  0
LINE
  5
B8
330
2
100
AcDbEntity
  8
-SCHRAFFUR
100
AcDbLine
 10
-3.999999999975784
 20
174.5072805985188
 30
0.0
 11
4.000000000024215
 21
174.5072805985188
 31
0.0
  0
LINE
  5
B9
330
2
100
AcDbEntity
  8
-NORMTEIL_VERDECKT
100
AcDbLine
 10
-3.999999999975784
 20
188.7402805985187
 30
0.0
 11
4.000000000024215
 21
188.7402805985187
 31
0.0
  0
LINE
  5
BA
330
2
100
AcDbEntity
  8
-NORMTEIL_VERDECKT
100
AcDbLine
 10
-3.232999999975788
 20
185.7402805985188
 30
0.0
 11
-3.232999999975788
 21
188.7402805985187
 31
0.0
  0
LINE
  5
BB
330
2
100
AcDbEntity
  8
-NORMTEIL_VERDECKT
100
AcDbLine
 10
-3.999999999975784
 20
185.7402805985188
 30
0.0
 11
-3.999999999975784
 21
188.7402805985187
 31
0.0
  0
LINE
  5
BC
330
2
100
AcDbEntity
  8
-NORMTEIL_VERDECKT
100
AcDbLine
 10
3.233000000024219
 20
185.7402805985188
 30
0.0
 11
3.233000000024219
 21
188.7402805985187
 31
0.0
  0
LINE
  5
BD
330
2
100
AcDbEntity
  8
-NORMTEIL_VERDECKT
100
AcDbLine
 10
4.000000000024215
 20
185.7402805985188
 30
0.0
 11
4.000000000024215
 21
188.7402805985187
 31
0.0
  0
LINE
  5
BE
330
2
100
AcDbEntity
  8
-NORMTEIL_VERDECKT
100
AcDbLine
 10
-8.999999999975841
 20
206.5522805985194
 30
0.0
 11
-8.999999999975841
 21
202.7402805985188
 31
0.0
  0
LINE
  5
BF
330
2
100
AcDbEntity
  8
-NORMTEIL_VERDECKT
100
AcDbLine
 10
-8.999999999975841
 20
202.740280598519
 30
0.0
 11
-8.458499999976027
 21
197.5365583660722
 31
0.0
  0
LINE
  5
C0
330
2
100
AcDbEntity
  8
-NORMTEIL_VERDECKT
100
AcDbLine
 10
-8.999999999975841
 20
202.740280598519
 30
0.0
 11
-8.458499999976027
 21
202.740280598519
 31
0.0
  0
LWPOLYLINE
  5
C1
330
2
100
AcDbEntity
  8
-PROFILAUSSENKANTET
100
AcDbPolyline
 90
        4
 70
     0
 43
0.0
 10
17.50000000002421
 20
185.7402805985188
 10
17.50000000002421
 20
185.7402805985188
 10
17.50000000002421
 20
205.7402805985188
 10
16.95000000002415
 20
205.7402805985188
  0
LINE
  5
C2
330
2
100
AcDbEntity
  8
-NORMTEIL_VERDECKT
100
AcDbLine
 10
6.000000000024215
 20
185.7402805985188
 30
0.0
 11
6.000000000024215
 21
188.7402805985187
 31
0.0
  0
LINE
  5
C3
330
2
100
AcDbEntity
  8
-NORMTEIL_VERDECKT
100
AcDbLine
 10
9.000000000024243
 20
206.5522805985192
 30
0.0
 11
9.000000000024186
 21
202.7402805985187
 31
0.0
  0
LINE
  5
C4
330
2
100
AcDbEntity
  8
-NORMTEIL_VERDECKT
100
AcDbLine
 10
9.000000000024186
 20
202.7402805985187
 30
0.0
 11
8.458500000024201
 21
197.5365583660719
 31
0.0
  0
LINE
  5
C5
330
2
100
AcDbEntity
  8
-NORMTEIL_VERDECKT
100
AcDbLine
 10
8.458500000024201
 20
202.7402805985188
 30
0.0
 11
9.000000000024186
 21
202.7402805985185
 31
0.0
  0
LWPOLYLINE
  5
C6
330
2
100
AcDbEntity
  8
-NORMTEIL_VERDECKT
100
AcDbPolyline
 90
        5
 70
     0
 43
0.0
 10
5.500000000023646
 20
228.7402805985185
 10
5.500000000023646
 20
224.7402805985185
 10
7.000000000023646
 20
223.7402805985185
 10
8.500000000023646
 20
224.7402805985185
 10
8.500000000023646
 20
228.7402805985185
  0
LINE
  5
C7
330
2
100
AcDbEntity
  8
-NORMTEIL_VERDECKT
100
AcDbLine
 10
5.500000000023646
 20
224.7402805985185
 30
0.0
 11
8.500000000023646
 21
224.7402805985185
 31
0.0
  0
LINE
  5
C8
330
2
100
AcDbEntity
  8
-NORMTEIL_VERDECKT
100
AcDbLine
 10
-8.999999999975869
 20
218.7402805985194
 30
0.0
 11
9.000000000024215
 21
218.7402805985194
 31
0.0
  0
LINE
  5
C9
330
2
100
AcDbEntity
  8
-NORMTEIL_VERDECKT
100
AcDbLine
 10
-8.45849999997614
 20
216.928280598519
 30
0.0
 11
8.458500000024542
 21
216.928280598519
 31
0.0
  0
LINE
  5
CA
330
2
100
AcDbEntity
  8
-NORMTEIL_VERDECKT
100
AcDbLine
 10
-12.49999999997587
 20
217.7402805985187
 30
0.0
 11
12.50000000002421
 21
217.7402805985187
 31
0.0
  0
LWPOLYLINE
  5
CB
330
2
100
AcDbEntity
  8
-NORMTEIL_VERDECKT
100
AcDbPolyline
 90
        5
 70
     0
 43
0.0
 10
-4.999999999976353
 20
228.7402805985185
 10
-4.999999999976353
 20
224.7402805985185
 10
-3.499999999976353
 20
223.7402805985185
 10
-1.999999999976353
 20
224.7402805985185
 10
-1.999999999976353
 20
228.7402805985194
  0
LINE
  5
CC
330
2
100
AcDbEntity
  8
-NORMTEIL_VERDECKT
100
AcDbLine
 10
-4.999999999976353
 20
224.7402805985185
 30
0.0
 11
-1.999999999976353
 21
224.7402805985185
 31
0.0
  0
LINE
  5
CD
330
2
100
AcDbEntity
  8
-NORMTEIL_VERDECKT
100
AcDbLine
 10
-4.499999999975131
 20
220.7402805985193
 30
0.0
 11
4.500000000024783
 21
220.7402805985193
 31
0.0
  0
LINE
  5
CE
330
2
100
AcDbEntity
  8
-NORMTEIL_VERDECKT
100
AcDbLine
 10
-8.45849999997614
 20
216.928280598519
 30
0.0
 11
-8.458499999976197
 21
218.7402805985195
 31
0.0
  0
LWPOLYLINE
  5
CF
330
2
100
AcDbEntity
  8
-NORMTEIL_VERDECKT
100
AcDbPolyline
 90
        2
 70
     0
 43
0.0
 10
12.50000000002421
 20
217.7402805985187
 10
9.0000000000243
 20
217.7402805985187
  0
LINE
  5
D0
330
2
100
AcDbEntity
  8
-NORMTEIL_VERDECKT
100
AcDbLine
 10
8.458500000024173
 20
218.7402805985194
 30
0.0
 11
8.458500000024173
 21
216.9282805985186
 31
0.0
  0
LINE
  5
D1
330
2
100
AcDbEntity
  8
-NORMTEIL_VERDECKT
100
AcDbLine
 10
9.0000000000243
 20
217.7402805985187
 30
0.0
 11
8.458500000024542
 21
216.928280598519
 31
0.0
  0
LWPOLYLINE
  5
D2
330
2
100
AcDbEntity
  8
-VERGLASUNG
100
AcDbPolyline
 90
        6
 70
     0
 43
0.0
 10
-49.70433748792245
 20
220.7402805985196
 10
77.99999999999989
 20
220.7402805985191
 10
79.99999999999989
 20
218.7402805985191
 10
79.99999999999989
 20
210.7402805985186
 10
77.99999999999989
 20
208.7402805985186
 10
-49.70433748792245
 20
208.7402805985189
  0
LINE
  5
D3
330
2
100
AcDbEntity
  8
-VERGLASUNG
100
AcDbLine
 10
18.57553538162799
 20
208.7402803863863
 30
0.0
 11
22.46941020125402
 21
212.6341552060123
 31
0.0
  0
LINE
  5
D4
330
2
100
AcDbEntity
  8
-VERGLASUNG
100
AcDbLine
 10
20.13803538162799
 20
208.7402803863863
 30
0.0
 11
24.03191020125402
 21
212.6341552060123
 31
0.0
  0
LINE
  5
D5
330
2
100
AcDbEntity
  8
-VERGLASUNG
100
AcDbLine
 10
21.70053538162799
 20
208.7402803863863
 30
0.0
 11
25.59441020125402
 21
212.6341552060122
 31
0.0
  0
LINE
  5
D6
330
2
100
AcDbEntity
  8
-VERGLASUNG
100
AcDbLine
 10
16.92044994563727
 20
216.8464055667609
 30
0.0
 11
20.81432476526331
 21
220.7402803863871
 31
0.0
  0
LINE
  5
D7
330
2
100
AcDbEntity
  8
-VERGLASUNG
100
AcDbLine
 10
18.48294994563727
 20
216.8464055667609
 30
0.0
 11
22.37682476526331
 21
220.7402803863871
 31
0.0
  0
LINE
  5
D8
330
2
100
AcDbEntity
  8
-VERGLASUNG
100
AcDbLine
 10
42.5032923357505
 20
208.740280457097
 30
0.0
 11
46.39716715537653
 21
212.6341552767231
 31
0.0
  0
LINE
  5
D9
330
2
100
AcDbEntity
  8
-VERGLASUNG
100
AcDbLine
 10
44.0657923357505
 20
208.740280457097
 30
0.0
 11
47.95966715537653
 21
212.6341552767231
 31
0.0
  0
LINE
  5
DA
330
2
100
AcDbEntity
  8
-VERGLASUNG
100
AcDbLine
 10
45.6282923357505
 20
208.740280457097
 30
0.0
 11
49.52216715537653
 21
212.6341552767229
 31
0.0
  0
LINE
  5
DB
330
2
100
AcDbEntity
  8
-VERGLASUNG
100
AcDbLine
 10
42.41070689975979
 20
216.8464056374717
 30
0.0
 11
46.30458171938582
 21
220.7402804570977
 31
0.0
  0
LINE
  5
DC
330
2
100
AcDbEntity
  8
-VERGLASUNG
100
AcDbLine
 10
40.84820689975979
 20
216.8464056374717
 30
0.0
 11
44.74208171938582
 21
220.7402804570977
 31
0.0
  0
LINE
  5
DD
330
2
100
AcDbEntity
  8
-VERGLASUNG
100
AcDbLine
 10
39.28570689975979
 20
216.8464056374717
 30
0.0
 11
43.17958171938582
 21
220.7402804570977
 31
0.0
  0
LINE
  5
DE
330
2
100
AcDbEntity
  8
-VERGLASUNG
100
AcDbLine
 10
66.43104928987302
 20
208.7402805278077
 30
0.0
 11
70.32492410949905
 21
212.6341553474337
 31
0.0
  0
LINE
  5
DF
330
2
100
AcDbEntity
  8
-VERGLASUNG
100
AcDbLine
 10
67.99354928987302
 20
208.7402805278077
 30
0.0
 11
71.88742410949905
 21
212.6341553474337
 31
0.0
  0
LINE
  5
E0
330
2
100
AcDbEntity
  8
-VERGLASUNG
100
AcDbLine
 10
69.55604928987302
 20
208.7402805278077
 30
0.0
 11
73.44992410949905
 21
212.6341553474337
 31
0.0
  0
LINE
  5
E1
330
2
100
AcDbEntity
  8
-VERGLASUNG
100
AcDbLine
 10
66.3384638538823
 20
216.8464057081824
 30
0.0
 11
70.23233867350834
 21
220.7402805278085
 31
0.0
  0
LINE
  5
E2
330
2
100
AcDbEntity
  8
-VERGLASUNG
100
AcDbLine
 10
63.2134638538823
 20
216.8464057081824
 30
0.0
 11
67.10733867350834
 21
220.7402805278085
 31
0.0
  0
LINE
  5
E3
330
2
100
AcDbEntity
  8
-VERGLASUNG
100
AcDbLine
 10
64.7759638538823
 20
216.8464057081824
 30
0.0
 11
68.66983867350834
 21
220.7402805278085
 31
0.0
  0
LINE
  5
E4
330
2
100
AcDbEntity
  8
-VERGLASUNG
100
AcDbLine
 10
15.35794994563727
 20
216.8464055667609
 30
0.0
 11
19.2518247652633
 21
220.7402803863871
 31
0.0
  0
LINE
  5
E5
330
2
100
AcDbEntity
  8
-VERGLASUNG
100
AcDbLine
 10
-46.95722923106475
 20
208.7402803863865
 30
0.0
 11
-43.06335441143872
 21
212.6341552060126
 31
0.0
  0
LINE
  5
E6
330
2
100
AcDbEntity
  8
-VERGLASUNG
100
AcDbLine
 10
-48.61231466705547
 20
216.8464055667612
 30
0.0
 11
-44.71843984742943
 21
220.7402803863873
 31
0.0
  0
LINE
  5
E7
330
2
100
AcDbEntity
  8
-VERGLASUNG
100
AcDbLine
 10
-47.04981466705547
 20
216.8464055667612
 30
0.0
 11
-43.15593984742943
 21
220.7402803863873
 31
0.0
  0
LINE
  5
E8
330
2
100
AcDbEntity
  8
-VERGLASUNG
100
AcDbLine
 10
-50.17481466705547
 20
216.8464055667612
 30
0.0
 11
-46.28093984742943
 21
220.7402803863873
 31
0.0
  0
LINE
  5
E9
330
2
100
AcDbEntity
  8
-VERGLASUNG
100
AcDbLine
 10
-23.12205771293296
 20
216.8464056374719
 30
0.0
 11
-19.22818289330692
 21
220.740280457098
 31
0.0
  0
LINE
  5
EA
330
2
100
AcDbEntity
  8
-VERGLASUNG
100
AcDbLine
 10
-24.68455771293296
 20
216.8464056374719
 30
0.0
 11
-20.79068289330692
 21
220.740280457098
 31
0.0
  0
LINE
  5
EB
330
2
100
AcDbEntity
  8
-VERGLASUNG
100
AcDbLine
 10
-23.02947227694224
 20
208.7402804570972
 30
0.0
 11
-19.13559745731621
 21
212.6341552767233
 31
0.0
  0
LINE
  5
EC
330
2
100
AcDbEntity
  8
-VERGLASUNG
100
AcDbLine
 10
-43.83222923106475
 20
208.7402803863865
 30
0.0
 11
-39.93835441143872
 21
212.6341552060125
 31
0.0
  0
LINE
  5
ED
330
2
100
AcDbEntity
  8
-VERGLASUNG
100
AcDbLine
 10
-45.39472923106475
 20
208.7402803863865
 30
0.0
 11
-41.50085441143872
 21
212.6341552060126
 31
0.0
  0
LINE
  5
EE
330
2
100
AcDbEntity
  8
-VERGLASUNG
100
AcDbLine
 10
-26.24705771293296
 20
216.8464056374719
 30
0.0
 11
-22.35318289330692
 21
220.740280457098
 31
0.0
  0
LINE
  5
EF
330
2
100
AcDbEntity
  8
-VERGLASUNG
100
AcDbLine
 10
-21.46697227694224
 20
208.7402804570972
 30
0.0
 11
-17.57309745731621
 21
212.6341552767233
 31
0.0
  0
LINE
  5
F0
330
2
100
AcDbEntity
  8
-VERGLASUNG
100
AcDbLine
 10
-19.90447227694224
 20
208.7402804570972
 30
0.0
 11
-16.01059745731621
 21
212.6341552767232
 31
0.0
  0
INSERT
  5
F1
330
2
100
AcDbEntity
  8
-TEXT3
100
AcDbBlockReference
  2
96-8
 10
56.36845036464197
 20
191.4928036861315
 30
0.0
  0
MTEXT
  5
13B
330
2
100
AcDbEntity
  8
-TEXT2
100
AcDbMText
 10
23.79623193986382
 20
187.4480890953078
 30
0.0
 40
4.0
 41
43.30449999999999
 71
     1
 72
     5
  1
oder\PHolz-Schr.\PDIN96-%%c8
 73
     1
 44
1.0
1001
ACAD
1000
MTEXTBEGIN
1070
    73
1070
     1
1070
    44
1040
1.0
1070
    74
1070
     0
1000
MTEXTEND
  0
ENDSEC
  0
SECTION
  2
OBJECTS
  0
DICTIONARY
  5
7
330
0
100
AcDbDictionary
281
     1
  3
ACAD_COLOR
350
154
  3
ACAD_GROUP
350
150
  3
ACAD_LAYOUT
350
13E
  3
ACAD_MATERIAL
350
153
  3
ACAD_MLINESTYLE
350
151
  3
ACAD_PLOTSETTINGS
350
152
  3
ACAD_PLOTSTYLENAME
350
6
  3
ACDBHEADERROUNDTRIPXREC
350
15A
  3
AcDbVariableDictionary
350
156
  0
DICTIONARY
  5
154
102
{ACAD_REACTORS
330
7
102
}
330
7
100
AcDbDictionary
281
     1
  0
DICTIONARY
  5
150
102
{ACAD_REACTORS
330
7
102
}
330
7
100
AcDbDictionary
281
     1
  0
DICTIONARY
  5
13E
102
{ACAD_REACTORS
330
7
102
}
330
7
100
AcDbDictionary
281
     1
  3
Layout1
350
142
  3
Model
350
13D
  0
DICTIONARY
  5
153
102
{ACAD_REACTORS
330
7
102
}
330
7
100
AcDbDictionary
281
     1
  0
DICTIONARY
  5
151
102
{ACAD_REACTORS
330
7
102
}
330
7
100
AcDbDictionary
281
     1
  3
STANDARD
350
155
  0
DICTIONARY
  5
152
102
{ACAD_REACTORS
330
7
102
}
330
7
100
AcDbDictionary
281
     1
  0
ACDBDICTIONARYWDFLT
  5
6
102
{ACAD_REACTORS
330
7
102
}
330
7
100
AcDbDictionary
281
     1
  3
Normal
350
5
100
AcDbDictionaryWithDefault
340
5
  0
DICTIONARY
  5
15A
102
{ACAD_REACTORS
330
7
102
}
330
7
100
AcDbDictionary
281
     1
  3
COLORDICT
350
15C
  3
MATERIALDICT
350
15B
  0
DICTIONARY
  5
156
102
{ACAD_REACTORS
330
7
102
}
330
7
100
AcDbDictionary
281
     1
  3
DIMASSOC
350
158
  3
HIDETEXT
350
157
  3
PROJECTNAME
350
159
  0
LAYOUT
  5
142
102
{ACAD_XDICTIONARY
360
161
102
}
102
{ACAD_REACTORS
330
13E
102
}
330
13E
100
AcDbPlotSettings
  1

  2
HP DeskJet 1120C Printer
  4

  6

 40
0.0
 41
0.0
 42
0.0
 43
0.0
 44
0.0
 45
0.0
 46
0.0
 47
0.0
 48
0.0
 49
0.0
140
0.0
141
0.0
142
1.0
143
1.0
 70
   688
 72
     0
 73
     0
 74
     5
  7
monochrome.ctb
 75
    16
147
1.0
148
0.0
149
0.0
100
AcDbLayout
  1
Layout1
 70
     1
 71
     1
 10
0.0
 20
0.0
 11
12.0
 21
9.0
 12
0.0
 22
0.0
 32
0.0
 14
1.000000000000000E+20
 24
1.000000000000000E+20
 34
1.000000000000000E+20
 15
-1.000000000000000E+20
 25
-1.000000000000000E+20
 35
-1.000000000000000E+20
146
0.0
 13
0.0
 23
0.0
 33
0.0
 16
1.0
 26
0.0
 36
0.0
 17
0.0
 27
1.0
 37
0.0
 76
     0
330
13F
  0
LAYOUT
  5
13D
102
{ACAD_XDICTIONARY
360
15F
102
}
102
{ACAD_REACTORS
330
13E
102
}
330
13E
100
AcDbPlotSettings
  1

  2
HP DeskJet 1120C Printer
  4

  6

 40
0.0
 41
0.0
 42
0.0
 43
0.0
 44
0.0
 45
0.0
 46
0.0
 47
0.0
 48
0.0
 49
0.0
140
0.0
141
0.0
142
1.0
143
1.0
 70
  1712
 72
     0
 73
     0
 74
     0
  7
monochrome.ctb
 75
     0
147
1.0
148
0.0
149
0.0
100
AcDbLayout
  1
Model
 70
     1
 71
     0
 10
0.0
 20
0.0
 11
12.0
 21
9.0
 12
0.0
 22
0.0
 32
0.0
 14
0.0
 24
0.0
 34
0.0
 15
0.0
 25
0.0
 35
0.0
146
0.0
 13
0.0
 23
0.0
 33
0.0
 16
1.0
 26
0.0
 36
0.0
 17
0.0
 27
1.0
 37
0.0
 76
     0
330
2
  0
MLINESTYLE
  5
155
102
{ACAD_REACTORS
330
151
102
}
330
151
100
AcDbMlineStyle
  2
STANDARD
 70
     0
  3

 62
     0
 51
90.0
 52
90.0
 71
     2
 49
0.5
 62
   256
  6
BYLAYER
 49
-0.5
 62
   256
  6
BYLAYER
  0
ACDBPLACEHOLDER
  5
5
102
{ACAD_REACTORS
330
6
102
}
330
6
  0
XRECORD
  5
15C
102
{ACAD_REACTORS
330
15A
102
}
330
15A
100
AcDbXrecord
280
     1
340
154
  0
XRECORD
  5
15B
102
{ACAD_REACTORS
330
15A
102
}
330
15A
100
AcDbXrecord
280
     1
340
153
  0
DICTIONARYVAR
  5
158
102
{ACAD_REACTORS
330
156
102
}
330
156
100
DictionaryVariables
280
     0
  1
1
  0
DICTIONARYVAR
  5
157
102
{ACAD_REACTORS
330
156
102
}
330
156
100
DictionaryVariables
280
     0
  1
1
  0
DICTIONARYVAR
  5
159
102
{ACAD_REACTORS
330
156
102
}
330
156
100
DictionaryVariables
280
     0
  1

  0
DICTIONARY
  5
161
330
142
100
AcDbDictionary
280
     1
281
     1
  3
ACAD_XREC_ROUNDTRIP
360
162
  0
DICTIONARY
  5
15F
330
13D
100
AcDbDictionary
280
     1
281
     1
  3
ACAD_XREC_ROUNDTRIP
360
160
  0
XRECORD
  5
162
102
{ACAD_REACTORS
330
161
102
}
330
161
100
AcDbXrecord
280
     1
102
SHADEPLOT
 70
     0
102
SHADEPLOTRESLEVEL
 70
     2
102
SHADEPLOTCUSTOMDPI
 70
   300
  0
XRECORD
  5
160
102
{ACAD_REACTORS
330
15F
102
}
330
15F
100
AcDbXrecord
280
     1
102
SHADEPLOT
 70
     0
102
SHADEPLOTRESLEVEL
 70
     2
102
SHADEPLOTCUSTOMDPI
 70
   300
  0
ENDSEC
  0
EOF
