  0
SECTION
  2
HEADER
  9
$ACADVER
  1
AC1015
  9
$ACADMAINTVER
 70
    18
  9
$DWGCODEPAGE
  3
ANSI_1252
  9
$INSBASE
 10
-327.8288694144876
 20
0.0
 30
0.0
  9
$EXTMIN
 10
1.000000000000000E+20
 20
1.000000000000000E+20
 30
1.000000000000000E+20
  9
$EXTMAX
 10
0.0
 20
0.0
 30
0.0
  9
$LIMMIN
 10
0.0
 20
0.0
  9
$LIMMAX
 10
12.0
 20
9.0
  9
$ORTHOMODE
 70
     1
  9
$REGENMODE
 70
     1
  9
$FILLMODE
 70
     1
  9
$QTEXTMODE
 70
     0
  9
$MIRRTEXT
 70
     1
  9
$LTSCALE
 40
2.5
  9
$ATTMODE
 70
     1
  9
$TEXTSIZE
 40
0.2
  9
$TRACEWID
 40
0.05
  9
$TEXTSTYLE
  7
STANDARD
  9
$CLAYER
  8
-VERGLASUNG
  9
$CELTYPE
  6
BYLAYER
  9
$CECOLOR
 62
   256
  9
$CELTSCALE
 40
1.0
  9
$DISPSILH
 70
     0
  9
$DIMSCALE
 40
1.0
  9
$DIMASZ
 40
3.5
  9
$DIMEXO
 40
2.0
  9
$DIMDLI
 40
2.0
  9
$DIMRND
 40
0.0
  9
$DIMDLE
 40
0.0
  9
$DIMEXE
 40
1.5
  9
$DIMTP
 40
0.0
  9
$DIMTM
 40
0.0
  9
$DIMTXT
 40
4.0
  9
$DIMCEN
 40
0.09
  9
$DIMTSZ
 40
0.0
  9
$DIMTOL
 70
     0
  9
$DIMLIM
 70
     0
  9
$DIMTIH
 70
     0
  9
$DIMTOH
 70
     0
  9
$DIMSE1
 70
     0
  9
$DIMSE2
 70
     0
  9
$DIMTAD
 70
     1
  9
$DIMZIN
 70
     9
  9
$DIMBLK
  1

  9
$DIMASO
 70
     1
  9
$DIMSHO
 70
     1
  9
$DIMPOST
  1

  9
$DIMAPOST
  1

  9
$DIMALT
 70
     0
  9
$DIMALTD
 70
     2
  9
$DIMALTF
 40
25.4
  9
$DIMLFAC
 40
1.0
  9
$DIMTOFL
 70
     0
  9
$DIMTVP
 40
0.0
  9
$DIMTIX
 70
     0
  9
$DIMSOXD
 70
     0
  9
$DIMSAH
 70
     0
  9
$DIMBLK1
  1

  9
$DIMBLK2
  1

  9
$DIMSTYLE
  2
1-1PRO
  9
$DIMCLRD
 70
   256
  9
$DIMCLRE
 70
   256
  9
$DIMCLRT
 70
   256
  9
$DIMTFAC
 40
1.0
  9
$DIMGAP
 40
1.0
  9
$DIMJUST
 70
     0
  9
$DIMSD1
 70
     0
  9
$DIMSD2
 70
     0
  9
$DIMTOLJ
 70
     1
  9
$DIMTZIN
 70
     0
  9
$DIMALTZ
 70
     0
  9
$DIMALTTZ
 70
     0
  9
$DIMUPT
 70
     0
  9
$DIMDEC
 70
     1
  9
$DIMTDEC
 70
     1
  9
$DIMALTU
 70
     2
  9
$DIMALTTD
 70
     2
  9
$DIMTXSTY
  7
STANDARD
  9
$DIMAUNIT
 70
     0
  9
$DIMADEC
 70
     0
  9
$DIMALTRND
 40
0.0
  9
$DIMAZIN
 70
     0
  9
$DIMDSEP
 70
    46
  9
$DIMATFIT
 70
     3
  9
$DIMFRAC
 70
     0
  9
$DIMLDRBLK
  1

  9
$DIMLUNIT
 70
     2
  9
$DIMLWD
 70
    -2
  9
$DIMLWE
 70
    -2
  9
$DIMTMOVE
 70
     0
  9
$LUNITS
 70
     2
  9
$LUPREC
 70
     4
  9
$SKETCHINC
 40
0.1
  9
$FILLETRAD
 40
0.0
  9
$AUNITS
 70
     0
  9
$AUPREC
 70
     0
  9
$MENU
  1
.
  9
$ELEVATION
 40
0.0
  9
$PELEVATION
 40
0.0
  9
$THICKNESS
 40
0.0
  9
$LIMCHECK
 70
     0
  9
$CHAMFERA
 40
1.0
  9
$CHAMFERB
 40
1.0
  9
$CHAMFERC
 40
1.0
  9
$CHAMFERD
 40
0.0
  9
$SKPOLY
 70
     0
  9
$TDCREATE
 40
2450923.406402199
  9
$TDUCREATE
 40
2450923.364735533
  9
$TDUPDATE
 40
2453396.424059826
  9
$TDUUPDATE
 40
2453396.382393160
  9
$TDINDWG
 40
2.4587385532
  9
$TDUSRTIMER
 40
2.4587385532
  9
$USRTIMER
 70
     1
  9
$ANGBASE
 50
0.0
  9
$ANGDIR
 70
     0
  9
$PDMODE
 70
     0
  9
$PDSIZE
 40
0.0
  9
$PLINEWID
 40
0.0
  9
$SPLFRAME
 70
     0
  9
$SPLINETYPE
 70
     6
  9
$SPLINESEGS
 70
    50
  9
$HANDSEED
  5
FB
  9
$SURFTAB1
 70
     6
  9
$SURFTAB2
 70
     6
  9
$SURFTYPE
 70
     6
  9
$SURFU
 70
     6
  9
$SURFV
 70
     6
  9
$UCSBASE
  2

  9
$UCSNAME
  2

  9
$UCSORG
 10
0.0
 20
0.0
 30
0.0
  9
$UCSXDIR
 10
1.0
 20
0.0
 30
0.0
  9
$UCSYDIR
 10
0.0
 20
1.0
 30
0.0
  9
$UCSORTHOREF
  2

  9
$UCSORTHOVIEW
 70
     0
  9
$UCSORGTOP
 10
0.0
 20
0.0
 30
0.0
  9
$UCSORGBOTTOM
 10
0.0
 20
0.0
 30
0.0
  9
$UCSORGLEFT
 10
0.0
 20
0.0
 30
0.0
  9
$UCSORGRIGHT
 10
0.0
 20
0.0
 30
0.0
  9
$UCSORGFRONT
 10
0.0
 20
0.0
 30
0.0
  9
$UCSORGBACK
 10
0.0
 20
0.0
 30
0.0
  9
$PUCSBASE
  2

  9
$PUCSNAME
  2

  9
$PUCSORG
 10
0.0
 20
0.0
 30
0.0
  9
$PUCSXDIR
 10
1.0
 20
0.0
 30
0.0
  9
$PUCSYDIR
 10
0.0
 20
1.0
 30
0.0
  9
$PUCSORTHOREF
  2

  9
$PUCSORTHOVIEW
 70
     0
  9
$PUCSORGTOP
 10
0.0
 20
0.0
 30
0.0
  9
$PUCSORGBOTTOM
 10
0.0
 20
0.0
 30
0.0
  9
$PUCSORGLEFT
 10
0.0
 20
0.0
 30
0.0
  9
$PUCSORGRIGHT
 10
0.0
 20
0.0
 30
0.0
  9
$PUCSORGFRONT
 10
0.0
 20
0.0
 30
0.0
  9
$PUCSORGBACK
 10
0.0
 20
0.0
 30
0.0
  9
$USERI1
 70
     0
  9
$USERI2
 70
     0
  9
$USERI3
 70
     0
  9
$USERI4
 70
     0
  9
$USERI5
 70
     0
  9
$USERR1
 40
0.0
  9
$USERR2
 40
0.0
  9
$USERR3
 40
0.0
  9
$USERR4
 40
0.0
  9
$USERR5
 40
0.0
  9
$WORLDVIEW
 70
     1
  9
$SHADEDGE
 70
     3
  9
$SHADEDIF
 70
    70
  9
$TILEMODE
 70
     1
  9
$MAXACTVP
 70
    48
  9
$PINSBASE
 10
0.0
 20
0.0
 30
0.0
  9
$PLIMCHECK
 70
     0
  9
$PEXTMIN
 10
1.000000000000000E+20
 20
1.000000000000000E+20
 30
1.000000000000000E+20
  9
$PEXTMAX
 10
-1.000000000000000E+20
 20
-1.000000000000000E+20
 30
-1.000000000000000E+20
  9
$PLIMMIN
 10
0.0
 20
0.0
  9
$PLIMMAX
 10
12.0
 20
9.0
  9
$UNITMODE
 70
     0
  9
$VISRETAIN
 70
     1
  9
$PLINEGEN
 70
     0
  9
$PSLTSCALE
 70
     1
  9
$TREEDEPTH
 70
  3020
  9
$CMLSTYLE
  2
STANDARD
  9
$CMLJUST
 70
     0
  9
$CMLSCALE
 40
1.0
  9
$PROXYGRAPHICS
 70
     1
  9
$MEASUREMENT
 70
     0
  9
$CELWEIGHT
370
    -1
  9
$ENDCAPS
280
     0
  9
$JOINSTYLE
280
     0
  9
$LWDISPLAY
290
     0
  9
$INSUNITS
 70
     0
  9
$HYPERLINKBASE
  1

  9
$STYLESHEET
  1

  9
$XEDIT
290
     1
  9
$CEPSNTYPE
380
     0
  9
$PSTYLEMODE
290
     1
  9
$FINGERPRINTGUID
  2
{3A6C66AE-FB5D-11D4-9C1F-EC81C176A25E}
  9
$VERSIONGUID
  2
{35A5BBA9-E802-4860-8AA9-42A55819728D}
  9
$EXTNAMES
290
     1
  9
$PSVPSCALE
 40
0.0
  9
$OLESTARTUP
290
     0
  0
ENDSEC
  0
SECTION
  2
CLASSES
  0
CLASS
  1
DICTIONARYVAR
  2
AcDbDictionaryVar
  3
ObjectDBX Classes
 90
        0
280
     0
281
     0
  0
CLASS
  1
IMAGE
  2
AcDbRasterImage
  3
ISM
 90
    32895
280
     0
281
     1
  0
CLASS
  1
IMAGEDEF_REACTOR
  2
AcDbRasterImageDefReactor
  3
ISM
 90
    32769
280
     0
281
     0
  0
CLASS
  1
IMAGEDEF
  2
AcDbRasterImageDef
  3
ISM
 90
    32768
280
     0
281
     0
  0
CLASS
  1
RASTERVARIABLES
  2
AcDbRasterVariables
  3
ISM
 90
    32768
280
     0
281
     0
  0
CLASS
  1
ACDBDICTIONARYWDFLT
  2
AcDbDictionaryWithDefault
  3
ObjectDBX Classes
 90
        0
280
     0
281
     0
  0
CLASS
  1
ACDBPLACEHOLDER
  2
AcDbPlaceHolder
  3
ObjectDBX Classes
 90
        0
280
     0
281
     0
  0
CLASS
  1
LAYOUT
  2
AcDbLayout
  3
ObjectDBX Classes
 90
        0
280
     0
281
     0
  0
ENDSEC
  0
SECTION
  2
TABLES
  0
TABLE
  2
VPORT
  5
E3
330
0
100
AcDbSymbolTable
 70
     1
  0
VPORT
  5
E4
330
E3
100
AcDbSymbolTableRecord
100
AcDbViewportTableRecord
  2
*Active
 70
     0
 10
0.0
 20
0.0
 11
1.0
 21
1.0
 12
3.511653317898975
 22
82.9243880721242
 13
0.0
 23
0.0
 14
0.5
 24
0.5
 15
0.5
 25
0.5
 16
0.0
 26
0.0
 36
1.0
 17
0.0
 27
0.0
 37
0.0
 40
271.9393306793579
 41
1.548512289780077
 42
50.0
 43
0.0
 44
0.0
 50
0.0
 51
0.0
 71
     0
 72
   100
 73
     1
 74
     1
 75
     0
 76
     0
 77
     0
 78
     0
281
     0
 65
     1
110
0.0
120
0.0
130
0.0
111
1.0
121
0.0
131
0.0
112
0.0
122
1.0
132
0.0
 79
     0
146
0.0
  0
ENDTAB
  0
TABLE
  2
LTYPE
  5
DE
330
0
100
AcDbSymbolTable
 70
     3
  0
LTYPE
  5
DF
330
DE
100
AcDbSymbolTableRecord
100
AcDbLinetypeTableRecord
  2
BYBLOCK
 70
     0
  3

 72
    65
 73
     0
 40
0.0
  0
LTYPE
  5
E0
330
DE
100
AcDbSymbolTableRecord
100
AcDbLinetypeTableRecord
  2
BYLAYER
 70
     0
  3

 72
    65
 73
     0
 40
0.0
  0
LTYPE
  5
8
330
DE
100
AcDbSymbolTableRecord
100
AcDbLinetypeTableRecord
  2
CONTINUOUS
 70
     0
  3
Solid line
 72
    65
 73
     0
 40
0.0
  0
LTYPE
  5
4C
330
DE
100
AcDbSymbolTableRecord
100
AcDbLinetypeTableRecord
  2
MITTEX2
 70
     0
  3
Mitte (2x) ________  __  ________  __  _____
 72
    65
 73
     4
 40
4.0
 49
2.5
 74
     0
 49
-0.5
 74
     0
 49
0.5
 74
     0
 49
-0.5
 74
     0
  0
LTYPE
  5
7C
330
DE
100
AcDbSymbolTableRecord
100
AcDbLinetypeTableRecord
  2
STRICHLINIEX2
 70
     0
  3
Strichlinie (2x) ____  ____  ____  ____  ____  
 72
    65
 73
     2
 40
1.5
 49
1.0
 74
     0
 49
-0.5
 74
     0
  0
ENDTAB
  0
TABLE
  2
LAYER
  5
DB
330
0
100
AcDbSymbolTable
 70
    11
  0
LAYER
  5
4
330
DB
100
AcDbSymbolTableRecord
100
AcDbLayerTableRecord
  2
0
 70
     0
 62
     7
  6
CONTINUOUS
370
    -3
390
5
  0
LAYER
  5
76
330
DB
100
AcDbSymbolTableRecord
100
AcDbLayerTableRecord
  2
-PROFILAUSSENKANTET
 70
     0
 62
     4
  6
CONTINUOUS
370
    -3
390
5
  0
LAYER
  5
87
330
DB
100
AcDbSymbolTableRecord
100
AcDbLayerTableRecord
  2
-DICHTUNG
 70
     0
 62
     3
  6
CONTINUOUS
370
    -3
390
5
  0
LAYER
  5
8C
330
DB
100
AcDbSymbolTableRecord
100
AcDbLayerTableRecord
  2
-NORMTEIL
 70
     0
 62
     6
  6
CONTINUOUS
370
    -3
390
5
  0
LAYER
  5
7B
330
DB
100
AcDbSymbolTableRecord
100
AcDbLayerTableRecord
  2
-NORMTEIL_VERDECKT
 70
     0
 62
     9
  6
STRICHLINIEX2
370
    -3
390
5
  0
LAYER
  5
18
330
DB
100
AcDbSymbolTableRecord
100
AcDbLayerTableRecord
  2
DEFPOINTS
 70
     0
 62
     7
  6
CONTINUOUS
290
     0
370
    -3
390
5
  0
LAYER
  5
4B
330
DB
100
AcDbSymbolTableRecord
100
AcDbLayerTableRecord
  2
-SYSTEM
 70
     0
 62
     2
  6
MITTEX2
370
    -3
390
5
  0
LAYER
  5
49
330
DB
100
AcDbSymbolTableRecord
100
AcDbLayerTableRecord
  2
-TEXT2
 70
     0
 62
     3
  6
CONTINUOUS
370
    -3
390
5
  0
LAYER
  5
A
330
DB
100
AcDbSymbolTableRecord
100
AcDbLayerTableRecord
  2
-TEXT3
 70
     0
 62
     2
  6
CONTINUOUS
370
    -3
390
5
  0
LAYER
  5
74
330
DB
100
AcDbSymbolTableRecord
100
AcDbLayerTableRecord
  2
-SCHRAFFUR
 70
     0
 62
     9
  6
CONTINUOUS
370
    -3
390
5
  0
LAYER
  5
2B
330
DB
100
AcDbSymbolTableRecord
100
AcDbLayerTableRecord
  2
-VERGLASUNG
 70
     0
 62
     1
  6
CONTINUOUS
370
    -3
390
5
  0
ENDTAB
  0
TABLE
  2
STYLE
  5
DC
330
0
100
AcDbSymbolTable
 70
     1
  0
STYLE
  5
C
330
DC
100
AcDbSymbolTableRecord
100
AcDbTextStyleTableRecord
  2
STANDARD
 70
     0
 40
0.0
 41
1.0
 50
0.0
 71
     0
 42
0.2
  3
GOTHIC.TTF
  4

1001
ACAD
1000
Century Gothic
1071
       34
  0
ENDTAB
  0
TABLE
  2
VIEW
  5
E1
330
0
100
AcDbSymbolTable
 70
     0
  0
ENDTAB
  0
TABLE
  2
UCS
  5
E2
330
0
100
AcDbSymbolTable
 70
     0
  0
ENDTAB
  0
TABLE
  2
APPID
  5
E5
330
0
100
AcDbSymbolTable
 70
     1
  0
APPID
  5
D
330
E5
100
AcDbSymbolTableRecord
100
AcDbRegAppTableRecord
  2
ACAD
 70
     0
  0
ENDTAB
  0
TABLE
  2
DIMSTYLE
  5
E6
330
0
100
AcDbSymbolTable
 70
     1
100
AcDbDimStyleTable
 71
     1
340
B
  0
DIMSTYLE
105
B
102
{ACAD_REACTORS
330
9
330
1C
330
2C
330
39
330
4D
330
5B
330
A6
102
}
330
E6
100
AcDbSymbolTableRecord
100
AcDbDimStyleTableRecord
  2
1-1PRO
 70
     0
 41
3.5
 42
2.0
 43
2.0
 44
1.5
 73
     0
 74
     0
 77
     1
 78
     9
140
4.0
147
1.0
176
   256
177
   256
178
   256
271
     1
272
     1
340
C
  0
ENDTAB
  0
TABLE
  2
BLOCK_RECORD
  5
1
330
0
100
AcDbSymbolTable
 70
     7
  0
BLOCK_RECORD
  5
2
330
1
100
AcDbSymbolTableRecord
100
AcDbBlockTableRecord
  2
*MODEL_SPACE
340
D5
  0
BLOCK_RECORD
  5
D7
330
1
100
AcDbSymbolTableRecord
100
AcDbBlockTableRecord
  2
*PAPER_SPACE
340
DA
  0
BLOCK_RECORD
  5
E
330
1
100
AcDbSymbolTableRecord
100
AcDbBlockTableRecord
  2
*D0
340
0
  0
BLOCK_RECORD
  5
1D
330
1
100
AcDbSymbolTableRecord
100
AcDbBlockTableRecord
  2
*D1
340
0
  0
BLOCK_RECORD
  5
2D
330
1
100
AcDbSymbolTableRecord
100
AcDbBlockTableRecord
  2
*D2
340
0
  0
BLOCK_RECORD
  5
3A
330
1
100
AcDbSymbolTableRecord
100
AcDbBlockTableRecord
  2
*D3
340
0
  0
BLOCK_RECORD
  5
4E
330
1
100
AcDbSymbolTableRecord
100
AcDbBlockTableRecord
  2
*D4
340
0
  0
BLOCK_RECORD
  5
5C
330
1
100
AcDbSymbolTableRecord
100
AcDbBlockTableRecord
  2
*D5
340
0
  0
BLOCK_RECORD
  5
A7
330
1
100
AcDbSymbolTableRecord
100
AcDbBlockTableRecord
  2
*D6
340
0
  0
ENDTAB
  0
ENDSEC
  0
SECTION
  2
BLOCKS
  0
BLOCK
  5
3
330
2
100
AcDbEntity
  8
0
100
AcDbBlockBegin
  2
*MODEL_SPACE
 70
     0
 10
0.0
 20
0.0
 30
0.0
  3
*MODEL_SPACE
  1

  0
ENDBLK
  5
D4
330
2
100
AcDbEntity
  8
0
100
AcDbBlockEnd
  0
BLOCK
  5
D8
330
D7
100
AcDbEntity
 67
     1
  8
0
100
AcDbBlockBegin
  2
*PAPER_SPACE
 70
     0
 10
0.0
 20
0.0
 30
0.0
  3
*PAPER_SPACE
  1

  0
ENDBLK
  5
D9
330
D7
100
AcDbEntity
 67
     1
  8
0
100
AcDbBlockEnd
  0
BLOCK
  5
F
330
E
100
AcDbEntity
  8
0
100
AcDbBlockBegin
  2
*D0
 70
     1
 10
0.0
 20
0.0
 30
0.0
  3
*D0
  1

  0
LINE
  5
10
330
E
100
AcDbEntity
  8
-TEXT3
370
    -2
100
AcDbLine
 10
-51.7043374879226
 20
193.6037144386854
 30
0.0
 11
-53.29566251202817
 21
193.6037144386854
 31
0.0
  0
LINE
  5
11
330
E
100
AcDbEntity
  8
-TEXT3
370
    -2
100
AcDbLine
 10
-14.49999999997607
 20
194.6037144386854
 30
0.0
 11
-53.29566251202817
 21
194.6037144386854
 31
0.0
  0
LINE
  5
12
330
E
100
AcDbEntity
  8
-TEXT3
370
    -2
100
AcDbLine
 10
-51.79566251202817
 20
190.1037144386855
 30
0.0
 11
-51.79566251202817
 21
186.6037144386855
 31
0.0
  0
LINE
  5
13
330
E
100
AcDbEntity
  8
-TEXT3
370
    -2
100
AcDbLine
 10
-51.79566251202817
 20
198.1037144386854
 30
0.0
 11
-51.79566251202817
 21
201.6037144386854
 31
0.0
  0
SOLID
  5
14
330
E
100
AcDbEntity
  8
-TEXT3
100
AcDbTrace
 10
-52.37899584536151
 20
190.1037144386855
 30
0.0
 11
-51.21232917869484
 21
190.1037144386855
 31
0.0
 12
-51.79566251202817
 22
193.6037144386854
 32
0.0
 13
-51.79566251202817
 23
193.6037144386854
 33
0.0
  0
SOLID
  5
15
330
E
100
AcDbEntity
  8
-TEXT3
100
AcDbTrace
 10
-52.37899584536151
 20
198.1037144386854
 30
0.0
 11
-51.21232917869484
 21
198.1037144386854
 31
0.0
 12
-51.79566251202817
 22
194.6037144386854
 32
0.0
 13
-51.79566251202817
 23
194.6037144386854
 33
0.0
  0
MTEXT
  5
16
330
E
100
AcDbEntity
  8
-TEXT3
100
AcDbMText
 10
-54.7956625120282
 20
194.1037144386854
 30
0.0
 40
4.0
 41
0.0
 71
     5
 72
     1
  1
\A1;1
 11
0.0000000000000001
 21
1.0
 31
0.0
 73
     1
 44
1.0
1001
ACAD
1000
MTEXTBEGIN
1070
    73
1070
     1
1070
    44
1040
1.0
1070
    74
1070
     0
1000
MTEXTEND
  0
POINT
  5
17
330
E
100
AcDbEntity
  8
DEFPOINTS
 62
     0
100
AcDbPoint
 10
-49.7043374879226
 20
193.6037144386854
 30
0.0
  0
POINT
  5
19
330
E
100
AcDbEntity
  8
DEFPOINTS
 62
     0
100
AcDbPoint
 10
-12.49999999997607
 20
194.6037144386854
 30
0.0
  0
POINT
  5
1A
330
E
100
AcDbEntity
  8
DEFPOINTS
 62
     0
100
AcDbPoint
 10
-51.79566251202817
 20
194.6037144386854
 30
0.0
  0
ENDBLK
  5
1B
330
E
100
AcDbEntity
  8
0
100
AcDbBlockEnd
  0
BLOCK
  5
1E
330
1D
100
AcDbEntity
  8
0
100
AcDbBlockBegin
  2
*D1
 70
     1
 10
0.0
 20
0.0
 30
0.0
  3
*D1
  1

  0
LINE
  5
1F
330
1D
100
AcDbEntity
  8
-TEXT3
370
    -2
100
AcDbLine
 10
-8.999999999976068
 20
199.6037144386852
 30
0.0
 11
-53.29566251202816
 21
199.6037144386852
 31
0.0
  0
LINE
  5
20
330
1D
100
AcDbEntity
  8
-TEXT3
370
    -2
100
AcDbLine
 10
-14.49999999997607
 20
194.6037144386854
 30
0.0
 11
-53.29566251202816
 21
194.6037144386854
 31
0.0
  0
LINE
  5
21
330
1D
100
AcDbEntity
  8
-TEXT3
370
    -2
100
AcDbLine
 10
-51.79566251202816
 20
191.1037144386854
 30
0.0
 11
-51.79566251202816
 21
187.6037144386854
 31
0.0
  0
LINE
  5
22
330
1D
100
AcDbEntity
  8
-TEXT3
370
    -2
100
AcDbLine
 10
-51.79566251202816
 20
203.1037144386853
 30
0.0
 11
-51.79566251202815
 21
211.2196219845724
 31
0.0
  0
SOLID
  5
23
330
1D
100
AcDbEntity
  8
-TEXT3
100
AcDbTrace
 10
-52.37899584536149
 20
191.1037144386854
 30
0.0
 11
-51.21232917869482
 21
191.1037144386854
 31
0.0
 12
-51.79566251202816
 22
194.6037144386854
 32
0.0
 13
-51.79566251202816
 23
194.6037144386854
 33
0.0
  0
SOLID
  5
24
330
1D
100
AcDbEntity
  8
-TEXT3
100
AcDbTrace
 10
-52.37899584536149
 20
203.1037144386853
 30
0.0
 11
-51.21232917869482
 21
203.1037144386853
 31
0.0
 12
-51.79566251202816
 22
199.6037144386852
 32
0.0
 13
-51.79566251202816
 23
199.6037144386852
 33
0.0
  0
MTEXT
  5
25
330
1D
100
AcDbEntity
  8
-TEXT3
100
AcDbMText
 10
-54.84596842637216
 20
208.9116682116288
 30
0.0
 40
4.0
 41
0.0
 71
     5
 72
     1
  1
\A1;5
 11
0.0000000000000001
 21
1.0
 31
0.0
 73
     1
 44
1.0
1001
ACAD
1000
MTEXTBEGIN
1070
    73
1070
     1
1070
    44
1040
1.0
1070
    74
1070
     0
1000
MTEXTEND
  0
POINT
  5
26
330
1D
100
AcDbEntity
  8
DEFPOINTS
 62
     0
100
AcDbPoint
 10
-6.999999999976068
 20
199.6037144386852
 30
0.0
  0
POINT
  5
27
330
1D
100
AcDbEntity
  8
DEFPOINTS
 62
     0
100
AcDbPoint
 10
-12.49999999997607
 20
194.6037144386854
 30
0.0
  0
POINT
  5
28
330
1D
100
AcDbEntity
  8
DEFPOINTS
 62
     0
100
AcDbPoint
 10
-51.79566251202816
 20
194.6037144386854
 30
0.0
  0
ENDBLK
  5
29
330
1D
100
AcDbEntity
  8
0
100
AcDbBlockEnd
  0
BLOCK
  5
2E
330
2D
100
AcDbEntity
  8
0
100
AcDbBlockBegin
  2
*D2
 70
     1
 10
0.0
 20
0.0
 30
0.0
  3
*D2
  1

  0
LINE
  5
2F
330
2D
100
AcDbEntity
  8
-TEXT3
370
    -2
100
AcDbLine
 10
-17.79566251202837
 20
180.6037144386847
 30
0.0
 11
-53.29566251202828
 21
180.6037144386847
 31
0.0
  0
LINE
  5
30
330
2D
100
AcDbEntity
  8
-TEXT3
370
    -2
100
AcDbLine
 10
-14.49999999997595
 20
165.6037144386846
 30
0.0
 11
-53.29566251202829
 21
165.6037144386846
 31
0.0
  0
LINE
  5
31
330
2D
100
AcDbEntity
  8
-TEXT3
370
    -2
100
AcDbLine
 10
-51.79566251202828
 20
177.1037144386847
 30
0.0
 11
-51.79566251202828
 21
169.1037144386846
 31
0.0
  0
SOLID
  5
32
330
2D
100
AcDbEntity
  8
-TEXT3
100
AcDbTrace
 10
-52.37899584536162
 20
177.1037144386847
 30
0.0
 11
-51.21232917869495
 21
177.1037144386847
 31
0.0
 12
-51.79566251202828
 22
180.6037144386847
 32
0.0
 13
-51.79566251202828
 23
180.6037144386847
 33
0.0
  0
SOLID
  5
33
330
2D
100
AcDbEntity
  8
-TEXT3
100
AcDbTrace
 10
-52.37899584536162
 20
169.1037144386846
 30
0.0
 11
-51.21232917869495
 21
169.1037144386846
 31
0.0
 12
-51.79566251202828
 22
165.6037144386846
 32
0.0
 13
-51.79566251202828
 23
165.6037144386846
 33
0.0
  0
MTEXT
  5
34
330
2D
100
AcDbEntity
  8
-TEXT3
100
AcDbMText
 10
-54.8459684263723
 20
173.1037144386846
 30
0.0
 40
4.0
 41
0.0
 71
     5
 72
     1
  1
\A1;15
 11
0.0000000000000001
 21
1.0
 31
0.0
 73
     1
 44
1.0
1001
ACAD
1000
MTEXTBEGIN
1070
    73
1070
     1
1070
    44
1040
1.0
1070
    74
1070
     0
1000
MTEXTEND
  0
POINT
  5
35
330
2D
100
AcDbEntity
  8
DEFPOINTS
 62
     0
100
AcDbPoint
 10
-15.79566251202837
 20
180.6037144386847
 30
0.0
  0
POINT
  5
36
330
2D
100
AcDbEntity
  8
DEFPOINTS
 62
     0
100
AcDbPoint
 10
-12.49999999997595
 20
165.6037144386846
 30
0.0
  0
POINT
  5
37
330
2D
100
AcDbEntity
  8
DEFPOINTS
 62
     0
100
AcDbPoint
 10
-51.79566251202828
 20
165.6037144386846
 30
0.0
  0
ENDBLK
  5
38
330
2D
100
AcDbEntity
  8
0
100
AcDbBlockEnd
  0
BLOCK
  5
3B
330
3A
100
AcDbEntity
  8
0
100
AcDbBlockBegin
  2
*D3
 70
     1
 10
0.0
 20
0.0
 30
0.0
  3
*D3
  1

  0
LINE
  5
3C
330
3A
100
AcDbEntity
  8
-TEXT3
370
    -2
100
AcDbLine
 10
-48.7043374879226
 20
181.6037144386848
 30
0.0
 11
-53.29566251202827
 21
181.6037144386848
 31
0.0
  0
LINE
  5
3D
330
3A
100
AcDbEntity
  8
-TEXT3
370
    -2
100
AcDbLine
 10
-14.49999999997558
 20
180.6037144386847
 30
0.0
 11
-53.29566251202827
 21
180.6037144386847
 31
0.0
  0
LINE
  5
3E
330
3A
100
AcDbEntity
  8
-TEXT3
370
    -2
100
AcDbLine
 10
-51.79566251202827
 20
185.1037144386848
 30
0.0
 11
-51.79566251202827
 21
188.6037144386848
 31
0.0
  0
LINE
  5
3F
330
3A
100
AcDbEntity
  8
-TEXT3
370
    -2
100
AcDbLine
 10
-51.79566251202827
 20
177.1037144386847
 30
0.0
 11
-51.79566251202828
 21
173.6037144386846
 31
0.0
  0
SOLID
  5
40
330
3A
100
AcDbEntity
  8
-TEXT3
100
AcDbTrace
 10
-52.37899584536161
 20
185.1037144386848
 30
0.0
 11
-51.21232917869494
 21
185.1037144386848
 31
0.0
 12
-51.79566251202827
 22
181.6037144386848
 32
0.0
 13
-51.79566251202827
 23
181.6037144386848
 33
0.0
  0
SOLID
  5
41
330
3A
100
AcDbEntity
  8
-TEXT3
100
AcDbTrace
 10
-52.37899584536161
 20
177.1037144386847
 30
0.0
 11
-51.21232917869494
 21
177.1037144386847
 31
0.0
 12
-51.79566251202827
 22
180.6037144386847
 32
0.0
 13
-51.79566251202827
 23
180.6037144386847
 33
0.0
  0
MTEXT
  5
42
330
3A
100
AcDbEntity
  8
-TEXT3
100
AcDbMText
 10
-54.7956625120283
 20
181.1037144386847
 30
0.0
 40
4.0
 41
0.0
 71
     5
 72
     1
  1
\A1;1
 11
0.0000000000000001
 21
1.0
 31
0.0
 73
     1
 44
1.0
1001
ACAD
1000
MTEXTBEGIN
1070
    73
1070
     1
1070
    44
1040
1.0
1070
    74
1070
     0
1000
MTEXTEND
  0
POINT
  5
43
330
3A
100
AcDbEntity
  8
DEFPOINTS
 62
     0
100
AcDbPoint
 10
-46.7043374879226
 20
181.6037144386848
 30
0.0
  0
POINT
  5
44
330
3A
100
AcDbEntity
  8
DEFPOINTS
 62
     0
100
AcDbPoint
 10
-12.49999999997558
 20
180.6037144386847
 30
0.0
  0
POINT
  5
45
330
3A
100
AcDbEntity
  8
DEFPOINTS
 62
     0
100
AcDbPoint
 10
-51.79566251202827
 20
180.6037144386847
 30
0.0
  0
ENDBLK
  5
46
330
3A
100
AcDbEntity
  8
0
100
AcDbBlockEnd
  0
BLOCK
  5
4F
330
4E
100
AcDbEntity
  8
0
100
AcDbBlockBegin
  2
*D4
 70
     1
 10
0.0
 20
0.0
 30
0.0
  3
*D4
  1

  0
LINE
  5
50
330
4E
100
AcDbEntity
  8
-TEXT3
370
    -2
100
AcDbLine
 10
-1.999999999975926
 20
121.5321891869159
 30
0.0
 11
-24.45791386315858
 21
121.5321891869159
 31
0.0
  0
LINE
  5
51
330
4E
100
AcDbEntity
  8
-TEXT3
370
    -2
100
AcDbLine
 10
-1.999999999975926
 20
115.0321891869159
 30
0.0
 11
-24.45791386315858
 21
115.0321891869159
 31
0.0
  0
LINE
  5
52
330
4E
100
AcDbEntity
  8
-TEXT3
370
    -2
100
AcDbLine
 10
-22.95791386315858
 20
125.0321891869159
 30
0.0
 11
-22.95791386315858
 21
128.5321891869159
 31
0.0
  0
LINE
  5
53
330
4E
100
AcDbEntity
  8
-TEXT3
370
    -2
100
AcDbLine
 10
-22.95791386315858
 20
111.5321891869159
 30
0.0
 11
-22.95791386315858
 21
94.0376276641423
 31
0.0
  0
SOLID
  5
54
330
4E
100
AcDbEntity
  8
-TEXT3
100
AcDbTrace
 10
-23.54124719649191
 20
125.0321891869159
 30
0.0
 11
-22.37458052982525
 21
125.0321891869159
 31
0.0
 12
-22.95791386315858
 22
121.5321891869159
 32
0.0
 13
-22.95791386315858
 23
121.5321891869159
 33
0.0
  0
SOLID
  5
55
330
4E
100
AcDbEntity
  8
-TEXT3
100
AcDbTrace
 10
-23.54124719649191
 20
111.5321891869159
 30
0.0
 11
-22.37458052982525
 21
111.5321891869159
 31
0.0
 12
-22.95791386315858
 22
115.0321891869159
 32
0.0
 13
-22.95791386315858
 23
115.0321891869159
 33
0.0
  0
MTEXT
  5
56
330
4E
100
AcDbEntity
  8
-TEXT3
100
AcDbMText
 10
-26.18361066805323
 20
101.0349084255291
 30
0.0
 40
4.0
 41
0.0
 71
     5
 72
     1
  1
\A1;%%c6.5
 11
0.0000000000000001
 21
1.0
 31
0.0
 73
     1
 44
1.0
1001
ACAD
1000
MTEXTBEGIN
1070
    73
1070
     1
1070
    44
1040
1.0
1070
    74
1070
     0
1000
MTEXTEND
  0
POINT
  5
57
330
4E
100
AcDbEntity
  8
DEFPOINTS
 62
     0
100
AcDbPoint
 10
0.0000000000240732
 20
121.5321891869159
 30
0.0
  0
POINT
  5
58
330
4E
100
AcDbEntity
  8
DEFPOINTS
 62
     0
100
AcDbPoint
 10
0.0000000000240732
 20
115.0321891869159
 30
0.0
  0
POINT
  5
59
330
4E
100
AcDbEntity
  8
DEFPOINTS
 62
     0
100
AcDbPoint
 10
-22.95791386315858
 20
115.0321891869159
 30
0.0
  0
ENDBLK
  5
5A
330
4E
100
AcDbEntity
  8
0
100
AcDbBlockEnd
  0
BLOCK
  5
5D
330
5C
100
AcDbEntity
  8
0
100
AcDbBlockBegin
  2
*D5
 70
     1
 10
0.0
 20
0.0
 30
0.0
  3
*D5
  1

  0
LINE
  5
5E
330
5C
100
AcDbEntity
  8
-TEXT3
370
    -2
100
AcDbLine
 10
-48.7043374879226
 20
193.6037144386854
 30
0.0
 11
-53.29566251202817
 21
193.6037144386854
 31
0.0
  0
LINE
  5
5F
330
5C
100
AcDbEntity
  8
-TEXT3
370
    -2
100
AcDbLine
 10
-48.7043374879226
 20
181.6037144386848
 30
0.0
 11
-53.29566251202817
 21
181.6037144386848
 31
0.0
  0
LINE
  5
60
330
5C
100
AcDbEntity
  8
-TEXT3
370
    -2
100
AcDbLine
 10
-51.79566251202817
 20
190.1037144386855
 30
0.0
 11
-51.79566251202817
 21
185.1037144386848
 31
0.0
  0
SOLID
  5
61
330
5C
100
AcDbEntity
  8
-TEXT3
100
AcDbTrace
 10
-52.37899584536151
 20
190.1037144386855
 30
0.0
 11
-51.21232917869484
 21
190.1037144386855
 31
0.0
 12
-51.79566251202817
 22
193.6037144386854
 32
0.0
 13
-51.79566251202817
 23
193.6037144386854
 33
0.0
  0
SOLID
  5
62
330
5C
100
AcDbEntity
  8
-TEXT3
100
AcDbTrace
 10
-52.37899584536151
 20
185.1037144386848
 30
0.0
 11
-51.21232917869484
 21
185.1037144386848
 31
0.0
 12
-51.79566251202817
 22
181.6037144386848
 32
0.0
 13
-51.79566251202817
 23
181.6037144386848
 33
0.0
  0
MTEXT
  5
63
330
5C
100
AcDbEntity
  8
-TEXT3
100
AcDbMText
 10
-54.89627434071617
 20
187.6037144386851
 30
0.0
 40
4.0
 41
0.0
 71
     5
 72
     1
  1
\A1;G
 11
0.0000000000000001
 21
1.0
 31
0.0
 73
     1
 44
1.0
1001
ACAD
1000
MTEXTBEGIN
1070
    73
1070
     1
1070
    44
1040
1.0
1070
    74
1070
     0
1000
MTEXTEND
  0
POINT
  5
64
330
5C
100
AcDbEntity
  8
DEFPOINTS
 62
     0
100
AcDbPoint
 10
-46.7043374879226
 20
193.6037144386854
 30
0.0
  0
POINT
  5
65
330
5C
100
AcDbEntity
  8
DEFPOINTS
 62
     0
100
AcDbPoint
 10
-46.7043374879226
 20
181.6037144386848
 30
0.0
  0
POINT
  5
66
330
5C
100
AcDbEntity
  8
DEFPOINTS
 62
     0
100
AcDbPoint
 10
-51.79566251202817
 20
181.6037144386848
 30
0.0
  0
ENDBLK
  5
67
330
5C
100
AcDbEntity
  8
0
100
AcDbBlockEnd
  0
BLOCK
  5
A8
330
A7
100
AcDbEntity
  8
0
100
AcDbBlockBegin
  2
*D6
 70
     1
 10
0.0
 20
0.0
 30
0.0
  3
*D6
  1

  0
LINE
  5
A9
330
A7
100
AcDbEntity
  8
-TEXT3
370
    -2
100
AcDbLine
 10
-12.49999999997607
 20
199.6037144386854
 30
0.0
 11
-12.49999999997607
 21
212.5662007959148
 31
0.0
  0
LINE
  5
AA
330
A7
100
AcDbEntity
  8
-TEXT3
370
    -2
100
AcDbLine
 10
12.50000000002393
 20
199.6037144386854
 30
0.0
 11
12.50000000002393
 21
212.5662007959148
 31
0.0
  0
LINE
  5
AB
330
A7
100
AcDbEntity
  8
-TEXT3
370
    -2
100
AcDbLine
 10
-8.999999999976068
 20
211.0662007959148
 30
0.0
 11
9.000000000023931
 21
211.0662007959148
 31
0.0
  0
SOLID
  5
AC
330
A7
100
AcDbEntity
  8
-TEXT3
100
AcDbTrace
 10
-8.999999999976068
 20
211.6495341292481
 30
0.0
 11
-8.999999999976068
 21
210.4828674625814
 31
0.0
 12
-12.49999999997607
 22
211.0662007959148
 32
0.0
 13
-12.49999999997607
 23
211.0662007959148
 33
0.0
  0
SOLID
  5
AD
330
A7
100
AcDbEntity
  8
-TEXT3
100
AcDbTrace
 10
9.000000000023931
 20
211.6495341292481
 30
0.0
 11
9.000000000023931
 21
210.4828674625814
 31
0.0
 12
12.50000000002393
 22
211.0662007959148
 32
0.0
 13
12.50000000002393
 23
211.0662007959148
 33
0.0
  0
MTEXT
  5
AE
330
A7
100
AcDbEntity
  8
-TEXT3
100
AcDbMText
 10
0.0000000000223112
 20
214.2918976008094
 30
0.0
 40
4.0
 41
0.0
 71
     5
 72
     1
  1
\A1;%%c25
 73
     1
 44
1.0
1001
ACAD
1000
MTEXTBEGIN
1070
    73
1070
     1
1070
    44
1040
1.0
1070
    74
1070
     0
1000
MTEXTEND
  0
POINT
  5
AF
330
A7
100
AcDbEntity
  8
DEFPOINTS
 62
     0
100
AcDbPoint
 10
-12.49999999997607
 20
197.6037144386854
 30
0.0
  0
POINT
  5
B0
330
A7
100
AcDbEntity
  8
DEFPOINTS
 62
     0
100
AcDbPoint
 10
12.50000000002393
 20
197.6037144386854
 30
0.0
  0
POINT
  5
B1
330
A7
100
AcDbEntity
  8
DEFPOINTS
 62
     0
100
AcDbPoint
 10
12.50000000002393
 20
211.0662007959148
 30
0.0
  0
ENDBLK
  5
B2
330
A7
100
AcDbEntity
  8
0
100
AcDbBlockEnd
  0
ENDSEC
  0
SECTION
  2
ENTITIES
  0
DIMENSION
  5
9
330
2
100
AcDbEntity
  8
-TEXT3
100
AcDbDimension
  2
*D0
 10
-51.79566251202817
 20
194.6037144386854
 30
0.0
 11
-51.7956625120282
 21
194.1037144386854
 31
0.0
 70
   128
 71
     5
 42
0.9999999999999431
  3
1-1PRO
100
AcDbAlignedDimension
 13
-49.7043374879226
 23
193.6037144386854
 33
0.0
 14
-12.49999999997607
 24
194.6037144386854
 34
0.0
 50
90.0
100
AcDbRotatedDimension
  0
DIMENSION
  5
1C
330
2
100
AcDbEntity
  8
-TEXT3
100
AcDbDimension
  2
*D1
 10
-51.79566251202816
 20
194.6037144386854
 30
0.0
 11
-51.79566251202818
 21
208.9116682116288
 31
0.0
 70
   128
 71
     5
 42
4.999999999999829
  3
1-1PRO
100
AcDbAlignedDimension
 13
-6.999999999976068
 23
199.6037144386852
 33
0.0
 14
-12.49999999997607
 24
194.6037144386854
 34
0.0
 50
90.0
100
AcDbRotatedDimension
  0
LINE
  5
2A
330
2
100
AcDbEntity
  8
-VERGLASUNG
100
AcDbLine
 10
-18.46697227694238
 20
181.6037142972631
 30
0.0
 11
-14.57309745731635
 21
185.4975891168892
 31
0.0
  0
DIMENSION
  5
2C
330
2
100
AcDbEntity
  8
-TEXT3
100
AcDbDimension
  2
*D2
 10
-51.79566251202828
 20
165.6037144386846
 30
0.0
 11
-54.8459684263723
 21
173.1037144386846
 31
0.0
 71
     5
 42
15.00000000000006
  3
1-1PRO
100
AcDbAlignedDimension
 13
-15.79566251202837
 23
180.6037144386847
 33
0.0
 14
-12.49999999997595
 24
165.6037144386846
 34
0.0
 50
90.0
100
AcDbRotatedDimension
  0
DIMENSION
  5
39
330
2
100
AcDbEntity
  8
-TEXT3
100
AcDbDimension
  2
*D3
 10
-51.79566251202827
 20
180.6037144386847
 30
0.0
 11
-51.7956625120283
 21
181.1037144386847
 31
0.0
 70
   128
 71
     5
 42
1.000000000000113
  3
1-1PRO
100
AcDbAlignedDimension
 13
-46.7043374879226
 23
181.6037144386848
 33
0.0
 14
-12.49999999997558
 24
180.6037144386847
 34
0.0
 50
90.0
100
AcDbRotatedDimension
  0
LINE
  5
47
330
2
100
AcDbEntity
  8
-VERGLASUNG
100
AcDbLine
 10
-16.90447227694238
 20
181.6037142972631
 30
0.0
 11
-13.01059745731635
 21
185.497589116889
 31
0.0
  0
MTEXT
  5
48
330
2
100
AcDbEntity
  8
-TEXT2
100
AcDbMText
 10
-44.72690913441278
 20
153.1846489699841
 30
0.0
 40
4.0
 41
43.30449999999999
 71
     1
 72
     5
  1
Zylinderk.-Schr.\PDIN6912-M6
 73
     1
 44
1.0
1001
ACAD
1000
MTEXTBEGIN
1070
    73
1070
     1
1070
    44
1040
1.0
1070
    74
1070
     0
1000
MTEXTEND
  0
LINE
  5
4A
330
2
100
AcDbEntity
  8
-SYSTEM
100
AcDbLine
 10
21.07817331650926
 20
118.2821891869159
 30
0.0
 11
-21.07817331646112
 21
118.2821891869159
 31
0.0
  0
DIMENSION
  5
4D
330
2
100
AcDbEntity
  8
-TEXT3
100
AcDbDimension
  2
*D4
 10
-22.95791386315858
 20
115.0321891869159
 30
0.0
 11
-26.18361066805323
 21
101.0349084255291
 31
0.0
  1
%%c<>
 71
     5
 42
6.5
  3
1-1PRO
100
AcDbAlignedDimension
 13
0.0000000000240732
 23
121.5321891869159
 33
0.0
 14
0.0000000000240732
 24
115.0321891869159
 34
0.0
 50
90.0
100
AcDbRotatedDimension
  0
DIMENSION
  5
5B
330
2
100
AcDbEntity
  8
-TEXT3
100
AcDbDimension
  2
*D5
 10
-51.79566251202817
 20
181.6037144386848
 30
0.0
 11
-54.89627434071617
 21
187.6037144386851
 31
0.0
  1
G
 71
     5
 42
12.00000000000068
  3
1-1PRO
100
AcDbAlignedDimension
 13
-46.7043374879226
 23
193.6037144386854
 33
0.0
 14
-46.7043374879226
 24
181.6037144386848
 34
0.0
 50
90.0
100
AcDbRotatedDimension
  0
LINE
  5
68
330
2
100
AcDbEntity
  8
-VERGLASUNG
100
AcDbLine
 10
-42.3947292310649
 20
181.6037142265524
 30
0.0
 11
-38.50085441143887
 21
185.4975890461784
 31
0.0
  0
LINE
  5
69
330
2
100
AcDbEntity
  8
-VERGLASUNG
100
AcDbLine
 10
-40.8322292310649
 20
181.6037142265524
 30
0.0
 11
-36.93835441143887
 21
185.4975890461783
 31
0.0
  0
LINE
  5
6A
330
2
100
AcDbEntity
  8
-VERGLASUNG
100
AcDbLine
 10
-43.9572292310649
 20
181.6037142265524
 30
0.0
 11
-40.06335441143886
 21
185.4975890461784
 31
0.0
  0
LINE
  5
6B
330
2
100
AcDbEntity
  8
-VERGLASUNG
100
AcDbLine
 10
-20.02947227694239
 20
181.6037142972631
 30
0.0
 11
-16.13559745731635
 21
185.4975891168892
 31
0.0
  0
LINE
  5
6C
330
2
100
AcDbEntity
  8
-VERGLASUNG
100
AcDbLine
 10
-47.17481466705561
 20
189.709839406927
 30
0.0
 11
-43.28093984742958
 21
193.6037142265531
 31
0.0
  0
LINE
  5
6D
330
2
100
AcDbEntity
  8
-VERGLASUNG
100
AcDbLine
 10
-45.61231466705561
 20
189.709839406927
 30
0.0
 11
-41.71843984742958
 21
193.6037142265531
 31
0.0
  0
LINE
  5
6E
330
2
100
AcDbEntity
  8
-VERGLASUNG
100
AcDbLine
 10
-44.04981466705561
 20
189.709839406927
 30
0.0
 11
-40.15593984742958
 21
193.6037142265531
 31
0.0
  0
LINE
  5
6F
330
2
100
AcDbEntity
  8
-VERGLASUNG
100
AcDbLine
 10
-23.24705771293307
 20
189.70983968977
 30
0.0
 11
-19.35318289330703
 21
193.6037145093961
 31
0.0
  0
LINE
  5
70
330
2
100
AcDbEntity
  8
-VERGLASUNG
100
AcDbLine
 10
-21.68455771293307
 20
189.70983968977
 30
0.0
 11
-17.79068289330703
 21
193.6037145093961
 31
0.0
  0
LINE
  5
71
330
2
100
AcDbEntity
  8
-VERGLASUNG
100
AcDbLine
 10
-20.12205771293307
 20
189.70983968977
 30
0.0
 11
-16.22818289330703
 21
193.6037145093961
 31
0.0
  0
CIRCLE
  5
72
330
2
100
AcDbEntity
  8
-TEXT3
100
AcDbCircle
 10
0.0000000000240163
 20
118.2821891869159
 30
0.0
 40
7.0
  0
ARC
  5
73
330
2
100
AcDbEntity
  8
-SCHRAFFUR
100
AcDbCircle
 10
0.0000000000240163
 20
118.2821891869159
 30
0.0
 40
6.000000000000056
100
AcDbArc
 50
200.0000000000001
 51
109.9999999999982
  0
CIRCLE
  5
75
330
2
100
AcDbEntity
  8
-PROFILAUSSENKANTET
100
AcDbCircle
 10
0.0000000000240732
 20
118.2821891869159
 30
0.0
 40
3.25
  0
CIRCLE
  5
77
330
2
100
AcDbEntity
  8
-PROFILAUSSENKANTET
100
AcDbCircle
 10
0.0000000000240732
 20
118.2821891869159
 30
0.0
 40
12.5
  0
CIRCLE
  5
78
330
2
100
AcDbEntity
  8
-PROFILAUSSENKANTET
100
AcDbCircle
 10
0.0000000000240163
 20
118.2821891869159
 30
0.0
 40
5.458500000000071
  0
LINE
  5
79
330
2
100
AcDbEntity
  8
-SYSTEM
100
AcDbLine
 10
0.0000000000240732
 20
139.3603625034011
 30
0.0
 11
0.0000000000240732
 21
97.20401587043074
 31
0.0
  0
LINE
  5
7A
330
2
100
AcDbEntity
  8
-NORMTEIL_VERDECKT
100
AcDbLine
 10
7.000000000023987
 20
193.6037144386853
 30
0.0
 11
7.000000000023874
 21
180.6037144386846
 31
0.0
  0
LINE
  5
7D
330
2
100
AcDbEntity
  8
-NORMTEIL_VERDECKT
100
AcDbLine
 10
-5.999999999976012
 20
194.6037144386852
 30
0.0
 11
-5.99999999997604
 21
180.6037144386847
 31
0.0
  0
LINE
  5
7E
330
2
100
AcDbEntity
  8
-NORMTEIL_VERDECKT
100
AcDbLine
 10
-6.999999999976012
 20
193.6037144386853
 30
0.0
 11
-6.99999999997604
 21
180.6037144386847
 31
0.0
  0
LWPOLYLINE
  5
7F
330
2
100
AcDbEntity
  8
-NORMTEIL_VERDECKT
100
AcDbPolyline
 90
        6
 70
     0
 43
0.0
 10
-5.999999999976012
 20
194.6037144386853
 10
-5.999999999975983
 20
181.4157144386852
 10
-5.458499999976083
 20
180.6037144386853
 10
5.458500000024059
 20
180.6037144386852
 10
6.000000000024044
 20
181.4157144386851
 10
6.000000000024073
 20
194.6037144386853
  0
LWPOLYLINE
  5
80
330
2
100
AcDbEntity
  8
-NORMTEIL_VERDECKT
100
AcDbPolyline
 90
        6
 70
     0
 43
0.0
 10
5.458500000024059
 20
191.2917144386845
 10
5.458500000024031
 20
168.6037144386845
 10
-5.45849999997597
 20
168.6037144386846
 10
-5.458499999976282
 20
191.2917144386849
 10
-5.999999999975926
 20
192.1037144386846
 10
-6.999999999976012
 20
192.1037144386846
  0
LINE
  5
81
330
2
100
AcDbEntity
  8
-SYSTEM
100
AcDbLine
 10
0.0000000000239311
 20
202.7885026624869
 30
0.0
 11
0.0000000000241016
 21
156.1613635154832
 31
0.0
  0
LINE
  5
82
330
2
100
AcDbEntity
  8
-NORMTEIL_VERDECKT
100
AcDbLine
 10
-3.999999999975955
 20
168.6037144386846
 30
0.0
 11
4.000000000024044
 21
168.6037144386846
 31
0.0
  0
LWPOLYLINE
  5
83
330
2
100
AcDbEntity
  8
-NORMTEIL_VERDECKT
100
AcDbPolyline
 90
        6
 70
     1
 43
0.0
 10
-4.999999999975955
 20
168.6037144386846
 10
5.000000000024044
 20
168.6037144386846
 10
5.000000000024044
 20
171.6037144386846
 42
0.4142135623730951
 10
4.000000000024044
 20
172.6037144386846
 10
-3.999999999975955
 20
172.6037144386846
 42
0.4142135623730951
 10
-4.999999999975955
 20
171.6037144386846
  0
LINE
  5
84
330
2
100
AcDbEntity
  8
-NORMTEIL_VERDECKT
100
AcDbLine
 10
-5.999999999975983
 20
181.4157144386852
 30
0.0
 11
6.000000000024073
 21
181.4157144386851
 31
0.0
  0
HATCH
  5
85
330
2
100
AcDbEntity
  8
-SCHRAFFUR
100
AcDbHatch
 10
0.0
 20
0.0
 30
0.0
210
0.0
220
0.0
230
1.0
  2
SOLID
 70
     1
 71
     1
 91
        1
 92
        1
 93
        4
 72
     1
 10
-11.99999999997533
 20
180.6037144386847
 11
12.00000000002461
 21
180.6037144386845
 72
     1
 10
12.00000000002461
 20
180.6037144386845
 11
12.00000000002467
 21
181.6037144386845
 72
     1
 10
12.00000000002467
 20
181.6037144386845
 11
-11.99999999997533
 21
181.6037144386847
 72
     1
 10
-11.99999999997533
 20
181.6037144386847
 11
-11.99999999997533
 21
180.6037144386847
 97
        1
330
86
 75
     0
 76
     1
 98
        1
 10
-116.7547086937088
 20
-43.12640044916808
  0
LWPOLYLINE
  5
86
102
{ACAD_REACTORS
330
85
102
}
330
2
100
AcDbEntity
  8
-DICHTUNG
100
AcDbPolyline
 90
        4
 70
     1
 43
0.0
 10
-11.99999999997533
 20
180.6037144386847
 10
12.00000000002461
 20
180.6037144386845
 10
12.00000000002467
 20
181.6037144386845
 10
-11.99999999997533
 20
181.6037144386847
  0
LWPOLYLINE
  5
88
330
2
100
AcDbEntity
  8
-PROFILAUSSENKANTET
100
AcDbPolyline
 90
        4
 70
     0
 43
0.0
 10
-11.949999999976
 20
180.6037144386847
 10
-12.49999999997595
 20
180.6037144386846
 10
-12.49999999997595
 20
165.6037144386846
 10
12.50000000002404
 20
165.6037144386846
  0
LINE
  5
89
330
2
100
AcDbEntity
  8
-SCHRAFFUR
100
AcDbLine
 10
2.233000000024048
 20
153.6037144386846
 30
0.0
 11
2.233000000024048
 21
165.6037144386846
 31
0.0
  0
LINE
  5
8A
330
2
100
AcDbEntity
  8
-SCHRAFFUR
100
AcDbLine
 10
-2.232999999975959
 20
153.6037144386846
 30
0.0
 11
-2.232999999975959
 21
165.6037144386846
 31
0.0
  0
LWPOLYLINE
  5
8B
330
2
100
AcDbEntity
  8
-NORMTEIL
100
AcDbPolyline
 90
        6
 70
     0
 43
0.0
 10
-2.999999999975955
 20
165.6037144386846
 10
-2.999999999975955
 20
154.3707144386846
 10
-2.232999999975959
 20
153.6037144386846
 10
2.233000000024048
 20
153.6037144386846
 10
3.000000000024044
 20
154.3707144386846
 10
3.000000000024044
 20
165.6037144386846
  0
LINE
  5
8D
330
2
100
AcDbEntity
  8
-SCHRAFFUR
100
AcDbLine
 10
-2.999999999975955
 20
154.3707144386846
 30
0.0
 11
3.000000000024044
 21
154.3707144386846
 31
0.0
  0
LINE
  5
8E
330
2
100
AcDbEntity
  8
-NORMTEIL_VERDECKT
100
AcDbLine
 10
-5.999999999976012
 20
177.6037144386848
 30
0.0
 11
-5.458499999976197
 21
177.6037144386848
 31
0.0
  0
LINE
  5
8F
330
2
100
AcDbEntity
  8
-NORMTEIL_VERDECKT
100
AcDbLine
 10
-5.999999999976012
 20
177.6037144386848
 30
0.0
 11
-5.458499999976197
 21
172.399992206238
 31
0.0
  0
LINE
  5
90
330
2
100
AcDbEntity
  8
-NORMTEIL_VERDECKT
100
AcDbLine
 10
-5.999999999976012
 20
181.4157144386852
 30
0.0
 11
-5.999999999976012
 21
177.6037144386846
 31
0.0
  0
LINE
  5
91
330
2
100
AcDbEntity
  8
-TEXT3
100
AcDbLine
 10
-2.999999999975955
 20
165.6037144386846
 30
0.0
 11
3.000000000024044
 21
165.6037144386846
 31
0.0
  0
LWPOLYLINE
  5
92
330
2
100
AcDbEntity
  8
-NORMTEIL_VERDECKT
100
AcDbPolyline
 90
        4
 70
     0
 43
0.0
 10
-2.886751345924096
 20
172.6037144386846
 10
-2.886751345924096
 20
169.6037144386846
 10
2.886751345972186
 20
169.6037144386846
 10
2.886751345972186
 20
172.6037144386846
  0
LINE
  5
93
330
2
100
AcDbEntity
  8
-NORMTEIL_VERDECKT
100
AcDbLine
 10
-1.443375672950026
 20
172.6037144386846
 30
0.0
 11
-1.443375672950026
 21
169.6037144386846
 31
0.0
  0
LINE
  5
94
330
2
100
AcDbEntity
  8
-NORMTEIL_VERDECKT
100
AcDbLine
 10
-3.249999999975955
 20
165.6037144386846
 30
0.0
 11
-3.249999999975955
 21
168.6037144386846
 31
0.0
  0
LINE
  5
95
330
2
100
AcDbEntity
  8
-NORMTEIL_VERDECKT
100
AcDbLine
 10
1.443375672998115
 20
172.6037144386846
 30
0.0
 11
1.443375672998115
 21
169.6037144386846
 31
0.0
  0
LINE
  5
96
330
2
100
AcDbEntity
  8
-NORMTEIL_VERDECKT
100
AcDbLine
 10
3.250000000024044
 20
165.6037144386846
 30
0.0
 11
3.250000000024044
 21
168.6037144386846
 31
0.0
  0
LINE
  5
97
330
2
100
AcDbEntity
  8
-NORMTEIL_VERDECKT
100
AcDbLine
 10
6.000000000024016
 20
177.6037144386845
 30
0.0
 11
5.458500000024031
 21
172.3999922062377
 31
0.0
  0
LWPOLYLINE
  5
98
330
2
100
AcDbEntity
  8
-PROFILAUSSENKANTET
100
AcDbPolyline
 90
        4
 70
     0
 43
0.0
 10
12.50000000002404
 20
165.6037144386846
 10
12.50000000002404
 20
165.6037144386846
 10
12.50000000002404
 20
180.6037144386846
 10
11.95000000002397
 20
180.6037144386846
  0
LINE
  5
99
330
2
100
AcDbEntity
  8
-NORMTEIL_VERDECKT
100
AcDbLine
 10
6.000000000024073
 20
181.4157144386851
 30
0.0
 11
6.000000000024016
 21
177.6037144386845
 31
0.0
  0
LINE
  5
9A
330
2
100
AcDbEntity
  8
-NORMTEIL_VERDECKT
100
AcDbLine
 10
5.458500000024031
 20
177.6037144386846
 30
0.0
 11
6.000000000024016
 21
177.6037144386843
 31
0.0
  0
LINE
  5
9B
330
2
100
AcDbEntity
  8
-VERGLASUNG
100
AcDbLine
 10
15.57553538162784
 20
181.6037142265522
 30
0.0
 11
19.46941020125388
 21
185.4975890461782
 31
0.0
  0
LINE
  5
9C
330
2
100
AcDbEntity
  8
-VERGLASUNG
100
AcDbLine
 10
17.13803538162784
 20
181.6037142265522
 30
0.0
 11
21.03191020125388
 21
185.4975890461782
 31
0.0
  0
LINE
  5
9D
330
2
100
AcDbEntity
  8
-VERGLASUNG
100
AcDbLine
 10
18.70053538162784
 20
181.6037142265522
 30
0.0
 11
22.59441020125388
 21
185.4975890461781
 31
0.0
  0
LWPOLYLINE
  5
9E
330
2
100
AcDbEntity
  8
-NORMTEIL_VERDECKT
100
AcDbPolyline
 90
        5
 70
     0
 43
0.0
 10
3.500000000023874
 20
199.5674314045826
 10
3.500000000023874
 20
195.5674314045826
 10
5.000000000023874
 20
194.5674314045826
 10
6.500000000023874
 20
195.5674314045826
 10
6.500000000023874
 20
199.5674314045835
  0
LINE
  5
9F
330
2
100
AcDbEntity
  8
-NORMTEIL_VERDECKT
100
AcDbLine
 10
3.500000000023874
 20
195.5674314045826
 30
0.0
 11
6.500000000023874
 21
195.5674314045826
 31
0.0
  0
LWPOLYLINE
  5
A0
330
2
100
AcDbEntity
  8
-NORMTEIL_VERDECKT
100
AcDbPolyline
 90
        3
 70
     0
 43
0.0
 10
3.500000000023874
 20
199.5674314045826
 10
3.500000000023874
 20
195.5674314045826
 10
5.000000000023874
 20
194.5674314045826
  0
LINE
  5
A1
330
2
100
AcDbEntity
  8
-NORMTEIL_VERDECKT
100
AcDbLine
 10
-4.499999999975301
 20
193.6037144386851
 30
0.0
 11
4.500000000024613
 21
193.6037144386851
 31
0.0
  0
LWPOLYLINE
  5
A2
102
{ACAD_REACTORS
330
A3
102
}
330
2
100
AcDbEntity
  8
-DICHTUNG
100
AcDbPolyline
 90
        4
 70
     1
 43
0.0
 10
-11.99999999997607
 20
193.6037144386853
 10
12.00000000002393
 20
193.6037144386851
 10
12.00000000002393
 20
194.6037144386852
 10
-11.99999999997607
 20
194.6037144386853
  0
HATCH
  5
A3
330
2
100
AcDbEntity
  8
-SCHRAFFUR
100
AcDbHatch
 10
0.0
 20
0.0
 30
0.0
210
0.0
220
0.0
230
1.0
  2
SOLID
 70
     1
 71
     1
 91
        1
 92
        1
 93
        4
 72
     1
 10
-11.99999999997607
 20
193.6037144386853
 11
12.00000000002393
 21
193.6037144386851
 72
     1
 10
12.00000000002393
 20
193.6037144386851
 11
12.00000000002393
 21
194.6037144386852
 72
     1
 10
12.00000000002393
 20
194.6037144386852
 11
-11.99999999997607
 21
194.6037144386853
 72
     1
 10
-11.99999999997607
 20
194.6037144386853
 11
-11.99999999997607
 21
193.6037144386853
 97
        1
330
A2
 75
     0
 76
     1
 98
        1
 10
-116.7547086937088
 20
-45.1264004491681
  0
LINE
  5
A4
330
2
100
AcDbEntity
  8
-NORMTEIL_VERDECKT
100
AcDbLine
 10
-5.999999999976012
 20
193.1037144386853
 30
0.0
 11
6.000000000024073
 21
193.1037144386853
 31
0.0
  0
LINE
  5
A5
330
2
100
AcDbEntity
  8
-NORMTEIL_VERDECKT
100
AcDbLine
 10
-6.999999999976012
 20
192.1037144386846
 30
0.0
 11
7.000000000023987
 21
192.1037144386846
 31
0.0
  0
DIMENSION
  5
A6
330
2
100
AcDbEntity
  8
-TEXT3
100
AcDbDimension
  2
*D6
 10
12.50000000002393
 20
211.0662007959148
 30
0.0
 11
0.000000000022311
 21
211.0662007959148
 31
0.0
 70
   128
  1
%%c<>
 71
     5
 42
25.0
  3
1-1PRO
100
AcDbAlignedDimension
 13
-12.49999999997607
 23
197.6037144386854
 33
0.0
 14
12.50000000002393
 24
197.6037144386854
 34
0.0
100
AcDbRotatedDimension
1001
ACAD
1000
DSTYLE
1002
{
1002
}
  0
LINE
  5
B3
330
2
100
AcDbEntity
  8
-NORMTEIL_VERDECKT
100
AcDbLine
 10
-3.999999999976097
 20
195.5674314045826
 30
0.0
 11
-0.9999999999760973
 21
195.5674314045826
 31
0.0
  0
LWPOLYLINE
  5
B4
330
2
100
AcDbEntity
  8
-NORMTEIL_VERDECKT
100
AcDbPolyline
 90
        5
 70
     0
 43
0.0
 10
-3.999999999976097
 20
199.5674314045826
 10
-3.999999999976097
 20
195.5674314045826
 10
-2.499999999976097
 20
194.5674314045826
 10
-0.9999999999760973
 20
195.5674314045826
 10
-0.9999999999760973
 20
199.5674314045835
  0
LINE
  5
B5
330
2
100
AcDbEntity
  8
-NORMTEIL_VERDECKT
100
AcDbLine
 10
-5.458499999976282
 20
191.2917144386849
 30
0.0
 11
-5.458499999976339
 21
193.1037144386854
 31
0.0
  0
LINE
  5
B6
330
2
100
AcDbEntity
  8
-VERGLASUNG
100
AcDbLine
 10
12.35794994563716
 20
189.7098396190591
 30
0.0
 11
16.25182476526319
 21
193.6037144386851
 31
0.0
  0
LINE
  5
B7
330
2
100
AcDbEntity
  8
-NORMTEIL_VERDECKT
100
AcDbLine
 10
5.458500000024031
 20
193.1037144386853
 30
0.0
 11
5.458500000024031
 21
191.2917144386845
 31
0.0
  0
LWPOLYLINE
  5
B8
330
2
100
AcDbEntity
  8
-NORMTEIL_VERDECKT
100
AcDbPolyline
 90
        2
 70
     0
 43
0.0
 10
6.500000000023874
 20
195.5674314045826
 10
6.500000000023874
 20
199.5674314045826
  0
LINE
  5
B9
330
2
100
AcDbEntity
  8
-VERGLASUNG
100
AcDbLine
 10
15.48294994563716
 20
189.7098396190591
 30
0.0
 11
19.37682476526319
 21
193.6037144386851
 31
0.0
  0
LINE
  5
BA
330
2
100
AcDbEntity
  8
-VERGLASUNG
100
AcDbLine
 10
13.92044994563716
 20
189.7098396190591
 30
0.0
 11
17.81432476526319
 21
193.6037144386851
 31
0.0
  0
LINE
  5
BB
330
2
100
AcDbEntity
  8
-VERGLASUNG
100
AcDbLine
 10
42.62829233575035
 20
181.6037142972629
 30
0.0
 11
46.52216715537639
 21
185.4975891168888
 31
0.0
  0
LINE
  5
BC
330
2
100
AcDbEntity
  8
-VERGLASUNG
100
AcDbLine
 10
39.50329233575036
 20
181.6037142972629
 30
0.0
 11
43.39716715537639
 21
185.4975891168889
 31
0.0
  0
LINE
  5
BD
330
2
100
AcDbEntity
  8
-VERGLASUNG
100
AcDbLine
 10
41.06579233575035
 20
181.6037142972629
 30
0.0
 11
44.95966715537639
 21
185.4975891168889
 31
0.0
  0
LINE
  5
BE
330
2
100
AcDbEntity
  8
-VERGLASUNG
100
AcDbLine
 10
39.41070689975965
 20
189.7098394776375
 30
0.0
 11
43.30458171938568
 21
193.6037142972636
 31
0.0
  0
LINE
  5
BF
330
2
100
AcDbEntity
  8
-VERGLASUNG
100
AcDbLine
 10
36.28570689975965
 20
189.7098394776375
 30
0.0
 11
40.17958171938568
 21
193.6037142972636
 31
0.0
  0
LINE
  5
C0
330
2
100
AcDbEntity
  8
-VERGLASUNG
100
AcDbLine
 10
37.84820689975965
 20
189.7098394776375
 30
0.0
 11
41.74208171938568
 21
193.6037142972636
 31
0.0
  0
LWPOLYLINE
  5
C1
330
2
100
AcDbEntity
  8
-PROFILAUSSENKANTET
100
AcDbPolyline
 90
        8
 70
     1
 43
0.0
 10
-12.49999999997607
 20
194.6037144386854
 10
12.50000000002393
 20
194.6037144386852
 10
12.50000000002393
 20
196.9032871740745
 42
0.3153798303920339
 10
11.84174306311061
 20
197.8430805975629
 10
7.000000000023931
 20
199.6037144386852
 10
-6.999999999976068
 20
199.6037144386852
 10
-11.84174306306275
 20
197.8430805975629
 42
0.315379830392034
 10
-12.49999999997607
 20
196.9032871740745
  0
LWPOLYLINE
  5
C2
330
2
100
AcDbEntity
  8
-VERGLASUNG
100
AcDbPolyline
 90
        4
 70
     0
 43
0.0
 10
-72.97749106089401
 20
79.99999999999968
 10
77.99999999999989
 20
79.99999999999978
 10
79.99999999999989
 20
77.99999999999979
 10
80.0
 20
-51.97920615538613
  0
MTEXT
  5
C3
330
2
100
AcDbEntity
  8
-TEXT2
100
AcDbMText
 10
49.1771357276503
 20
92.21921696654531
 30
0.0
 40
3.5
 41
17.9978
 71
     1
 72
     5
  1
{\fArial|b0|i0|c0|p34;Glaskante}
 73
     1
 44
1.0
1001
ACAD
1000
MTEXTBEGIN
1070
    73
1070
     1
1070
    44
1040
1.0
1070
    74
1070
     0
1000
MTEXTEND
  0
LWPOLYLINE
  5
C4
330
2
100
AcDbEntity
  8
-TEXT2
100
AcDbPolyline
 90
        3
 70
     1
 43
0.0
 10
57.78044804006327
 20
79.9999999999997
 10
61.91438540272432
 20
87.16018954743594
 10
53.64651067740223
 20
87.16018954743594
  0
LINE
  5
C5
330
2
100
AcDbEntity
  8
-SYSTEM
100
AcDbLine
 10
15.35824046576713
 20
0.0000000000000585
 30
0.0
 11
-15.35824046576712
 21
-0.000000000000087
 31
0.0
  0
CIRCLE
  5
C6
330
2
100
AcDbEntity
  8
-SCHRAFFUR
100
AcDbCircle
 10
0.0000000000000009
 20
0.0
 30
0.0
 40
10.82879797461061
  0
CIRCLE
  5
C7
330
2
100
AcDbEntity
  8
-PROFILAUSSENKANTET
100
AcDbCircle
 10
0.0000000000000009
 20
0.0
 30
0.0
 40
12.50000000002407
  0
CIRCLE
  5
C8
330
2
100
AcDbEntity
  8
-PROFILAUSSENKANTET
100
AcDbCircle
 10
4.999999999976073
 20
0.0000000000000284
 30
0.0
 40
1.75
  0
CIRCLE
  5
C9
330
2
100
AcDbEntity
  8
-PROFILAUSSENKANTET
100
AcDbCircle
 10
0.0000000000000151
 20
-0.0000000000000142
 30
0.0
 40
7.000000000023915
  0
LINE
  5
CA
330
2
100
AcDbEntity
  8
-SYSTEM
100
AcDbLine
 10
-0.00000000000007
 20
15.35824046576712
 30
0.0
 11
0.0000000000000755
 21
-15.35824046576713
 31
0.0
  0
CIRCLE
  5
CB
330
2
100
AcDbEntity
  8
-PROFILAUSSENKANTET
100
AcDbCircle
 10
-2.499999999988067
 20
4.330127018901434
 30
0.0
 40
1.75
  0
CIRCLE
  5
CC
330
2
100
AcDbEntity
  8
-PROFILAUSSENKANTET
100
AcDbCircle
 10
-2.499999999987996
 20
-4.330127018901503
 30
0.0
 40
1.75
  0
LINE
  5
CD
330
2
100
AcDbEntity
  8
-VERGLASUNG
100
AcDbLine
 10
60.21346385388213
 20
189.709839336216
 30
0.0
 11
64.10733867350817
 21
193.603714155842
 31
0.0
  0
LINE
  5
CE
330
2
100
AcDbEntity
  8
-VERGLASUNG
100
AcDbLine
 10
61.77596385388213
 20
189.709839336216
 30
0.0
 11
65.66983867350817
 21
193.603714155842
 31
0.0
  0
LINE
  5
CF
330
2
100
AcDbEntity
  8
-VERGLASUNG
100
AcDbLine
 10
66.55604928987284
 20
181.6037141558413
 30
0.0
 11
70.44992410949888
 21
185.4975889754672
 31
0.0
  0
LINE
  5
D0
330
2
100
AcDbEntity
  8
-VERGLASUNG
100
AcDbLine
 10
64.99354928987284
 20
181.6037141558413
 30
0.0
 11
68.88742410949888
 21
185.4975889754673
 31
0.0
  0
LINE
  5
D1
330
2
100
AcDbEntity
  8
-VERGLASUNG
100
AcDbLine
 10
63.43104928987284
 20
181.6037141558413
 30
0.0
 11
67.32492410949888
 21
185.4975889754673
 31
0.0
  0
LINE
  5
D2
330
2
100
AcDbEntity
  8
-VERGLASUNG
100
AcDbLine
 10
63.33846385388213
 20
189.709839336216
 30
0.0
 11
67.23233867350817
 21
193.603714155842
 31
0.0
  0
LWPOLYLINE
  5
D3
330
2
100
AcDbEntity
  8
-VERGLASUNG
100
AcDbPolyline
 90
        6
 70
     0
 43
0.0
 10
-46.7043374879226
 20
193.6037144386854
 10
79.00000000002406
 20
193.603714438685
 10
80.00000000002406
 20
192.603714438685
 10
80.00000000002406
 20
182.6037144386845
 10
79.00000000002406
 20
181.6037144386845
 10
-46.7043374879226
 20
181.6037144386848
  0
ENDSEC
  0
SECTION
  2
OBJECTS
  0
DICTIONARY
  5
7
330
0
100
AcDbDictionary
281
     1
  3
ACAD_COLOR
350
EC
  3
ACAD_GROUP
350
E8
  3
ACAD_LAYOUT
350
D6
  3
ACAD_MATERIAL
350
EB
  3
ACAD_MLINESTYLE
350
E9
  3
ACAD_PLOTSETTINGS
350
EA
  3
ACAD_PLOTSTYLENAME
350
6
  3
ACDBHEADERROUNDTRIPXREC
350
F2
  3
AcDbVariableDictionary
350
EE
  0
DICTIONARY
  5
EC
102
{ACAD_REACTORS
330
7
102
}
330
7
100
AcDbDictionary
281
     1
  0
DICTIONARY
  5
E8
102
{ACAD_REACTORS
330
7
102
}
330
7
100
AcDbDictionary
281
     1
  0
DICTIONARY
  5
D6
102
{ACAD_REACTORS
330
7
102
}
330
7
100
AcDbDictionary
281
     1
  3
Layout1
350
DA
  3
Model
350
D5
  0
DICTIONARY
  5
EB
102
{ACAD_REACTORS
330
7
102
}
330
7
100
AcDbDictionary
281
     1
  0
DICTIONARY
  5
E9
102
{ACAD_REACTORS
330
7
102
}
330
7
100
AcDbDictionary
281
     1
  3
STANDARD
350
ED
  0
DICTIONARY
  5
EA
102
{ACAD_REACTORS
330
7
102
}
330
7
100
AcDbDictionary
281
     1
  0
ACDBDICTIONARYWDFLT
  5
6
102
{ACAD_REACTORS
330
7
102
}
330
7
100
AcDbDictionary
281
     1
  3
Normal
350
5
100
AcDbDictionaryWithDefault
340
5
  0
DICTIONARY
  5
F2
102
{ACAD_REACTORS
330
7
102
}
330
7
100
AcDbDictionary
281
     1
  3
COLORDICT
350
F4
  3
MATERIALDICT
350
F3
  0
DICTIONARY
  5
EE
102
{ACAD_REACTORS
330
7
102
}
330
7
100
AcDbDictionary
281
     1
  3
DIMASSOC
350
F0
  3
HIDETEXT
350
EF
  3
PROJECTNAME
350
F1
  0
LAYOUT
  5
DA
102
{ACAD_XDICTIONARY
360
F9
102
}
102
{ACAD_REACTORS
330
D6
102
}
330
D6
100
AcDbPlotSettings
  1

  2
HP DeskJet 1120C Printer
  4

  6

 40
0.0
 41
0.0
 42
0.0
 43
0.0
 44
0.0
 45
0.0
 46
0.0
 47
0.0
 48
0.0
 49
0.0
140
0.0
141
0.0
142
1.0
143
1.0
 70
   688
 72
     0
 73
     0
 74
     5
  7
monochrome.ctb
 75
    16
147
1.0
148
0.0
149
0.0
100
AcDbLayout
  1
Layout1
 70
     1
 71
     1
 10
0.0
 20
0.0
 11
12.0
 21
9.0
 12
0.0
 22
0.0
 32
0.0
 14
1.000000000000000E+20
 24
1.000000000000000E+20
 34
1.000000000000000E+20
 15
-1.000000000000000E+20
 25
-1.000000000000000E+20
 35
-1.000000000000000E+20
146
0.0
 13
0.0
 23
0.0
 33
0.0
 16
1.0
 26
0.0
 36
0.0
 17
0.0
 27
1.0
 37
0.0
 76
     0
330
D7
  0
LAYOUT
  5
D5
102
{ACAD_XDICTIONARY
360
F7
102
}
102
{ACAD_REACTORS
330
D6
102
}
330
D6
100
AcDbPlotSettings
  1

  2
HP DeskJet 1120C Printer
  4

  6

 40
0.0
 41
0.0
 42
0.0
 43
0.0
 44
0.0
 45
0.0
 46
0.0
 47
0.0
 48
0.0
 49
0.0
140
0.0
141
0.0
142
1.0
143
1.0
 70
  1712
 72
     0
 73
     0
 74
     0
  7
monochrome.ctb
 75
     0
147
1.0
148
0.0
149
0.0
100
AcDbLayout
  1
Model
 70
     1
 71
     0
 10
0.0
 20
0.0
 11
12.0
 21
9.0
 12
0.0
 22
0.0
 32
0.0
 14
0.0
 24
0.0
 34
0.0
 15
0.0
 25
0.0
 35
0.0
146
0.0
 13
0.0
 23
0.0
 33
0.0
 16
1.0
 26
0.0
 36
0.0
 17
0.0
 27
1.0
 37
0.0
 76
     0
330
2
  0
MLINESTYLE
  5
ED
102
{ACAD_REACTORS
330
E9
102
}
330
E9
100
AcDbMlineStyle
  2
STANDARD
 70
     0
  3

 62
     0
 51
90.0
 52
90.0
 71
     2
 49
0.5
 62
   256
  6
BYLAYER
 49
-0.5
 62
   256
  6
BYLAYER
  0
ACDBPLACEHOLDER
  5
5
102
{ACAD_REACTORS
330
6
102
}
330
6
  0
XRECORD
  5
F4
102
{ACAD_REACTORS
330
F2
102
}
330
F2
100
AcDbXrecord
280
     1
340
EC
  0
XRECORD
  5
F3
102
{ACAD_REACTORS
330
F2
102
}
330
F2
100
AcDbXrecord
280
     1
340
EB
  0
DICTIONARYVAR
  5
F0
102
{ACAD_REACTORS
330
EE
102
}
330
EE
100
DictionaryVariables
280
     0
  1
1
  0
DICTIONARYVAR
  5
EF
102
{ACAD_REACTORS
330
EE
102
}
330
EE
100
DictionaryVariables
280
     0
  1
1
  0
DICTIONARYVAR
  5
F1
102
{ACAD_REACTORS
330
EE
102
}
330
EE
100
DictionaryVariables
280
     0
  1

  0
DICTIONARY
  5
F9
330
DA
100
AcDbDictionary
280
     1
281
     1
  3
ACAD_XREC_ROUNDTRIP
360
FA
  0
DICTIONARY
  5
F7
330
D5
100
AcDbDictionary
280
     1
281
     1
  3
ACAD_XREC_ROUNDTRIP
360
F8
  0
XRECORD
  5
FA
102
{ACAD_REACTORS
330
F9
102
}
330
F9
100
AcDbXrecord
280
     1
102
SHADEPLOT
 70
     0
102
SHADEPLOTRESLEVEL
 70
     2
102
SHADEPLOTCUSTOMDPI
 70
   300
  0
XRECORD
  5
F8
102
{ACAD_REACTORS
330
F7
102
}
330
F7
100
AcDbXrecord
280
     1
102
SHADEPLOT
 70
     0
102
SHADEPLOTRESLEVEL
 70
     2
102
SHADEPLOTCUSTOMDPI
 70
   300
  0
ENDSEC
  0
EOF
