  0
SECTION
  2
HEADER
  9
$ACADVER
  1
AC1015
  9
$ACADMAINTVER
 70
    18
  9
$DWGCODEPAGE
  3
ANSI_1252
  9
$INSBASE
 10
-327.8288694144876
 20
0.0
 30
0.0
  9
$EXTMIN
 10
1.000000000000000E+20
 20
1.000000000000000E+20
 30
1.000000000000000E+20
  9
$EXTMAX
 10
0.0
 20
0.0
 30
0.0
  9
$LIMMIN
 10
0.0
 20
0.0
  9
$LIMMAX
 10
12.0
 20
9.0
  9
$ORTHOMODE
 70
     1
  9
$REGENMODE
 70
     1
  9
$FILLMODE
 70
     1
  9
$QTEXTMODE
 70
     0
  9
$MIRRTEXT
 70
     1
  9
$LTSCALE
 40
2.5
  9
$ATTMODE
 70
     1
  9
$TEXTSIZE
 40
0.2
  9
$TRACEWID
 40
0.05
  9
$TEXTSTYLE
  7
STANDARD
  9
$CLAYER
  8
-SCHRAFFUR
  9
$CELTYPE
  6
BYLAYER
  9
$CECOLOR
 62
   256
  9
$CELTSCALE
 40
1.0
  9
$DISPSILH
 70
     0
  9
$DIMSCALE
 40
1.0
  9
$DIMASZ
 40
3.5
  9
$DIMEXO
 40
2.0
  9
$DIMDLI
 40
2.0
  9
$DIMRND
 40
0.0
  9
$DIMDLE
 40
0.0
  9
$DIMEXE
 40
1.5
  9
$DIMTP
 40
0.0
  9
$DIMTM
 40
0.0
  9
$DIMTXT
 40
4.0
  9
$DIMCEN
 40
0.09
  9
$DIMTSZ
 40
0.0
  9
$DIMTOL
 70
     0
  9
$DIMLIM
 70
     0
  9
$DIMTIH
 70
     0
  9
$DIMTOH
 70
     0
  9
$DIMSE1
 70
     0
  9
$DIMSE2
 70
     0
  9
$DIMTAD
 70
     1
  9
$DIMZIN
 70
     9
  9
$DIMBLK
  1

  9
$DIMASO
 70
     1
  9
$DIMSHO
 70
     1
  9
$DIMPOST
  1

  9
$DIMAPOST
  1

  9
$DIMALT
 70
     0
  9
$DIMALTD
 70
     2
  9
$DIMALTF
 40
25.4
  9
$DIMLFAC
 40
1.0
  9
$DIMTOFL
 70
     0
  9
$DIMTVP
 40
0.0
  9
$DIMTIX
 70
     0
  9
$DIMSOXD
 70
     0
  9
$DIMSAH
 70
     0
  9
$DIMBLK1
  1

  9
$DIMBLK2
  1

  9
$DIMSTYLE
  2
1-1PRO
  9
$DIMCLRD
 70
   256
  9
$DIMCLRE
 70
   256
  9
$DIMCLRT
 70
   256
  9
$DIMTFAC
 40
1.0
  9
$DIMGAP
 40
1.0
  9
$DIMJUST
 70
     0
  9
$DIMSD1
 70
     0
  9
$DIMSD2
 70
     0
  9
$DIMTOLJ
 70
     1
  9
$DIMTZIN
 70
     0
  9
$DIMALTZ
 70
     0
  9
$DIMALTTZ
 70
     0
  9
$DIMUPT
 70
     0
  9
$DIMDEC
 70
     1
  9
$DIMTDEC
 70
     1
  9
$DIMALTU
 70
     2
  9
$DIMALTTD
 70
     2
  9
$DIMTXSTY
  7
STANDARD
  9
$DIMAUNIT
 70
     0
  9
$DIMADEC
 70
     0
  9
$DIMALTRND
 40
0.0
  9
$DIMAZIN
 70
     0
  9
$DIMDSEP
 70
    46
  9
$DIMATFIT
 70
     3
  9
$DIMFRAC
 70
     0
  9
$DIMLDRBLK
  1

  9
$DIMLUNIT
 70
     2
  9
$DIMLWD
 70
    -2
  9
$DIMLWE
 70
    -2
  9
$DIMTMOVE
 70
     0
  9
$LUNITS
 70
     2
  9
$LUPREC
 70
     4
  9
$SKETCHINC
 40
0.1
  9
$FILLETRAD
 40
0.0
  9
$AUNITS
 70
     0
  9
$AUPREC
 70
     0
  9
$MENU
  1
.
  9
$ELEVATION
 40
0.0
  9
$PELEVATION
 40
0.0
  9
$THICKNESS
 40
0.0
  9
$LIMCHECK
 70
     0
  9
$CHAMFERA
 40
2.0
  9
$CHAMFERB
 40
2.0
  9
$CHAMFERC
 40
1.0
  9
$CHAMFERD
 40
0.0
  9
$SKPOLY
 70
     0
  9
$TDCREATE
 40
2450923.406402199
  9
$TDUCREATE
 40
2450923.364735533
  9
$TDUPDATE
 40
2453396.413371852
  9
$TDUUPDATE
 40
2453396.371705185
  9
$TDINDWG
 40
2.4381290509
  9
$TDUSRTIMER
 40
2.4381290509
  9
$USRTIMER
 70
     1
  9
$ANGBASE
 50
0.0
  9
$ANGDIR
 70
     0
  9
$PDMODE
 70
     0
  9
$PDSIZE
 40
0.0
  9
$PLINEWID
 40
0.0
  9
$SPLFRAME
 70
     0
  9
$SPLINETYPE
 70
     6
  9
$SPLINESEGS
 70
    50
  9
$HANDSEED
  5
F1
  9
$SURFTAB1
 70
     6
  9
$SURFTAB2
 70
     6
  9
$SURFTYPE
 70
     6
  9
$SURFU
 70
     6
  9
$SURFV
 70
     6
  9
$UCSBASE
  2

  9
$UCSNAME
  2

  9
$UCSORG
 10
0.0
 20
0.0
 30
0.0
  9
$UCSXDIR
 10
1.0
 20
0.0
 30
0.0
  9
$UCSYDIR
 10
0.0
 20
1.0
 30
0.0
  9
$UCSORTHOREF
  2

  9
$UCSORTHOVIEW
 70
     0
  9
$UCSORGTOP
 10
0.0
 20
0.0
 30
0.0
  9
$UCSORGBOTTOM
 10
0.0
 20
0.0
 30
0.0
  9
$UCSORGLEFT
 10
0.0
 20
0.0
 30
0.0
  9
$UCSORGRIGHT
 10
0.0
 20
0.0
 30
0.0
  9
$UCSORGFRONT
 10
0.0
 20
0.0
 30
0.0
  9
$UCSORGBACK
 10
0.0
 20
0.0
 30
0.0
  9
$PUCSBASE
  2

  9
$PUCSNAME
  2

  9
$PUCSORG
 10
0.0
 20
0.0
 30
0.0
  9
$PUCSXDIR
 10
1.0
 20
0.0
 30
0.0
  9
$PUCSYDIR
 10
0.0
 20
1.0
 30
0.0
  9
$PUCSORTHOREF
  2

  9
$PUCSORTHOVIEW
 70
     0
  9
$PUCSORGTOP
 10
0.0
 20
0.0
 30
0.0
  9
$PUCSORGBOTTOM
 10
0.0
 20
0.0
 30
0.0
  9
$PUCSORGLEFT
 10
0.0
 20
0.0
 30
0.0
  9
$PUCSORGRIGHT
 10
0.0
 20
0.0
 30
0.0
  9
$PUCSORGFRONT
 10
0.0
 20
0.0
 30
0.0
  9
$PUCSORGBACK
 10
0.0
 20
0.0
 30
0.0
  9
$USERI1
 70
     0
  9
$USERI2
 70
     0
  9
$USERI3
 70
     0
  9
$USERI4
 70
     0
  9
$USERI5
 70
     0
  9
$USERR1
 40
0.0
  9
$USERR2
 40
0.0
  9
$USERR3
 40
0.0
  9
$USERR4
 40
0.0
  9
$USERR5
 40
0.0
  9
$WORLDVIEW
 70
     1
  9
$SHADEDGE
 70
     3
  9
$SHADEDIF
 70
    70
  9
$TILEMODE
 70
     1
  9
$MAXACTVP
 70
    48
  9
$PINSBASE
 10
0.0
 20
0.0
 30
0.0
  9
$PLIMCHECK
 70
     0
  9
$PEXTMIN
 10
1.000000000000000E+20
 20
1.000000000000000E+20
 30
1.000000000000000E+20
  9
$PEXTMAX
 10
-1.000000000000000E+20
 20
-1.000000000000000E+20
 30
-1.000000000000000E+20
  9
$PLIMMIN
 10
0.0
 20
0.0
  9
$PLIMMAX
 10
12.0
 20
9.0
  9
$UNITMODE
 70
     0
  9
$VISRETAIN
 70
     1
  9
$PLINEGEN
 70
     0
  9
$PSLTSCALE
 70
     1
  9
$TREEDEPTH
 70
  3020
  9
$CMLSTYLE
  2
STANDARD
  9
$CMLJUST
 70
     0
  9
$CMLSCALE
 40
1.0
  9
$PROXYGRAPHICS
 70
     1
  9
$MEASUREMENT
 70
     0
  9
$CELWEIGHT
370
    -1
  9
$ENDCAPS
280
     0
  9
$JOINSTYLE
280
     0
  9
$LWDISPLAY
290
     0
  9
$INSUNITS
 70
     0
  9
$HYPERLINKBASE
  1

  9
$STYLESHEET
  1

  9
$XEDIT
290
     1
  9
$CEPSNTYPE
380
     0
  9
$PSTYLEMODE
290
     1
  9
$FINGERPRINTGUID
  2
{3A6C66A0-FB5D-11D4-9C1F-EC81C176A25E}
  9
$VERSIONGUID
  2
{365DA7BF-4A9A-4B73-9579-9330421C9A2A}
  9
$EXTNAMES
290
     1
  9
$PSVPSCALE
 40
0.0
  9
$OLESTARTUP
290
     0
  0
ENDSEC
  0
SECTION
  2
CLASSES
  0
CLASS
  1
DICTIONARYVAR
  2
AcDbDictionaryVar
  3
ObjectDBX Classes
 90
        0
280
     0
281
     0
  0
CLASS
  1
IMAGE
  2
AcDbRasterImage
  3
ISM
 90
    32895
280
     0
281
     1
  0
CLASS
  1
IMAGEDEF_REACTOR
  2
AcDbRasterImageDefReactor
  3
ISM
 90
    32769
280
     0
281
     0
  0
CLASS
  1
IMAGEDEF
  2
AcDbRasterImageDef
  3
ISM
 90
    32768
280
     0
281
     0
  0
CLASS
  1
RASTERVARIABLES
  2
AcDbRasterVariables
  3
ISM
 90
    32768
280
     0
281
     0
  0
CLASS
  1
ACDBDICTIONARYWDFLT
  2
AcDbDictionaryWithDefault
  3
ObjectDBX Classes
 90
        0
280
     0
281
     0
  0
CLASS
  1
ACDBPLACEHOLDER
  2
AcDbPlaceHolder
  3
ObjectDBX Classes
 90
        0
280
     0
281
     0
  0
CLASS
  1
LAYOUT
  2
AcDbLayout
  3
ObjectDBX Classes
 90
        0
280
     0
281
     0
  0
ENDSEC
  0
SECTION
  2
TABLES
  0
TABLE
  2
VPORT
  5
D9
330
0
100
AcDbSymbolTable
 70
     1
  0
VPORT
  5
DA
330
D9
100
AcDbSymbolTableRecord
100
AcDbViewportTableRecord
  2
*Active
 70
     0
 10
0.0
 20
0.0
 11
1.0
 21
1.0
 12
3.512238181555773
 22
67.78008835300508
 13
0.0
 23
0.0
 14
0.5
 24
0.5
 15
0.5
 25
0.5
 16
0.0
 26
0.0
 36
1.0
 17
0.0
 27
0.0
 37
0.0
 40
241.3765559941949
 41
1.548512289780077
 42
50.0
 43
0.0
 44
0.0
 50
0.0
 51
0.0
 71
     0
 72
   100
 73
     1
 74
     1
 75
     0
 76
     0
 77
     0
 78
     0
281
     0
 65
     1
110
0.0
120
0.0
130
0.0
111
1.0
121
0.0
131
0.0
112
0.0
122
1.0
132
0.0
 79
     0
146
0.0
  0
ENDTAB
  0
TABLE
  2
LTYPE
  5
D4
330
0
100
AcDbSymbolTable
 70
     3
  0
LTYPE
  5
D5
330
D4
100
AcDbSymbolTableRecord
100
AcDbLinetypeTableRecord
  2
BYBLOCK
 70
     0
  3

 72
    65
 73
     0
 40
0.0
  0
LTYPE
  5
D6
330
D4
100
AcDbSymbolTableRecord
100
AcDbLinetypeTableRecord
  2
BYLAYER
 70
     0
  3

 72
    65
 73
     0
 40
0.0
  0
LTYPE
  5
8
330
D4
100
AcDbSymbolTableRecord
100
AcDbLinetypeTableRecord
  2
CONTINUOUS
 70
     0
  3
Solid line
 72
    65
 73
     0
 40
0.0
  0
LTYPE
  5
B
330
D4
100
AcDbSymbolTableRecord
100
AcDbLinetypeTableRecord
  2
MITTEX2
 70
     0
  3
Mitte (2x) ________  __  ________  __  _____
 72
    65
 73
     4
 40
4.0
 49
2.5
 74
     0
 49
-0.5
 74
     0
 49
0.5
 74
     0
 49
-0.5
 74
     0
  0
LTYPE
  5
6F
330
D4
100
AcDbSymbolTableRecord
100
AcDbLinetypeTableRecord
  2
STRICHLINIEX2
 70
     0
  3
Strichlinie (2x) ____  ____  ____  ____  ____  
 72
    65
 73
     2
 40
1.5
 49
1.0
 74
     0
 49
-0.5
 74
     0
  0
ENDTAB
  0
TABLE
  2
LAYER
  5
D1
330
0
100
AcDbSymbolTable
 70
    11
  0
LAYER
  5
4
330
D1
100
AcDbSymbolTableRecord
100
AcDbLayerTableRecord
  2
0
 70
     0
 62
     7
  6
CONTINUOUS
370
    -3
390
5
  0
LAYER
  5
71
330
D1
100
AcDbSymbolTableRecord
100
AcDbLayerTableRecord
  2
-PROFILAUSSENKANTET
 70
     0
 62
     4
  6
CONTINUOUS
370
    -3
390
5
  0
LAYER
  5
74
330
D1
100
AcDbSymbolTableRecord
100
AcDbLayerTableRecord
  2
-DICHTUNG
 70
     0
 62
     3
  6
CONTINUOUS
370
    -3
390
5
  0
LAYER
  5
82
330
D1
100
AcDbSymbolTableRecord
100
AcDbLayerTableRecord
  2
-NORMTEIL
 70
     0
 62
     6
  6
CONTINUOUS
370
    -3
390
5
  0
LAYER
  5
6E
330
D1
100
AcDbSymbolTableRecord
100
AcDbLayerTableRecord
  2
-NORMTEIL_VERDECKT
 70
     0
 62
     9
  6
STRICHLINIEX2
370
    -3
390
5
  0
LAYER
  5
1B
330
D1
100
AcDbSymbolTableRecord
100
AcDbLayerTableRecord
  2
DEFPOINTS
 70
     0
 62
     7
  6
CONTINUOUS
290
     0
370
    -3
390
5
  0
LAYER
  5
A
330
D1
100
AcDbSymbolTableRecord
100
AcDbLayerTableRecord
  2
-SYSTEM
 70
     0
 62
     2
  6
MITTEX2
370
    -3
390
5
  0
LAYER
  5
B8
330
D1
100
AcDbSymbolTableRecord
100
AcDbLayerTableRecord
  2
-TEXT2
 70
     0
 62
     3
  6
CONTINUOUS
370
    -3
390
5
  0
LAYER
  5
D
330
D1
100
AcDbSymbolTableRecord
100
AcDbLayerTableRecord
  2
-TEXT3
 70
     0
 62
     2
  6
CONTINUOUS
370
    -3
390
5
  0
LAYER
  5
84
330
D1
100
AcDbSymbolTableRecord
100
AcDbLayerTableRecord
  2
-SCHRAFFUR
 70
     0
 62
     9
  6
CONTINUOUS
370
    -3
390
5
  0
LAYER
  5
20
330
D1
100
AcDbSymbolTableRecord
100
AcDbLayerTableRecord
  2
-VERGLASUNG
 70
     0
 62
     1
  6
CONTINUOUS
370
    -3
390
5
  0
ENDTAB
  0
TABLE
  2
STYLE
  5
D2
330
0
100
AcDbSymbolTable
 70
     1
  0
STYLE
  5
F
330
D2
100
AcDbSymbolTableRecord
100
AcDbTextStyleTableRecord
  2
STANDARD
 70
     0
 40
0.0
 41
1.0
 50
0.0
 71
     0
 42
0.2
  3
GOTHIC.TTF
  4

1001
ACAD
1000
Century Gothic
1071
       34
  0
ENDTAB
  0
TABLE
  2
VIEW
  5
D7
330
0
100
AcDbSymbolTable
 70
     0
  0
ENDTAB
  0
TABLE
  2
UCS
  5
D8
330
0
100
AcDbSymbolTable
 70
     0
  0
ENDTAB
  0
TABLE
  2
APPID
  5
DB
330
0
100
AcDbSymbolTable
 70
     1
  0
APPID
  5
10
330
DB
100
AcDbSymbolTableRecord
100
AcDbRegAppTableRecord
  2
ACAD
 70
     0
  0
ENDTAB
  0
TABLE
  2
DIMSTYLE
  5
DC
330
0
100
AcDbSymbolTable
 70
     1
100
AcDbDimStyleTable
 71
     1
340
E
  0
DIMSTYLE
105
E
102
{ACAD_REACTORS
330
3C
330
22
330
2F
330
C
330
4D
330
88
330
96
330
A4
102
}
330
DC
100
AcDbSymbolTableRecord
100
AcDbDimStyleTableRecord
  2
1-1PRO
 70
     0
 41
3.5
 42
2.0
 43
2.0
 44
1.5
 73
     0
 74
     0
 77
     1
 78
     9
140
4.0
147
1.0
176
   256
177
   256
178
   256
271
     1
272
     1
340
F
  0
ENDTAB
  0
TABLE
  2
BLOCK_RECORD
  5
1
330
0
100
AcDbSymbolTable
 70
     9
  0
BLOCK_RECORD
  5
2
330
1
100
AcDbSymbolTableRecord
100
AcDbBlockTableRecord
  2
*MODEL_SPACE
340
CB
  0
BLOCK_RECORD
  5
CD
330
1
100
AcDbSymbolTableRecord
100
AcDbBlockTableRecord
  2
*PAPER_SPACE
340
D0
  0
BLOCK_RECORD
  5
3D
330
1
100
AcDbSymbolTableRecord
100
AcDbBlockTableRecord
  2
*D0
340
0
  0
BLOCK_RECORD
  5
11
330
1
100
AcDbSymbolTableRecord
100
AcDbBlockTableRecord
  2
*D1
340
0
  0
BLOCK_RECORD
  5
23
330
1
100
AcDbSymbolTableRecord
100
AcDbBlockTableRecord
  2
*D2
340
0
  0
BLOCK_RECORD
  5
4E
330
1
100
AcDbSymbolTableRecord
100
AcDbBlockTableRecord
  2
*D3
340
0
  0
BLOCK_RECORD
  5
30
330
1
100
AcDbSymbolTableRecord
100
AcDbBlockTableRecord
  2
*D4
340
0
  0
BLOCK_RECORD
  5
89
330
1
100
AcDbSymbolTableRecord
100
AcDbBlockTableRecord
  2
*D5
340
0
  0
BLOCK_RECORD
  5
97
330
1
100
AcDbSymbolTableRecord
100
AcDbBlockTableRecord
  2
*D6
340
0
  0
BLOCK_RECORD
  5
A5
330
1
100
AcDbSymbolTableRecord
100
AcDbBlockTableRecord
  2
*D7
340
0
  0
BLOCK_RECORD
  5
B4
330
1
100
AcDbSymbolTableRecord
100
AcDbBlockTableRecord
  2
ANSICHT35
340
0
102
{BLKREFS
331
B3
102
}
  0
ENDTAB
  0
ENDSEC
  0
SECTION
  2
BLOCKS
  0
BLOCK
  5
3
330
2
100
AcDbEntity
  8
0
100
AcDbBlockBegin
  2
*MODEL_SPACE
 70
     0
 10
0.0
 20
0.0
 30
0.0
  3
*MODEL_SPACE
  1

  0
ENDBLK
  5
CA
330
2
100
AcDbEntity
  8
0
100
AcDbBlockEnd
  0
BLOCK
  5
CE
330
CD
100
AcDbEntity
 67
     1
  8
0
100
AcDbBlockBegin
  2
*PAPER_SPACE
 70
     0
 10
0.0
 20
0.0
 30
0.0
  3
*PAPER_SPACE
  1

  0
ENDBLK
  5
CF
330
CD
100
AcDbEntity
 67
     1
  8
0
100
AcDbBlockEnd
  0
BLOCK
  5
3E
330
3D
100
AcDbEntity
  8
0
100
AcDbBlockBegin
  2
*D0
 70
     1
 10
0.0
 20
0.0
 30
0.0
  3
*D0
  1

  0
LINE
  5
3F
330
3D
100
AcDbEntity
  8
-TEXT3
370
    -2
100
AcDbLine
 10
-51.70433748792405
 20
162.7532823305601
 30
0.0
 11
-56.29566251202962
 21
162.7532823305601
 31
0.0
  0
LINE
  5
40
330
3D
100
AcDbEntity
  8
-TEXT3
370
    -2
100
AcDbLine
 10
-51.70433748792405
 20
150.7532823305594
 30
0.0
 11
-56.29566251202962
 21
150.7532823305594
 31
0.0
  0
LINE
  5
41
330
3D
100
AcDbEntity
  8
-TEXT3
370
    -2
100
AcDbLine
 10
-54.79566251202962
 20
159.2532823305601
 30
0.0
 11
-54.79566251202962
 21
154.2532823305595
 31
0.0
  0
SOLID
  5
42
330
3D
100
AcDbEntity
  8
-TEXT3
100
AcDbTrace
 10
-55.37899584536296
 20
159.2532823305601
 30
0.0
 11
-54.21232917869629
 21
159.2532823305601
 31
0.0
 12
-54.79566251202962
 22
162.7532823305601
 32
0.0
 13
-54.79566251202962
 23
162.7532823305601
 33
0.0
  0
SOLID
  5
43
330
3D
100
AcDbEntity
  8
-TEXT3
100
AcDbTrace
 10
-55.37899584536296
 20
154.2532823305595
 30
0.0
 11
-54.21232917869629
 21
154.2532823305595
 31
0.0
 12
-54.79566251202962
 22
150.7532823305594
 32
0.0
 13
-54.79566251202962
 23
150.7532823305594
 33
0.0
  0
MTEXT
  5
44
330
3D
100
AcDbEntity
  8
-TEXT3
100
AcDbMText
 10
-57.89627434071761
 20
156.7532823305598
 30
0.0
 40
4.0
 41
0.0
 71
     5
 72
     1
  1
\A1;G
 11
0.0000000000000001
 21
1.0
 31
0.0
 73
     1
 44
1.0
1001
ACAD
1000
MTEXTBEGIN
1070
    73
1070
     1
1070
    44
1040
1.0
1070
    74
1070
     0
1000
MTEXTEND
  0
POINT
  5
45
330
3D
100
AcDbEntity
  8
DEFPOINTS
 62
     0
100
AcDbPoint
 10
-49.70433748792405
 20
162.7532823305601
 30
0.0
  0
POINT
  5
46
330
3D
100
AcDbEntity
  8
DEFPOINTS
 62
     0
100
AcDbPoint
 10
-49.70433748792405
 20
150.7532823305594
 30
0.0
  0
POINT
  5
47
330
3D
100
AcDbEntity
  8
DEFPOINTS
 62
     0
100
AcDbPoint
 10
-54.79566251202962
 20
150.7532823305594
 30
0.0
  0
ENDBLK
  5
48
330
3D
100
AcDbEntity
  8
0
100
AcDbBlockEnd
  0
BLOCK
  5
12
330
11
100
AcDbEntity
  8
0
100
AcDbBlockBegin
  2
*D1
 70
     1
 10
0.0
 20
0.0
 30
0.0
  3
*D1
  1

  0
LINE
  5
13
330
11
100
AcDbEntity
  8
-TEXT3
370
    -2
100
AcDbLine
 10
-51.70433748792405
 20
150.7532823305594
 30
0.0
 11
-56.29566251202959
 21
150.7532823305594
 31
0.0
  0
LINE
  5
14
330
11
100
AcDbEntity
  8
-TEXT3
370
    -2
100
AcDbLine
 10
-19.49999999997581
 20
147.7532823305593
 30
0.0
 11
-56.29566251202959
 21
147.7532823305593
 31
0.0
  0
LINE
  5
15
330
11
100
AcDbEntity
  8
-TEXT3
370
    -2
100
AcDbLine
 10
-54.79566251202959
 20
154.2532823305595
 30
0.0
 11
-54.79566251202959
 21
157.7532823305594
 31
0.0
  0
LINE
  5
16
330
11
100
AcDbEntity
  8
-TEXT3
370
    -2
100
AcDbLine
 10
-54.79566251202959
 20
144.2532823305593
 30
0.0
 11
-54.7956625120296
 21
140.7532823305593
 31
0.0
  0
SOLID
  5
17
330
11
100
AcDbEntity
  8
-TEXT3
100
AcDbTrace
 10
-55.37899584536293
 20
154.2532823305595
 30
0.0
 11
-54.21232917869626
 21
154.2532823305595
 31
0.0
 12
-54.79566251202959
 22
150.7532823305594
 32
0.0
 13
-54.79566251202959
 23
150.7532823305594
 33
0.0
  0
SOLID
  5
18
330
11
100
AcDbEntity
  8
-TEXT3
100
AcDbTrace
 10
-55.37899584536293
 20
144.2532823305593
 30
0.0
 11
-54.21232917869626
 21
144.2532823305593
 31
0.0
 12
-54.79566251202959
 22
147.7532823305593
 32
0.0
 13
-54.79566251202959
 23
147.7532823305593
 33
0.0
  0
MTEXT
  5
19
330
11
100
AcDbEntity
  8
-TEXT3
100
AcDbMText
 10
-57.89627434071759
 20
149.2532823305594
 30
0.0
 40
4.0
 41
0.0
 71
     5
 72
     1
  1
\A1;3
 11
0.0000000000000001
 21
1.0
 31
0.0
 73
     1
 44
1.0
1001
ACAD
1000
MTEXTBEGIN
1070
    73
1070
     1
1070
    44
1040
1.0
1070
    74
1070
     0
1000
MTEXTEND
  0
POINT
  5
1A
330
11
100
AcDbEntity
  8
DEFPOINTS
 62
     0
100
AcDbPoint
 10
-49.70433748792405
 20
150.7532823305594
 30
0.0
  0
POINT
  5
1C
330
11
100
AcDbEntity
  8
DEFPOINTS
 62
     0
100
AcDbPoint
 10
-17.49999999997581
 20
147.7532823305593
 30
0.0
  0
POINT
  5
1D
330
11
100
AcDbEntity
  8
DEFPOINTS
 62
     0
100
AcDbPoint
 10
-54.79566251202959
 20
147.7532823305593
 30
0.0
  0
ENDBLK
  5
1E
330
11
100
AcDbEntity
  8
0
100
AcDbBlockEnd
  0
BLOCK
  5
24
330
23
100
AcDbEntity
  8
0
100
AcDbBlockBegin
  2
*D2
 70
     1
 10
0.0
 20
0.0
 30
0.0
  3
*D2
  1

  0
LINE
  5
25
330
23
100
AcDbEntity
  8
-TEXT3
370
    -2
100
AcDbLine
 10
-37.29566251202985
 20
147.7532823305593
 30
0.0
 11
-56.29566251202973
 21
147.7532823305593
 31
0.0
  0
LINE
  5
26
330
23
100
AcDbEntity
  8
-TEXT3
370
    -2
100
AcDbLine
 10
-19.49999999997584
 20
137.7532823305593
 30
0.0
 11
-56.29566251202973
 21
137.7532823305593
 31
0.0
  0
LINE
  5
27
330
23
100
AcDbEntity
  8
-TEXT3
370
    -2
100
AcDbLine
 10
-54.79566251202973
 20
144.2532823305593
 30
0.0
 11
-54.79566251202974
 21
141.2532823305593
 31
0.0
  0
SOLID
  5
28
330
23
100
AcDbEntity
  8
-TEXT3
100
AcDbTrace
 10
-55.37899584536306
 20
144.2532823305593
 30
0.0
 11
-54.21232917869639
 21
144.2532823305593
 31
0.0
 12
-54.79566251202973
 22
147.7532823305593
 32
0.0
 13
-54.79566251202973
 23
147.7532823305593
 33
0.0
  0
SOLID
  5
29
330
23
100
AcDbEntity
  8
-TEXT3
100
AcDbTrace
 10
-55.37899584536307
 20
141.2532823305593
 30
0.0
 11
-54.2123291786964
 21
141.2532823305593
 31
0.0
 12
-54.79566251202974
 22
137.7532823305593
 32
0.0
 13
-54.79566251202974
 23
137.7532823305593
 33
0.0
  0
MTEXT
  5
2A
330
23
100
AcDbEntity
  8
-TEXT3
100
AcDbMText
 10
-57.89627434071772
 20
142.7532823305593
 30
0.0
 40
4.0
 41
0.0
 71
     5
 72
     1
  1
\A1;10
 11
0.0000000000000001
 21
1.0
 31
0.0
 73
     1
 44
1.0
1001
ACAD
1000
MTEXTBEGIN
1070
    73
1070
     1
1070
    44
1040
1.0
1070
    74
1070
     0
1000
MTEXTEND
  0
POINT
  5
2B
330
23
100
AcDbEntity
  8
DEFPOINTS
 62
     0
100
AcDbPoint
 10
-35.29566251202985
 20
147.7532823305593
 30
0.0
  0
POINT
  5
2C
330
23
100
AcDbEntity
  8
DEFPOINTS
 62
     0
100
AcDbPoint
 10
-17.49999999997584
 20
137.7532823305593
 30
0.0
  0
POINT
  5
2D
330
23
100
AcDbEntity
  8
DEFPOINTS
 62
     0
100
AcDbPoint
 10
-54.79566251202974
 20
137.7532823305593
 30
0.0
  0
ENDBLK
  5
2E
330
23
100
AcDbEntity
  8
0
100
AcDbBlockEnd
  0
BLOCK
  5
4F
330
4E
100
AcDbEntity
  8
0
100
AcDbBlockBegin
  2
*D3
 70
     1
 10
0.0
 20
0.0
 30
0.0
  3
*D3
  1

  0
LINE
  5
50
330
4E
100
AcDbEntity
  8
-TEXT3
370
    -2
100
AcDbLine
 10
-4.999999999975841
 20
111.6732823305593
 30
0.0
 11
-4.999999999975842
 21
95.84816104632308
 31
0.0
  0
LINE
  5
51
330
4E
100
AcDbEntity
  8
-TEXT3
370
    -2
100
AcDbLine
 10
5.000000000024158
 20
111.6732823305593
 30
0.0
 11
5.000000000024157
 21
95.84816104632308
 31
0.0
  0
LINE
  5
52
330
4E
100
AcDbEntity
  8
-TEXT3
370
    -2
100
AcDbLine
 10
-1.499999999975842
 20
97.34816104632308
 30
0.0
 11
1.500000000024157
 21
97.34816104632308
 31
0.0
  0
LINE
  5
53
330
4E
100
AcDbEntity
  8
-TEXT3
370
    -2
100
AcDbLine
 10
5.000000000024157
 20
97.34816104632308
 30
0.0
 11
21.30625424883449
 21
97.34816104632308
 31
0.0
  0
SOLID
  5
54
330
4E
100
AcDbEntity
  8
-TEXT3
100
AcDbTrace
 10
-1.499999999975842
 20
97.9314943796564
 30
0.0
 11
-1.499999999975842
 21
96.76482771298974
 31
0.0
 12
-4.999999999975842
 22
97.34816104632308
 32
0.0
 13
-4.999999999975842
 23
97.34816104632308
 33
0.0
  0
SOLID
  5
55
330
4E
100
AcDbEntity
  8
-TEXT3
100
AcDbTrace
 10
1.500000000024157
 20
97.9314943796564
 30
0.0
 11
1.500000000024157
 21
96.76482771298974
 31
0.0
 12
5.000000000024157
 22
97.34816104632308
 32
0.0
 13
5.000000000024157
 23
97.34816104632308
 33
0.0
  0
MTEXT
  5
56
330
4E
100
AcDbEntity
  8
-TEXT3
100
AcDbMText
 10
14.90312712442932
 20
100.448772875011
 30
0.0
 40
4.0
 41
0.0
 71
     5
 72
     1
  1
\A1;M10
 73
     1
 44
1.0
1001
ACAD
1000
MTEXTBEGIN
1070
    73
1070
     1
1070
    44
1040
1.0
1070
    74
1070
     0
1000
MTEXTEND
  0
POINT
  5
57
330
4E
100
AcDbEntity
  8
DEFPOINTS
 62
     0
100
AcDbPoint
 10
-4.999999999975841
 20
113.6732823305593
 30
0.0
  0
POINT
  5
58
330
4E
100
AcDbEntity
  8
DEFPOINTS
 62
     0
100
AcDbPoint
 10
5.000000000024158
 20
113.6732823305593
 30
0.0
  0
POINT
  5
59
330
4E
100
AcDbEntity
  8
DEFPOINTS
 62
     0
100
AcDbPoint
 10
5.000000000024157
 20
97.34816104632308
 30
0.0
  0
ENDBLK
  5
5A
330
4E
100
AcDbEntity
  8
0
100
AcDbBlockEnd
  0
BLOCK
  5
31
330
30
100
AcDbEntity
  8
0
100
AcDbBlockBegin
  2
*D4
 70
     1
 10
0.0
 20
0.0
 30
0.0
  3
*D4
  1

  0
LINE
  5
32
330
30
100
AcDbEntity
  8
-TEXT3
370
    -2
100
AcDbLine
 10
-19.49999999997584
 20
137.7532823305593
 30
0.0
 11
-56.29566251202972
 21
137.7532823305593
 31
0.0
  0
LINE
  5
33
330
30
100
AcDbEntity
  8
-TEXT3
370
    -2
100
AcDbLine
 10
-6.079999999975768
 20
112.7532823305593
 30
0.0
 11
-56.29566251202972
 21
112.7532823305593
 31
0.0
  0
LINE
  5
34
330
30
100
AcDbEntity
  8
-TEXT3
370
    -2
100
AcDbLine
 10
-54.79566251202972
 20
134.2532823305593
 30
0.0
 11
-54.79566251202972
 21
116.2532823305593
 31
0.0
  0
SOLID
  5
35
330
30
100
AcDbEntity
  8
-TEXT3
100
AcDbTrace
 10
-55.37899584536305
 20
134.2532823305593
 30
0.0
 11
-54.21232917869638
 21
134.2532823305593
 31
0.0
 12
-54.79566251202972
 22
137.7532823305593
 32
0.0
 13
-54.79566251202972
 23
137.7532823305593
 33
0.0
  0
SOLID
  5
36
330
30
100
AcDbEntity
  8
-TEXT3
100
AcDbTrace
 10
-55.37899584536305
 20
116.2532823305593
 30
0.0
 11
-54.21232917869638
 21
116.2532823305593
 31
0.0
 12
-54.79566251202972
 22
112.7532823305593
 32
0.0
 13
-54.79566251202972
 23
112.7532823305593
 33
0.0
  0
MTEXT
  5
37
330
30
100
AcDbEntity
  8
-TEXT3
100
AcDbMText
 10
-57.79566251202974
 20
125.2532823305593
 30
0.0
 40
4.0
 41
0.0
 71
     5
 72
     1
  1
\A1;D
 11
0.0000000000000001
 21
1.0
 31
0.0
 73
     1
 44
1.0
1001
ACAD
1000
MTEXTBEGIN
1070
    73
1070
     1
1070
    44
1040
1.0
1070
    74
1070
     0
1000
MTEXTEND
  0
POINT
  5
38
330
30
100
AcDbEntity
  8
DEFPOINTS
 62
     0
100
AcDbPoint
 10
-17.49999999997584
 20
137.7532823305593
 30
0.0
  0
POINT
  5
39
330
30
100
AcDbEntity
  8
DEFPOINTS
 62
     0
100
AcDbPoint
 10
-4.079999999975768
 20
112.7532823305593
 30
0.0
  0
POINT
  5
3A
330
30
100
AcDbEntity
  8
DEFPOINTS
 62
     0
100
AcDbPoint
 10
-54.79566251202972
 20
112.7532823305593
 30
0.0
  0
ENDBLK
  5
3B
330
30
100
AcDbEntity
  8
0
100
AcDbBlockEnd
  0
BLOCK
  5
8A
330
89
100
AcDbEntity
  8
0
100
AcDbBlockBegin
  2
*D5
 70
     1
 10
0.0
 20
0.0
 30
0.0
  3
*D5
  1

  0
LINE
  5
8B
330
89
100
AcDbEntity
  8
-TEXT3
370
    -2
100
AcDbLine
 10
-51.70433748792405
 20
162.7532823305601
 30
0.0
 11
-56.29566251202959
 21
162.7532823305601
 31
0.0
  0
LINE
  5
8C
330
89
100
AcDbEntity
  8
-TEXT3
370
    -2
100
AcDbLine
 10
-19.49999999997581
 20
165.7532823305603
 30
0.0
 11
-56.29566251202959
 21
165.7532823305603
 31
0.0
  0
LINE
  5
8D
330
89
100
AcDbEntity
  8
-TEXT3
370
    -2
100
AcDbLine
 10
-54.79566251202959
 20
159.2532823305601
 30
0.0
 11
-54.79566251202959
 21
155.7532823305601
 31
0.0
  0
LINE
  5
8E
330
89
100
AcDbEntity
  8
-TEXT3
370
    -2
100
AcDbLine
 10
-54.79566251202959
 20
169.2532823305603
 30
0.0
 11
-54.79566251202959
 21
172.7532823305603
 31
0.0
  0
SOLID
  5
8F
330
89
100
AcDbEntity
  8
-TEXT3
100
AcDbTrace
 10
-55.37899584536293
 20
159.2532823305601
 30
0.0
 11
-54.21232917869626
 21
159.2532823305601
 31
0.0
 12
-54.79566251202959
 22
162.7532823305601
 32
0.0
 13
-54.79566251202959
 23
162.7532823305601
 33
0.0
  0
SOLID
  5
90
330
89
100
AcDbEntity
  8
-TEXT3
100
AcDbTrace
 10
-55.37899584536293
 20
169.2532823305603
 30
0.0
 11
-54.21232917869626
 21
169.2532823305603
 31
0.0
 12
-54.79566251202959
 22
165.7532823305603
 32
0.0
 13
-54.79566251202959
 23
165.7532823305603
 33
0.0
  0
MTEXT
  5
91
330
89
100
AcDbEntity
  8
-TEXT3
100
AcDbMText
 10
-57.89627434071759
 20
164.2532823305602
 30
0.0
 40
4.0
 41
0.0
 71
     5
 72
     1
  1
\A1;3
 11
0.0000000000000001
 21
1.0
 31
0.0
 73
     1
 44
1.0
1001
ACAD
1000
MTEXTBEGIN
1070
    73
1070
     1
1070
    44
1040
1.0
1070
    74
1070
     0
1000
MTEXTEND
  0
POINT
  5
92
330
89
100
AcDbEntity
  8
DEFPOINTS
 62
     0
100
AcDbPoint
 10
-49.70433748792405
 20
162.7532823305601
 30
0.0
  0
POINT
  5
93
330
89
100
AcDbEntity
  8
DEFPOINTS
 62
     0
100
AcDbPoint
 10
-17.49999999997581
 20
165.7532823305603
 30
0.0
  0
POINT
  5
94
330
89
100
AcDbEntity
  8
DEFPOINTS
 62
     0
100
AcDbPoint
 10
-54.79566251202959
 20
165.7532823305603
 30
0.0
  0
ENDBLK
  5
95
330
89
100
AcDbEntity
  8
0
100
AcDbBlockEnd
  0
BLOCK
  5
98
330
97
100
AcDbEntity
  8
0
100
AcDbBlockBegin
  2
*D6
 70
     1
 10
0.0
 20
0.0
 30
0.0
  3
*D6
  1

  0
LINE
  5
99
330
97
100
AcDbEntity
  8
-TEXT3
370
    -2
100
AcDbLine
 10
-37.29566251202985
 20
165.7532823305603
 30
0.0
 11
-56.29566251202973
 21
165.7532823305603
 31
0.0
  0
LINE
  5
9A
330
97
100
AcDbEntity
  8
-TEXT3
370
    -2
100
AcDbLine
 10
-11.99859000620917
 20
170.7362457107085
 30
0.0
 11
-56.29566251202973
 21
170.7362457107085
 31
0.0
  0
LINE
  5
9B
330
97
100
AcDbEntity
  8
-TEXT3
370
    -2
100
AcDbLine
 10
-54.79566251202974
 20
162.2532823305602
 30
0.0
 11
-54.79566251202974
 21
158.7532823305602
 31
0.0
  0
LINE
  5
9C
330
97
100
AcDbEntity
  8
-TEXT3
370
    -2
100
AcDbLine
 10
-54.79566251202974
 20
174.2362457107085
 30
0.0
 11
-54.79566251202973
 21
177.7362457107085
 31
0.0
  0
SOLID
  5
9D
330
97
100
AcDbEntity
  8
-TEXT3
100
AcDbTrace
 10
-55.37899584536307
 20
162.2532823305602
 30
0.0
 11
-54.2123291786964
 21
162.2532823305602
 31
0.0
 12
-54.79566251202974
 22
165.7532823305603
 32
0.0
 13
-54.79566251202974
 23
165.7532823305603
 33
0.0
  0
SOLID
  5
9E
330
97
100
AcDbEntity
  8
-TEXT3
100
AcDbTrace
 10
-55.37899584536307
 20
174.2362457107085
 30
0.0
 11
-54.2123291786964
 21
174.2362457107085
 31
0.0
 12
-54.79566251202974
 22
170.7362457107085
 32
0.0
 13
-54.79566251202974
 23
170.7362457107085
 33
0.0
  0
MTEXT
  5
9F
330
97
100
AcDbEntity
  8
-TEXT3
100
AcDbMText
 10
-57.84596842637375
 20
168.2447640206344
 30
0.0
 40
4.0
 41
0.0
 71
     5
 72
     1
  1
\A1;5
 11
0.0000000000000001
 21
1.0
 31
0.0
 73
     1
 44
1.0
1001
ACAD
1000
MTEXTBEGIN
1070
    73
1070
     1
1070
    44
1040
1.0
1070
    74
1070
     0
1000
MTEXTEND
  0
POINT
  5
A0
330
97
100
AcDbEntity
  8
DEFPOINTS
 62
     0
100
AcDbPoint
 10
-35.29566251202985
 20
165.7532823305603
 30
0.0
  0
POINT
  5
A1
330
97
100
AcDbEntity
  8
DEFPOINTS
 62
     0
100
AcDbPoint
 10
-9.99859000620917
 20
170.7362457107085
 30
0.0
  0
POINT
  5
A2
330
97
100
AcDbEntity
  8
DEFPOINTS
 62
     0
100
AcDbPoint
 10
-54.79566251202974
 20
170.7362457107085
 30
0.0
  0
ENDBLK
  5
A3
330
97
100
AcDbEntity
  8
0
100
AcDbBlockEnd
  0
BLOCK
  5
A6
330
A5
100
AcDbEntity
  8
0
100
AcDbBlockBegin
  2
*D7
 70
     1
 10
0.0
 20
0.0
 30
0.0
  3
*D7
  1

  0
LINE
  5
A7
330
A5
100
AcDbEntity
  8
-TEXT3
370
    -2
100
AcDbLine
 10
-17.49999999997581
 20
169.0590281537934
 30
0.0
 11
-17.49999999997581
 21
182.2532823305599
 31
0.0
  0
LINE
  5
A8
330
A5
100
AcDbEntity
  8
-TEXT3
370
    -2
100
AcDbLine
 10
17.50000000002418
 20
169.0590281537934
 30
0.0
 11
17.50000000002418
 21
182.2532823305599
 31
0.0
  0
LINE
  5
A9
330
A5
100
AcDbEntity
  8
-TEXT3
370
    -2
100
AcDbLine
 10
-13.99999999997581
 20
180.7532823305599
 30
0.0
 11
14.00000000002419
 21
180.7532823305599
 31
0.0
  0
SOLID
  5
AA
330
A5
100
AcDbEntity
  8
-TEXT3
100
AcDbTrace
 10
-13.99999999997581
 20
181.3366156638933
 30
0.0
 11
-13.99999999997581
 21
180.1699489972266
 31
0.0
 12
-17.49999999997581
 22
180.7532823305599
 32
0.0
 13
-17.49999999997581
 23
180.7532823305599
 33
0.0
  0
SOLID
  5
AB
330
A5
100
AcDbEntity
  8
-TEXT3
100
AcDbTrace
 10
14.00000000002419
 20
181.3366156638933
 30
0.0
 11
14.00000000002419
 21
180.1699489972266
 31
0.0
 12
17.50000000002418
 22
180.7532823305599
 32
0.0
 13
17.50000000002418
 23
180.7532823305599
 33
0.0
  0
MTEXT
  5
AC
330
A5
100
AcDbEntity
  8
-TEXT3
100
AcDbMText
 10
0.0000000000241871
 20
183.9789791354545
 30
0.0
 40
4.0
 41
0.0
 71
     5
 72
     1
  1
\A1;%%c35
 73
     1
 44
1.0
1001
ACAD
1000
MTEXTBEGIN
1070
    73
1070
     1
1070
    44
1040
1.0
1070
    74
1070
     0
1000
MTEXTEND
  0
POINT
  5
AD
330
A5
100
AcDbEntity
  8
DEFPOINTS
 62
     0
100
AcDbPoint
 10
-17.49999999997581
 20
167.0590281537934
 30
0.0
  0
POINT
  5
AE
330
A5
100
AcDbEntity
  8
DEFPOINTS
 62
     0
100
AcDbPoint
 10
17.50000000002418
 20
167.0590281537934
 30
0.0
  0
POINT
  5
AF
330
A5
100
AcDbEntity
  8
DEFPOINTS
 62
     0
100
AcDbPoint
 10
17.50000000002418
 20
180.7532823305599
 30
0.0
  0
ENDBLK
  5
B0
330
A5
100
AcDbEntity
  8
0
100
AcDbBlockEnd
  0
BLOCK
  5
B5
330
B4
100
AcDbEntity
  8
0
100
AcDbBlockBegin
  2
ANSICHT35
 70
     0
 10
0.0
 20
0.0
 30
0.0
  3
ANSICHT35
  1

  0
LWPOLYLINE
  5
B6
330
B4
100
AcDbEntity
  8
-VERGLASUNG
100
AcDbPolyline
 90
        4
 70
     0
 43
0.0
 10
-72.97749106091817
 20
-17.34816104632338
 10
77.99999999997573
 20
-17.34816104632327
 10
79.99999999997573
 20
-19.34816104632327
 10
79.99999999997584
 20
-149.3273672017092
  0
MTEXT
  5
B7
330
B4
100
AcDbEntity
  8
-TEXT2
100
AcDbMText
 10
49.17713572762614
 20
-5.128944079777738
 30
0.0
 40
3.5
 41
17.9978
 71
     1
 72
     5
  1
{\fArial|b0|i0|c0|p34;Glaskante}
 73
     1
 44
1.0
1001
ACAD
1000
MTEXTBEGIN
1070
    73
1070
     1
1070
    44
1040
1.0
1070
    74
1070
     0
1000
MTEXTEND
  0
LWPOLYLINE
  5
B9
330
B4
100
AcDbEntity
  8
-TEXT2
100
AcDbPolyline
 90
        3
 70
     1
 43
0.0
 10
57.78044804003911
 20
-17.34816104632335
 10
61.91438540270016
 20
-10.18797149888712
 10
53.64651067737807
 20
-10.18797149888712
  0
LINE
  5
BA
330
B4
100
AcDbEntity
  8
-SYSTEM
100
AcDbLine
 10
23.99725072773698
 20
-97.34816104632296
 30
0.0
 11
-23.99725072778529
 21
-97.34816104632319
 31
0.0
  0
CIRCLE
  5
BB
330
B4
100
AcDbEntity
  8
-SCHRAFFUR
100
AcDbCircle
 10
-0.0000000000241576
 20
-97.34816104632306
 30
0.0
 40
15.82879797458653
  0
CIRCLE
  5
BC
330
B4
100
AcDbEntity
  8
-PROFILAUSSENKANTET
100
AcDbCircle
 10
-0.0000000000241576
 20
-97.34816104632306
 30
0.0
 40
17.5
  0
CIRCLE
  5
BD
330
B4
100
AcDbEntity
  8
-PROFILAUSSENKANTET
100
AcDbCircle
 10
6.999999999975842
 20
-97.34816104632303
 30
0.0
 40
1.75
  0
CIRCLE
  5
BE
330
B4
100
AcDbEntity
  8
-PROFILAUSSENKANTET
100
AcDbCircle
 10
-0.0000000000241434
 20
-97.34816104632308
 30
0.0
 40
10.0
  0
LINE
  5
BF
330
B4
100
AcDbEntity
  8
-SYSTEM
100
AcDbLine
 10
-0.0000000000242698
 20
-73.35091031856193
 30
0.0
 11
-0.0000000000240425
 21
-121.3454117740841
 31
0.0
  0
CIRCLE
  5
C0
330
B4
100
AcDbEntity
  8
-PROFILAUSSENKANTET
100
AcDbCircle
 10
-3.500000000024129
 20
-103.4103388728141
 30
0.0
 40
1.75
  0
CIRCLE
  5
C1
330
B4
100
AcDbEntity
  8
-PROFILAUSSENKANTET
100
AcDbCircle
 10
-3.500000000024171
 20
-91.28598321983199
 30
0.0
 40
1.75
  0
ENDBLK
  5
C2
330
B4
100
AcDbEntity
  8
0
100
AcDbBlockEnd
  0
ENDSEC
  0
SECTION
  2
ENTITIES
  0
LINE
  5
9
330
2
100
AcDbEntity
  8
-SYSTEM
100
AcDbLine
 10
0.0000000000224816
 20
176.7098478692375
 30
0.0
 11
0.0000000000227089
 21
106.7241084360749
 31
0.0
  0
DIMENSION
  5
C
330
2
100
AcDbEntity
  8
-TEXT3
100
AcDbDimension
  2
*D1
 10
-54.79566251202959
 20
147.7532823305593
 30
0.0
 11
-54.79566251202962
 21
149.2532823305594
 31
0.0
 70
   128
 71
     5
 42
3.000000000000142
  3
1-1PRO
100
AcDbAlignedDimension
 13
-49.70433748792405
 23
150.7532823305594
 33
0.0
 14
-17.49999999997581
 24
147.7532823305593
 34
0.0
 50
90.0
100
AcDbRotatedDimension
  0
LINE
  5
1F
330
2
100
AcDbEntity
  8
-VERGLASUNG
100
AcDbLine
 10
-45.39472923106635
 20
150.7532821184271
 30
0.0
 11
-41.50085441144031
 21
154.6471569380531
 31
0.0
  0
LINE
  5
21
330
2
100
AcDbEntity
  8
-VERGLASUNG
100
AcDbLine
 10
-43.83222923106635
 20
150.7532821184271
 30
0.0
 11
-39.93835441144032
 21
154.647156938053
 31
0.0
  0
DIMENSION
  5
22
330
2
100
AcDbEntity
  8
-TEXT3
100
AcDbDimension
  2
*D2
 10
-54.79566251202974
 20
137.7532823305593
 30
0.0
 11
-57.89627434071772
 21
142.7532823305593
 31
0.0
 71
     5
 42
10.00000000000003
  3
1-1PRO
100
AcDbAlignedDimension
 13
-35.29566251202985
 23
147.7532823305593
 33
0.0
 14
-17.49999999997584
 24
137.7532823305593
 34
0.0
 50
90.0
100
AcDbRotatedDimension
  0
DIMENSION
  5
2F
330
2
100
AcDbEntity
  8
-TEXT3
100
AcDbDimension
  2
*D4
 10
-54.79566251202972
 20
112.7532823305593
 30
0.0
 11
-57.79566251202974
 21
125.2532823305593
 31
0.0
  1
D
 71
     5
 42
25.0
  3
1-1PRO
100
AcDbAlignedDimension
 13
-17.49999999997584
 23
137.7532823305593
 33
0.0
 14
-4.079999999975768
 24
112.7532823305593
 34
0.0
 50
270.0
100
AcDbRotatedDimension
1001
ACAD
1000
DSTYLE
1002
{
1002
}
  0
DIMENSION
  5
3C
330
2
100
AcDbEntity
  8
-TEXT3
100
AcDbDimension
  2
*D0
 10
-54.79566251202962
 20
150.7532823305594
 30
0.0
 11
-57.89627434071761
 21
156.7532823305598
 31
0.0
  1
G
 71
     5
 42
12.00000000000068
  3
1-1PRO
100
AcDbAlignedDimension
 13
-49.70433748792405
 23
162.7532823305601
 33
0.0
 14
-49.70433748792405
 24
150.7532823305594
 34
0.0
 50
90.0
100
AcDbRotatedDimension
  0
LINE
  5
49
330
2
100
AcDbEntity
  8
-VERGLASUNG
100
AcDbLine
 10
-47.04981466705706
 20
158.8594072988017
 30
0.0
 11
-43.15593984743102
 21
162.7532821184278
 31
0.0
  0
LINE
  5
4A
330
2
100
AcDbEntity
  8
-VERGLASUNG
100
AcDbLine
 10
-48.61231466705707
 20
158.8594072988017
 30
0.0
 11
-44.71843984743102
 21
162.7532821184278
 31
0.0
  0
LINE
  5
4B
330
2
100
AcDbEntity
  8
-VERGLASUNG
100
AcDbLine
 10
-50.17481466705707
 20
158.8594072988017
 30
0.0
 11
-46.28093984743102
 21
162.7532821184278
 31
0.0
  0
LINE
  5
4C
330
2
100
AcDbEntity
  8
-VERGLASUNG
100
AcDbLine
 10
-46.95722923106635
 20
150.7532821184271
 30
0.0
 11
-43.06335441144031
 21
154.6471569380531
 31
0.0
  0
DIMENSION
  5
4D
330
2
100
AcDbEntity
  8
-TEXT3
100
AcDbDimension
  2
*D3
 10
5.000000000024157
 20
97.34816104632308
 30
0.0
 11
14.90312712442932
 21
100.448772875011
 31
0.0
  1
M<>
 71
     5
 42
10.0
  3
1-1PRO
100
AcDbAlignedDimension
 13
-4.999999999975841
 23
113.6732823305593
 33
0.0
 14
5.000000000024158
 24
113.6732823305593
 34
0.0
100
AcDbRotatedDimension
  0
LINE
  5
5B
330
2
100
AcDbEntity
  8
-VERGLASUNG
100
AcDbLine
 10
20.1380353816264
 20
150.7532821184269
 30
0.0
 11
24.03191020125243
 21
154.6471569380529
 31
0.0
  0
LINE
  5
5C
330
2
100
AcDbEntity
  8
-VERGLASUNG
100
AcDbLine
 10
18.48294994563568
 20
158.8594072988015
 30
0.0
 11
22.37682476526172
 21
162.7532821184275
 31
0.0
  0
LINE
  5
5D
330
2
100
AcDbEntity
  8
-VERGLASUNG
100
AcDbLine
 10
16.92044994563568
 20
158.8594072988015
 30
0.0
 11
20.81432476526172
 21
162.7532821184275
 31
0.0
  0
LINE
  5
5E
330
2
100
AcDbEntity
  8
-VERGLASUNG
100
AcDbLine
 10
18.57553538162639
 20
150.7532821184269
 30
0.0
 11
22.46941020125243
 21
154.6471569380529
 31
0.0
  0
LINE
  5
5F
330
2
100
AcDbEntity
  8
-VERGLASUNG
100
AcDbLine
 10
15.35794994563568
 20
158.8594072988015
 30
0.0
 11
19.25182476526171
 21
162.7532821184275
 31
0.0
  0
LINE
  5
60
330
2
100
AcDbEntity
  8
-VERGLASUNG
100
AcDbLine
 10
21.7005353816264
 20
150.7532821184269
 30
0.0
 11
25.59441020125243
 21
154.6471569380528
 31
0.0
  0
LINE
  5
61
330
2
100
AcDbEntity
  8
-VERGLASUNG
100
AcDbLine
 10
42.4107068997582
 20
158.8594073695122
 30
0.0
 11
46.30458171938423
 21
162.7532821891382
 31
0.0
  0
LINE
  5
62
330
2
100
AcDbEntity
  8
-VERGLASUNG
100
AcDbLine
 10
39.2857068997582
 20
158.8594073695122
 30
0.0
 11
43.17958171938423
 21
162.7532821891382
 31
0.0
  0
LINE
  5
63
330
2
100
AcDbEntity
  8
-VERGLASUNG
100
AcDbLine
 10
40.8482068997582
 20
158.8594073695122
 30
0.0
 11
44.74208171938423
 21
162.7532821891382
 31
0.0
  0
LINE
  5
64
330
2
100
AcDbEntity
  8
-VERGLASUNG
100
AcDbLine
 10
44.0657923357489
 20
150.7532821891376
 30
0.0
 11
47.95966715537494
 21
154.6471570087636
 31
0.0
  0
LINE
  5
65
330
2
100
AcDbEntity
  8
-VERGLASUNG
100
AcDbLine
 10
42.5032923357489
 20
150.7532821891376
 30
0.0
 11
46.39716715537494
 21
154.6471570087636
 31
0.0
  0
LINE
  5
66
330
2
100
AcDbEntity
  8
-VERGLASUNG
100
AcDbLine
 10
45.6282923357489
 20
150.7532821891376
 30
0.0
 11
49.52216715537494
 21
154.6471570087635
 31
0.0
  0
LINE
  5
67
330
2
100
AcDbEntity
  8
-VERGLASUNG
100
AcDbLine
 10
-19.90447227694383
 20
150.7532821891378
 30
0.0
 11
-16.0105974573178
 21
154.6471570087637
 31
0.0
  0
LINE
  5
68
330
2
100
AcDbEntity
  8
-VERGLASUNG
100
AcDbLine
 10
-23.02947227694383
 20
150.7532821891378
 30
0.0
 11
-19.1355974573178
 21
154.6471570087638
 31
0.0
  0
LINE
  5
69
330
2
100
AcDbEntity
  8
-VERGLASUNG
100
AcDbLine
 10
-21.46697227694383
 20
150.7532821891378
 30
0.0
 11
-17.5730974573178
 21
154.6471570087638
 31
0.0
  0
LINE
  5
6A
330
2
100
AcDbEntity
  8
-VERGLASUNG
100
AcDbLine
 10
-24.68455771293455
 20
158.8594073695124
 30
0.0
 11
-20.79068289330852
 21
162.7532821891385
 31
0.0
  0
LINE
  5
6B
330
2
100
AcDbEntity
  8
-VERGLASUNG
100
AcDbLine
 10
-26.24705771293455
 20
158.8594073695124
 30
0.0
 11
-22.35318289330852
 21
162.7532821891385
 31
0.0
  0
LINE
  5
6C
330
2
100
AcDbEntity
  8
-VERGLASUNG
100
AcDbLine
 10
-23.12205771293455
 20
158.8594073695124
 30
0.0
 11
-19.22818289330851
 21
162.7532821891385
 31
0.0
  0
LWPOLYLINE
  5
6D
330
2
100
AcDbEntity
  8
-NORMTEIL_VERDECKT
100
AcDbPolyline
 90
        5
 70
     0
 43
0.0
 10
-4.754156673663061
 20
170.7532823305599
 10
-4.754156673663061
 20
166.7532823305599
 10
-3.254156673663061
 20
165.7532823305599
 10
-1.754156673663061
 20
166.7532823305599
 10
-1.754156673663061
 20
170.7532823305608
  0
LWPOLYLINE
  5
70
330
2
100
AcDbEntity
  8
-PROFILAUSSENKANTET
100
AcDbPolyline
 90
       11
 70
     0
 43
0.0
 10
17.50000000002418
 20
165.7532823305599
 10
17.50000000002418
 20
167.0590281537927
 42
0.3759019639771881
 10
15.76432744020619
 20
169.0414839551579
 10
10.32895372442542
 20
170.7094218339732
 42
0.033150018187446
 10
9.668135123970301
 20
170.7532823305599
 10
-9.586187348484742
 20
170.7532823305599
 42
0.0413106451481675
 10
-10.40818228501146
 20
170.6852519497207
 10
-15.82879797458653
 20
169.0318160014582
 42
0.3666293647015966
 10
-17.49999999997581
 20
167.0590281537938
 10
-17.49999999997581
 20
165.7532823305599
 10
17.50000000002418
 20
165.7532823305599
  0
LWPOLYLINE
  5
72
330
2
100
AcDbEntity
  8
-NORMTEIL_VERDECKT
100
AcDbPolyline
 90
        5
 70
     0
 43
0.0
 10
5.745843326336256
 20
170.7532823305599
 10
5.745843326336256
 20
166.7532823305599
 10
7.245843326336256
 20
165.7532823305599
 10
8.745843326336256
 20
166.7532823305599
 10
8.745843326336256
 20
170.7532823305599
  0
LWPOLYLINE
  5
73
102
{ACAD_REACTORS
330
B2
102
}
330
2
100
AcDbEntity
  8
-DICHTUNG
100
AcDbPolyline
 90
        4
 70
     1
 43
0.0
 10
-16.99999999997581
 20
147.7532823305593
 10
17.00000000002418
 20
147.7532823305593
 10
17.00000000002418
 20
150.7532823305593
 10
-16.99999999997581
 20
150.7532823305593
  0
LWPOLYLINE
  5
75
102
{ACAD_REACTORS
330
B1
102
}
330
2
100
AcDbEntity
  8
-DICHTUNG
100
AcDbPolyline
 90
        4
 70
     1
 43
0.0
 10
-16.99999999997581
 20
162.7532823305599
 10
17.00000000002418
 20
162.7532823305599
 10
17.00000000002418
 20
165.7532823305599
 10
-16.99999999997581
 20
165.7532823305599
  0
LINE
  5
76
330
2
100
AcDbEntity
  8
-NORMTEIL_VERDECKT
100
AcDbLine
 10
2.54000000002415
 20
164.3652736159009
 30
0.0
 11
2.54000000002415
 21
151.9932823305599
 31
0.0
  0
LWPOLYLINE
  5
77
330
2
100
AcDbEntity
  8
-NORMTEIL_VERDECKT
100
AcDbPolyline
 90
        4
 70
     0
 43
0.0
 10
5.000000000024186
 20
160.7532823305599
 10
5.000000000024186
 20
162.7532823305599
 10
6.500000000024186
 20
162.7532823305599
 10
6.500000000024186
 20
150.7532823305593
  0
LINE
  5
78
330
2
100
AcDbEntity
  8
-NORMTEIL_VERDECKT
100
AcDbLine
 10
-2.539999999975776
 20
164.3652736159009
 30
0.0
 11
-2.539999999975776
 21
151.9932823305599
 31
0.0
  0
LWPOLYLINE
  5
79
330
2
100
AcDbEntity
  8
-NORMTEIL_VERDECKT
100
AcDbPolyline
 90
        4
 70
     0
 43
0.0
 10
-4.999999999975813
 20
160.7532823305599
 10
-4.999999999975813
 20
162.7532823305599
 10
-6.499999999975813
 20
162.7532823305599
 10
-6.499999999975813
 20
150.7532823305593
  0
LWPOLYLINE
  5
7A
330
2
100
AcDbEntity
  8
-NORMTEIL_VERDECKT
100
AcDbPolyline
 90
       12
 70
     0
 43
0.0
 10
-2.539999999975776
 20
165.7532823305599
 10
-2.539999999975776
 20
164.3652736159009
 42
-0.2679491924311216
 10
-2.839999999975731
 20
163.8456583736302
 10
-2.999999999975813
 20
163.7532823305599
 10
-2.999999999975813
 20
152.4532823305599
 10
-2.539999999975776
 20
151.9932823305599
 10
2.54000000002415
 20
151.9932823305599
 10
3.000000000024186
 20
152.4532823305599
 10
3.000000000024186
 20
163.7532823305599
 10
2.840000000024332
 20
163.8456583736302
 42
-0.2679491924311217
 10
2.54000000002415
 20
164.3652736159009
 10
2.54000000002415
 20
165.7532823305599
  0
LWPOLYLINE
  5
7B
330
2
100
AcDbEntity
  8
-NORMTEIL_VERDECKT
100
AcDbPolyline
 90
        3
 70
     0
 43
0.0
 10
5.000000000024186
 20
147.7532823305593
 10
5.000000000024186
 20
160.7532823305599
 10
-4.999999999975813
 20
160.7532823305599
  0
LWPOLYLINE
  5
7C
330
2
100
AcDbEntity
  8
-NORMTEIL_VERDECKT
100
AcDbPolyline
 90
        3
 70
     0
 43
0.0
 10
-4.999999999975813
 20
160.7532823305599
 10
-4.999999999975813
 20
160.7532823305599
 10
-4.999999999975813
 20
147.7532823305593
  0
LINE
  5
7D
330
2
100
AcDbEntity
  8
-NORMTEIL_VERDECKT
100
AcDbLine
 10
-4.754156673663061
 20
166.7532823305599
 30
0.0
 11
-1.754156673663061
 21
166.7532823305599
 31
0.0
  0
LINE
  5
7E
330
2
100
AcDbEntity
  8
-NORMTEIL_VERDECKT
100
AcDbLine
 10
5.745843326336256
 20
166.7532823305599
 30
0.0
 11
8.745843326336256
 21
166.7532823305599
 31
0.0
  0
LINE
  5
7F
330
2
100
AcDbEntity
  8
-NORMTEIL_VERDECKT
100
AcDbLine
 10
-2.999999999975813
 20
152.4532823305599
 30
0.0
 11
3.000000000024186
 21
152.4532823305599
 31
0.0
  0
LWPOLYLINE
  5
80
330
2
100
AcDbEntity
  8
-DICHTUNG
100
AcDbPolyline
 90
        4
 70
     1
 43
0.0
 10
-4.999999999975813
 20
150.7532823305593
 10
-6.499999999975813
 20
150.7532823305593
 10
-6.499999999975813
 20
150.7532823305593
 10
-4.999999999975813
 20
150.7532823305593
  0
LWPOLYLINE
  5
81
330
2
100
AcDbEntity
  8
-NORMTEIL
100
AcDbPolyline
 90
        6
 70
     0
 43
0.0
 10
-4.999999999975841
 20
137.7532823305593
 10
-4.999999999975841
 20
113.6732823305593
 10
-4.079999999975768
 20
112.7532823305593
 10
4.080000000024313
 20
112.7532823305593
 10
5.000000000024158
 20
113.6732823305593
 10
5.000000000024158
 20
137.7532823305593
  0
LINE
  5
83
330
2
100
AcDbEntity
  8
-SCHRAFFUR
100
AcDbLine
 10
-4.999999999975841
 20
113.6732823305593
 30
0.0
 11
5.000000000024158
 21
113.6732823305593
 31
0.0
  0
LINE
  5
85
330
2
100
AcDbEntity
  8
-SCHRAFFUR
100
AcDbLine
 10
-4.079999999975768
 20
112.7532823305593
 30
0.0
 11
-4.079999999975768
 21
137.7532823305593
 31
0.0
  0
LINE
  5
86
330
2
100
AcDbEntity
  8
-SCHRAFFUR
100
AcDbLine
 10
4.080000000024313
 20
112.7532823305593
 30
0.0
 11
4.080000000024313
 21
137.7532823305593
 31
0.0
  0
LWPOLYLINE
  5
87
330
2
100
AcDbEntity
  8
-PROFILAUSSENKANTET
100
AcDbPolyline
 90
        6
 70
     1
 43
0.0
 10
-17.49999999997581
 20
147.7532823305593
 10
-17.49999999997584
 20
137.7532823305593
 10
-4.999999999975813
 20
137.7532823305593
 10
17.50000000002418
 20
137.7532823305593
 10
17.50000000002418
 20
147.7532823305593
 10
-4.999999999975813
 20
147.7532823305593
  0
DIMENSION
  5
88
330
2
100
AcDbEntity
  8
-TEXT3
100
AcDbDimension
  2
*D5
 10
-54.79566251202959
 20
165.7532823305603
 30
0.0
 11
-54.79566251202962
 21
164.2532823305602
 31
0.0
 70
   128
 71
     5
 42
3.000000000000142
  3
1-1PRO
100
AcDbAlignedDimension
 13
-49.70433748792405
 23
162.7532823305601
 33
0.0
 14
-17.49999999997581
 24
165.7532823305603
 34
0.0
 50
90.0
100
AcDbRotatedDimension
  0
DIMENSION
  5
96
330
2
100
AcDbEntity
  8
-TEXT3
100
AcDbDimension
  2
*D6
 10
-54.79566251202974
 20
170.7362457107085
 30
0.0
 11
-57.84596842637375
 21
168.2447640206344
 31
0.0
 71
     5
 42
4.982963380148277
  3
1-1PRO
100
AcDbAlignedDimension
 13
-35.29566251202985
 23
165.7532823305603
 33
0.0
 14
-9.99859000620917
 24
170.7362457107085
 34
0.0
 50
90.0
100
AcDbRotatedDimension
  0
DIMENSION
  5
A4
330
2
100
AcDbEntity
  8
-TEXT3
100
AcDbDimension
  2
*D7
 10
17.50000000002418
 20
180.7532823305599
 30
0.0
 11
0.0000000000241871
 21
183.9789791354545
 31
0.0
  1
%%c<>
 71
     5
 42
35.0
  3
1-1PRO
100
AcDbAlignedDimension
 13
-17.49999999997581
 23
167.0590281537934
 33
0.0
 14
17.50000000002418
 24
167.0590281537934
 34
0.0
100
AcDbRotatedDimension
  0
HATCH
  5
B1
330
2
100
AcDbEntity
  8
-SCHRAFFUR
100
AcDbHatch
 10
0.0
 20
0.0
 30
0.0
210
0.0
220
0.0
230
1.0
  2
SOLID
 70
     1
 71
     1
 91
        1
 92
        1
 93
        4
 72
     1
 10
-16.99999999997581
 20
162.7532823305599
 11
17.00000000002418
 21
162.7532823305599
 72
     1
 10
17.00000000002418
 20
162.7532823305599
 11
17.00000000002418
 21
165.7532823305599
 72
     1
 10
17.00000000002418
 20
165.7532823305599
 11
-16.99999999997581
 21
165.7532823305599
 72
     1
 10
-16.99999999997581
 20
165.7532823305599
 11
-16.99999999997581
 21
162.7532823305599
 97
        1
330
75
 75
     0
 76
     1
 98
        1
 10
-77.99999999997729
 20
62.25591153779845
  0
HATCH
  5
B2
330
2
100
AcDbEntity
  8
-SCHRAFFUR
100
AcDbHatch
 10
0.0
 20
0.0
 30
0.0
210
0.0
220
0.0
230
1.0
  2
SOLID
 70
     1
 71
     1
 91
        1
 92
        1
 93
        4
 72
     1
 10
-16.99999999997581
 20
147.7532823305593
 11
17.00000000002418
 21
147.7532823305593
 72
     1
 10
17.00000000002418
 20
147.7532823305593
 11
17.00000000002418
 21
150.7532823305593
 72
     1
 10
17.00000000002418
 20
150.7532823305593
 11
-16.99999999997581
 21
150.7532823305593
 72
     1
 10
-16.99999999997581
 20
150.7532823305593
 11
-16.99999999997581
 21
147.7532823305593
 97
        1
330
73
 75
     0
 76
     1
 98
        1
 10
-77.99999999997729
 20
62.25591153779845
  0
INSERT
  5
B3
330
2
100
AcDbEntity
  8
-SCHRAFFUR
100
AcDbBlockReference
  2
ANSICHT35
 10
0.0000000000241585
 20
97.34816104632308
 30
0.0
  0
LWPOLYLINE
  5
C3
330
2
100
AcDbEntity
  8
-VERGLASUNG
100
AcDbPolyline
 90
        6
 70
     0
 43
0.0
 10
-49.70433748792405
 20
162.7532823305601
 10
77.99999999999989
 20
162.7532823305596
 10
79.99999999999989
 20
160.7532823305596
 10
79.99999999999989
 20
152.753282330559
 10
77.99999999999989
 20
150.753282330559
 10
-49.70433748792405
 20
150.7532823305594
  0
LINE
  5
C4
330
2
100
AcDbEntity
  8
-VERGLASUNG
100
AcDbLine
 10
66.33846385388071
 20
158.8594074402229
 30
0.0
 11
70.23233867350675
 21
162.753282259849
 31
0.0
  0
LINE
  5
C5
330
2
100
AcDbEntity
  8
-VERGLASUNG
100
AcDbLine
 10
63.21346385388071
 20
158.8594074402229
 30
0.0
 11
67.10733867350675
 21
162.753282259849
 31
0.0
  0
LINE
  5
C6
330
2
100
AcDbEntity
  8
-VERGLASUNG
100
AcDbLine
 10
64.77596385388071
 20
158.8594074402229
 30
0.0
 11
68.66983867350675
 21
162.753282259849
 31
0.0
  0
LINE
  5
C7
330
2
100
AcDbEntity
  8
-VERGLASUNG
100
AcDbLine
 10
66.43104928987142
 20
150.7532822598483
 30
0.0
 11
70.32492410949746
 21
154.6471570794743
 31
0.0
  0
LINE
  5
C8
330
2
100
AcDbEntity
  8
-VERGLASUNG
100
AcDbLine
 10
67.99354928987142
 20
150.7532822598483
 30
0.0
 11
71.88742410949746
 21
154.6471570794743
 31
0.0
  0
LINE
  5
C9
330
2
100
AcDbEntity
  8
-VERGLASUNG
100
AcDbLine
 10
69.55604928987142
 20
150.7532822598483
 30
0.0
 11
73.44992410949746
 21
154.6471570794742
 31
0.0
  0
ENDSEC
  0
SECTION
  2
OBJECTS
  0
DICTIONARY
  5
7
330
0
100
AcDbDictionary
281
     1
  3
ACAD_COLOR
350
E2
  3
ACAD_GROUP
350
DE
  3
ACAD_LAYOUT
350
CC
  3
ACAD_MATERIAL
350
E1
  3
ACAD_MLINESTYLE
350
DF
  3
ACAD_PLOTSETTINGS
350
E0
  3
ACAD_PLOTSTYLENAME
350
6
  3
ACDBHEADERROUNDTRIPXREC
350
E8
  3
AcDbVariableDictionary
350
E4
  0
DICTIONARY
  5
E2
102
{ACAD_REACTORS
330
7
102
}
330
7
100
AcDbDictionary
281
     1
  0
DICTIONARY
  5
DE
102
{ACAD_REACTORS
330
7
102
}
330
7
100
AcDbDictionary
281
     1
  0
DICTIONARY
  5
CC
102
{ACAD_REACTORS
330
7
102
}
330
7
100
AcDbDictionary
281
     1
  3
Layout1
350
D0
  3
Model
350
CB
  0
DICTIONARY
  5
E1
102
{ACAD_REACTORS
330
7
102
}
330
7
100
AcDbDictionary
281
     1
  0
DICTIONARY
  5
DF
102
{ACAD_REACTORS
330
7
102
}
330
7
100
AcDbDictionary
281
     1
  3
STANDARD
350
E3
  0
DICTIONARY
  5
E0
102
{ACAD_REACTORS
330
7
102
}
330
7
100
AcDbDictionary
281
     1
  0
ACDBDICTIONARYWDFLT
  5
6
102
{ACAD_REACTORS
330
7
102
}
330
7
100
AcDbDictionary
281
     1
  3
Normal
350
5
100
AcDbDictionaryWithDefault
340
5
  0
DICTIONARY
  5
E8
102
{ACAD_REACTORS
330
7
102
}
330
7
100
AcDbDictionary
281
     1
  3
COLORDICT
350
EA
  3
MATERIALDICT
350
E9
  0
DICTIONARY
  5
E4
102
{ACAD_REACTORS
330
7
102
}
330
7
100
AcDbDictionary
281
     1
  3
DIMASSOC
350
E6
  3
HIDETEXT
350
E5
  3
PROJECTNAME
350
E7
  0
LAYOUT
  5
D0
102
{ACAD_XDICTIONARY
360
EF
102
}
102
{ACAD_REACTORS
330
CC
102
}
330
CC
100
AcDbPlotSettings
  1

  2
HP DeskJet 1120C Printer
  4

  6

 40
0.0
 41
0.0
 42
0.0
 43
0.0
 44
0.0
 45
0.0
 46
0.0
 47
0.0
 48
0.0
 49
0.0
140
0.0
141
0.0
142
1.0
143
1.0
 70
   688
 72
     0
 73
     0
 74
     5
  7
monochrome.ctb
 75
    16
147
1.0
148
0.0
149
0.0
100
AcDbLayout
  1
Layout1
 70
     1
 71
     1
 10
0.0
 20
0.0
 11
12.0
 21
9.0
 12
0.0
 22
0.0
 32
0.0
 14
1.000000000000000E+20
 24
1.000000000000000E+20
 34
1.000000000000000E+20
 15
-1.000000000000000E+20
 25
-1.000000000000000E+20
 35
-1.000000000000000E+20
146
0.0
 13
0.0
 23
0.0
 33
0.0
 16
1.0
 26
0.0
 36
0.0
 17
0.0
 27
1.0
 37
0.0
 76
     0
330
CD
  0
LAYOUT
  5
CB
102
{ACAD_XDICTIONARY
360
ED
102
}
102
{ACAD_REACTORS
330
CC
102
}
330
CC
100
AcDbPlotSettings
  1

  2
HP DeskJet 1120C Printer
  4

  6

 40
0.0
 41
0.0
 42
0.0
 43
0.0
 44
0.0
 45
0.0
 46
0.0
 47
0.0
 48
0.0
 49
0.0
140
0.0
141
0.0
142
1.0
143
1.0
 70
  1712
 72
     0
 73
     0
 74
     0
  7
monochrome.ctb
 75
     0
147
1.0
148
0.0
149
0.0
100
AcDbLayout
  1
Model
 70
     1
 71
     0
 10
0.0
 20
0.0
 11
12.0
 21
9.0
 12
0.0
 22
0.0
 32
0.0
 14
0.0
 24
0.0
 34
0.0
 15
0.0
 25
0.0
 35
0.0
146
0.0
 13
0.0
 23
0.0
 33
0.0
 16
1.0
 26
0.0
 36
0.0
 17
0.0
 27
1.0
 37
0.0
 76
     0
330
2
  0
MLINESTYLE
  5
E3
102
{ACAD_REACTORS
330
DF
102
}
330
DF
100
AcDbMlineStyle
  2
STANDARD
 70
     0
  3

 62
     0
 51
90.0
 52
90.0
 71
     2
 49
0.5
 62
   256
  6
BYLAYER
 49
-0.5
 62
   256
  6
BYLAYER
  0
ACDBPLACEHOLDER
  5
5
102
{ACAD_REACTORS
330
6
102
}
330
6
  0
XRECORD
  5
EA
102
{ACAD_REACTORS
330
E8
102
}
330
E8
100
AcDbXrecord
280
     1
340
E2
  0
XRECORD
  5
E9
102
{ACAD_REACTORS
330
E8
102
}
330
E8
100
AcDbXrecord
280
     1
340
E1
  0
DICTIONARYVAR
  5
E6
102
{ACAD_REACTORS
330
E4
102
}
330
E4
100
DictionaryVariables
280
     0
  1
1
  0
DICTIONARYVAR
  5
E5
102
{ACAD_REACTORS
330
E4
102
}
330
E4
100
DictionaryVariables
280
     0
  1
1
  0
DICTIONARYVAR
  5
E7
102
{ACAD_REACTORS
330
E4
102
}
330
E4
100
DictionaryVariables
280
     0
  1

  0
DICTIONARY
  5
EF
330
D0
100
AcDbDictionary
280
     1
281
     1
  3
ACAD_XREC_ROUNDTRIP
360
F0
  0
DICTIONARY
  5
ED
330
CB
100
AcDbDictionary
280
     1
281
     1
  3
ACAD_XREC_ROUNDTRIP
360
EE
  0
XRECORD
  5
F0
102
{ACAD_REACTORS
330
EF
102
}
330
EF
100
AcDbXrecord
280
     1
102
SHADEPLOT
 70
     0
102
SHADEPLOTRESLEVEL
 70
     2
102
SHADEPLOTCUSTOMDPI
 70
   300
  0
XRECORD
  5
EE
102
{ACAD_REACTORS
330
ED
102
}
330
ED
100
AcDbXrecord
280
     1
102
SHADEPLOT
 70
     0
102
SHADEPLOTRESLEVEL
 70
     2
102
SHADEPLOTCUSTOMDPI
 70
   300
  0
ENDSEC
  0
EOF
