  0
SECTION
  2
HEADER
  9
$ACADVER
  1
AC1015
  9
$ACADMAINTVER
 70
    18
  9
$DWGCODEPAGE
  3
ANSI_1252
  9
$INSBASE
 10
-327.8288694144876
 20
0.0
 30
0.0
  9
$EXTMIN
 10
1.000000000000000E+20
 20
1.000000000000000E+20
 30
1.000000000000000E+20
  9
$EXTMAX
 10
0.0
 20
0.0
 30
0.0
  9
$LIMMIN
 10
0.0
 20
0.0
  9
$LIMMAX
 10
12.0
 20
9.0
  9
$ORTHOMODE
 70
     1
  9
$REGENMODE
 70
     1
  9
$FILLMODE
 70
     1
  9
$QTEXTMODE
 70
     0
  9
$MIRRTEXT
 70
     1
  9
$LTSCALE
 40
2.5
  9
$ATTMODE
 70
     1
  9
$TEXTSIZE
 40
0.2
  9
$TRACEWID
 40
0.05
  9
$TEXTSTYLE
  7
STANDARD
  9
$CLAYER
  8
0
  9
$CELTYPE
  6
BYLAYER
  9
$CECOLOR
 62
   256
  9
$CELTSCALE
 40
1.0
  9
$DISPSILH
 70
     0
  9
$DIMSCALE
 40
1.0
  9
$DIMASZ
 40
3.5
  9
$DIMEXO
 40
2.0
  9
$DIMDLI
 40
2.0
  9
$DIMRND
 40
0.0
  9
$DIMDLE
 40
0.0
  9
$DIMEXE
 40
1.5
  9
$DIMTP
 40
0.0
  9
$DIMTM
 40
0.0
  9
$DIMTXT
 40
5.0
  9
$DIMCEN
 40
0.09
  9
$DIMTSZ
 40
0.0
  9
$DIMTOL
 70
     0
  9
$DIMLIM
 70
     0
  9
$DIMTIH
 70
     0
  9
$DIMTOH
 70
     0
  9
$DIMSE1
 70
     0
  9
$DIMSE2
 70
     0
  9
$DIMTAD
 70
     1
  9
$DIMZIN
 70
     9
  9
$DIMBLK
  1

  9
$DIMASO
 70
     1
  9
$DIMSHO
 70
     1
  9
$DIMPOST
  1

  9
$DIMAPOST
  1

  9
$DIMALT
 70
     0
  9
$DIMALTD
 70
     2
  9
$DIMALTF
 40
25.4
  9
$DIMLFAC
 40
1.0
  9
$DIMTOFL
 70
     0
  9
$DIMTVP
 40
0.0
  9
$DIMTIX
 70
     0
  9
$DIMSOXD
 70
     0
  9
$DIMSAH
 70
     0
  9
$DIMBLK1
  1

  9
$DIMBLK2
  1

  9
$DIMSTYLE
  2
1-1PRO
  9
$DIMCLRD
 70
   256
  9
$DIMCLRE
 70
   256
  9
$DIMCLRT
 70
   256
  9
$DIMTFAC
 40
1.0
  9
$DIMGAP
 40
1.0
  9
$DIMJUST
 70
     0
  9
$DIMSD1
 70
     0
  9
$DIMSD2
 70
     0
  9
$DIMTOLJ
 70
     1
  9
$DIMTZIN
 70
     0
  9
$DIMALTZ
 70
     0
  9
$DIMALTTZ
 70
     0
  9
$DIMUPT
 70
     0
  9
$DIMDEC
 70
     1
  9
$DIMTDEC
 70
     1
  9
$DIMALTU
 70
     2
  9
$DIMALTTD
 70
     2
  9
$DIMTXSTY
  7
STANDARD
  9
$DIMAUNIT
 70
     0
  9
$DIMADEC
 70
     0
  9
$DIMALTRND
 40
0.0
  9
$DIMAZIN
 70
     0
  9
$DIMDSEP
 70
    46
  9
$DIMATFIT
 70
     3
  9
$DIMFRAC
 70
     0
  9
$DIMLDRBLK
  1

  9
$DIMLUNIT
 70
     2
  9
$DIMLWD
 70
    -2
  9
$DIMLWE
 70
    -2
  9
$DIMTMOVE
 70
     0
  9
$LUNITS
 70
     2
  9
$LUPREC
 70
     4
  9
$SKETCHINC
 40
0.1
  9
$FILLETRAD
 40
0.0
  9
$AUNITS
 70
     0
  9
$AUPREC
 70
     0
  9
$MENU
  1
.
  9
$ELEVATION
 40
0.0
  9
$PELEVATION
 40
0.0
  9
$THICKNESS
 40
0.0
  9
$LIMCHECK
 70
     0
  9
$CHAMFERA
 40
1.0
  9
$CHAMFERB
 40
1.0
  9
$CHAMFERC
 40
1.0
  9
$CHAMFERD
 40
0.0
  9
$SKPOLY
 70
     0
  9
$TDCREATE
 40
2450923.406402199
  9
$TDUCREATE
 40
2450923.364735533
  9
$TDUPDATE
 40
2453396.560812141
  9
$TDUUPDATE
 40
2453396.519145475
  9
$TDINDWG
 40
2.7299162616
  9
$TDUSRTIMER
 40
2.7299162616
  9
$USRTIMER
 70
     1
  9
$ANGBASE
 50
0.0
  9
$ANGDIR
 70
     0
  9
$PDMODE
 70
     0
  9
$PDSIZE
 40
0.0
  9
$PLINEWID
 40
0.0
  9
$SPLFRAME
 70
     0
  9
$SPLINETYPE
 70
     6
  9
$SPLINESEGS
 70
    50
  9
$HANDSEED
  5
114
  9
$SURFTAB1
 70
     6
  9
$SURFTAB2
 70
     6
  9
$SURFTYPE
 70
     6
  9
$SURFU
 70
     6
  9
$SURFV
 70
     6
  9
$UCSBASE
  2

  9
$UCSNAME
  2

  9
$UCSORG
 10
0.0
 20
0.0
 30
0.0
  9
$UCSXDIR
 10
1.0
 20
0.0
 30
0.0
  9
$UCSYDIR
 10
0.0
 20
1.0
 30
0.0
  9
$UCSORTHOREF
  2

  9
$UCSORTHOVIEW
 70
     0
  9
$UCSORGTOP
 10
0.0
 20
0.0
 30
0.0
  9
$UCSORGBOTTOM
 10
0.0
 20
0.0
 30
0.0
  9
$UCSORGLEFT
 10
0.0
 20
0.0
 30
0.0
  9
$UCSORGRIGHT
 10
0.0
 20
0.0
 30
0.0
  9
$UCSORGFRONT
 10
0.0
 20
0.0
 30
0.0
  9
$UCSORGBACK
 10
0.0
 20
0.0
 30
0.0
  9
$PUCSBASE
  2

  9
$PUCSNAME
  2

  9
$PUCSORG
 10
0.0
 20
0.0
 30
0.0
  9
$PUCSXDIR
 10
1.0
 20
0.0
 30
0.0
  9
$PUCSYDIR
 10
0.0
 20
1.0
 30
0.0
  9
$PUCSORTHOREF
  2

  9
$PUCSORTHOVIEW
 70
     0
  9
$PUCSORGTOP
 10
0.0
 20
0.0
 30
0.0
  9
$PUCSORGBOTTOM
 10
0.0
 20
0.0
 30
0.0
  9
$PUCSORGLEFT
 10
0.0
 20
0.0
 30
0.0
  9
$PUCSORGRIGHT
 10
0.0
 20
0.0
 30
0.0
  9
$PUCSORGFRONT
 10
0.0
 20
0.0
 30
0.0
  9
$PUCSORGBACK
 10
0.0
 20
0.0
 30
0.0
  9
$USERI1
 70
     0
  9
$USERI2
 70
     0
  9
$USERI3
 70
     0
  9
$USERI4
 70
     0
  9
$USERI5
 70
     0
  9
$USERR1
 40
0.0
  9
$USERR2
 40
0.0
  9
$USERR3
 40
0.0
  9
$USERR4
 40
0.0
  9
$USERR5
 40
0.0
  9
$WORLDVIEW
 70
     1
  9
$SHADEDGE
 70
     3
  9
$SHADEDIF
 70
    70
  9
$TILEMODE
 70
     1
  9
$MAXACTVP
 70
    48
  9
$PINSBASE
 10
0.0
 20
0.0
 30
0.0
  9
$PLIMCHECK
 70
     0
  9
$PEXTMIN
 10
1.000000000000000E+20
 20
1.000000000000000E+20
 30
1.000000000000000E+20
  9
$PEXTMAX
 10
-1.000000000000000E+20
 20
-1.000000000000000E+20
 30
-1.000000000000000E+20
  9
$PLIMMIN
 10
0.0
 20
0.0
  9
$PLIMMAX
 10
12.0
 20
9.0
  9
$UNITMODE
 70
     0
  9
$VISRETAIN
 70
     1
  9
$PLINEGEN
 70
     0
  9
$PSLTSCALE
 70
     1
  9
$TREEDEPTH
 70
  3020
  9
$CMLSTYLE
  2
STANDARD
  9
$CMLJUST
 70
     0
  9
$CMLSCALE
 40
1.0
  9
$PROXYGRAPHICS
 70
     1
  9
$MEASUREMENT
 70
     0
  9
$CELWEIGHT
370
    -1
  9
$ENDCAPS
280
     0
  9
$JOINSTYLE
280
     0
  9
$LWDISPLAY
290
     0
  9
$INSUNITS
 70
     0
  9
$HYPERLINKBASE
  1

  9
$STYLESHEET
  1

  9
$XEDIT
290
     1
  9
$CEPSNTYPE
380
     0
  9
$PSTYLEMODE
290
     1
  9
$FINGERPRINTGUID
  2
{E1561640-FB5E-11D4-9C1F-EC81C176A25E}
  9
$VERSIONGUID
  2
{1EBEA981-44BA-4778-A1BA-83DA00F910FF}
  9
$EXTNAMES
290
     1
  9
$PSVPSCALE
 40
0.0
  9
$OLESTARTUP
290
     0
  0
ENDSEC
  0
SECTION
  2
CLASSES
  0
CLASS
  1
DICTIONARYVAR
  2
AcDbDictionaryVar
  3
ObjectDBX Classes
 90
        0
280
     0
281
     0
  0
CLASS
  1
IMAGE
  2
AcDbRasterImage
  3
ISM
 90
    32895
280
     0
281
     1
  0
CLASS
  1
IMAGEDEF_REACTOR
  2
AcDbRasterImageDefReactor
  3
ISM
 90
    32769
280
     0
281
     0
  0
CLASS
  1
IMAGEDEF
  2
AcDbRasterImageDef
  3
ISM
 90
    32768
280
     0
281
     0
  0
CLASS
  1
RASTERVARIABLES
  2
AcDbRasterVariables
  3
ISM
 90
    32768
280
     0
281
     0
  0
CLASS
  1
ACDBDICTIONARYWDFLT
  2
AcDbDictionaryWithDefault
  3
ObjectDBX Classes
 90
        0
280
     0
281
     0
  0
CLASS
  1
ACDBPLACEHOLDER
  2
AcDbPlaceHolder
  3
ObjectDBX Classes
 90
        0
280
     0
281
     0
  0
CLASS
  1
LAYOUT
  2
AcDbLayout
  3
ObjectDBX Classes
 90
        0
280
     0
281
     0
  0
ENDSEC
  0
SECTION
  2
TABLES
  0
TABLE
  2
VPORT
  5
FC
330
0
100
AcDbSymbolTable
 70
     1
  0
VPORT
  5
FD
330
FC
100
AcDbSymbolTableRecord
100
AcDbViewportTableRecord
  2
*Active
 70
     0
 10
0.0
 20
0.0
 11
1.0
 21
1.0
 12
122.2137051664684
 22
122.1375936188629
 13
0.0
 23
0.0
 14
0.5
 24
0.5
 15
0.5
 25
0.5
 16
0.0
 26
0.0
 36
1.0
 17
0.0
 27
0.0
 37
0.0
 40
299.6980070519676
 41
1.548512289780077
 42
50.0
 43
0.0
 44
0.0
 50
0.0
 51
0.0
 71
     0
 72
   100
 73
     1
 74
     1
 75
     0
 76
     0
 77
     0
 78
     0
281
     0
 65
     1
110
0.0
120
0.0
130
0.0
111
1.0
121
0.0
131
0.0
112
0.0
122
1.0
132
0.0
 79
     0
146
0.0
  0
ENDTAB
  0
TABLE
  2
LTYPE
  5
F7
330
0
100
AcDbSymbolTable
 70
     3
  0
LTYPE
  5
F8
330
F7
100
AcDbSymbolTableRecord
100
AcDbLinetypeTableRecord
  2
BYBLOCK
 70
     0
  3

 72
    65
 73
     0
 40
0.0
  0
LTYPE
  5
F9
330
F7
100
AcDbSymbolTableRecord
100
AcDbLinetypeTableRecord
  2
BYLAYER
 70
     0
  3

 72
    65
 73
     0
 40
0.0
  0
LTYPE
  5
8
330
F7
100
AcDbSymbolTableRecord
100
AcDbLinetypeTableRecord
  2
CONTINUOUS
 70
     0
  3
Solid line
 72
    65
 73
     0
 40
0.0
  0
LTYPE
  5
13
330
F7
100
AcDbSymbolTableRecord
100
AcDbLinetypeTableRecord
  2
MITTEX2
 70
     0
  3
Mitte (2x) ________  __  ________  __  _____
 72
    65
 73
     4
 40
4.0
 49
2.5
 74
     0
 49
-0.5
 74
     0
 49
0.5
 74
     0
 49
-0.5
 74
     0
  0
LTYPE
  5
31
330
F7
100
AcDbSymbolTableRecord
100
AcDbLinetypeTableRecord
  2
STRICHLINIEX2
 70
     0
  3
Strichlinie (2x) ____  ____  ____  ____  ____  
 72
    65
 73
     2
 40
1.5
 49
1.0
 74
     0
 49
-0.5
 74
     0
  0
ENDTAB
  0
TABLE
  2
LAYER
  5
F4
330
0
100
AcDbSymbolTable
 70
    11
  0
LAYER
  5
4
330
F4
100
AcDbSymbolTableRecord
100
AcDbLayerTableRecord
  2
0
 70
     0
 62
     7
  6
CONTINUOUS
370
    -3
390
5
  0
LAYER
  5
16
330
F4
100
AcDbSymbolTableRecord
100
AcDbLayerTableRecord
  2
-PROFILAUSSENKANTET
 70
     0
 62
     4
  6
CONTINUOUS
370
    -3
390
5
  0
LAYER
  5
C
330
F4
100
AcDbSymbolTableRecord
100
AcDbLayerTableRecord
  2
-DICHTUNG
 70
     0
 62
     3
  6
CONTINUOUS
370
    -3
390
5
  0
LAYER
  5
48
330
F4
100
AcDbSymbolTableRecord
100
AcDbLayerTableRecord
  2
-NORMTEIL
 70
     0
 62
     6
  6
CONTINUOUS
370
    -3
390
5
  0
LAYER
  5
30
330
F4
100
AcDbSymbolTableRecord
100
AcDbLayerTableRecord
  2
-NORMTEIL_VERDECKT
 70
     0
 62
     9
  6
STRICHLINIEX2
370
    -3
390
5
  0
LAYER
  5
2B
330
F4
100
AcDbSymbolTableRecord
100
AcDbLayerTableRecord
  2
DEFPOINTS
 70
     0
 62
     7
  6
CONTINUOUS
290
     0
370
    -3
390
5
  0
LAYER
  5
12
330
F4
100
AcDbSymbolTableRecord
100
AcDbLayerTableRecord
  2
-SYSTEM
 70
     0
 62
     2
  6
MITTEX2
370
    -3
390
5
  0
LAYER
  5
E8
330
F4
100
AcDbSymbolTableRecord
100
AcDbLayerTableRecord
  2
-TEXT2
 70
     0
 62
     3
  6
CONTINUOUS
370
    -3
390
5
  0
LAYER
  5
1E
330
F4
100
AcDbSymbolTableRecord
100
AcDbLayerTableRecord
  2
-TEXT3
 70
     0
 62
     2
  6
CONTINUOUS
370
    -3
390
5
  0
LAYER
  5
A
330
F4
100
AcDbSymbolTableRecord
100
AcDbLayerTableRecord
  2
-SCHRAFFUR
 70
     0
 62
     9
  6
CONTINUOUS
370
    -3
390
5
  0
LAYER
  5
C2
330
F4
100
AcDbSymbolTableRecord
100
AcDbLayerTableRecord
  2
-VERGLASUNG
 70
     0
 62
     1
  6
CONTINUOUS
370
    -3
390
5
  0
ENDTAB
  0
TABLE
  2
STYLE
  5
F5
330
0
100
AcDbSymbolTable
 70
     1
  0
STYLE
  5
20
330
F5
100
AcDbSymbolTableRecord
100
AcDbTextStyleTableRecord
  2
STANDARD
 70
     0
 40
0.0
 41
1.0
 50
0.0
 71
     0
 42
0.2
  3
GOTHIC.TTF
  4

1001
ACAD
1000
Century Gothic
1071
       34
  0
ENDTAB
  0
TABLE
  2
VIEW
  5
FA
330
0
100
AcDbSymbolTable
 70
     0
  0
ENDTAB
  0
TABLE
  2
UCS
  5
FB
330
0
100
AcDbSymbolTable
 70
     0
  0
ENDTAB
  0
TABLE
  2
APPID
  5
FE
330
0
100
AcDbSymbolTable
 70
     1
  0
APPID
  5
21
330
FE
100
AcDbSymbolTableRecord
100
AcDbRegAppTableRecord
  2
ACAD
 70
     0
  0
ENDTAB
  0
TABLE
  2
DIMSTYLE
  5
FF
330
0
100
AcDbSymbolTable
 70
     2
100
AcDbDimStyleTable
 71
     2
340
1F
340
74
  0
DIMSTYLE
105
1F
102
{ACAD_REACTORS
330
1D
330
36
330
4A
330
57
330
65
330
95
330
A3
102
}
330
FF
100
AcDbSymbolTableRecord
100
AcDbDimStyleTableRecord
  2
1-1PRO
 70
     0
 41
3.5
 42
2.0
 43
2.0
 44
1.5
 73
     0
 74
     0
 77
     1
 78
     9
140
5.0
147
1.0
176
   256
177
   256
178
   256
271
     1
272
     1
340
20
  0
DIMSTYLE
105
74
102
{ACAD_REACTORS
330
73
330
87
102
}
330
FF
100
AcDbSymbolTableRecord
100
AcDbDimStyleTableRecord
  2
1-1PRO-PU
 70
     0
 41
3.5
 42
2.0
 43
2.0
 44
1.5
 73
     0
 74
     0
 77
     1
 78
     9
140
4.0
147
1.0
173
     1
176
   256
177
   256
178
   256
271
     1
272
     1
340
20
344
75
  0
ENDTAB
  0
TABLE
  2
BLOCK_RECORD
  5
1
330
0
100
AcDbSymbolTable
 70
    10
  0
BLOCK_RECORD
  5
2
330
1
100
AcDbSymbolTableRecord
100
AcDbBlockTableRecord
  2
*MODEL_SPACE
340
EE
  0
BLOCK_RECORD
  5
F0
330
1
100
AcDbSymbolTableRecord
100
AcDbBlockTableRecord
  2
*PAPER_SPACE
340
F3
  0
BLOCK_RECORD
  5
75
330
1
100
AcDbSymbolTableRecord
100
AcDbBlockTableRecord
  2
_DOTBLANK
340
0
102
{BLKREFS
331
8F
331
81
102
}
  0
BLOCK_RECORD
  5
22
330
1
100
AcDbSymbolTableRecord
100
AcDbBlockTableRecord
  2
*D1
340
0
  0
BLOCK_RECORD
  5
37
330
1
100
AcDbSymbolTableRecord
100
AcDbBlockTableRecord
  2
*D2
340
0
  0
BLOCK_RECORD
  5
4B
330
1
100
AcDbSymbolTableRecord
100
AcDbBlockTableRecord
  2
*D3
340
0
  0
BLOCK_RECORD
  5
58
330
1
100
AcDbSymbolTableRecord
100
AcDbBlockTableRecord
  2
*D4
340
0
  0
BLOCK_RECORD
  5
66
330
1
100
AcDbSymbolTableRecord
100
AcDbBlockTableRecord
  2
*D5
340
0
  0
BLOCK_RECORD
  5
7A
330
1
100
AcDbSymbolTableRecord
100
AcDbBlockTableRecord
  2
*D6
340
0
  0
BLOCK_RECORD
  5
88
330
1
100
AcDbSymbolTableRecord
100
AcDbBlockTableRecord
  2
*D7
340
0
  0
BLOCK_RECORD
  5
96
330
1
100
AcDbSymbolTableRecord
100
AcDbBlockTableRecord
  2
*D8
340
0
  0
BLOCK_RECORD
  5
A4
330
1
100
AcDbSymbolTableRecord
100
AcDbBlockTableRecord
  2
*D9
340
0
  0
ENDTAB
  0
ENDSEC
  0
SECTION
  2
BLOCKS
  0
BLOCK
  5
3
330
2
100
AcDbEntity
  8
0
100
AcDbBlockBegin
  2
*MODEL_SPACE
 70
     0
 10
0.0
 20
0.0
 30
0.0
  3
*MODEL_SPACE
  1

  0
ENDBLK
  5
ED
330
2
100
AcDbEntity
  8
0
100
AcDbBlockEnd
  0
BLOCK
  5
F1
330
F0
100
AcDbEntity
 67
     1
  8
0
100
AcDbBlockBegin
  2
*PAPER_SPACE
 70
     0
 10
0.0
 20
0.0
 30
0.0
  3
*PAPER_SPACE
  1

  0
ENDBLK
  5
F2
330
F0
100
AcDbEntity
 67
     1
  8
0
100
AcDbBlockEnd
  0
BLOCK
  5
76
330
75
100
AcDbEntity
  8
0
100
AcDbBlockBegin
  2
_DOTBLANK
 70
     0
 10
0.0
 20
0.0
 30
0.0
  3
_DOTBLANK
  1

  0
CIRCLE
  5
77
330
75
100
AcDbEntity
  8
0
  6
ByBlock
 62
     0
100
AcDbCircle
 10
0.0
 20
0.0
 30
0.0
 40
0.5
  0
LINE
  5
78
330
75
100
AcDbEntity
  8
0
  6
ByBlock
 62
     0
100
AcDbLine
 10
-0.5
 20
0.0
 30
0.0
 11
-1.0
 21
0.0
 31
0.0
  0
ENDBLK
  5
79
330
75
100
AcDbEntity
  8
0
100
AcDbBlockEnd
  0
BLOCK
  5
23
330
22
100
AcDbEntity
  8
0
100
AcDbBlockBegin
  2
*D1
 70
     1
 10
0.0
 20
0.0
 30
0.0
  3
*D1
  1

  0
LINE
  5
24
330
22
100
AcDbEntity
  8
-TEXT3
370
    -2
100
AcDbLine
 10
103.7063844889153
 20
188.140881089081
 30
0.0
 11
103.7063844889153
 21
178.6408810890815
 31
0.0
  0
LINE
  5
25
330
22
100
AcDbEntity
  8
-TEXT3
370
    -2
100
AcDbLine
 10
133.7063844889157
 20
188.1408810890815
 30
0.0
 11
133.7063844889157
 21
178.6408810890815
 31
0.0
  0
LINE
  5
26
330
22
100
AcDbEntity
  8
-TEXT3
370
    -2
100
AcDbLine
 10
107.2063844889153
 20
180.1408810890815
 30
0.0
 11
130.2063844889157
 21
180.1408810890815
 31
0.0
  0
SOLID
  5
27
330
22
100
AcDbEntity
  8
-TEXT3
100
AcDbTrace
 10
107.2063844889153
 20
180.7242144224148
 30
0.0
 11
107.2063844889153
 21
179.5575477557481
 31
0.0
 12
103.7063844889153
 22
180.1408810890815
 32
0.0
 13
103.7063844889153
 23
180.1408810890815
 33
0.0
  0
SOLID
  5
28
330
22
100
AcDbEntity
  8
-TEXT3
100
AcDbTrace
 10
130.2063844889157
 20
180.7242144224148
 30
0.0
 11
130.2063844889157
 21
179.5575477557481
 31
0.0
 12
133.7063844889157
 22
180.1408810890815
 32
0.0
 13
133.7063844889157
 23
180.1408810890815
 33
0.0
  0
MTEXT
  5
29
330
22
100
AcDbEntity
  8
-TEXT3
100
AcDbMText
 10
118.7063844889155
 20
183.9230020951997
 30
0.0
 40
5.0
 41
0.0
 71
     5
 72
     1
  1
\A1;%%c30
 73
     1
 44
1.0
1001
ACAD
1000
MTEXTBEGIN
1070
    73
1070
     1
1070
    44
1040
1.0
1070
    74
1070
     0
1000
MTEXTEND
  0
POINT
  5
2A
330
22
100
AcDbEntity
  8
DEFPOINTS
 62
     0
100
AcDbPoint
 10
103.7063844889153
 20
190.140881089081
 30
0.0
  0
POINT
  5
2C
330
22
100
AcDbEntity
  8
DEFPOINTS
 62
     0
100
AcDbPoint
 10
133.7063844889157
 20
190.1408810890815
 30
0.0
  0
POINT
  5
2D
330
22
100
AcDbEntity
  8
DEFPOINTS
 62
     0
100
AcDbPoint
 10
133.7063844889157
 20
180.1408810890815
 30
0.0
  0
ENDBLK
  5
2E
330
22
100
AcDbEntity
  8
0
100
AcDbBlockEnd
  0
BLOCK
  5
38
330
37
100
AcDbEntity
  8
0
100
AcDbBlockBegin
  2
*D2
 70
     1
 10
0.0
 20
0.0
 30
0.0
  3
*D2
  1

  0
LINE
  5
39
330
37
100
AcDbEntity
  8
-TEXT3
370
    -2
100
AcDbLine
 10
112.7063844889636
 20
158.156381089081
 30
0.0
 11
112.7063844889636
 21
143.2512598048448
 31
0.0
  0
LINE
  5
3A
330
37
100
AcDbEntity
  8
-TEXT3
370
    -2
100
AcDbLine
 10
124.7063844889157
 20
158.156381089081
 30
0.0
 11
124.7063844889157
 21
143.2512598048448
 31
0.0
  0
LINE
  5
3B
330
37
100
AcDbEntity
  8
-TEXT3
370
    -2
100
AcDbLine
 10
116.2063844889636
 20
144.7512598048447
 30
0.0
 11
121.2063844889157
 21
144.7512598048447
 31
0.0
  0
LINE
  5
3C
330
37
100
AcDbEntity
  8
-TEXT3
370
    -2
100
AcDbLine
 10
124.7063844889157
 20
144.7512598048447
 30
0.0
 11
172.8542430885078
 21
144.7512598048447
 31
0.0
  0
SOLID
  5
3D
330
37
100
AcDbEntity
  8
-TEXT3
100
AcDbTrace
 10
116.2063844889636
 20
145.3345931381781
 30
0.0
 11
116.2063844889636
 21
144.1679264715114
 31
0.0
 12
112.7063844889636
 22
144.7512598048447
 32
0.0
 13
112.7063844889636
 23
144.7512598048447
 33
0.0
  0
SOLID
  5
3E
330
37
100
AcDbEntity
  8
-TEXT3
100
AcDbTrace
 10
121.2063844889157
 20
145.3345931381781
 30
0.0
 11
121.2063844889157
 21
144.1679264715114
 31
0.0
 12
124.7063844889157
 22
144.7512598048447
 32
0.0
 13
124.7063844889157
 23
144.7512598048447
 33
0.0
  0
MTEXT
  5
3F
330
37
100
AcDbEntity
  8
-TEXT3
100
AcDbMText
 10
150.5303137887117
 20
148.3770245907047
 30
0.0
 40
5.0
 41
0.0
 71
     5
 72
     1
  1
\A1;M12 od. M16
 73
     1
 44
1.0
1001
ACAD
1000
MTEXTBEGIN
1070
    73
1070
     1
1070
    44
1040
1.0
1070
    74
1070
     0
1000
MTEXTEND
  0
POINT
  5
40
330
37
100
AcDbEntity
  8
DEFPOINTS
 62
     0
100
AcDbPoint
 10
112.7063844889636
 20
160.156381089081
 30
0.0
  0
POINT
  5
41
330
37
100
AcDbEntity
  8
DEFPOINTS
 62
     0
100
AcDbPoint
 10
124.7063844889157
 20
160.156381089081
 30
0.0
  0
POINT
  5
42
330
37
100
AcDbEntity
  8
DEFPOINTS
 62
     0
100
AcDbPoint
 10
124.7063844889157
 20
144.7512598048447
 30
0.0
  0
ENDBLK
  5
43
330
37
100
AcDbEntity
  8
0
100
AcDbBlockEnd
  0
BLOCK
  5
4C
330
4B
100
AcDbEntity
  8
0
100
AcDbBlockBegin
  2
*D3
 70
     1
 10
0.0
 20
0.0
 30
0.0
  3
*D3
  1

  0
LINE
  5
4D
330
4B
100
AcDbEntity
  8
-TEXT3
370
    -2
100
AcDbLine
 10
96.20638448891575
 20
248.9466269123152
 30
0.0
 11
96.20638448891575
 21
264.1033674463112
 31
0.0
  0
LINE
  5
4E
330
4B
100
AcDbEntity
  8
-TEXT3
370
    -2
100
AcDbLine
 10
141.2063844889183
 20
248.9466269123151
 30
0.0
 11
141.2063844889183
 21
264.1033674463112
 31
0.0
  0
LINE
  5
4F
330
4B
100
AcDbEntity
  8
-TEXT3
370
    -2
100
AcDbLine
 10
99.70638448891575
 20
262.6033674463112
 30
0.0
 11
137.7063844889183
 21
262.6033674463112
 31
0.0
  0
SOLID
  5
50
330
4B
100
AcDbEntity
  8
-TEXT3
100
AcDbTrace
 10
99.70638448891575
 20
263.1867007796445
 30
0.0
 11
99.70638448891575
 21
262.0200341129778
 31
0.0
 12
96.20638448891575
 22
262.6033674463112
 32
0.0
 13
96.20638448891575
 23
262.6033674463112
 33
0.0
  0
SOLID
  5
51
330
4B
100
AcDbEntity
  8
-TEXT3
100
AcDbTrace
 10
137.7063844889183
 20
263.1867007796445
 30
0.0
 11
137.7063844889183
 21
262.0200341129778
 31
0.0
 12
141.2063844889183
 22
262.6033674463112
 32
0.0
 13
141.2063844889183
 23
262.6033674463112
 33
0.0
  0
MTEXT
  5
52
330
4B
100
AcDbEntity
  8
-TEXT3
100
AcDbMText
 10
118.706384488917
 20
266.3854884524294
 30
0.0
 40
5.0
 41
0.0
 71
     5
 72
     1
  1
\A1;%%c45
 73
     1
 44
1.0
1001
ACAD
1000
MTEXTBEGIN
1070
    73
1070
     1
1070
    44
1040
1.0
1070
    74
1070
     0
1000
MTEXTEND
  0
POINT
  5
53
330
4B
100
AcDbEntity
  8
DEFPOINTS
 62
     0
100
AcDbPoint
 10
96.20638448891575
 20
246.9466269123152
 30
0.0
  0
POINT
  5
54
330
4B
100
AcDbEntity
  8
DEFPOINTS
 62
     0
100
AcDbPoint
 10
141.2063844889183
 20
246.9466269123151
 30
0.0
  0
POINT
  5
55
330
4B
100
AcDbEntity
  8
DEFPOINTS
 62
     0
100
AcDbPoint
 10
141.2063844889183
 20
262.6033674463112
 30
0.0
  0
ENDBLK
  5
56
330
4B
100
AcDbEntity
  8
0
100
AcDbBlockEnd
  0
BLOCK
  5
59
330
58
100
AcDbEntity
  8
0
100
AcDbBlockBegin
  2
*D4
 70
     1
 10
0.0
 20
0.0
 30
0.0
  3
*D4
  1

  0
LINE
  5
5A
330
58
100
AcDbEntity
  8
-TEXT3
370
    -2
100
AcDbLine
 10
81.41072197686302
 20
224.1408810890811
 30
0.0
 11
62.41072197686314
 21
224.1408810890811
 31
0.0
  0
LINE
  5
5B
330
58
100
AcDbEntity
  8
-TEXT3
370
    -2
100
AcDbLine
 10
102.7063844889153
 20
189.140881089081
 30
0.0
 11
62.41072197686313
 21
189.1408810890811
 31
0.0
  0
LINE
  5
5C
330
58
100
AcDbEntity
  8
-TEXT3
370
    -2
100
AcDbLine
 10
63.91072197686313
 20
220.6408810890811
 30
0.0
 11
63.91072197686312
 21
192.6408810890811
 31
0.0
  0
SOLID
  5
5D
330
58
100
AcDbEntity
  8
-TEXT3
100
AcDbTrace
 10
63.3273886435298
 20
220.6408810890811
 30
0.0
 11
64.49405531019646
 21
220.6408810890811
 31
0.0
 12
63.91072197686313
 22
224.1408810890811
 32
0.0
 13
63.91072197686313
 23
224.1408810890811
 33
0.0
  0
SOLID
  5
5E
330
58
100
AcDbEntity
  8
-TEXT3
100
AcDbTrace
 10
63.32738864352979
 20
192.6408810890811
 30
0.0
 11
64.49405531019646
 21
192.640881089081
 31
0.0
 12
63.91072197686312
 22
189.1408810890811
 32
0.0
 13
63.91072197686312
 23
189.1408810890811
 33
0.0
  0
MTEXT
  5
5F
330
58
100
AcDbEntity
  8
-TEXT3
100
AcDbMText
 10
60.28495719100314
 20
206.6408810890811
 30
0.0
 40
5.0
 41
0.0
 71
     5
 72
     1
  1
\A1;35
 11
0.0000000000000001
 21
1.0
 31
0.0
 73
     1
 44
1.0
1001
ACAD
1000
MTEXTBEGIN
1070
    73
1070
     1
1070
    44
1040
1.0
1070
    74
1070
     0
1000
MTEXTEND
  0
POINT
  5
60
330
58
100
AcDbEntity
  8
DEFPOINTS
 62
     0
100
AcDbPoint
 10
83.41072197686301
 20
224.1408810890811
 30
0.0
  0
POINT
  5
61
330
58
100
AcDbEntity
  8
DEFPOINTS
 62
     0
100
AcDbPoint
 10
104.7063844889153
 20
189.140881089081
 30
0.0
  0
POINT
  5
62
330
58
100
AcDbEntity
  8
DEFPOINTS
 62
     0
100
AcDbPoint
 10
63.91072197686312
 20
189.1408810890811
 30
0.0
  0
ENDBLK
  5
63
330
58
100
AcDbEntity
  8
0
100
AcDbBlockEnd
  0
BLOCK
  5
67
330
66
100
AcDbEntity
  8
0
100
AcDbBlockBegin
  2
*D5
 70
     1
 10
0.0
 20
0.0
 30
0.0
  3
*D5
  1

  0
LINE
  5
68
330
66
100
AcDbEntity
  8
-TEXT3
370
    -2
100
AcDbLine
 10
102.7063844889153
 20
189.140881089081
 30
0.0
 11
62.41072197686314
 21
189.1408810890811
 31
0.0
  0
LINE
  5
69
330
66
100
AcDbEntity
  8
-TEXT3
370
    -2
100
AcDbLine
 10
111.7218844889156
 20
159.140881089081
 30
0.0
 11
62.41072197686313
 21
159.1408810890811
 31
0.0
  0
LINE
  5
6A
330
66
100
AcDbEntity
  8
-TEXT3
370
    -2
100
AcDbLine
 10
63.91072197686313
 20
185.6408810890811
 30
0.0
 11
63.91072197686312
 21
162.6408810890811
 31
0.0
  0
SOLID
  5
6B
330
66
100
AcDbEntity
  8
-TEXT3
100
AcDbTrace
 10
63.3273886435298
 20
185.6408810890811
 30
0.0
 11
64.49405531019647
 21
185.640881089081
 31
0.0
 12
63.91072197686313
 22
189.1408810890811
 32
0.0
 13
63.91072197686313
 23
189.1408810890811
 33
0.0
  0
SOLID
  5
6C
330
66
100
AcDbEntity
  8
-TEXT3
100
AcDbTrace
 10
63.32738864352979
 20
162.6408810890811
 30
0.0
 11
64.49405531019647
 21
162.640881089081
 31
0.0
 12
63.91072197686312
 22
159.1408810890811
 32
0.0
 13
63.91072197686312
 23
159.1408810890811
 33
0.0
  0
MTEXT
  5
6D
330
66
100
AcDbEntity
  8
-TEXT3
100
AcDbMText
 10
60.41072197686311
 20
174.1408810890811
 30
0.0
 40
5.0
 41
0.0
 71
     5
 72
     1
  1
\A1;D
 11
0.0000000000000001
 21
1.0
 31
0.0
 73
     1
 44
1.0
1001
ACAD
1000
MTEXTBEGIN
1070
    73
1070
     1
1070
    44
1040
1.0
1070
    74
1070
     0
1000
MTEXTEND
  0
POINT
  5
6E
330
66
100
AcDbEntity
  8
DEFPOINTS
 62
     0
100
AcDbPoint
 10
104.7063844889153
 20
189.140881089081
 30
0.0
  0
POINT
  5
6F
330
66
100
AcDbEntity
  8
DEFPOINTS
 62
     0
100
AcDbPoint
 10
113.7218844889156
 20
159.140881089081
 30
0.0
  0
POINT
  5
70
330
66
100
AcDbEntity
  8
DEFPOINTS
 62
     0
100
AcDbPoint
 10
63.91072197686312
 20
159.1408810890811
 30
0.0
  0
ENDBLK
  5
71
330
66
100
AcDbEntity
  8
0
100
AcDbBlockEnd
  0
BLOCK
  5
7B
330
7A
100
AcDbEntity
  8
0
100
AcDbBlockBegin
  2
*D6
 70
     1
 10
0.0
 20
0.0
 30
0.0
  3
*D6
  1

  0
LINE
  5
7C
330
7A
100
AcDbEntity
  8
-TEXT3
370
    -2
100
AcDbLine
 10
67.00204700096882
 20
240.1408810890818
 30
0.0
 11
62.41072197686328
 21
240.1408810890819
 31
0.0
  0
LINE
  5
7D
330
7A
100
AcDbEntity
  8
-TEXT3
370
    -2
100
AcDbLine
 10
94.20638448891535
 20
243.1408810890817
 30
0.0
 11
62.41072197686328
 21
243.1408810890818
 31
0.0
  0
LINE
  5
7E
330
7A
100
AcDbEntity
  8
-TEXT3
370
    -2
100
AcDbLine
 10
63.91072197686328
 20
236.6408810890819
 30
0.0
 11
63.91072197686328
 21
233.1408810890819
 31
0.0
  0
LINE
  5
7F
330
7A
100
AcDbEntity
  8
-TEXT3
370
    -2
100
AcDbLine
 10
63.91072197686328
 20
246.6408810890818
 30
0.0
 11
63.91072197686328
 21
250.1408810890818
 31
0.0
  0
SOLID
  5
80
330
7A
100
AcDbEntity
  8
-TEXT3
100
AcDbTrace
 10
63.32738864352994
 20
236.6408810890819
 30
0.0
 11
64.49405531019661
 21
236.6408810890819
 31
0.0
 12
63.91072197686328
 22
240.1408810890819
 32
0.0
 13
63.91072197686328
 23
240.1408810890819
 33
0.0
  0
INSERT
  5
81
330
7A
100
AcDbEntity
  8
-TEXT3
370
    -2
100
AcDbBlockReference
  2
_DOTBLANK
 10
63.91072197686328
 20
243.1408810890818
 30
0.0
 41
3.5
 42
3.5
 43
3.5
 50
270.0
  0
MTEXT
  5
82
330
7A
100
AcDbEntity
  8
-TEXT3
100
AcDbMText
 10
60.81011014817527
 20
241.6408810890818
 30
0.0
 40
4.0
 41
0.0
 71
     5
 72
     1
  1
\A1;3
 11
0.0000000000000001
 21
1.0
 31
0.0
 73
     1
 44
1.0
1001
ACAD
1000
MTEXTBEGIN
1070
    73
1070
     1
1070
    44
1040
1.0
1070
    74
1070
     0
1000
MTEXTEND
  0
POINT
  5
83
330
7A
100
AcDbEntity
  8
DEFPOINTS
 62
     0
100
AcDbPoint
 10
69.00204700096882
 20
240.1408810890818
 30
0.0
  0
POINT
  5
84
330
7A
100
AcDbEntity
  8
DEFPOINTS
 62
     0
100
AcDbPoint
 10
96.20638448891535
 20
243.1408810890817
 30
0.0
  0
POINT
  5
85
330
7A
100
AcDbEntity
  8
DEFPOINTS
 62
     0
100
AcDbPoint
 10
63.91072197686328
 20
243.1408810890818
 30
0.0
  0
ENDBLK
  5
86
330
7A
100
AcDbEntity
  8
0
100
AcDbBlockEnd
  0
BLOCK
  5
89
330
88
100
AcDbEntity
  8
0
100
AcDbBlockBegin
  2
*D7
 70
     1
 10
0.0
 20
0.0
 30
0.0
  3
*D7
  1

  0
LINE
  5
8A
330
88
100
AcDbEntity
  8
-TEXT3
370
    -2
100
AcDbLine
 10
107.6896468346161
 20
251.1408810890817
 30
0.0
 11
62.41072197686325
 21
251.1408810890817
 31
0.0
  0
LINE
  5
8B
330
88
100
AcDbEntity
  8
-TEXT3
370
    -2
100
AcDbLine
 10
94.20638448891535
 20
243.1408810890817
 30
0.0
 11
62.41072197686325
 21
243.1408810890818
 31
0.0
  0
LINE
  5
8C
330
88
100
AcDbEntity
  8
-TEXT3
370
    -2
100
AcDbLine
 10
63.91072197686324
 20
254.6408810890817
 30
0.0
 11
63.91072197686324
 21
258.1408810890816
 31
0.0
  0
LINE
  5
8D
330
88
100
AcDbEntity
  8
-TEXT3
370
    -2
100
AcDbLine
 10
63.91072197686323
 20
239.6408810890818
 30
0.0
 11
63.91072197686323
 21
236.1408810890818
 31
0.0
  0
SOLID
  5
8E
330
88
100
AcDbEntity
  8
-TEXT3
100
AcDbTrace
 10
63.3273886435299
 20
254.6408810890817
 30
0.0
 11
64.49405531019657
 21
254.6408810890816
 31
0.0
 12
63.91072197686324
 22
251.1408810890817
 32
0.0
 13
63.91072197686324
 23
251.1408810890817
 33
0.0
  0
INSERT
  5
8F
330
88
100
AcDbEntity
  8
-TEXT3
370
    -2
100
AcDbBlockReference
  2
_DOTBLANK
 10
63.91072197686324
 20
243.1408810890818
 30
0.0
 41
3.5
 42
3.5
 43
3.5
 50
90.0
  0
MTEXT
  5
90
330
88
100
AcDbEntity
  8
-TEXT3
100
AcDbMText
 10
60.81011014817523
 20
247.1408810890817
 30
0.0
 40
4.0
 41
0.0
 71
     5
 72
     1
  1
\A1;8
 11
0.0000000000000001
 21
1.0
 31
0.0
 73
     1
 44
1.0
1001
ACAD
1000
MTEXTBEGIN
1070
    73
1070
     1
1070
    44
1040
1.0
1070
    74
1070
     0
1000
MTEXTEND
  0
POINT
  5
91
330
88
100
AcDbEntity
  8
DEFPOINTS
 62
     0
100
AcDbPoint
 10
109.6896468346161
 20
251.1408810890817
 30
0.0
  0
POINT
  5
92
330
88
100
AcDbEntity
  8
DEFPOINTS
 62
     0
100
AcDbPoint
 10
96.20638448891535
 20
243.1408810890817
 30
0.0
  0
POINT
  5
93
330
88
100
AcDbEntity
  8
DEFPOINTS
 62
     0
100
AcDbPoint
 10
63.91072197686324
 20
243.1408810890818
 30
0.0
  0
ENDBLK
  5
94
330
88
100
AcDbEntity
  8
0
100
AcDbBlockEnd
  0
BLOCK
  5
97
330
96
100
AcDbEntity
  8
0
100
AcDbBlockBegin
  2
*D8
 70
     1
 10
0.0
 20
0.0
 30
0.0
  3
*D8
  1

  0
LINE
  5
98
330
96
100
AcDbEntity
  8
-TEXT3
370
    -2
100
AcDbLine
 10
67.00204700096882
 20
228.1408810890812
 30
0.0
 11
62.41072197686328
 21
228.1408810890812
 31
0.0
  0
LINE
  5
99
330
96
100
AcDbEntity
  8
-TEXT3
370
    -2
100
AcDbLine
 10
94.2063844889158
 20
224.1408810890811
 30
0.0
 11
62.41072197686328
 21
224.1408810890811
 31
0.0
  0
LINE
  5
9A
330
96
100
AcDbEntity
  8
-TEXT3
370
    -2
100
AcDbLine
 10
63.91072197686328
 20
231.6408810890812
 30
0.0
 11
63.91072197686328
 21
235.1408810890812
 31
0.0
  0
LINE
  5
9B
330
96
100
AcDbEntity
  8
-TEXT3
370
    -2
100
AcDbLine
 10
63.91072197686328
 20
220.6408810890811
 30
0.0
 11
63.91072197686328
 21
217.1408810890811
 31
0.0
  0
SOLID
  5
9C
330
96
100
AcDbEntity
  8
-TEXT3
100
AcDbTrace
 10
63.32738864352994
 20
231.6408810890812
 30
0.0
 11
64.49405531019661
 21
231.6408810890812
 31
0.0
 12
63.91072197686328
 22
228.1408810890812
 32
0.0
 13
63.91072197686328
 23
228.1408810890812
 33
0.0
  0
SOLID
  5
9D
330
96
100
AcDbEntity
  8
-TEXT3
100
AcDbTrace
 10
63.32738864352994
 20
220.6408810890811
 30
0.0
 11
64.4940553101966
 21
220.6408810890811
 31
0.0
 12
63.91072197686328
 22
224.1408810890811
 32
0.0
 13
63.91072197686328
 23
224.1408810890811
 33
0.0
  0
MTEXT
  5
9E
330
96
100
AcDbEntity
  8
-TEXT3
100
AcDbMText
 10
60.34783958393326
 20
226.1408810890812
 30
0.0
 40
5.0
 41
0.0
 71
     5
 72
     1
  1
\A1;4
 11
0.0000000000000001
 21
1.0
 31
0.0
 73
     1
 44
1.0
1001
ACAD
1000
MTEXTBEGIN
1070
    73
1070
     1
1070
    44
1040
1.0
1070
    74
1070
     0
1000
MTEXTEND
  0
POINT
  5
9F
330
96
100
AcDbEntity
  8
DEFPOINTS
 62
     0
100
AcDbPoint
 10
69.00204700096882
 20
228.1408810890812
 30
0.0
  0
POINT
  5
A0
330
96
100
AcDbEntity
  8
DEFPOINTS
 62
     0
100
AcDbPoint
 10
96.20638448891581
 20
224.1408810890811
 30
0.0
  0
POINT
  5
A1
330
96
100
AcDbEntity
  8
DEFPOINTS
 62
     0
100
AcDbPoint
 10
63.91072197686328
 20
224.1408810890811
 30
0.0
  0
ENDBLK
  5
A2
330
96
100
AcDbEntity
  8
0
100
AcDbBlockEnd
  0
BLOCK
  5
A5
330
A4
100
AcDbEntity
  8
0
100
AcDbBlockBegin
  2
*D9
 70
     1
 10
0.0
 20
0.0
 30
0.0
  3
*D9
  1

  0
LINE
  5
A6
330
A4
100
AcDbEntity
  8
-TEXT3
370
    -2
100
AcDbLine
 10
67.00204700096882
 20
240.1408810890818
 30
0.0
 11
62.41072197686325
 21
240.1408810890819
 31
0.0
  0
LINE
  5
A7
330
A4
100
AcDbEntity
  8
-TEXT3
370
    -2
100
AcDbLine
 10
67.00204700096882
 20
228.1408810890812
 30
0.0
 11
62.41072197686325
 21
228.1408810890812
 31
0.0
  0
LINE
  5
A8
330
A4
100
AcDbEntity
  8
-TEXT3
370
    -2
100
AcDbLine
 10
63.91072197686324
 20
236.6408810890819
 30
0.0
 11
63.91072197686324
 21
231.6408810890812
 31
0.0
  0
SOLID
  5
A9
330
A4
100
AcDbEntity
  8
-TEXT3
100
AcDbTrace
 10
63.3273886435299
 20
236.6408810890819
 30
0.0
 11
64.49405531019658
 21
236.6408810890819
 31
0.0
 12
63.91072197686325
 22
240.1408810890819
 32
0.0
 13
63.91072197686325
 23
240.1408810890819
 33
0.0
  0
SOLID
  5
AA
330
A4
100
AcDbEntity
  8
-TEXT3
100
AcDbTrace
 10
63.3273886435299
 20
231.6408810890812
 30
0.0
 11
64.49405531019658
 21
231.6408810890812
 31
0.0
 12
63.91072197686324
 22
228.1408810890812
 32
0.0
 13
63.91072197686324
 23
228.1408810890812
 33
0.0
  0
MTEXT
  5
AB
330
A4
100
AcDbEntity
  8
-TEXT3
100
AcDbMText
 10
60.28495719100325
 20
234.1408810890815
 30
0.0
 40
5.0
 41
0.0
 71
     5
 72
     1
  1
\A1;G
 11
0.0000000000000001
 21
1.0
 31
0.0
 73
     1
 44
1.0
1001
ACAD
1000
MTEXTBEGIN
1070
    73
1070
     1
1070
    44
1040
1.0
1070
    74
1070
     0
1000
MTEXTEND
  0
POINT
  5
AC
330
A4
100
AcDbEntity
  8
DEFPOINTS
 62
     0
100
AcDbPoint
 10
69.00204700096882
 20
240.1408810890818
 30
0.0
  0
POINT
  5
AD
330
A4
100
AcDbEntity
  8
DEFPOINTS
 62
     0
100
AcDbPoint
 10
69.00204700096882
 20
228.1408810890812
 30
0.0
  0
POINT
  5
AE
330
A4
100
AcDbEntity
  8
DEFPOINTS
 62
     0
100
AcDbPoint
 10
63.91072197686324
 20
228.1408810890812
 30
0.0
  0
ENDBLK
  5
AF
330
A4
100
AcDbEntity
  8
0
100
AcDbBlockEnd
  0
ENDSEC
  0
SECTION
  2
ENTITIES
  0
HATCH
  5
9
330
2
100
AcDbEntity
  8
-SCHRAFFUR
100
AcDbHatch
 10
0.0
 20
0.0
 30
0.0
210
0.0
220
0.0
230
1.0
  2
SOLID
 70
     1
 71
     1
 91
        1
 92
        1
 93
        4
 72
     1
 10
103.706384488915
 20
206.0528410782101
 11
133.706384488915
 21
206.0528410782101
 72
     1
 10
133.706384488915
 20
206.0528410782101
 11
133.706384488915
 21
211.0528410782101
 72
     1
 10
133.706384488915
 20
211.0528410782101
 11
103.706384488915
 21
211.0528410782101
 72
     1
 10
103.706384488915
 20
211.0528410782101
 11
103.706384488915
 21
206.0528410782101
 97
        1
330
B
 75
     0
 76
     1
 98
        1
 10
40.70638448891557
 20
123.6435102963201
  0
LWPOLYLINE
  5
B
102
{ACAD_REACTORS
330
9
102
}
330
2
100
AcDbEntity
  8
-DICHTUNG
100
AcDbPolyline
 90
        4
 70
     1
 43
0.0
 10
103.706384488915
 20
206.0528410782101
 10
133.706384488915
 20
206.0528410782101
 10
133.706384488915
 20
211.0528410782101
 10
103.706384488915
 20
211.0528410782101
  0
HATCH
  5
D
330
2
100
AcDbEntity
  8
-SCHRAFFUR
100
AcDbHatch
 10
0.0
 20
0.0
 30
0.0
210
0.0
220
0.0
230
1.0
  2
SOLID
 70
     1
 71
     1
 91
        1
 92
        1
 93
        4
 72
     1
 10
96.70638448891535
 20
240.1408810890816
 11
140.7063844889154
 21
240.1408810890816
 72
     1
 10
140.7063844889154
 20
240.1408810890816
 11
140.7063844889154
 21
243.1408810890816
 72
     1
 10
140.7063844889154
 20
243.1408810890816
 11
96.70638448891535
 21
243.1408810890816
 72
     1
 10
96.70638448891535
 20
243.1408810890816
 11
96.70638448891535
 21
240.1408810890816
 97
        1
330
E
 75
     0
 76
     1
 98
        1
 10
40.70638448891557
 20
123.6435102963201
  0
LWPOLYLINE
  5
E
102
{ACAD_REACTORS
330
D
102
}
330
2
100
AcDbEntity
  8
-DICHTUNG
100
AcDbPolyline
 90
        4
 70
     1
 43
0.0
 10
96.70638448891535
 20
240.1408810890816
 10
140.7063844889154
 20
240.1408810890816
 10
140.7063844889154
 20
243.1408810890816
 10
96.70638448891535
 20
243.1408810890816
  0
HATCH
  5
F
330
2
100
AcDbEntity
  8
-SCHRAFFUR
100
AcDbHatch
 10
0.0
 20
0.0
 30
0.0
210
0.0
220
0.0
230
1.0
  2
SOLID
 70
     1
 71
     1
 91
        1
 92
        1
 93
        4
 72
     1
 10
96.70638448891603
 20
224.1408810890811
 11
140.706384488916
 21
224.1408810890809
 72
     1
 10
140.706384488916
 20
224.1408810890809
 11
140.706384488916
 21
228.1408810890809
 72
     1
 10
140.706384488916
 20
228.1408810890809
 11
96.70638448891603
 21
228.1408810890811
 72
     1
 10
96.70638448891603
 20
228.1408810890811
 11
96.70638448891603
 21
224.1408810890811
 97
        1
330
10
 75
     0
 76
     1
 98
        1
 10
40.70638448891557
 20
123.6435102963201
  0
LWPOLYLINE
  5
10
102
{ACAD_REACTORS
330
F
102
}
330
2
100
AcDbEntity
  8
-DICHTUNG
100
AcDbPolyline
 90
        4
 70
     1
 43
0.0
 10
96.70638448891603
 20
224.1408810890811
 10
140.706384488916
 20
224.1408810890809
 10
140.706384488916
 20
228.1408810890809
 10
96.70638448891603
 20
228.1408810890811
  0
LINE
  5
11
330
2
100
AcDbEntity
  8
-SYSTEM
100
AcDbLine
 10
115.7300862021414
 20
190.9144632887819
 30
0.0
 11
121.3901318057037
 21
244.7661999885935
 31
0.0
  0
LINE
  5
14
330
2
100
AcDbEntity
  8
-SYSTEM
100
AcDbLine
 10
121.6826827756884
 20
190.9144632887819
 30
0.0
 11
116.0226371721261
 21
244.7661999885935
 31
0.0
  0
LWPOLYLINE
  5
15
330
2
100
AcDbEntity
  8
-PROFILAUSSENKANTET
100
AcDbPolyline
 90
       14
 70
     1
 43
0.0
 10
96.20638448891529
 20
224.1408810890804
 10
96.20638448891529
 20
220.8368944260352
 42
0.3137493583978978
 10
96.85907013309176
 20
219.8991456653115
 10
101.7483275563863
 20
216.8660873603877
 42
-0.359993514460832
 10
103.7063844889153
 20
214.0528410782166
 10
103.7063844889153
 20
211.0528410782101
 10
133.7063844889154
 20
211.0528410782101
 10
133.7063844889152
 20
214.0528410782161
 42
-0.3599935144607482
 10
135.6644414214448
 20
216.8660873603875
 10
140.5536988447383
 20
219.8991456653113
 42
0.3137493583979866
 10
141.206384488915
 20
220.8368944260348
 10
141.2063844889153
 20
224.1408810890804
 10
128.7063844889153
 20
224.1408810890804
 10
141.2063844889153
 20
224.1408810890804
  0
LINE
  5
17
330
2
100
AcDbEntity
  8
-SCHRAFFUR
100
AcDbLine
 10
96.20638448891529
 20
220.8368944260352
 30
0.0
 11
141.206384488915
 21
220.8368944260353
 31
0.0
  0
LINE
  5
18
330
2
100
AcDbEntity
  8
-SCHRAFFUR
100
AcDbLine
 10
96.85907013309176
 20
219.8991456653115
 30
0.0
 11
140.5536988447383
 21
219.8991456653113
 31
0.0
  0
LINE
  5
19
330
2
100
AcDbEntity
  8
-SCHRAFFUR
100
AcDbLine
 10
101.7483275563863
 20
216.8660873603877
 30
0.0
 11
135.6644414214448
 21
216.8660873603875
 31
0.0
  0
LINE
  5
1A
330
2
100
AcDbEntity
  8
-SCHRAFFUR
100
AcDbLine
 10
103.7063844889153
 20
214.0528410782166
 30
0.0
 11
133.7063844889152
 21
214.0528410782161
 31
0.0
  0
LWPOLYLINE
  5
1B
330
2
100
AcDbEntity
  8
-PROFILAUSSENKANTET
100
AcDbPolyline
 90
        8
 70
     0
 43
0.0
 10
124.7063844889154
 20
189.140881089081
 10
132.7063844889157
 20
189.140881089081
 42
0.4142135623730951
 10
133.7063844889157
 20
190.140881089081
 10
133.7063844889154
 20
206.0528410782098
 10
103.7063844889153
 20
206.0528410782104
 10
103.7063844889153
 20
190.140881089081
 42
0.4142135623730951
 10
104.7063844889153
 20
189.140881089081
 10
132.7063844889157
 20
189.140881089081
  0
LINE
  5
1C
330
2
100
AcDbEntity
  8
-SCHRAFFUR
100
AcDbLine
 10
103.7063844889153
 20
190.140881089081
 30
0.0
 11
133.7063844889157
 21
190.1408810890815
 31
0.0
  0
DIMENSION
  5
1D
330
2
100
AcDbEntity
  8
-TEXT3
100
AcDbDimension
  2
*D1
 10
133.7063844889157
 20
180.1408810890815
 30
0.0
 11
118.7063844889155
 21
183.9230020951997
 31
0.0
  1
%%c<>
 71
     5
 42
30.0000000000004
  3
1-1PRO
100
AcDbAlignedDimension
 13
103.7063844889153
 23
190.140881089081
 33
0.0
 14
133.7063844889157
 24
190.1408810890815
 34
0.0
100
AcDbRotatedDimension
  0
LINE
  5
2F
330
2
100
AcDbEntity
  8
-NORMTEIL_VERDECKT
100
AcDbLine
 10
114.7063844889153
 20
230.8178810890818
 30
0.0
 11
122.7063844889153
 21
230.8178810890817
 31
0.0
  0
LWPOLYLINE
  5
32
330
2
100
AcDbEntity
  8
-NORMTEIL_VERDECKT
100
AcDbPolyline
 90
        6
 70
     0
 43
0.0
 10
114.7063844889157
 20
243.140881089082
 10
114.7063844889153
 20
230.8178810890818
 10
115.3833844889154
 20
230.1408810890818
 10
122.0293844889156
 20
230.1408810890817
 10
122.7063844889153
 20
230.8178810890817
 10
122.7063844889157
 20
243.1408810890819
  0
LWPOLYLINE
  5
33
330
2
100
AcDbEntity
  8
-NORMTEIL_VERDECKT
100
AcDbPolyline
 90
        4
 70
     0
 43
0.0
 10
109.7063844889156
 20
224.140881089081
 10
109.7063844889155
 20
238.1408810890818
 10
127.7063844889155
 20
238.1408810890818
 10
127.7063844889156
 20
224.140881089081
  0
LINE
  5
34
330
2
100
AcDbEntity
  8
-NORMTEIL_VERDECKT
100
AcDbLine
 10
108.206384488916
 20
240.1408810890815
 30
0.0
 11
129.206384488916
 21
240.1408810890815
 31
0.0
  0
LWPOLYLINE
  5
35
330
2
100
AcDbEntity
  8
-PROFILAUSSENKANTET
100
AcDbPolyline
 90
       11
 70
     0
 43
0.0
 10
96.20638448891535
 20
243.1408810890817
 10
141.2063844889154
 20
243.1408810890816
 10
141.2063844889154
 20
246.9466269123143
 42
0.3759019639771879
 10
139.4707119290974
 20
248.9290827136797
 10
129.6047879075263
 20
251.0970205924948
 42
0.033150018187446
 10
128.9439693070713
 20
251.1408810890817
 10
109.6896468346161
 20
251.1408810890817
 42
0.0413106451481675
 10
108.8676518980894
 20
251.0728507082424
 10
97.87758651430479
 20
248.91941475998
 42
0.3666293647015965
 10
96.20638448891535
 20
246.9466269123158
 10
96.20638448891535
 20
243.1408810890817
  0
DIMENSION
  5
36
330
2
100
AcDbEntity
  8
-TEXT3
100
AcDbDimension
  2
*D2
 10
124.7063844889157
 20
144.7512598048447
 30
0.0
 11
150.5303137887117
 21
148.3770245907047
 31
0.0
  1
M<> od. M16
 71
     5
 42
11.99999999995202
  3
1-1PRO
100
AcDbAlignedDimension
 13
112.7063844889636
 23
160.156381089081
 33
0.0
 14
124.7063844889157
 24
160.156381089081
 34
0.0
100
AcDbRotatedDimension
  0
LINE
  5
44
330
2
100
AcDbEntity
  8
-NORMTEIL_VERDECKT
  6
Continuous
100
AcDbLine
 10
112.7063844889157
 20
160.156381089081
 30
0.0
 11
124.7063844889157
 21
160.156381089081
 31
0.0
  0
LINE
  5
45
330
2
100
AcDbEntity
  8
-NORMTEIL_VERDECKT
  6
Continuous
100
AcDbLine
 10
112.7063844889157
 20
160.156381089081
 30
0.0
 11
124.7063844889157
 21
160.156381089081
 31
0.0
  0
LINE
  5
46
330
2
100
AcDbEntity
  8
-NORMTEIL_VERDECKT
  6
Continuous
100
AcDbLine
 10
112.7063844889157
 20
160.156381089081
 30
0.0
 11
124.7063844889157
 21
160.156381089081
 31
0.0
  0
LWPOLYLINE
  5
47
330
2
100
AcDbEntity
  8
-NORMTEIL
100
AcDbPolyline
 90
        6
 70
     0
 43
0.0
 10
112.7063844889157
 20
189.140881089081
 10
112.7063844889157
 20
160.156381089081
 10
113.7218844889156
 20
159.140881089081
 10
123.6908844889161
 20
159.140881089081
 10
124.7063844889157
 20
160.156381089081
 10
124.7063844889157
 20
189.1408810890808
  0
LINE
  5
49
330
2
100
AcDbEntity
  8
-NORMTEIL_VERDECKT
100
AcDbLine
 10
101.6263844889155
 20
228.1408810890811
 30
0.0
 11
135.7863844889154
 21
228.1408810890811
 31
0.0
  0
DIMENSION
  5
4A
330
2
100
AcDbEntity
  8
-TEXT3
100
AcDbDimension
  2
*D3
 10
141.2063844889183
 20
262.6033674463112
 30
0.0
 11
118.706384488917
 21
262.6033674463112
 31
0.0
 70
   128
  1
%%c<>
 71
     5
 42
45.00000000000255
  3
1-1PRO
100
AcDbAlignedDimension
 13
96.20638448891575
 23
246.9466269123152
 33
0.0
 14
141.2063844889183
 24
246.9466269123151
 34
0.0
100
AcDbRotatedDimension
1001
ACAD
1000
DSTYLE
1002
{
1002
}
  0
DIMENSION
  5
57
330
2
100
AcDbEntity
  8
-TEXT3
100
AcDbDimension
  2
*D4
 10
63.91072197686312
 20
189.1408810890811
 30
0.0
 11
60.28495719100314
 21
206.6408810890811
 31
0.0
 71
     5
 42
35.0
  3
1-1PRO
100
AcDbAlignedDimension
 13
83.41072197686301
 23
224.1408810890811
 33
0.0
 14
104.7063844889153
 24
189.140881089081
 34
0.0
 50
90.0
100
AcDbRotatedDimension
  0
LINE
  5
64
330
2
100
AcDbEntity
  8
-SYSTEM
100
AcDbLine
 10
118.7063844889153
 20
254.0974466277592
 30
0.0
 11
118.7063844889155
 21
154.4304757207751
 31
0.0
  0
DIMENSION
  5
65
330
2
100
AcDbEntity
  8
-TEXT3
100
AcDbDimension
  2
*D5
 10
63.91072197686312
 20
159.1408810890811
 30
0.0
 11
60.41072197686311
 21
174.1408810890811
 31
0.0
  1
D
 71
     5
 42
30.0
  3
1-1PRO
100
AcDbAlignedDimension
 13
104.7063844889153
 23
189.140881089081
 33
0.0
 14
113.7218844889156
 24
159.140881089081
 34
0.0
 50
270.0
100
AcDbRotatedDimension
1001
ACAD
1000
DSTYLE
1002
{
1002
}
  0
LINE
  5
72
330
2
100
AcDbEntity
  8
-NORMTEIL_VERDECKT
  6
Continuous
100
AcDbLine
 10
113.7218844889156
 20
159.140881089081
 30
0.0
 11
113.7218844889156
 21
189.1408810890811
 31
0.0
  0
DIMENSION
  5
73
330
2
100
AcDbEntity
  8
-TEXT3
100
AcDbDimension
  2
*D6
 10
63.91072197686328
 20
243.1408810890818
 30
0.0
 11
63.91072197686324
 21
241.6408810890818
 31
0.0
 70
   128
 71
     5
 42
2.999999999999886
  3
1-1PRO-PU
100
AcDbAlignedDimension
 13
69.00204700096882
 23
240.1408810890818
 33
0.0
 14
96.20638448891535
 24
243.1408810890817
 34
0.0
 50
90.0
100
AcDbRotatedDimension
  0
DIMENSION
  5
87
330
2
100
AcDbEntity
  8
-TEXT3
100
AcDbDimension
  2
*D7
 10
63.91072197686324
 20
243.1408810890818
 30
0.0
 11
60.81011014817523
 21
247.1408810890817
 31
0.0
 71
     5
 42
7.999999999999886
  3
1-1PRO-PU
100
AcDbAlignedDimension
 13
109.6896468346161
 23
251.1408810890817
 33
0.0
 14
96.20638448891535
 24
243.1408810890817
 34
0.0
 50
90.0
100
AcDbRotatedDimension
  0
DIMENSION
  5
95
330
2
100
AcDbEntity
  8
-TEXT3
100
AcDbDimension
  2
*D8
 10
63.91072197686328
 20
224.1408810890811
 30
0.0
 11
63.91072197686324
 21
226.1408810890812
 31
0.0
 70
   128
 71
     5
 42
4.000000000000113
  3
1-1PRO
100
AcDbAlignedDimension
 13
69.00204700096882
 23
228.1408810890812
 33
0.0
 14
96.20638448891581
 24
224.1408810890811
 34
0.0
 50
90.0
100
AcDbRotatedDimension
  0
DIMENSION
  5
A3
330
2
100
AcDbEntity
  8
-TEXT3
100
AcDbDimension
  2
*D9
 10
63.91072197686324
 20
228.1408810890812
 30
0.0
 11
60.28495719100325
 21
234.1408810890815
 31
0.0
  1
G
 71
     5
 42
12.00000000000068
  3
1-1PRO
100
AcDbAlignedDimension
 13
69.00204700096882
 23
240.1408810890818
 33
0.0
 14
69.00204700096882
 24
228.1408810890812
 34
0.0
 50
90.0
100
AcDbRotatedDimension
  0
LINE
  5
B0
330
2
100
AcDbEntity
  8
-NORMTEIL_VERDECKT
100
AcDbLine
 10
115.3833844889154
 20
230.1408810890818
 30
0.0
 11
115.3833844889158
 21
243.140881089082
 31
0.0
  0
LINE
  5
B1
330
2
100
AcDbEntity
  8
-NORMTEIL_VERDECKT
100
AcDbLine
 10
105.7063844889155
 20
228.1408810890811
 30
0.0
 11
105.7063844889155
 21
240.1408810890817
 31
0.0
  0
LINE
  5
B2
330
2
100
AcDbEntity
  8
-NORMTEIL_VERDECKT
100
AcDbLine
 10
107.7063844889155
 20
228.1408810890811
 30
0.0
 11
107.7063844889154
 21
240.1408810890817
 31
0.0
  0
LINE
  5
B3
330
2
100
AcDbEntity
  8
-NORMTEIL_VERDECKT
100
AcDbLine
 10
100.7063844889159
 20
228.140881089081
 30
0.0
 11
106.6263844889161
 21
228.140881089081
 31
0.0
  0
LINE
  5
B4
330
2
100
AcDbEntity
  8
-NORMTEIL_VERDECKT
100
AcDbLine
 10
100.7063844889152
 20
228.1408810890813
 30
0.0
 11
106.6263844889154
 21
228.1408810890813
 31
0.0
  0
LINE
  5
B5
330
2
100
AcDbEntity
  8
-NORMTEIL_VERDECKT
100
AcDbLine
 10
113.7063844889149
 20
247.1408810890807
 30
0.0
 11
116.7063844889149
 21
247.1408810890807
 31
0.0
  0
LWPOLYLINE
  5
B6
330
2
100
AcDbEntity
  8
-NORMTEIL_VERDECKT
100
AcDbPolyline
 90
        5
 70
     0
 43
0.0
 10
113.7063844889149
 20
251.1408810890807
 10
113.7063844889149
 20
247.1408810890807
 10
115.2063844889149
 20
246.1408810890807
 10
116.7063844889149
 20
247.1408810890807
 10
116.7063844889149
 20
251.1408810890817
  0
LINE
  5
B7
330
2
100
AcDbEntity
  8
-NORMTEIL_VERDECKT
  6
Continuous
100
AcDbLine
 10
123.6908844889161
 20
159.140881089081
 30
0.0
 11
123.6908844889161
 21
189.1408810890809
 31
0.0
  0
LINE
  5
B8
330
2
100
AcDbEntity
  8
-NORMTEIL_VERDECKT
100
AcDbLine
 10
122.0293844889156
 20
230.1408810890818
 30
0.0
 11
122.029384488916
 21
243.1408810890819
 31
0.0
  0
LINE
  5
B9
330
2
100
AcDbEntity
  8
-NORMTEIL_VERDECKT
100
AcDbLine
 10
131.7063844889155
 20
228.140881089081
 30
0.0
 11
131.7063844889155
 21
240.1408810890816
 31
0.0
  0
LINE
  5
BA
330
2
100
AcDbEntity
  8
-NORMTEIL_VERDECKT
100
AcDbLine
 10
129.7063844889155
 20
228.140881089081
 30
0.0
 11
129.7063844889154
 21
240.1408810890817
 31
0.0
  0
LINE
  5
BB
330
2
100
AcDbEntity
  8
-NORMTEIL_VERDECKT
100
AcDbLine
 10
136.7063844889161
 20
228.140881089081
 30
0.0
 11
130.7863844889159
 21
228.140881089081
 31
0.0
  0
LINE
  5
BC
330
2
100
AcDbEntity
  8
-NORMTEIL_VERDECKT
100
AcDbLine
 10
136.7063844889154
 20
228.1408810890813
 30
0.0
 11
130.7863844889153
 21
228.1408810890813
 31
0.0
  0
LINE
  5
BD
330
2
100
AcDbEntity
  8
-PROFILAUSSENKANTET
100
AcDbLine
 10
127.7063844889155
 20
224.1408810890804
 30
0.0
 11
128.7063844889153
 21
224.1408810890804
 31
0.0
  0
LINE
  5
BE
330
2
100
AcDbEntity
  8
-NORMTEIL_VERDECKT
100
AcDbLine
 10
138.2063844889156
 20
228.1408810890811
 30
0.0
 11
135.7863844889154
 21
228.1408810890811
 31
0.0
  0
LINE
  5
BF
330
2
100
AcDbEntity
  8
-NORMTEIL_VERDECKT
100
AcDbLine
 10
124.2063844889149
 20
247.1408810890807
 30
0.0
 11
127.2063844889149
 21
247.1408810890807
 31
0.0
  0
LWPOLYLINE
  5
C0
330
2
100
AcDbEntity
  8
-NORMTEIL_VERDECKT
100
AcDbPolyline
 90
        5
 70
     0
 43
0.0
 10
124.2063844889149
 20
251.1408810890807
 10
124.2063844889149
 20
247.1408810890807
 10
125.7063844889149
 20
246.1408810890807
 10
127.2063844889149
 20
247.1408810890807
 10
127.2063844889149
 20
251.1408810890807
  0
LWPOLYLINE
  5
C1
330
2
100
AcDbEntity
  8
-VERGLASUNG
100
AcDbPolyline
 90
        6
 70
     0
 43
0.0
 10
69.00204700096882
 20
240.1408810890818
 10
197.7063844888912
 20
240.1408810890813
 10
198.7063844888912
 20
239.1408810890812
 10
198.7063844888913
 20
229.1408810890807
 10
197.7063844888913
 20
228.1408810890807
 10
69.00204700096882
 20
228.1408810890812
  0
LINE
  5
C3
330
2
100
AcDbEntity
  8
-VERGLASUNG
100
AcDbLine
 10
159.554591388651
 20
236.2470061280339
 30
0.0
 11
163.4484662082771
 21
240.14088094766
 31
0.0
  0
LINE
  5
C4
330
2
100
AcDbEntity
  8
-VERGLASUNG
100
AcDbLine
 10
157.992091388651
 20
236.2470061280339
 30
0.0
 11
161.8859662082771
 21
240.14088094766
 31
0.0
  0
LINE
  5
C5
330
2
100
AcDbEntity
  8
-VERGLASUNG
100
AcDbLine
 10
161.117091388651
 20
236.2470061280339
 30
0.0
 11
165.0109662082771
 21
240.14088094766
 31
0.0
  0
LINE
  5
C6
330
2
100
AcDbEntity
  8
-VERGLASUNG
100
AcDbLine
 10
162.7721768246417
 20
228.1408809476593
 30
0.0
 11
166.6660516442678
 21
232.0347557672853
 31
0.0
  0
LINE
  5
C7
330
2
100
AcDbEntity
  8
-VERGLASUNG
100
AcDbLine
 10
164.3346768246417
 20
228.1408809476593
 30
0.0
 11
168.2285516442678
 21
232.0347557672852
 31
0.0
  0
LINE
  5
C8
330
2
100
AcDbEntity
  8
-VERGLASUNG
100
AcDbLine
 10
161.2096768246417
 20
228.1408809476593
 30
0.0
 11
165.1035516442678
 21
232.0347557672853
 31
0.0
  0
LINE
  5
C9
330
2
100
AcDbEntity
  8
-VERGLASUNG
100
AcDbLine
 10
185.0448484652481
 20
236.247006128034
 30
0.0
 11
188.9387232848741
 21
240.14088094766
 31
0.0
  0
LINE
  5
CA
330
2
100
AcDbEntity
  8
-VERGLASUNG
100
AcDbLine
 10
181.9198484652481
 20
236.247006128034
 30
0.0
 11
185.8137232848741
 21
240.14088094766
 31
0.0
  0
LINE
  5
CB
330
2
100
AcDbEntity
  8
-VERGLASUNG
100
AcDbLine
 10
183.4823484652481
 20
236.247006128034
 30
0.0
 11
187.3762232848741
 21
240.14088094766
 31
0.0
  0
LINE
  5
CC
330
2
100
AcDbEntity
  8
-VERGLASUNG
100
AcDbLine
 10
185.1374339012388
 20
228.1408809476593
 30
0.0
 11
189.0313087208648
 21
232.0347557672854
 31
0.0
  0
LINE
  5
CD
330
2
100
AcDbEntity
  8
-VERGLASUNG
100
AcDbLine
 10
186.6999339012388
 20
228.1408809476593
 30
0.0
 11
190.5938087208648
 21
232.0347557672854
 31
0.0
  0
LINE
  5
CE
330
2
100
AcDbEntity
  8
-VERGLASUNG
100
AcDbLine
 10
188.2624339012388
 20
228.1408809476593
 30
0.0
 11
192.1563087208648
 21
232.0347557672853
 31
0.0
  0
LINE
  5
CF
330
2
100
AcDbEntity
  8
-VERGLASUNG
100
AcDbLine
 10
138.8444198705192
 20
228.1408808769486
 30
0.0
 11
142.7382946901453
 21
232.0347556965746
 31
0.0
  0
LINE
  5
D0
330
2
100
AcDbEntity
  8
-VERGLASUNG
100
AcDbLine
 10
137.2819198705192
 20
228.1408808769486
 30
0.0
 11
141.1757946901453
 21
232.0347556965746
 31
0.0
  0
LINE
  5
D1
330
2
100
AcDbEntity
  8
-VERGLASUNG
100
AcDbLine
 10
140.4069198705192
 20
228.1408808769486
 30
0.0
 11
144.3007946901453
 21
232.0347556965745
 31
0.0
  0
LINE
  5
D2
330
2
100
AcDbEntity
  8
-VERGLASUNG
100
AcDbLine
 10
137.1893344345285
 20
236.2470060573232
 30
0.0
 11
141.0832092541546
 21
240.1408808769493
 31
0.0
  0
LINE
  5
D3
330
2
100
AcDbEntity
  8
-VERGLASUNG
100
AcDbLine
 10
135.6268344345285
 20
236.2470060573232
 30
0.0
 11
139.5207092541546
 21
240.1408808769493
 31
0.0
  0
LINE
  5
D4
330
2
100
AcDbEntity
  8
-VERGLASUNG
100
AcDbLine
 10
97.23941221194904
 20
228.1408809476595
 30
0.0
 11
101.133287031575
 21
232.0347557672856
 31
0.0
  0
LINE
  5
D5
330
2
100
AcDbEntity
  8
-VERGLASUNG
100
AcDbLine
 10
95.67691221194904
 20
228.1408809476595
 30
0.0
 11
99.57078703157506
 21
232.0347557672856
 31
0.0
  0
LINE
  5
D6
330
2
100
AcDbEntity
  8
-VERGLASUNG
100
AcDbLine
 10
95.58432677595831
 20
236.2470061280342
 30
0.0
 11
99.47820159558435
 21
240.1408809476602
 31
0.0
  0
LINE
  5
D7
330
2
100
AcDbEntity
  8
-VERGLASUNG
100
AcDbLine
 10
94.02182677595831
 20
236.2470061280342
 30
0.0
 11
97.91570159558435
 21
240.1408809476602
 31
0.0
  0
LINE
  5
D8
330
2
100
AcDbEntity
  8
-VERGLASUNG
100
AcDbLine
 10
92.45932677595831
 20
236.2470061280342
 30
0.0
 11
96.35320159558435
 21
240.1408809476602
 31
0.0
  0
LINE
  5
D9
330
2
100
AcDbEntity
  8
-VERGLASUNG
100
AcDbLine
 10
74.87415525782651
 20
228.1408808769488
 30
0.0
 11
78.76803007745255
 21
232.0347556965747
 31
0.0
  0
LINE
  5
DA
330
2
100
AcDbEntity
  8
-VERGLASUNG
100
AcDbLine
 10
73.31165525782651
 20
228.1408808769488
 30
0.0
 11
77.20553007745255
 21
232.0347556965749
 31
0.0
  0
LINE
  5
DB
330
2
100
AcDbEntity
  8
-VERGLASUNG
100
AcDbLine
 10
70.0940698218358
 20
236.2470060573234
 30
0.0
 11
73.98794464146184
 21
240.1408808769495
 31
0.0
  0
LINE
  5
DC
330
2
100
AcDbEntity
  8
-VERGLASUNG
100
AcDbLine
 10
71.6565698218358
 20
236.2470060573234
 30
0.0
 11
75.55044464146184
 21
240.1408808769495
 31
0.0
  0
LINE
  5
DD
330
2
100
AcDbEntity
  8
-VERGLASUNG
100
AcDbLine
 10
68.5315698218358
 20
236.2470060573234
 30
0.0
 11
72.42544464146184
 21
240.1408808769495
 31
0.0
  0
LINE
  5
DE
330
2
100
AcDbEntity
  8
-VERGLASUNG
100
AcDbLine
 10
71.74915525782651
 20
228.1408808769488
 30
0.0
 11
75.64303007745255
 21
232.0347556965749
 31
0.0
  0
LINE
  5
DF
330
2
100
AcDbEntity
  8
-VERGLASUNG
100
AcDbLine
 10
98.80191221194904
 20
228.1408809476595
 30
0.0
 11
102.695787031575
 21
232.0347557672856
 31
0.0
  0
LINE
  5
E0
330
2
100
AcDbEntity
  8
-VERGLASUNG
100
AcDbLine
 10
134.0643344345285
 20
236.2470060573232
 30
0.0
 11
137.9582092541546
 21
240.1408808769493
 31
0.0
  0
CIRCLE
  5
E1
330
2
100
AcDbEntity
  8
-PROFILAUSSENKANTET
100
AcDbCircle
 10
118.7063844889164
 20
25.46136024767103
 30
0.0
 40
10.0
  0
LWPOLYLINE
  5
E2
330
2
100
AcDbEntity
  8
-VERGLASUNG
100
AcDbPolyline
 90
        4
 70
     0
 43
0.0
 10
45.72889342802241
 20
105.4613602476707
 10
196.7063844889163
 20
105.4613602476708
 10
198.7063844889163
 20
103.4613602476708
 10
198.7063844889164
 20
-26.5178459077151
  0
LINE
  5
E3
330
2
100
AcDbEntity
  8
-SYSTEM
100
AcDbLine
 10
148.7029478986178
 20
25.46136024767117
 30
0.0
 11
88.70982107921502
 21
25.46136024767089
 31
0.0
  0
LINE
  5
E4
330
2
100
AcDbEntity
  8
-SYSTEM
100
AcDbLine
 10
118.7063844889163
 20
55.45792365737245
 30
0.0
 11
118.7063844889165
 21
-4.53520316203037
 31
0.0
  0
CIRCLE
  5
E5
330
2
100
AcDbEntity
  8
-PROFILAUSSENKANTET
100
AcDbCircle
 10
115.2063844889164
 20
19.39918242117997
 30
0.0
 40
1.75
  0
CIRCLE
  5
E6
330
2
100
AcDbEntity
  8
-PROFILAUSSENKANTET
100
AcDbCircle
 10
115.2063844889164
 20
31.5235380741621
 30
0.0
 40
1.75
  0
MTEXT
  5
E7
330
2
100
AcDbEntity
  8
-TEXT2
100
AcDbMText
 10
167.8835202165667
 20
117.6805772142163
 30
0.0
 40
3.5
 41
17.9978
 71
     1
 72
     5
  1
{\fArial|b0|i0|c0|p34;Glaskante}
 73
     1
 44
1.0
1001
ACAD
1000
MTEXTBEGIN
1070
    73
1070
     1
1070
    44
1040
1.0
1070
    74
1070
     0
1000
MTEXTEND
  0
CIRCLE
  5
E9
330
2
100
AcDbEntity
  8
-PROFILAUSSENKANTET
100
AcDbCircle
 10
125.7063844889164
 20
25.46136024767107
 30
0.0
 40
1.75
  0
LWPOLYLINE
  5
EA
330
2
100
AcDbEntity
  8
-TEXT2
100
AcDbPolyline
 90
        3
 70
     1
 43
0.0
 10
176.4868325289797
 20
105.4613602476707
 10
180.6207698916407
 20
112.6215497951069
 10
172.3528951663186
 20
112.6215497951069
  0
CIRCLE
  5
EB
330
2
100
AcDbEntity
  8
-SCHRAFFUR
100
AcDbCircle
 10
118.7063844889164
 20
25.46136024767103
 30
0.0
 40
20.82879797461047
  0
CIRCLE
  5
EC
330
2
100
AcDbEntity
  8
-PROFILAUSSENKANTET
100
AcDbCircle
 10
118.7063844889164
 20
25.46136024767103
 30
0.0
 40
22.5
  0
ENDSEC
  0
SECTION
  2
OBJECTS
  0
DICTIONARY
  5
7
330
0
100
AcDbDictionary
281
     1
  3
ACAD_COLOR
350
105
  3
ACAD_GROUP
350
101
  3
ACAD_LAYOUT
350
EF
  3
ACAD_MATERIAL
350
104
  3
ACAD_MLINESTYLE
350
102
  3
ACAD_PLOTSETTINGS
350
103
  3
ACAD_PLOTSTYLENAME
350
6
  3
ACDBHEADERROUNDTRIPXREC
350
10B
  3
AcDbVariableDictionary
350
107
  0
DICTIONARY
  5
105
102
{ACAD_REACTORS
330
7
102
}
330
7
100
AcDbDictionary
281
     1
  0
DICTIONARY
  5
101
102
{ACAD_REACTORS
330
7
102
}
330
7
100
AcDbDictionary
281
     1
  0
DICTIONARY
  5
EF
102
{ACAD_REACTORS
330
7
102
}
330
7
100
AcDbDictionary
281
     1
  3
Layout1
350
F3
  3
Model
350
EE
  0
DICTIONARY
  5
104
102
{ACAD_REACTORS
330
7
102
}
330
7
100
AcDbDictionary
281
     1
  0
DICTIONARY
  5
102
102
{ACAD_REACTORS
330
7
102
}
330
7
100
AcDbDictionary
281
     1
  3
STANDARD
350
106
  0
DICTIONARY
  5
103
102
{ACAD_REACTORS
330
7
102
}
330
7
100
AcDbDictionary
281
     1
  0
ACDBDICTIONARYWDFLT
  5
6
102
{ACAD_REACTORS
330
7
102
}
330
7
100
AcDbDictionary
281
     1
  3
Normal
350
5
100
AcDbDictionaryWithDefault
340
5
  0
DICTIONARY
  5
10B
102
{ACAD_REACTORS
330
7
102
}
330
7
100
AcDbDictionary
281
     1
  3
COLORDICT
350
10D
  3
MATERIALDICT
350
10C
  0
DICTIONARY
  5
107
102
{ACAD_REACTORS
330
7
102
}
330
7
100
AcDbDictionary
281
     1
  3
DIMASSOC
350
109
  3
HIDETEXT
350
108
  3
PROJECTNAME
350
10A
  0
LAYOUT
  5
F3
102
{ACAD_XDICTIONARY
360
112
102
}
102
{ACAD_REACTORS
330
EF
102
}
330
EF
100
AcDbPlotSettings
  1

  2
HP DeskJet 1120C Printer
  4

  6

 40
0.0
 41
0.0
 42
0.0
 43
0.0
 44
0.0
 45
0.0
 46
0.0
 47
0.0
 48
0.0
 49
0.0
140
0.0
141
0.0
142
1.0
143
1.0
 70
   688
 72
     0
 73
     0
 74
     5
  7
monochrome.ctb
 75
    16
147
1.0
148
0.0
149
0.0
100
AcDbLayout
  1
Layout1
 70
     1
 71
     1
 10
0.0
 20
0.0
 11
12.0
 21
9.0
 12
0.0
 22
0.0
 32
0.0
 14
1.000000000000000E+20
 24
1.000000000000000E+20
 34
1.000000000000000E+20
 15
-1.000000000000000E+20
 25
-1.000000000000000E+20
 35
-1.000000000000000E+20
146
0.0
 13
0.0
 23
0.0
 33
0.0
 16
1.0
 26
0.0
 36
0.0
 17
0.0
 27
1.0
 37
0.0
 76
     0
330
F0
  0
LAYOUT
  5
EE
102
{ACAD_XDICTIONARY
360
110
102
}
102
{ACAD_REACTORS
330
EF
102
}
330
EF
100
AcDbPlotSettings
  1

  2
HP DeskJet 1220C.pc3
  4
A4
  6

 40
4.180416584014892
 41
13.4937515258789
 42
4.180404663085937
 43
3.67242431640625
 44
209.9733276367187
 45
297.0106506347656
 46
18.27
 47
-7.179999999999999
 48
-382.9604338586287
 49
-121.4784643575026
140
-52.79796600890358
141
466.9417073402494
142
1.0
143
2.0
 70
 11956
 72
     1
 73
     0
 74
     4
  7
monochrome.ctb
 75
    17
147
0.5
148
382.9604338586287
149
121.4784643575026
100
AcDbLayout
  1
Model
 70
     1
 71
     0
 10
0.0
 20
0.0
 11
12.0
 21
9.0
 12
0.0
 22
0.0
 32
0.0
 14
0.0
 24
0.0
 34
0.0
 15
0.0
 25
0.0
 35
0.0
146
0.0
 13
0.0
 23
0.0
 33
0.0
 16
1.0
 26
0.0
 36
0.0
 17
0.0
 27
1.0
 37
0.0
 76
     0
330
2
  0
MLINESTYLE
  5
106
102
{ACAD_REACTORS
330
102
102
}
330
102
100
AcDbMlineStyle
  2
STANDARD
 70
     0
  3

 62
     0
 51
90.0
 52
90.0
 71
     2
 49
0.5
 62
   256
  6
BYLAYER
 49
-0.5
 62
   256
  6
BYLAYER
  0
ACDBPLACEHOLDER
  5
5
102
{ACAD_REACTORS
330
6
102
}
330
6
  0
XRECORD
  5
10D
102
{ACAD_REACTORS
330
10B
102
}
330
10B
100
AcDbXrecord
280
     1
340
105
  0
XRECORD
  5
10C
102
{ACAD_REACTORS
330
10B
102
}
330
10B
100
AcDbXrecord
280
     1
340
104
  0
DICTIONARYVAR
  5
109
102
{ACAD_REACTORS
330
107
102
}
330
107
100
DictionaryVariables
280
     0
  1
1
  0
DICTIONARYVAR
  5
108
102
{ACAD_REACTORS
330
107
102
}
330
107
100
DictionaryVariables
280
     0
  1
1
  0
DICTIONARYVAR
  5
10A
102
{ACAD_REACTORS
330
107
102
}
330
107
100
DictionaryVariables
280
     0
  1

  0
DICTIONARY
  5
112
330
F3
100
AcDbDictionary
280
     1
281
     1
  3
ACAD_XREC_ROUNDTRIP
360
113
  0
DICTIONARY
  5
110
330
EE
100
AcDbDictionary
280
     1
281
     1
  3
ACAD_XREC_ROUNDTRIP
360
111
  0
XRECORD
  5
113
102
{ACAD_REACTORS
330
112
102
}
330
112
100
AcDbXrecord
280
     1
102
SHADEPLOT
 70
     0
102
SHADEPLOTRESLEVEL
 70
     2
102
SHADEPLOTCUSTOMDPI
 70
   300
  0
XRECORD
  5
111
102
{ACAD_REACTORS
330
110
102
}
330
110
100
AcDbXrecord
280
     1
102
SHADEPLOT
 70
     0
102
SHADEPLOTRESLEVEL
 70
     2
102
SHADEPLOTCUSTOMDPI
 70
   300
  0
ENDSEC
  0
EOF
