  0
SECTION
  2
HEADER
  9
$ACADVER
  1
AC1015
  9
$ACADMAINTVER
 70
    18
  9
$DWGCODEPAGE
  3
ANSI_1252
  9
$INSBASE
 10
0.0
 20
0.0
 30
0.0
  9
$EXTMIN
 10
1.000000000000000E+20
 20
1.000000000000000E+20
 30
1.000000000000000E+20
  9
$EXTMAX
 10
0.0
 20
0.0
 30
0.0
  9
$LIMMIN
 10
0.0
 20
0.0
  9
$LIMMAX
 10
12.0
 20
9.0
  9
$ORTHOMODE
 70
     1
  9
$REGENMODE
 70
     1
  9
$FILLMODE
 70
     1
  9
$QTEXTMODE
 70
     0
  9
$MIRRTEXT
 70
     1
  9
$LTSCALE
 40
2.5
  9
$ATTMODE
 70
     1
  9
$TEXTSIZE
 40
0.2
  9
$TRACEWID
 40
0.05
  9
$TEXTSTYLE
  7
STANDARD
  9
$CLAYER
  8
-VERGLASUNG
  9
$CELTYPE
  6
BYLAYER
  9
$CECOLOR
 62
   256
  9
$CELTSCALE
 40
1.0
  9
$DISPSILH
 70
     0
  9
$DIMSCALE
 40
1.0
  9
$DIMASZ
 40
3.5
  9
$DIMEXO
 40
2.0
  9
$DIMDLI
 40
2.0
  9
$DIMRND
 40
0.0
  9
$DIMDLE
 40
0.0
  9
$DIMEXE
 40
1.5
  9
$DIMTP
 40
0.0
  9
$DIMTM
 40
0.0
  9
$DIMTXT
 40
4.0
  9
$DIMCEN
 40
0.09
  9
$DIMTSZ
 40
0.0
  9
$DIMTOL
 70
     0
  9
$DIMLIM
 70
     0
  9
$DIMTIH
 70
     0
  9
$DIMTOH
 70
     0
  9
$DIMSE1
 70
     0
  9
$DIMSE2
 70
     0
  9
$DIMTAD
 70
     1
  9
$DIMZIN
 70
     9
  9
$DIMBLK
  1

  9
$DIMASO
 70
     1
  9
$DIMSHO
 70
     1
  9
$DIMPOST
  1

  9
$DIMAPOST
  1

  9
$DIMALT
 70
     0
  9
$DIMALTD
 70
     2
  9
$DIMALTF
 40
25.4
  9
$DIMLFAC
 40
1.0
  9
$DIMTOFL
 70
     0
  9
$DIMTVP
 40
0.0
  9
$DIMTIX
 70
     0
  9
$DIMSOXD
 70
     0
  9
$DIMSAH
 70
     0
  9
$DIMBLK1
  1

  9
$DIMBLK2
  1

  9
$DIMSTYLE
  2
1-1PRO
  9
$DIMCLRD
 70
   256
  9
$DIMCLRE
 70
   256
  9
$DIMCLRT
 70
   256
  9
$DIMTFAC
 40
1.0
  9
$DIMGAP
 40
1.0
  9
$DIMJUST
 70
     0
  9
$DIMSD1
 70
     0
  9
$DIMSD2
 70
     0
  9
$DIMTOLJ
 70
     1
  9
$DIMTZIN
 70
     0
  9
$DIMALTZ
 70
     0
  9
$DIMALTTZ
 70
     0
  9
$DIMUPT
 70
     0
  9
$DIMDEC
 70
     1
  9
$DIMTDEC
 70
     1
  9
$DIMALTU
 70
     2
  9
$DIMALTTD
 70
     2
  9
$DIMTXSTY
  7
STANDARD
  9
$DIMAUNIT
 70
     0
  9
$DIMADEC
 70
     0
  9
$DIMALTRND
 40
0.0
  9
$DIMAZIN
 70
     0
  9
$DIMDSEP
 70
    46
  9
$DIMATFIT
 70
     3
  9
$DIMFRAC
 70
     0
  9
$DIMLDRBLK
  1

  9
$DIMLUNIT
 70
     2
  9
$DIMLWD
 70
    -2
  9
$DIMLWE
 70
    -2
  9
$DIMTMOVE
 70
     0
  9
$LUNITS
 70
     2
  9
$LUPREC
 70
     4
  9
$SKETCHINC
 40
0.1
  9
$FILLETRAD
 40
0.0
  9
$AUNITS
 70
     0
  9
$AUPREC
 70
     0
  9
$MENU
  1
.
  9
$ELEVATION
 40
0.0
  9
$PELEVATION
 40
0.0
  9
$THICKNESS
 40
0.0
  9
$LIMCHECK
 70
     0
  9
$CHAMFERA
 40
2.0
  9
$CHAMFERB
 40
2.0
  9
$CHAMFERC
 40
1.0
  9
$CHAMFERD
 40
0.0
  9
$SKPOLY
 70
     0
  9
$TDCREATE
 40
2450923.406402199
  9
$TDUCREATE
 40
2450923.364735533
  9
$TDUPDATE
 40
2453402.333112327
  9
$TDUUPDATE
 40
2453402.291445660
  9
$TDINDWG
 40
2.4303299769
  9
$TDUSRTIMER
 40
2.4303299769
  9
$USRTIMER
 70
     1
  9
$ANGBASE
 50
0.0
  9
$ANGDIR
 70
     0
  9
$PDMODE
 70
     0
  9
$PDSIZE
 40
0.0
  9
$PLINEWID
 40
0.0
  9
$SPLFRAME
 70
     0
  9
$SPLINETYPE
 70
     6
  9
$SPLINESEGS
 70
    50
  9
$HANDSEED
  5
104
  9
$SURFTAB1
 70
     6
  9
$SURFTAB2
 70
     6
  9
$SURFTYPE
 70
     6
  9
$SURFU
 70
     6
  9
$SURFV
 70
     6
  9
$UCSBASE
  2

  9
$UCSNAME
  2

  9
$UCSORG
 10
0.0
 20
0.0
 30
0.0
  9
$UCSXDIR
 10
1.0
 20
0.0
 30
0.0
  9
$UCSYDIR
 10
0.0
 20
1.0
 30
0.0
  9
$UCSORTHOREF
  2

  9
$UCSORTHOVIEW
 70
     0
  9
$UCSORGTOP
 10
0.0
 20
0.0
 30
0.0
  9
$UCSORGBOTTOM
 10
0.0
 20
0.0
 30
0.0
  9
$UCSORGLEFT
 10
0.0
 20
0.0
 30
0.0
  9
$UCSORGRIGHT
 10
0.0
 20
0.0
 30
0.0
  9
$UCSORGFRONT
 10
0.0
 20
0.0
 30
0.0
  9
$UCSORGBACK
 10
0.0
 20
0.0
 30
0.0
  9
$PUCSBASE
  2

  9
$PUCSNAME
  2

  9
$PUCSORG
 10
0.0
 20
0.0
 30
0.0
  9
$PUCSXDIR
 10
1.0
 20
0.0
 30
0.0
  9
$PUCSYDIR
 10
0.0
 20
1.0
 30
0.0
  9
$PUCSORTHOREF
  2

  9
$PUCSORTHOVIEW
 70
     0
  9
$PUCSORGTOP
 10
0.0
 20
0.0
 30
0.0
  9
$PUCSORGBOTTOM
 10
0.0
 20
0.0
 30
0.0
  9
$PUCSORGLEFT
 10
0.0
 20
0.0
 30
0.0
  9
$PUCSORGRIGHT
 10
0.0
 20
0.0
 30
0.0
  9
$PUCSORGFRONT
 10
0.0
 20
0.0
 30
0.0
  9
$PUCSORGBACK
 10
0.0
 20
0.0
 30
0.0
  9
$USERI1
 70
     0
  9
$USERI2
 70
     0
  9
$USERI3
 70
     0
  9
$USERI4
 70
     0
  9
$USERI5
 70
     0
  9
$USERR1
 40
0.0
  9
$USERR2
 40
0.0
  9
$USERR3
 40
0.0
  9
$USERR4
 40
0.0
  9
$USERR5
 40
0.0
  9
$WORLDVIEW
 70
     1
  9
$SHADEDGE
 70
     3
  9
$SHADEDIF
 70
    70
  9
$TILEMODE
 70
     1
  9
$MAXACTVP
 70
    48
  9
$PINSBASE
 10
0.0
 20
0.0
 30
0.0
  9
$PLIMCHECK
 70
     0
  9
$PEXTMIN
 10
1.000000000000000E+20
 20
1.000000000000000E+20
 30
1.000000000000000E+20
  9
$PEXTMAX
 10
-1.000000000000000E+20
 20
-1.000000000000000E+20
 30
-1.000000000000000E+20
  9
$PLIMMIN
 10
0.0
 20
0.0
  9
$PLIMMAX
 10
12.0
 20
9.0
  9
$UNITMODE
 70
     0
  9
$VISRETAIN
 70
     1
  9
$PLINEGEN
 70
     0
  9
$PSLTSCALE
 70
     1
  9
$TREEDEPTH
 70
  3020
  9
$CMLSTYLE
  2
STANDARD
  9
$CMLJUST
 70
     0
  9
$CMLSCALE
 40
1.0
  9
$PROXYGRAPHICS
 70
     1
  9
$MEASUREMENT
 70
     0
  9
$CELWEIGHT
370
    -1
  9
$ENDCAPS
280
     0
  9
$JOINSTYLE
280
     0
  9
$LWDISPLAY
290
     0
  9
$INSUNITS
 70
     0
  9
$HYPERLINKBASE
  1

  9
$STYLESHEET
  1

  9
$XEDIT
290
     1
  9
$CEPSNTYPE
380
     0
  9
$PSTYLEMODE
290
     1
  9
$FINGERPRINTGUID
  2
{69C2E6C3-FBFF-11D4-9C1F-F0970D17765E}
  9
$VERSIONGUID
  2
{B9ED0483-F182-403A-8FDA-F48912F2D555}
  9
$EXTNAMES
290
     1
  9
$PSVPSCALE
 40
0.0
  9
$OLESTARTUP
290
     0
  0
ENDSEC
  0
SECTION
  2
CLASSES
  0
CLASS
  1
DICTIONARYVAR
  2
AcDbDictionaryVar
  3
ObjectDBX Classes
 90
        0
280
     0
281
     0
  0
CLASS
  1
IMAGE
  2
AcDbRasterImage
  3
ISM
 90
    32895
280
     0
281
     1
  0
CLASS
  1
IMAGEDEF_REACTOR
  2
AcDbRasterImageDefReactor
  3
ISM
 90
    32769
280
     0
281
     0
  0
CLASS
  1
IMAGEDEF
  2
AcDbRasterImageDef
  3
ISM
 90
    32768
280
     0
281
     0
  0
CLASS
  1
RASTERVARIABLES
  2
AcDbRasterVariables
  3
ISM
 90
    32768
280
     0
281
     0
  0
CLASS
  1
ACDBDICTIONARYWDFLT
  2
AcDbDictionaryWithDefault
  3
ObjectDBX Classes
 90
        0
280
     0
281
     0
  0
CLASS
  1
ACDBPLACEHOLDER
  2
AcDbPlaceHolder
  3
ObjectDBX Classes
 90
        0
280
     0
281
     0
  0
CLASS
  1
LAYOUT
  2
AcDbLayout
  3
ObjectDBX Classes
 90
        0
280
     0
281
     0
  0
ENDSEC
  0
SECTION
  2
TABLES
  0
TABLE
  2
VPORT
  5
EC
330
0
100
AcDbSymbolTable
 70
     1
  0
VPORT
  5
ED
330
EC
100
AcDbSymbolTableRecord
100
AcDbViewportTableRecord
  2
*Active
 70
     0
 10
0.0
 20
0.0
 11
1.0
 21
1.0
 12
116.7241440586638
 22
143.7074631707639
 13
0.0
 23
0.0
 14
0.5
 24
0.5
 15
0.5
 25
0.5
 16
0.0
 26
0.0
 36
1.0
 17
0.0
 27
0.0
 37
0.0
 40
269.2635969579849
 41
1.549148099606815
 42
50.0
 43
0.0
 44
0.0
 50
0.0
 51
0.0
 71
     0
 72
   100
 73
     1
 74
     1
 75
     0
 76
     0
 77
     0
 78
     0
281
     0
 65
     1
110
0.0
120
0.0
130
0.0
111
1.0
121
0.0
131
0.0
112
0.0
122
1.0
132
0.0
 79
     0
146
0.0
  0
ENDTAB
  0
TABLE
  2
LTYPE
  5
E7
330
0
100
AcDbSymbolTable
 70
     3
  0
LTYPE
  5
E8
330
E7
100
AcDbSymbolTableRecord
100
AcDbLinetypeTableRecord
  2
BYBLOCK
 70
     0
  3

 72
    65
 73
     0
 40
0.0
  0
LTYPE
  5
E9
330
E7
100
AcDbSymbolTableRecord
100
AcDbLinetypeTableRecord
  2
BYLAYER
 70
     0
  3

 72
    65
 73
     0
 40
0.0
  0
LTYPE
  5
8
330
E7
100
AcDbSymbolTableRecord
100
AcDbLinetypeTableRecord
  2
CONTINUOUS
 70
     0
  3
Solid line
 72
    65
 73
     0
 40
0.0
  0
LTYPE
  5
60
330
E7
100
AcDbSymbolTableRecord
100
AcDbLinetypeTableRecord
  2
MITTEX2
 70
     0
  3
Mitte (2x) ________  __  ________  __  _____
 72
    65
 73
     4
 40
4.0
 49
2.5
 74
     0
 49
-0.5
 74
     0
 49
0.5
 74
     0
 49
-0.5
 74
     0
  0
LTYPE
  5
5C
330
E7
100
AcDbSymbolTableRecord
100
AcDbLinetypeTableRecord
  2
STRICHLINIEX2
 70
     0
  3
Strichlinie (2x) ____  ____  ____  ____  ____  
 72
    65
 73
     2
 40
1.5
 49
1.0
 74
     0
 49
-0.5
 74
     0
  0
ENDTAB
  0
TABLE
  2
LAYER
  5
E4
330
0
100
AcDbSymbolTable
 70
    11
  0
LAYER
  5
4
330
E4
100
AcDbSymbolTableRecord
100
AcDbLayerTableRecord
  2
0
 70
     0
 62
     7
  6
CONTINUOUS
370
    -3
390
5
  0
LAYER
  5
B2
330
E4
100
AcDbSymbolTableRecord
100
AcDbLayerTableRecord
  2
-PROFILAUSSENKANTET
 70
     0
 62
     4
  6
CONTINUOUS
370
    -3
390
5
  0
LAYER
  5
6C
330
E4
100
AcDbSymbolTableRecord
100
AcDbLayerTableRecord
  2
-DICHTUNG
 70
     0
 62
     3
  6
CONTINUOUS
370
    -3
390
5
  0
LAYER
  5
59
330
E4
100
AcDbSymbolTableRecord
100
AcDbLayerTableRecord
  2
-NORMTEIL
 70
     0
 62
     6
  6
CONTINUOUS
370
    -3
390
5
  0
LAYER
  5
5B
330
E4
100
AcDbSymbolTableRecord
100
AcDbLayerTableRecord
  2
-NORMTEIL_VERDECKT
 70
     0
 62
     9
  6
STRICHLINIEX2
370
    -3
390
5
  0
LAYER
  5
18
330
E4
100
AcDbSymbolTableRecord
100
AcDbLayerTableRecord
  2
DEFPOINTS
 70
     0
 62
     7
  6
CONTINUOUS
290
     0
370
    -3
390
5
  0
LAYER
  5
5F
330
E4
100
AcDbSymbolTableRecord
100
AcDbLayerTableRecord
  2
-SYSTEM
 70
     0
 62
     2
  6
MITTEX2
370
    -3
390
5
  0
LAYER
  5
DA
330
E4
100
AcDbSymbolTableRecord
100
AcDbLayerTableRecord
  2
-TEXT2
 70
     0
 62
     3
  6
CONTINUOUS
370
    -3
390
5
  0
LAYER
  5
A
330
E4
100
AcDbSymbolTableRecord
100
AcDbLayerTableRecord
  2
-TEXT3
 70
     0
 62
     2
  6
CONTINUOUS
370
    -3
390
5
  0
LAYER
  5
65
330
E4
100
AcDbSymbolTableRecord
100
AcDbLayerTableRecord
  2
-SCHRAFFUR
 70
     0
 62
     9
  6
CONTINUOUS
370
    -3
390
5
  0
LAYER
  5
52
330
E4
100
AcDbSymbolTableRecord
100
AcDbLayerTableRecord
  2
-VERGLASUNG
 70
     0
 62
     1
  6
CONTINUOUS
370
    -3
390
5
  0
ENDTAB
  0
TABLE
  2
STYLE
  5
E5
330
0
100
AcDbSymbolTable
 70
     1
  0
STYLE
  5
C
330
E5
100
AcDbSymbolTableRecord
100
AcDbTextStyleTableRecord
  2
STANDARD
 70
     0
 40
0.0
 41
1.0
 50
0.0
 71
     0
 42
0.2
  3
GOTHIC.TTF
  4

1001
ACAD
1000
Century Gothic
1071
       34
  0
ENDTAB
  0
TABLE
  2
VIEW
  5
EA
330
0
100
AcDbSymbolTable
 70
     0
  0
ENDTAB
  0
TABLE
  2
UCS
  5
EB
330
0
100
AcDbSymbolTable
 70
     0
  0
ENDTAB
  0
TABLE
  2
APPID
  5
EE
330
0
100
AcDbSymbolTable
 70
     1
  0
APPID
  5
D
330
EE
100
AcDbSymbolTableRecord
100
AcDbRegAppTableRecord
  2
ACAD
 70
     0
  0
ENDTAB
  0
TABLE
  2
DIMSTYLE
  5
EF
330
0
100
AcDbSymbolTable
 70
     1
100
AcDbDimStyleTable
 71
     1
340
B
  0
DIMSTYLE
105
B
102
{ACAD_REACTORS
330
6D
330
7A
330
1C
330
37
330
2A
330
44
330
9
330
BC
102
}
330
EF
100
AcDbSymbolTableRecord
100
AcDbDimStyleTableRecord
  2
1-1PRO
 70
     0
 41
3.5
 42
2.0
 43
2.0
 44
1.5
 73
     0
 74
     0
 77
     1
 78
     9
140
4.0
147
1.0
176
   256
177
   256
178
   256
271
     1
272
     1
340
C
  0
ENDTAB
  0
TABLE
  2
BLOCK_RECORD
  5
1
330
0
100
AcDbSymbolTable
 70
     9
  0
BLOCK_RECORD
  5
2
330
1
100
AcDbSymbolTableRecord
100
AcDbBlockTableRecord
  2
*MODEL_SPACE
340
DE
  0
BLOCK_RECORD
  5
E0
330
1
100
AcDbSymbolTableRecord
100
AcDbBlockTableRecord
  2
*PAPER_SPACE
340
E3
  0
BLOCK_RECORD
  5
38
330
1
100
AcDbSymbolTableRecord
100
AcDbBlockTableRecord
  2
*D0
340
0
  0
BLOCK_RECORD
  5
A8
330
1
100
AcDbSymbolTableRecord
100
AcDbBlockTableRecord
  2
A$C12D21FE6
340
0
102
{BLKREFS
331
A7
102
}
  0
BLOCK_RECORD
  5
1D
330
1
100
AcDbSymbolTableRecord
100
AcDbBlockTableRecord
  2
*D2
340
0
  0
BLOCK_RECORD
  5
45
330
1
100
AcDbSymbolTableRecord
100
AcDbBlockTableRecord
  2
*D3
340
0
  0
BLOCK_RECORD
  5
2B
330
1
100
AcDbSymbolTableRecord
100
AcDbBlockTableRecord
  2
*D4
340
0
  0
BLOCK_RECORD
  5
BD
330
1
100
AcDbSymbolTableRecord
100
AcDbBlockTableRecord
  2
*D5
340
0
  0
BLOCK_RECORD
  5
6E
330
1
100
AcDbSymbolTableRecord
100
AcDbBlockTableRecord
  2
*D6
340
0
  0
BLOCK_RECORD
  5
7B
330
1
100
AcDbSymbolTableRecord
100
AcDbBlockTableRecord
  2
*D7
340
0
  0
BLOCK_RECORD
  5
E
330
1
100
AcDbSymbolTableRecord
100
AcDbBlockTableRecord
  2
*D8
340
0
  0
ENDTAB
  0
ENDSEC
  0
SECTION
  2
BLOCKS
  0
BLOCK
  5
3
330
2
100
AcDbEntity
  8
0
100
AcDbBlockBegin
  2
*MODEL_SPACE
 70
     0
 10
0.0
 20
0.0
 30
0.0
  3
*MODEL_SPACE
  1

  0
ENDBLK
  5
DD
330
2
100
AcDbEntity
  8
0
100
AcDbBlockEnd
  0
BLOCK
  5
E1
330
E0
100
AcDbEntity
 67
     1
  8
0
100
AcDbBlockBegin
  2
*PAPER_SPACE
 70
     0
 10
0.0
 20
0.0
 30
0.0
  3
*PAPER_SPACE
  1

  0
ENDBLK
  5
E2
330
E0
100
AcDbEntity
 67
     1
  8
0
100
AcDbBlockEnd
  0
BLOCK
  5
39
330
38
100
AcDbEntity
  8
0
100
AcDbBlockBegin
  2
*D0
 70
     1
 10
0.0
 20
0.0
 30
0.0
  3
*D0
  1

  0
LINE
  5
3A
330
38
100
AcDbEntity
  8
-TEXT3
370
    -2
100
AcDbLine
 10
75.91949509242727
 20
238.8476516307598
 30
0.0
 11
56.91949509242739
 21
238.8476516307599
 31
0.0
  0
LINE
  5
3B
330
38
100
AcDbEntity
  8
-TEXT3
370
    -2
100
AcDbLine
 10
97.21515760447974
 20
203.8476516307599
 30
0.0
 11
56.91949509242738
 21
203.8476516307599
 31
0.0
  0
LINE
  5
3C
330
38
100
AcDbEntity
  8
-TEXT3
370
    -2
100
AcDbLine
 10
58.41949509242739
 20
235.3476516307599
 30
0.0
 11
58.41949509242738
 21
207.3476516307599
 31
0.0
  0
SOLID
  5
3D
330
38
100
AcDbEntity
  8
-TEXT3
100
AcDbTrace
 10
57.83616175909405
 20
235.3476516307599
 30
0.0
 11
59.00282842576072
 21
235.3476516307599
 31
0.0
 12
58.41949509242739
 22
238.8476516307599
 32
0.0
 13
58.41949509242739
 23
238.8476516307599
 33
0.0
  0
SOLID
  5
3E
330
38
100
AcDbEntity
  8
-TEXT3
100
AcDbTrace
 10
57.83616175909404
 20
207.3476516307599
 30
0.0
 11
59.00282842576071
 21
207.3476516307599
 31
0.0
 12
58.41949509242738
 22
203.8476516307599
 32
0.0
 13
58.41949509242738
 23
203.8476516307599
 33
0.0
  0
MTEXT
  5
3F
330
38
100
AcDbEntity
  8
-TEXT3
100
AcDbMText
 10
55.31888326373938
 20
221.3476516307599
 30
0.0
 40
4.0
 41
0.0
 71
     5
 72
     1
  1
\A1;35
 11
0.0000000000000001
 21
1.0
 31
0.0
 73
     1
 44
1.0
1001
ACAD
1000
MTEXTBEGIN
1070
    73
1070
     1
1070
    44
1040
1.0
1070
    74
1070
     0
1000
MTEXTEND
  0
POINT
  5
40
330
38
100
AcDbEntity
  8
DEFPOINTS
 62
     0
100
AcDbPoint
 10
77.91949509242726
 20
238.8476516307598
 30
0.0
  0
POINT
  5
41
330
38
100
AcDbEntity
  8
DEFPOINTS
 62
     0
100
AcDbPoint
 10
99.21515760447974
 20
203.8476516307599
 30
0.0
  0
POINT
  5
42
330
38
100
AcDbEntity
  8
DEFPOINTS
 62
     0
100
AcDbPoint
 10
58.41949509242738
 20
203.8476516307599
 30
0.0
  0
ENDBLK
  5
43
330
38
100
AcDbEntity
  8
0
100
AcDbBlockEnd
  0
BLOCK
  5
A9
330
A8
100
AcDbEntity
  8
0
100
AcDbBlockBegin
  2
A$C12D21FE6
 70
     0
 10
0.0
 20
0.0
 30
0.0
  3
A$C12D21FE6
  1

  0
LWPOLYLINE
  5
AA
330
A8
100
AcDbEntity
  8
-NORMTEIL_VERDECKT
100
AcDbPolyline
 90
        6
 70
     0
 43
0.0
 10
-0.00000004186154
 20
11.00000006123278
 10
-0.0000000418618811
 20
0.6770000612326186
 10
0.6769999581382536
 20
0.0000000612325977
 10
7.322999958138439
 20
0.0000000612325692
 10
7.999999958138118
 20
0.6770000612325902
 10
7.999999958138459
 20
11.00000006123272
  0
LINE
  5
AB
330
A8
100
AcDbEntity
  8
-NORMTEIL_VERDECKT
100
AcDbLine
 10
7.322999958138439
 20
0.0000000612325977
 30
0.0
 11
7.32299995813878
 21
11.00000006123272
 31
0.0
  0
LINE
  5
AC
330
A8
100
AcDbEntity
  8
-NORMTEIL_VERDECKT
100
AcDbLine
 10
0.6769999581382536
 20
0.0000000612325977
 30
0.0
 11
0.6769999581385946
 21
11.00000006123284
 31
0.0
  0
LINE
  5
AD
330
A8
100
AcDbEntity
  8
-NORMTEIL_VERDECKT
100
AcDbLine
 10
-0.0000000418618811
 20
0.6770000612326186
 30
0.0
 11
7.999999958138118
 21
0.6770000612325902
 31
0.0
  0
ENDBLK
  5
AE
330
A8
100
AcDbEntity
  8
0
100
AcDbBlockEnd
  0
BLOCK
  5
1E
330
1D
100
AcDbEntity
  8
0
100
AcDbBlockBegin
  2
*D2
 70
     1
 10
0.0
 20
0.0
 30
0.0
  3
*D2
  1

  0
LINE
  5
1F
330
1D
100
AcDbEntity
  8
-TEXT3
370
    -2
100
AcDbLine
 10
61.51082011653307
 20
242.84765163076
 30
0.0
 11
56.91949509242753
 21
242.84765163076
 31
0.0
  0
LINE
  5
20
330
1D
100
AcDbEntity
  8
-TEXT3
370
    -2
100
AcDbLine
 10
88.71515760448005
 20
238.8476516307598
 30
0.0
 11
56.91949509242753
 21
238.8476516307599
 31
0.0
  0
LINE
  5
21
330
1D
100
AcDbEntity
  8
-TEXT3
370
    -2
100
AcDbLine
 10
58.41949509242754
 20
246.3476516307599
 30
0.0
 11
58.41949509242754
 21
249.8476516307599
 31
0.0
  0
LINE
  5
22
330
1D
100
AcDbEntity
  8
-TEXT3
370
    -2
100
AcDbLine
 10
58.41949509242753
 20
235.3476516307599
 30
0.0
 11
58.41949509242753
 21
231.8476516307598
 31
0.0
  0
SOLID
  5
23
330
1D
100
AcDbEntity
  8
-TEXT3
100
AcDbTrace
 10
57.8361617590942
 20
246.3476516307599
 30
0.0
 11
59.00282842576087
 21
246.3476516307599
 31
0.0
 12
58.41949509242754
 22
242.84765163076
 32
0.0
 13
58.41949509242754
 23
242.84765163076
 33
0.0
  0
SOLID
  5
24
330
1D
100
AcDbEntity
  8
-TEXT3
100
AcDbTrace
 10
57.83616175909419
 20
235.3476516307599
 30
0.0
 11
59.00282842576086
 21
235.3476516307599
 31
0.0
 12
58.41949509242753
 22
238.8476516307599
 32
0.0
 13
58.41949509242753
 23
238.8476516307599
 33
0.0
  0
MTEXT
  5
25
330
1D
100
AcDbEntity
  8
-TEXT3
100
AcDbMText
 10
55.36918917808351
 20
240.8476516307599
 30
0.0
 40
4.0
 41
0.0
 71
     5
 72
     1
  1
\A1;4
 11
0.0000000000000001
 21
1.0
 31
0.0
 73
     1
 44
1.0
1001
ACAD
1000
MTEXTBEGIN
1070
    73
1070
     1
1070
    44
1040
1.0
1070
    74
1070
     0
1000
MTEXTEND
  0
POINT
  5
26
330
1D
100
AcDbEntity
  8
DEFPOINTS
 62
     0
100
AcDbPoint
 10
63.51082011653307
 20
242.84765163076
 30
0.0
  0
POINT
  5
27
330
1D
100
AcDbEntity
  8
DEFPOINTS
 62
     0
100
AcDbPoint
 10
90.71515760448006
 20
238.8476516307598
 30
0.0
  0
POINT
  5
28
330
1D
100
AcDbEntity
  8
DEFPOINTS
 62
     0
100
AcDbPoint
 10
58.41949509242753
 20
238.8476516307599
 30
0.0
  0
ENDBLK
  5
29
330
1D
100
AcDbEntity
  8
0
100
AcDbBlockEnd
  0
BLOCK
  5
46
330
45
100
AcDbEntity
  8
0
100
AcDbBlockBegin
  2
*D3
 70
     1
 10
0.0
 20
0.0
 30
0.0
  3
*D3
  1

  0
LINE
  5
47
330
45
100
AcDbEntity
  8
-TEXT3
370
    -2
100
AcDbLine
 10
61.51082011653307
 20
254.8476516307606
 30
0.0
 11
56.9194950924275
 21
254.8476516307606
 31
0.0
  0
LINE
  5
48
330
45
100
AcDbEntity
  8
-TEXT3
370
    -2
100
AcDbLine
 10
61.51082011653307
 20
242.84765163076
 30
0.0
 11
56.9194950924275
 21
242.84765163076
 31
0.0
  0
LINE
  5
49
330
45
100
AcDbEntity
  8
-TEXT3
370
    -2
100
AcDbLine
 10
58.41949509242749
 20
251.3476516307606
 30
0.0
 11
58.41949509242749
 21
246.3476516307599
 31
0.0
  0
SOLID
  5
4A
330
45
100
AcDbEntity
  8
-TEXT3
100
AcDbTrace
 10
57.83616175909416
 20
251.3476516307606
 30
0.0
 11
59.00282842576083
 21
251.3476516307606
 31
0.0
 12
58.41949509242749
 22
254.8476516307606
 32
0.0
 13
58.41949509242749
 23
254.8476516307606
 33
0.0
  0
SOLID
  5
4B
330
45
100
AcDbEntity
  8
-TEXT3
100
AcDbTrace
 10
57.83616175909416
 20
246.3476516307599
 30
0.0
 11
59.00282842576083
 21
246.3476516307599
 31
0.0
 12
58.41949509242749
 22
242.84765163076
 32
0.0
 13
58.41949509242749
 23
242.84765163076
 33
0.0
  0
MTEXT
  5
4C
330
45
100
AcDbEntity
  8
-TEXT3
100
AcDbMText
 10
55.31888326373948
 20
248.8476516307603
 30
0.0
 40
4.0
 41
0.0
 71
     5
 72
     1
  1
\A1;G
 11
0.0000000000000001
 21
1.0
 31
0.0
 73
     1
 44
1.0
1001
ACAD
1000
MTEXTBEGIN
1070
    73
1070
     1
1070
    44
1040
1.0
1070
    74
1070
     0
1000
MTEXTEND
  0
POINT
  5
4D
330
45
100
AcDbEntity
  8
DEFPOINTS
 62
     0
100
AcDbPoint
 10
63.51082011653307
 20
254.8476516307606
 30
0.0
  0
POINT
  5
4E
330
45
100
AcDbEntity
  8
DEFPOINTS
 62
     0
100
AcDbPoint
 10
63.51082011653307
 20
242.84765163076
 30
0.0
  0
POINT
  5
4F
330
45
100
AcDbEntity
  8
DEFPOINTS
 62
     0
100
AcDbPoint
 10
58.41949509242749
 20
242.84765163076
 30
0.0
  0
ENDBLK
  5
50
330
45
100
AcDbEntity
  8
0
100
AcDbBlockEnd
  0
BLOCK
  5
2C
330
2B
100
AcDbEntity
  8
0
100
AcDbBlockBegin
  2
*D4
 70
     1
 10
0.0
 20
0.0
 30
0.0
  3
*D4
  1

  0
LINE
  5
2D
330
2B
100
AcDbEntity
  8
-TEXT3
370
    -2
100
AcDbLine
 10
97.21515760447955
 20
203.8476516307599
 30
0.0
 11
56.9194950924274
 21
203.8476516307599
 31
0.0
  0
LINE
  5
2E
330
2B
100
AcDbEntity
  8
-TEXT3
370
    -2
100
AcDbLine
 10
106.2306576044799
 20
173.8476516307598
 30
0.0
 11
56.91949509242739
 21
173.8476516307598
 31
0.0
  0
LINE
  5
2F
330
2B
100
AcDbEntity
  8
-TEXT3
370
    -2
100
AcDbLine
 10
58.4194950924274
 20
200.3476516307599
 30
0.0
 11
58.4194950924274
 21
177.3476516307598
 31
0.0
  0
SOLID
  5
30
330
2B
100
AcDbEntity
  8
-TEXT3
100
AcDbTrace
 10
57.83616175909407
 20
200.3476516307599
 30
0.0
 11
59.00282842576074
 21
200.3476516307599
 31
0.0
 12
58.4194950924274
 22
203.8476516307599
 32
0.0
 13
58.4194950924274
 23
203.8476516307599
 33
0.0
  0
SOLID
  5
31
330
2B
100
AcDbEntity
  8
-TEXT3
100
AcDbTrace
 10
57.83616175909407
 20
177.3476516307598
 30
0.0
 11
59.00282842576074
 21
177.3476516307598
 31
0.0
 12
58.4194950924274
 22
173.8476516307598
 32
0.0
 13
58.4194950924274
 23
173.8476516307598
 33
0.0
  0
MTEXT
  5
32
330
2B
100
AcDbEntity
  8
-TEXT3
100
AcDbMText
 10
55.41949509242737
 20
188.8476516307599
 30
0.0
 40
4.0
 41
0.0
 71
     5
 72
     1
  1
\A1;D
 11
0.0000000000000001
 21
1.0
 31
0.0
 73
     1
 44
1.0
1001
ACAD
1000
MTEXTBEGIN
1070
    73
1070
     1
1070
    44
1040
1.0
1070
    74
1070
     0
1000
MTEXTEND
  0
POINT
  5
33
330
2B
100
AcDbEntity
  8
DEFPOINTS
 62
     0
100
AcDbPoint
 10
99.21515760447954
 20
203.8476516307599
 30
0.0
  0
POINT
  5
34
330
2B
100
AcDbEntity
  8
DEFPOINTS
 62
     0
100
AcDbPoint
 10
108.2306576044799
 20
173.8476516307598
 30
0.0
  0
POINT
  5
35
330
2B
100
AcDbEntity
  8
DEFPOINTS
 62
     0
100
AcDbPoint
 10
58.4194950924274
 20
173.8476516307598
 30
0.0
  0
ENDBLK
  5
36
330
2B
100
AcDbEntity
  8
0
100
AcDbBlockEnd
  0
BLOCK
  5
BE
330
BD
100
AcDbEntity
  8
0
100
AcDbBlockBegin
  2
*D5
 70
     1
 10
0.0
 20
0.0
 30
0.0
  3
*D5
  1

  0
LINE
  5
BF
330
BD
100
AcDbEntity
  8
-TEXT3
370
    -2
100
AcDbLine
 10
98.21515760447955
 20
202.8476516307599
 30
0.0
 11
98.21515760447955
 21
193.3476516307603
 31
0.0
  0
LINE
  5
C0
330
BD
100
AcDbEntity
  8
-TEXT3
370
    -2
100
AcDbLine
 10
128.2151576044799
 20
202.8476516307603
 30
0.0
 11
128.2151576044799
 21
193.3476516307603
 31
0.0
  0
LINE
  5
C1
330
BD
100
AcDbEntity
  8
-TEXT3
370
    -2
100
AcDbLine
 10
101.7151576044795
 20
194.8476516307603
 30
0.0
 11
124.7151576044799
 21
194.8476516307603
 31
0.0
  0
SOLID
  5
C2
330
BD
100
AcDbEntity
  8
-TEXT3
100
AcDbTrace
 10
101.7151576044795
 20
195.4309849640936
 30
0.0
 11
101.7151576044795
 21
194.2643182974269
 31
0.0
 12
98.21515760447955
 22
194.8476516307603
 32
0.0
 13
98.21515760447955
 23
194.8476516307603
 33
0.0
  0
SOLID
  5
C3
330
BD
100
AcDbEntity
  8
-TEXT3
100
AcDbTrace
 10
124.7151576044799
 20
195.4309849640936
 30
0.0
 11
124.7151576044799
 21
194.2643182974269
 31
0.0
 12
128.2151576044799
 22
194.8476516307603
 32
0.0
 13
128.2151576044799
 23
194.8476516307603
 33
0.0
  0
MTEXT
  5
C4
330
BD
100
AcDbEntity
  8
-TEXT3
100
AcDbMText
 10
113.2151576044797
 20
198.0733484356549
 30
0.0
 40
4.0
 41
0.0
 71
     5
 72
     1
  1
\A1;%%c30
 73
     1
 44
1.0
1001
ACAD
1000
MTEXTBEGIN
1070
    73
1070
     1
1070
    44
1040
1.0
1070
    74
1070
     0
1000
MTEXTEND
  0
POINT
  5
C5
330
BD
100
AcDbEntity
  8
DEFPOINTS
 62
     0
100
AcDbPoint
 10
98.21515760447955
 20
204.8476516307599
 30
0.0
  0
POINT
  5
C6
330
BD
100
AcDbEntity
  8
DEFPOINTS
 62
     0
100
AcDbPoint
 10
128.2151576044799
 20
204.8476516307603
 30
0.0
  0
POINT
  5
C7
330
BD
100
AcDbEntity
  8
DEFPOINTS
 62
     0
100
AcDbPoint
 10
128.2151576044799
 20
194.8476516307603
 30
0.0
  0
ENDBLK
  5
C8
330
BD
100
AcDbEntity
  8
0
100
AcDbBlockEnd
  0
BLOCK
  5
6F
330
6E
100
AcDbEntity
  8
0
100
AcDbBlockBegin
  2
*D6
 70
     1
 10
0.0
 20
0.0
 30
0.0
  3
*D6
  1

  0
LINE
  5
70
330
6E
100
AcDbEntity
  8
-TEXT3
370
    -2
100
AcDbLine
 10
90.71515760447999
 20
256.847651630761
 30
0.0
 11
90.71515760447999
 21
272.0043921647569
 31
0.0
  0
LINE
  5
71
330
6E
100
AcDbEntity
  8
-TEXT3
370
    -2
100
AcDbLine
 10
135.7151576044825
 20
256.8476516307609
 30
0.0
 11
135.7151576044825
 21
272.0043921647569
 31
0.0
  0
LINE
  5
72
330
6E
100
AcDbEntity
  8
-TEXT3
370
    -2
100
AcDbLine
 10
94.21515760448
 20
270.504392164757
 30
0.0
 11
132.2151576044825
 21
270.504392164757
 31
0.0
  0
SOLID
  5
73
330
6E
100
AcDbEntity
  8
-TEXT3
100
AcDbTrace
 10
94.21515760448
 20
271.0877254980903
 30
0.0
 11
94.21515760448
 21
269.9210588314236
 31
0.0
 12
90.71515760447999
 22
270.504392164757
 32
0.0
 13
90.71515760447999
 23
270.504392164757
 33
0.0
  0
SOLID
  5
74
330
6E
100
AcDbEntity
  8
-TEXT3
100
AcDbTrace
 10
132.2151576044825
 20
271.0877254980903
 30
0.0
 11
132.2151576044825
 21
269.9210588314236
 31
0.0
 12
135.7151576044825
 22
270.504392164757
 32
0.0
 13
135.7151576044825
 23
270.504392164757
 33
0.0
  0
MTEXT
  5
75
330
6E
100
AcDbEntity
  8
-TEXT3
100
AcDbMText
 10
113.2151576044813
 20
273.7300889696516
 30
0.0
 40
4.0
 41
0.0
 71
     5
 72
     1
  1
\A1;%%c45
 73
     1
 44
1.0
1001
ACAD
1000
MTEXTBEGIN
1070
    73
1070
     1
1070
    44
1040
1.0
1070
    74
1070
     0
1000
MTEXTEND
  0
POINT
  5
76
330
6E
100
AcDbEntity
  8
DEFPOINTS
 62
     0
100
AcDbPoint
 10
90.71515760447999
 20
254.8476516307609
 30
0.0
  0
POINT
  5
77
330
6E
100
AcDbEntity
  8
DEFPOINTS
 62
     0
100
AcDbPoint
 10
135.7151576044825
 20
254.8476516307609
 30
0.0
  0
POINT
  5
78
330
6E
100
AcDbEntity
  8
DEFPOINTS
 62
     0
100
AcDbPoint
 10
135.7151576044825
 20
270.504392164757
 30
0.0
  0
ENDBLK
  5
79
330
6E
100
AcDbEntity
  8
0
100
AcDbBlockEnd
  0
BLOCK
  5
7C
330
7B
100
AcDbEntity
  8
0
100
AcDbBlockBegin
  2
*D7
 70
     1
 10
0.0
 20
0.0
 30
0.0
  3
*D7
  1

  0
LINE
  5
7D
330
7B
100
AcDbEntity
  8
-TEXT3
370
    -2
100
AcDbLine
 10
100.2151576044796
 20
256.8476516307604
 30
0.0
 11
100.2151576044796
 21
264.1463931436555
 31
0.0
  0
LINE
  5
7E
330
7B
100
AcDbEntity
  8
-TEXT3
370
    -2
100
AcDbLine
 10
126.2151576044796
 20
256.8476516307604
 30
0.0
 11
126.2151576044796
 21
264.1463931436555
 31
0.0
  0
LINE
  5
7F
330
7B
100
AcDbEntity
  8
-TEXT3
370
    -2
100
AcDbLine
 10
103.7151576044796
 20
262.6463931436555
 30
0.0
 11
122.7151576044796
 21
262.6463931436555
 31
0.0
  0
SOLID
  5
80
330
7B
100
AcDbEntity
  8
-TEXT3
100
AcDbTrace
 10
103.7151576044796
 20
263.2297264769888
 30
0.0
 11
103.7151576044796
 21
262.0630598103222
 31
0.0
 12
100.2151576044796
 22
262.6463931436555
 32
0.0
 13
100.2151576044796
 23
262.6463931436555
 33
0.0
  0
SOLID
  5
81
330
7B
100
AcDbEntity
  8
-TEXT3
100
AcDbTrace
 10
122.7151576044796
 20
263.2297264769888
 30
0.0
 11
122.7151576044796
 21
262.0630598103222
 31
0.0
 12
126.2151576044796
 22
262.6463931436555
 32
0.0
 13
126.2151576044796
 23
262.6463931436555
 33
0.0
  0
MTEXT
  5
82
330
7B
100
AcDbEntity
  8
-TEXT3
100
AcDbMText
 10
112.9679128930482
 20
265.8720899485501
 30
0.0
 40
4.0
 41
0.0
 71
     5
 72
     1
  1
\A1;%%c26
 73
     1
 44
1.0
1001
ACAD
1000
MTEXTBEGIN
1070
    73
1070
     1
1070
    44
1040
1.0
1070
    74
1070
     0
1000
MTEXTEND
  0
POINT
  5
83
330
7B
100
AcDbEntity
  8
DEFPOINTS
 62
     0
100
AcDbPoint
 10
100.2151576044796
 20
254.8476516307604
 30
0.0
  0
POINT
  5
84
330
7B
100
AcDbEntity
  8
DEFPOINTS
 62
     0
100
AcDbPoint
 10
126.2151576044796
 20
254.8476516307604
 30
0.0
  0
POINT
  5
85
330
7B
100
AcDbEntity
  8
DEFPOINTS
 62
     0
100
AcDbPoint
 10
126.2151576044796
 20
262.6463931436555
 30
0.0
  0
ENDBLK
  5
86
330
7B
100
AcDbEntity
  8
0
100
AcDbBlockEnd
  0
BLOCK
  5
F
330
E
100
AcDbEntity
  8
0
100
AcDbBlockBegin
  2
*D8
 70
     1
 10
0.0
 20
0.0
 30
0.0
  3
*D8
  1

  0
LINE
  5
10
330
E
100
AcDbEntity
  8
-TEXT3
370
    -2
100
AcDbLine
 10
107.2151576045279
 20
172.8631516307598
 30
0.0
 11
107.2151576045279
 21
157.9580303465235
 31
0.0
  0
LINE
  5
11
330
E
100
AcDbEntity
  8
-TEXT3
370
    -2
100
AcDbLine
 10
119.2151576044799
 20
172.8631516307598
 30
0.0
 11
119.2151576044799
 21
157.9580303465235
 31
0.0
  0
LINE
  5
12
330
E
100
AcDbEntity
  8
-TEXT3
370
    -2
100
AcDbLine
 10
110.7151576045279
 20
159.4580303465235
 30
0.0
 11
115.7151576044799
 21
159.4580303465235
 31
0.0
  0
LINE
  5
13
330
E
100
AcDbEntity
  8
-TEXT3
370
    -2
100
AcDbLine
 10
119.2151576044799
 20
159.4580303465235
 30
0.0
 11
158.5125743277974
 21
159.4580303465235
 31
0.0
  0
SOLID
  5
14
330
E
100
AcDbEntity
  8
-TEXT3
100
AcDbTrace
 10
110.7151576045279
 20
160.0413636798569
 30
0.0
 11
110.7151576045279
 21
158.8746970131902
 31
0.0
 12
107.2151576045279
 22
159.4580303465235
 32
0.0
 13
107.2151576045279
 23
159.4580303465235
 33
0.0
  0
SOLID
  5
15
330
E
100
AcDbEntity
  8
-TEXT3
100
AcDbTrace
 10
115.7151576044799
 20
160.0413636798569
 30
0.0
 11
115.7151576044799
 21
158.8746970131902
 31
0.0
 12
119.2151576044799
 22
159.4580303465235
 32
0.0
 13
119.2151576044799
 23
159.4580303465235
 33
0.0
  0
MTEXT
  5
16
330
E
100
AcDbEntity
  8
-TEXT3
100
AcDbMText
 10
140.6138659661387
 20
162.5586421752115
 30
0.0
 40
4.0
 41
0.0
 71
     5
 72
     1
  1
\A1;M12 od. M16
 73
     1
 44
1.0
1001
ACAD
1000
MTEXTBEGIN
1070
    73
1070
     1
1070
    44
1040
1.0
1070
    74
1070
     0
1000
MTEXTEND
  0
POINT
  5
17
330
E
100
AcDbEntity
  8
DEFPOINTS
 62
     0
100
AcDbPoint
 10
107.2151576045279
 20
174.8631516307598
 30
0.0
  0
POINT
  5
19
330
E
100
AcDbEntity
  8
DEFPOINTS
 62
     0
100
AcDbPoint
 10
119.2151576044799
 20
174.8631516307598
 30
0.0
  0
POINT
  5
1A
330
E
100
AcDbEntity
  8
DEFPOINTS
 62
     0
100
AcDbPoint
 10
119.2151576044799
 20
159.4580303465235
 30
0.0
  0
ENDBLK
  5
1B
330
E
100
AcDbEntity
  8
0
100
AcDbBlockEnd
  0
ENDSEC
  0
SECTION
  2
ENTITIES
  0
DIMENSION
  5
9
330
2
100
AcDbEntity
  8
-TEXT3
100
AcDbDimension
  2
*D8
 10
119.2151576044799
 20
159.4580303465235
 30
0.0
 11
140.6138659661387
 21
162.5586421752115
 31
0.0
  1
M<> od. M16
 71
     5
 42
11.99999999995202
  3
1-1PRO
100
AcDbAlignedDimension
 13
107.2151576045279
 23
174.8631516307598
 33
0.0
 14
119.2151576044799
 24
174.8631516307598
 34
0.0
100
AcDbRotatedDimension
  0
DIMENSION
  5
1C
330
2
100
AcDbEntity
  8
-TEXT3
100
AcDbDimension
  2
*D2
 10
58.41949509242753
 20
238.8476516307599
 30
0.0
 11
58.41949509242749
 21
240.8476516307599
 31
0.0
 70
   128
 71
     5
 42
4.000000000000085
  3
1-1PRO
100
AcDbAlignedDimension
 13
63.51082011653307
 23
242.84765163076
 33
0.0
 14
90.71515760448006
 24
238.8476516307598
 34
0.0
 50
90.0
100
AcDbRotatedDimension
  0
DIMENSION
  5
2A
330
2
100
AcDbEntity
  8
-TEXT3
100
AcDbDimension
  2
*D4
 10
58.4194950924274
 20
173.8476516307598
 30
0.0
 11
55.41949509242737
 21
188.8476516307599
 31
0.0
  1
D
 71
     5
 42
30.00000000000006
  3
1-1PRO
100
AcDbAlignedDimension
 13
99.21515760447954
 23
203.8476516307599
 33
0.0
 14
108.2306576044799
 24
173.8476516307598
 34
0.0
 50
270.0
100
AcDbRotatedDimension
1001
ACAD
1000
DSTYLE
1002
{
1002
}
  0
DIMENSION
  5
37
330
2
100
AcDbEntity
  8
-TEXT3
100
AcDbDimension
  2
*D0
 10
58.41949509242738
 20
203.8476516307599
 30
0.0
 11
55.31888326373938
 21
221.3476516307599
 31
0.0
 71
     5
 42
34.99999999999995
  3
1-1PRO
100
AcDbAlignedDimension
 13
77.91949509242726
 23
238.8476516307598
 33
0.0
 14
99.21515760447974
 24
203.8476516307599
 34
0.0
 50
90.0
100
AcDbRotatedDimension
  0
DIMENSION
  5
44
330
2
100
AcDbEntity
  8
-TEXT3
100
AcDbDimension
  2
*D3
 10
58.41949509242749
 20
242.84765163076
 30
0.0
 11
55.31888326373948
 21
248.8476516307603
 31
0.0
  1
G
 71
     5
 42
12.00000000000068
  3
1-1PRO
100
AcDbAlignedDimension
 13
63.51082011653307
 23
254.8476516307606
 33
0.0
 14
63.51082011653307
 24
242.84765163076
 34
0.0
 50
90.0
100
AcDbRotatedDimension
  0
LINE
  5
51
330
2
100
AcDbEntity
  8
-VERGLASUNG
100
AcDbLine
 10
66.25792837339076
 20
242.8476514186276
 30
0.0
 11
70.15180319301681
 21
246.7415262382536
 31
0.0
  0
LINE
  5
53
330
2
100
AcDbEntity
  8
-VERGLASUNG
100
AcDbLine
 10
67.82042837339076
 20
242.8476514186276
 30
0.0
 11
71.71430319301681
 21
246.7415262382536
 31
0.0
  0
LINE
  5
54
330
2
100
AcDbEntity
  8
-VERGLASUNG
100
AcDbLine
 10
66.16534293740006
 20
250.9537765990022
 30
0.0
 11
70.05921775702609
 21
254.8476514186283
 31
0.0
  0
LINE
  5
55
330
2
100
AcDbEntity
  8
-VERGLASUNG
100
AcDbLine
 10
63.04034293740006
 20
250.9537765990022
 30
0.0
 11
66.93421775702609
 21
254.8476514186283
 31
0.0
  0
LINE
  5
56
330
2
100
AcDbEntity
  8
-VERGLASUNG
100
AcDbLine
 10
64.60284293740006
 20
250.9537765990022
 30
0.0
 11
68.49671775702609
 21
254.8476514186283
 31
0.0
  0
LINE
  5
57
330
2
100
AcDbEntity
  8
-VERGLASUNG
100
AcDbLine
 10
69.38292837339076
 20
242.8476514186276
 30
0.0
 11
73.27680319301681
 21
246.7415262382535
 31
0.0
  0
LWPOLYLINE
  5
58
330
2
100
AcDbEntity
  8
-NORMTEIL
100
AcDbPolyline
 90
        6
 70
     0
 43
0.0
 10
107.2151576044799
 20
203.8476516307598
 10
107.2151576044799
 20
174.8631516307597
 10
108.2306576044799
 20
173.8476516307597
 10
118.1996576044804
 20
173.8476516307597
 10
119.2151576044799
 20
174.8631516307597
 10
119.2151576044799
 20
203.8476516307595
  0
LINE
  5
5A
330
2
100
AcDbEntity
  8
-NORMTEIL_VERDECKT
  6
Continuous
100
AcDbLine
 10
118.1996576044804
 20
173.8476516307598
 30
0.0
 11
118.1996576044804
 21
203.8476516307596
 31
0.0
  0
LINE
  5
5D
330
2
100
AcDbEntity
  8
-NORMTEIL_VERDECKT
  6
Continuous
100
AcDbLine
 10
108.2306576044799
 20
173.8476516307598
 30
0.0
 11
108.2306576044799
 21
203.8476516307599
 31
0.0
  0
LINE
  5
5E
330
2
100
AcDbEntity
  8
-SYSTEM
100
AcDbLine
 10
113.2151576044796
 20
259.4729705302724
 30
0.0
 11
113.2151576044798
 21
169.1372462624539
 31
0.0
  0
LINE
  5
61
330
2
100
AcDbEntity
  8
-NORMTEIL_VERDECKT
  6
Continuous
100
AcDbLine
 10
107.2151576044799
 20
174.8631516307598
 30
0.0
 11
119.2151576044799
 21
174.8631516307598
 31
0.0
  0
LINE
  5
62
330
2
100
AcDbEntity
  8
-NORMTEIL_VERDECKT
  6
Continuous
100
AcDbLine
 10
107.2151576044799
 20
174.8631516307598
 30
0.0
 11
119.2151576044799
 21
174.8631516307598
 31
0.0
  0
LINE
  5
63
330
2
100
AcDbEntity
  8
-NORMTEIL_VERDECKT
  6
Continuous
100
AcDbLine
 10
107.2151576044799
 20
174.8631516307598
 30
0.0
 11
119.2151576044799
 21
174.8631516307598
 31
0.0
  0
HATCH
  5
64
330
2
100
AcDbEntity
  8
-SCHRAFFUR
100
AcDbHatch
 10
0.0
 20
0.0
 30
0.0
210
0.0
220
0.0
230
1.0
  2
SOLID
 70
     1
 71
     1
 91
        1
 92
        1
 93
        4
 72
     1
 10
91.2151576044803
 20
238.8476516307598
 11
135.2151576044803
 21
238.8476516307597
 72
     1
 10
135.2151576044803
 20
238.8476516307597
 11
135.2151576044803
 21
242.8476516307597
 72
     1
 10
135.2151576044803
 20
242.8476516307597
 11
91.2151576044803
 21
242.8476516307598
 72
     1
 10
91.2151576044803
 20
242.8476516307598
 11
91.2151576044803
 21
238.8476516307598
 97
        1
330
6B
 75
     0
 76
     1
 98
        1
 10
-85.70904185703374
 20
341.4636459707176
  0
LWPOLYLINE
  5
66
330
2
100
AcDbEntity
  8
-NORMTEIL_VERDECKT
100
AcDbPolyline
 90
        4
 70
     0
 43
0.0
 10
116.8276576044794
 20
238.8476516307598
 10
122.2151576044795
 20
238.8476516307598
 10
122.2151576044795
 20
248.8476516307604
 10
109.7566576044796
 20
248.8476516307604
  0
LINE
  5
67
330
2
100
AcDbEntity
  8
-NORMTEIL_VERDECKT
100
AcDbLine
 10
101.1351576044803
 20
242.8476516307598
 30
0.0
 11
125.2951576044802
 21
242.8476516307598
 31
0.0
  0
LINE
  5
68
330
2
100
AcDbEntity
  8
-NORMTEIL_VERDECKT
100
AcDbLine
 10
101.1351576044796
 20
242.84765163076
 30
0.0
 11
125.2951576044795
 21
242.84765163076
 31
0.0
  0
LWPOLYLINE
  5
69
330
2
100
AcDbEntity
  8
-NORMTEIL_VERDECKT
100
AcDbPolyline
 90
        4
 70
     0
 43
0.0
 10
100.2151576044796
 20
254.8476516307604
 10
126.2151576044796
 20
254.8476516307604
 10
122.2151576044796
 20
250.8476516307604
 10
104.2151576044796
 20
250.8476516307604
  0
LINE
  5
6A
330
2
100
AcDbEntity
  8
-NORMTEIL_VERDECKT
100
AcDbLine
 10
96.13515760447979
 20
242.8476516307598
 30
0.0
 11
130.2951576044796
 21
242.8476516307598
 31
0.0
  0
LWPOLYLINE
  5
6B
102
{ACAD_REACTORS
330
64
102
}
330
2
100
AcDbEntity
  8
-DICHTUNG
100
AcDbPolyline
 90
        4
 70
     1
 43
0.0
 10
91.2151576044803
 20
238.8476516307598
 10
135.2151576044803
 20
238.8476516307597
 10
135.2151576044803
 20
242.8476516307597
 10
91.2151576044803
 20
242.8476516307598
  0
DIMENSION
  5
6D
330
2
100
AcDbEntity
  8
-TEXT3
100
AcDbDimension
  2
*D6
 10
135.7151576044825
 20
270.504392164757
 30
0.0
 11
113.2151576044813
 21
270.504392164757
 31
0.0
 70
   128
  1
%%c<>
 71
     5
 42
45.00000000000255
  3
1-1PRO
100
AcDbAlignedDimension
 13
90.71515760447999
 23
254.8476516307609
 33
0.0
 14
135.7151576044825
 24
254.8476516307609
 34
0.0
100
AcDbRotatedDimension
1001
ACAD
1000
DSTYLE
1002
{
1002
}
  0
DIMENSION
  5
7A
330
2
100
AcDbEntity
  8
-TEXT3
100
AcDbDimension
  2
*D7
 10
126.2151576044796
 20
262.6463931436555
 30
0.0
 11
112.9679128930482
 21
262.6463931436555
 31
0.0
 70
   128
  1
%%c<>
 71
     5
 42
26.0
  3
1-1PRO
100
AcDbAlignedDimension
 13
100.2151576044796
 23
254.8476516307604
 33
0.0
 14
126.2151576044796
 24
254.8476516307604
 34
0.0
100
AcDbRotatedDimension
1001
ACAD
1000
DSTYLE
1002
{
1002
}
  0
LWPOLYLINE
  5
87
330
2
100
AcDbEntity
  8
-NORMTEIL_VERDECKT
100
AcDbPolyline
 90
        7
 70
     0
 43
0.0
 10
100.2151576044796
 20
254.8476516307604
 10
97.38673047973339
 20
254.8476516307604
 10
102.2151576044796
 20
250.0192245060143
 10
102.2151576044796
 20
248.8476516307604
 10
104.2151576044796
 20
248.8476516307604
 10
104.2151576044796
 20
250.8476516307604
 10
100.2151576044796
 20
254.8476516307604
  0
LINE
  5
88
330
2
100
AcDbEntity
  8
-VERGLASUNG
100
AcDbLine
 10
91.74818532751329
 20
242.8476514893383
 30
0.0
 11
95.64206014713931
 21
246.7415263089643
 31
0.0
  0
LINE
  5
89
330
2
100
AcDbEntity
  8
-VERGLASUNG
100
AcDbLine
 10
90.18568532751329
 20
242.8476514893383
 30
0.0
 11
94.07956014713931
 21
246.7415263089643
 31
0.0
  0
LINE
  5
8A
330
2
100
AcDbEntity
  8
-VERGLASUNG
100
AcDbLine
 10
90.09309989152257
 20
250.9537766697129
 30
0.0
 11
93.98697471114861
 21
254.847651489339
 31
0.0
  0
LINE
  5
8B
330
2
100
AcDbEntity
  8
-VERGLASUNG
100
AcDbLine
 10
86.96809989152257
 20
250.9537766697129
 30
0.0
 11
90.86197471114861
 21
254.847651489339
 31
0.0
  0
LINE
  5
8C
330
2
100
AcDbEntity
  8
-VERGLASUNG
100
AcDbLine
 10
88.53059989152257
 20
250.9537766697129
 30
0.0
 11
92.42447471114861
 21
254.847651489339
 31
0.0
  0
LINE
  5
8D
330
2
100
AcDbEntity
  8
-NORMTEIL_VERDECKT
100
AcDbLine
 10
95.21515760448016
 20
242.8476516307598
 30
0.0
 11
101.1351576044803
 21
242.8476516307598
 31
0.0
  0
LINE
  5
8E
330
2
100
AcDbEntity
  8
-NORMTEIL_VERDECKT
100
AcDbLine
 10
95.21515760447949
 20
242.84765163076
 30
0.0
 11
101.1351576044796
 21
242.84765163076
 31
0.0
  0
LINE
  5
8F
330
2
100
AcDbEntity
  8
-VERGLASUNG
100
AcDbLine
 10
93.31068532751329
 20
242.8476514893383
 30
0.0
 11
97.20456014713931
 21
246.7415263089642
 31
0.0
  0
LWPOLYLINE
  5
90
330
2
100
AcDbEntity
  8
-NORMTEIL_VERDECKT
100
AcDbPolyline
 90
        4
 70
     0
 43
0.0
 10
109.7566576044796
 20
248.8476516307604
 10
104.2151576044795
 20
248.8476516307604
 10
104.2151576044795
 20
238.8476516307598
 10
116.8276576044794
 20
238.8476516307598
  0
LINE
  5
91
330
2
100
AcDbEntity
  8
-NORMTEIL_VERDECKT
100
AcDbLine
 10
107.9431764404517
 20
251.8476516307604
 30
0.0
 11
111.4431764404512
 21
251.8476516307604
 31
0.0
  0
LWPOLYLINE
  5
92
330
2
100
AcDbEntity
  8
-NORMTEIL_VERDECKT
100
AcDbPolyline
 90
        5
 70
     0
 43
0.0
 10
107.9431764404517
 20
254.8476516307604
 10
107.9431764404517
 20
251.8476516307604
 10
109.7151576044798
 20
250.8476516307604
 10
111.4431764404512
 20
251.8476516307604
 10
111.4431764404514
 20
254.8476516307604
  0
LWPOLYLINE
  5
93
330
2
100
AcDbEntity
  8
-NORMTEIL_VERDECKT
100
AcDbPolyline
 90
        4
 70
     1
 43
0.0
 10
104.2151576044795
 20
242.8476516307598
 10
102.7151576044796
 20
242.8476516307598
 10
102.7151576044795
 20
248.8476516307604
 10
104.2151576044795
 20
248.8476516307604
  0
LINE
  5
94
330
2
100
AcDbEntity
  8
-VERGLASUNG
100
AcDbLine
 10
133.3531929860835
 20
242.8476514186273
 30
0.0
 11
137.2470678057095
 21
246.7415262382534
 31
0.0
  0
LINE
  5
95
330
2
100
AcDbEntity
  8
-VERGLASUNG
100
AcDbLine
 10
131.7906929860835
 20
242.8476514186273
 30
0.0
 11
135.6845678057095
 21
246.7415262382534
 31
0.0
  0
LINE
  5
96
330
2
100
AcDbEntity
  8
-NORMTEIL_VERDECKT
100
AcDbLine
 10
136.2151576044798
 20
242.8476516307598
 30
0.0
 11
130.2951576044796
 21
242.8476516307598
 31
0.0
  0
LINE
  5
97
330
2
100
AcDbEntity
  8
-VERGLASUNG
100
AcDbLine
 10
131.6981075500928
 20
250.953776599002
 30
0.0
 11
135.5919823697188
 21
254.847651418628
 31
0.0
  0
LINE
  5
98
330
2
100
AcDbEntity
  8
-NORMTEIL_VERDECKT
100
AcDbLine
 10
131.2151576044804
 20
242.8476516307598
 30
0.0
 11
125.2951576044802
 21
242.8476516307598
 31
0.0
  0
LINE
  5
99
330
2
100
AcDbEntity
  8
-NORMTEIL_VERDECKT
100
AcDbLine
 10
131.2151576044797
 20
242.84765163076
 30
0.0
 11
125.2951576044795
 21
242.84765163076
 31
0.0
  0
LWPOLYLINE
  5
9A
330
2
100
AcDbEntity
  8
-NORMTEIL_VERDECKT
100
AcDbPolyline
 90
        7
 70
     0
 43
0.0
 10
126.2151576044796
 20
254.8476516307604
 10
129.0435847292258
 20
254.8476516307604
 10
124.2151576044796
 20
250.0192245060143
 10
124.2151576044796
 20
248.8476516307604
 10
122.2151576044796
 20
248.8476516307604
 10
122.2151576044796
 20
250.8476516307604
 10
126.2151576044796
 20
254.8476516307604
  0
LWPOLYLINE
  5
9B
330
2
100
AcDbEntity
  8
-NORMTEIL_VERDECKT
100
AcDbPolyline
 90
        5
 70
     0
 43
0.0
 10
118.4651576044796
 20
254.8476516307599
 10
118.4651576044796
 20
251.8476516307599
 10
120.2151576044796
 20
250.8476516307599
 10
121.9651576044796
 20
251.8476516307599
 10
121.9651576044796
 20
254.8476516307599
  0
LINE
  5
9C
330
2
100
AcDbEntity
  8
-NORMTEIL_VERDECKT
100
AcDbLine
 10
118.4651576044796
 20
251.8476516307599
 30
0.0
 11
121.9651576044796
 21
251.8476516307599
 31
0.0
  0
LWPOLYLINE
  5
9D
330
2
100
AcDbEntity
  8
-NORMTEIL_VERDECKT
100
AcDbPolyline
 90
        4
 70
     1
 43
0.0
 10
122.2151576044796
 20
242.8476516307598
 10
123.7151576044795
 20
242.8476516307598
 10
123.7151576044795
 20
248.8476516307604
 10
122.2151576044796
 20
248.8476516307604
  0
LINE
  5
9E
330
2
100
AcDbEntity
  8
-VERGLASUNG
100
AcDbLine
 10
128.5731075500928
 20
250.953776599002
 30
0.0
 11
132.4669823697188
 21
254.847651418628
 31
0.0
  0
LINE
  5
9F
330
2
100
AcDbEntity
  8
-VERGLASUNG
100
AcDbLine
 10
130.1356075500928
 20
250.953776599002
 30
0.0
 11
134.0294823697188
 21
254.847651418628
 31
0.0
  0
LINE
  5
A0
330
2
100
AcDbEntity
  8
-VERGLASUNG
100
AcDbLine
 10
134.9156929860835
 20
242.8476514186273
 30
0.0
 11
138.8095678057095
 21
246.7415262382533
 31
0.0
  0
LINE
  5
A1
330
2
100
AcDbEntity
  8
-VERGLASUNG
100
AcDbLine
 10
157.280949940206
 20
242.8476514893381
 30
0.0
 11
161.174824759832
 21
246.7415263089641
 31
0.0
  0
LINE
  5
A2
330
2
100
AcDbEntity
  8
-VERGLASUNG
100
AcDbLine
 10
155.718449940206
 20
242.8476514893381
 30
0.0
 11
159.612324759832
 21
246.7415263089641
 31
0.0
  0
LINE
  5
A3
330
2
100
AcDbEntity
  8
-VERGLASUNG
100
AcDbLine
 10
155.6258645042153
 20
250.9537766697127
 30
0.0
 11
159.5197393238413
 21
254.8476514893387
 31
0.0
  0
LINE
  5
A4
330
2
100
AcDbEntity
  8
-VERGLASUNG
100
AcDbLine
 10
152.5008645042153
 20
250.9537766697127
 30
0.0
 11
156.3947393238413
 21
254.8476514893387
 31
0.0
  0
LINE
  5
A5
330
2
100
AcDbEntity
  8
-VERGLASUNG
100
AcDbLine
 10
154.0633645042153
 20
250.9537766697127
 30
0.0
 11
157.9572393238413
 21
254.8476514893387
 31
0.0
  0
LINE
  5
A6
330
2
100
AcDbEntity
  8
-VERGLASUNG
100
AcDbLine
 10
158.843449940206
 20
242.8476514893381
 30
0.0
 11
162.737324759832
 21
246.741526308964
 31
0.0
  0
INSERT
  5
A7
330
2
100
AcDbEntity
  8
-TEXT3
100
AcDbBlockReference
  2
A$C12D21FE6
 10
109.2151576463411
 20
238.8476515695276
 30
0.0
  0
LINE
  5
AF
330
2
100
AcDbEntity
  8
-SYSTEM
100
AcDbLine
 10
116.1914558912527
 20
205.6212338304607
 30
0.0
 11
110.5314102876903
 21
259.4729705302724
 31
0.0
  0
LINE
  5
B0
330
2
100
AcDbEntity
  8
-SYSTEM
100
AcDbLine
 10
110.2388593177057
 20
205.6212338304607
 30
0.0
 11
115.898904921268
 21
259.4729705302724
 31
0.0
  0
LWPOLYLINE
  5
B1
330
2
100
AcDbEntity
  8
-PROFILAUSSENKANTET
100
AcDbPolyline
 90
        8
 70
     0
 43
0.0
 10
119.2151576044797
 20
203.8476516307599
 10
127.2151576044799
 20
203.8476516307599
 42
0.4142135623730951
 10
128.2151576044799
 20
204.8476516307599
 10
128.2151576044797
 20
220.7596116198886
 10
98.21515760447955
 20
220.7596116198893
 10
98.21515760447955
 20
204.8476516307599
 42
0.4142135623730951
 10
99.21515760447954
 20
203.8476516307599
 10
127.2151576044799
 20
203.8476516307599
  0
LWPOLYLINE
  5
B3
330
2
100
AcDbEntity
  8
-PROFILAUSSENKANTET
100
AcDbPolyline
 90
       14
 70
     1
 43
0.0
 10
90.71515760447955
 20
238.8476516307592
 10
90.71515760447955
 20
235.543664967714
 42
0.3137493583978978
 10
91.36784324865601
 20
234.6059162069903
 10
96.25710067195058
 20
231.5728579020666
 42
-0.359993514460832
 10
98.21515760447955
 20
228.7596116198954
 10
98.21515760447955
 20
225.759611619889
 10
128.2151576044797
 20
225.759611619889
 10
128.2151576044795
 20
228.759611619895
 42
-0.3599935144607482
 10
130.1732145370091
 20
231.5728579020663
 10
135.0624719603026
 20
234.6059162069901
 42
0.3137493583979866
 10
135.7151576044793
 20
235.5436649677137
 10
135.7151576044795
 20
238.8476516307592
 10
123.2151576044795
 20
238.8476516307592
 10
135.7151576044795
 20
238.8476516307592
  0
HATCH
  5
B4
330
2
100
AcDbEntity
  8
-SCHRAFFUR
100
AcDbHatch
 10
0.0
 20
0.0
 30
0.0
210
0.0
220
0.0
230
1.0
  2
SOLID
 70
     1
 71
     0
 91
        2
 92
        7
 72
     0
 73
     1
 93
        4
 10
113.2151576044792
 20
225.759611619889
 10
113.2151576044792
 20
220.7596116198889
 10
128.2151576044793
 20
220.7596116198889
 10
128.2151576044792
 20
225.7596116198889
 97
        0
 92
        7
 72
     0
 73
     1
 93
        4
 10
98.21515760447931
 20
225.759611619889
 10
98.2151576044793
 20
220.759611619889
 10
113.2151576044792
 20
220.7596116198889
 10
113.2151576044792
 20
225.7596116198889
 97
        0
 75
     0
 76
     1
 47
0.1941642972529525
 98
        2
 10
116.2134307428297
 20
223.4483050858444
 10
109.6078795029245
 20
223.4483050858444
  0
LWPOLYLINE
  5
B5
330
2
100
AcDbEntity
  8
-DICHTUNG
100
AcDbPolyline
 90
        4
 70
     1
 43
0.0
 10
98.21515760447931
 20
220.7596116198889
 10
128.2151576044793
 20
220.7596116198889
 10
128.2151576044793
 20
225.759611619889
 10
98.21515760447931
 20
225.759611619889
  0
LINE
  5
B6
330
2
100
AcDbEntity
  8
-PROFILAUSSENKANTET
100
AcDbLine
 10
122.2151576044797
 20
238.8476516307592
 30
0.0
 11
123.2151576044795
 21
238.8476516307592
 31
0.0
  0
LINE
  5
B7
330
2
100
AcDbEntity
  8
-SCHRAFFUR
100
AcDbLine
 10
90.71515760447955
 20
235.543664967714
 30
0.0
 11
135.7151576044793
 21
235.5436649677141
 31
0.0
  0
LINE
  5
B8
330
2
100
AcDbEntity
  8
-SCHRAFFUR
100
AcDbLine
 10
91.36784324865601
 20
234.6059162069903
 30
0.0
 11
135.0624719603026
 21
234.6059162069901
 31
0.0
  0
LINE
  5
B9
330
2
100
AcDbEntity
  8
-SCHRAFFUR
100
AcDbLine
 10
96.25710067195058
 20
231.5728579020666
 30
0.0
 11
130.1732145370091
 21
231.5728579020663
 31
0.0
  0
LINE
  5
BA
330
2
100
AcDbEntity
  8
-SCHRAFFUR
100
AcDbLine
 10
98.21515760447955
 20
228.7596116198954
 30
0.0
 11
128.2151576044795
 21
228.759611619895
 31
0.0
  0
LINE
  5
BB
330
2
100
AcDbEntity
  8
-SCHRAFFUR
100
AcDbLine
 10
98.21515760447955
 20
204.8476516307599
 30
0.0
 11
128.2151576044799
 21
204.8476516307603
 31
0.0
  0
DIMENSION
  5
BC
330
2
100
AcDbEntity
  8
-TEXT3
100
AcDbDimension
  2
*D5
 10
128.2151576044799
 20
194.8476516307603
 30
0.0
 11
113.2151576044797
 21
198.0733484356549
 31
0.0
  1
%%c<>
 71
     5
 42
30.0000000000004
  3
1-1PRO
100
AcDbAlignedDimension
 13
98.21515760447955
 23
204.8476516307599
 33
0.0
 14
128.2151576044799
 24
204.8476516307603
 34
0.0
100
AcDbRotatedDimension
  0
LINE
  5
C9
330
2
100
AcDbEntity
  8
-VERGLASUNG
100
AcDbLine
 10
179.6462068943285
 20
242.8476515600488
 30
0.0
 11
183.5400817139545
 21
246.7415263796748
 31
0.0
  0
LINE
  5
CA
330
2
100
AcDbEntity
  8
-VERGLASUNG
100
AcDbLine
 10
182.7712068943285
 20
242.8476515600488
 30
0.0
 11
186.6650817139545
 21
246.7415263796747
 31
0.0
  0
LINE
  5
CB
330
2
100
AcDbEntity
  8
-VERGLASUNG
100
AcDbLine
 10
181.2087068943285
 20
242.8476515600488
 30
0.0
 11
185.1025817139545
 21
246.7415263796748
 31
0.0
  0
LINE
  5
CC
330
2
100
AcDbEntity
  8
-VERGLASUNG
100
AcDbLine
 10
177.9911214583378
 20
250.9537767404234
 30
0.0
 11
181.8849962779638
 21
254.8476515600495
 31
0.0
  0
LINE
  5
CD
330
2
100
AcDbEntity
  8
-VERGLASUNG
100
AcDbLine
 10
179.5536214583378
 20
250.9537767404234
 30
0.0
 11
183.4474962779638
 21
254.8476515600495
 31
0.0
  0
LINE
  5
CE
330
2
100
AcDbEntity
  8
-VERGLASUNG
100
AcDbLine
 10
176.4286214583378
 20
250.9537767404234
 30
0.0
 11
180.3224962779638
 21
254.8476515600495
 31
0.0
  0
LWPOLYLINE
  5
CF
330
2
100
AcDbEntity
  8
-VERGLASUNG
100
AcDbPolyline
 90
        6
 70
     0
 43
0.0
 10
63.51082011653307
 20
254.8476516307606
 10
191.2151576044796
 20
254.84765163076
 10
193.2151576044796
 20
252.84765163076
 10
193.2151576044796
 20
244.8476516307596
 10
191.2151576044796
 20
242.8476516307596
 10
63.51082011653307
 20
242.84765163076
  0
LINE
  5
D0
330
2
100
AcDbEntity
  8
-SYSTEM
100
AcDbLine
 10
143.2117210141812
 20
62.10986930020061
 30
0.0
 11
83.21859419477837
 21
62.10986930020033
 31
0.0
  0
LWPOLYLINE
  5
D1
330
2
100
AcDbEntity
  8
-VERGLASUNG
100
AcDbPolyline
 90
        4
 70
     0
 43
0.0
 10
40.23766654358576
 20
142.1098693002001
 10
191.2151576044796
 20
142.1098693002003
 10
193.2151576044796
 20
140.1098693002003
 10
193.2151576044797
 20
10.13066314481435
  0
HATCH
  5
D2
330
2
100
AcDbEntity
  8
-SCHRAFFUR
100
AcDbHatch
 10
0.0
 20
0.0
 30
0.0
210
0.0
220
0.0
230
1.0
  2
SOLID
 70
     1
 71
     1
 91
        2
 92
       16
 93
        1
 72
     2
 10
113.2151576044797
 20
62.10986930020047
 40
13.0
 50
0.0
 51
360.0
 73
     1
 97
        1
330
D4
 92
        1
 93
        1
 72
     2
 10
113.2151576044797
 20
62.10986930020047
 40
15.82842712474638
 50
0.0
 51
360.0
 73
     1
 97
        1
330
D5
 75
     0
 76
     1
 98
        1
 10
0.9071391114525795
 20
6.847804359826142
  0
CIRCLE
  5
D3
330
2
100
AcDbEntity
  8
-PROFILAUSSENKANTET
100
AcDbCircle
 10
120.2151576044798
 20
62.10986930020052
 30
0.0
 40
1.75
  0
CIRCLE
  5
D4
102
{ACAD_REACTORS
330
D2
102
}
330
2
100
AcDbEntity
  8
-PROFILAUSSENKANTET
100
AcDbCircle
 10
113.2151576044797
 20
62.10986930020047
 30
0.0
 40
13.0
  0
CIRCLE
  5
D5
102
{ACAD_REACTORS
330
D2
102
}
330
2
100
AcDbEntity
  8
-DICHTUNG
100
AcDbCircle
 10
113.2151576044797
 20
62.10986930020047
 30
0.0
 40
15.82842712474638
  0
LINE
  5
D6
330
2
100
AcDbEntity
  8
-SYSTEM
100
AcDbLine
 10
113.2151576044796
 20
92.10643270990189
 30
0.0
 11
113.2151576044799
 21
32.11330589049908
 31
0.0
  0
CIRCLE
  5
D7
330
2
100
AcDbEntity
  8
-PROFILAUSSENKANTET
100
AcDbCircle
 10
109.7151576044798
 20
56.04769147370942
 30
0.0
 40
1.75
  0
CIRCLE
  5
D8
330
2
100
AcDbEntity
  8
-PROFILAUSSENKANTET
100
AcDbCircle
 10
109.7151576044797
 20
68.17204712669155
 30
0.0
 40
1.75
  0
LWPOLYLINE
  5
D9
330
2
100
AcDbEntity
  8
-TEXT2
100
AcDbPolyline
 90
        3
 70
     1
 43
0.0
 10
170.995605644543
 20
142.1098693002002
 10
175.1295430072041
 20
149.2700588476364
 10
166.861668281882
 20
149.2700588476364
  0
MTEXT
  5
DB
330
2
100
AcDbEntity
  8
-TEXT2
100
AcDbMText
 10
162.39229333213
 20
154.3290862667458
 30
0.0
 40
3.5
 41
17.9978
 71
     1
 72
     5
  1
{\fArial|b0|i0|c0|p34;Glaskante}
 73
     1
 44
1.0
1001
ACAD
1000
MTEXTBEGIN
1070
    73
1070
     1
1070
    44
1040
1.0
1070
    74
1070
     0
1000
MTEXTEND
  0
CIRCLE
  5
DC
330
2
100
AcDbEntity
  8
-NORMTEIL_VERDECKT
100
AcDbCircle
 10
113.2151576044797
 20
62.10986930020047
 30
0.0
 40
22.5
  0
ENDSEC
  0
SECTION
  2
OBJECTS
  0
DICTIONARY
  5
7
330
0
100
AcDbDictionary
281
     1
  3
ACAD_COLOR
350
F5
  3
ACAD_GROUP
350
F1
  3
ACAD_LAYOUT
350
DF
  3
ACAD_MATERIAL
350
F4
  3
ACAD_MLINESTYLE
350
F2
  3
ACAD_PLOTSETTINGS
350
F3
  3
ACAD_PLOTSTYLENAME
350
6
  3
ACDBHEADERROUNDTRIPXREC
350
FB
  3
AcDbVariableDictionary
350
F7
  0
DICTIONARY
  5
F5
102
{ACAD_REACTORS
330
7
102
}
330
7
100
AcDbDictionary
281
     1
  0
DICTIONARY
  5
F1
102
{ACAD_REACTORS
330
7
102
}
330
7
100
AcDbDictionary
281
     1
  0
DICTIONARY
  5
DF
102
{ACAD_REACTORS
330
7
102
}
330
7
100
AcDbDictionary
281
     1
  3
Layout1
350
E3
  3
Model
350
DE
  0
DICTIONARY
  5
F4
102
{ACAD_REACTORS
330
7
102
}
330
7
100
AcDbDictionary
281
     1
  0
DICTIONARY
  5
F2
102
{ACAD_REACTORS
330
7
102
}
330
7
100
AcDbDictionary
281
     1
  3
STANDARD
350
F6
  0
DICTIONARY
  5
F3
102
{ACAD_REACTORS
330
7
102
}
330
7
100
AcDbDictionary
281
     1
  0
ACDBDICTIONARYWDFLT
  5
6
102
{ACAD_REACTORS
330
7
102
}
330
7
100
AcDbDictionary
281
     1
  3
Normal
350
5
100
AcDbDictionaryWithDefault
340
5
  0
DICTIONARY
  5
FB
102
{ACAD_REACTORS
330
7
102
}
330
7
100
AcDbDictionary
281
     1
  3
COLORDICT
350
FD
  3
MATERIALDICT
350
FC
  0
DICTIONARY
  5
F7
102
{ACAD_REACTORS
330
7
102
}
330
7
100
AcDbDictionary
281
     1
  3
DIMASSOC
350
F9
  3
HIDETEXT
350
F8
  3
PROJECTNAME
350
FA
  0
LAYOUT
  5
E3
102
{ACAD_XDICTIONARY
360
102
102
}
102
{ACAD_REACTORS
330
DF
102
}
330
DF
100
AcDbPlotSettings
  1

  2
HP DeskJet 1120C Printer
  4

  6

 40
0.0
 41
0.0
 42
0.0
 43
0.0
 44
0.0
 45
0.0
 46
0.0
 47
0.0
 48
0.0
 49
0.0
140
0.0
141
0.0
142
1.0
143
1.0
 70
   688
 72
     0
 73
     0
 74
     5
  7
monochrome.ctb
 75
    16
147
1.0
148
0.0
149
0.0
100
AcDbLayout
  1
Layout1
 70
     1
 71
     1
 10
0.0
 20
0.0
 11
12.0
 21
9.0
 12
0.0
 22
0.0
 32
0.0
 14
1.000000000000000E+20
 24
1.000000000000000E+20
 34
1.000000000000000E+20
 15
-1.000000000000000E+20
 25
-1.000000000000000E+20
 35
-1.000000000000000E+20
146
0.0
 13
0.0
 23
0.0
 33
0.0
 16
1.0
 26
0.0
 36
0.0
 17
0.0
 27
1.0
 37
0.0
 76
     0
330
E0
  0
LAYOUT
  5
DE
102
{ACAD_XDICTIONARY
360
100
102
}
102
{ACAD_REACTORS
330
DF
102
}
330
DF
100
AcDbPlotSettings
  1

  2
HP DeskJet 1120C Printer
  4

  6

 40
0.0
 41
0.0
 42
0.0
 43
0.0
 44
0.0
 45
0.0
 46
0.0
 47
0.0
 48
0.0
 49
0.0
140
0.0
141
0.0
142
1.0
143
1.0
 70
  1712
 72
     0
 73
     0
 74
     0
  7
monochrome.ctb
 75
     0
147
1.0
148
0.0
149
0.0
100
AcDbLayout
  1
Model
 70
     1
 71
     0
 10
0.0
 20
0.0
 11
12.0
 21
9.0
 12
0.0
 22
0.0
 32
0.0
 14
0.0
 24
0.0
 34
0.0
 15
0.0
 25
0.0
 35
0.0
146
0.0
 13
0.0
 23
0.0
 33
0.0
 16
1.0
 26
0.0
 36
0.0
 17
0.0
 27
1.0
 37
0.0
 76
     0
330
2
  0
MLINESTYLE
  5
F6
102
{ACAD_REACTORS
330
F2
102
}
330
F2
100
AcDbMlineStyle
  2
STANDARD
 70
     0
  3

 62
     0
 51
90.0
 52
90.0
 71
     2
 49
0.5
 62
   256
  6
BYLAYER
 49
-0.5
 62
   256
  6
BYLAYER
  0
ACDBPLACEHOLDER
  5
5
102
{ACAD_REACTORS
330
6
102
}
330
6
  0
XRECORD
  5
FD
102
{ACAD_REACTORS
330
FB
102
}
330
FB
100
AcDbXrecord
280
     1
340
F5
  0
XRECORD
  5
FC
102
{ACAD_REACTORS
330
FB
102
}
330
FB
100
AcDbXrecord
280
     1
340
F4
  0
DICTIONARYVAR
  5
F9
102
{ACAD_REACTORS
330
F7
102
}
330
F7
100
DictionaryVariables
280
     0
  1
1
  0
DICTIONARYVAR
  5
F8
102
{ACAD_REACTORS
330
F7
102
}
330
F7
100
DictionaryVariables
280
     0
  1
1
  0
DICTIONARYVAR
  5
FA
102
{ACAD_REACTORS
330
F7
102
}
330
F7
100
DictionaryVariables
280
     0
  1

  0
DICTIONARY
  5
102
330
E3
100
AcDbDictionary
280
     1
281
     1
  3
ACAD_XREC_ROUNDTRIP
360
103
  0
DICTIONARY
  5
100
330
DE
100
AcDbDictionary
280
     1
281
     1
  3
ACAD_XREC_ROUNDTRIP
360
101
  0
XRECORD
  5
103
102
{ACAD_REACTORS
330
102
102
}
330
102
100
AcDbXrecord
280
     1
102
SHADEPLOT
 70
     0
102
SHADEPLOTRESLEVEL
 70
     2
102
SHADEPLOTCUSTOMDPI
 70
   300
  0
XRECORD
  5
101
102
{ACAD_REACTORS
330
100
102
}
330
100
100
AcDbXrecord
280
     1
102
SHADEPLOT
 70
     0
102
SHADEPLOTRESLEVEL
 70
     2
102
SHADEPLOTCUSTOMDPI
 70
   300
  0
ENDSEC
  0
EOF
