  0
SECTION
  2
HEADER
  9
$ACADVER
  1
AC1015
  9
$ACADMAINTVER
 70
    18
  9
$DWGCODEPAGE
  3
ANSI_1252
  9
$INSBASE
 10
421.1785771780096
 20
450.2667582667103
 30
0.0
  9
$EXTMIN
 10
1.000000000000000E+20
 20
1.000000000000000E+20
 30
1.000000000000000E+20
  9
$EXTMAX
 10
0.0
 20
0.0
 30
0.0
  9
$LIMMIN
 10
0.0
 20
0.0
  9
$LIMMAX
 10
420.0
 20
297.0
  9
$ORTHOMODE
 70
     1
  9
$REGENMODE
 70
     1
  9
$FILLMODE
 70
     1
  9
$QTEXTMODE
 70
     0
  9
$MIRRTEXT
 70
     1
  9
$LTSCALE
 40
2.5
  9
$ATTMODE
 70
     1
  9
$TEXTSIZE
 40
2.5
  9
$TRACEWID
 40
1.0
  9
$TEXTSTYLE
  7
STANDARD
  9
$CLAYER
  8
-PROFILAUSSENKANTET
  9
$CELTYPE
  6
BYLAYER
  9
$CECOLOR
 62
   256
  9
$CELTSCALE
 40
1.0
  9
$DISPSILH
 70
     0
  9
$DIMSCALE
 40
96.0
  9
$DIMASZ
 40
2.0
  9
$DIMEXO
 40
2.0
  9
$DIMDLI
 40
2.0
  9
$DIMRND
 40
0.0
  9
$DIMDLE
 40
0.0
  9
$DIMEXE
 40
1.0
  9
$DIMTP
 40
0.0
  9
$DIMTM
 40
0.0
  9
$DIMTXT
 40
5.0
  9
$DIMCEN
 40
0.09
  9
$DIMTSZ
 40
0.0
  9
$DIMTOL
 70
     0
  9
$DIMLIM
 70
     0
  9
$DIMTIH
 70
     0
  9
$DIMTOH
 70
     0
  9
$DIMSE1
 70
     0
  9
$DIMSE2
 70
     0
  9
$DIMTAD
 70
     1
  9
$DIMZIN
 70
     9
  9
$DIMBLK
  1

  9
$DIMASO
 70
     1
  9
$DIMSHO
 70
     1
  9
$DIMPOST
  1

  9
$DIMAPOST
  1

  9
$DIMALT
 70
     0
  9
$DIMALTD
 70
     2
  9
$DIMALTF
 40
25.4
  9
$DIMLFAC
 40
1.0
  9
$DIMTOFL
 70
     0
  9
$DIMTVP
 40
0.0
  9
$DIMTIX
 70
     0
  9
$DIMSOXD
 70
     0
  9
$DIMSAH
 70
     0
  9
$DIMBLK1
  1

  9
$DIMBLK2
  1

  9
$DIMSTYLE
  2
1-1
  9
$DIMCLRD
 70
     2
  9
$DIMCLRE
 70
     2
  9
$DIMCLRT
 70
     3
  9
$DIMTFAC
 40
1.0
  9
$DIMGAP
 40
1.0
  9
$DIMJUST
 70
     0
  9
$DIMSD1
 70
     0
  9
$DIMSD2
 70
     0
  9
$DIMTOLJ
 70
     1
  9
$DIMTZIN
 70
     0
  9
$DIMALTZ
 70
     0
  9
$DIMALTTZ
 70
     0
  9
$DIMUPT
 70
     0
  9
$DIMDEC
 70
     1
  9
$DIMTDEC
 70
     1
  9
$DIMALTU
 70
     2
  9
$DIMALTTD
 70
     2
  9
$DIMTXSTY
  7
STANDARD
  9
$DIMAUNIT
 70
     0
  9
$DIMADEC
 70
     0
  9
$DIMALTRND
 40
0.0
  9
$DIMAZIN
 70
     0
  9
$DIMDSEP
 70
    46
  9
$DIMATFIT
 70
     2
  9
$DIMFRAC
 70
     0
  9
$DIMLDRBLK
  1

  9
$DIMLUNIT
 70
     2
  9
$DIMLWD
 70
    -2
  9
$DIMLWE
 70
    -2
  9
$DIMTMOVE
 70
     0
  9
$LUNITS
 70
     2
  9
$LUPREC
 70
     4
  9
$SKETCHINC
 40
1.0
  9
$FILLETRAD
 40
0.0
  9
$AUNITS
 70
     0
  9
$AUPREC
 70
     2
  9
$MENU
  1
.
  9
$ELEVATION
 40
0.0
  9
$PELEVATION
 40
0.0
  9
$THICKNESS
 40
0.0
  9
$LIMCHECK
 70
     0
  9
$CHAMFERA
 40
10.0
  9
$CHAMFERB
 40
10.0
  9
$CHAMFERC
 40
20.0
  9
$CHAMFERD
 40
0.0
  9
$SKPOLY
 70
     0
  9
$TDCREATE
 40
2452087.408717245
  9
$TDUCREATE
 40
2452087.367050579
  9
$TDUPDATE
 40
2453410.495297801
  9
$TDUUPDATE
 40
2453410.453631134
  9
$TDINDWG
 40
0.4620756597
  9
$TDUSRTIMER
 40
0.4620756597
  9
$USRTIMER
 70
     1
  9
$ANGBASE
 50
0.0
  9
$ANGDIR
 70
     0
  9
$PDMODE
 70
     0
  9
$PDSIZE
 40
0.0
  9
$PLINEWID
 40
0.0
  9
$SPLFRAME
 70
     0
  9
$SPLINETYPE
 70
     6
  9
$SPLINESEGS
 70
     8
  9
$HANDSEED
  5
1B4
  9
$SURFTAB1
 70
     6
  9
$SURFTAB2
 70
     6
  9
$SURFTYPE
 70
     6
  9
$SURFU
 70
     6
  9
$SURFV
 70
     6
  9
$UCSBASE
  2

  9
$UCSNAME
  2

  9
$UCSORG
 10
0.0
 20
0.0
 30
0.0
  9
$UCSXDIR
 10
1.0
 20
0.0
 30
0.0
  9
$UCSYDIR
 10
0.0
 20
1.0
 30
0.0
  9
$UCSORTHOREF
  2

  9
$UCSORTHOVIEW
 70
     0
  9
$UCSORGTOP
 10
0.0
 20
0.0
 30
0.0
  9
$UCSORGBOTTOM
 10
0.0
 20
0.0
 30
0.0
  9
$UCSORGLEFT
 10
0.0
 20
0.0
 30
0.0
  9
$UCSORGRIGHT
 10
0.0
 20
0.0
 30
0.0
  9
$UCSORGFRONT
 10
0.0
 20
0.0
 30
0.0
  9
$UCSORGBACK
 10
0.0
 20
0.0
 30
0.0
  9
$PUCSBASE
  2

  9
$PUCSNAME
  2

  9
$PUCSORG
 10
0.0
 20
0.0
 30
0.0
  9
$PUCSXDIR
 10
1.0
 20
0.0
 30
0.0
  9
$PUCSYDIR
 10
0.0
 20
1.0
 30
0.0
  9
$PUCSORTHOREF
  2

  9
$PUCSORTHOVIEW
 70
     0
  9
$PUCSORGTOP
 10
0.0
 20
0.0
 30
0.0
  9
$PUCSORGBOTTOM
 10
0.0
 20
0.0
 30
0.0
  9
$PUCSORGLEFT
 10
0.0
 20
0.0
 30
0.0
  9
$PUCSORGRIGHT
 10
0.0
 20
0.0
 30
0.0
  9
$PUCSORGFRONT
 10
0.0
 20
0.0
 30
0.0
  9
$PUCSORGBACK
 10
0.0
 20
0.0
 30
0.0
  9
$USERI1
 70
     0
  9
$USERI2
 70
     0
  9
$USERI3
 70
     0
  9
$USERI4
 70
     0
  9
$USERI5
 70
     0
  9
$USERR1
 40
0.0
  9
$USERR2
 40
0.0
  9
$USERR3
 40
0.0
  9
$USERR4
 40
0.0
  9
$USERR5
 40
0.0
  9
$WORLDVIEW
 70
     1
  9
$SHADEDGE
 70
     3
  9
$SHADEDIF
 70
    70
  9
$TILEMODE
 70
     1
  9
$MAXACTVP
 70
    48
  9
$PINSBASE
 10
0.0
 20
0.0
 30
0.0
  9
$PLIMCHECK
 70
     0
  9
$PEXTMIN
 10
0.0
 20
0.0
 30
0.0
  9
$PEXTMAX
 10
1189.0
 20
841.0
 30
0.0
  9
$PLIMMIN
 10
0.0
 20
0.0
  9
$PLIMMAX
 10
420.0
 20
297.0
  9
$UNITMODE
 70
     0
  9
$VISRETAIN
 70
     1
  9
$PLINEGEN
 70
     0
  9
$PSLTSCALE
 70
     1
  9
$TREEDEPTH
 70
  3020
  9
$CMLSTYLE
  2
STANDARD
  9
$CMLJUST
 70
     0
  9
$CMLSCALE
 40
1.0
  9
$PROXYGRAPHICS
 70
     1
  9
$MEASUREMENT
 70
     0
  9
$CELWEIGHT
370
    -1
  9
$ENDCAPS
280
     0
  9
$JOINSTYLE
280
     0
  9
$LWDISPLAY
290
     0
  9
$INSUNITS
 70
     4
  9
$HYPERLINKBASE
  1

  9
$STYLESHEET
  1

  9
$XEDIT
290
     1
  9
$CEPSNTYPE
380
     0
  9
$PSTYLEMODE
290
     1
  9
$FINGERPRINTGUID
  2
{9588F985-4B3C-4C9C-BEE4-2544F6211083}
  9
$VERSIONGUID
  2
{6FF1D7D0-018B-4D1A-96FD-D29A442508AA}
  9
$EXTNAMES
290
     1
  9
$PSVPSCALE
 40
0.0
  9
$OLESTARTUP
290
     0
  0
ENDSEC
  0
SECTION
  2
CLASSES
  0
CLASS
  1
DICTIONARYVAR
  2
AcDbDictionaryVar
  3
ObjectDBX Classes
 90
        0
280
     0
281
     0
  0
CLASS
  1
ACDBDICTIONARYWDFLT
  2
AcDbDictionaryWithDefault
  3
ObjectDBX Classes
 90
        0
280
     0
281
     0
  0
CLASS
  1
ACDBPLACEHOLDER
  2
AcDbPlaceHolder
  3
ObjectDBX Classes
 90
        0
280
     0
281
     0
  0
CLASS
  1
LAYOUT
  2
AcDbLayout
  3
ObjectDBX Classes
 90
        0
280
     0
281
     0
  0
CLASS
  1
AEC_VARS_DWG_SETUP
  2
AecDbVarsDwgSetup
  3
AecBase40|Product Desc: Autodesk Architectural Desktop 2004 |Company: Autodesk,Inc. |WEB Address: www.autodesk.com
 90
    32897
280
     0
281
     0
  0
CLASS
  1
AEC_DISP_REP_CONFIG
  2
AecDbDispRepConfig
  3
AecBase40|Product Desc: Autodesk Architectural Desktop 2004 |Company: Autodesk,Inc. |WEB Address: www.autodesk.com
 90
    32897
280
     0
281
     0
  0
CLASS
  1
AEC_DISP_REP_SET
  2
AecDbDispRepSet
  3
AecBase40|Product Desc: Autodesk Architectural Desktop 2004 |Company: Autodesk,Inc. |WEB Address: www.autodesk.com
 90
    32897
280
     0
281
     0
  0
CLASS
  1
AEC_DISP_REP_2D_SECTION
  2
AecDbDispRep2dSection
  3
AecBase40|Product Desc: Autodesk Architectural Desktop 2004 |Company: Autodesk,Inc. |WEB Address: www.autodesk.com
 90
    32897
280
     0
281
     0
  0
CLASS
  1
AEC_DISP_REP_ANCHOR_BUB_TO_GRID
  2
AecDbDispRepAnchorBubToGrid
  3
AecStructureBase40|Product Desc: Autodesk Architectural Desktop 2004 |Company: Autodesk,Inc. |WEB Address: www.autodesk.com
 90
    32897
280
     0
281
     0
  0
CLASS
  1
AEC_DISP_REP_ANCHOR_BUB_TO_GRID_MODEL
  2
AecDbDispRepAnchorBubToGridMdl
  3
AecStructureBase40|Product Desc: Autodesk Architectural Desktop 2004 |Company: Autodesk,Inc. |WEB Address: www.autodesk.com
 90
    32897
280
     0
281
     0
  0
CLASS
  1
AEC_DISP_REP_ANCHOR_ENT_TO_NODE
  2
AecDbDispRepAnchorEntToNode
  3
AecBase40|Product Desc: Autodesk Architectural Desktop 2004 |Company: Autodesk,Inc. |WEB Address: www.autodesk.com
 90
    32897
280
     0
281
     0
  0
CLASS
  1
AEC_DISP_REP_AREA
  2
AecDbDispRepArea
  3
AecAreaCalculationBase40|Product Desc: Autodesk Architectural Desktop 2004 |Company: Autodesk,Inc. |WEB Address: www.autodesk.com
 90
    32897
280
     0
281
     0
  0
CLASS
  1
AEC_DISP_REP_AREAGROUP
  2
AecDbDispRepAreaGroup
  3
AecAreaCalculationBase40|Product Desc: Autodesk Architectural Desktop 2004 |Company: Autodesk,Inc. |WEB Address: www.autodesk.com
 90
    32897
280
     0
281
     0
  0
CLASS
  1
AEC_DISP_REP_BDG_ELEVLINE_MODEL
  2
AecDbDispRepBdgElevLineModel
  3
AecArchBase40|Product Desc: Autodesk Architectural Desktop 2004 |Company: Autodesk,Inc. |WEB Address: www.autodesk.com
 90
    32897
280
     0
281
     0
  0
CLASS
  1
AEC_DISP_REP_BDG_ELEVLINE_PLAN
  2
AecDbDispRepBdgElevLinePlan
  3
AecArchBase40|Product Desc: Autodesk Architectural Desktop 2004 |Company: Autodesk,Inc. |WEB Address: www.autodesk.com
 90
    32897
280
     0
281
     0
  0
CLASS
  1
AEC_DISP_REP_BDG_SECTIONLINE_MODEL
  2
AecDbDispRepBdgSectionLineModel
  3
AecArchBase40|Product Desc: Autodesk Architectural Desktop 2004 |Company: Autodesk,Inc. |WEB Address: www.autodesk.com
 90
    32897
280
     0
281
     0
  0
CLASS
  1
AEC_DISP_REP_BDG_SECTIONLINE_PLAN
  2
AecDbDispRepBdgSectionLinePlan
  3
AecArchBase40|Product Desc: Autodesk Architectural Desktop 2004 |Company: Autodesk,Inc. |WEB Address: www.autodesk.com
 90
    32897
280
     0
281
     0
  0
CLASS
  1
AEC_DISP_REP_BDG_SECTION_SUBDIV
  2
AecDbDispRepBdgSectionSubDiv
  3
AecArchBase40|Product Desc: Autodesk Architectural Desktop 2004 |Company: Autodesk,Inc. |WEB Address: www.autodesk.com
 90
    32897
280
     0
281
     0
  0
CLASS
  1
AEC_DISP_REP_CAMERA
  2
AecDbDispRepCamera
  3
AecBase40|Product Desc: Autodesk Architectural Desktop 2004 |Company: Autodesk,Inc. |WEB Address: www.autodesk.com
 90
    32897
280
     0
281
     0
  0
CLASS
  1
AEC_DISP_REP_CEILING_GRID
  2
AecDbDispRepCeilingGrid
  3
AecArchBase40|Product Desc: Autodesk Architectural Desktop 2004 |Company: Autodesk,Inc. |WEB Address: www.autodesk.com
 90
    33661
280
     0
281
     0
  0
CLASS
  1
AEC_DISP_REP_CEILING_GRID_MODEL
  2
AecDbDispRepCeilingGridModel
  3
AecArchBase40|Product Desc: Autodesk Architectural Desktop 2004 |Company: Autodesk,Inc. |WEB Address: www.autodesk.com
 90
    32897
280
     0
281
     0
  0
CLASS
  1
AEC_DISP_REP_CLIP_VOLUME_MODEL
  2
AecDbDispRepClipVolModel
  3
AecBase40|Product Desc: Autodesk Architectural Desktop 2004 |Company: Autodesk,Inc. |WEB Address: www.autodesk.com
 90
    32897
280
     0
281
     0
  0
CLASS
  1
AEC_DISP_REP_CLIP_VOLUME_PLAN
  2
AecDbDispRepClipVolPlan
  3
AecBase40|Product Desc: Autodesk Architectural Desktop 2004 |Company: Autodesk,Inc. |WEB Address: www.autodesk.com
 90
    32897
280
     0
281
     0
  0
CLASS
  1
AEC_DISP_REP_CLIP_VOLUME_RESULT_SUBDIV
  2
AecDbDispRepClipVolResSubDiv
  3
AecBase40|Product Desc: Autodesk Architectural Desktop 2004 |Company: Autodesk,Inc. |WEB Address: www.autodesk.com
 90
    32897
280
     0
281
     0
  0
CLASS
  1
AEC_DISP_REP_COLUMN_GRID
  2
AecDbDispRepColumnGrid
  3
AecStructureBase40|Product Desc: Autodesk Architectural Desktop 2004 |Company: Autodesk,Inc. |WEB Address: www.autodesk.com
 90
    32897
280
     0
281
     0
  0
CLASS
  1
AEC_DISP_REP_COLUMN_GRID_MODEL
  2
AecDbDispRepColumnGridModel
  3
AecStructureBase40|Product Desc: Autodesk Architectural Desktop 2004 |Company: Autodesk,Inc. |WEB Address: www.autodesk.com
 90
    32897
280
     0
281
     0
  0
CLASS
  1
AEC_DISP_REP_CURTAIN_WALL_LAYOUT_MODEL
  2
AecDbDispRepCurtainWallLayoutModel
  3
AecArchBase40|Product Desc: Autodesk Architectural Desktop 2004 |Company: Autodesk,Inc. |WEB Address: www.autodesk.com
 90
    32897
280
     0
281
     0
  0
CLASS
  1
AEC_DISP_REP_CURTAIN_WALL_LAYOUT_PLAN
  2
AecDbDispRepCurtainWallLayoutPlan
  3
AecArchBase40|Product Desc: Autodesk Architectural Desktop 2004 |Company: Autodesk,Inc. |WEB Address: www.autodesk.com
 90
    32897
280
     0
281
     0
  0
CLASS
  1
AEC_DISP_REP_CURTAIN_WALL_UNIT_MODEL
  2
AecDbDispRepCurtainWallUnitModel
  3
AecArchBase40|Product Desc: Autodesk Architectural Desktop 2004 |Company: Autodesk,Inc. |WEB Address: www.autodesk.com
 90
    32897
280
     0
281
     0
  0
CLASS
  1
AEC_DISP_REP_CURTAIN_WALL_UNIT_PLAN
  2
AecDbDispRepCurtainWallUnitPlan
  3
AecArchBase40|Product Desc: Autodesk Architectural Desktop 2004 |Company: Autodesk,Inc. |WEB Address: www.autodesk.com
 90
    32897
280
     0
281
     0
  0
CLASS
  1
AEC_DB_DISP_REP_DIM_GROUP_PLAN
  2
AecDbDispRepDimGroupPlan
  3
AecArchDACHBase40|Product Desc: Autodesk Architectural Desktop 2004 |Company: Autodesk,Inc. |WEB Address: www.autodesk.com
 90
    32897
280
     0
281
     0
  0
CLASS
  1
AEC_DISP_REP_DOOR_MODEL
  2
AecDbDispRepDoorModel
  3
AecArchBase40|Product Desc: Autodesk Architectural Desktop 2004 |Company: Autodesk,Inc. |WEB Address: www.autodesk.com
 90
    32897
280
     0
281
     0
  0
CLASS
  1
AEC_DISP_REP_DOOR_PLAN
  2
AecDbDispRepDoorPlan
  3
AecArchBase40|Product Desc: Autodesk Architectural Desktop 2004 |Company: Autodesk,Inc. |WEB Address: www.autodesk.com
 90
    32897
280
     0
281
     0
  0
CLASS
  1
AEC_DISP_REP_DOOR_THRESHOLD_PLAN
  2
AecDbDispRepDoorThresholdPlan
  3
AecArchBase40|Product Desc: Autodesk Architectural Desktop 2004 |Company: Autodesk,Inc. |WEB Address: www.autodesk.com
 90
    32897
280
     0
281
     0
  0
CLASS
  1
AEC_DISP_REP_EDITINPLACEPROFILE
  2
AecDbDispRepEditInPlaceProfile
  3
AecBase40|Product Desc: Autodesk Architectural Desktop 2004 |Company: Autodesk,Inc. |WEB Address: www.autodesk.com
 90
    32897
280
     0
281
     0
  0
CLASS
  1
AEC_DISP_REP_ENT_REF
  2
AecDbDispRepEntRef
  3
AecBase40|Product Desc: Autodesk Architectural Desktop 2004 |Company: Autodesk,Inc. |WEB Address: www.autodesk.com
 90
    32897
280
     0
281
     0
  0
CLASS
  1
AEC_DISP_REP_LAYOUT_CURVE
  2
AecDbDispRepLayoutCurve
  3
AecBase40|Product Desc: Autodesk Architectural Desktop 2004 |Company: Autodesk,Inc. |WEB Address: www.autodesk.com
 90
    32897
280
     0
281
     0
  0
CLASS
  1
AEC_DISP_REP_LAYOUT_GRID2D
  2
AecDbDispRepLayoutGrid2d
  3
AecBase40|Product Desc: Autodesk Architectural Desktop 2004 |Company: Autodesk,Inc. |WEB Address: www.autodesk.com
 90
    32897
280
     0
281
     0
  0
CLASS
  1
AEC_DISP_REP_LAYOUT_GRID3D
  2
AecDbDispRepLayoutGrid3d
  3
AecBase40|Product Desc: Autodesk Architectural Desktop 2004 |Company: Autodesk,Inc. |WEB Address: www.autodesk.com
 90
    32897
280
     0
281
     0
  0
CLASS
  1
AEC_DISP_REP_MASKBLOCK_REF
  2
AecDbDispRepMaskBlockRef
  3
AecBase40|Product Desc: Autodesk Architectural Desktop 2004 |Company: Autodesk,Inc. |WEB Address: www.autodesk.com
 90
    32897
280
     0
281
     0
  0
CLASS
  1
AEC_DISP_REP_MASS_ELEM_MODEL
  2
AecDbDispRepMassElemModel
  3
AecBase40|Product Desc: Autodesk Architectural Desktop 2004 |Company: Autodesk,Inc. |WEB Address: www.autodesk.com
 90
    32897
280
     0
281
     0
  0
CLASS
  1
AEC_DISP_REP_MASS_ELEM_SCHEM
  2
AecDbDispRepMassElemSchem
  3
AecBase40|Product Desc: Autodesk Architectural Desktop 2004 |Company: Autodesk,Inc. |WEB Address: www.autodesk.com
 90
    32897
280
     0
281
     0
  0
CLASS
  1
AEC_DISP_REP_MASS_GROUP_MODEL
  2
AecDbDispRepMassGroupModel
  3
AecBase40|Product Desc: Autodesk Architectural Desktop 2004 |Company: Autodesk,Inc. |WEB Address: www.autodesk.com
 90
    32897
280
     0
281
     0
  0
CLASS
  1
AEC_DISP_REP_MASS_GROUP_PLAN
  2
AecDbDispRepMassGroupPlan
  3
AecBase40|Product Desc: Autodesk Architectural Desktop 2004 |Company: Autodesk,Inc. |WEB Address: www.autodesk.com
 90
    32897
280
     0
281
     0
  0
CLASS
  1
AEC_DISP_REP_MATERIAL
  2
AecDbDispRepMaterial
  3
AecBase40|Product Desc: Autodesk Architectural Desktop 2004 |Company: Autodesk,Inc. |WEB Address: www.autodesk.com
 90
    32897
280
     0
281
     0
  0
CLASS
  1
AEC_DISP_REP_MVBLOCK_REF
  2
AecDbDispRepMvBlockRef
  3
AecBase40|Product Desc: Autodesk Architectural Desktop 2004 |Company: Autodesk,Inc. |WEB Address: www.autodesk.com
 90
    32897
280
     0
281
     0
  0
CLASS
  1
AEC_DISP_REP_MVBLOCK_REF_MODEL
  2
AecDbDispRepMvBlockRefModel
  3
AecBase40|Product Desc: Autodesk Architectural Desktop 2004 |Company: Autodesk,Inc. |WEB Address: www.autodesk.com
 90
    32897
280
     0
281
     0
  0
CLASS
  1
AEC_DISP_REP_OPENING
  2
AecDbDispRepOpening
  3
AecArchBase40|Product Desc: Autodesk Architectural Desktop 2004 |Company: Autodesk,Inc. |WEB Address: www.autodesk.com
 90
    32897
280
     0
281
     0
  0
CLASS
  1
AEC_DISP_REP_OPENING_MODEL
  2
AecDbDispRepOpeningModel
  3
AecArchBase40|Product Desc: Autodesk Architectural Desktop 2004 |Company: Autodesk,Inc. |WEB Address: www.autodesk.com
 90
    32897
280
     0
281
     0
  0
CLASS
  1
AEC_DISP_REP_POLYGON_MODEL
  2
AecDbDispRepPolygonModel
  3
AecBase40|Product Desc: Autodesk Architectural Desktop 2004 |Company: Autodesk,Inc. |WEB Address: www.autodesk.com
 90
    32897
280
     0
281
     0
  0
CLASS
  1
AEC_DISP_REP_RAILING_MODEL
  2
AecDbDispRepRailingModel
  3
AecArchBase40|Product Desc: Autodesk Architectural Desktop 2004 |Company: Autodesk,Inc. |WEB Address: www.autodesk.com
 90
    32897
280
     0
281
     0
  0
CLASS
  1
AEC_DISP_REP_RAILING_PLAN
  2
AecDbDispRepRailingPlan
  3
AecArchBase40|Product Desc: Autodesk Architectural Desktop 2004 |Company: Autodesk,Inc. |WEB Address: www.autodesk.com
 90
    32897
280
     0
281
     0
  0
CLASS
  1
AEC_DISP_REP_ROOF_MODEL
  2
AecDbDispRepRoofModel
  3
AecArchBase40|Product Desc: Autodesk Architectural Desktop 2004 |Company: Autodesk,Inc. |WEB Address: www.autodesk.com
 90
    32897
280
     0
281
     0
  0
CLASS
  1
AEC_DISP_REP_ROOF_PLAN
  2
AecDbDispRepRoofPlan
  3
AecArchBase40|Product Desc: Autodesk Architectural Desktop 2004 |Company: Autodesk,Inc. |WEB Address: www.autodesk.com
 90
    32897
280
     0
281
     0
  0
CLASS
  1
AEC_DISP_REP_ROOFSLAB_MODEL
  2
AecDbDispRepRoofSlabModel
  3
AecArchBase40|Product Desc: Autodesk Architectural Desktop 2004 |Company: Autodesk,Inc. |WEB Address: www.autodesk.com
 90
    32897
280
     0
281
     0
  0
CLASS
  1
AEC_DISP_REP_ROOFSLAB_PLAN
  2
AecDbDispRepRoofSlabPlan
  3
AecArchBase40|Product Desc: Autodesk Architectural Desktop 2004 |Company: Autodesk,Inc. |WEB Address: www.autodesk.com
 90
    32897
280
     0
281
     0
  0
CLASS
  1
AEC_DISP_REP_SCHEDULE_TABLE
  2
AecDbDispRepScheduleTable
  3
AecSchedule40|Product Desc: Autodesk Architectural Desktop 2004 |Company: Autodesk,Inc. |WEB Address: www.autodesk.com
 90
    32897
280
     0
281
     0
  0
CLASS
  1
AEC_DISP_REP_SLAB_MODEL
  2
AecDbDispRepSlabModel
  3
AecArchBase40|Product Desc: Autodesk Architectural Desktop 2004 |Company: Autodesk,Inc. |WEB Address: www.autodesk.com
 90
    32897
280
     0
281
     0
  0
CLASS
  1
AEC_DISP_REP_SLAB_PLAN
  2
AecDbDispRepSlabPlan
  3
AecArchBase40|Product Desc: Autodesk Architectural Desktop 2004 |Company: Autodesk,Inc. |WEB Address: www.autodesk.com
 90
    32897
280
     0
281
     0
  0
CLASS
  1
AEC_DISP_REP_SLICE
  2
AecDbDispRepSlice
  3
AecBase40|Product Desc: Autodesk Architectural Desktop 2004 |Company: Autodesk,Inc. |WEB Address: www.autodesk.com
 90
    32897
280
     0
281
     0
  0
CLASS
  1
AEC_DISP_REP_SPACE_BOUNDARY_MODEL
  2
AecDbDispRepSpaceBoundaryModel
  3
AecArchBase40|Product Desc: Autodesk Architectural Desktop 2004 |Company: Autodesk,Inc. |WEB Address: www.autodesk.com
 90
    32897
280
     0
281
     0
  0
CLASS
  1
AEC_DISP_REP_SPACE_BOUNDARY_PLAN
  2
AecDbDispRepSpaceBoundaryPlan
  3
AecArchBase40|Product Desc: Autodesk Architectural Desktop 2004 |Company: Autodesk,Inc. |WEB Address: www.autodesk.com
 90
    32897
280
     0
281
     0
  0
CLASS
  1
AEC_DISP_REP_SPACE_MODEL
  2
AecDbDispRepSpaceModel
  3
AecArchBase40|Product Desc: Autodesk Architectural Desktop 2004 |Company: Autodesk,Inc. |WEB Address: www.autodesk.com
 90
    32897
280
     0
281
     0
  0
CLASS
  1
AEC_DISP_REP_SPACE_PLAN
  2
AecDbDispRepSpacePlan
  3
AecArchBase40|Product Desc: Autodesk Architectural Desktop 2004 |Company: Autodesk,Inc. |WEB Address: www.autodesk.com
 90
    32897
280
     0
281
     0
  0
CLASS
  1
AEC_DISP_REP_STAIR_MODEL
  2
AecDbDispRepStairModel
  3
AecArchBase40|Product Desc: Autodesk Architectural Desktop 2004 |Company: Autodesk,Inc. |WEB Address: www.autodesk.com
 90
    32897
280
     0
281
     0
  0
CLASS
  1
AEC_DISP_REP_STAIR_PLAN
  2
AecDbDispRepStairPlan
  3
AecArchBase40|Product Desc: Autodesk Architectural Desktop 2004 |Company: Autodesk,Inc. |WEB Address: www.autodesk.com
 90
    32897
280
     0
281
     0
  0
CLASS
  1
AEC_DISP_REP_WALL_MODEL
  2
AecDbDispRepWallModel
  3
AecArchBase40|Product Desc: Autodesk Architectural Desktop 2004 |Company: Autodesk,Inc. |WEB Address: www.autodesk.com
 90
    32897
280
     0
281
     0
  0
CLASS
  1
AEC_DISP_REP_WALL_PLAN
  2
AecDbDispRepWallPlan
  3
AecArchBase40|Product Desc: Autodesk Architectural Desktop 2004 |Company: Autodesk,Inc. |WEB Address: www.autodesk.com
 90
    32897
280
     0
281
     0
  0
CLASS
  1
AEC_DISP_REP_WINDOW_ASSEMBLY_MODEL
  2
AecDbDispRepWindowAssemblyModel
  3
AecArchBase40|Product Desc: Autodesk Architectural Desktop 2004 |Company: Autodesk,Inc. |WEB Address: www.autodesk.com
 90
    32897
280
     0
281
     0
  0
CLASS
  1
AEC_DISP_REP_WINDOW_ASSEMBLY_PLAN
  2
AecDbDispRepWindowAssemblyPlan
  3
AecArchBase40|Product Desc: Autodesk Architectural Desktop 2004 |Company: Autodesk,Inc. |WEB Address: www.autodesk.com
 90
    32897
280
     0
281
     0
  0
CLASS
  1
AEC_DISP_REP_WINDOW_MODEL
  2
AecDbDispRepWindowModel
  3
AecArchBase40|Product Desc: Autodesk Architectural Desktop 2004 |Company: Autodesk,Inc. |WEB Address: www.autodesk.com
 90
    32897
280
     0
281
     0
  0
CLASS
  1
AEC_DISP_REP_WINDOW_PLAN
  2
AecDbDispRepWindowPlan
  3
AecArchBase40|Product Desc: Autodesk Architectural Desktop 2004 |Company: Autodesk,Inc. |WEB Address: www.autodesk.com
 90
    32897
280
     0
281
     0
  0
CLASS
  1
AEC_DISP_REP_WINDOW_SILL_PLAN
  2
AecDbDispRepWindowSillPlan
  3
AecArchBase40|Product Desc: Autodesk Architectural Desktop 2004 |Company: Autodesk,Inc. |WEB Address: www.autodesk.com
 90
    32897
280
     0
281
     0
  0
CLASS
  1
AECS_DISP_REP_MEMBER_MODEL_DESIGN
  2
AecsDbDispRepMemberModelDesign
  3
AecStructureBase40|Product Desc: Autodesk Architectural Desktop 2004 |Company: Autodesk,Inc. |WEB Address: www.autodesk.com
 90
    32897
280
     0
281
     0
  0
CLASS
  1
AECS_DISP_REP_MEMBER_PLAN_DESIGN
  2
AecsDbDispRepMemberPlanDesign
  3
AecStructureBase40|Product Desc: Autodesk Architectural Desktop 2004 |Company: Autodesk,Inc. |WEB Address: www.autodesk.com
 90
    32897
280
     0
281
     0
  0
CLASS
  1
AEC_DISP_PROPS_CAMERA
  2
AecDbDispPropsCamera
  3
AecBase40|Product Desc: Autodesk Architectural Desktop 2004 |Company: Autodesk,Inc. |WEB Address: www.autodesk.com
 90
    32897
280
     0
281
     0
  0
CLASS
  1
AEC_DISP_PROPS_LAYOUT_GRID2D
  2
AecDbDispPropsLayoutGrid2d
  3
AecBase40|Product Desc: Autodesk Architectural Desktop 2004 |Company: Autodesk,Inc. |WEB Address: www.autodesk.com
 90
    32897
280
     0
281
     0
  0
CLASS
  1
AEC_DISP_PROPS_OPENING
  2
AecDbDispPropsOpening
  3
AecArchBase40|Product Desc: Autodesk Architectural Desktop 2004 |Company: Autodesk,Inc. |WEB Address: www.autodesk.com
 90
    32897
280
     0
281
     0
  0
CLASS
  1
AEC_DISP_PROPS_MASS_GROUP
  2
AecDbDispPropsMassGroup
  3
AecBase40|Product Desc: Autodesk Architectural Desktop 2004 |Company: Autodesk,Inc. |WEB Address: www.autodesk.com
 90
    32897
280
     0
281
     0
  0
CLASS
  1
AEC_DISP_PROPS_ROOFSLAB
  2
AecDbDispPropsRoofSlab
  3
AecArchBase40|Product Desc: Autodesk Architectural Desktop 2004 |Company: Autodesk,Inc. |WEB Address: www.autodesk.com
 90
    32897
280
     0
281
     0
  0
CLASS
  1
AEC_DISP_PROPS_STAIR_MODEL
  2
AecDbDispPropsStairModel
  3
AecArchBase40|Product Desc: Autodesk Architectural Desktop 2004 |Company: Autodesk,Inc. |WEB Address: www.autodesk.com
 90
    32897
280
     0
281
     0
  0
CLASS
  1
AEC_DISP_PROPS_ENT
  2
AecDbDispPropsEnt
  3
AecBase40|Product Desc: Autodesk Architectural Desktop 2004 |Company: Autodesk,Inc. |WEB Address: www.autodesk.com
 90
    32897
280
     0
281
     0
  0
CLASS
  1
AEC_DISP_PROPS_CLIP_VOLUME
  2
AecDbDispPropsClipVol
  3
AecBase40|Product Desc: Autodesk Architectural Desktop 2004 |Company: Autodesk,Inc. |WEB Address: www.autodesk.com
 90
    32897
280
     0
281
     0
  0
CLASS
  1
AEC_DISP_PROPS_STAIR_PLAN
  2
AecDbDispPropsStairPlan
  3
AecArchBase40|Product Desc: Autodesk Architectural Desktop 2004 |Company: Autodesk,Inc. |WEB Address: www.autodesk.com
 90
    32897
280
     0
281
     0
  0
CLASS
  1
AEC_DISP_PROPS_CLIP_VOLUME_RESULT
  2
AecDbDispPropsClipVolResSubDiv
  3
AecBase40|Product Desc: Autodesk Architectural Desktop 2004 |Company: Autodesk,Inc. |WEB Address: www.autodesk.com
 90
    32897
280
     0
281
     0
  0
CLASS
  1
AEC_DISP_PROPS_SPACE_MODEL
  2
AecDbDispPropsSpaceModel
  3
AecArchBase40|Product Desc: Autodesk Architectural Desktop 2004 |Company: Autodesk,Inc. |WEB Address: www.autodesk.com
 90
    32897
280
     0
281
     0
  0
CLASS
  1
AEC_DISP_PROPS_2D_SECTION
  2
AecDbDispProps2dSection
  3
AecBase40|Product Desc: Autodesk Architectural Desktop 2004 |Company: Autodesk,Inc. |WEB Address: www.autodesk.com
 90
    32897
280
     0
281
     0
  0
CLASS
  1
AEC_DISP_PROPS_DOOR_THRESHOLD_PLAN
  2
AecDbDispPropsDoorThresholdPlan
  3
AecArchBase40|Product Desc: Autodesk Architectural Desktop 2004 |Company: Autodesk,Inc. |WEB Address: www.autodesk.com
 90
    32897
280
     0
281
     0
  0
CLASS
  1
AEC_DISP_PROPS_POLYGON_MODEL
  2
AecDbDispPropsPolygonModel
  3
AecBase40|Product Desc: Autodesk Architectural Desktop 2004 |Company: Autodesk,Inc. |WEB Address: www.autodesk.com
 90
    32897
280
     0
281
     0
  0
CLASS
  1
AEC_DISP_PROPS_GRID_ASSEMBLY_MODEL
  2
AecDbDispPropsGridAssemblyModel
  3
AecArchBase40|Product Desc: Autodesk Architectural Desktop 2004 |Company: Autodesk,Inc. |WEB Address: www.autodesk.com
 90
    32897
280
     0
281
     0
  0
CLASS
  1
AEC_DISP_PROPS_AREA
  2
AecDbDispPropsArea
  3
AecAreaCalculationBase40|Product Desc: Autodesk Architectural Desktop 2004 |Company: Autodesk,Inc. |WEB Address: www.autodesk.com
 90
    32897
280
     0
281
     0
  0
CLASS
  1
AEC_DISP_PROPS_SPACE_PLAN
  2
AecDbDispPropsSpacePlan
  3
AecArchBase40|Product Desc: Autodesk Architectural Desktop 2004 |Company: Autodesk,Inc. |WEB Address: www.autodesk.com
 90
    32897
280
     0
281
     0
  0
CLASS
  1
AEC_DISP_PROPS_GRID_ASSEMBLY_PLAN
  2
AecDbDispPropsGridAssemblyPlan
  3
AecArchBase40|Product Desc: Autodesk Architectural Desktop 2004 |Company: Autodesk,Inc. |WEB Address: www.autodesk.com
 90
    32897
280
     0
281
     0
  0
CLASS
  1
AEC_DISP_PROPS_WINDOW
  2
AecDbDispPropsWindow
  3
AecArchBase40|Product Desc: Autodesk Architectural Desktop 2004 |Company: Autodesk,Inc. |WEB Address: www.autodesk.com
 90
    32897
280
     0
281
     0
  0
CLASS
  1
AEC_DISP_PROPS_ROOFSLAB_PLAN
  2
AecDbDispPropsRoofSlabPlan
  3
AecArchBase40|Product Desc: Autodesk Architectural Desktop 2004 |Company: Autodesk,Inc. |WEB Address: www.autodesk.com
 90
    32897
280
     0
281
     0
  0
CLASS
  1
AEC_DISP_PROPS_SLAB_PLAN
  2
AecDbDispPropsSlabPlan
  3
AecArchBase40|Product Desc: Autodesk Architectural Desktop 2004 |Company: Autodesk,Inc. |WEB Address: www.autodesk.com
 90
    32897
280
     0
281
     0
  0
CLASS
  1
AEC_DISP_PROPS_ROOF
  2
AecDbDispPropsRoof
  3
AecArchBase40|Product Desc: Autodesk Architectural Desktop 2004 |Company: Autodesk,Inc. |WEB Address: www.autodesk.com
 90
    32897
280
     0
281
     0
  0
CLASS
  1
AEC_DISP_PROPS_WALL_MODEL
  2
AecDbDispPropsWallModel
  3
AecArchBase40|Product Desc: Autodesk Architectural Desktop 2004 |Company: Autodesk,Inc. |WEB Address: www.autodesk.com
 90
    32897
280
     0
281
     0
  0
CLASS
  1
AEC_DISP_PROPS_AREAGROUP
  2
AecDbDispPropsAreaGroup
  3
AecAreaCalculationBase40|Product Desc: Autodesk Architectural Desktop 2004 |Company: Autodesk,Inc. |WEB Address: www.autodesk.com
 90
    32897
280
     0
281
     0
  0
CLASS
  1
AEC_DISP_PROPS_WALL_PLAN
  2
AecDbDispPropsWallPlan
  3
AecArchBase40|Product Desc: Autodesk Architectural Desktop 2004 |Company: Autodesk,Inc. |WEB Address: www.autodesk.com
 90
    32897
280
     0
281
     0
  0
CLASS
  1
AEC_DISP_PROPS_DOOR
  2
AecDbDispPropsDoor
  3
AecArchBase40|Product Desc: Autodesk Architectural Desktop 2004 |Company: Autodesk,Inc. |WEB Address: www.autodesk.com
 90
    32897
280
     0
281
     0
  0
CLASS
  1
AEC_DISP_PROPS_ENT_REF
  2
AecDbDispPropsEntRef
  3
AecBase40|Product Desc: Autodesk Architectural Desktop 2004 |Company: Autodesk,Inc. |WEB Address: www.autodesk.com
 90
    32897
280
     0
281
     0
  0
CLASS
  1
AECS_DISP_PROPS_MEMBER
  2
AecsDbDispPropsMember
  3
AecStructureBase40|Product Desc: Autodesk Architectural Desktop 2004 |Company: Autodesk,Inc. |WEB Address: www.autodesk.com
 90
    32897
280
     0
281
     0
  0
CLASS
  1
AEC_DISP_PROPS_RAILING_MODEL
  2
AecDbDispPropsRailingModel
  3
AecArchBase40|Product Desc: Autodesk Architectural Desktop 2004 |Company: Autodesk,Inc. |WEB Address: www.autodesk.com
 90
    32897
280
     0
281
     0
  0
CLASS
  1
AEC_DISP_PROPS_MASS_ELEM_MODEL
  2
AecDbDispPropsMassElem
  3
AecBase40|Product Desc: Autodesk Architectural Desktop 2004 |Company: Autodesk,Inc. |WEB Address: www.autodesk.com
 90
    32897
280
     0
281
     0
  0
CLASS
  1
AECS_DISP_PROPS_MEMBER_PLAN
  2
AecsDbDispPropsMemberPlan
  3
AecStructureBase40|Product Desc: Autodesk Architectural Desktop 2004 |Company: Autodesk,Inc. |WEB Address: www.autodesk.com
 90
    32897
280
     0
281
     0
  0
CLASS
  1
AEC_DISP_PROPS_EDITINPLACEPROFILE_MODEL
  2
AecDbDispPropsEditInPlaceProfile
  3
AecBase40|Product Desc: Autodesk Architectural Desktop 2004 |Company: Autodesk,Inc. |WEB Address: www.autodesk.com
 90
    32897
280
     0
281
     0
  0
CLASS
  1
AEC_DISP_PROPS_WINDOW_SILL_PLAN
  2
AecDbDispPropsWindowSillPlan
  3
AecArchBase40|Product Desc: Autodesk Architectural Desktop 2004 |Company: Autodesk,Inc. |WEB Address: www.autodesk.com
 90
    32897
280
     0
281
     0
  0
CLASS
  1
AEC_DISP_PROPS_MATERIAL
  2
AecDbDispPropsMaterial
  3
AecBase40|Product Desc: Autodesk Architectural Desktop 2004 |Company: Autodesk,Inc. |WEB Address: www.autodesk.com
 90
    32897
280
     0
281
     0
  0
CLASS
  1
AEC_DISP_PROPS_MASKBLOCK
  2
AecDbDispPropsMaskBlock
  3
AecBase40|Product Desc: Autodesk Architectural Desktop 2004 |Company: Autodesk,Inc. |WEB Address: www.autodesk.com
 90
    32897
280
     0
281
     0
  0
CLASS
  1
AEC_DISP_PROPS_SLAB
  2
AecDbDispPropsSlab
  3
AecArchBase40|Product Desc: Autodesk Architectural Desktop 2004 |Company: Autodesk,Inc. |WEB Address: www.autodesk.com
 90
    32897
280
     0
281
     0
  0
CLASS
  1
AEC_DISP_PROPS_SLICE
  2
AecDbDispPropsSlice
  3
AecBase40|Product Desc: Autodesk Architectural Desktop 2004 |Company: Autodesk,Inc. |WEB Address: www.autodesk.com
 90
    32897
280
     0
281
     0
  0
CLASS
  1
AEC_DISP_PROPS_SPACE_BOUNDARY
  2
AecDbDispPropsSpaceBoundary
  3
AecArchBase40|Product Desc: Autodesk Architectural Desktop 2004 |Company: Autodesk,Inc. |WEB Address: www.autodesk.com
 90
    32897
280
     0
281
     0
  0
CLASS
  1
AEC_DISP_PROPS_SCHEDULE_TABLE
  2
AecDbDispPropsScheduleTable
  3
AecSchedule40|Product Desc: Autodesk Architectural Desktop 2004 |Company: Autodesk,Inc. |WEB Address: www.autodesk.com
 90
    32897
280
     0
281
     0
  0
CLASS
  1
AEC_DISP_PROPS_RAILING_PLAN
  2
AecDbDispPropsRailingPlan
  3
AecArchBase40|Product Desc: Autodesk Architectural Desktop 2004 |Company: Autodesk,Inc. |WEB Address: www.autodesk.com
 90
    32897
280
     0
281
     0
  0
CLASS
  1
AEC_DISP_PROPS_DIM
  2
AecDbDispPropsDimGroup
  3
AecArchDACHBase40|Product Desc: Autodesk Architectural Desktop 2004 |Company: Autodesk,Inc. |WEB Address: www.autodesk.com
 90
    32897
280
     0
281
     0
  0
CLASS
  1
AEC_DISP_PROPS_LAYOUT_CURVE
  2
AecDbDispPropsLayoutCurve
  3
AecBase40|Product Desc: Autodesk Architectural Desktop 2004 |Company: Autodesk,Inc. |WEB Address: www.autodesk.com
 90
    32897
280
     0
281
     0
  0
CLASS
  1
AEC_DISP_PROPS_LAYOUT_GRID3D
  2
AecDbDispPropsLayoutGrid3d
  3
AecBase40|Product Desc: Autodesk Architectural Desktop 2004 |Company: Autodesk,Inc. |WEB Address: www.autodesk.com
 90
    32897
280
     0
281
     0
  0
CLASS
  1
AEC_LAYERKEY_STYLE
  2
AecDbLayerKeyStyle
  3
AecBase40|Product Desc: Autodesk Architectural Desktop 2004 |Company: Autodesk,Inc. |WEB Address: www.autodesk.com
 90
    32897
280
     0
281
     0
  0
CLASS
  1
AEC_VARS_ARCHBASE
  2
AecDbVarsArchBase
  3
AecArchBase40|Product Desc: Autodesk Architectural Desktop 2004 |Company: Autodesk,Inc. |WEB Address: www.autodesk.com
 90
    32897
280
     0
281
     0
  0
CLASS
  1
AEC_VARS_MUNICH
  2
AecDbVarsMunich
  3
AecArchDACHBase40|Product Desc: Autodesk Architectural Desktop 2004 |Company: Autodesk,Inc. |WEB Address: www.autodesk.com
 90
    32897
280
     0
281
     0
  0
CLASS
  1
AEC_NOTIFICATION_TRACKER
  2
AecDbNotificationTracker
  3
AecBase40|Product Desc: Autodesk Architectural Desktop 2004 |Company: Autodesk,Inc. |WEB Address: www.autodesk.com
 90
    32897
280
     0
281
     0
  0
CLASS
  1
AEC_DISP_REP_ANCHOR
  2
AecDbDispRepAnchor
  3
AecBase40|Product Desc: Autodesk Architectural Desktop 2004 |Company: Autodesk,Inc. |WEB Address: www.autodesk.com
 90
    32897
280
     0
281
     0
  0
CLASS
  1
AEC_DISP_REP_CLIP_VOLUME_RESULT
  2
AecDbDispRepClipVolResult
  3
AecBase40|Product Desc: Autodesk Architectural Desktop 2004 |Company: Autodesk,Inc. |WEB Address: www.autodesk.com
 90
    32897
280
     0
281
     0
  0
CLASS
  1
AEC_DISP_REP_POLYGON_TRUECOLOUR
  2
AecDbDispRepPolygonTrueColour
  3
AecBase40|Product Desc: Autodesk Architectural Desktop 2004 |Company: Autodesk,Inc. |WEB Address: www.autodesk.com
 90
    32897
280
     0
281
     0
  0
CLASS
  1
AEC_DISP_PROPS_POLYGON_TRUECOLOUR
  2
AecDbDispPropsPolygonTrueColour
  3
AecBase40|Product Desc: Autodesk Architectural Desktop 2004 |Company: Autodesk,Inc. |WEB Address: www.autodesk.com
 90
    32897
280
     0
281
     0
  0
CLASS
  1
AEC_DISP_REP_ANCHOR_TAG_TO_ENT
  2
AecDbDispRepAnchorTagToEnt
  3
AecScheduleData40|Product Desc: Autodesk Architectural Desktop 2004 |Company: Autodesk,Inc. |WEB Address: www.autodesk.com
 90
    32897
280
     0
281
     0
  0
CLASS
  1
AEC_DISP_REP_ANCHOR_BUB_TO_GRID_RCP
  2
AecDbDispRepAnchorBubToGridRcp
  3
AecStructureBase40|Product Desc: Autodesk Architectural Desktop 2004 |Company: Autodesk,Inc. |WEB Address: www.autodesk.com
 90
    32897
280
     0
281
     0
  0
CLASS
  1
AEC_DISP_REP_COLUMN_GRID_RCP
  2
AecDbDispRepColumnGridRcp
  3
AecStructureBase40|Product Desc: Autodesk Architectural Desktop 2004 |Company: Autodesk,Inc. |WEB Address: www.autodesk.com
 90
    32897
280
     0
281
     0
  0
CLASS
  1
AECS_DISP_REP_MEMBER_ELEVATION_DESIGN
  2
AecsDbDispRepMemberElevationDesign
  3
AecStructureBase40|Product Desc: Autodesk Architectural Desktop 2004 |Company: Autodesk,Inc. |WEB Address: www.autodesk.com
 90
    32897
280
     0
281
     0
  0
CLASS
  1
AECS_DISP_PROPS_MEMBER_PROJECTED
  2
AecsDbDispPropsMemberProjected
  3
AecStructureBase40|Product Desc: Autodesk Architectural Desktop 2004 |Company: Autodesk,Inc. |WEB Address: www.autodesk.com
 90
    32897
280
     0
281
     0
  0
CLASS
  1
AECS_DISP_REP_MEMBER_ELEVATION_DETAIL
  2
AecsDbDispRepMemberElevationDetail
  3
AecStructureBase40|Product Desc: Autodesk Architectural Desktop 2004 |Company: Autodesk,Inc. |WEB Address: www.autodesk.com
 90
    32897
280
     0
281
     0
  0
CLASS
  1
AECS_DISP_REP_MEMBER_LOGICAL
  2
AecsDbDispRepMemberLogical
  3
AecStructureBase40|Product Desc: Autodesk Architectural Desktop 2004 |Company: Autodesk,Inc. |WEB Address: www.autodesk.com
 90
    32897
280
     0
281
     0
  0
CLASS
  1
AECS_DISP_PROPS_MEMBER_LOGICAL
  2
AecsDbDispPropsMemberLogical
  3
AecStructureBase40|Product Desc: Autodesk Architectural Desktop 2004 |Company: Autodesk,Inc. |WEB Address: www.autodesk.com
 90
    32897
280
     0
281
     0
  0
CLASS
  1
AECS_DISP_REP_MEMBER_MODEL_DETAIL
  2
AecsDbDispRepMemberModelDetail
  3
AecStructureBase40|Product Desc: Autodesk Architectural Desktop 2004 |Company: Autodesk,Inc. |WEB Address: www.autodesk.com
 90
    32897
280
     0
281
     0
  0
CLASS
  1
AECS_DISP_REP_MEMBER_PLAN_DETAIL
  2
AecsDbDispRepMemberPlanDetail
  3
AecStructureBase40|Product Desc: Autodesk Architectural Desktop 2004 |Company: Autodesk,Inc. |WEB Address: www.autodesk.com
 90
    32897
280
     0
281
     0
  0
CLASS
  1
AECS_DISP_REP_MEMBER_PLAN_SKETCH
  2
AecsDbDispRepMemberPlanSketch
  3
AecStructureBase40|Product Desc: Autodesk Architectural Desktop 2004 |Company: Autodesk,Inc. |WEB Address: www.autodesk.com
 90
    32897
280
     0
281
     0
  0
CLASS
  1
AECS_DISP_PROPS_MEMBER_PLAN_SKETCH
  2
AecsDbDispPropsMemberPlanSketch
  3
AecStructureBase40|Product Desc: Autodesk Architectural Desktop 2004 |Company: Autodesk,Inc. |WEB Address: www.autodesk.com
 90
    32897
280
     0
281
     0
  0
CLASS
  1
AEC_DISP_REP_BDG_ELEVLINE_RCP
  2
AecDbDispRepBdgElevLineRcp
  3
AecArchBase40|Product Desc: Autodesk Architectural Desktop 2004 |Company: Autodesk,Inc. |WEB Address: www.autodesk.com
 90
    32897
280
     0
281
     0
  0
CLASS
  1
AEC_DISP_REP_BDG_SECTIONLINE_RCP
  2
AecDbDispRepBdgSectionLineRcp
  3
AecArchBase40|Product Desc: Autodesk Architectural Desktop 2004 |Company: Autodesk,Inc. |WEB Address: www.autodesk.com
 90
    32897
280
     0
281
     0
  0
CLASS
  1
AEC_DISP_REP_BDG_SECTION_MODEL
  2
AecDbDispRepBdgSectionModel
  3
AecArchBase40|Product Desc: Autodesk Architectural Desktop 2004 |Company: Autodesk,Inc. |WEB Address: www.autodesk.com
 90
    32897
280
     0
281
     0
  0
CLASS
  1
AEC_DISP_REP_CEILING_GRID_RCP
  2
AecDbDispRepCeilingGridRcp
  3
AecArchBase40|Product Desc: Autodesk Architectural Desktop 2004 |Company: Autodesk,Inc. |WEB Address: www.autodesk.com
 90
    32897
280
     0
281
     0
  0
CLASS
  1
AEC_DISP_REP_DOOR_ELEV
  2
AecDbDispRepDoorElev
  3
AecArchBase40|Product Desc: Autodesk Architectural Desktop 2004 |Company: Autodesk,Inc. |WEB Address: www.autodesk.com
 90
    32897
280
     0
281
     0
  0
CLASS
  1
AEC_DISP_REP_DOOR_NOMINAL
  2
AecDbDispRepDoorNominal
  3
AecArchBase40|Product Desc: Autodesk Architectural Desktop 2004 |Company: Autodesk,Inc. |WEB Address: www.autodesk.com
 90
    32897
280
     0
281
     0
  0
CLASS
  1
AEC_DISP_PROPS_DOOR_NOMINAL
  2
AecDbDispPropsDoorNominal
  3
AecArchBase40|Product Desc: Autodesk Architectural Desktop 2004 |Company: Autodesk,Inc. |WEB Address: www.autodesk.com
 90
    32897
280
     0
281
     0
  0
CLASS
  1
AEC_DISP_REP_DOOR_RCP
  2
AecDbDispRepDoorRcp
  3
AecArchBase40|Product Desc: Autodesk Architectural Desktop 2004 |Company: Autodesk,Inc. |WEB Address: www.autodesk.com
 90
    32897
280
     0
281
     0
  0
CLASS
  1
AEC_DISP_REP_MASKBLOCK_REF_RCP
  2
AecDbDispRepMaskBlockRefRcp
  3
AecArchBase40|Product Desc: Autodesk Architectural Desktop 2004 |Company: Autodesk,Inc. |WEB Address: www.autodesk.com
 90
    32897
280
     0
281
     0
  0
CLASS
  1
AEC_DISP_REP_MASS_ELEM_RCP
  2
AecDbDispRepMassElemRcp
  3
AecArchBase40|Product Desc: Autodesk Architectural Desktop 2004 |Company: Autodesk,Inc. |WEB Address: www.autodesk.com
 90
    32897
280
     0
281
     0
  0
CLASS
  1
AEC_DISP_REP_MASS_GROUP_RCP
  2
AecDbDispRepMassGroupRcp
  3
AecArchBase40|Product Desc: Autodesk Architectural Desktop 2004 |Company: Autodesk,Inc. |WEB Address: www.autodesk.com
 90
    32897
280
     0
281
     0
  0
CLASS
  1
AEC_DISP_REP_MVBLOCK_REF_RCP
  2
AecDbDispRepMvBlockRefRcp
  3
AecArchBase40|Product Desc: Autodesk Architectural Desktop 2004 |Company: Autodesk,Inc. |WEB Address: www.autodesk.com
 90
    32897
280
     0
281
     0
  0
CLASS
  1
AEC_DISP_REP_ROOF_RCP
  2
AecDbDispRepRoofRcp
  3
AecArchBase40|Product Desc: Autodesk Architectural Desktop 2004 |Company: Autodesk,Inc. |WEB Address: www.autodesk.com
 90
    32897
280
     0
281
     0
  0
CLASS
  1
AEC_DISP_REP_SPACE_BOUNDARY_DIAGRAM
  2
AecDbDispRepSpaceBoundaryDgrm
  3
AecArchBase40|Product Desc: Autodesk Architectural Desktop 2004 |Company: Autodesk,Inc. |WEB Address: www.autodesk.com
 90
    32897
280
     0
281
     0
  0
CLASS
  1
AEC_DISP_REP_SPACE_BOUNDARY_SCHEM
  2
AecDbDispRepSpaceBoundarySketch
  3
AecArchBase40|Product Desc: Autodesk Architectural Desktop 2004 |Company: Autodesk,Inc. |WEB Address: www.autodesk.com
 90
    32897
280
     0
281
     0
  0
CLASS
  1
AEC_DISP_REP_SPACE_RCP
  2
AecDbDispRepSpaceRcp
  3
AecArchBase40|Product Desc: Autodesk Architectural Desktop 2004 |Company: Autodesk,Inc. |WEB Address: www.autodesk.com
 90
    32897
280
     0
281
     0
  0
CLASS
  1
AEC_DISP_REP_SPACE_VOLUME
  2
AecDbDispRepSpaceVolume
  3
AecArchBase40|Product Desc: Autodesk Architectural Desktop 2004 |Company: Autodesk,Inc. |WEB Address: www.autodesk.com
 90
    32897
280
     0
281
     0
  0
CLASS
  1
AEC_DISP_REP_STAIR_PLAN_OVERLAPPING
  2
AecDbDispRepStairPlanOverlapping
  3
AecArchBase40|Product Desc: Autodesk Architectural Desktop 2004 |Company: Autodesk,Inc. |WEB Address: www.autodesk.com
 90
    32897
280
     0
281
     0
  0
CLASS
  1
AEC_DISP_PROPS_STAIR_PLAN_OVERLAPPING
  2
AecDbDispPropsStairPlanOverlapping
  3
AecArchBase40|Product Desc: Autodesk Architectural Desktop 2004 |Company: Autodesk,Inc. |WEB Address: www.autodesk.com
 90
    32897
280
     0
281
     0
  0
CLASS
  1
AEC_DISP_REP_STAIR_RCP
  2
AecDbDispRepStairRcp
  3
AecArchBase40|Product Desc: Autodesk Architectural Desktop 2004 |Company: Autodesk,Inc. |WEB Address: www.autodesk.com
 90
    32897
280
     0
281
     0
  0
CLASS
  1
AEC_DISP_REP_WALL_GRAPH
  2
AecDbDispRepWallGraph
  3
AecArchBase40|Product Desc: Autodesk Architectural Desktop 2004 |Company: Autodesk,Inc. |WEB Address: www.autodesk.com
 90
    32897
280
     0
281
     0
  0
CLASS
  1
AEC_DISP_PROPS_WALL_GRAPH
  2
AecDbDispPropsWallGraph
  3
AecArchBase40|Product Desc: Autodesk Architectural Desktop 2004 |Company: Autodesk,Inc. |WEB Address: www.autodesk.com
 90
    32897
280
     0
281
     0
  0
CLASS
  1
AEC_DISP_REP_WALL_RCP
  2
AecDbDispRepWallRcp
  3
AecArchBase40|Product Desc: Autodesk Architectural Desktop 2004 |Company: Autodesk,Inc. |WEB Address: www.autodesk.com
 90
    32897
280
     0
281
     0
  0
CLASS
  1
AEC_DISP_REP_WALL_SCHEM
  2
AecDbDispRepWallSchem
  3
AecArchBase40|Product Desc: Autodesk Architectural Desktop 2004 |Company: Autodesk,Inc. |WEB Address: www.autodesk.com
 90
    32897
280
     0
281
     0
  0
CLASS
  1
AEC_DISP_PROPS_WALL_SCHEM
  2
AecDbDispPropsWallSchem
  3
AecArchBase40|Product Desc: Autodesk Architectural Desktop 2004 |Company: Autodesk,Inc. |WEB Address: www.autodesk.com
 90
    32897
280
     0
281
     0
  0
CLASS
  1
AEC_DISP_REP_WINDOWASSEMBLY_SILL_PLAN
  2
AecDbDispRepWindowAssemblySillPlan
  3
AecArchBase40|Product Desc: Autodesk Architectural Desktop 2004 |Company: Autodesk,Inc. |WEB Address: www.autodesk.com
 90
    32897
280
     0
281
     0
  0
CLASS
  1
AEC_DISP_PROPS_WINDOW_ASSEMBLY_SILL_PLAN
  2
AecDbDispPropsWindowAssemblySillPlan
  3
AecArchBase40|Product Desc: Autodesk Architectural Desktop 2004 |Company: Autodesk,Inc. |WEB Address: www.autodesk.com
 90
    32897
280
     0
281
     0
  0
CLASS
  1
AEC_DISP_REP_WINDOW_ELEV
  2
AecDbDispRepWindowElev
  3
AecArchBase40|Product Desc: Autodesk Architectural Desktop 2004 |Company: Autodesk,Inc. |WEB Address: www.autodesk.com
 90
    32897
280
     0
281
     0
  0
CLASS
  1
AEC_DISP_REP_WINDOW_NOMINAL
  2
AecDbDispRepWindowNominal
  3
AecArchBase40|Product Desc: Autodesk Architectural Desktop 2004 |Company: Autodesk,Inc. |WEB Address: www.autodesk.com
 90
    32897
280
     0
281
     0
  0
CLASS
  1
AEC_DISP_PROPS_WINDOW_NOMINAL
  2
AecDbDispPropsWindowNominal
  3
AecArchBase40|Product Desc: Autodesk Architectural Desktop 2004 |Company: Autodesk,Inc. |WEB Address: www.autodesk.com
 90
    32897
280
     0
281
     0
  0
CLASS
  1
AEC_DISP_REP_WINDOW_RCP
  2
AecDbDispRepWindowRcp
  3
AecArchBase40|Product Desc: Autodesk Architectural Desktop 2004 |Company: Autodesk,Inc. |WEB Address: www.autodesk.com
 90
    32897
280
     0
281
     0
  0
CLASS
  1
AEC_DISP_REP_AREA_DECOMPOSED
  2
AecDbDispRepAreaDecomposed
  3
AecAreaCalculationBase40|Product Desc: Autodesk Architectural Desktop 2004 |Company: Autodesk,Inc. |WEB Address: www.autodesk.com
 90
    32897
280
     0
281
     0
  0
CLASS
  1
AEC_DISP_PROPS_AREA_DECOMPOSED
  2
AecDbDispPropsAreaDecomposed
  3
AecAreaCalculationBase40|Product Desc: Autodesk Architectural Desktop 2004 |Company: Autodesk,Inc. |WEB Address: www.autodesk.com
 90
    32897
280
     0
281
     0
  0
CLASS
  1
AEC_AECDBDISPREPAREA100
  2
AecDbDispRepArea100
  3
AecBase40|Product Desc: Autodesk Architectural Desktop 2004 |Company: Autodesk,Inc. |WEB Address: www.autodesk.com
 90
    32897
280
     0
281
     0
  0
CLASS
  1
AEC_AECDBDISPREPAREAGROUP100
  2
AecDbDispRepAreaGroup100
  3
AecBase40|Product Desc: Autodesk Architectural Desktop 2004 |Company: Autodesk,Inc. |WEB Address: www.autodesk.com
 90
    32897
280
     0
281
     0
  0
CLASS
  1
AEC_AECDBDISPREPBDGELEVLINEPLAN100
  2
AecDbDispRepBdgElevLinePlan100
  3
AecBase40|Product Desc: Autodesk Architectural Desktop 2004 |Company: Autodesk,Inc. |WEB Address: www.autodesk.com
 90
    32897
280
     0
281
     0
  0
CLASS
  1
AEC_AECDBDISPREPBDGSECTIONLINEPLAN100
  2
AecDbDispRepBdgSectionLinePlan100
  3
AecBase40|Product Desc: Autodesk Architectural Desktop 2004 |Company: Autodesk,Inc. |WEB Address: www.autodesk.com
 90
    32897
280
     0
281
     0
  0
CLASS
  1
AEC_AECDBDISPREPCEILINGGRIDPLAN100
  2
AecDbDispRepCeilingGridPlan100
  3
AecBase40|Product Desc: Autodesk Architectural Desktop 2004 |Company: Autodesk,Inc. |WEB Address: www.autodesk.com
 90
    32897
280
     0
281
     0
  0
CLASS
  1
AEC_AECDBDISPREPCOLUMNGRIDPLAN100
  2
AecDbDispRepColumnGridPlan100
  3
AecBase40|Product Desc: Autodesk Architectural Desktop 2004 |Company: Autodesk,Inc. |WEB Address: www.autodesk.com
 90
    32897
280
     0
281
     0
  0
CLASS
  1
AEC_AECDBDISPREPCURTAINWALLLAYOUTPLAN100
  2
AecDbDispRepCurtainWallLayoutPlan100
  3
AecBase40|Product Desc: Autodesk Architectural Desktop 2004 |Company: Autodesk,Inc. |WEB Address: www.autodesk.com
 90
    32897
280
     0
281
     0
  0
CLASS
  1
AEC_AECDBDISPREPCURTAINWALLUNITPLAN100
  2
AecDbDispRepCurtainWallUnitPlan100
  3
AecBase40|Product Desc: Autodesk Architectural Desktop 2004 |Company: Autodesk,Inc. |WEB Address: www.autodesk.com
 90
    32897
280
     0
281
     0
  0
CLASS
  1
AEC_AECDBDISPREPMVBLOCKREFPLAN100
  2
AecDbDispRepMvBlockRefPlan100
  3
AecBase40|Product Desc: Autodesk Architectural Desktop 2004 |Company: Autodesk,Inc. |WEB Address: www.autodesk.com
 90
    32897
280
     0
281
     0
  0
CLASS
  1
AEC_AECDBDISPREPROOFPLAN100
  2
AecDbDispRepRoofPlan100
  3
AecBase40|Product Desc: Autodesk Architectural Desktop 2004 |Company: Autodesk,Inc. |WEB Address: www.autodesk.com
 90
    32897
280
     0
281
     0
  0
CLASS
  1
AEC_AECDBDISPREPROOFSLABPLAN100
  2
AecDbDispRepRoofSlabPlan100
  3
AecBase40|Product Desc: Autodesk Architectural Desktop 2004 |Company: Autodesk,Inc. |WEB Address: www.autodesk.com
 90
    32897
280
     0
281
     0
  0
CLASS
  1
AEC_AECDBDISPREPSLABPLAN100
  2
AecDbDispRepSlabPlan100
  3
AecBase40|Product Desc: Autodesk Architectural Desktop 2004 |Company: Autodesk,Inc. |WEB Address: www.autodesk.com
 90
    32897
280
     0
281
     0
  0
CLASS
  1
AEC_AECDBDISPREPSPACEBOUNDARYPLAN100
  2
AecDbDispRepSpaceBoundaryPlan100
  3
AecBase40|Product Desc: Autodesk Architectural Desktop 2004 |Company: Autodesk,Inc. |WEB Address: www.autodesk.com
 90
    32897
280
     0
281
     0
  0
CLASS
  1
AEC_AECDBDISPREPSPACEPLAN100
  2
AecDbDispRepSpacePlan100
  3
AecBase40|Product Desc: Autodesk Architectural Desktop 2004 |Company: Autodesk,Inc. |WEB Address: www.autodesk.com
 90
    32897
280
     0
281
     0
  0
CLASS
  1
AEC_AECDBDISPREPWALLPLAN100
  2
AecDbDispRepWallPlan100
  3
AecBase40|Product Desc: Autodesk Architectural Desktop 2004 |Company: Autodesk,Inc. |WEB Address: www.autodesk.com
 90
    32897
280
     0
281
     0
  0
CLASS
  1
AEC_AECDBDISPREPWINDOWASSEMBLYPLAN100
  2
AecDbDispRepWindowAssemblyPlan100
  3
AecBase40|Product Desc: Autodesk Architectural Desktop 2004 |Company: Autodesk,Inc. |WEB Address: www.autodesk.com
 90
    32897
280
     0
281
     0
  0
CLASS
  1
AEC_AECDBDISPREPAREA50
  2
AecDbDispRepArea50
  3
AecBase40|Product Desc: Autodesk Architectural Desktop 2004 |Company: Autodesk,Inc. |WEB Address: www.autodesk.com
 90
    32897
280
     0
281
     0
  0
CLASS
  1
AEC_AECDBDISPREPAREAGROUP50
  2
AecDbDispRepAreaGroup50
  3
AecBase40|Product Desc: Autodesk Architectural Desktop 2004 |Company: Autodesk,Inc. |WEB Address: www.autodesk.com
 90
    32897
280
     0
281
     0
  0
CLASS
  1
AEC_AECDBDISPREPBDGELEVLINEPLAN50
  2
AecDbDispRepBdgElevLinePlan50
  3
AecBase40|Product Desc: Autodesk Architectural Desktop 2004 |Company: Autodesk,Inc. |WEB Address: www.autodesk.com
 90
    32897
280
     0
281
     0
  0
CLASS
  1
AEC_AECDBDISPREPBDGSECTIONLINEPLAN50
  2
AecDbDispRepBdgSectionLinePlan50
  3
AecBase40|Product Desc: Autodesk Architectural Desktop 2004 |Company: Autodesk,Inc. |WEB Address: www.autodesk.com
 90
    32897
280
     0
281
     0
  0
CLASS
  1
AEC_AECDBDISPREPCEILINGGRIDPLAN50
  2
AecDbDispRepCeilingGridPlan50
  3
AecBase40|Product Desc: Autodesk Architectural Desktop 2004 |Company: Autodesk,Inc. |WEB Address: www.autodesk.com
 90
    32897
280
     0
281
     0
  0
CLASS
  1
AEC_AECDBDISPREPCOLUMNGRIDPLAN50
  2
AecDbDispRepColumnGridPlan50
  3
AecBase40|Product Desc: Autodesk Architectural Desktop 2004 |Company: Autodesk,Inc. |WEB Address: www.autodesk.com
 90
    32897
280
     0
281
     0
  0
CLASS
  1
AEC_AECDBDISPREPCURTAINWALLLAYOUTPLAN50
  2
AecDbDispRepCurtainWallLayoutPlan50
  3
AecBase40|Product Desc: Autodesk Architectural Desktop 2004 |Company: Autodesk,Inc. |WEB Address: www.autodesk.com
 90
    32897
280
     0
281
     0
  0
CLASS
  1
AEC_AECDBDISPREPCURTAINWALLUNITPLAN50
  2
AecDbDispRepCurtainWallUnitPlan50
  3
AecBase40|Product Desc: Autodesk Architectural Desktop 2004 |Company: Autodesk,Inc. |WEB Address: www.autodesk.com
 90
    32897
280
     0
281
     0
  0
CLASS
  1
AEC_AECDBDISPREPMVBLOCKREFPLAN50
  2
AecDbDispRepMvBlockRefPlan50
  3
AecBase40|Product Desc: Autodesk Architectural Desktop 2004 |Company: Autodesk,Inc. |WEB Address: www.autodesk.com
 90
    32897
280
     0
281
     0
  0
CLASS
  1
AEC_AECDBDISPREPROOFPLAN50
  2
AecDbDispRepRoofPlan50
  3
AecBase40|Product Desc: Autodesk Architectural Desktop 2004 |Company: Autodesk,Inc. |WEB Address: www.autodesk.com
 90
    32897
280
     0
281
     0
  0
CLASS
  1
AEC_AECDBDISPREPROOFSLABPLAN50
  2
AecDbDispRepRoofSlabPlan50
  3
AecBase40|Product Desc: Autodesk Architectural Desktop 2004 |Company: Autodesk,Inc. |WEB Address: www.autodesk.com
 90
    32897
280
     0
281
     0
  0
CLASS
  1
AEC_AECDBDISPREPSLABPLAN50
  2
AecDbDispRepSlabPlan50
  3
AecBase40|Product Desc: Autodesk Architectural Desktop 2004 |Company: Autodesk,Inc. |WEB Address: www.autodesk.com
 90
    32897
280
     0
281
     0
  0
CLASS
  1
AEC_AECDBDISPREPSPACEBOUNDARYPLAN50
  2
AecDbDispRepSpaceBoundaryPlan50
  3
AecBase40|Product Desc: Autodesk Architectural Desktop 2004 |Company: Autodesk,Inc. |WEB Address: www.autodesk.com
 90
    32897
280
     0
281
     0
  0
CLASS
  1
AEC_AECDBDISPREPSPACEPLAN50
  2
AecDbDispRepSpacePlan50
  3
AecBase40|Product Desc: Autodesk Architectural Desktop 2004 |Company: Autodesk,Inc. |WEB Address: www.autodesk.com
 90
    32897
280
     0
281
     0
  0
CLASS
  1
AEC_AECDBDISPREPWALLPLAN50
  2
AecDbDispRepWallPlan50
  3
AecBase40|Product Desc: Autodesk Architectural Desktop 2004 |Company: Autodesk,Inc. |WEB Address: www.autodesk.com
 90
    32897
280
     0
281
     0
  0
CLASS
  1
AEC_AECDBDISPREPWINDOWASSEMBLYPLAN50
  2
AecDbDispRepWindowAssemblyPlan50
  3
AecBase40|Product Desc: Autodesk Architectural Desktop 2004 |Company: Autodesk,Inc. |WEB Address: www.autodesk.com
 90
    32897
280
     0
281
     0
  0
CLASS
  1
AEC_DB_DISP_REP_DIM_GROUP_PLAN100
  2
AecDbDispRepDimGroupPlan100
  3
AecArchDACHBase40|Product Desc: Autodesk Architectural Desktop 2004 |Company: Autodesk,Inc. |WEB Address: www.autodesk.com
 90
    32897
280
     0
281
     0
  0
CLASS
  1
AEC_DB_DISP_REP_DIM_GROUP_PLAN50
  2
AecDbDispRepDimGroupPlan50
  3
AecArchDACHBase40|Product Desc: Autodesk Architectural Desktop 2004 |Company: Autodesk,Inc. |WEB Address: www.autodesk.com
 90
    32897
280
     0
281
     0
  0
CLASS
  1
AEC_DISP_REP_DOOR_PLAN_50
  2
AecDbDispRepDoorPlan50
  3
AecArchDACHBase40|Product Desc: Autodesk Architectural Desktop 2004 |Company: Autodesk,Inc. |WEB Address: www.autodesk.com
 90
    32897
280
     0
281
     0
  0
CLASS
  1
AEC_DISP_PROPS_DOOR_PLAN_50
  2
AecDbDispPropsDoorPlan50
  3
AecArchDACHBase40|Product Desc: Autodesk Architectural Desktop 2004 |Company: Autodesk,Inc. |WEB Address: www.autodesk.com
 90
    32897
280
     0
281
     0
  0
CLASS
  1
AEC_DISP_REP_DOOR_PLAN_HEKTO
  2
AecDbDispRepDoorPlanHekto
  3
AecArchDACHBase40|Product Desc: Autodesk Architectural Desktop 2004 |Company: Autodesk,Inc. |WEB Address: www.autodesk.com
 90
    32897
280
     0
281
     0
  0
CLASS
  1
AEC_DISP_PROPS_DOOR_PLAN_100
  2
AecDbDispPropsDoorPlan100
  3
AecArchDACHBase40|Product Desc: Autodesk Architectural Desktop 2004 |Company: Autodesk,Inc. |WEB Address: www.autodesk.com
 90
    32897
280
     0
281
     0
  0
CLASS
  1
AEC_DISP_REP_DOOR_THRESHOLD_SYMBOL_PLAN
  2
AecDbDispRepDoorThresholdSymbolPlan
  3
AecArchDACHBase40|Product Desc: Autodesk Architectural Desktop 2004 |Company: Autodesk,Inc. |WEB Address: www.autodesk.com
 90
    32897
280
     0
281
     0
  0
CLASS
  1
AEC_DISP_PROPS_DOOR_THRESHOLD_SYMBOL_PLAN
  2
AecDbDispPropsDoorThresholdSymbolPlan
  3
AecArchDACHBase40|Product Desc: Autodesk Architectural Desktop 2004 |Company: Autodesk,Inc. |WEB Address: www.autodesk.com
 90
    32897
280
     0
281
     0
  0
CLASS
  1
AEC_DISPREPAECDBDISPREPMASSELEMPLAN100
  2
AecDbDispRepMassElemPlan100
  3
AecArchDACHBase40|Product Desc: Autodesk Architectural Desktop 2004 |Company: Autodesk,Inc. |WEB Address: www.autodesk.com
 90
    32897
280
     0
281
     0
  0
CLASS
  1
AEC_DISPROPSMASSELEMPLANCOMMON
  2
AecDbDispPropsMassElemPlanCommon
  3
AecArchDACHBase40|Product Desc: Autodesk Architectural Desktop 2004 |Company: Autodesk,Inc. |WEB Address: www.autodesk.com
 90
    32897
280
     0
281
     0
  0
CLASS
  1
AEC_DISPREPAECDBDISPREPMASSELEMPLAN50
  2
AecDbDispRepMassElemPlan50
  3
AecArchDACHBase40|Product Desc: Autodesk Architectural Desktop 2004 |Company: Autodesk,Inc. |WEB Address: www.autodesk.com
 90
    32897
280
     0
281
     0
  0
CLASS
  1
AEC_DISPREPAECDBDISPREPMASSGROUPPLAN100
  2
AecDbDispRepMassGroupPlan100
  3
AecArchDACHBase40|Product Desc: Autodesk Architectural Desktop 2004 |Company: Autodesk,Inc. |WEB Address: www.autodesk.com
 90
    32897
280
     0
281
     0
  0
CLASS
  1
AEC_DISPROPSMASSGROUPPLANCOMMON
  2
AecDbDispPropsMassGroupPlanCommon
  3
AecArchDACHBase40|Product Desc: Autodesk Architectural Desktop 2004 |Company: Autodesk,Inc. |WEB Address: www.autodesk.com
 90
    32897
280
     0
281
     0
  0
CLASS
  1
AEC_DISPREPAECDBDISPREPMASSGROUPPLAN50
  2
AecDbDispRepMassGroupPlan50
  3
AecArchDACHBase40|Product Desc: Autodesk Architectural Desktop 2004 |Company: Autodesk,Inc. |WEB Address: www.autodesk.com
 90
    32897
280
     0
281
     0
  0
CLASS
  1
AEC_DISPREPAECDBDISPREPOPENINGPLAN100
  2
AecDbDispRepOpeningPlan100
  3
AecArchDACHBase40|Product Desc: Autodesk Architectural Desktop 2004 |Company: Autodesk,Inc. |WEB Address: www.autodesk.com
 90
    32897
280
     0
281
     0
  0
CLASS
  1
AEC_DISPROPSOPENINGPLANCOMMONHATCHED
  2
AecDbDispPropsOpeningPlanCommonHatched
  3
AecArchDACHBase40|Product Desc: Autodesk Architectural Desktop 2004 |Company: Autodesk,Inc. |WEB Address: www.autodesk.com
 90
    32897
280
     0
281
     0
  0
CLASS
  1
AEC_DISPREPAECDBDISPREPOPENINGPLAN50
  2
AecDbDispRepOpeningPlan50
  3
AecArchDACHBase40|Product Desc: Autodesk Architectural Desktop 2004 |Company: Autodesk,Inc. |WEB Address: www.autodesk.com
 90
    32897
280
     0
281
     0
  0
CLASS
  1
AEC_DISPREPAECDBDISPREPOPENINGPLANREFLECTED
  2
AecDbDispRepOpeningPlanReflected
  3
AecArchDACHBase40|Product Desc: Autodesk Architectural Desktop 2004 |Company: Autodesk,Inc. |WEB Address: www.autodesk.com
 90
    32897
280
     0
281
     0
  0
CLASS
  1
AEC_DISPROPSOPENINGPLANCOMMON
  2
AecDbDispPropsOpeningPlanCommon
  3
AecArchDACHBase40|Product Desc: Autodesk Architectural Desktop 2004 |Company: Autodesk,Inc. |WEB Address: www.autodesk.com
 90
    32897
280
     0
281
     0
  0
CLASS
  1
AEC_DISPREPAECDBDISPREPOPENINGSILLPLAN
  2
AecDbDispRepOpeningSillPlan
  3
AecArchDACHBase40|Product Desc: Autodesk Architectural Desktop 2004 |Company: Autodesk,Inc. |WEB Address: www.autodesk.com
 90
    32897
280
     0
281
     0
  0
CLASS
  1
AEC_DISPROPSOPENINGSILLPLAN
  2
AecDbDispPropsOpeningSillPlan
  3
AecArchDACHBase40|Product Desc: Autodesk Architectural Desktop 2004 |Company: Autodesk,Inc. |WEB Address: www.autodesk.com
 90
    32897
280
     0
281
     0
  0
CLASS
  1
AEC_DISP_REP_RAILING_PLAN_100
  2
AecDbDispRepRailingPlan100
  3
AecArchDACHBase40|Product Desc: Autodesk Architectural Desktop 2004 |Company: Autodesk,Inc. |WEB Address: www.autodesk.com
 90
    32897
280
     0
281
     0
  0
CLASS
  1
AEC_DISP_ROPS_RAILING_PLAN_100
  2
AecDbDispPropsRailingPlan100
  3
AecArchDACHBase40|Product Desc: Autodesk Architectural Desktop 2004 |Company: Autodesk,Inc. |WEB Address: www.autodesk.com
 90
    32897
280
     0
281
     0
  0
CLASS
  1
AEC_DISP_REP_RAILING_PLAN_50
  2
AecDbDispRepRailingPlan50
  3
AecArchDACHBase40|Product Desc: Autodesk Architectural Desktop 2004 |Company: Autodesk,Inc. |WEB Address: www.autodesk.com
 90
    32897
280
     0
281
     0
  0
CLASS
  1
AEC_DISP_ROPS_RAILING_PLAN_50
  2
AecDbDispPropsRailingPlan50
  3
AecArchDACHBase40|Product Desc: Autodesk Architectural Desktop 2004 |Company: Autodesk,Inc. |WEB Address: www.autodesk.com
 90
    32897
280
     0
281
     0
  0
CLASS
  1
AEC_DISP_REP_STAIR_PLAN_100
  2
AecDbDispRepStairPlan100
  3
AecArchDACHBase40|Product Desc: Autodesk Architectural Desktop 2004 |Company: Autodesk,Inc. |WEB Address: www.autodesk.com
 90
    32897
280
     0
281
     0
  0
CLASS
  1
AEC_DISP_ROPS_STAIR_PLAN_100
  2
AecDbDispPropsStairPlan100
  3
AecArchDACHBase40|Product Desc: Autodesk Architectural Desktop 2004 |Company: Autodesk,Inc. |WEB Address: www.autodesk.com
 90
    32897
280
     0
281
     0
  0
CLASS
  1
AEC_DISP_REP_STAIR_PLAN_50
  2
AecDbDispRepStairPlan50
  3
AecArchDACHBase40|Product Desc: Autodesk Architectural Desktop 2004 |Company: Autodesk,Inc. |WEB Address: www.autodesk.com
 90
    32897
280
     0
281
     0
  0
CLASS
  1
AEC_DISP_ROPS_STAIR_PLAN_50
  2
AecDbDispPropsStairPlan50
  3
AecArchDACHBase40|Product Desc: Autodesk Architectural Desktop 2004 |Company: Autodesk,Inc. |WEB Address: www.autodesk.com
 90
    32897
280
     0
281
     0
  0
CLASS
  1
AEC_DISP_REP_WINDOW_PLAN_100
  2
AecDbDispRepWindowPlan100
  3
AecArchDACHBase40|Product Desc: Autodesk Architectural Desktop 2004 |Company: Autodesk,Inc. |WEB Address: www.autodesk.com
 90
    32897
280
     0
281
     0
  0
CLASS
  1
AEC_DISP_PROPS_WINDOW_PLAN_100
  2
AecDbDispPropsWindowPlan100
  3
AecArchDACHBase40|Product Desc: Autodesk Architectural Desktop 2004 |Company: Autodesk,Inc. |WEB Address: www.autodesk.com
 90
    32897
280
     0
281
     0
  0
CLASS
  1
AEC_DISP_REP_WINDOW_PLAN_50
  2
AecDbDispRepWindowPlan50
  3
AecArchDACHBase40|Product Desc: Autodesk Architectural Desktop 2004 |Company: Autodesk,Inc. |WEB Address: www.autodesk.com
 90
    32897
280
     0
281
     0
  0
CLASS
  1
AEC_DISP_PROPS_WINDOW_PLAN_50
  2
AecDbDispPropsWindowPlan50
  3
AecArchDACHBase40|Product Desc: Autodesk Architectural Desktop 2004 |Company: Autodesk,Inc. |WEB Address: www.autodesk.com
 90
    32897
280
     0
281
     0
  0
CLASS
  1
BINRECORD
  2
AcAecBinRecord
  3
AecBase40|Product Desc: Autodesk Architectural Desktop 2004 |Company: Autodesk,Inc. |WEB Address: www.autodesk.com
 90
    32897
280
     0
281
     0
  0
ENDSEC
  0
SECTION
  2
TABLES
  0
TABLE
  2
VPORT
  5
19D
330
0
100
AcDbSymbolTable
 70
     1
  0
VPORT
  5
19E
330
19D
100
AcDbSymbolTableRecord
100
AcDbViewportTableRecord
  2
*Active
 70
     0
 10
0.0
 20
0.0
 11
1.0
 21
1.0
 12
43.80083663787831
 22
144.6464739683633
 13
0.0
 23
0.0
 14
10.0
 24
10.0
 15
10.0
 25
10.0
 16
0.0
 26
0.0
 36
1.0
 17
0.0
 27
0.0
 37
0.0
 40
362.7940699471926
 41
1.549148099606815
 42
50.0
 43
0.0
 44
0.0
 50
0.0
 51
0.0
 71
     0
 72
   100
 73
     1
 74
     1
 75
     0
 76
     0
 77
     0
 78
     0
281
     0
 65
     1
110
0.0
120
0.0
130
0.0
111
1.0
121
0.0
131
0.0
112
0.0
122
1.0
132
0.0
 79
     0
146
0.0
  0
ENDTAB
  0
TABLE
  2
LTYPE
  5
198
330
0
100
AcDbSymbolTable
 70
     4
  0
LTYPE
  5
199
330
198
100
AcDbSymbolTableRecord
100
AcDbLinetypeTableRecord
  2
BYBLOCK
 70
     0
  3

 72
    65
 73
     0
 40
0.0
  0
LTYPE
  5
19A
330
198
100
AcDbSymbolTableRecord
100
AcDbLinetypeTableRecord
  2
BYLAYER
 70
     0
  3

 72
    65
 73
     0
 40
0.0
  0
LTYPE
  5
8
330
198
100
AcDbSymbolTableRecord
100
AcDbLinetypeTableRecord
  2
CONTINUOUS
 70
     0
  3
Solid line
 72
    65
 73
     0
 40
0.0
  0
LTYPE
  5
16
330
198
100
AcDbSymbolTableRecord
100
AcDbLinetypeTableRecord
  2
MITTEX2
 70
     0
  3
Mitte (2x) ________  __  ________  __  _____
 72
    65
 73
     4
 40
4.0
 49
2.5
 74
     0
 49
-0.5
 74
     0
 49
0.5
 74
     0
 49
-0.5
 74
     0
  0
LTYPE
  5
78
330
198
100
AcDbSymbolTableRecord
100
AcDbLinetypeTableRecord
  2
STRICHLINIEX2
 70
     0
  3
Strichlinie (2x) ____  ____  ____  ____  ____  
 72
    65
 73
     2
 40
1.5
 49
1.0
 74
     0
 49
-0.5
 74
     0
  0
LTYPE
  5
14A
330
198
100
AcDbSymbolTableRecord
100
AcDbLinetypeTableRecord
  2
GETRENNTX2
 70
     0
  3
Getrennt (2x) ________  .  .  ________  .  .  _
 72
    65
 73
     6
 40
2.5
 49
1.0
 74
     0
 49
-0.5
 74
     0
 49
0.0
 74
     0
 49
-0.5
 74
     0
 49
0.0
 74
     0
 49
-0.5
 74
     0
  0
ENDTAB
  0
TABLE
  2
LAYER
  5
193
102
{ACAD_XDICTIONARY
360
194
102
}
330
0
100
AcDbSymbolTable
 70
    12
  0
LAYER
  5
4
330
193
100
AcDbSymbolTableRecord
100
AcDbLayerTableRecord
  2
0
 70
     0
 62
     7
  6
CONTINUOUS
370
    -3
390
5
  0
LAYER
  5
37
330
193
100
AcDbSymbolTableRecord
100
AcDbLayerTableRecord
  2
-PROFILAUSSENKANTET
 70
     0
 62
     4
  6
CONTINUOUS
370
    -3
390
5
1001
AVE_FINISH
1002
{
1070
     0
1005
0
1002
}
  0
LAYER
  5
C
330
193
100
AcDbSymbolTableRecord
100
AcDbLayerTableRecord
  2
-DICHTUNG
 70
     0
 62
     3
  6
CONTINUOUS
370
    -3
390
5
1001
AVE_FINISH
1002
{
1070
     0
1005
0
1002
}
  0
LAYER
  5
39
330
193
100
AcDbSymbolTableRecord
100
AcDbLayerTableRecord
  2
-NORMTEIL
 70
     0
 62
     6
  6
CONTINUOUS
370
    -3
390
5
  0
LAYER
  5
77
330
193
100
AcDbSymbolTableRecord
100
AcDbLayerTableRecord
  2
-NORMTEIL_VERDECKT
 70
     0
 62
     9
  6
STRICHLINIEX2
370
    -3
390
5
  0
LAYER
  5
25
330
193
100
AcDbSymbolTableRecord
100
AcDbLayerTableRecord
  2
DEFPOINTS
 70
     0
 62
     7
  6
CONTINUOUS
290
     0
370
    -3
390
5
  0
LAYER
  5
15
330
193
100
AcDbSymbolTableRecord
100
AcDbLayerTableRecord
  2
-SYSTEM
 70
     0
 62
     2
  6
MITTEX2
370
    -3
390
5
  0
LAYER
  5
18
330
193
100
AcDbSymbolTableRecord
100
AcDbLayerTableRecord
  2
-TEXT3
 70
     0
 62
     2
  6
CONTINUOUS
370
    -3
390
5
  0
LAYER
  5
A
330
193
100
AcDbSymbolTableRecord
100
AcDbLayerTableRecord
  2
-SCHRAFFUR
 70
     0
 62
     9
  6
CONTINUOUS
370
    -3
390
5
  0
LAYER
  5
11
330
193
100
AcDbSymbolTableRecord
100
AcDbLayerTableRecord
  2
-VERGLASUNG
 70
     0
 62
     1
  6
CONTINUOUS
370
    -3
390
5
  0
LAYER
  5
11A
330
193
100
AcDbSymbolTableRecord
100
AcDbLayerTableRecord
  2
-TEXT2
 70
     0
 62
     3
  6
CONTINUOUS
370
    -3
390
5
  0
LAYER
  5
149
330
193
100
AcDbSymbolTableRecord
100
AcDbLayerTableRecord
  2
-TRENNEN
 70
     0
 62
     2
  6
GETRENNTX2
370
    -3
390
5
  0
ENDTAB
  0
TABLE
  2
STYLE
  5
196
330
0
100
AcDbSymbolTable
 70
     1
  0
STYLE
  5
1A
330
196
100
AcDbSymbolTableRecord
100
AcDbTextStyleTableRecord
  2
STANDARD
 70
     0
 40
0.0
 41
1.0
 50
0.0
 71
     0
 42
2.5
  3
ARIAL.TTF
  4

1001
ACAD
1000
Arial
1071
       34
  0
ENDTAB
  0
TABLE
  2
VIEW
  5
19B
330
0
100
AcDbSymbolTable
 70
     0
  0
ENDTAB
  0
TABLE
  2
UCS
  5
19C
330
0
100
AcDbSymbolTable
 70
     0
  0
ENDTAB
  0
TABLE
  2
APPID
  5
19F
330
0
100
AcDbSymbolTable
 70
     2
  0
APPID
  5
1B
330
19F
100
AcDbSymbolTableRecord
100
AcDbRegAppTableRecord
  2
ACAD
 70
     0
  0
APPID
  5
D
330
19F
100
AcDbSymbolTableRecord
100
AcDbRegAppTableRecord
  2
AVE_FINISH
 70
     0
  0
ENDTAB
  0
TABLE
  2
DIMSTYLE
  5
1A0
330
0
100
AcDbSymbolTable
 70
     2
100
AcDbDimStyleTable
 71
     2
340
19
340
B5
  0
DIMSTYLE
105
19
102
{ACAD_REACTORS
330
15B
330
17E
330
171
330
53
330
45
330
29
330
17
330
E3
330
D6
330
C9
330
9D
330
FE
330
F0
102
}
330
1A0
100
AcDbSymbolTableRecord
100
AcDbDimStyleTableRecord
  2
1-1
 70
     0
 41
2.0
 42
2.0
 43
2.0
 44
1.0
 73
     0
 74
     0
 77
     1
 78
     9
140
5.0
147
1.0
176
     2
177
     2
178
     3
271
     1
272
     1
289
     2
340
1A
  0
DIMSTYLE
105
B5
102
{ACAD_REACTORS
330
B4
102
}
330
1A0
100
AcDbSymbolTableRecord
100
AcDbDimStyleTableRecord
  2
1-1TOLER5
 70
     0
 41
2.0
 42
2.0
 43
2.0
 44
1.0
 47
5.0
 48
5.0
 71
     1
 73
     0
 74
     0
 77
     1
 78
     9
140
5.0
147
1.0
176
     2
177
     2
178
     3
271
     0
272
     0
289
     2
340
1A
  0
ENDTAB
  0
TABLE
  2
BLOCK_RECORD
  5
1
330
0
100
AcDbSymbolTable
 70
    14
  0
BLOCK_RECORD
  5
2
330
1
100
AcDbSymbolTableRecord
100
AcDbBlockTableRecord
  2
*MODEL_SPACE
340
18D
  0
BLOCK_RECORD
  5
18F
330
1
100
AcDbSymbolTableRecord
100
AcDbBlockTableRecord
  2
*PAPER_SPACE
340
192
  0
BLOCK_RECORD
  5
54
330
1
100
AcDbSymbolTableRecord
100
AcDbBlockTableRecord
  2
*D0
340
0
  0
BLOCK_RECORD
  5
15C
330
1
100
AcDbSymbolTableRecord
100
AcDbBlockTableRecord
  2
*D1
340
0
  0
BLOCK_RECORD
  5
17F
330
1
100
AcDbSymbolTableRecord
100
AcDbBlockTableRecord
  2
*D2
340
0
  0
BLOCK_RECORD
  5
172
330
1
100
AcDbSymbolTableRecord
100
AcDbBlockTableRecord
  2
*D3
340
0
  0
BLOCK_RECORD
  5
46
330
1
100
AcDbSymbolTableRecord
100
AcDbBlockTableRecord
  2
*D4
340
0
  0
BLOCK_RECORD
  5
2A
330
1
100
AcDbSymbolTableRecord
100
AcDbBlockTableRecord
  2
*D5
340
0
  0
BLOCK_RECORD
  5
1C
330
1
100
AcDbSymbolTableRecord
100
AcDbBlockTableRecord
  2
*D6
340
0
  0
BLOCK_RECORD
  5
E4
330
1
100
AcDbSymbolTableRecord
100
AcDbBlockTableRecord
  2
*D7
340
0
  0
BLOCK_RECORD
  5
D7
330
1
100
AcDbSymbolTableRecord
100
AcDbBlockTableRecord
  2
*D8
340
0
  0
BLOCK_RECORD
  5
CA
330
1
100
AcDbSymbolTableRecord
100
AcDbBlockTableRecord
  2
*D9
340
0
  0
BLOCK_RECORD
  5
9E
330
1
100
AcDbSymbolTableRecord
100
AcDbBlockTableRecord
  2
*D10
340
0
  0
BLOCK_RECORD
  5
B6
330
1
100
AcDbSymbolTableRecord
100
AcDbBlockTableRecord
  2
*D11
340
0
  0
BLOCK_RECORD
  5
FF
330
1
100
AcDbSymbolTableRecord
100
AcDbBlockTableRecord
  2
*D12
340
0
  0
BLOCK_RECORD
  5
F1
330
1
100
AcDbSymbolTableRecord
100
AcDbBlockTableRecord
  2
*D13
340
0
  0
ENDTAB
  0
ENDSEC
  0
SECTION
  2
BLOCKS
  0
BLOCK
  5
3
330
2
100
AcDbEntity
  8
0
100
AcDbBlockBegin
  2
*MODEL_SPACE
 70
     0
 10
0.0
 20
0.0
 30
0.0
  3
*MODEL_SPACE
  1

  0
ENDBLK
  5
18C
330
2
100
AcDbEntity
  8
0
100
AcDbBlockEnd
  0
BLOCK
  5
190
330
18F
100
AcDbEntity
 67
     1
  8
0
100
AcDbBlockBegin
  2
*PAPER_SPACE
 70
     0
 10
0.0
 20
0.0
 30
0.0
  3
*PAPER_SPACE
  1

  0
ENDBLK
  5
191
330
18F
100
AcDbEntity
 67
     1
  8
0
100
AcDbBlockEnd
  0
BLOCK
  5
55
330
54
100
AcDbEntity
  8
0
100
AcDbBlockBegin
  2
*D0
 70
     1
 10
0.0
 20
0.0
 30
0.0
  3
*D0
  1

  0
LINE
  5
56
330
54
100
AcDbEntity
  8
-TEXT3
 62
     2
370
    -2
100
AcDbLine
 10
-2.0
 20
-3.979999999999336
 30
0.0
 11
-9.932406276689109
 21
-3.979999999999333
 31
0.0
  0
LINE
  5
57
330
54
100
AcDbEntity
  8
-TEXT3
 62
     2
370
    -2
100
AcDbLine
 10
-2.0
 20
13.52000000000066
 30
0.0
 11
-9.932406276689105
 21
13.52000000000066
 31
0.0
  0
LINE
  5
58
330
54
100
AcDbEntity
  8
-TEXT3
 62
     2
370
    -2
100
AcDbLine
 10
-8.932406276689109
 20
-1.979999999999334
 30
0.0
 11
-8.932406276689107
 21
11.52000000000066
 31
0.0
  0
SOLID
  5
59
330
54
100
AcDbEntity
  8
-TEXT3
 62
     2
100
AcDbTrace
 10
-9.265739610022443
 20
-1.979999999999334
 30
0.0
 11
-8.599072943355775
 21
-1.979999999999334
 31
0.0
 12
-8.932406276689109
 22
-3.979999999999334
 32
0.0
 13
-8.932406276689109
 23
-3.979999999999334
 33
0.0
  0
SOLID
  5
5A
330
54
100
AcDbEntity
  8
-TEXT3
 62
     2
100
AcDbTrace
 10
-9.265739610022441
 20
11.52000000000066
 30
0.0
 11
-8.599072943355773
 21
11.52000000000066
 31
0.0
 12
-8.932406276689105
 22
13.52000000000066
 32
0.0
 13
-8.932406276689105
 23
13.52000000000066
 33
0.0
  0
MTEXT
  5
5B
330
54
100
AcDbEntity
  8
-TEXT3
 62
     3
100
AcDbMText
 10
-12.51767230670275
 20
4.770000000000664
 30
0.0
 40
5.0
 41
0.0
 71
     5
 72
     1
  1
\A1;G
 11
0.0000000000000001
 21
1.0
 31
0.0
 73
     1
 44
1.0
1001
ACAD
1000
MTEXTBEGIN
1070
    73
1070
     1
1070
    44
1040
1.0
1070
    74
1070
     0
1000
MTEXTEND
  0
POINT
  5
5C
330
54
100
AcDbEntity
  8
DEFPOINTS
 62
     0
100
AcDbPoint
 10
0.0
 20
-3.979999999999336
 30
0.0
  0
POINT
  5
5D
330
54
100
AcDbEntity
  8
DEFPOINTS
 62
     0
100
AcDbPoint
 10
0.0
 20
13.52000000000066
 30
0.0
  0
POINT
  5
5E
330
54
100
AcDbEntity
  8
DEFPOINTS
 62
     0
100
AcDbPoint
 10
-8.932406276689105
 20
13.52000000000066
 30
0.0
  0
ENDBLK
  5
5F
330
54
100
AcDbEntity
  8
0
100
AcDbBlockEnd
  0
BLOCK
  5
15D
330
15C
100
AcDbEntity
  8
0
100
AcDbBlockBegin
  2
*D1
 70
     1
 10
0.0
 20
0.0
 30
0.0
  3
*D1
  1

  0
LINE
  5
15E
330
15C
100
AcDbEntity
  8
-SCHRAFFUR
 62
     2
370
    -2
100
AcDbLine
 10
15.75334615978102
 20
-12.78574582323205
 30
0.0
 11
15.75334615978101
 21
-32.80671051213716
 31
0.0
  0
LINE
  5
15F
330
15C
100
AcDbEntity
  8
-SCHRAFFUR
 62
     2
370
    -2
100
AcDbLine
 10
67.75334615978113
 20
-12.78574582323364
 30
0.0
 11
67.75334615978113
 21
-32.80671051213716
 31
0.0
  0
LINE
  5
160
330
15C
100
AcDbEntity
  8
-SCHRAFFUR
 62
     2
370
    -2
100
AcDbLine
 10
17.75334615978102
 20
-31.80671051213716
 30
0.0
 11
65.75334615978113
 21
-31.80671051213716
 31
0.0
  0
SOLID
  5
161
330
15C
100
AcDbEntity
  8
-SCHRAFFUR
 62
     2
100
AcDbTrace
 10
17.75334615978102
 20
-31.47337717880383
 30
0.0
 11
17.75334615978102
 21
-32.14004384547049
 31
0.0
 12
15.75334615978101
 22
-31.80671051213716
 32
0.0
 13
15.75334615978101
 23
-31.80671051213716
 33
0.0
  0
SOLID
  5
162
330
15C
100
AcDbEntity
  8
-SCHRAFFUR
 62
     2
100
AcDbTrace
 10
65.75334615978113
 20
-31.47337717880383
 30
0.0
 11
65.75334615978113
 21
-32.14004384547049
 31
0.0
 12
67.75334615978113
 22
-31.80671051213716
 32
0.0
 13
67.75334615978113
 23
-31.80671051213716
 33
0.0
  0
MTEXT
  5
163
330
15C
100
AcDbEntity
  8
-SCHRAFFUR
 62
     3
100
AcDbMText
 10
41.75334615978107
 20
-28.11400928430633
 30
0.0
 40
5.0
 41
0.0
 71
     5
 72
     1
  1
\A1;%%c52
 73
     1
 44
1.0
1001
ACAD
1000
MTEXTBEGIN
1070
    73
1070
     1
1070
    44
1040
1.0
1070
    74
1070
     0
1000
MTEXTEND
  0
POINT
  5
164
330
15C
100
AcDbEntity
  8
DEFPOINTS
 62
     0
100
AcDbPoint
 10
15.75334615978102
 20
-10.78574582323205
 30
0.0
  0
POINT
  5
165
330
15C
100
AcDbEntity
  8
DEFPOINTS
 62
     0
100
AcDbPoint
 10
67.75334615978113
 20
-10.78574582323364
 30
0.0
  0
POINT
  5
166
330
15C
100
AcDbEntity
  8
DEFPOINTS
 62
     0
100
AcDbPoint
 10
67.75334615978113
 20
-31.80671051213716
 30
0.0
  0
ENDBLK
  5
167
330
15C
100
AcDbEntity
  8
0
100
AcDbBlockEnd
  0
BLOCK
  5
180
330
17F
100
AcDbEntity
  8
0
100
AcDbBlockBegin
  2
*D2
 70
     1
 10
0.0
 20
0.0
 30
0.0
  3
*D2
  1

  0
LINE
  5
181
330
17F
100
AcDbEntity
  8
-TEXT3
 62
     2
370
    -2
100
AcDbLine
 10
-5.841081252583535
 20
-3.979999999999335
 30
0.0
 11
-9.932406276689107
 21
-3.979999999999334
 31
0.0
  0
LINE
  5
182
330
17F
100
AcDbEntity
  8
-TEXT3
 62
     2
370
    -2
100
AcDbLine
 10
13.75334615978114
 20
-6.979999999999619
 30
0.0
 11
-9.932406276689107
 21
-6.979999999999613
 31
0.0
  0
LINE
  5
183
330
17F
100
AcDbEntity
  8
-TEXT3
 62
     2
370
    -2
100
AcDbLine
 10
-8.932406276689107
 20
-1.979999999999334
 30
0.0
 11
-8.932406276689107
 21
0.0200000000006655
 31
0.0
  0
LINE
  5
184
330
17F
100
AcDbEntity
  8
-TEXT3
 62
     2
370
    -2
100
AcDbLine
 10
-8.932406276689109
 20
-8.979999999999613
 30
0.0
 11
-8.932406276689109
 21
-10.97999999999961
 31
0.0
  0
SOLID
  5
185
330
17F
100
AcDbEntity
  8
-TEXT3
 62
     2
100
AcDbTrace
 10
-9.265739610022441
 20
-1.979999999999334
 30
0.0
 11
-8.599072943355773
 21
-1.979999999999334
 31
0.0
 12
-8.932406276689107
 22
-3.979999999999334
 32
0.0
 13
-8.932406276689107
 23
-3.979999999999334
 33
0.0
  0
SOLID
  5
186
330
17F
100
AcDbEntity
  8
-TEXT3
 62
     2
100
AcDbTrace
 10
-9.265739610022443
 20
-8.979999999999613
 30
0.0
 11
-8.599072943355775
 21
-8.979999999999613
 31
0.0
 12
-8.932406276689109
 22
-6.979999999999613
 32
0.0
 13
-8.932406276689109
 23
-6.979999999999613
 33
0.0
  0
MTEXT
  5
187
330
17F
100
AcDbEntity
  8
-TEXT3
 62
     3
100
AcDbMText
 10
-12.48697653589784
 20
-5.479999999999474
 30
0.0
 40
5.0
 41
0.0
 71
     5
 72
     1
  1
\A1;3
 11
0.0000000000000001
 21
1.0
 31
0.0
 73
     1
 44
1.0
1001
ACAD
1000
MTEXTBEGIN
1070
    73
1070
     1
1070
    44
1040
1.0
1070
    74
1070
     0
1000
MTEXTEND
  0
POINT
  5
188
330
17F
100
AcDbEntity
  8
DEFPOINTS
 62
     0
100
AcDbPoint
 10
-3.841081252583535
 20
-3.979999999999336
 30
0.0
  0
POINT
  5
189
330
17F
100
AcDbEntity
  8
DEFPOINTS
 62
     0
100
AcDbPoint
 10
15.75334615978114
 20
-6.97999999999962
 30
0.0
  0
POINT
  5
18A
330
17F
100
AcDbEntity
  8
DEFPOINTS
 62
     0
100
AcDbPoint
 10
-8.932406276689109
 20
-6.979999999999613
 30
0.0
  0
ENDBLK
  5
18B
330
17F
100
AcDbEntity
  8
0
100
AcDbBlockEnd
  0
BLOCK
  5
173
330
172
100
AcDbEntity
  8
0
100
AcDbBlockBegin
  2
*D3
 70
     1
 10
0.0
 20
0.0
 30
0.0
  3
*D3
  1

  0
LINE
  5
174
330
172
100
AcDbEntity
  8
-TEXT3
 62
     2
370
    -2
100
AcDbLine
 10
34.75334615978069
 20
-14.97999999999939
 30
0.0
 11
-9.932406276689111
 21
-14.97999999999938
 31
0.0
  0
LINE
  5
175
330
172
100
AcDbEntity
  8
-TEXT3
 62
     2
370
    -2
100
AcDbLine
 10
0.7336155505434049
 20
-6.979999999999619
 30
0.0
 11
-9.932406276689107
 21
-6.979999999999616
 31
0.0
  0
LINE
  5
176
330
172
100
AcDbEntity
  8
-TEXT3
 62
     2
370
    -2
100
AcDbLine
 10
-8.932406276689109
 20
-12.97999999999938
 30
0.0
 11
-8.932406276689107
 21
-8.979999999999616
 31
0.0
  0
SOLID
  5
177
330
172
100
AcDbEntity
  8
-TEXT3
 62
     2
100
AcDbTrace
 10
-9.265739610022443
 20
-12.97999999999938
 30
0.0
 11
-8.599072943355775
 21
-12.97999999999938
 31
0.0
 12
-8.932406276689109
 22
-14.97999999999938
 32
0.0
 13
-8.932406276689109
 23
-14.97999999999938
 33
0.0
  0
SOLID
  5
178
330
172
100
AcDbEntity
  8
-TEXT3
 62
     2
100
AcDbTrace
 10
-9.265739610022441
 20
-8.979999999999616
 30
0.0
 11
-8.599072943355773
 21
-8.979999999999616
 31
0.0
 12
-8.932406276689107
 22
-6.979999999999616
 32
0.0
 13
-8.932406276689107
 23
-6.979999999999616
 33
0.0
  0
MTEXT
  5
179
330
172
100
AcDbEntity
  8
-TEXT3
 62
     3
100
AcDbMText
 10
-12.48527121529756
 20
-10.9799999999995
 30
0.0
 40
5.0
 41
0.0
 71
     5
 72
     1
  1
\A1;8
 11
0.0000000000000001
 21
1.0
 31
0.0
 73
     1
 44
1.0
1001
ACAD
1000
MTEXTBEGIN
1070
    73
1070
     1
1070
    44
1040
1.0
1070
    74
1070
     0
1000
MTEXTEND
  0
POINT
  5
17A
330
172
100
AcDbEntity
  8
DEFPOINTS
 62
     0
100
AcDbPoint
 10
36.75334615978068
 20
-14.97999999999939
 30
0.0
  0
POINT
  5
17B
330
172
100
AcDbEntity
  8
DEFPOINTS
 62
     0
100
AcDbPoint
 10
2.733615550543404
 20
-6.97999999999962
 30
0.0
  0
POINT
  5
17C
330
172
100
AcDbEntity
  8
DEFPOINTS
 62
     0
100
AcDbPoint
 10
-8.932406276689107
 20
-6.979999999999616
 30
0.0
  0
ENDBLK
  5
17D
330
172
100
AcDbEntity
  8
0
100
AcDbBlockEnd
  0
BLOCK
  5
47
330
46
100
AcDbEntity
  8
0
100
AcDbBlockBegin
  2
*D4
 70
     1
 10
0.0
 20
0.0
 30
0.0
  3
*D4
  1

  0
LINE
  5
48
330
46
100
AcDbEntity
  8
-TEXT3
 62
     2
370
    -2
100
AcDbLine
 10
-2.0
 20
13.52000000000066
 30
0.0
 11
-9.932406276689105
 21
13.52000000000066
 31
0.0
  0
LINE
  5
49
330
46
100
AcDbEntity
  8
-TEXT3
 62
     2
370
    -2
100
AcDbLine
 10
13.75334615978158
 20
16.52000000000066
 30
0.0
 11
-9.932406276689107
 21
16.52000000000067
 31
0.0
  0
LINE
  5
4A
330
46
100
AcDbEntity
  8
-TEXT3
 62
     2
370
    -2
100
AcDbLine
 10
-8.932406276689107
 20
11.52000000000066
 30
0.0
 11
-8.932406276689107
 21
9.520000000000665
 31
0.0
  0
LINE
  5
4B
330
46
100
AcDbEntity
  8
-TEXT3
 62
     2
370
    -2
100
AcDbLine
 10
-8.932406276689105
 20
18.52000000000067
 30
0.0
 11
-8.932406276689103
 21
25.79421555252455
 31
0.0
  0
SOLID
  5
4C
330
46
100
AcDbEntity
  8
-TEXT3
 62
     2
100
AcDbTrace
 10
-9.265739610022441
 20
11.52000000000066
 30
0.0
 11
-8.599072943355773
 21
11.52000000000066
 31
0.0
 12
-8.932406276689105
 22
13.52000000000066
 32
0.0
 13
-8.932406276689105
 23
13.52000000000066
 33
0.0
  0
SOLID
  5
4D
330
46
100
AcDbEntity
  8
-TEXT3
 62
     2
100
AcDbTrace
 10
-9.265739610022439
 20
18.52000000000067
 30
0.0
 11
-8.599072943355771
 21
18.52000000000067
 31
0.0
 12
-8.932406276689105
 22
16.52000000000067
 32
0.0
 13
-8.932406276689105
 23
16.52000000000067
 33
0.0
  0
MTEXT
  5
4E
330
46
100
AcDbEntity
  8
-TEXT3
 62
     3
100
AcDbMText
 10
-12.48697653589784
 20
23.15710777626261
 30
0.0
 40
5.0
 41
0.0
 71
     5
 72
     1
  1
\A1;3
 11
0.0000000000000001
 21
1.0
 31
0.0
 73
     1
 44
1.0
1001
ACAD
1000
MTEXTBEGIN
1070
    73
1070
     1
1070
    44
1040
1.0
1070
    74
1070
     0
1000
MTEXTEND
  0
POINT
  5
4F
330
46
100
AcDbEntity
  8
DEFPOINTS
 62
     0
100
AcDbPoint
 10
0.0
 20
13.52000000000066
 30
0.0
  0
POINT
  5
50
330
46
100
AcDbEntity
  8
DEFPOINTS
 62
     0
100
AcDbPoint
 10
15.75334615978158
 20
16.52000000000066
 30
0.0
  0
POINT
  5
51
330
46
100
AcDbEntity
  8
DEFPOINTS
 62
     0
100
AcDbPoint
 10
-8.932406276689105
 20
16.52000000000067
 30
0.0
  0
ENDBLK
  5
52
330
46
100
AcDbEntity
  8
0
100
AcDbBlockEnd
  0
BLOCK
  5
2B
330
2A
100
AcDbEntity
  8
0
100
AcDbBlockBegin
  2
*D5
 70
     1
 10
0.0
 20
0.0
 30
0.0
  3
*D5
  1

  0
LINE
  5
2C
330
2A
100
AcDbEntity
  8
-TEXT3
 62
     2
370
    -2
100
AcDbLine
 10
-11.9324062766891
 20
13.52000000000066
 30
0.0
 11
-19.932406276689
 21
13.52000000000066
 31
0.0
  0
LINE
  5
2D
330
2A
100
AcDbEntity
  8
-TEXT3
 62
     2
370
    -2
100
AcDbLine
 10
23.90249825138039
 20
54.10804001086489
 30
0.0
 11
-19.93240627668899
 21
54.10804001086491
 31
0.0
  0
LINE
  5
2E
330
2A
100
AcDbEntity
  8
-TEXT3
 62
     2
370
    -2
100
AcDbLine
 10
-18.932406276689
 20
15.52000000000066
 30
0.0
 11
-18.93240627668899
 21
52.10804001086491
 31
0.0
  0
SOLID
  5
2F
330
2A
100
AcDbEntity
  8
-TEXT3
 62
     2
100
AcDbTrace
 10
-19.26573961002233
 20
15.52000000000066
 30
0.0
 11
-18.59907294335567
 21
15.52000000000066
 31
0.0
 12
-18.932406276689
 22
13.52000000000066
 32
0.0
 13
-18.932406276689
 23
13.52000000000066
 33
0.0
  0
SOLID
  5
30
330
2A
100
AcDbEntity
  8
-TEXT3
 62
     2
100
AcDbTrace
 10
-19.26573961002232
 20
52.10804001086491
 30
0.0
 11
-18.59907294335566
 21
52.10804001086491
 31
0.0
 12
-18.93240627668899
 22
54.10804001086491
 32
0.0
 13
-18.93240627668899
 23
54.10804001086491
 33
0.0
  0
MTEXT
  5
31
330
2A
100
AcDbEntity
  8
-TEXT3
 62
     3
100
AcDbMText
 10
-22.48527121529746
 20
33.81402000543278
 30
0.0
 40
5.0
 41
0.0
 71
     5
 72
     1
  1
\A1;40.6
 11
0.0000000000000001
 21
1.0
 31
0.0
 73
     1
 44
1.0
1001
ACAD
1000
MTEXTBEGIN
1070
    73
1070
     1
1070
    44
1040
1.0
1070
    74
1070
     0
1000
MTEXTEND
  0
POINT
  5
32
330
2A
100
AcDbEntity
  8
DEFPOINTS
 62
     0
100
AcDbPoint
 10
-9.932406276689107
 20
13.52000000000066
 30
0.0
  0
POINT
  5
33
330
2A
100
AcDbEntity
  8
DEFPOINTS
 62
     0
100
AcDbPoint
 10
25.9024982513804
 20
54.10804001086489
 30
0.0
  0
POINT
  5
34
330
2A
100
AcDbEntity
  8
DEFPOINTS
 62
     0
100
AcDbPoint
 10
-18.93240627668899
 20
54.10804001086491
 30
0.0
  0
ENDBLK
  5
35
330
2A
100
AcDbEntity
  8
0
100
AcDbBlockEnd
  0
BLOCK
  5
1D
330
1C
100
AcDbEntity
  8
0
100
AcDbBlockBegin
  2
*D6
 70
     1
 10
0.0
 20
0.0
 30
0.0
  3
*D6
  1

  0
LINE
  5
1E
330
1C
100
AcDbEntity
  8
-TEXT3
 62
     2
370
    -2
100
AcDbLine
 10
-21.93240627668899
 20
13.52000000000066
 30
0.0
 11
-29.932406276689
 21
13.52000000000067
 31
0.0
  0
LINE
  5
1F
330
1C
100
AcDbEntity
  8
-TEXT3
 62
     2
370
    -2
100
AcDbLine
 10
39.75334615978159
 20
66.60804001086489
 30
0.0
 11
-29.932406276689
 21
66.60804001086491
 31
0.0
  0
LINE
  5
20
330
1C
100
AcDbEntity
  8
-TEXT3
 62
     2
370
    -2
100
AcDbLine
 10
-28.932406276689
 20
15.52000000000067
 30
0.0
 11
-28.932406276689
 21
64.60804001086491
 31
0.0
  0
SOLID
  5
21
330
1C
100
AcDbEntity
  8
-TEXT3
 62
     2
100
AcDbTrace
 10
-29.26573961002234
 20
15.52000000000067
 30
0.0
 11
-28.59907294335567
 21
15.52000000000067
 31
0.0
 12
-28.932406276689
 22
13.52000000000067
 32
0.0
 13
-28.932406276689
 23
13.52000000000067
 33
0.0
  0
SOLID
  5
22
330
1C
100
AcDbEntity
  8
-TEXT3
 62
     2
100
AcDbTrace
 10
-29.26573961002233
 20
64.60804001086491
 30
0.0
 11
-28.59907294335566
 21
64.60804001086491
 31
0.0
 12
-28.932406276689
 22
66.60804001086491
 32
0.0
 13
-28.932406276689
 23
66.60804001086491
 33
0.0
  0
MTEXT
  5
23
330
1C
100
AcDbEntity
  8
-TEXT3
 62
     3
100
AcDbMText
 10
-32.48697653589774
 20
40.06402000543278
 30
0.0
 40
5.0
 41
0.0
 71
     5
 72
     1
  1
\A1;53.1
 11
0.0000000000000001
 21
1.0
 31
0.0
 73
     1
 44
1.0
1001
ACAD
1000
MTEXTBEGIN
1070
    73
1070
     1
1070
    44
1040
1.0
1070
    74
1070
     0
1000
MTEXTEND
  0
POINT
  5
24
330
1C
100
AcDbEntity
  8
DEFPOINTS
 62
     0
100
AcDbPoint
 10
-19.93240627668899
 20
13.52000000000066
 30
0.0
  0
POINT
  5
26
330
1C
100
AcDbEntity
  8
DEFPOINTS
 62
     0
100
AcDbPoint
 10
41.75334615978158
 20
66.60804001086489
 30
0.0
  0
POINT
  5
27
330
1C
100
AcDbEntity
  8
DEFPOINTS
 62
     0
100
AcDbPoint
 10
-28.932406276689
 20
66.60804001086491
 30
0.0
  0
ENDBLK
  5
28
330
1C
100
AcDbEntity
  8
0
100
AcDbBlockEnd
  0
BLOCK
  5
E5
330
E4
100
AcDbEntity
  8
0
100
AcDbBlockBegin
  2
*D7
 70
     1
 10
0.0
 20
0.0
 30
0.0
  3
*D7
  1

  0
LINE
  5
E6
330
E4
100
AcDbEntity
  8
-TEXT3
 62
     2
370
    -2
100
AcDbLine
 10
129.5533461597829
 20
69.10804001086467
 30
0.0
 11
177.2663347936804
 21
69.10804001086465
 31
0.0
  0
LINE
  5
E7
330
E4
100
AcDbEntity
  8
-TEXT3
 62
     2
370
    -2
100
AcDbLine
 10
129.5533461597825
 20
39.10804001086467
 30
0.0
 11
177.2663347936803
 21
39.10804001086466
 31
0.0
  0
LINE
  5
E8
330
E4
100
AcDbEntity
  8
-TEXT3
 62
     2
370
    -2
100
AcDbLine
 10
176.2663347936804
 20
67.10804001086465
 30
0.0
 11
176.2663347936803
 21
41.10804001086465
 31
0.0
  0
SOLID
  5
E9
330
E4
100
AcDbEntity
  8
-TEXT3
 62
     2
100
AcDbTrace
 10
175.933001460347
 20
67.10804001086465
 30
0.0
 11
176.5996681270137
 21
67.10804001086465
 31
0.0
 12
176.2663347936804
 22
69.10804001086465
 32
0.0
 13
176.2663347936804
 23
69.10804001086465
 33
0.0
  0
SOLID
  5
EA
330
E4
100
AcDbEntity
  8
-TEXT3
 62
     2
100
AcDbTrace
 10
175.933001460347
 20
41.10804001086466
 30
0.0
 11
176.5996681270137
 21
41.10804001086465
 31
0.0
 12
176.2663347936803
 22
39.10804001086466
 32
0.0
 13
176.2663347936803
 23
39.10804001086466
 33
0.0
  0
MTEXT
  5
EB
330
E4
100
AcDbEntity
  8
-TEXT3
 62
     3
100
AcDbMText
 10
172.5736335658495
 20
54.10804001086468
 30
0.0
 40
5.0
 41
0.0
 71
     5
 72
     1
  1
\A1;%%c30
 11
0.0000000000000001
 21
1.0
 31
0.0
 73
     1
 44
1.0
1001
ACAD
1000
MTEXTBEGIN
1070
    73
1070
     1
1070
    44
1040
1.0
1070
    74
1070
     0
1000
MTEXTEND
  0
POINT
  5
EC
330
E4
100
AcDbEntity
  8
DEFPOINTS
 62
     0
100
AcDbPoint
 10
127.5533461597829
 20
69.10804001086467
 30
0.0
  0
POINT
  5
ED
330
E4
100
AcDbEntity
  8
DEFPOINTS
 62
     0
100
AcDbPoint
 10
127.5533461597825
 20
39.10804001086467
 30
0.0
  0
POINT
  5
EE
330
E4
100
AcDbEntity
  8
DEFPOINTS
 62
     0
100
AcDbPoint
 10
176.2663347936803
 20
39.10804001086466
 30
0.0
  0
ENDBLK
  5
EF
330
E4
100
AcDbEntity
  8
0
100
AcDbBlockEnd
  0
BLOCK
  5
D8
330
D7
100
AcDbEntity
  8
0
100
AcDbBlockBegin
  2
*D8
 70
     1
 10
0.0
 20
0.0
 30
0.0
  3
*D8
  1

  0
LINE
  5
D9
330
D7
100
AcDbEntity
  8
-TEXT3
 62
     2
370
    -2
100
AcDbLine
 10
133.7533461597829
 20
74.10804001086467
 30
0.0
 11
187.1253729983729
 21
74.10804001086465
 31
0.0
  0
LINE
  5
DA
330
D7
100
AcDbEntity
  8
-TEXT3
 62
     2
370
    -2
100
AcDbLine
 10
133.7533461597826
 20
34.10804001086467
 30
0.0
 11
187.1253729983729
 21
34.10804001086466
 31
0.0
  0
LINE
  5
DB
330
D7
100
AcDbEntity
  8
-TEXT3
 62
     2
370
    -2
100
AcDbLine
 10
186.1253729983729
 20
72.10804001086465
 30
0.0
 11
186.1253729983729
 21
36.10804001086466
 31
0.0
  0
SOLID
  5
DC
330
D7
100
AcDbEntity
  8
-TEXT3
 62
     2
100
AcDbTrace
 10
185.7920396650395
 20
72.10804001086465
 30
0.0
 11
186.4587063317062
 21
72.10804001086465
 31
0.0
 12
186.1253729983729
 22
74.10804001086465
 32
0.0
 13
186.1253729983729
 23
74.10804001086465
 33
0.0
  0
SOLID
  5
DD
330
D7
100
AcDbEntity
  8
-TEXT3
 62
     2
100
AcDbTrace
 10
185.7920396650395
 20
36.10804001086466
 30
0.0
 11
186.4587063317062
 21
36.10804001086466
 31
0.0
 12
186.1253729983729
 22
34.10804001086466
 32
0.0
 13
186.1253729983729
 23
34.10804001086466
 33
0.0
  0
MTEXT
  5
DE
330
D7
100
AcDbEntity
  8
-TEXT3
 62
     3
100
AcDbMText
 10
182.432671770542
 20
54.10804001086467
 30
0.0
 40
5.0
 41
0.0
 71
     5
 72
     1
  1
\A1;%%c40
 11
0.0000000000000001
 21
1.0
 31
0.0
 73
     1
 44
1.0
1001
ACAD
1000
MTEXTBEGIN
1070
    73
1070
     1
1070
    44
1040
1.0
1070
    74
1070
     0
1000
MTEXTEND
  0
POINT
  5
DF
330
D7
100
AcDbEntity
  8
DEFPOINTS
 62
     0
100
AcDbPoint
 10
131.7533461597829
 20
74.10804001086467
 30
0.0
  0
POINT
  5
E0
330
D7
100
AcDbEntity
  8
DEFPOINTS
 62
     0
100
AcDbPoint
 10
131.7533461597826
 20
34.10804001086467
 30
0.0
  0
POINT
  5
E1
330
D7
100
AcDbEntity
  8
DEFPOINTS
 62
     0
100
AcDbPoint
 10
186.1253729983729
 20
34.10804001086466
 30
0.0
  0
ENDBLK
  5
E2
330
D7
100
AcDbEntity
  8
0
100
AcDbBlockEnd
  0
BLOCK
  5
CB
330
CA
100
AcDbEntity
  8
0
100
AcDbBlockBegin
  2
*D9
 70
     1
 10
0.0
 20
0.0
 30
0.0
  3
*D9
  1

  0
LINE
  5
CC
330
CA
100
AcDbEntity
  8
-TEXT3
 62
     2
370
    -2
100
AcDbLine
 10
158.8976232459688
 20
49.10804001088502
 30
0.0
 11
166.9601908922385
 21
49.10804001088502
 31
0.0
  0
LINE
  5
CD
330
CA
100
AcDbEntity
  8
-TEXT3
 62
     2
370
    -2
100
AcDbLine
 10
158.8976232459687
 20
59.10804001084489
 30
0.0
 11
166.9601908922385
 21
59.10804001084489
 31
0.0
  0
LINE
  5
CE
330
CA
100
AcDbEntity
  8
-TEXT3
 62
     2
370
    -2
100
AcDbLine
 10
165.9601908922385
 20
51.10804001088502
 30
0.0
 11
165.9601908922385
 21
57.10804001084489
 31
0.0
  0
SOLID
  5
CF
330
CA
100
AcDbEntity
  8
-TEXT3
 62
     2
100
AcDbTrace
 10
165.6268575589052
 20
51.10804001088502
 30
0.0
 11
166.2935242255718
 21
51.10804001088502
 31
0.0
 12
165.9601908922385
 22
49.10804001088502
 32
0.0
 13
165.9601908922385
 23
49.10804001088502
 33
0.0
  0
SOLID
  5
D0
330
CA
100
AcDbEntity
  8
-TEXT3
 62
     2
100
AcDbTrace
 10
165.6268575589052
 20
57.10804001084489
 30
0.0
 11
166.2935242255718
 21
57.10804001084489
 31
0.0
 12
165.9601908922385
 22
59.10804001084489
 32
0.0
 13
165.9601908922385
 23
59.10804001084489
 33
0.0
  0
MTEXT
  5
D1
330
CA
100
AcDbEntity
  8
-TEXT3
 62
     3
100
AcDbMText
 10
162.40732595363
 20
54.10804001086498
 30
0.0
 40
5.0
 41
0.0
 71
     5
 72
     1
  1
\A1;M10
 11
0.0000000000000001
 21
1.0
 31
0.0
 73
     1
 44
1.0
1001
ACAD
1000
MTEXTBEGIN
1070
    73
1070
     1
1070
    44
1040
1.0
1070
    74
1070
     0
1000
MTEXTEND
  0
POINT
  5
D2
330
CA
100
AcDbEntity
  8
DEFPOINTS
 62
     0
100
AcDbPoint
 10
156.8976232459688
 20
49.10804001088502
 30
0.0
  0
POINT
  5
D3
330
CA
100
AcDbEntity
  8
DEFPOINTS
 62
     0
100
AcDbPoint
 10
156.8976232459687
 20
59.10804001084489
 30
0.0
  0
POINT
  5
D4
330
CA
100
AcDbEntity
  8
DEFPOINTS
 62
     0
100
AcDbPoint
 10
165.9601908922385
 20
59.10804001084489
 30
0.0
  0
ENDBLK
  5
D5
330
CA
100
AcDbEntity
  8
0
100
AcDbBlockEnd
  0
BLOCK
  5
9F
330
9E
100
AcDbEntity
  8
0
100
AcDbBlockBegin
  2
*D10
 70
     1
 10
0.0
 20
0.0
 30
0.0
  3
*D10
  1

  0
LINE
  5
A0
330
9E
100
AcDbEntity
  8
-TEXT3
 62
     2
370
    -2
100
AcDbLine
 10
131.7533461597829
 20
76.10804001086467
 30
0.0
 11
131.7533461597829
 21
101.1842330874472
 31
0.0
  0
LINE
  5
A1
330
9E
100
AcDbEntity
  8
-TEXT3
 62
     2
370
    -2
100
AcDbLine
 10
91.75334615978272
 20
71.10804001086478
 30
0.0
 11
91.75334615978272
 21
101.1842330874472
 31
0.0
  0
LINE
  5
A2
330
9E
100
AcDbEntity
  8
-TEXT3
 62
     2
370
    -2
100
AcDbLine
 10
129.7533461597829
 20
100.1842330874472
 30
0.0
 11
93.75334615978273
 21
100.1842330874472
 31
0.0
  0
SOLID
  5
A3
330
9E
100
AcDbEntity
  8
-TEXT3
 62
     2
100
AcDbTrace
 10
129.7533461597829
 20
100.5175664207805
 30
0.0
 11
129.7533461597829
 21
99.85089975411385
 31
0.0
 12
131.7533461597829
 22
100.1842330874472
 32
0.0
 13
131.7533461597829
 23
100.1842330874472
 33
0.0
  0
SOLID
  5
A4
330
9E
100
AcDbEntity
  8
-TEXT3
 62
     2
100
AcDbTrace
 10
93.75334615978273
 20
100.5175664207805
 30
0.0
 11
93.75334615978273
 21
99.85089975411385
 31
0.0
 12
91.75334615978272
 22
100.1842330874472
 32
0.0
 13
91.75334615978272
 23
100.1842330874472
 33
0.0
  0
MTEXT
  5
A5
330
9E
100
AcDbEntity
  8
-TEXT3
 62
     3
100
AcDbMText
 10
111.7533461597828
 20
103.7370980260556
 30
0.0
 40
5.0
 41
0.0
 71
     5
 72
     1
  1
\A1;40
 73
     1
 44
1.0
1001
ACAD
1000
MTEXTBEGIN
1070
    73
1070
     1
1070
    44
1040
1.0
1070
    74
1070
     0
1000
MTEXTEND
  0
POINT
  5
A6
330
9E
100
AcDbEntity
  8
DEFPOINTS
 62
     0
100
AcDbPoint
 10
131.7533461597829
 20
74.10804001086467
 30
0.0
  0
POINT
  5
A7
330
9E
100
AcDbEntity
  8
DEFPOINTS
 62
     0
100
AcDbPoint
 10
91.75334615978272
 20
69.10804001086479
 30
0.0
  0
POINT
  5
A8
330
9E
100
AcDbEntity
  8
DEFPOINTS
 62
     0
100
AcDbPoint
 10
91.75334615978272
 20
100.1842330874472
 30
0.0
  0
ENDBLK
  5
A9
330
9E
100
AcDbEntity
  8
0
100
AcDbBlockEnd
  0
BLOCK
  5
B7
330
B6
100
AcDbEntity
  8
0
100
AcDbBlockBegin
  2
*D11
 70
     1
 10
0.0
 20
0.0
 30
0.0
  3
*D11
  1

  0
LINE
  5
B8
330
B6
100
AcDbEntity
  8
-TEXT3
 62
     2
370
    -2
100
AcDbLine
 10
41.75334615978136
 20
71.10804001086501
 30
0.0
 11
41.75334615978136
 21
119.1397218938463
 31
0.0
  0
LINE
  5
B9
330
B6
100
AcDbEntity
  8
-TEXT3
 62
     2
370
    -2
100
AcDbLine
 10
131.7533461597829
 20
103.1842330874471
 30
0.0
 11
131.7533461597829
 21
119.1397218938463
 31
0.0
  0
LINE
  5
BA
330
B6
100
AcDbEntity
  8
-TEXT3
 62
     2
370
    -2
100
AcDbLine
 10
43.75334615978135
 20
118.1397218938463
 30
0.0
 11
129.7533461597829
 21
118.1397218938463
 31
0.0
  0
SOLID
  5
BB
330
B6
100
AcDbEntity
  8
-TEXT3
 62
     2
100
AcDbTrace
 10
43.75334615978135
 20
118.4730552271797
 30
0.0
 11
43.75334615978135
 21
117.806388560513
 31
0.0
 12
41.75334615978136
 22
118.1397218938463
 32
0.0
 13
41.75334615978136
 23
118.1397218938463
 33
0.0
  0
SOLID
  5
BC
330
B6
100
AcDbEntity
  8
-TEXT3
 62
     2
100
AcDbTrace
 10
129.7533461597829
 20
118.4730552271797
 30
0.0
 11
129.7533461597829
 21
117.806388560513
 31
0.0
 12
131.7533461597829
 22
118.1397218938463
 32
0.0
 13
131.7533461597829
 23
118.1397218938463
 33
0.0
  0
MTEXT
  5
BD
330
B6
100
AcDbEntity
  8
-TEXT3
 62
     3
100
AcDbMText
 10
86.75334615978215
 20
121.6925868324548
 30
0.0
 40
5.0
 41
0.0
 71
     5
 72
     1
  1
\A1;90±5
 73
     1
 44
1.0
1001
ACAD
1000
MTEXTBEGIN
1070
    73
1070
     1
1070
    44
1040
1.0
1070
    74
1070
     0
1000
MTEXTEND
  0
POINT
  5
BE
330
B6
100
AcDbEntity
  8
DEFPOINTS
 62
     0
100
AcDbPoint
 10
41.75334615978136
 20
69.10804001086501
 30
0.0
  0
POINT
  5
BF
330
B6
100
AcDbEntity
  8
DEFPOINTS
 62
     0
100
AcDbPoint
 10
131.7533461597829
 20
101.1842330874472
 30
0.0
  0
POINT
  5
C0
330
B6
100
AcDbEntity
  8
DEFPOINTS
 62
     0
100
AcDbPoint
 10
131.7533461597829
 20
118.1397218938463
 30
0.0
  0
ENDBLK
  5
C1
330
B6
100
AcDbEntity
  8
0
100
AcDbBlockEnd
  0
BLOCK
  5
100
330
FF
100
AcDbEntity
  8
0
100
AcDbBlockBegin
  2
*D12
 70
     1
 10
0.0
 20
0.0
 30
0.0
  3
*D12
  1

  0
LINE
  5
101
330
FF
100
AcDbEntity
  8
-TEXT3
 62
     2
370
    -2
100
AcDbLine
 10
223.6991494354678
 20
46.10804001086464
 30
0.0
 11
254.1148327532332
 21
46.10804001086463
 31
0.0
  0
LINE
  5
102
330
FF
100
AcDbEntity
  8
-TEXT3
 62
     2
370
    -2
100
AcDbLine
 10
223.6991494354679
 20
62.10804001086462
 30
0.0
 11
254.1148327532332
 21
62.10804001086461
 31
0.0
  0
LINE
  5
103
330
FF
100
AcDbEntity
  8
-TEXT3
 62
     2
370
    -2
100
AcDbLine
 10
253.1148327532331
 20
48.10804001086463
 30
0.0
 11
253.1148327532331
 21
60.1080400108646
 31
0.0
  0
SOLID
  5
104
330
FF
100
AcDbEntity
  8
-TEXT3
 62
     2
100
AcDbTrace
 10
252.7814994198998
 20
48.10804001086463
 30
0.0
 11
253.4481660865665
 21
48.10804001086463
 31
0.0
 12
253.1148327532331
 22
46.10804001086463
 32
0.0
 13
253.1148327532331
 23
46.10804001086463
 33
0.0
  0
SOLID
  5
105
330
FF
100
AcDbEntity
  8
-TEXT3
 62
     2
100
AcDbTrace
 10
252.7814994198998
 20
60.1080400108646
 30
0.0
 11
253.4481660865665
 21
60.1080400108646
 31
0.0
 12
253.1148327532331
 22
62.10804001086461
 32
0.0
 13
253.1148327532331
 23
62.10804001086461
 33
0.0
  0
MTEXT
  5
106
330
FF
100
AcDbEntity
  8
-TEXT3
 62
     3
100
AcDbMText
 10
249.5619678146247
 20
54.10804001086466
 30
0.0
 40
5.0
 41
0.0
 71
     5
 72
     1
  1
\A1;16
 11
0.0000000000000001
 21
1.0
 31
0.0
 73
     1
 44
1.0
1001
ACAD
1000
MTEXTBEGIN
1070
    73
1070
     1
1070
    44
1040
1.0
1070
    74
1070
     0
1000
MTEXTEND
  0
POINT
  5
107
330
FF
100
AcDbEntity
  8
DEFPOINTS
 62
     0
100
AcDbPoint
 10
221.6991494354678
 20
46.10804001086464
 30
0.0
  0
POINT
  5
108
330
FF
100
AcDbEntity
  8
DEFPOINTS
 62
     0
100
AcDbPoint
 10
221.6991494354679
 20
62.10804001086462
 30
0.0
  0
POINT
  5
109
330
FF
100
AcDbEntity
  8
DEFPOINTS
 62
     0
100
AcDbPoint
 10
253.1148327532331
 20
62.10804001086461
 30
0.0
  0
ENDBLK
  5
10A
330
FF
100
AcDbEntity
  8
0
100
AcDbBlockEnd
  0
BLOCK
  5
F2
330
F1
100
AcDbEntity
  8
0
100
AcDbBlockBegin
  2
*D13
 70
     1
 10
0.0
 20
0.0
 30
0.0
  3
*D13
  1

  0
LINE
  5
F3
330
F1
100
AcDbEntity
  8
-TEXT3
 62
     2
370
    -2
100
AcDbLine
 10
216.4491494354678
 20
58.85804001086467
 30
0.0
 11
216.4491494354678
 21
82.05801762788041
 31
0.0
  0
LINE
  5
F4
330
F1
100
AcDbEntity
  8
-TEXT3
 62
     2
370
    -2
100
AcDbLine
 10
226.9491494354678
 20
58.85804001086462
 30
0.0
 11
226.9491494354678
 21
82.05801762788041
 31
0.0
  0
LINE
  5
F5
330
F1
100
AcDbEntity
  8
-TEXT3
 62
     2
370
    -2
100
AcDbLine
 10
218.4491494354678
 20
81.05801762788042
 30
0.0
 11
224.9491494354678
 21
81.05801762788042
 31
0.0
  0
LINE
  5
F6
330
F1
100
AcDbEntity
  8
-TEXT3
 62
     2
370
    -2
100
AcDbLine
 10
226.9491494354678
 20
81.05801762788042
 30
0.0
 11
243.5037196946765
 21
81.05801762788042
 31
0.0
  0
SOLID
  5
F7
330
F1
100
AcDbEntity
  8
-TEXT3
 62
     2
100
AcDbTrace
 10
218.4491494354678
 20
81.39135096121375
 30
0.0
 11
218.4491494354678
 21
80.72468429454708
 31
0.0
 12
216.4491494354678
 22
81.05801762788042
 32
0.0
 13
216.4491494354678
 23
81.05801762788042
 33
0.0
  0
SOLID
  5
F8
330
F1
100
AcDbEntity
  8
-TEXT3
 62
     2
100
AcDbTrace
 10
224.9491494354678
 20
81.39135096121375
 30
0.0
 11
224.9491494354678
 21
80.72468429454708
 31
0.0
 12
226.9491494354678
 22
81.05801762788042
 32
0.0
 13
226.9491494354678
 23
81.05801762788042
 33
0.0
  0
MTEXT
  5
F9
330
F1
100
AcDbEntity
  8
-TEXT3
 62
     3
100
AcDbMText
 10
236.2264345650722
 20
84.61088256648888
 30
0.0
 40
5.0
 41
0.0
 71
     5
 72
     1
  1
\A1;10.5
 73
     1
 44
1.0
1001
ACAD
1000
MTEXTBEGIN
1070
    73
1070
     1
1070
    44
1040
1.0
1070
    74
1070
     0
1000
MTEXTEND
  0
POINT
  5
FA
330
F1
100
AcDbEntity
  8
DEFPOINTS
 62
     0
100
AcDbPoint
 10
216.4491494354678
 20
56.85804001086466
 30
0.0
  0
POINT
  5
FB
330
F1
100
AcDbEntity
  8
DEFPOINTS
 62
     0
100
AcDbPoint
 10
226.9491494354678
 20
56.85804001086463
 30
0.0
  0
POINT
  5
FC
330
F1
100
AcDbEntity
  8
DEFPOINTS
 62
     0
100
AcDbPoint
 10
226.9491494354678
 20
81.05801762788042
 30
0.0
  0
ENDBLK
  5
FD
330
F1
100
AcDbEntity
  8
0
100
AcDbBlockEnd
  0
ENDSEC
  0
SECTION
  2
ENTITIES
  0
HATCH
  5
9
330
2
100
AcDbEntity
  8
-SCHRAFFUR
100
AcDbHatch
 10
0.0
 20
0.0
 30
0.0
210
0.0
220
0.0
230
1.0
  2
SOLID
 70
     1
 71
     1
 91
        1
 92
        1
 93
        4
 72
     1
 10
16.25334615978181
 20
16.52000000000089
 11
67.25334615978181
 21
16.520000000001
 72
     1
 10
67.25334615978181
 20
16.520000000001
 11
67.25334615978181
 21
13.520000000001
 72
     1
 10
67.25334615978181
 20
13.520000000001
 11
16.25334615978181
 21
13.52000000000089
 72
     1
 10
16.25334615978181
 20
13.52000000000089
 11
16.25334615978181
 21
16.52000000000089
 97
        1
330
B
 75
     0
 76
     1
 98
        1
 10
-406.082925598134
 20
759.6859469853013
  0
LWPOLYLINE
  5
B
102
{ACAD_REACTORS
330
9
102
}
330
2
100
AcDbEntity
  8
-DICHTUNG
100
AcDbPolyline
 90
        4
 70
     1
 43
0.0
 10
16.25334615978181
 20
16.52000000000089
 10
67.25334615978181
 20
16.520000000001
 10
67.25334615978181
 20
13.520000000001
 10
16.25334615978181
 20
13.52000000000089
  0
LINE
  5
E
330
2
100
AcDbEntity
  8
-SCHRAFFUR
100
AcDbLine
 10
67.10066051560466
 20
20.76173542376967
 30
0.0
 11
16.40603180395806
 21
20.76173542376978
 31
0.0
  0
LINE
  5
F
330
2
100
AcDbEntity
  8
-SCHRAFFUR
100
AcDbLine
 10
67.75334615978159
 20
19.82398666304618
 30
0.0
 11
15.75334615978158
 21
19.8239866630463
 31
0.0
  0
LINE
  5
10
330
2
100
AcDbEntity
  8
-VERGLASUNG
100
AcDbLine
 10
59.65526934113722
 20
-0.086125109662476
 30
0.0
 11
63.54914416076326
 21
-3.97999992928851
 31
0.0
  0
LINE
  5
12
330
2
100
AcDbEntity
  8
-VERGLASUNG
100
AcDbLine
 10
59.74785477712794
 20
13.52000007071149
 30
0.0
 11
63.64172959675397
 21
9.626125251085454
 31
0.0
  0
LINE
  5
13
330
2
100
AcDbEntity
  8
-VERGLASUNG
100
AcDbLine
 10
61.31035477712794
 20
13.52000007071149
 30
0.0
 11
65.20422959675397
 21
9.626125251085454
 31
0.0
  0
LINE
  5
14
330
2
100
AcDbEntity
  8
-SYSTEM
100
AcDbLine
 10
41.75334615978113
 20
-8.605318899511303
 30
0.0
 11
41.75334615978136
 21
69.10804001086501
 31
0.0
  0
DIMENSION
  5
17
330
2
100
AcDbEntity
  8
-TEXT3
100
AcDbDimension
  2
*D6
 10
-28.932406276689
 20
66.60804001086491
 30
0.0
 11
-32.48697653589774
 21
40.06402000543278
 31
0.0
 71
     5
 42
53.08804001086425
  3
1-1
100
AcDbAlignedDimension
 13
-19.93240627668899
 23
13.52000000000066
 33
0.0
 14
41.75334615978158
 24
66.60804001086489
 34
0.0
 50
270.0
100
AcDbRotatedDimension
  0
DIMENSION
  5
29
330
2
100
AcDbEntity
  8
-TEXT3
100
AcDbDimension
  2
*D5
 10
-18.93240627668899
 20
54.10804001086491
 30
0.0
 11
-22.48527121529746
 21
33.81402000543278
 31
0.0
 71
     5
 42
40.58804001086424
  3
1-1
100
AcDbAlignedDimension
 13
-9.932406276689107
 23
13.52000000000066
 33
0.0
 14
25.9024982513804
 24
54.10804001086489
 34
0.0
 50
270.0
100
AcDbRotatedDimension
  0
CIRCLE
  5
36
330
2
100
AcDbEntity
  8
-PROFILAUSSENKANTET
100
AcDbCircle
 10
41.75334615978147
 20
54.10804001086479
 30
0.0
 40
7.75
  0
CIRCLE
  5
38
330
2
100
AcDbEntity
  8
-NORMTEIL
100
AcDbCircle
 10
41.75334615978147
 20
54.10804001086479
 30
0.0
 40
7.5
  0
CIRCLE
  5
3A
330
2
100
AcDbEntity
  8
-NORMTEIL
100
AcDbCircle
 10
37.42321914085926
 20
56.60804001086479
 30
0.0
 40
1.75
  0
CIRCLE
  5
3B
330
2
100
AcDbEntity
  8
-NORMTEIL
100
AcDbCircle
 10
46.08347317870368
 20
56.60804001086479
 30
0.0
 40
1.75
  0
LINE
  5
3C
330
2
100
AcDbEntity
  8
-SCHRAFFUR
100
AcDbLine
 10
54.25334615978158
 20
26.60804001086501
 30
0.0
 11
29.25334615978158
 21
26.6080400108674
 31
0.0
  0
CIRCLE
  5
3D
330
2
100
AcDbEntity
  8
-NORMTEIL
100
AcDbCircle
 10
41.75334615978147
 20
49.10804001086479
 30
0.0
 40
1.75
  0
ARC
  5
3E
330
2
100
AcDbEntity
  8
-PROFILAUSSENKANTET
100
AcDbCircle
 10
41.75334615978147
 20
54.10804001086479
 30
0.0
 40
12.5
100
AcDbArc
 50
269.9999999999995
 51
270.0
  0
LINE
  5
3F
330
2
100
AcDbEntity
  8
-VERGLASUNG
100
AcDbLine
 10
18.16999555816187
 20
-0.0861250389516504
 30
0.0
 11
22.06387037778791
 21
-3.979999858577685
 31
0.0
  0
LINE
  5
40
330
2
100
AcDbEntity
  8
-VERGLASUNG
100
AcDbLine
 10
19.73249555816187
 20
-0.0861250389516504
 30
0.0
 11
23.62637037778791
 21
-3.979999858577685
 31
0.0
  0
LINE
  5
41
330
2
100
AcDbEntity
  8
-VERGLASUNG
100
AcDbLine
 10
21.29499555816187
 20
-0.0861250389516504
 30
0.0
 11
25.18887037778791
 21
-3.979999858577685
 31
0.0
  0
LINE
  5
42
330
2
100
AcDbEntity
  8
-VERGLASUNG
100
AcDbLine
 10
21.38758099415259
 20
13.52000014142231
 30
0.0
 11
25.28145581377862
 21
9.62612532179628
 31
0.0
  0
LINE
  5
43
330
2
100
AcDbEntity
  8
-VERGLASUNG
100
AcDbLine
 10
-0.5971169442198061
 20
-0.0861249682409384
 30
0.0
 11
3.296757875406228
 21
-3.979999787866973
 31
0.0
  0
LINE
  5
44
330
2
100
AcDbEntity
  8
-VERGLASUNG
100
AcDbLine
 10
0.9653830557801938
 20
-0.0861249682409384
 30
0.0
 11
4.859257875406228
 21
-3.979999787866973
 31
0.0
  0
DIMENSION
  5
45
330
2
100
AcDbEntity
  8
-TEXT3
100
AcDbDimension
  2
*D4
 10
-8.932406276689105
 20
16.52000000000067
 30
0.0
 11
-8.932406276689107
 21
23.15710777626261
 31
0.0
 70
   128
 71
     5
 42
3.000000000000003
  3
1-1
100
AcDbAlignedDimension
 13
0.0
 23
13.52000000000066
 33
0.0
 14
15.75334615978158
 24
16.52000000000066
 34
0.0
 50
90.0
100
AcDbRotatedDimension
  0
DIMENSION
  5
53
330
2
100
AcDbEntity
  8
-TEXT3
100
AcDbDimension
  2
*D0
 10
-8.932406276689105
 20
13.52000000000066
 30
0.0
 11
-12.51767230670275
 21
4.770000000000664
 31
0.0
  1
G
 71
     5
 42
17.5
  3
1-1
100
AcDbAlignedDimension
 13
0.0
 23
-3.979999999999336
 33
0.0
 14
0.0
 24
13.52000000000066
 34
0.0
 50
90.0
100
AcDbRotatedDimension
  0
LINE
  5
60
330
2
100
AcDbEntity
  8
-VERGLASUNG
100
AcDbLine
 10
5.745468491770907
 20
13.52000021213302
 30
0.0
 11
9.639343311396942
 21
9.626125392506992
 31
0.0
  0
LINE
  5
61
330
2
100
AcDbEntity
  8
-VERGLASUNG
100
AcDbLine
 10
2.620468491770907
 20
13.52000021213302
 30
0.0
 11
6.514343311396942
 21
9.626125392506992
 31
0.0
  0
LINE
  5
62
330
2
100
AcDbEntity
  8
-VERGLASUNG
100
AcDbLine
 10
4.182968491770907
 20
13.52000021213302
 30
0.0
 11
8.076843311396942
 21
9.626125392506992
 31
0.0
  0
LINE
  5
63
330
2
100
AcDbEntity
  8
-VERGLASUNG
100
AcDbLine
 10
2.527883055780193
 20
-0.0861249682409384
 30
0.0
 11
6.421757875406228
 21
-3.979999787866973
 31
0.0
  0
LINE
  5
64
330
2
100
AcDbEntity
  8
-SCHRAFFUR
100
AcDbLine
 10
56.21140309231236
 20
23.79479372869321
 30
0.0
 11
27.29528922725376
 21
23.79479372869377
 31
0.0
  0
LINE
  5
65
330
2
100
AcDbEntity
  8
-VERGLASUNG
100
AcDbLine
 10
24.51258099415259
 20
13.52000014142231
 30
0.0
 11
28.40645581377862
 21
9.62612532179628
 31
0.0
  0
LINE
  5
66
330
2
100
AcDbEntity
  8
-VERGLASUNG
100
AcDbLine
 10
22.95008099415259
 20
13.52000014142231
 30
0.0
 11
26.84395581377862
 21
9.62612532179628
 31
0.0
  0
LINE
  5
67
330
2
100
AcDbEntity
  8
-VERGLASUNG
100
AcDbLine
 10
56.53026934113722
 20
-0.086125109662476
 30
0.0
 11
60.42414416076326
 21
-3.97999992928851
 31
0.0
  0
LINE
  5
68
330
2
100
AcDbEntity
  8
-VERGLASUNG
100
AcDbLine
 10
58.09276934113722
 20
-0.086125109662476
 30
0.0
 11
61.98664416076326
 21
-3.97999992928851
 31
0.0
  0
LINE
  5
69
330
2
100
AcDbEntity
  8
-VERGLASUNG
100
AcDbLine
 10
81.19271693943279
 20
13.52000000000078
 30
0.0
 11
85.08659175905881
 21
9.626125180374742
 31
0.0
  0
LINE
  5
6A
330
2
100
AcDbEntity
  8
-VERGLASUNG
100
AcDbLine
 10
79.63021693943279
 20
13.52000000000078
 30
0.0
 11
83.52409175905881
 21
9.626125180374742
 31
0.0
  0
LINE
  5
6B
330
2
100
AcDbEntity
  8
-VERGLASUNG
100
AcDbLine
 10
62.87285477712794
 20
13.52000007071149
 30
0.0
 11
66.76672959675397
 21
9.626125251085454
 31
0.0
  0
LINE
  5
6C
330
2
100
AcDbEntity
  8
-VERGLASUNG
100
AcDbLine
 10
78.06771693943279
 20
13.52000000000078
 30
0.0
 11
81.96159175905881
 21
9.626125180374742
 31
0.0
  0
LINE
  5
6D
330
2
100
AcDbEntity
  8
-VERGLASUNG
100
AcDbLine
 10
74.85013150344207
 20
-0.086125180373188
 30
0.0
 11
78.7440063230681
 21
-3.979999999999222
 31
0.0
  0
LINE
  5
6E
330
2
100
AcDbEntity
  8
-VERGLASUNG
100
AcDbLine
 10
76.41263150344207
 20
-0.086125180373188
 30
0.0
 11
80.3065063230681
 21
-3.979999999999222
 31
0.0
  0
LINE
  5
6F
330
2
100
AcDbEntity
  8
-VERGLASUNG
100
AcDbLine
 10
77.97513150344207
 20
-0.086125180373188
 30
0.0
 11
81.8690063230681
 21
-3.979999999999222
 31
0.0
  0
LINE
  5
70
330
2
100
AcDbEntity
  8
-SYSTEM
100
AcDbLine
 10
26.75334615978136
 20
54.10804001086489
 30
0.0
 11
155.176457302256
 21
54.10804001086467
 31
0.0
  0
LINE
  5
71
330
2
100
AcDbEntity
  8
-PROFILAUSSENKANTET
100
AcDbLine
 10
67.75334615978159
 20
16.520000000001
 30
0.0
 11
51.75334615978158
 21
16.52000000000078
 31
0.0
  0
LINE
  5
72
330
2
100
AcDbEntity
  8
-PROFILAUSSENKANTET
100
AcDbLine
 10
51.75334615978158
 20
16.52000000000078
 30
0.0
 11
67.75334615978159
 21
16.520000000001
 31
0.0
  0
LWPOLYLINE
  5
73
330
2
100
AcDbEntity
  8
-PROFILAUSSENKANTET
100
AcDbPolyline
 90
       13
 70
     1
 43
0.0
 10
15.75334615978158
 20
16.52000000000089
 10
67.75334615978159
 20
16.520000000001
 10
67.75334615978136
 20
19.82398666304641
 42
0.3137493583979784
 10
67.10066051560466
 20
20.76173542377012
 10
56.21140309231122
 20
23.79479372869366
 42
-0.3599935144607427
 10
54.25334615978158
 20
26.60804001086501
 10
54.25334615978158
 20
41.60804001086478
 10
54.25334615978124
 20
54.10804001086479
 42
0.9999999999999998
 10
29.25334615978125
 20
54.10804001086489
 10
29.25334615978158
 20
26.60804001086444
 42
-0.359993514460832
 10
27.29528922725263
 20
23.79479372869355
 10
16.40603180395806
 20
20.76173542376978
 42
0.3137493583978905
 10
15.75334615978158
 20
19.82398666304607
  0
LINE
  5
74
330
2
100
AcDbEntity
  8
-PROFILAUSSENKANTET
100
AcDbLine
 10
55.2533461597817
 20
41.60804001086444
 30
0.0
 11
55.25334615978159
 21
66.60804001086467
 31
0.0
  0
LWPOLYLINE
  5
75
330
2
100
AcDbEntity
  8
-PROFILAUSSENKANTET
100
AcDbPolyline
 90
        2
 70
     0
 43
0.0
 10
54.25334615978158
 20
41.60804001086478
 10
91.75334615978272
 20
41.60804001086478
  0
LWPOLYLINE
  5
76
330
2
100
AcDbEntity
  8
-NORMTEIL_VERDECKT
100
AcDbPolyline
 90
        3
 70
     0
 43
0.0
 10
32.56803190286019
 20
62.58624748659929
 42
0.6538057339304829
 10
41.75334615978147
 20
41.60804001086467
 10
54.25334615978158
 20
41.60804001086478
  0
LWPOLYLINE
  5
79
330
2
100
AcDbEntity
  8
-PROFILAUSSENKANTET
100
AcDbPolyline
 90
        3
 70
     0
 43
0.0
 10
91.75334615978272
 20
66.60804001086501
 10
41.75334615978147
 20
66.60804001086479
 42
0.1989123673796602
 10
32.91451139494962
 20
62.94687477569664
  0
LINE
  5
7A
330
2
100
AcDbEntity
  8
-VERGLASUNG
100
AcDbLine
 10
93.16999366574691
 20
-0.0861252510838999
 30
0.0
 11
97.06386848537295
 21
-3.980000070709934
 31
0.0
  0
LINE
  5
7B
330
2
100
AcDbEntity
  8
-VERGLASUNG
100
AcDbLine
 10
94.73249366574691
 20
-0.0861252510838999
 30
0.0
 11
98.62636848537295
 21
-3.980000070709934
 31
0.0
  0
LINE
  5
7C
330
2
100
AcDbEntity
  8
-VERGLASUNG
100
AcDbLine
 10
96.29499366574691
 20
-0.0861252510838999
 30
0.0
 11
100.1888684853729
 21
-3.980000070709934
 31
0.0
  0
LINE
  5
7D
330
2
100
AcDbEntity
  8
-VERGLASUNG
100
AcDbLine
 10
96.38757910173763
 20
13.51999992929006
 30
0.0
 11
100.2814539213636
 21
9.62612510966403
 31
0.0
  0
LINE
  5
7E
330
2
100
AcDbEntity
  8
-VERGLASUNG
100
AcDbLine
 10
99.51257910173763
 20
13.51999992929006
 30
0.0
 11
103.4064539213636
 21
9.62612510966403
 31
0.0
  0
LINE
  5
7F
330
2
100
AcDbEntity
  8
-VERGLASUNG
100
AcDbLine
 10
97.95007910173763
 20
13.51999992929006
 30
0.0
 11
101.8439539213636
 21
9.62612510966403
 31
0.0
  0
LINE
  5
80
330
2
100
AcDbEntity
  8
-VERGLASUNG
100
AcDbLine
 10
114.6148558280517
 20
-0.0861253217946119
 30
0.0
 11
118.5087306476778
 21
-3.980000141420646
 31
0.0
  0
LINE
  5
81
330
2
100
AcDbEntity
  8
-VERGLASUNG
100
AcDbLine
 10
113.0523558280517
 20
-0.0861253217946119
 30
0.0
 11
116.9462306476778
 21
-3.980000141420646
 31
0.0
  0
LINE
  5
82
330
2
100
AcDbEntity
  8
-VERGLASUNG
100
AcDbLine
 10
111.4898558280517
 20
-0.0861253217946119
 30
0.0
 11
115.3837306476778
 21
-3.980000141420646
 31
0.0
  0
LINE
  5
83
330
2
100
AcDbEntity
  8
-VERGLASUNG
100
AcDbLine
 10
114.7074412640424
 20
13.51999985857935
 30
0.0
 11
118.6013160836685
 21
9.626125038953318
 31
0.0
  0
LINE
  5
84
330
2
100
AcDbEntity
  8
-VERGLASUNG
100
AcDbLine
 10
116.2699412640424
 20
13.51999985857935
 30
0.0
 11
120.1638160836685
 21
9.626125038953318
 31
0.0
  0
LINE
  5
85
330
2
100
AcDbEntity
  8
-VERGLASUNG
100
AcDbLine
 10
117.8324412640424
 20
13.51999985857935
 30
0.0
 11
121.7263160836685
 21
9.626125038953318
 31
0.0
  0
LWPOLYLINE
  5
86
330
2
100
AcDbEntity
  8
-VERGLASUNG
100
AcDbPolyline
 90
        6
 70
     0
 43
0.0
 10
0.0
 20
-3.979999999999336
 10
125.7533461597827
 20
-3.979999999999563
 10
126.7533461597827
 20
-2.979999999999563
 10
126.7533461597827
 20
12.52000000000021
 10
125.7533461597827
 20
13.52000000000044
 10
0.0
 20
13.52000000000066
  0
LINE
  5
87
330
2
100
AcDbEntity
  8
0
100
AcDbLine
 10
131.7533461597827
 20
142.1622164240715
 30
0.0
 11
131.7533461597827
 21
-35.32532544407724
 31
0.0
  0
LINE
  5
88
330
2
100
AcDbEntity
  8
-NORMTEIL_VERDECKT
100
AcDbLine
 10
120.8933461597827
 20
66.10804001086467
 30
0.0
 11
122.7533461597826
 21
65.18804001086483
 31
0.0
  0
LINE
  5
89
330
2
100
AcDbEntity
  8
-NORMTEIL_VERDECKT
100
AcDbLine
 10
114.8333461597827
 20
66.10804001086467
 30
0.0
 11
115.7533461597828
 21
65.18804001086483
 31
0.0
  0
LWPOLYLINE
  5
8A
330
2
100
AcDbEntity
  8
-NORMTEIL_VERDECKT
100
AcDbPolyline
 90
        4
 70
     0
 43
0.0
 10
91.75334615978272
 20
66.60804001086479
 10
98.75334615978273
 20
66.60804001086484
 10
98.75334615978273
 20
41.60804001086484
 10
91.75334615978272
 20
41.60804001086478
  0
LWPOLYLINE
  5
8B
330
2
100
AcDbEntity
  8
-NORMTEIL_VERDECKT
100
AcDbPolyline
 90
        4
 70
     0
 43
0.0
 10
91.75334615978272
 20
66.85804001086478
 10
103.7533461597827
 20
66.85804001086478
 10
103.7533461597827
 20
41.35804001086478
 10
91.75334615978272
 20
41.35804001086478
  0
LINE
  5
8C
330
2
100
AcDbEntity
  8
-NORMTEIL_VERDECKT
100
AcDbLine
 10
114.8333461597827
 20
66.10804001086467
 30
0.0
 11
114.8333461597827
 21
42.10804001086467
 31
0.0
  0
LWPOLYLINE
  5
8D
330
2
100
AcDbEntity
  8
-PROFILAUSSENKANTET
100
AcDbPolyline
 90
       14
 70
     1
 43
0.0
 10
127.9533461597826
 20
34.10804001086467
 42
-0.4142135623730951
 10
127.7533461597826
 20
34.30804001086471
 10
127.7533461597826
 20
38.90804001086463
 42
0.4142135623730951
 10
127.5533461597825
 20
39.10804001086467
 10
91.95334615978277
 20
39.10804001086479
 42
-0.4142135623730951
 10
91.75334615978272
 20
39.30804001086483
 10
91.75334615978272
 20
68.90804001086485
 42
-0.4142135623730951
 10
91.95334615978277
 20
69.10804001086479
 10
127.5533461597829
 20
69.10804001086467
 42
0.4142135623730951
 10
127.7533461597829
 20
69.30804001086471
 10
127.7533461597829
 20
73.90804001086474
 42
-0.4142135623730951
 10
127.953346159783
 20
74.10804001086467
 10
131.7533461597829
 20
74.10804001086467
 10
131.7533461597826
 20
34.10804001086467
  0
LINE
  5
8E
330
2
100
AcDbEntity
  8
-PROFILAUSSENKANTET
100
AcDbLine
 10
127.7533461597829
 20
69.30804001086471
 30
0.0
 11
127.7533461597826
 21
38.90804001086463
 31
0.0
  0
LINE
  5
8F
330
2
100
AcDbEntity
  8
-NORMTEIL_VERDECKT
100
AcDbLine
 10
98.75334615978273
 20
66.10804001086484
 30
0.0
 11
120.8933461597827
 21
66.10804001086467
 31
0.0
  0
LINE
  5
90
330
2
100
AcDbEntity
  8
-NORMTEIL_VERDECKT
100
AcDbLine
 10
103.7533461597827
 20
66.10804001086478
 30
0.0
 11
114.8333461597827
 21
66.10804001086467
 31
0.0
  0
LINE
  5
91
330
2
100
AcDbEntity
  8
-NORMTEIL_VERDECKT
100
AcDbLine
 10
115.7533461597828
 20
43.02804001086474
 30
0.0
 11
114.8333461597827
 21
42.10804001086467
 31
0.0
  0
LINE
  5
92
330
2
100
AcDbEntity
  8
-NORMTEIL_VERDECKT
100
AcDbLine
 10
98.75334615978273
 20
43.02804001086491
 30
0.0
 11
127.7533461597826
 21
43.02804001086474
 31
0.0
  0
LINE
  5
93
330
2
100
AcDbEntity
  8
-NORMTEIL_VERDECKT
100
AcDbLine
 10
98.75334615978273
 20
42.10804001086484
 30
0.0
 11
120.8933461597825
 21
42.10804001086467
 31
0.0
  0
LINE
  5
94
330
2
100
AcDbEntity
  8
-NORMTEIL_VERDECKT
100
AcDbLine
 10
98.75334615978273
 20
65.188040010865
 30
0.0
 11
127.7533461597828
 21
65.18804001086483
 31
0.0
  0
LINE
  5
95
330
2
100
AcDbEntity
  8
-NORMTEIL_VERDECKT
100
AcDbLine
 10
98.75334615978273
 20
65.188040010865
 30
0.0
 11
127.7533461597828
 21
65.18804001086483
 31
0.0
  0
LINE
  5
96
330
2
100
AcDbEntity
  8
-NORMTEIL_VERDECKT
100
AcDbLine
 10
103.7533461597827
 20
65.18804001086493
 30
0.0
 11
127.7533461597828
 21
65.18804001086483
 31
0.0
  0
LINE
  5
97
330
2
100
AcDbEntity
  8
-NORMTEIL_VERDECKT
100
AcDbLine
 10
115.7533461597828
 20
65.18804001086483
 30
0.0
 11
115.7533461597828
 21
43.02804001086474
 31
0.0
  0
LINE
  5
98
330
2
100
AcDbEntity
  8
-NORMTEIL_VERDECKT
100
AcDbLine
 10
122.7533461597826
 20
65.18804001086483
 30
0.0
 11
122.7533461597826
 21
63.10804001086466
 31
0.0
  0
LINE
  5
99
330
2
100
AcDbEntity
  8
-NORMTEIL_VERDECKT
100
AcDbLine
 10
127.7533461597826
 20
62.10804001086478
 30
0.0
 11
131.7533461597828
 21
62.10804001086478
 31
0.0
  0
LINE
  5
9A
330
2
100
AcDbEntity
  8
-NORMTEIL_VERDECKT
100
AcDbLine
 10
127.7533461597827
 20
46.10804001086478
 30
0.0
 11
131.7533461597827
 21
46.10804001086478
 31
0.0
  0
LINE
  5
9B
330
2
100
AcDbEntity
  8
-NORMTEIL_VERDECKT
100
AcDbLine
 10
122.7533461597826
 20
43.02804001086474
 30
0.0
 11
120.8933461597827
 21
42.10804001086467
 31
0.0
  0
LINE
  5
9C
330
2
100
AcDbEntity
  8
-NORMTEIL_VERDECKT
100
AcDbLine
 10
122.7533461597826
 20
45.10804001086467
 30
0.0
 11
122.7533461597826
 21
43.02804001086474
 31
0.0
  0
DIMENSION
  5
9D
330
2
100
AcDbEntity
  8
-TEXT3
100
AcDbDimension
  2
*D10
 10
91.75334615978272
 20
100.1842330874472
 30
0.0
 11
111.7533461597828
 21
103.7370980260556
 31
0.0
 71
     5
 42
40.00000000000023
  3
1-1
100
AcDbAlignedDimension
 13
131.7533461597829
 23
74.10804001086467
 33
0.0
 14
91.75334615978272
 24
69.10804001086479
 34
0.0
100
AcDbRotatedDimension
  0
LINE
  5
AA
330
2
100
AcDbEntity
  8
-NORMTEIL_VERDECKT
100
AcDbLine
 10
152.7533461597827
 20
50.06679001088514
 30
0.0
 11
127.7533461597823
 21
50.06679001088492
 31
0.0
  0
LINE
  5
AB
330
2
100
AcDbEntity
  8
-NORMTEIL_VERDECKT
100
AcDbLine
 10
152.7533461597827
 20
58.14929001084465
 30
0.0
 11
127.7533461597823
 21
58.14929001084465
 31
0.0
  0
LWPOLYLINE
  5
AC
330
2
100
AcDbEntity
  8
-NORMTEIL_VERDECKT
100
AcDbPolyline
 90
        6
 70
     0
 43
0.0
 10
127.7533461597827
 20
59.108040010845
 10
151.7945961597827
 20
59.108040010845
 10
152.7533461597827
 20
58.14929001084454
 10
152.7533461597827
 20
50.06679001088503
 10
151.7945961597827
 20
49.10804001088502
 10
127.7533461597827
 20
49.10804001088502
  0
LINE
  5
AD
330
2
100
AcDbEntity
  8
-NORMTEIL_VERDECKT
100
AcDbLine
 10
151.7945961597827
 20
59.108040010845
 30
0.0
 11
151.7945961597827
 21
49.10804001088513
 31
0.0
  0
LWPOLYLINE
  5
AE
330
2
100
AcDbEntity
  8
-NORMTEIL_VERDECKT
100
AcDbPolyline
 90
        6
 70
     1
 43
0.0
 10
127.7533461597827
 20
46.10804001086478
 10
127.7533461597827
 20
62.10804001086478
 10
122.5033461597827
 20
62.10804001086478
 42
0.4142135623730951
 10
121.2533461597827
 20
60.85804001086478
 10
121.2533461597827
 20
47.35804001086478
 42
0.4142135623730951
 10
122.5033461597827
 20
46.10804001086478
  0
LINE
  5
AF
330
2
100
AcDbEntity
  8
-NORMTEIL_VERDECKT
100
AcDbLine
 10
125.2533461597827
 20
56.41744108762328
 30
0.0
 11
121.2533461597827
 21
56.41744108762328
 31
0.0
  0
LINE
  5
B0
330
2
100
AcDbEntity
  8
-NORMTEIL_VERDECKT
100
AcDbLine
 10
125.2533461597827
 20
51.7986389341063
 30
0.0
 11
121.2533461597827
 21
51.7986389341063
 31
0.0
  0
LWPOLYLINE
  5
B1
330
2
100
AcDbEntity
  8
-NORMTEIL_VERDECKT
100
AcDbPolyline
 90
        5
 70
     0
 43
0.0
 10
121.2533461597827
 20
58.72684216438177
 10
125.2533461597827
 20
58.72684216438177
 10
127.7533461597827
 20
54.10804001086512
 10
125.2533461597827
 20
49.4892378573478
 10
121.2533461597827
 20
49.4892378573478
  0
LINE
  5
B2
330
2
100
AcDbEntity
  8
-NORMTEIL_VERDECKT
100
AcDbLine
 10
125.2533461597827
 20
56.41744108762328
 30
0.0
 11
125.2533461597827
 21
56.41744108762328
 31
0.0
  0
LWPOLYLINE
  5
B3
330
2
100
AcDbEntity
  8
-NORMTEIL_VERDECKT
100
AcDbPolyline
 90
        4
 70
     0
 43
0.0
 10
125.2533461597827
 20
49.4892378573478
 42
0.3247595264191701
 10
125.2533461597827
 20
51.7986389341063
 42
0.1623797632095833
 10
125.2533461597827
 20
56.41744108762328
 42
0.3247595264191872
 10
125.2533461597827
 20
58.72684216438177
  0
DIMENSION
  5
B4
330
2
100
AcDbEntity
  8
-TEXT3
100
AcDbDimension
  2
*D11
 10
131.7533461597829
 20
118.1397218938463
 30
0.0
 11
86.75334615978215
 21
121.6925868324548
 31
0.0
 71
     5
 42
90.00000000000159
  3
1-1TOLER5
100
AcDbAlignedDimension
 13
41.75334615978136
 23
69.10804001086501
 33
0.0
 14
131.7533461597829
 24
101.1842330874472
 34
0.0
100
AcDbRotatedDimension
  0
LINE
  5
C2
330
2
100
AcDbEntity
  8
-NORMTEIL_VERDECKT
100
AcDbLine
 10
156.8976232459688
 20
61.14929001084465
 30
0.0
 11
127.7533461597823
 21
61.14929001084465
 31
0.0
  0
LINE
  5
C3
330
2
100
AcDbEntity
  8
-NORMTEIL_VERDECKT
100
AcDbLine
 10
156.8976232459688
 20
47.06679001088469
 30
0.0
 11
127.7533461597823
 21
47.06679001088469
 31
0.0
  0
LINE
  5
C4
330
2
100
AcDbEntity
  8
-NORMTEIL_VERDECKT
100
AcDbLine
 10
156.8976232459688
 20
49.10804001088502
 30
0.0
 11
151.7945961597827
 21
49.10804001088513
 31
0.0
  0
LINE
  5
C5
330
2
100
AcDbEntity
  8
-NORMTEIL_VERDECKT
100
AcDbLine
 10
156.8976232459687
 20
59.10804001084489
 30
0.0
 11
151.7945961597826
 21
59.108040010845
 31
0.0
  0
LINE
  5
C6
330
2
100
AcDbEntity
  8
-NORMTEIL_VERDECKT
100
AcDbLine
 10
156.8976232459687
 20
58.14929001084454
 30
0.0
 11
151.7945961597826
 21
58.14929001084465
 31
0.0
  0
LINE
  5
C7
330
2
100
AcDbEntity
  8
-NORMTEIL_VERDECKT
100
AcDbLine
 10
156.8976232459688
 20
50.06679001088514
 30
0.0
 11
151.7945961597827
 21
50.06679001088525
 31
0.0
  0
LINE
  5
C8
330
2
100
AcDbEntity
  8
-NORMTEIL_VERDECKT
100
AcDbLine
 10
29.25334615978134
 20
38.6080400108649
 30
0.0
 11
54.25334615978133
 21
38.60804001086467
 31
0.0
  0
DIMENSION
  5
C9
330
2
100
AcDbEntity
  8
-TEXT3
100
AcDbDimension
  2
*D9
 10
165.9601908922385
 20
59.10804001084489
 30
0.0
 11
165.9601908922385
 21
54.10804001086498
 31
0.0
 70
   128
  1
M<>
 71
     5
 42
9.999999999959868
  3
1-1
100
AcDbAlignedDimension
 13
156.8976232459688
 23
49.10804001088502
 33
0.0
 14
156.8976232459687
 24
59.10804001084489
 34
0.0
 50
90.0
100
AcDbRotatedDimension
  0
DIMENSION
  5
D6
330
2
100
AcDbEntity
  8
-TEXT3
100
AcDbDimension
  2
*D8
 10
186.1253729983729
 20
34.10804001086466
 30
0.0
 11
186.1253729983729
 21
54.10804001086467
 31
0.0
 70
   128
  1
%%c<>
 71
     5
 42
40.0
  3
1-1
100
AcDbAlignedDimension
 13
131.7533461597829
 23
74.10804001086467
 33
0.0
 14
131.7533461597826
 24
34.10804001086467
 34
0.0
 50
270.0
100
AcDbRotatedDimension
  0
DIMENSION
  5
E3
330
2
100
AcDbEntity
  8
-TEXT3
100
AcDbDimension
  2
*D7
 10
176.2663347936803
 20
39.10804001086466
 30
0.0
 11
176.2663347936803
 21
54.10804001086467
 31
0.0
 70
   128
  1
%%c<>
 71
     5
 42
30.0
  3
1-1
100
AcDbAlignedDimension
 13
127.5533461597829
 23
69.10804001086467
 33
0.0
 14
127.5533461597825
 24
39.10804001086467
 34
0.0
 50
270.0
100
AcDbRotatedDimension
  0
DIMENSION
  5
F0
330
2
100
AcDbEntity
  8
-TEXT3
100
AcDbDimension
  2
*D13
 10
226.9491494354678
 20
81.05801762788042
 30
0.0
 11
236.2264345650722
 21
84.61088256648888
 31
0.0
 71
     5
 42
10.5
  3
1-1
100
AcDbAlignedDimension
 13
216.4491494354678
 23
56.85804001086466
 33
0.0
 14
226.9491494354678
 24
56.85804001086463
 34
0.0
100
AcDbRotatedDimension
  0
DIMENSION
  5
FE
330
2
100
AcDbEntity
  8
-TEXT3
100
AcDbDimension
  2
*D12
 10
253.1148327532331
 20
62.10804001086461
 30
0.0
 11
249.5619678146247
 21
54.10804001086466
 31
0.0
 71
     5
 42
15.99999999999997
  3
1-1
100
AcDbAlignedDimension
 13
221.6991494354678
 23
46.10804001086464
 33
0.0
 14
221.6991494354679
 24
62.10804001086462
 34
0.0
 50
90.0
100
AcDbRotatedDimension
  0
ARC
  5
10B
330
2
100
AcDbEntity
  8
-SCHRAFFUR
100
AcDbCircle
 10
221.6991494354678
 20
54.10804001086465
 30
0.0
 40
12.0
100
AcDbArc
 50
165.6760551217294
 51
104.3239448782699
  0
CIRCLE
  5
10C
330
2
100
AcDbEntity
  8
-PROFILAUSSENKANTET
100
AcDbCircle
 10
221.6991494354678
 20
54.10804001086465
 30
0.0
 40
15.0
  0
CIRCLE
  5
10D
330
2
100
AcDbEntity
  8
-PROFILAUSSENKANTET
100
AcDbCircle
 10
221.6991494354678
 20
54.10804001086465
 30
0.0
 40
12.75
  0
CIRCLE
  5
10E
330
2
100
AcDbEntity
  8
-PROFILAUSSENKANTET
100
AcDbCircle
 10
221.6991494354678
 20
54.10804001086465
 30
0.0
 40
11.1
  0
CIRCLE
  5
10F
330
2
100
AcDbEntity
  8
-PROFILAUSSENKANTET
100
AcDbCircle
 10
221.6991494354678
 20
54.10804001086465
 30
0.0
 40
20.0
  0
LINE
  5
110
330
2
100
AcDbEntity
  8
-SYSTEM
100
AcDbLine
 10
197.6198160962538
 20
54.1080400108647
 30
0.0
 11
245.7784827746818
 21
54.10804001086461
 31
0.0
  0
LWPOLYLINE
  5
111
330
2
100
AcDbEntity
  8
-PROFILAUSSENKANTET
100
AcDbPolyline
 90
        4
 70
     1
 43
0.0
 10
226.9491494354678
 20
56.85804001086463
 42
0.9999999999999998
 10
216.4491494354678
 20
56.85804001086466
 10
216.4491494354678
 20
51.35804001086466
 42
0.9999999999999998
 10
226.9491494354678
 20
51.35804001086462
  0
LINE
  5
112
330
2
100
AcDbEntity
  8
-SYSTEM
100
AcDbLine
 10
221.6991494354679
 20
78.18737335007867
 30
0.0
 11
221.6991494354677
 21
30.02870667165067
 31
0.0
  0
LINE
  5
113
330
2
100
AcDbEntity
  8
-NORMTEIL_VERDECKT
100
AcDbLine
 10
206.9089499777188
 20
51.60804001086468
 30
0.0
 11
210.8843447677912
 21
51.60804001086466
 31
0.0
  0
LINE
  5
114
330
2
100
AcDbEntity
  8
-NORMTEIL_VERDECKT
100
AcDbLine
 10
206.9089499777188
 20
56.60804001086468
 30
0.0
 11
210.8843447677912
 21
56.60804001086466
 31
0.0
  0
MTEXT
  5
115
330
2
100
AcDbEntity
  8
-TEXT3
100
AcDbMText
 10
196.2934246091736
 20
106.2487184929741
 30
0.0
 40
5.0
 41
61.09369425306442
 71
     1
 72
     5
  1
{\fArial|b0|i0|c0|p34;Mit Langloch in der\PBauanschlusshülse!}
 73
     1
 44
1.0
1001
ACAD
1000
MTEXTBEGIN
1070
    73
1070
     1
1070
    44
1040
1.0
1070
    74
1070
     0
1000
MTEXTEND
  0
CIRCLE
  5
116
330
2
100
AcDbEntity
  8
-NORMTEIL_VERDECKT
100
AcDbCircle
 10
110.7533461597827
 20
54.10804001086475
 30
0.0
 40
2.5
  0
LINE
  5
117
330
2
100
AcDbEntity
  8
0
100
AcDbLine
 10
131.7533461597827
 20
324.6144647686518
 30
0.0
 11
131.7533461597827
 21
170.2386000786994
 31
0.0
  0
LINE
  5
118
330
2
100
AcDbEntity
  8
-SYSTEM
100
AcDbLine
 10
41.75334615978107
 20
279.05854778422
 30
0.0
 11
41.75334615978136
 21
219.0654209648172
 31
0.0
  0
LWPOLYLINE
  5
119
330
2
100
AcDbEntity
  8
-TEXT2
100
AcDbPolyline
 90
        3
 70
     1
 43
0.0
 10
126.7533461597827
 20
289.0939217747826
 10
119.5931566123464
 20
293.2278591374435
 10
119.5931566123464
 20
284.9599844121215
  0
MTEXT
  5
11B
330
2
100
AcDbEntity
  8
-TEXT2
100
AcDbMText
 10
114.5341291932371
 20
280.4906094623695
 30
0.0
 40
3.5
 41
17.9978
 71
     1
 72
     5
  1
{\fArial|b0|i0|c0|p34;Glaskante}
 11
0.0000000000000001
 21
1.0
 31
0.0
 73
     1
 44
1.0
1001
ACAD
1000
MTEXTBEGIN
1070
    73
1070
     1
1070
    44
1040
1.0
1070
    74
1070
     0
1000
MTEXTEND
  0
LINE
  5
11C
330
2
100
AcDbEntity
  8
-VERGLASUNG
100
AcDbLine
 10
126.7533461597827
 20
324.6144647686518
 30
0.0
 11
126.7533461597828
 21
170.2386000786994
 31
0.0
  0
LWPOLYLINE
  5
11D
330
2
100
AcDbEntity
  8
-NORMTEIL_VERDECKT
100
AcDbPolyline
 90
        2
 70
     0
 43
0.0
 10
91.75334615978147
 20
261.5619843745188
 10
64.55137239013715
 20
261.5619843745187
  0
LWPOLYLINE
  5
11E
330
2
100
AcDbEntity
  8
-NORMTEIL_VERDECKT
100
AcDbPolyline
 90
        2
 70
     0
 43
0.0
 10
64.55137239013723
 20
236.5619843745186
 10
91.75334615978147
 20
236.5619843745185
  0
LINE
  5
11F
330
2
100
AcDbEntity
  8
-NORMTEIL_VERDECKT
100
AcDbLine
 10
103.7533461597814
 20
260.1419843745187
 30
0.0
 11
127.7533461597816
 21
260.1419843745186
 31
0.0
  0
LINE
  5
120
330
2
100
AcDbEntity
  8
-NORMTEIL_VERDECKT
100
AcDbLine
 10
98.75334615978147
 20
260.1419843745187
 30
0.0
 11
127.7533461597816
 21
260.1419843745186
 31
0.0
  0
LINE
  5
121
330
2
100
AcDbEntity
  8
-NORMTEIL_VERDECKT
100
AcDbLine
 10
98.75334615978147
 20
260.1419843745187
 30
0.0
 11
127.7533461597816
 21
260.1419843745186
 31
0.0
  0
LINE
  5
122
330
2
100
AcDbEntity
  8
-NORMTEIL_VERDECKT
100
AcDbLine
 10
98.75334615978147
 20
237.0619843745186
 30
0.0
 11
120.8933461597812
 21
237.0619843745184
 31
0.0
  0
LINE
  5
123
330
2
100
AcDbEntity
  8
-NORMTEIL_VERDECKT
100
AcDbLine
 10
98.75334615978147
 20
237.9819843745187
 30
0.0
 11
127.7533461597813
 21
237.9819843745185
 31
0.0
  0
LINE
  5
124
330
2
100
AcDbEntity
  8
-NORMTEIL_VERDECKT
100
AcDbLine
 10
98.75334615978147
 20
261.0619843745186
 30
0.0
 11
120.8933461597814
 21
261.0619843745184
 31
0.0
  0
LWPOLYLINE
  5
125
330
2
100
AcDbEntity
  8
-NORMTEIL_VERDECKT
100
AcDbPolyline
 90
       14
 70
     1
 43
0.0
 10
127.9533461597814
 20
229.0619843745184
 42
-0.4142135623730951
 10
127.7533461597813
 20
229.2619843745185
 10
127.7533461597813
 20
233.8619843745184
 42
0.4142135623730951
 10
127.5533461597813
 20
234.0619843745184
 10
91.95334615978152
 20
234.0619843745185
 42
-0.4142135623730951
 10
91.75334615978147
 20
234.2619843745186
 10
91.75334615978147
 20
263.8619843745186
 42
-0.4142135623730951
 10
91.95334615978152
 20
264.0619843745185
 10
127.5533461597816
 20
264.0619843745184
 42
0.4142135623730951
 10
127.7533461597817
 20
264.2619843745185
 10
127.7533461597817
 20
268.8619843745185
 42
-0.4142135623730951
 10
127.9533461597817
 20
269.0619843745184
 10
131.7533461597817
 20
269.0619843745184
 10
131.7533461597813
 20
229.0619843745184
  0
LINE
  5
126
330
2
100
AcDbEntity
  8
-NORMTEIL_VERDECKT
100
AcDbLine
 10
115.7533461597816
 20
260.1419843745186
 30
0.0
 11
115.7533461597816
 21
237.9819843745185
 31
0.0
  0
LINE
  5
127
330
2
100
AcDbEntity
  8
-NORMTEIL_VERDECKT
100
AcDbLine
 10
114.8333461597815
 20
261.0619843745184
 30
0.0
 11
114.8333461597815
 21
237.0619843745184
 31
0.0
  0
LWPOLYLINE
  5
128
330
2
100
AcDbEntity
  8
-NORMTEIL_VERDECKT
100
AcDbPolyline
 90
        4
 70
     0
 43
0.0
 10
91.75334615978147
 20
261.8119843745185
 10
103.7533461597814
 20
261.8119843745185
 10
103.7533461597814
 20
236.3119843745185
 10
91.75334615978147
 20
236.3119843745185
  0
LWPOLYLINE
  5
129
330
2
100
AcDbEntity
  8
-NORMTEIL_VERDECKT
100
AcDbPolyline
 90
        4
 70
     0
 43
0.0
 10
91.75334615978147
 20
261.5619843745185
 10
98.75334615978147
 20
261.5619843745186
 10
98.75334615978147
 20
236.5619843745186
 10
91.75334615978147
 20
236.5619843745185
  0
LINE
  5
12A
330
2
100
AcDbEntity
  8
-NORMTEIL_VERDECKT
100
AcDbLine
 10
115.7533461597816
 20
237.9819843745185
 30
0.0
 11
114.8333461597815
 21
237.0619843745184
 31
0.0
  0
LINE
  5
12B
330
2
100
AcDbEntity
  8
-NORMTEIL_VERDECKT
100
AcDbLine
 10
114.8333461597815
 20
261.0619843745184
 30
0.0
 11
115.7533461597816
 21
260.1419843745186
 31
0.0
  0
LINE
  5
12C
330
2
100
AcDbEntity
  8
-NORMTEIL_VERDECKT
100
AcDbLine
 10
103.7533461597814
 20
261.0619843745185
 30
0.0
 11
114.8333461597815
 21
261.0619843745184
 31
0.0
  0
LINE
  5
12D
330
2
100
AcDbEntity
  8
-NORMTEIL_VERDECKT
100
AcDbLine
 10
156.8976232459675
 20
245.0207343745389
 30
0.0
 11
151.7945961597814
 21
245.020734374539
 31
0.0
  0
LINE
  5
12E
330
2
100
AcDbEntity
  8
-NORMTEIL_VERDECKT
100
AcDbLine
 10
156.8976232459674
 20
253.1032343744983
 30
0.0
 11
151.7945961597813
 21
253.1032343744984
 31
0.0
  0
LINE
  5
12F
330
2
100
AcDbEntity
  8
-NORMTEIL_VERDECKT
100
AcDbLine
 10
156.8976232459674
 20
254.0619843744987
 30
0.0
 11
151.7945961597813
 21
254.0619843744988
 31
0.0
  0
LINE
  5
130
330
2
100
AcDbEntity
  8
-NORMTEIL_VERDECKT
100
AcDbLine
 10
156.8976232459675
 20
244.0619843745388
 30
0.0
 11
151.7945961597814
 21
244.0619843745389
 31
0.0
  0
LINE
  5
131
330
2
100
AcDbEntity
  8
-NORMTEIL_VERDECKT
100
AcDbLine
 10
156.8976232459675
 20
242.0207343745385
 30
0.0
 11
127.7533461597811
 21
242.0207343745385
 31
0.0
  0
LINE
  5
132
330
2
100
AcDbEntity
  8
-NORMTEIL_VERDECKT
100
AcDbLine
 10
156.8976232459675
 20
256.1032343744984
 30
0.0
 11
127.7533461597811
 21
256.1032343744984
 31
0.0
  0
LWPOLYLINE
  5
133
330
2
100
AcDbEntity
  8
-NORMTEIL_VERDECKT
100
AcDbPolyline
 90
        4
 70
     0
 43
0.0
 10
125.2533461597814
 20
244.4431822210016
 42
0.3247595264191701
 10
125.2533461597814
 20
246.75258329776
 42
0.1623797632095833
 10
125.2533461597814
 20
251.371385451277
 42
0.3247595264191872
 10
125.2533461597814
 20
253.6807865280355
  0
LWPOLYLINE
  5
134
330
2
100
AcDbEntity
  8
-NORMTEIL_VERDECKT
100
AcDbPolyline
 90
        5
 70
     0
 43
0.0
 10
121.2533461597814
 20
253.6807865280355
 10
125.2533461597814
 20
253.6807865280355
 10
127.7533461597814
 20
249.0619843745189
 10
125.2533461597814
 20
244.4431822210016
 10
121.2533461597814
 20
244.4431822210016
  0
LWPOLYLINE
  5
135
330
2
100
AcDbEntity
  8
-NORMTEIL_VERDECKT
100
AcDbPolyline
 90
        6
 70
     1
 43
0.0
 10
127.7533461597814
 20
241.0619843745185
 10
127.7533461597814
 20
257.0619843745185
 10
122.5033461597814
 20
257.0619843745185
 42
0.4142135623730951
 10
121.2533461597814
 20
255.8119843745185
 10
121.2533461597814
 20
242.3119843745185
 42
0.4142135623730951
 10
122.5033461597814
 20
241.0619843745185
  0
LINE
  5
136
330
2
100
AcDbEntity
  8
-NORMTEIL_VERDECKT
100
AcDbLine
 10
151.7945961597814
 20
254.0619843744988
 30
0.0
 11
151.7945961597814
 21
244.0619843745389
 31
0.0
  0
LWPOLYLINE
  5
137
330
2
100
AcDbEntity
  8
-NORMTEIL_VERDECKT
100
AcDbPolyline
 90
        6
 70
     0
 43
0.0
 10
127.7533461597814
 20
254.0619843744988
 10
151.7945961597814
 20
254.0619843744988
 10
152.7533461597814
 20
253.1032343744983
 10
152.7533461597814
 20
245.0207343745388
 10
151.7945961597814
 20
244.0619843745388
 10
127.7533461597814
 20
244.0619843745388
  0
LINE
  5
138
330
2
100
AcDbEntity
  8
-PROFILAUSSENKANTET
100
AcDbLine
 10
127.7533461597817
 20
264.2619843745185
 30
0.0
 11
127.7533461597813
 21
233.8619843745184
 31
0.0
  0
LINE
  5
139
330
2
100
AcDbEntity
  8
-NORMTEIL_VERDECKT
100
AcDbLine
 10
152.7533461597814
 20
245.0207343745389
 30
0.0
 11
127.7533461597811
 21
245.0207343745387
 31
0.0
  0
LINE
  5
13A
330
2
100
AcDbEntity
  8
-NORMTEIL_VERDECKT
100
AcDbLine
 10
127.7533461597814
 20
241.0619843745185
 30
0.0
 11
131.7533461597814
 21
241.0619843745185
 31
0.0
  0
LINE
  5
13B
330
2
100
AcDbEntity
  8
-NORMTEIL_VERDECKT
100
AcDbLine
 10
122.7533461597813
 20
240.0619843745184
 30
0.0
 11
122.7533461597813
 21
237.9819843745185
 31
0.0
  0
LINE
  5
13C
330
2
100
AcDbEntity
  8
-NORMTEIL_VERDECKT
100
AcDbLine
 10
122.7533461597813
 20
237.9819843745185
 30
0.0
 11
120.8933461597814
 21
237.0619843745184
 31
0.0
  0
LINE
  5
13D
330
2
100
AcDbEntity
  8
-NORMTEIL_VERDECKT
100
AcDbLine
 10
125.2533461597814
 20
246.75258329776
 30
0.0
 11
121.2533461597814
 21
246.75258329776
 31
0.0
  0
LINE
  5
13E
330
2
100
AcDbEntity
  8
-NORMTEIL_VERDECKT
100
AcDbLine
 10
152.7533461597814
 20
253.1032343744984
 30
0.0
 11
127.7533461597811
 21
253.1032343744984
 31
0.0
  0
LINE
  5
13F
330
2
100
AcDbEntity
  8
-NORMTEIL_VERDECKT
100
AcDbLine
 10
120.8933461597814
 20
261.0619843745184
 30
0.0
 11
122.7533461597813
 21
260.1419843745186
 31
0.0
  0
LINE
  5
140
330
2
100
AcDbEntity
  8
-NORMTEIL_VERDECKT
100
AcDbLine
 10
127.7533461597813
 20
257.0619843745185
 30
0.0
 11
131.7533461597816
 21
257.0619843745185
 31
0.0
  0
LINE
  5
141
330
2
100
AcDbEntity
  8
-NORMTEIL_VERDECKT
100
AcDbLine
 10
125.2533461597814
 20
251.371385451277
 30
0.0
 11
121.2533461597814
 21
251.371385451277
 31
0.0
  0
LINE
  5
142
330
2
100
AcDbEntity
  8
-NORMTEIL_VERDECKT
100
AcDbLine
 10
125.2533461597814
 20
251.371385451277
 30
0.0
 11
125.2533461597814
 21
251.371385451277
 31
0.0
  0
LINE
  5
143
330
2
100
AcDbEntity
  8
-NORMTEIL_VERDECKT
100
AcDbLine
 10
122.7533461597813
 20
260.1419843745186
 30
0.0
 11
122.7533461597813
 21
258.0619843745184
 31
0.0
  0
LINE
  5
144
330
2
100
AcDbEntity
  8
-SYSTEM
100
AcDbLine
 10
7.452108249501975
 20
249.0619843745187
 30
0.0
 11
155.1764573022548
 21
249.0619843745184
 31
0.0
  0
LINE
  5
145
330
2
100
AcDbEntity
  8
-SCHRAFFUR
100
AcDbLine
 10
108.2533461597815
 20
261.0619843745185
 30
0.0
 11
108.2533461597815
 21
264.0619843745185
 31
0.0
  0
LINE
  5
146
330
2
100
AcDbEntity
  8
-SCHRAFFUR
100
AcDbLine
 10
113.2533461597814
 20
261.0619843745185
 30
0.0
 11
113.2533461597814
 21
264.0619843745185
 31
0.0
  0
LWPOLYLINE
  5
147
330
2
100
AcDbEntity
  8
-PROFILAUSSENKANTET
100
AcDbPolyline
 90
        8
 70
     0
 43
0.0
 10
127.7533461597813
 20
233.8619843745184
 10
127.7533461597813
 20
229.2619843745185
 42
0.4142135623730533
 10
127.9533461597814
 20
229.0619843745184
 10
131.7533461597813
 20
229.0619843745184
 10
131.7533461597817
 20
269.0619843745184
 10
127.9533461597817
 20
269.0619843745184
 42
0.4142135623730118
 10
127.7533461597817
 20
268.8619843745184
 10
127.7533461597817
 20
264.2619843745185
  0
LWPOLYLINE
  5
148
330
2
100
AcDbEntity
  8
-TRENNEN
100
AcDbPolyline
 90
        4
 70
     1
 43
0.0
 10
0.0
 20
170.2386000786994
 10
264.0036165855786
 20
170.2386000786994
 10
264.0036165855786
 20
324.6144647686518
 10
0.0
 20
324.6144647686518
  0
MTEXT
  5
14B
330
2
100
AcDbEntity
  8
-TEXT2
100
AcDbMText
 10
-174.2591163780573
 20
259.7312812984501
 30
0.0
 40
5.0
 41
115.8862353619997
 71
     1
 72
     5
  1
{\H4x;Ansicht}\P{\H2x;M1:1}
 73
     1
 44
1.0
1001
ACAD
1000
MTEXTBEGIN
1070
    73
1070
     1
1070
    44
1040
1.0
1070
    74
1070
     0
1000
MTEXTEND
  0
MTEXT
  5
14C
330
2
100
AcDbEntity
  8
-TEXT2
100
AcDbMText
 10
-174.2591163780573
 20
60.35497656719309
 30
0.0
 40
5.0
 41
115.8862353619997
 71
     1
 72
     5
  1
{\H4x;Draufsicht}\P{\H2x;M1:1}
 73
     1
 44
1.0
1001
ACAD
1000
MTEXTBEGIN
1070
    73
1070
     1
1070
    44
1040
1.0
1070
    74
1070
     0
1000
MTEXTEND
  0
CIRCLE
  5
14D
330
2
100
AcDbEntity
  8
-SCHRAFFUR
100
AcDbCircle
 10
41.75334615978124
 20
249.0619843745186
 30
0.0
 40
10.0
  0
CIRCLE
  5
14E
330
2
100
AcDbEntity
  8
-PROFILAUSSENKANTET
100
AcDbCircle
 10
38.25334615978113
 20
255.1241622010096
 30
0.0
 40
1.75
  0
CIRCLE
  5
14F
330
2
100
AcDbEntity
  8
-PROFILAUSSENKANTET
100
AcDbCircle
 10
38.25334615978125
 20
242.9998065480276
 30
0.0
 40
1.75
  0
CIRCLE
  5
150
330
2
100
AcDbEntity
  8
-PROFILAUSSENKANTET
100
AcDbCircle
 10
48.75334615978125
 20
249.0619843745186
 30
0.0
 40
1.75
  0
CIRCLE
  5
151
330
2
100
AcDbEntity
  8
-SCHRAFFUR
100
AcDbCircle
 10
41.75334615978124
 20
249.0619843745186
 30
0.0
 40
24.32879797461067
  0
CIRCLE
  5
152
330
2
100
AcDbEntity
  8
-PROFILAUSSENKANTET
100
AcDbCircle
 10
41.75334615978124
 20
249.0619843745186
 30
0.0
 40
26.0
  0
LWPOLYLINE
  5
153
330
2
100
AcDbEntity
  8
-PROFILAUSSENKANTET
100
AcDbPolyline
 90
       11
 70
     0
 43
0.0
 10
67.75334615978113
 20
-6.97999999999962
 10
15.75334615978102
 20
-6.979999999999392
 10
15.75334615978102
 20
-10.78574582323205
 42
0.375901963977188
 10
17.48901871959901
 20
-12.76820162459745
 10
30.85494274117014
 20
-14.93613950341256
 42
0.033150018187446
 10
31.5157613416252
 20
-14.97999999999939
 10
50.77008381408041
 20
-14.97999999999939
 42
0.0413106451481675
 10
51.59207875060701
 20
-14.91196961916017
 10
66.08214413439168
 20
-12.75853367089786
 42
0.3666293647015965
 10
67.75334615978113
 20
-10.78574582323364
 10
67.75334615978113
 20
-6.97999999999962
  0
LWPOLYLINE
  5
154
330
2
100
AcDbEntity
  8
-NORMTEIL_VERDECKT
100
AcDbPolyline
 90
        5
 70
     0
 43
0.0
 10
46.75334615978158
 20
-14.97999999999848
 10
46.75334615978158
 20
-10.97999999999848
 10
45.25334615978159
 20
-9.979999999998483
 10
43.75334615978158
 20
-10.97999999999848
 10
43.75334615978158
 20
-14.97999999999939
  0
LINE
  5
155
330
2
100
AcDbEntity
  8
-NORMTEIL_VERDECKT
100
AcDbLine
 10
46.75334615978158
 20
-10.97999999999848
 30
0.0
 11
43.75334615978158
 21
-10.97999999999848
 31
0.0
  0
LWPOLYLINE
  5
156
330
2
100
AcDbEntity
  8
-NORMTEIL_VERDECKT
100
AcDbPolyline
 90
        5
 70
     0
 43
0.0
 10
36.25334615978159
 20
-14.97999999999848
 10
36.25334615978159
 20
-10.97999999999848
 10
34.75334615978159
 20
-9.979999999998483
 10
33.25334615978159
 20
-10.97999999999848
 10
33.25334615978159
 20
-14.97999999999848
  0
LINE
  5
157
330
2
100
AcDbEntity
  8
-NORMTEIL_VERDECKT
100
AcDbLine
 10
36.25334615978159
 20
-10.97999999999848
 30
0.0
 11
33.25334615978159
 21
-10.97999999999848
 31
0.0
  0
LINE
  5
158
330
2
100
AcDbEntity
  8
-NORMTEIL_VERDECKT
100
AcDbLine
 10
52.25334615978045
 20
-3.979999999999392
 30
0.0
 11
31.25334615978045
 21
-3.979999999999392
 31
0.0
  0
LWPOLYLINE
  5
159
102
{ACAD_REACTORS
330
15A
102
}
330
2
100
AcDbEntity
  8
-DICHTUNG
100
AcDbPolyline
 90
        4
 70
     1
 43
0.0
 10
67.25334615978113
 20
-3.979999999999392
 10
16.25334615978102
 20
-3.979999999999392
 10
16.25334615978102
 20
-6.979999999999392
 10
67.25334615978113
 20
-6.979999999999392
  0
HATCH
  5
15A
330
2
100
AcDbEntity
  8
-SCHRAFFUR
100
AcDbHatch
 10
0.0
 20
0.0
 30
0.0
210
0.0
220
0.0
230
1.0
  2
SOLID
 70
     1
 71
     1
 91
        1
 92
        1
 93
        4
 72
     1
 10
67.25334615978113
 20
-3.979999999999392
 11
16.25334615978102
 21
-3.979999999999392
 72
     1
 10
16.25334615978102
 20
-3.979999999999392
 11
16.25334615978102
 21
-6.979999999999392
 72
     1
 10
16.25334615978102
 20
-6.979999999999392
 11
67.25334615978113
 21
-6.979999999999392
 72
     1
 10
67.25334615978113
 20
-6.979999999999392
 11
67.25334615978113
 21
-3.979999999999392
 97
        1
330
159
 75
     0
 76
     1
 98
        1
 10
41.7533461597809
 20
169.7577823305603
  0
DIMENSION
  5
15B
330
2
100
AcDbEntity
  8
-SCHRAFFUR
100
AcDbDimension
  2
*D1
 10
67.75334615978113
 20
-31.80671051213716
 30
0.0
 11
41.75334615978107
 21
-28.11400928430633
 31
0.0
  1
%%c<>
 71
     5
 42
52.00000000000011
  3
1-1
100
AcDbAlignedDimension
 13
15.75334615978102
 23
-10.78574582323205
 33
0.0
 14
67.75334615978113
 24
-10.78574582323364
 34
0.0
 50
180.0
100
AcDbRotatedDimension
  0
LWPOLYLINE
  5
168
330
2
100
AcDbEntity
  8
-NORMTEIL_VERDECKT
100
AcDbPolyline
 90
        4
 70
     0
 43
0.0
 10
50.7533461597809
 20
16.52000000000129
 10
50.7533461597809
 20
-1.97999999999962
 10
32.75334615978091
 20
-1.97999999999962
 10
32.75334615978091
 20
16.5200000000014
  0
LINE
  5
169
330
2
100
AcDbEntity
  8
-NORMTEIL_VERDECKT
100
AcDbLine
 10
38.43034615978081
 20
6.020000000000379
 30
0.0
 11
38.43034615978036
 21
-6.97999999999962
 31
0.0
  0
LWPOLYLINE
  5
16A
330
2
100
AcDbEntity
  8
-NORMTEIL_VERDECKT
100
AcDbPolyline
 90
        6
 70
     0
 43
0.0
 10
45.75334615978067
 20
-6.979999999999733
 10
45.75334615978113
 20
5.343000000000472
 10
45.076346159781
 20
6.020000000000379
 10
38.43034615978081
 20
6.020000000000493
 10
37.75334615978113
 20
5.343000000000472
 10
37.75334615978068
 20
-6.97999999999962
  0
LINE
  5
16B
330
2
100
AcDbEntity
  8
-NORMTEIL_VERDECKT
100
AcDbLine
 10
52.7533461597809
 20
13.52000000000117
 30
0.0
 11
52.7533461597809
 21
-3.979999999999392
 31
0.0
  0
LINE
  5
16C
330
2
100
AcDbEntity
  8
-NORMTEIL_VERDECKT
100
AcDbLine
 10
54.7533461597809
 20
13.52000000000117
 30
0.0
 11
54.7533461597809
 21
-3.979999999999392
 31
0.0
  0
LINE
  5
16D
330
2
100
AcDbEntity
  8
-NORMTEIL_VERDECKT
100
AcDbLine
 10
45.076346159781
 20
6.020000000000379
 30
0.0
 11
45.07634615978054
 21
-6.979999999999847
 31
0.0
  0
LINE
  5
16E
330
2
100
AcDbEntity
  8
-NORMTEIL_VERDECKT
100
AcDbLine
 10
45.75334615978113
 20
5.343000000000472
 30
0.0
 11
37.75334615978113
 21
5.343000000000472
 31
0.0
  0
LINE
  5
16F
330
2
100
AcDbEntity
  8
-NORMTEIL_VERDECKT
100
AcDbLine
 10
30.7533461597809
 20
13.52000000000129
 30
0.0
 11
30.7533461597809
 21
-3.979999999999392
 31
0.0
  0
LINE
  5
170
330
2
100
AcDbEntity
  8
-NORMTEIL_VERDECKT
100
AcDbLine
 10
28.7533461597809
 20
13.52000000000129
 30
0.0
 11
28.7533461597809
 21
-3.979999999999392
 31
0.0
  0
DIMENSION
  5
171
330
2
100
AcDbEntity
  8
-TEXT3
100
AcDbDimension
  2
*D3
 10
-8.932406276689107
 20
-6.979999999999616
 30
0.0
 11
-12.48527121529756
 21
-10.9799999999995
 31
0.0
 71
     5
 42
7.999999999999764
  3
1-1
100
AcDbAlignedDimension
 13
36.75334615978068
 23
-14.97999999999939
 33
0.0
 14
2.733615550543404
 24
-6.97999999999962
 34
0.0
 50
270.0
100
AcDbRotatedDimension
  0
DIMENSION
  5
17E
330
2
100
AcDbEntity
  8
-TEXT3
100
AcDbDimension
  2
*D2
 10
-8.932406276689109
 20
-6.979999999999613
 30
0.0
 11
-8.932406276689107
 21
-5.479999999999474
 31
0.0
 70
   128
 71
     5
 42
3.000000000000279
  3
1-1
100
AcDbAlignedDimension
 13
-3.841081252583535
 23
-3.979999999999336
 33
0.0
 14
15.75334615978114
 24
-6.97999999999962
 34
0.0
 50
270.0
100
AcDbRotatedDimension
  0
ENDSEC
  0
SECTION
  2
OBJECTS
  0
DICTIONARY
  5
7
330
0
100
AcDbDictionary
281
     1
  3
ACAD_COLOR
350
1A6
  3
ACAD_GROUP
350
1A2
  3
ACAD_LAYOUT
350
18E
  3
ACAD_MATERIAL
350
1A5
  3
ACAD_MLINESTYLE
350
1A3
  3
ACAD_PLOTSETTINGS
350
1A4
  3
ACAD_PLOTSTYLENAME
350
6
  3
ACDBHEADERROUNDTRIPXREC
350
1AC
  3
AcDbVariableDictionary
350
1A8
  0
DICTIONARY
  5
194
330
193
100
AcDbDictionary
280
     1
281
     1
  3
ACAD_LAYERSTATES
360
195
  0
DICTIONARY
  5
1A6
102
{ACAD_REACTORS
330
7
102
}
330
7
100
AcDbDictionary
281
     1
  0
DICTIONARY
  5
1A2
102
{ACAD_REACTORS
330
7
102
}
330
7
100
AcDbDictionary
281
     1
  0
DICTIONARY
  5
18E
102
{ACAD_REACTORS
330
7
102
}
330
7
100
AcDbDictionary
281
     1
  3
Layout1
350
192
  3
Model
350
18D
  0
DICTIONARY
  5
1A5
102
{ACAD_REACTORS
330
7
102
}
330
7
100
AcDbDictionary
281
     1
  0
DICTIONARY
  5
1A3
102
{ACAD_REACTORS
330
7
102
}
330
7
100
AcDbDictionary
281
     1
  3
STANDARD
350
1A7
  0
DICTIONARY
  5
1A4
102
{ACAD_REACTORS
330
7
102
}
330
7
100
AcDbDictionary
281
     1
  0
ACDBDICTIONARYWDFLT
  5
6
102
{ACAD_REACTORS
330
7
102
}
330
7
100
AcDbDictionary
281
     1
  3
Normal
350
5
100
AcDbDictionaryWithDefault
340
5
  0
DICTIONARY
  5
1AC
102
{ACAD_REACTORS
330
7
102
}
330
7
100
AcDbDictionary
281
     1
  3
COLORDICT
350
1AE
  3
MATERIALDICT
350
1AD
  0
DICTIONARY
  5
1A8
102
{ACAD_REACTORS
330
7
102
}
330
7
100
AcDbDictionary
281
     1
  3
DIMASSOC
350
1AA
  3
HIDETEXT
350
1A9
  3
PROJECTNAME
350
1AB
  0
DICTIONARY
  5
195
102
{ACAD_REACTORS
330
194
102
}
330
194
100
AcDbDictionary
281
     1
  0
LAYOUT
  5
192
102
{ACAD_XDICTIONARY
360
1B2
102
}
102
{ACAD_REACTORS
330
18E
102
}
330
18E
100
AcDbPlotSettings
  1

  2
\\pc02\HP
  4

  6

 40
0.0
 41
0.0
 42
0.0
 43
0.0
 44
0.0
 45
0.0
 46
0.0
 47
0.0
 48
0.0
 49
0.0
140
0.0
141
0.0
142
1.0
143
1.0
 70
   688
 72
     0
 73
     0
 74
     5
  7
monochrome.ctb
 75
    16
147
1.0
148
0.0
149
0.0
100
AcDbLayout
  1
Layout1
 70
     1
 71
     1
 10
0.0
 20
0.0
 11
420.0
 21
297.0
 12
0.0
 22
0.0
 32
0.0
 14
0.0
 24
0.0
 34
0.0
 15
1189.0
 25
841.0
 35
0.0
146
0.0
 13
0.0
 23
0.0
 33
0.0
 16
1.0
 26
0.0
 36
0.0
 17
0.0
 27
1.0
 37
0.0
 76
     0
330
18F
  0
LAYOUT
  5
18D
102
{ACAD_XDICTIONARY
360
1B0
102
}
102
{ACAD_REACTORS
330
18E
102
}
330
18E
100
AcDbPlotSettings
  1

  2
Epson Stylus Photo 1270 ESC_P 2.pc3
  4
A4
  6

 40
3.757083177566528
 41
14.7637300491333
 42
3.757080078125
 43
3.757080078125
 44
209.9733276367187
 45
296.9683227539062
 46
12.47
 47
35.02000000000001
 48
481.1978817096998
 49
309.4654971710613
140
768.1978817096998
141
509.4654971710613
142
1.0
143
1.0
 70
 11956
 72
     1
 73
     3
 74
     1
  7
monochrome.ctb
 75
    16
147
1.0
148
34.70312743292288
149
35.34084240176026
100
AcDbLayout
  1
Model
 70
     1
 71
     0
 10
0.0
 20
0.0
 11
12.0
 21
9.0
 12
0.0
 22
0.0
 32
0.0
 14
0.0
 24
0.0
 34
0.0
 15
0.0
 25
0.0
 35
0.0
146
0.0
 13
0.0
 23
0.0
 33
0.0
 16
1.0
 26
0.0
 36
0.0
 17
0.0
 27
1.0
 37
0.0
 76
     0
330
2
  0
MLINESTYLE
  5
1A7
102
{ACAD_REACTORS
330
1A3
102
}
330
1A3
100
AcDbMlineStyle
  2
STANDARD
 70
     0
  3

 62
     0
 51
90.0
 52
90.0
 71
     2
 49
0.5
 62
   256
  6
BYLAYER
 49
-0.5
 62
   256
  6
BYLAYER
  0
ACDBPLACEHOLDER
  5
5
102
{ACAD_REACTORS
330
6
102
}
330
6
  0
XRECORD
  5
1AE
102
{ACAD_REACTORS
330
1AC
102
}
330
1AC
100
AcDbXrecord
280
     1
340
1A6
  0
XRECORD
  5
1AD
102
{ACAD_REACTORS
330
1AC
102
}
330
1AC
100
AcDbXrecord
280
     1
340
1A5
  0
DICTIONARYVAR
  5
1AA
102
{ACAD_REACTORS
330
1A8
102
}
330
1A8
100
DictionaryVariables
280
     0
  1
1
  0
DICTIONARYVAR
  5
1A9
102
{ACAD_REACTORS
330
1A8
102
}
330
1A8
100
DictionaryVariables
280
     0
  1
1
  0
DICTIONARYVAR
  5
1AB
102
{ACAD_REACTORS
330
1A8
102
}
330
1A8
100
DictionaryVariables
280
     0
  1

  0
DICTIONARY
  5
1B2
330
192
100
AcDbDictionary
280
     1
281
     1
  3
ACAD_XREC_ROUNDTRIP
360
1B3
  0
DICTIONARY
  5
1B0
330
18D
100
AcDbDictionary
280
     1
281
     1
  3
ACAD_XREC_ROUNDTRIP
360
1B1
  0
XRECORD
  5
1B3
102
{ACAD_REACTORS
330
1B2
102
}
330
1B2
100
AcDbXrecord
280
     1
102
SHADEPLOT
 70
     0
102
SHADEPLOTRESLEVEL
 70
     2
102
SHADEPLOTCUSTOMDPI
 70
   300
  0
XRECORD
  5
1B1
102
{ACAD_REACTORS
330
1B0
102
}
330
1B0
100
AcDbXrecord
280
     1
102
SHADEPLOT
 70
     0
102
SHADEPLOTRESLEVEL
 70
     2
102
SHADEPLOTCUSTOMDPI
 70
   300
  0
ENDSEC
  0
EOF
