  0
SECTION
  2
HEADER
  9
$ACADVER
  1
AC1015
  9
$ACADMAINTVER
 70
    18
  9
$DWGCODEPAGE
  3
ANSI_1252
  9
$INSBASE
 10
421.1785771780096
 20
450.2667582667103
 30
0.0
  9
$EXTMIN
 10
1.000000000000000E+20
 20
1.000000000000000E+20
 30
1.000000000000000E+20
  9
$EXTMAX
 10
0.0
 20
0.0
 30
0.0
  9
$LIMMIN
 10
0.0
 20
0.0
  9
$LIMMAX
 10
420.0
 20
297.0
  9
$ORTHOMODE
 70
     1
  9
$REGENMODE
 70
     1
  9
$FILLMODE
 70
     1
  9
$QTEXTMODE
 70
     0
  9
$MIRRTEXT
 70
     1
  9
$LTSCALE
 40
2.5
  9
$ATTMODE
 70
     1
  9
$TEXTSIZE
 40
2.5
  9
$TRACEWID
 40
1.0
  9
$TEXTSTYLE
  7
STANDARD
  9
$CLAYER
  8
-SCHRAFFUR
  9
$CELTYPE
  6
BYLAYER
  9
$CECOLOR
 62
   256
  9
$CELTSCALE
 40
1.0
  9
$DISPSILH
 70
     0
  9
$DIMSCALE
 40
1.0
  9
$DIMASZ
 40
2.0
  9
$DIMEXO
 40
2.0
  9
$DIMDLI
 40
2.0
  9
$DIMRND
 40
0.0
  9
$DIMDLE
 40
0.0
  9
$DIMEXE
 40
1.0
  9
$DIMTP
 40
0.0
  9
$DIMTM
 40
0.0
  9
$DIMTXT
 40
5.0
  9
$DIMCEN
 40
0.09
  9
$DIMTSZ
 40
0.0
  9
$DIMTOL
 70
     0
  9
$DIMLIM
 70
     0
  9
$DIMTIH
 70
     0
  9
$DIMTOH
 70
     0
  9
$DIMSE1
 70
     0
  9
$DIMSE2
 70
     0
  9
$DIMTAD
 70
     1
  9
$DIMZIN
 70
     9
  9
$DIMBLK
  1

  9
$DIMASO
 70
     1
  9
$DIMSHO
 70
     1
  9
$DIMPOST
  1

  9
$DIMAPOST
  1

  9
$DIMALT
 70
     0
  9
$DIMALTD
 70
     2
  9
$DIMALTF
 40
25.4
  9
$DIMLFAC
 40
1.0
  9
$DIMTOFL
 70
     0
  9
$DIMTVP
 40
0.0
  9
$DIMTIX
 70
     0
  9
$DIMSOXD
 70
     0
  9
$DIMSAH
 70
     0
  9
$DIMBLK1
  1

  9
$DIMBLK2
  1

  9
$DIMSTYLE
  2
1-1
  9
$DIMCLRD
 70
     2
  9
$DIMCLRE
 70
     2
  9
$DIMCLRT
 70
     3
  9
$DIMTFAC
 40
1.0
  9
$DIMGAP
 40
1.0
  9
$DIMJUST
 70
     0
  9
$DIMSD1
 70
     0
  9
$DIMSD2
 70
     0
  9
$DIMTOLJ
 70
     1
  9
$DIMTZIN
 70
     0
  9
$DIMALTZ
 70
     0
  9
$DIMALTTZ
 70
     0
  9
$DIMUPT
 70
     0
  9
$DIMDEC
 70
     0
  9
$DIMTDEC
 70
     4
  9
$DIMALTU
 70
     2
  9
$DIMALTTD
 70
     2
  9
$DIMTXSTY
  7
STANDARD
  9
$DIMAUNIT
 70
     0
  9
$DIMADEC
 70
     0
  9
$DIMALTRND
 40
0.0
  9
$DIMAZIN
 70
     0
  9
$DIMDSEP
 70
    46
  9
$DIMATFIT
 70
     2
  9
$DIMFRAC
 70
     0
  9
$DIMLDRBLK
  1

  9
$DIMLUNIT
 70
     2
  9
$DIMLWD
 70
    -2
  9
$DIMLWE
 70
    -2
  9
$DIMTMOVE
 70
     0
  9
$LUNITS
 70
     2
  9
$LUPREC
 70
     4
  9
$SKETCHINC
 40
1.0
  9
$FILLETRAD
 40
0.0
  9
$AUNITS
 70
     0
  9
$AUPREC
 70
     0
  9
$MENU
  1
.
  9
$ELEVATION
 40
0.0
  9
$PELEVATION
 40
0.0
  9
$THICKNESS
 40
0.0
  9
$LIMCHECK
 70
     0
  9
$CHAMFERA
 40
10.0
  9
$CHAMFERB
 40
10.0
  9
$CHAMFERC
 40
20.0
  9
$CHAMFERD
 40
0.0
  9
$SKPOLY
 70
     0
  9
$TDCREATE
 40
2452087.408717245
  9
$TDUCREATE
 40
2452087.367050579
  9
$TDUPDATE
 40
2453410.421028854
  9
$TDUUPDATE
 40
2453410.379362188
  9
$TDINDWG
 40
0.6145818056
  9
$TDUSRTIMER
 40
0.6145818056
  9
$USRTIMER
 70
     1
  9
$ANGBASE
 50
0.0
  9
$ANGDIR
 70
     0
  9
$PDMODE
 70
     0
  9
$PDSIZE
 40
0.0
  9
$PLINEWID
 40
0.0
  9
$SPLFRAME
 70
     0
  9
$SPLINETYPE
 70
     6
  9
$SPLINESEGS
 70
     8
  9
$HANDSEED
  5
1FA
  9
$SURFTAB1
 70
     6
  9
$SURFTAB2
 70
     6
  9
$SURFTYPE
 70
     6
  9
$SURFU
 70
     6
  9
$SURFV
 70
     6
  9
$UCSBASE
  2

  9
$UCSNAME
  2

  9
$UCSORG
 10
0.0
 20
0.0
 30
0.0
  9
$UCSXDIR
 10
1.0
 20
0.0
 30
0.0
  9
$UCSYDIR
 10
0.0
 20
1.0
 30
0.0
  9
$UCSORTHOREF
  2

  9
$UCSORTHOVIEW
 70
     0
  9
$UCSORGTOP
 10
0.0
 20
0.0
 30
0.0
  9
$UCSORGBOTTOM
 10
0.0
 20
0.0
 30
0.0
  9
$UCSORGLEFT
 10
0.0
 20
0.0
 30
0.0
  9
$UCSORGRIGHT
 10
0.0
 20
0.0
 30
0.0
  9
$UCSORGFRONT
 10
0.0
 20
0.0
 30
0.0
  9
$UCSORGBACK
 10
0.0
 20
0.0
 30
0.0
  9
$PUCSBASE
  2

  9
$PUCSNAME
  2

  9
$PUCSORG
 10
0.0
 20
0.0
 30
0.0
  9
$PUCSXDIR
 10
1.0
 20
0.0
 30
0.0
  9
$PUCSYDIR
 10
0.0
 20
1.0
 30
0.0
  9
$PUCSORTHOREF
  2

  9
$PUCSORTHOVIEW
 70
     0
  9
$PUCSORGTOP
 10
0.0
 20
0.0
 30
0.0
  9
$PUCSORGBOTTOM
 10
0.0
 20
0.0
 30
0.0
  9
$PUCSORGLEFT
 10
0.0
 20
0.0
 30
0.0
  9
$PUCSORGRIGHT
 10
0.0
 20
0.0
 30
0.0
  9
$PUCSORGFRONT
 10
0.0
 20
0.0
 30
0.0
  9
$PUCSORGBACK
 10
0.0
 20
0.0
 30
0.0
  9
$USERI1
 70
     0
  9
$USERI2
 70
     0
  9
$USERI3
 70
     0
  9
$USERI4
 70
     0
  9
$USERI5
 70
     0
  9
$USERR1
 40
0.0
  9
$USERR2
 40
0.0
  9
$USERR3
 40
0.0
  9
$USERR4
 40
0.0
  9
$USERR5
 40
0.0
  9
$WORLDVIEW
 70
     1
  9
$SHADEDGE
 70
     3
  9
$SHADEDIF
 70
    70
  9
$TILEMODE
 70
     1
  9
$MAXACTVP
 70
    48
  9
$PINSBASE
 10
0.0
 20
0.0
 30
0.0
  9
$PLIMCHECK
 70
     0
  9
$PEXTMIN
 10
0.0
 20
0.0
 30
0.0
  9
$PEXTMAX
 10
1189.0
 20
841.0
 30
0.0
  9
$PLIMMIN
 10
0.0
 20
0.0
  9
$PLIMMAX
 10
420.0
 20
297.0
  9
$UNITMODE
 70
     0
  9
$VISRETAIN
 70
     1
  9
$PLINEGEN
 70
     0
  9
$PSLTSCALE
 70
     1
  9
$TREEDEPTH
 70
  3020
  9
$CMLSTYLE
  2
STANDARD
  9
$CMLJUST
 70
     0
  9
$CMLSCALE
 40
1.0
  9
$PROXYGRAPHICS
 70
     1
  9
$MEASUREMENT
 70
     0
  9
$CELWEIGHT
370
    -1
  9
$ENDCAPS
280
     0
  9
$JOINSTYLE
280
     0
  9
$LWDISPLAY
290
     0
  9
$INSUNITS
 70
     0
  9
$HYPERLINKBASE
  1

  9
$STYLESHEET
  1

  9
$XEDIT
290
     1
  9
$CEPSNTYPE
380
     0
  9
$PSTYLEMODE
290
     1
  9
$FINGERPRINTGUID
  2
{9588F985-4B3C-4C9C-BEE4-2544F6211083}
  9
$VERSIONGUID
  2
{B6B1E3C7-FCFB-4A53-A0B7-839DD1B36345}
  9
$EXTNAMES
290
     1
  9
$PSVPSCALE
 40
0.0
  9
$OLESTARTUP
290
     0
  0
ENDSEC
  0
SECTION
  2
CLASSES
  0
CLASS
  1
DICTIONARYVAR
  2
AcDbDictionaryVar
  3
ObjectDBX Classes
 90
        0
280
     0
281
     0
  0
CLASS
  1
ACDBDICTIONARYWDFLT
  2
AcDbDictionaryWithDefault
  3
ObjectDBX Classes
 90
        0
280
     0
281
     0
  0
CLASS
  1
ACDBPLACEHOLDER
  2
AcDbPlaceHolder
  3
ObjectDBX Classes
 90
        0
280
     0
281
     0
  0
CLASS
  1
LAYOUT
  2
AcDbLayout
  3
ObjectDBX Classes
 90
        0
280
     0
281
     0
  0
ENDSEC
  0
SECTION
  2
TABLES
  0
TABLE
  2
VPORT
  5
1E3
330
0
100
AcDbSymbolTable
 70
     1
  0
VPORT
  5
1E4
330
1E3
100
AcDbSymbolTableRecord
100
AcDbViewportTableRecord
  2
*Active
 70
     0
 10
0.0
 20
0.0
 11
1.0
 21
1.0
 12
545.19259530024
 22
515.8115945254021
 13
0.0
 23
0.0
 14
10.0
 24
10.0
 15
10.0
 25
10.0
 16
0.0
 26
0.0
 36
1.0
 17
0.0
 27
0.0
 37
0.0
 40
339.4904140606036
 41
1.549148099606815
 42
50.0
 43
0.0
 44
0.0
 50
0.0
 51
0.0
 71
     0
 72
   100
 73
     1
 74
     1
 75
     0
 76
     0
 77
     0
 78
     0
281
     0
 65
     1
110
0.0
120
0.0
130
0.0
111
1.0
121
0.0
131
0.0
112
0.0
122
1.0
132
0.0
 79
     0
146
0.0
  0
ENDTAB
  0
TABLE
  2
LTYPE
  5
1DE
330
0
100
AcDbSymbolTable
 70
     4
  0
LTYPE
  5
1DF
330
1DE
100
AcDbSymbolTableRecord
100
AcDbLinetypeTableRecord
  2
BYBLOCK
 70
     0
  3

 72
    65
 73
     0
 40
0.0
  0
LTYPE
  5
1E0
330
1DE
100
AcDbSymbolTableRecord
100
AcDbLinetypeTableRecord
  2
BYLAYER
 70
     0
  3

 72
    65
 73
     0
 40
0.0
  0
LTYPE
  5
8
330
1DE
100
AcDbSymbolTableRecord
100
AcDbLinetypeTableRecord
  2
CONTINUOUS
 70
     0
  3
Solid line
 72
    65
 73
     0
 40
0.0
  0
LTYPE
  5
7F
330
1DE
100
AcDbSymbolTableRecord
100
AcDbLinetypeTableRecord
  2
MITTEX2
 70
     0
  3
Mitte (2x) ________  __  ________  __  _____
 72
    65
 73
     4
 40
4.0
 49
2.5
 74
     0
 49
-0.5
 74
     0
 49
0.5
 74
     0
 49
-0.5
 74
     0
  0
LTYPE
  5
B7
330
1DE
100
AcDbSymbolTableRecord
100
AcDbLinetypeTableRecord
  2
STRICHLINIEX2
 70
     0
  3
Strichlinie (2x) ____  ____  ____  ____  ____  
 72
    65
 73
     2
 40
1.5
 49
1.0
 74
     0
 49
-0.5
 74
     0
  0
LTYPE
  5
C0
330
1DE
100
AcDbSymbolTableRecord
100
AcDbLinetypeTableRecord
  2
GETRENNTX2
 70
     0
  3
Getrennt (2x) ________  .  .  ________  .  .  _
 72
    65
 73
     6
 40
2.5
 49
1.0
 74
     0
 49
-0.5
 74
     0
 49
0.0
 74
     0
 49
-0.5
 74
     0
 49
0.0
 74
     0
 49
-0.5
 74
     0
  0
ENDTAB
  0
TABLE
  2
LAYER
  5
1D9
102
{ACAD_XDICTIONARY
360
1DA
102
}
330
0
100
AcDbSymbolTable
 70
    12
  0
LAYER
  5
4
330
1D9
100
AcDbSymbolTableRecord
100
AcDbLayerTableRecord
  2
0
 70
     0
 62
     7
  6
CONTINUOUS
370
    -3
390
5
  0
LAYER
  5
63
330
1D9
100
AcDbSymbolTableRecord
100
AcDbLayerTableRecord
  2
-PROFILAUSSENKANTET
 70
     0
 62
     4
  6
CONTINUOUS
370
    -3
390
5
1001
AVE_FINISH
1002
{
1070
     0
1005
0
1002
}
  0
LAYER
  5
C3
330
1D9
100
AcDbSymbolTableRecord
100
AcDbLayerTableRecord
  2
-DICHTUNG
 70
     0
 62
     3
  6
CONTINUOUS
370
    -3
390
5
1001
AVE_FINISH
1002
{
1070
     0
1005
0
1002
}
  0
LAYER
  5
6D
330
1D9
100
AcDbSymbolTableRecord
100
AcDbLayerTableRecord
  2
-NORMTEIL
 70
     0
 62
     6
  6
CONTINUOUS
370
    -3
390
5
  0
LAYER
  5
B6
330
1D9
100
AcDbSymbolTableRecord
100
AcDbLayerTableRecord
  2
-NORMTEIL_VERDECKT
 70
     0
 62
     9
  6
STRICHLINIEX2
370
    -3
390
5
  0
LAYER
  5
17
330
1D9
100
AcDbSymbolTableRecord
100
AcDbLayerTableRecord
  2
DEFPOINTS
 70
     0
 62
     7
  6
CONTINUOUS
290
     0
370
    -3
390
5
  0
LAYER
  5
7E
330
1D9
100
AcDbSymbolTableRecord
100
AcDbLayerTableRecord
  2
-SYSTEM
 70
     0
 62
     2
  6
MITTEX2
370
    -3
390
5
  0
LAYER
  5
37
330
1D9
100
AcDbSymbolTableRecord
100
AcDbLayerTableRecord
  2
-TEXT3
 70
     0
 62
     2
  6
CONTINUOUS
370
    -3
390
5
  0
LAYER
  5
52
330
1D9
100
AcDbSymbolTableRecord
100
AcDbLayerTableRecord
  2
-SCHRAFFUR
 70
     0
 62
     9
  6
CONTINUOUS
370
    -3
390
5
  0
LAYER
  5
1C
330
1D9
100
AcDbSymbolTableRecord
100
AcDbLayerTableRecord
  2
-VERGLASUNG
 70
     0
 62
     1
  6
CONTINUOUS
370
    -3
390
5
  0
LAYER
  5
A
330
1D9
100
AcDbSymbolTableRecord
100
AcDbLayerTableRecord
  2
-TEXT2
 70
     0
 62
     3
  6
CONTINUOUS
370
    -3
390
5
  0
LAYER
  5
BF
330
1D9
100
AcDbSymbolTableRecord
100
AcDbLayerTableRecord
  2
-TRENNEN
 70
     0
 62
     2
  6
GETRENNTX2
370
    -3
390
5
  0
ENDTAB
  0
TABLE
  2
STYLE
  5
1DC
330
0
100
AcDbSymbolTable
 70
     1
  0
STYLE
  5
C
330
1DC
100
AcDbSymbolTableRecord
100
AcDbTextStyleTableRecord
  2
STANDARD
 70
     0
 40
0.0
 41
1.0
 50
0.0
 71
     0
 42
2.5
  3
ARIAL.TTF
  4

1001
ACAD
1000
Arial
1071
       34
  0
ENDTAB
  0
TABLE
  2
VIEW
  5
1E1
330
0
100
AcDbSymbolTable
 70
     0
  0
ENDTAB
  0
TABLE
  2
UCS
  5
1E2
330
0
100
AcDbSymbolTable
 70
     0
  0
ENDTAB
  0
TABLE
  2
APPID
  5
1E5
330
0
100
AcDbSymbolTable
 70
     2
  0
APPID
  5
D
330
1E5
100
AcDbSymbolTableRecord
100
AcDbRegAppTableRecord
  2
ACAD
 70
     0
  0
APPID
  5
64
330
1E5
100
AcDbSymbolTableRecord
100
AcDbRegAppTableRecord
  2
AVE_FINISH
 70
     0
  0
ENDTAB
  0
TABLE
  2
DIMSTYLE
  5
1E6
330
0
100
AcDbSymbolTable
 70
     1
100
AcDbDimStyleTable
 71
     1
340
B
  0
DIMSTYLE
105
B
102
{ACAD_REACTORS
330
9B
330
44
330
36
330
8D
330
9
330
29
330
51
330
D9
330
CC
330
1A8
330
18E
330
181
330
174
330
167
330
142
330
135
330
10B
330
FD
330
1B7
330
1C4
102
}
330
1E6
100
AcDbSymbolTableRecord
100
AcDbDimStyleTableRecord
  2
1-1
 70
     0
 41
2.0
 42
2.0
 43
2.0
 44
1.0
 73
     0
 74
     0
 77
     1
 78
     9
140
5.0
147
1.0
176
     2
177
     2
178
     3
271
     0
289
     2
340
C
  0
ENDTAB
  0
TABLE
  2
BLOCK_RECORD
  5
1
330
0
100
AcDbSymbolTable
 70
    21
  0
BLOCK_RECORD
  5
2
330
1
100
AcDbSymbolTableRecord
100
AcDbBlockTableRecord
  2
*MODEL_SPACE
340
1D3
  0
BLOCK_RECORD
  5
1D5
330
1
100
AcDbSymbolTableRecord
100
AcDbBlockTableRecord
  2
*PAPER_SPACE
340
1D8
  0
BLOCK_RECORD
  5
6A
330
1
100
AcDbSymbolTableRecord
100
AcDbBlockTableRecord
  2
1587-M12
340
0
102
{BLKREFS
331
69
331
15E
102
}
  0
BLOCK_RECORD
  5
53
330
1
100
AcDbSymbolTableRecord
100
AcDbBlockTableRecord
  2
*D1
340
0
  0
BLOCK_RECORD
  5
DA
330
1
100
AcDbSymbolTableRecord
100
AcDbBlockTableRecord
  2
*D2
340
0
  0
BLOCK_RECORD
  5
CD
330
1
100
AcDbSymbolTableRecord
100
AcDbBlockTableRecord
  2
*D3
340
0
  0
BLOCK_RECORD
  5
9C
330
1
100
AcDbSymbolTableRecord
100
AcDbBlockTableRecord
  2
*D4
340
0
  0
BLOCK_RECORD
  5
8E
330
1
100
AcDbSymbolTableRecord
100
AcDbBlockTableRecord
  2
*D5
340
0
  0
BLOCK_RECORD
  5
45
330
1
100
AcDbSymbolTableRecord
100
AcDbBlockTableRecord
  2
*D6
340
0
  0
BLOCK_RECORD
  5
38
330
1
100
AcDbSymbolTableRecord
100
AcDbBlockTableRecord
  2
*D7
340
0
  0
BLOCK_RECORD
  5
2A
330
1
100
AcDbSymbolTableRecord
100
AcDbBlockTableRecord
  2
*D8
340
0
  0
BLOCK_RECORD
  5
E
330
1
100
AcDbSymbolTableRecord
100
AcDbBlockTableRecord
  2
*D9
340
0
  0
BLOCK_RECORD
  5
1A9
330
1
100
AcDbSymbolTableRecord
100
AcDbBlockTableRecord
  2
*D10
340
0
  0
BLOCK_RECORD
  5
18F
330
1
100
AcDbSymbolTableRecord
100
AcDbBlockTableRecord
  2
*D11
340
0
  0
BLOCK_RECORD
  5
182
330
1
100
AcDbSymbolTableRecord
100
AcDbBlockTableRecord
  2
*D12
340
0
  0
BLOCK_RECORD
  5
175
330
1
100
AcDbSymbolTableRecord
100
AcDbBlockTableRecord
  2
*D13
340
0
  0
BLOCK_RECORD
  5
168
330
1
100
AcDbSymbolTableRecord
100
AcDbBlockTableRecord
  2
*D14
340
0
  0
BLOCK_RECORD
  5
143
330
1
100
AcDbSymbolTableRecord
100
AcDbBlockTableRecord
  2
*D15
340
0
  0
BLOCK_RECORD
  5
136
330
1
100
AcDbSymbolTableRecord
100
AcDbBlockTableRecord
  2
*D16
340
0
  0
BLOCK_RECORD
  5
10C
330
1
100
AcDbSymbolTableRecord
100
AcDbBlockTableRecord
  2
*D17
340
0
  0
BLOCK_RECORD
  5
FE
330
1
100
AcDbSymbolTableRecord
100
AcDbBlockTableRecord
  2
*D18
340
0
  0
BLOCK_RECORD
  5
1B8
330
1
100
AcDbSymbolTableRecord
100
AcDbBlockTableRecord
  2
*D19
340
0
  0
BLOCK_RECORD
  5
1C5
330
1
100
AcDbSymbolTableRecord
100
AcDbBlockTableRecord
  2
*D20
340
0
  0
ENDTAB
  0
ENDSEC
  0
SECTION
  2
BLOCKS
  0
BLOCK
  5
3
330
2
100
AcDbEntity
  8
0
100
AcDbBlockBegin
  2
*MODEL_SPACE
 70
     0
 10
0.0
 20
0.0
 30
0.0
  3
*MODEL_SPACE
  1

  0
ENDBLK
  5
1D2
330
2
100
AcDbEntity
  8
0
100
AcDbBlockEnd
  0
BLOCK
  5
1D6
330
1D5
100
AcDbEntity
 67
     1
  8
0
100
AcDbBlockBegin
  2
*PAPER_SPACE
 70
     0
 10
0.0
 20
0.0
 30
0.0
  3
*PAPER_SPACE
  1

  0
ENDBLK
  5
1D7
330
1D5
100
AcDbEntity
 67
     1
  8
0
100
AcDbBlockEnd
  0
BLOCK
  5
6B
330
6A
100
AcDbEntity
  8
0
100
AcDbBlockBegin
  2
1587-M12
 70
     0
 10
0.0
 20
0.0
 30
0.0
  3
1587-M12
  1

  0
ARC
  5
6C
330
6A
100
AcDbEntity
  8
-NORMTEIL
100
AcDbCircle
 10
-0.0000000000056843
 20
-12.90000000000009
 30
0.0
 40
9.099999999999999
100
AcDbArc
 50
180.0
 51
0.0
  0
LWPOLYLINE
  5
6E
330
6A
100
AcDbEntity
  8
-NORMTEIL
100
AcDbPolyline
 90
        2
 70
     0
 43
0.0
 10
7.924999999999954
 20
-9.999999999999886
 10
-7.925000000001318
 20
-10.0
  0
ARC
  5
6F
330
6A
100
AcDbEntity
  8
-NORMTEIL
100
AcDbCircle
 10
0.0
 20
18.33999999999844
 30
0.0
 40
28.33999999999846
100
AcDbArc
 50
259.2213764800527
 51
280.7786235199473
  0
LWPOLYLINE
  5
70
330
6A
100
AcDbEntity
  8
-NORMTEIL
100
AcDbPolyline
 90
        2
 70
     0
 43
0.0
 10
7.924999999999954
 20
-0.0000000000001137
 10
-7.925000000001318
 20
0.0
  0
ARC
  5
71
330
6A
100
AcDbEntity
  8
-NORMTEIL
100
AcDbCircle
 10
0.0
 20
-28.33999999999844
 30
0.0
 40
28.33999999999846
100
AcDbArc
 50
79.2213764800527
 51
100.7786235199473
  0
LINE
  5
72
330
6A
100
AcDbEntity
  8
-NORMTEIL
100
AcDbLine
 10
-9.100000000005593
 20
-12.90000000000009
 30
0.0
 11
-9.100000000005593
 21
-9.902662612373319
 31
0.0
  0
LINE
  5
73
330
6A
100
AcDbEntity
  8
-NORMTEIL
100
AcDbLine
 10
-10.54999999999995
 20
-0.5000000000001137
 30
0.0
 11
-10.54999999999995
 21
-9.499999999999886
 31
0.0
  0
ARC
  5
74
330
6A
100
AcDbEntity
  8
-NORMTEIL
100
AcDbCircle
 10
-7.924999999999954
 20
-2.859375000000341
 30
0.0
 40
7.140624999999599
100
AcDbArc
 50
248.4314042648738
 51
291.5685957351245
  0
LINE
  5
75
330
6A
100
AcDbEntity
  8
-NORMTEIL
100
AcDbLine
 10
-5.300000000000181
 20
-0.5
 30
0.0
 11
-5.299999999999727
 21
-9.5
 31
0.0
  0
ARC
  5
76
330
6A
100
AcDbEntity
  8
-NORMTEIL
100
AcDbCircle
 10
-7.924999999999954
 20
-7.140624999999658
 30
0.0
 40
7.140624999999599
100
AcDbArc
 50
68.43140426487554
 51
111.5685957351262
  0
LINE
  5
77
330
6A
100
AcDbEntity
  8
-NORMTEIL
100
AcDbLine
 10
9.099999999994224
 20
-12.90000000000009
 30
0.0
 11
9.099999999994224
 21
-9.902662612375138
 31
0.0
  0
LINE
  5
78
330
6A
100
AcDbEntity
  8
-NORMTEIL
100
AcDbLine
 10
10.54999999999995
 20
-0.5000000000001137
 30
0.0
 11
10.54999999999995
 21
-9.499999999999886
 31
0.0
  0
ARC
  5
79
330
6A
100
AcDbEntity
  8
-NORMTEIL
100
AcDbCircle
 10
7.924999999999954
 20
-2.859375000000341
 30
0.0
 40
7.140624999999599
100
AcDbArc
 50
248.4314042648755
 51
291.5685957351262
  0
LINE
  5
7A
330
6A
100
AcDbEntity
  8
-NORMTEIL
100
AcDbLine
 10
5.299999999999954
 20
-0.5000000000001137
 30
0.0
 11
5.299999999999954
 21
-9.5
 31
0.0
  0
ARC
  5
7B
330
6A
100
AcDbEntity
  8
-NORMTEIL
100
AcDbCircle
 10
7.924999999999954
 20
-7.140624999999658
 30
0.0
 40
7.140624999999599
100
AcDbArc
 50
68.43140426487376
 51
111.5685957351244
  0
ENDBLK
  5
7C
330
6A
100
AcDbEntity
  8
0
100
AcDbBlockEnd
  0
BLOCK
  5
54
330
53
100
AcDbEntity
  8
0
100
AcDbBlockBegin
  2
*D1
 70
     1
 10
0.0
 20
0.0
 30
0.0
  3
*D1
  1

  0
LINE
  5
55
330
53
100
AcDbEntity
  8
-SCHRAFFUR
 62
     2
370
    -2
100
AcDbLine
 10
652.5991298356278
 20
367.4330497985822
 30
0.0
 11
652.5991298356278
 21
347.4120851096771
 31
0.0
  0
LINE
  5
56
330
53
100
AcDbEntity
  8
-SCHRAFFUR
 62
     2
370
    -2
100
AcDbLine
 10
704.599129835628
 20
367.4330497985806
 30
0.0
 11
704.599129835628
 21
347.4120851096771
 31
0.0
  0
LINE
  5
57
330
53
100
AcDbEntity
  8
-SCHRAFFUR
 62
     2
370
    -2
100
AcDbLine
 10
654.5991298356279
 20
348.4120851096771
 30
0.0
 11
702.599129835628
 21
348.4120851096771
 31
0.0
  0
SOLID
  5
58
330
53
100
AcDbEntity
  8
-SCHRAFFUR
 62
     2
100
AcDbTrace
 10
654.5991298356279
 20
348.7454184430104
 30
0.0
 11
654.5991298356279
 21
348.0787517763438
 31
0.0
 12
652.5991298356278
 22
348.4120851096771
 32
0.0
 13
652.5991298356278
 23
348.4120851096771
 33
0.0
  0
SOLID
  5
59
330
53
100
AcDbEntity
  8
-SCHRAFFUR
 62
     2
100
AcDbTrace
 10
702.599129835628
 20
348.7454184430104
 30
0.0
 11
702.599129835628
 21
348.0787517763438
 31
0.0
 12
704.599129835628
 22
348.4120851096771
 32
0.0
 13
704.599129835628
 23
348.4120851096771
 33
0.0
  0
MTEXT
  5
5A
330
53
100
AcDbEntity
  8
-SCHRAFFUR
 62
     3
100
AcDbMText
 10
678.599129835628
 20
352.1047863375079
 30
0.0
 40
5.0
 41
0.0
 71
     5
 72
     1
  1
\A1;%%c52
 73
     1
 44
1.0
1001
ACAD
1000
MTEXTBEGIN
1070
    73
1070
     1
1070
    44
1040
1.0
1070
    74
1070
     0
1000
MTEXTEND
  0
POINT
  5
5B
330
53
100
AcDbEntity
  8
DEFPOINTS
 62
     0
100
AcDbPoint
 10
652.5991298356278
 20
369.4330497985822
 30
0.0
  0
POINT
  5
5C
330
53
100
AcDbEntity
  8
DEFPOINTS
 62
     0
100
AcDbPoint
 10
704.599129835628
 20
369.4330497985806
 30
0.0
  0
POINT
  5
5D
330
53
100
AcDbEntity
  8
DEFPOINTS
 62
     0
100
AcDbPoint
 10
704.599129835628
 20
348.4120851096771
 30
0.0
  0
ENDBLK
  5
5E
330
53
100
AcDbEntity
  8
0
100
AcDbBlockEnd
  0
BLOCK
  5
DB
330
DA
100
AcDbEntity
  8
0
100
AcDbBlockBegin
  2
*D2
 70
     1
 10
0.0
 20
0.0
 30
0.0
  3
*D2
  1

  0
LINE
  5
DC
330
DA
100
AcDbEntity
  8
-TEXT3
 62
     2
370
    -2
100
AcDbLine
 10
743.3231979328122
 20
376.2387956218146
 30
0.0
 11
747.4145229569179
 21
376.2387956218146
 31
0.0
  0
LINE
  5
DD
330
DA
100
AcDbEntity
  8
-TEXT3
 62
     2
370
    -2
100
AcDbLine
 10
706.599129835628
 20
373.2387956218147
 30
0.0
 11
747.4145229569179
 21
373.2387956218147
 31
0.0
  0
LINE
  5
DE
330
DA
100
AcDbEntity
  8
-TEXT3
 62
     2
370
    -2
100
AcDbLine
 10
746.4145229569179
 20
378.2387956218146
 30
0.0
 11
746.4145229569179
 21
380.2387956218146
 31
0.0
  0
LINE
  5
DF
330
DA
100
AcDbEntity
  8
-TEXT3
 62
     2
370
    -2
100
AcDbLine
 10
746.4145229569179
 20
371.2387956218146
 30
0.0
 11
746.4145229569179
 21
369.2387956218146
 31
0.0
  0
SOLID
  5
E0
330
DA
100
AcDbEntity
  8
-TEXT3
 62
     2
100
AcDbTrace
 10
746.0811896235846
 20
378.2387956218146
 30
0.0
 11
746.7478562902513
 21
378.2387956218146
 31
0.0
 12
746.4145229569179
 22
376.2387956218146
 32
0.0
 13
746.4145229569179
 23
376.2387956218146
 33
0.0
  0
SOLID
  5
E1
330
DA
100
AcDbEntity
  8
-TEXT3
 62
     2
100
AcDbTrace
 10
746.0811896235846
 20
371.2387956218146
 30
0.0
 11
746.7478562902513
 21
371.2387956218146
 31
0.0
 12
746.4145229569179
 22
373.2387956218147
 32
0.0
 13
746.4145229569179
 23
373.2387956218147
 33
0.0
  0
MTEXT
  5
E2
330
DA
100
AcDbEntity
  8
-TEXT3
 62
     3
100
AcDbMText
 10
742.8599526977091
 20
374.7387956218148
 30
0.0
 40
5.0
 41
0.0
 71
     5
 72
     1
  1
\A1;3
 11
0.0000000000000001
 21
1.0
 31
0.0
 73
     1
 44
1.0
1001
ACAD
1000
MTEXTBEGIN
1070
    73
1070
     1
1070
    44
1040
1.0
1070
    74
1070
     0
1000
MTEXTEND
  0
POINT
  5
E3
330
DA
100
AcDbEntity
  8
DEFPOINTS
 62
     0
100
AcDbPoint
 10
741.3231979328123
 20
376.2387956218146
 30
0.0
  0
POINT
  5
E4
330
DA
100
AcDbEntity
  8
DEFPOINTS
 62
     0
100
AcDbPoint
 10
704.599129835628
 20
373.2387956218147
 30
0.0
  0
POINT
  5
E5
330
DA
100
AcDbEntity
  8
DEFPOINTS
 62
     0
100
AcDbPoint
 10
746.4145229569179
 20
373.2387956218147
 30
0.0
  0
ENDBLK
  5
E6
330
DA
100
AcDbEntity
  8
0
100
AcDbBlockEnd
  0
BLOCK
  5
CE
330
CD
100
AcDbEntity
  8
0
100
AcDbBlockBegin
  2
*D3
 70
     1
 10
0.0
 20
0.0
 30
0.0
  3
*D3
  1

  0
LINE
  5
CF
330
CD
100
AcDbEntity
  8
-TEXT3
 62
     2
370
    -2
100
AcDbLine
 10
685.5991298356284
 20
365.2387956218149
 30
0.0
 11
747.4145229569178
 21
365.2387956218149
 31
0.0
  0
LINE
  5
D0
330
CD
100
AcDbEntity
  8
-TEXT3
 62
     2
370
    -2
100
AcDbLine
 10
719.6188604448657
 20
373.2387956218147
 30
0.0
 11
747.4145229569178
 21
373.2387956218147
 31
0.0
  0
LINE
  5
D1
330
CD
100
AcDbEntity
  8
-TEXT3
 62
     2
370
    -2
100
AcDbLine
 10
746.4145229569178
 20
367.2387956218149
 30
0.0
 11
746.4145229569178
 21
371.2387956218146
 31
0.0
  0
SOLID
  5
D2
330
CD
100
AcDbEntity
  8
-TEXT3
 62
     2
100
AcDbTrace
 10
746.0811896235845
 20
367.2387956218149
 30
0.0
 11
746.7478562902511
 21
367.2387956218149
 31
0.0
 12
746.4145229569178
 22
365.2387956218149
 32
0.0
 13
746.4145229569178
 23
365.2387956218149
 33
0.0
  0
SOLID
  5
D3
330
CD
100
AcDbEntity
  8
-TEXT3
 62
     2
100
AcDbTrace
 10
746.0811896235845
 20
371.2387956218146
 30
0.0
 11
746.7478562902511
 21
371.2387956218146
 31
0.0
 12
746.4145229569178
 22
373.2387956218147
 32
0.0
 13
746.4145229569178
 23
373.2387956218147
 33
0.0
  0
MTEXT
  5
D4
330
CD
100
AcDbEntity
  8
-TEXT3
 62
     3
100
AcDbMText
 10
742.8616580183093
 20
369.2387956218149
 30
0.0
 40
5.0
 41
0.0
 71
     5
 72
     1
  1
\A1;8
 11
0.0000000000000001
 21
1.0
 31
0.0
 73
     1
 44
1.0
1001
ACAD
1000
MTEXTBEGIN
1070
    73
1070
     1
1070
    44
1040
1.0
1070
    74
1070
     0
1000
MTEXTEND
  0
POINT
  5
D5
330
CD
100
AcDbEntity
  8
DEFPOINTS
 62
     0
100
AcDbPoint
 10
683.5991298356284
 20
365.2387956218149
 30
0.0
  0
POINT
  5
D6
330
CD
100
AcDbEntity
  8
DEFPOINTS
 62
     0
100
AcDbPoint
 10
717.6188604448657
 20
373.2387956218147
 30
0.0
  0
POINT
  5
D7
330
CD
100
AcDbEntity
  8
DEFPOINTS
 62
     0
100
AcDbPoint
 10
746.4145229569178
 20
373.2387956218147
 30
0.0
  0
ENDBLK
  5
D8
330
CD
100
AcDbEntity
  8
0
100
AcDbBlockEnd
  0
BLOCK
  5
9D
330
9C
100
AcDbEntity
  8
0
100
AcDbBlockBegin
  2
*D4
 70
     1
 10
0.0
 20
0.0
 30
0.0
  3
*D4
  1

  0
LINE
  5
9E
330
9C
100
AcDbEntity
  8
-TEXT3
 62
     2
370
    -2
100
AcDbLine
 10
735.1816062175003
 20
393.7387956218157
 30
0.0
 11
747.201336826738
 21
393.7387956218157
 31
0.0
  0
LINE
  5
9F
330
9C
100
AcDbEntity
  8
-TEXT3
 62
     2
370
    -2
100
AcDbLine
 10
735.1816062175003
 20
376.238795621815
 30
0.0
 11
747.201336826738
 21
376.238795621815
 31
0.0
  0
LINE
  5
A0
330
9C
100
AcDbEntity
  8
-TEXT3
 62
     2
370
    -2
100
AcDbLine
 10
746.201336826738
 20
391.7387956218157
 30
0.0
 11
746.201336826738
 21
378.238795621815
 31
0.0
  0
SOLID
  5
A1
330
9C
100
AcDbEntity
  8
-TEXT3
 62
     2
100
AcDbTrace
 10
745.8680034934046
 20
391.7387956218157
 30
0.0
 11
746.5346701600714
 21
391.7387956218157
 31
0.0
 12
746.201336826738
 22
393.7387956218157
 32
0.0
 13
746.201336826738
 23
393.7387956218157
 33
0.0
  0
SOLID
  5
A2
330
9C
100
AcDbEntity
  8
-TEXT3
 62
     2
100
AcDbTrace
 10
745.8680034934046
 20
378.238795621815
 30
0.0
 11
746.5346701600714
 21
378.238795621815
 31
0.0
 12
746.201336826738
 22
376.238795621815
 32
0.0
 13
746.201336826738
 23
376.238795621815
 33
0.0
  0
MTEXT
  5
A3
330
9C
100
AcDbEntity
  8
-TEXT3
 62
     3
100
AcDbMText
 10
742.6160707967243
 20
384.9887956218154
 30
0.0
 40
5.0
 41
0.0
 71
     5
 72
     1
  1
\A1;G
 11
0.0000000000000001
 21
1.0
 31
0.0
 73
     1
 44
1.0
1001
ACAD
1000
MTEXTBEGIN
1070
    73
1070
     1
1070
    44
1040
1.0
1070
    74
1070
     0
1000
MTEXTEND
  0
POINT
  5
A4
330
9C
100
AcDbEntity
  8
DEFPOINTS
 62
     0
100
AcDbPoint
 10
733.1816062175002
 20
393.7387956218157
 30
0.0
  0
POINT
  5
A5
330
9C
100
AcDbEntity
  8
DEFPOINTS
 62
     0
100
AcDbPoint
 10
733.1816062175002
 20
376.238795621815
 30
0.0
  0
POINT
  5
A6
330
9C
100
AcDbEntity
  8
DEFPOINTS
 62
     0
100
AcDbPoint
 10
746.201336826738
 20
376.238795621815
 30
0.0
  0
ENDBLK
  5
A7
330
9C
100
AcDbEntity
  8
0
100
AcDbBlockEnd
  0
BLOCK
  5
8F
330
8E
100
AcDbEntity
  8
0
100
AcDbBlockBegin
  2
*D5
 70
     1
 10
0.0
 20
0.0
 30
0.0
  3
*D5
  1

  0
LINE
  5
90
330
8E
100
AcDbEntity
  8
-TEXT2
 62
     2
370
    -2
100
AcDbLine
 10
735.1816062175003
 20
393.7387956218157
 30
0.0
 11
747.2013368267381
 21
393.7387956218157
 31
0.0
  0
LINE
  5
91
330
8E
100
AcDbEntity
  8
-TEXT2
 62
     2
370
    -2
100
AcDbLine
 10
735.1816062175003
 20
396.7587956218149
 30
0.0
 11
747.2013368267381
 21
396.7587956218149
 31
0.0
  0
LINE
  5
92
330
8E
100
AcDbEntity
  8
-TEXT2
 62
     2
370
    -2
100
AcDbLine
 10
746.2013368267381
 20
391.7387956218157
 30
0.0
 11
746.2013368267381
 21
389.7387956218157
 31
0.0
  0
LINE
  5
93
330
8E
100
AcDbEntity
  8
-TEXT2
 62
     2
370
    -2
100
AcDbLine
 10
746.2013368267381
 20
398.7587956218149
 30
0.0
 11
746.2013368267381
 21
400.758795621815
 31
0.0
  0
SOLID
  5
94
330
8E
100
AcDbEntity
  8
-TEXT2
 62
     2
100
AcDbTrace
 10
745.8680034934047
 20
391.7387956218157
 30
0.0
 11
746.5346701600715
 21
391.7387956218157
 31
0.0
 12
746.2013368267381
 22
393.7387956218157
 32
0.0
 13
746.2013368267381
 23
393.7387956218157
 33
0.0
  0
SOLID
  5
95
330
8E
100
AcDbEntity
  8
-TEXT2
 62
     2
100
AcDbTrace
 10
745.8680034934047
 20
398.7587956218149
 30
0.0
 11
746.5346701600715
 21
398.7587956218149
 31
0.0
 12
746.2013368267381
 22
396.7587956218149
 32
0.0
 13
746.2013368267381
 23
396.7587956218149
 33
0.0
  0
MTEXT
  5
96
330
8E
100
AcDbEntity
  8
-TEXT2
 62
     3
100
AcDbMText
 10
742.6467665675293
 20
395.2487956218154
 30
0.0
 40
5.0
 41
0.0
 71
     5
 72
     1
  1
\A1;3
 11
0.0000000000000001
 21
1.0
 31
0.0
 73
     1
 44
1.0
1001
ACAD
1000
MTEXTBEGIN
1070
    73
1070
     1
1070
    44
1040
1.0
1070
    74
1070
     0
1000
MTEXTEND
  0
POINT
  5
97
330
8E
100
AcDbEntity
  8
DEFPOINTS
 62
     0
100
AcDbPoint
 10
733.1816062175002
 20
393.7387956218157
 30
0.0
  0
POINT
  5
98
330
8E
100
AcDbEntity
  8
DEFPOINTS
 62
     0
100
AcDbPoint
 10
733.1816062175002
 20
396.7587956218149
 30
0.0
  0
POINT
  5
99
330
8E
100
AcDbEntity
  8
DEFPOINTS
 62
     0
100
AcDbPoint
 10
746.2013368267381
 20
396.7587956218149
 30
0.0
  0
ENDBLK
  5
9A
330
8E
100
AcDbEntity
  8
0
100
AcDbBlockEnd
  0
BLOCK
  5
46
330
45
100
AcDbEntity
  8
0
100
AcDbBlockBegin
  2
*D6
 70
     1
 10
0.0
 20
0.0
 30
0.0
  3
*D6
  1

  0
LINE
  5
47
330
45
100
AcDbEntity
  8
-TEXT3
 62
     2
370
    -2
100
AcDbLine
 10
713.0991298356279
 20
406.7387956218155
 30
0.0
 11
747.201336826738
 21
406.7387956218155
 31
0.0
  0
LINE
  5
48
330
45
100
AcDbEntity
  8
-TEXT3
 62
     2
370
    -2
100
AcDbLine
 10
713.0991298356279
 20
426.7387956218154
 30
0.0
 11
747.201336826738
 21
426.7387956218154
 31
0.0
  0
LINE
  5
49
330
45
100
AcDbEntity
  8
-TEXT3
 62
     2
370
    -2
100
AcDbLine
 10
746.201336826738
 20
408.7387956218155
 30
0.0
 11
746.201336826738
 21
424.7387956218155
 31
0.0
  0
SOLID
  5
4A
330
45
100
AcDbEntity
  8
-TEXT3
 62
     2
100
AcDbTrace
 10
745.8680034934046
 20
408.7387956218155
 30
0.0
 11
746.5346701600714
 21
408.7387956218155
 31
0.0
 12
746.201336826738
 22
406.7387956218155
 32
0.0
 13
746.201336826738
 23
406.7387956218155
 33
0.0
  0
SOLID
  5
4B
330
45
100
AcDbEntity
  8
-TEXT3
 62
     2
100
AcDbTrace
 10
745.8680034934046
 20
424.7387956218155
 30
0.0
 11
746.5346701600714
 21
424.7387956218155
 31
0.0
 12
746.201336826738
 22
426.7387956218154
 32
0.0
 13
746.201336826738
 23
426.7387956218154
 33
0.0
  0
MTEXT
  5
4C
330
45
100
AcDbEntity
  8
-TEXT3
 62
     3
100
AcDbMText
 10
742.508635598907
 20
416.7387956218156
 30
0.0
 40
5.0
 41
0.0
 71
     5
 72
     1
  1
\A1;%%c20
 11
0.0000000000000001
 21
1.0
 31
0.0
 73
     1
 44
1.0
1001
ACAD
1000
MTEXTBEGIN
1070
    73
1070
     1
1070
    44
1040
1.0
1070
    74
1070
     0
1000
MTEXTEND
  0
POINT
  5
4D
330
45
100
AcDbEntity
  8
DEFPOINTS
 62
     0
100
AcDbPoint
 10
711.099129835628
 20
406.7387956218155
 30
0.0
  0
POINT
  5
4E
330
45
100
AcDbEntity
  8
DEFPOINTS
 62
     0
100
AcDbPoint
 10
711.099129835628
 20
426.7387956218154
 30
0.0
  0
POINT
  5
4F
330
45
100
AcDbEntity
  8
DEFPOINTS
 62
     0
100
AcDbPoint
 10
746.201336826738
 20
426.7387956218154
 30
0.0
  0
ENDBLK
  5
50
330
45
100
AcDbEntity
  8
0
100
AcDbBlockEnd
  0
BLOCK
  5
39
330
38
100
AcDbEntity
  8
0
100
AcDbBlockBegin
  2
*D7
 70
     1
 10
0.0
 20
0.0
 30
0.0
  3
*D7
  1

  0
LINE
  5
3A
330
38
100
AcDbEntity
  8
-TEXT3
 62
     2
370
    -2
100
AcDbLine
 10
713.0991298356279
 20
406.7387956218155
 30
0.0
 11
747.201336826738
 21
406.7387956218155
 31
0.0
  0
LINE
  5
3B
330
38
100
AcDbEntity
  8
-TEXT3
 62
     2
370
    -2
100
AcDbLine
 10
706.5791298356284
 20
396.7387956218157
 30
0.0
 11
747.201336826738
 21
396.7387956218157
 31
0.0
  0
LINE
  5
3C
330
38
100
AcDbEntity
  8
-TEXT3
 62
     2
370
    -2
100
AcDbLine
 10
746.201336826738
 20
404.7387956218155
 30
0.0
 11
746.201336826738
 21
398.7387956218157
 31
0.0
  0
SOLID
  5
3D
330
38
100
AcDbEntity
  8
-TEXT3
 62
     2
100
AcDbTrace
 10
745.8680034934046
 20
404.7387956218155
 30
0.0
 11
746.5346701600714
 21
404.7387956218155
 31
0.0
 12
746.201336826738
 22
406.7387956218155
 32
0.0
 13
746.201336826738
 23
406.7387956218155
 33
0.0
  0
SOLID
  5
3E
330
38
100
AcDbEntity
  8
-TEXT3
 62
     2
100
AcDbTrace
 10
745.8680034934046
 20
398.7387956218157
 30
0.0
 11
746.5346701600714
 21
398.7387956218157
 31
0.0
 12
746.201336826738
 22
396.7387956218157
 32
0.0
 13
746.201336826738
 23
396.7387956218157
 33
0.0
  0
MTEXT
  5
3F
330
38
100
AcDbEntity
  8
-TEXT3
 62
     3
100
AcDbMText
 10
742.6484718881295
 20
401.7387956218157
 30
0.0
 40
5.0
 41
0.0
 71
     5
 72
     1
  1
\A1;10
 11
0.0000000000000001
 21
1.0
 31
0.0
 73
     1
 44
1.0
1001
ACAD
1000
MTEXTBEGIN
1070
    73
1070
     1
1070
    44
1040
1.0
1070
    74
1070
     0
1000
MTEXTEND
  0
POINT
  5
40
330
38
100
AcDbEntity
  8
DEFPOINTS
 62
     0
100
AcDbPoint
 10
711.099129835628
 20
406.7387956218155
 30
0.0
  0
POINT
  5
41
330
38
100
AcDbEntity
  8
DEFPOINTS
 62
     0
100
AcDbPoint
 10
704.5791298356284
 20
396.7387956218157
 30
0.0
  0
POINT
  5
42
330
38
100
AcDbEntity
  8
DEFPOINTS
 62
     0
100
AcDbPoint
 10
746.201336826738
 20
396.7387956218157
 30
0.0
  0
ENDBLK
  5
43
330
38
100
AcDbEntity
  8
0
100
AcDbBlockEnd
  0
BLOCK
  5
2B
330
2A
100
AcDbEntity
  8
0
100
AcDbBlockBegin
  2
*D8
 70
     1
 10
0.0
 20
0.0
 30
0.0
  3
*D8
  1

  0
LINE
  5
2C
330
2A
100
AcDbEntity
  8
-TEXT2
 62
     2
370
    -2
100
AcDbLine
 10
711.099129835628
 20
428.7387956218155
 30
0.0
 11
711.099129835628
 21
465.1662192975743
 31
0.0
  0
LINE
  5
2D
330
2A
100
AcDbEntity
  8
-TEXT2
 62
     2
370
    -2
100
AcDbLine
 10
678.599129835628
 20
456.1662192975743
 30
0.0
 11
678.599129835628
 21
465.1662192975743
 31
0.0
  0
LINE
  5
2E
330
2A
100
AcDbEntity
  8
-TEXT2
 62
     2
370
    -2
100
AcDbLine
 10
709.0991298356279
 20
464.1662192975743
 30
0.0
 11
680.5991298356279
 21
464.1662192975743
 31
0.0
  0
SOLID
  5
2F
330
2A
100
AcDbEntity
  8
-TEXT2
 62
     2
100
AcDbTrace
 10
709.0991298356279
 20
464.4995526309076
 30
0.0
 11
709.0991298356279
 21
463.832885964241
 31
0.0
 12
711.099129835628
 22
464.1662192975743
 32
0.0
 13
711.099129835628
 23
464.1662192975743
 33
0.0
  0
SOLID
  5
30
330
2A
100
AcDbEntity
  8
-TEXT2
 62
     2
100
AcDbTrace
 10
680.5991298356279
 20
464.4995526309076
 30
0.0
 11
680.5991298356279
 21
463.832885964241
 31
0.0
 12
678.599129835628
 22
464.1662192975743
 32
0.0
 13
678.599129835628
 23
464.1662192975743
 33
0.0
  0
MTEXT
  5
31
330
2A
100
AcDbEntity
  8
-TEXT2
 62
     3
100
AcDbMText
 10
694.8491298356279
 20
467.720789556783
 30
0.0
 40
5.0
 41
0.0
 71
     5
 72
     1
  1
\A1;33
 73
     1
 44
1.0
1001
ACAD
1000
MTEXTBEGIN
1070
    73
1070
     1
1070
    44
1040
1.0
1070
    74
1070
     0
1000
MTEXTEND
  0
POINT
  5
32
330
2A
100
AcDbEntity
  8
DEFPOINTS
 62
     0
100
AcDbPoint
 10
711.099129835628
 20
426.7387956218154
 30
0.0
  0
POINT
  5
33
330
2A
100
AcDbEntity
  8
DEFPOINTS
 62
     0
100
AcDbPoint
 10
678.599129835628
 20
454.1662192975743
 30
0.0
  0
POINT
  5
34
330
2A
100
AcDbEntity
  8
DEFPOINTS
 62
     0
100
AcDbPoint
 10
678.599129835628
 20
464.1662192975743
 30
0.0
  0
ENDBLK
  5
35
330
2A
100
AcDbEntity
  8
0
100
AcDbBlockEnd
  0
BLOCK
  5
F
330
E
100
AcDbEntity
  8
0
100
AcDbBlockBegin
  2
*D9
 70
     1
 10
0.0
 20
0.0
 30
0.0
  3
*D9
  1

  0
LINE
  5
10
330
E
100
AcDbEntity
  8
-TEXT2
 62
     2
370
    -2
100
AcDbLine
 10
598.599129835628
 20
394.738795621815
 30
0.0
 11
598.599129835628
 21
465.1662192975743
 31
0.0
  0
LINE
  5
11
330
E
100
AcDbEntity
  8
-TEXT2
 62
     2
370
    -2
100
AcDbLine
 10
678.599129835628
 20
456.1662192975743
 30
0.0
 11
678.599129835628
 21
465.1662192975743
 31
0.0
  0
LINE
  5
12
330
E
100
AcDbEntity
  8
-TEXT2
 62
     2
370
    -2
100
AcDbLine
 10
600.5991298356279
 20
464.1662192975743
 30
0.0
 11
676.5991298356279
 21
464.1662192975743
 31
0.0
  0
SOLID
  5
13
330
E
100
AcDbEntity
  8
-TEXT2
 62
     2
100
AcDbTrace
 10
600.5991298356279
 20
464.4995526309076
 30
0.0
 11
600.5991298356279
 21
463.832885964241
 31
0.0
 12
598.599129835628
 22
464.1662192975743
 32
0.0
 13
598.599129835628
 23
464.1662192975743
 33
0.0
  0
SOLID
  5
14
330
E
100
AcDbEntity
  8
-TEXT2
 62
     2
100
AcDbTrace
 10
676.5991298356279
 20
464.4995526309076
 30
0.0
 11
676.5991298356279
 21
463.832885964241
 31
0.0
 12
678.599129835628
 22
464.1662192975743
 32
0.0
 13
678.599129835628
 23
464.1662192975743
 33
0.0
  0
MTEXT
  5
15
330
E
100
AcDbEntity
  8
-TEXT2
 62
     3
100
AcDbMText
 10
638.5991298356279
 20
467.7190842361828
 30
0.0
 40
5.0
 41
0.0
 71
     5
 72
     1
  1
\A1;80
 73
     1
 44
1.0
1001
ACAD
1000
MTEXTBEGIN
1070
    73
1070
     1
1070
    44
1040
1.0
1070
    74
1070
     0
1000
MTEXTEND
  0
POINT
  5
16
330
E
100
AcDbEntity
  8
DEFPOINTS
 62
     0
100
AcDbPoint
 10
598.599129835628
 20
392.738795621815
 30
0.0
  0
POINT
  5
18
330
E
100
AcDbEntity
  8
DEFPOINTS
 62
     0
100
AcDbPoint
 10
678.599129835628
 20
454.1662192975743
 30
0.0
  0
POINT
  5
19
330
E
100
AcDbEntity
  8
DEFPOINTS
 62
     0
100
AcDbPoint
 10
678.599129835628
 20
464.1662192975743
 30
0.0
  0
ENDBLK
  5
1A
330
E
100
AcDbEntity
  8
0
100
AcDbBlockEnd
  0
BLOCK
  5
1AA
330
1A9
100
AcDbEntity
  8
0
100
AcDbBlockBegin
  2
*D10
 70
     1
 10
0.0
 20
0.0
 30
0.0
  3
*D10
  1

  0
LINE
  5
1AB
330
1A9
100
AcDbEntity
  8
-TEXT2
 62
     2
370
    -2
100
AcDbLine
 10
588.599129835628
 20
394.738795621815
 30
0.0
 11
588.599129835628
 21
465.1662192975743
 31
0.0
  0
LINE
  5
1AC
330
1A9
100
AcDbEntity
  8
-TEXT2
 62
     2
370
    -2
100
AcDbLine
 10
508.599129835628
 20
456.1662192975743
 30
0.0
 11
508.599129835628
 21
465.1662192975743
 31
0.0
  0
LINE
  5
1AD
330
1A9
100
AcDbEntity
  8
-TEXT2
 62
     2
370
    -2
100
AcDbLine
 10
586.5991298356281
 20
464.1662192975743
 30
0.0
 11
510.5991298356281
 21
464.1662192975743
 31
0.0
  0
SOLID
  5
1AE
330
1A9
100
AcDbEntity
  8
-TEXT2
 62
     2
100
AcDbTrace
 10
586.5991298356281
 20
464.4995526309076
 30
0.0
 11
586.5991298356281
 21
463.832885964241
 31
0.0
 12
588.599129835628
 22
464.1662192975743
 32
0.0
 13
588.599129835628
 23
464.1662192975743
 33
0.0
  0
SOLID
  5
1AF
330
1A9
100
AcDbEntity
  8
-TEXT2
 62
     2
100
AcDbTrace
 10
510.5991298356281
 20
464.4995526309076
 30
0.0
 11
510.5991298356281
 21
463.832885964241
 31
0.0
 12
508.599129835628
 22
464.1662192975743
 32
0.0
 13
508.599129835628
 23
464.1662192975743
 33
0.0
  0
MTEXT
  5
1B0
330
1A9
100
AcDbEntity
  8
-TEXT2
 62
     3
100
AcDbMText
 10
548.5991298356281
 20
467.7190842361828
 30
0.0
 40
5.0
 41
0.0
 71
     5
 72
     1
  1
\A1;80
 73
     1
 44
1.0
1001
ACAD
1000
MTEXTBEGIN
1070
    73
1070
     1
1070
    44
1040
1.0
1070
    74
1070
     0
1000
MTEXTEND
  0
POINT
  5
1B1
330
1A9
100
AcDbEntity
  8
DEFPOINTS
 62
     0
100
AcDbPoint
 10
588.599129835628
 20
392.738795621815
 30
0.0
  0
POINT
  5
1B2
330
1A9
100
AcDbEntity
  8
DEFPOINTS
 62
     0
100
AcDbPoint
 10
508.599129835628
 20
454.1662192975743
 30
0.0
  0
POINT
  5
1B3
330
1A9
100
AcDbEntity
  8
DEFPOINTS
 62
     0
100
AcDbPoint
 10
508.599129835628
 20
464.1662192975743
 30
0.0
  0
ENDBLK
  5
1B4
330
1A9
100
AcDbEntity
  8
0
100
AcDbBlockEnd
  0
BLOCK
  5
190
330
18F
100
AcDbEntity
  8
0
100
AcDbBlockBegin
  2
*D11
 70
     1
 10
0.0
 20
0.0
 30
0.0
  3
*D11
  1

  0
LINE
  5
191
330
18F
100
AcDbEntity
  8
-TEXT2
 62
     2
370
    -2
100
AcDbLine
 10
476.099129835628
 20
428.7387956218155
 30
0.0
 11
476.099129835628
 21
465.1662192975743
 31
0.0
  0
LINE
  5
192
330
18F
100
AcDbEntity
  8
-TEXT2
 62
     2
370
    -2
100
AcDbLine
 10
508.599129835628
 20
456.1662192975743
 30
0.0
 11
508.599129835628
 21
465.1662192975743
 31
0.0
  0
LINE
  5
193
330
18F
100
AcDbEntity
  8
-TEXT2
 62
     2
370
    -2
100
AcDbLine
 10
478.0991298356281
 20
464.1662192975743
 30
0.0
 11
506.5991298356281
 21
464.1662192975743
 31
0.0
  0
SOLID
  5
194
330
18F
100
AcDbEntity
  8
-TEXT2
 62
     2
100
AcDbTrace
 10
478.0991298356281
 20
464.4995526309076
 30
0.0
 11
478.0991298356281
 21
463.832885964241
 31
0.0
 12
476.099129835628
 22
464.1662192975743
 32
0.0
 13
476.099129835628
 23
464.1662192975743
 33
0.0
  0
SOLID
  5
195
330
18F
100
AcDbEntity
  8
-TEXT2
 62
     2
100
AcDbTrace
 10
506.5991298356281
 20
464.4995526309076
 30
0.0
 11
506.5991298356281
 21
463.832885964241
 31
0.0
 12
508.599129835628
 22
464.1662192975743
 32
0.0
 13
508.599129835628
 23
464.1662192975743
 33
0.0
  0
MTEXT
  5
196
330
18F
100
AcDbEntity
  8
-TEXT2
 62
     3
100
AcDbMText
 10
492.3491298356281
 20
467.720789556783
 30
0.0
 40
5.0
 41
0.0
 71
     5
 72
     1
  1
\A1;33
 73
     1
 44
1.0
1001
ACAD
1000
MTEXTBEGIN
1070
    73
1070
     1
1070
    44
1040
1.0
1070
    74
1070
     0
1000
MTEXTEND
  0
POINT
  5
197
330
18F
100
AcDbEntity
  8
DEFPOINTS
 62
     0
100
AcDbPoint
 10
476.099129835628
 20
426.7387956218154
 30
0.0
  0
POINT
  5
198
330
18F
100
AcDbEntity
  8
DEFPOINTS
 62
     0
100
AcDbPoint
 10
508.599129835628
 20
454.1662192975743
 30
0.0
  0
POINT
  5
199
330
18F
100
AcDbEntity
  8
DEFPOINTS
 62
     0
100
AcDbPoint
 10
508.599129835628
 20
464.1662192975743
 30
0.0
  0
ENDBLK
  5
19A
330
18F
100
AcDbEntity
  8
0
100
AcDbBlockEnd
  0
BLOCK
  5
183
330
182
100
AcDbEntity
  8
0
100
AcDbBlockBegin
  2
*D12
 70
     1
 10
0.0
 20
0.0
 30
0.0
  3
*D12
  1

  0
LINE
  5
184
330
182
100
AcDbEntity
  8
-TEXT3
 62
     2
370
    -2
100
AcDbLine
 10
474.0991298356281
 20
406.7387956218155
 30
0.0
 11
439.996922844518
 21
406.7387956218155
 31
0.0
  0
LINE
  5
185
330
182
100
AcDbEntity
  8
-TEXT3
 62
     2
370
    -2
100
AcDbLine
 10
480.6191298356276
 20
396.7387956218157
 30
0.0
 11
439.996922844518
 21
396.7387956218157
 31
0.0
  0
LINE
  5
186
330
182
100
AcDbEntity
  8
-TEXT3
 62
     2
370
    -2
100
AcDbLine
 10
440.996922844518
 20
404.7387956218155
 30
0.0
 11
440.996922844518
 21
398.7387956218157
 31
0.0
  0
SOLID
  5
187
330
182
100
AcDbEntity
  8
-TEXT3
 62
     2
100
AcDbTrace
 10
440.6635895111847
 20
404.7387956218155
 30
0.0
 11
441.3302561778514
 21
404.7387956218155
 31
0.0
 12
440.996922844518
 22
406.7387956218155
 32
0.0
 13
440.996922844518
 23
406.7387956218155
 33
0.0
  0
SOLID
  5
188
330
182
100
AcDbEntity
  8
-TEXT3
 62
     2
100
AcDbTrace
 10
440.6635895111847
 20
398.7387956218157
 30
0.0
 11
441.3302561778514
 21
398.7387956218157
 31
0.0
 12
440.996922844518
 22
396.7387956218157
 32
0.0
 13
440.996922844518
 23
396.7387956218157
 33
0.0
  0
MTEXT
  5
189
330
182
100
AcDbEntity
  8
-TEXT3
 62
     3
100
AcDbMText
 10
437.4440579059094
 20
401.7387956218157
 30
0.0
 40
5.0
 41
0.0
 71
     5
 72
     1
  1
\A1;10
 11
0.0000000000000001
 21
1.0
 31
0.0
 73
     1
 44
1.0
1001
ACAD
1000
MTEXTBEGIN
1070
    73
1070
     1
1070
    44
1040
1.0
1070
    74
1070
     0
1000
MTEXTEND
  0
POINT
  5
18A
330
182
100
AcDbEntity
  8
DEFPOINTS
 62
     0
100
AcDbPoint
 10
476.099129835628
 20
406.7387956218155
 30
0.0
  0
POINT
  5
18B
330
182
100
AcDbEntity
  8
DEFPOINTS
 62
     0
100
AcDbPoint
 10
482.6191298356276
 20
396.7387956218157
 30
0.0
  0
POINT
  5
18C
330
182
100
AcDbEntity
  8
DEFPOINTS
 62
     0
100
AcDbPoint
 10
440.996922844518
 20
396.7387956218157
 30
0.0
  0
ENDBLK
  5
18D
330
182
100
AcDbEntity
  8
0
100
AcDbBlockEnd
  0
BLOCK
  5
176
330
175
100
AcDbEntity
  8
0
100
AcDbBlockBegin
  2
*D13
 70
     1
 10
0.0
 20
0.0
 30
0.0
  3
*D13
  1

  0
LINE
  5
177
330
175
100
AcDbEntity
  8
-TEXT3
 62
     2
370
    -2
100
AcDbLine
 10
474.0991298356281
 20
406.7387956218155
 30
0.0
 11
439.996922844518
 21
406.7387956218155
 31
0.0
  0
LINE
  5
178
330
175
100
AcDbEntity
  8
-TEXT3
 62
     2
370
    -2
100
AcDbLine
 10
474.0991298356281
 20
426.7387956218154
 30
0.0
 11
439.996922844518
 21
426.7387956218154
 31
0.0
  0
LINE
  5
179
330
175
100
AcDbEntity
  8
-TEXT3
 62
     2
370
    -2
100
AcDbLine
 10
440.996922844518
 20
408.7387956218155
 30
0.0
 11
440.996922844518
 21
424.7387956218155
 31
0.0
  0
SOLID
  5
17A
330
175
100
AcDbEntity
  8
-TEXT3
 62
     2
100
AcDbTrace
 10
440.6635895111847
 20
408.7387956218155
 30
0.0
 11
441.3302561778514
 21
408.7387956218155
 31
0.0
 12
440.996922844518
 22
406.7387956218155
 32
0.0
 13
440.996922844518
 23
406.7387956218155
 33
0.0
  0
SOLID
  5
17B
330
175
100
AcDbEntity
  8
-TEXT3
 62
     2
100
AcDbTrace
 10
440.6635895111847
 20
424.7387956218155
 30
0.0
 11
441.3302561778514
 21
424.7387956218155
 31
0.0
 12
440.996922844518
 22
426.7387956218154
 32
0.0
 13
440.996922844518
 23
426.7387956218154
 33
0.0
  0
MTEXT
  5
17C
330
175
100
AcDbEntity
  8
-TEXT3
 62
     3
100
AcDbMText
 10
437.3042216166871
 20
416.7387956218155
 30
0.0
 40
5.0
 41
0.0
 71
     5
 72
     1
  1
\A1;%%c20
 11
0.0000000000000001
 21
1.0
 31
0.0
 73
     1
 44
1.0
1001
ACAD
1000
MTEXTBEGIN
1070
    73
1070
     1
1070
    44
1040
1.0
1070
    74
1070
     0
1000
MTEXTEND
  0
POINT
  5
17D
330
175
100
AcDbEntity
  8
DEFPOINTS
 62
     0
100
AcDbPoint
 10
476.099129835628
 20
406.7387956218155
 30
0.0
  0
POINT
  5
17E
330
175
100
AcDbEntity
  8
DEFPOINTS
 62
     0
100
AcDbPoint
 10
476.099129835628
 20
426.7387956218154
 30
0.0
  0
POINT
  5
17F
330
175
100
AcDbEntity
  8
DEFPOINTS
 62
     0
100
AcDbPoint
 10
440.996922844518
 20
426.7387956218154
 30
0.0
  0
ENDBLK
  5
180
330
175
100
AcDbEntity
  8
0
100
AcDbBlockEnd
  0
BLOCK
  5
169
330
168
100
AcDbEntity
  8
0
100
AcDbBlockBegin
  2
*D14
 70
     1
 10
0.0
 20
0.0
 30
0.0
  3
*D14
  1

  0
LINE
  5
16A
330
168
100
AcDbEntity
  8
-SCHRAFFUR
 62
     2
370
    -2
100
AcDbLine
 10
534.5991298356282
 20
367.4330497985822
 30
0.0
 11
534.5991298356282
 21
347.4120851096771
 31
0.0
  0
LINE
  5
16B
330
168
100
AcDbEntity
  8
-SCHRAFFUR
 62
     2
370
    -2
100
AcDbLine
 10
482.5991298356281
 20
367.4330497985806
 30
0.0
 11
482.5991298356281
 21
347.4120851096771
 31
0.0
  0
LINE
  5
16C
330
168
100
AcDbEntity
  8
-SCHRAFFUR
 62
     2
370
    -2
100
AcDbLine
 10
532.5991298356282
 20
348.4120851096771
 30
0.0
 11
484.599129835628
 21
348.4120851096771
 31
0.0
  0
SOLID
  5
16D
330
168
100
AcDbEntity
  8
-SCHRAFFUR
 62
     2
100
AcDbTrace
 10
532.5991298356282
 20
348.7454184430104
 30
0.0
 11
532.5991298356282
 21
348.0787517763438
 31
0.0
 12
534.5991298356282
 22
348.4120851096771
 32
0.0
 13
534.5991298356282
 23
348.4120851096771
 33
0.0
  0
SOLID
  5
16E
330
168
100
AcDbEntity
  8
-SCHRAFFUR
 62
     2
100
AcDbTrace
 10
484.599129835628
 20
348.7454184430104
 30
0.0
 11
484.599129835628
 21
348.0787517763438
 31
0.0
 12
482.5991298356281
 22
348.4120851096771
 32
0.0
 13
482.5991298356281
 23
348.4120851096771
 33
0.0
  0
MTEXT
  5
16F
330
168
100
AcDbEntity
  8
-SCHRAFFUR
 62
     3
100
AcDbMText
 10
508.5991298356281
 20
352.1047863375079
 30
0.0
 40
5.0
 41
0.0
 71
     5
 72
     1
  1
\A1;%%c52
 73
     1
 44
1.0
1001
ACAD
1000
MTEXTBEGIN
1070
    73
1070
     1
1070
    44
1040
1.0
1070
    74
1070
     0
1000
MTEXTEND
  0
POINT
  5
170
330
168
100
AcDbEntity
  8
DEFPOINTS
 62
     0
100
AcDbPoint
 10
534.5991298356282
 20
369.4330497985822
 30
0.0
  0
POINT
  5
171
330
168
100
AcDbEntity
  8
DEFPOINTS
 62
     0
100
AcDbPoint
 10
482.5991298356281
 20
369.4330497985806
 30
0.0
  0
POINT
  5
172
330
168
100
AcDbEntity
  8
DEFPOINTS
 62
     0
100
AcDbPoint
 10
482.5991298356281
 20
348.4120851096771
 30
0.0
  0
ENDBLK
  5
173
330
168
100
AcDbEntity
  8
0
100
AcDbBlockEnd
  0
BLOCK
  5
144
330
143
100
AcDbEntity
  8
0
100
AcDbBlockBegin
  2
*D15
 70
     1
 10
0.0
 20
0.0
 30
0.0
  3
*D15
  1

  0
LINE
  5
145
330
143
100
AcDbEntity
  8
-TEXT2
 62
     2
370
    -2
100
AcDbLine
 10
452.0166534537557
 20
393.7387956218157
 30
0.0
 11
439.9969228445181
 21
393.7387956218157
 31
0.0
  0
LINE
  5
146
330
143
100
AcDbEntity
  8
-TEXT2
 62
     2
370
    -2
100
AcDbLine
 10
452.0166534537557
 20
396.7587956218149
 30
0.0
 11
439.9969228445181
 21
396.7587956218149
 31
0.0
  0
LINE
  5
147
330
143
100
AcDbEntity
  8
-TEXT2
 62
     2
370
    -2
100
AcDbLine
 10
440.9969228445182
 20
391.7387956218157
 30
0.0
 11
440.9969228445182
 21
389.7387956218157
 31
0.0
  0
LINE
  5
148
330
143
100
AcDbEntity
  8
-TEXT2
 62
     2
370
    -2
100
AcDbLine
 10
440.9969228445182
 20
398.7587956218149
 30
0.0
 11
440.9969228445182
 21
400.758795621815
 31
0.0
  0
SOLID
  5
149
330
143
100
AcDbEntity
  8
-TEXT2
 62
     2
100
AcDbTrace
 10
440.6635895111848
 20
391.7387956218157
 30
0.0
 11
441.3302561778515
 21
391.7387956218157
 31
0.0
 12
440.9969228445182
 22
393.7387956218157
 32
0.0
 13
440.9969228445182
 23
393.7387956218157
 33
0.0
  0
SOLID
  5
14A
330
143
100
AcDbEntity
  8
-TEXT2
 62
     2
100
AcDbTrace
 10
440.6635895111848
 20
398.7587956218149
 30
0.0
 11
441.3302561778515
 21
398.7587956218149
 31
0.0
 12
440.9969228445182
 22
396.7587956218149
 32
0.0
 13
440.9969228445182
 23
396.7587956218149
 33
0.0
  0
MTEXT
  5
14B
330
143
100
AcDbEntity
  8
-TEXT2
 62
     3
100
AcDbMText
 10
437.4423525853093
 20
395.2487956218154
 30
0.0
 40
5.0
 41
0.0
 71
     5
 72
     1
  1
\A1;3
 11
0.0000000000000001
 21
1.0
 31
0.0
 73
     1
 44
1.0
1001
ACAD
1000
MTEXTBEGIN
1070
    73
1070
     1
1070
    44
1040
1.0
1070
    74
1070
     0
1000
MTEXTEND
  0
POINT
  5
14C
330
143
100
AcDbEntity
  8
DEFPOINTS
 62
     0
100
AcDbPoint
 10
454.0166534537558
 20
393.7387956218157
 30
0.0
  0
POINT
  5
14D
330
143
100
AcDbEntity
  8
DEFPOINTS
 62
     0
100
AcDbPoint
 10
454.0166534537558
 20
396.7587956218149
 30
0.0
  0
POINT
  5
14E
330
143
100
AcDbEntity
  8
DEFPOINTS
 62
     0
100
AcDbPoint
 10
440.9969228445182
 20
396.7587956218149
 30
0.0
  0
ENDBLK
  5
14F
330
143
100
AcDbEntity
  8
0
100
AcDbBlockEnd
  0
BLOCK
  5
137
330
136
100
AcDbEntity
  8
0
100
AcDbBlockBegin
  2
*D16
 70
     1
 10
0.0
 20
0.0
 30
0.0
  3
*D16
  1

  0
LINE
  5
138
330
136
100
AcDbEntity
  8
-TEXT3
 62
     2
370
    -2
100
AcDbLine
 10
452.0166534537557
 20
393.7387956218157
 30
0.0
 11
439.9969228445181
 21
393.7387956218157
 31
0.0
  0
LINE
  5
139
330
136
100
AcDbEntity
  8
-TEXT3
 62
     2
370
    -2
100
AcDbLine
 10
452.0166534537557
 20
376.238795621815
 30
0.0
 11
439.996922844518
 21
376.238795621815
 31
0.0
  0
LINE
  5
13A
330
136
100
AcDbEntity
  8
-TEXT3
 62
     2
370
    -2
100
AcDbLine
 10
440.9969228445181
 20
391.7387956218157
 30
0.0
 11
440.996922844518
 21
378.238795621815
 31
0.0
  0
SOLID
  5
13B
330
136
100
AcDbEntity
  8
-TEXT3
 62
     2
100
AcDbTrace
 10
440.6635895111848
 20
391.7387956218157
 30
0.0
 11
441.3302561778514
 21
391.7387956218157
 31
0.0
 12
440.9969228445181
 22
393.7387956218157
 32
0.0
 13
440.9969228445181
 23
393.7387956218157
 33
0.0
  0
SOLID
  5
13C
330
136
100
AcDbEntity
  8
-TEXT3
 62
     2
100
AcDbTrace
 10
440.6635895111847
 20
378.238795621815
 30
0.0
 11
441.3302561778514
 21
378.238795621815
 31
0.0
 12
440.996922844518
 22
376.238795621815
 32
0.0
 13
440.996922844518
 23
376.238795621815
 33
0.0
  0
MTEXT
  5
13D
330
136
100
AcDbEntity
  8
-TEXT3
 62
     3
100
AcDbMText
 10
437.4116568145043
 20
384.9887956218154
 30
0.0
 40
5.0
 41
0.0
 71
     5
 72
     1
  1
\A1;G
 11
0.0000000000000001
 21
1.0
 31
0.0
 73
     1
 44
1.0
1001
ACAD
1000
MTEXTBEGIN
1070
    73
1070
     1
1070
    44
1040
1.0
1070
    74
1070
     0
1000
MTEXTEND
  0
POINT
  5
13E
330
136
100
AcDbEntity
  8
DEFPOINTS
 62
     0
100
AcDbPoint
 10
454.0166534537558
 20
393.7387956218157
 30
0.0
  0
POINT
  5
13F
330
136
100
AcDbEntity
  8
DEFPOINTS
 62
     0
100
AcDbPoint
 10
454.0166534537558
 20
376.238795621815
 30
0.0
  0
POINT
  5
140
330
136
100
AcDbEntity
  8
DEFPOINTS
 62
     0
100
AcDbPoint
 10
440.996922844518
 20
376.238795621815
 30
0.0
  0
ENDBLK
  5
141
330
136
100
AcDbEntity
  8
0
100
AcDbBlockEnd
  0
BLOCK
  5
10D
330
10C
100
AcDbEntity
  8
0
100
AcDbBlockBegin
  2
*D17
 70
     1
 10
0.0
 20
0.0
 30
0.0
  3
*D17
  1

  0
LINE
  5
10E
330
10C
100
AcDbEntity
  8
-TEXT3
 62
     2
370
    -2
100
AcDbLine
 10
501.5991298356276
 20
365.2387956218149
 30
0.0
 11
439.7837367143382
 21
365.2387956218149
 31
0.0
  0
LINE
  5
10F
330
10C
100
AcDbEntity
  8
-TEXT3
 62
     2
370
    -2
100
AcDbLine
 10
467.5793992263903
 20
373.2387956218147
 30
0.0
 11
439.7837367143382
 21
373.2387956218147
 31
0.0
  0
LINE
  5
110
330
10C
100
AcDbEntity
  8
-TEXT3
 62
     2
370
    -2
100
AcDbLine
 10
440.7837367143383
 20
367.2387956218149
 30
0.0
 11
440.7837367143383
 21
371.2387956218146
 31
0.0
  0
SOLID
  5
111
330
10C
100
AcDbEntity
  8
-TEXT3
 62
     2
100
AcDbTrace
 10
440.4504033810049
 20
367.2387956218149
 30
0.0
 11
441.1170700476716
 21
367.2387956218149
 31
0.0
 12
440.7837367143383
 22
365.2387956218149
 32
0.0
 13
440.7837367143383
 23
365.2387956218149
 33
0.0
  0
SOLID
  5
112
330
10C
100
AcDbEntity
  8
-TEXT3
 62
     2
100
AcDbTrace
 10
440.4504033810049
 20
371.2387956218146
 30
0.0
 11
441.1170700476716
 21
371.2387956218146
 31
0.0
 12
440.7837367143383
 22
373.2387956218147
 32
0.0
 13
440.7837367143383
 23
373.2387956218147
 33
0.0
  0
MTEXT
  5
113
330
10C
100
AcDbEntity
  8
-TEXT3
 62
     3
100
AcDbMText
 10
437.2308717757297
 20
369.2387956218149
 30
0.0
 40
5.0
 41
0.0
 71
     5
 72
     1
  1
\A1;8
 11
0.0000000000000001
 21
1.0
 31
0.0
 73
     1
 44
1.0
1001
ACAD
1000
MTEXTBEGIN
1070
    73
1070
     1
1070
    44
1040
1.0
1070
    74
1070
     0
1000
MTEXTEND
  0
POINT
  5
114
330
10C
100
AcDbEntity
  8
DEFPOINTS
 62
     0
100
AcDbPoint
 10
503.5991298356276
 20
365.2387956218149
 30
0.0
  0
POINT
  5
115
330
10C
100
AcDbEntity
  8
DEFPOINTS
 62
     0
100
AcDbPoint
 10
469.5793992263904
 20
373.2387956218147
 30
0.0
  0
POINT
  5
116
330
10C
100
AcDbEntity
  8
DEFPOINTS
 62
     0
100
AcDbPoint
 10
440.7837367143383
 20
373.2387956218147
 30
0.0
  0
ENDBLK
  5
117
330
10C
100
AcDbEntity
  8
0
100
AcDbBlockEnd
  0
BLOCK
  5
FF
330
FE
100
AcDbEntity
  8
0
100
AcDbBlockBegin
  2
*D18
 70
     1
 10
0.0
 20
0.0
 30
0.0
  3
*D18
  1

  0
LINE
  5
100
330
FE
100
AcDbEntity
  8
-TEXT3
 62
     2
370
    -2
100
AcDbLine
 10
443.8750617384438
 20
376.2387956218146
 30
0.0
 11
439.7837367143383
 21
376.2387956218146
 31
0.0
  0
LINE
  5
101
330
FE
100
AcDbEntity
  8
-TEXT3
 62
     2
370
    -2
100
AcDbLine
 10
480.5991298356281
 20
373.2387956218147
 30
0.0
 11
439.7837367143383
 21
373.2387956218147
 31
0.0
  0
LINE
  5
102
330
FE
100
AcDbEntity
  8
-TEXT3
 62
     2
370
    -2
100
AcDbLine
 10
440.7837367143383
 20
378.2387956218146
 30
0.0
 11
440.7837367143383
 21
380.2387956218146
 31
0.0
  0
LINE
  5
103
330
FE
100
AcDbEntity
  8
-TEXT3
 62
     2
370
    -2
100
AcDbLine
 10
440.7837367143383
 20
371.2387956218146
 30
0.0
 11
440.7837367143383
 21
369.2387956218146
 31
0.0
  0
SOLID
  5
104
330
FE
100
AcDbEntity
  8
-TEXT3
 62
     2
100
AcDbTrace
 10
440.450403381005
 20
378.2387956218146
 30
0.0
 11
441.1170700476716
 21
378.2387956218146
 31
0.0
 12
440.7837367143383
 22
376.2387956218146
 32
0.0
 13
440.7837367143383
 23
376.2387956218146
 33
0.0
  0
SOLID
  5
105
330
FE
100
AcDbEntity
  8
-TEXT3
 62
     2
100
AcDbTrace
 10
440.450403381005
 20
371.2387956218146
 30
0.0
 11
441.1170700476716
 21
371.2387956218146
 31
0.0
 12
440.7837367143383
 22
373.2387956218147
 32
0.0
 13
440.7837367143383
 23
373.2387956218147
 33
0.0
  0
MTEXT
  5
106
330
FE
100
AcDbEntity
  8
-TEXT3
 62
     3
100
AcDbMText
 10
437.2291664551295
 20
374.7387956218148
 30
0.0
 40
5.0
 41
0.0
 71
     5
 72
     1
  1
\A1;3
 11
0.0000000000000001
 21
1.0
 31
0.0
 73
     1
 44
1.0
1001
ACAD
1000
MTEXTBEGIN
1070
    73
1070
     1
1070
    44
1040
1.0
1070
    74
1070
     0
1000
MTEXTEND
  0
POINT
  5
107
330
FE
100
AcDbEntity
  8
DEFPOINTS
 62
     0
100
AcDbPoint
 10
445.8750617384438
 20
376.2387956218146
 30
0.0
  0
POINT
  5
108
330
FE
100
AcDbEntity
  8
DEFPOINTS
 62
     0
100
AcDbPoint
 10
482.5991298356281
 20
373.2387956218147
 30
0.0
  0
POINT
  5
109
330
FE
100
AcDbEntity
  8
DEFPOINTS
 62
     0
100
AcDbPoint
 10
440.7837367143383
 20
373.2387956218147
 30
0.0
  0
ENDBLK
  5
10A
330
FE
100
AcDbEntity
  8
0
100
AcDbBlockEnd
  0
BLOCK
  5
1B9
330
1B8
100
AcDbEntity
  8
0
100
AcDbBlockBegin
  2
*D19
 70
     1
 10
0.0
 20
0.0
 30
0.0
  3
*D19
  1

  0
LINE
  5
1BA
330
1B8
100
AcDbEntity
  8
-SCHRAFFUR
 62
     2
370
    -2
100
AcDbLine
 10
711.099129835628
 20
467.1662192975743
 30
0.0
 11
711.099129835628
 21
486.1662192975743
 31
0.0
  0
LINE
  5
1BB
330
1B8
100
AcDbEntity
  8
-SCHRAFFUR
 62
     2
370
    -2
100
AcDbLine
 10
476.099129835628
 20
467.1662192975743
 30
0.0
 11
476.099129835628
 21
486.1662192975743
 31
0.0
  0
LINE
  5
1BC
330
1B8
100
AcDbEntity
  8
-SCHRAFFUR
 62
     2
370
    -2
100
AcDbLine
 10
709.0991298356279
 20
485.1662192975743
 30
0.0
 11
478.0991298356281
 21
485.1662192975743
 31
0.0
  0
SOLID
  5
1BD
330
1B8
100
AcDbEntity
  8
-SCHRAFFUR
 62
     2
100
AcDbTrace
 10
709.0991298356279
 20
485.4995526309076
 30
0.0
 11
709.0991298356279
 21
484.832885964241
 31
0.0
 12
711.099129835628
 22
485.1662192975743
 32
0.0
 13
711.099129835628
 23
485.1662192975743
 33
0.0
  0
SOLID
  5
1BE
330
1B8
100
AcDbEntity
  8
-SCHRAFFUR
 62
     2
100
AcDbTrace
 10
478.0991298356281
 20
485.4995526309076
 30
0.0
 11
478.0991298356281
 21
484.832885964241
 31
0.0
 12
476.099129835628
 22
485.1662192975743
 32
0.0
 13
476.099129835628
 23
485.1662192975743
 33
0.0
  0
MTEXT
  5
1BF
330
1B8
100
AcDbEntity
  8
-SCHRAFFUR
 62
     3
100
AcDbMText
 10
593.5991298356279
 20
488.720789556783
 30
0.0
 40
5.0
 41
0.0
 71
     5
 72
     1
  1
\A1;235
 73
     1
 44
1.0
1001
ACAD
1000
MTEXTBEGIN
1070
    73
1070
     1
1070
    44
1040
1.0
1070
    74
1070
     0
1000
MTEXTEND
  0
POINT
  5
1C0
330
1B8
100
AcDbEntity
  8
DEFPOINTS
 62
     0
100
AcDbPoint
 10
711.099129835628
 20
465.1662192975743
 30
0.0
  0
POINT
  5
1C1
330
1B8
100
AcDbEntity
  8
DEFPOINTS
 62
     0
100
AcDbPoint
 10
476.099129835628
 20
465.1662192975743
 30
0.0
  0
POINT
  5
1C2
330
1B8
100
AcDbEntity
  8
DEFPOINTS
 62
     0
100
AcDbPoint
 10
476.099129835628
 20
485.1662192975743
 30
0.0
  0
ENDBLK
  5
1C3
330
1B8
100
AcDbEntity
  8
0
100
AcDbBlockEnd
  0
BLOCK
  5
1C6
330
1C5
100
AcDbEntity
  8
0
100
AcDbBlockBegin
  2
*D20
 70
     1
 10
0.0
 20
0.0
 30
0.0
  3
*D20
  1

  0
LINE
  5
1C7
330
1C5
100
AcDbEntity
  8
-SCHRAFFUR
 62
     2
370
    -2
100
AcDbLine
 10
588.599129835628
 20
394.738795621815
 30
0.0
 11
588.599129835628
 21
465.1662192975743
 31
0.0
  0
LINE
  5
1C8
330
1C5
100
AcDbEntity
  8
-SCHRAFFUR
 62
     2
370
    -2
100
AcDbLine
 10
598.599129835628
 20
394.738795621815
 30
0.0
 11
598.599129835628
 21
465.1662192975743
 31
0.0
  0
LINE
  5
1C9
330
1C5
100
AcDbEntity
  8
-SCHRAFFUR
 62
     2
370
    -2
100
AcDbLine
 10
590.5991298356281
 20
464.1662192975743
 30
0.0
 11
596.5991298356279
 21
464.1662192975743
 31
0.0
  0
LINE
  5
1CA
330
1C5
100
AcDbEntity
  8
-SCHRAFFUR
 62
     2
370
    -2
100
AcDbLine
 10
598.599129835628
 20
464.1662192975743
 30
0.0
 11
613.8167287442228
 21
464.1662192975743
 31
0.0
  0
SOLID
  5
1CB
330
1C5
100
AcDbEntity
  8
-SCHRAFFUR
 62
     2
100
AcDbTrace
 10
590.5991298356281
 20
464.4995526309076
 30
0.0
 11
590.5991298356281
 21
463.832885964241
 31
0.0
 12
588.599129835628
 22
464.1662192975743
 32
0.0
 13
588.599129835628
 23
464.1662192975743
 33
0.0
  0
SOLID
  5
1CC
330
1C5
100
AcDbEntity
  8
-SCHRAFFUR
 62
     2
100
AcDbTrace
 10
596.5991298356279
 20
464.4995526309076
 30
0.0
 11
596.5991298356279
 21
463.832885964241
 31
0.0
 12
598.599129835628
 22
464.1662192975743
 32
0.0
 13
598.599129835628
 23
464.1662192975743
 33
0.0
  0
MTEXT
  5
1CD
330
1C5
100
AcDbEntity
  8
-SCHRAFFUR
 62
     3
100
AcDbMText
 10
607.2079292899253
 20
467.7190842361828
 30
0.0
 40
5.0
 41
0.0
 71
     5
 72
     1
  1
\A1;~10
 73
     1
 44
1.0
1001
ACAD
1000
MTEXTBEGIN
1070
    73
1070
     1
1070
    44
1040
1.0
1070
    74
1070
     0
1000
MTEXTEND
  0
POINT
  5
1CE
330
1C5
100
AcDbEntity
  8
DEFPOINTS
 62
     0
100
AcDbPoint
 10
588.599129835628
 20
392.738795621815
 30
0.0
  0
POINT
  5
1CF
330
1C5
100
AcDbEntity
  8
DEFPOINTS
 62
     0
100
AcDbPoint
 10
598.599129835628
 20
392.738795621815
 30
0.0
  0
POINT
  5
1D0
330
1C5
100
AcDbEntity
  8
DEFPOINTS
 62
     0
100
AcDbPoint
 10
598.599129835628
 20
464.1662192975743
 30
0.0
  0
ENDBLK
  5
1D1
330
1C5
100
AcDbEntity
  8
0
100
AcDbBlockEnd
  0
ENDSEC
  0
SECTION
  2
ENTITIES
  0
DIMENSION
  5
9
330
2
100
AcDbEntity
  8
-TEXT2
100
AcDbDimension
  2
*D9
 10
678.599129835628
 20
464.1662192975743
 30
0.0
 11
638.5991298356279
 21
467.7190842361828
 31
0.0
 71
     5
 42
80.0
  3
1-1
100
AcDbAlignedDimension
 13
598.599129835628
 23
392.738795621815
 33
0.0
 14
678.599129835628
 24
454.1662192975743
 34
0.0
100
AcDbRotatedDimension
  0
LWPOLYLINE
  5
1B
330
2
100
AcDbEntity
  8
-VERGLASUNG
100
AcDbPolyline
 90
        6
 70
     0
 43
0.0
 10
733.1816062175002
 20
376.238795621815
 10
599.599129835628
 20
376.2387956218145
 10
598.599129835628
 20
377.2387956218145
 10
598.599129835628
 20
392.738795621815
 10
599.599129835628
 20
393.738795621815
 10
733.1816062175002
 20
393.7387956218157
  0
LINE
  5
1D
330
2
100
AcDbEntity
  8
-VERGLASUNG
100
AcDbLine
 10
606.4065965858754
 20
393.7387956218157
 30
0.0
 11
602.5127217662493
 21
389.8449208021896
 31
0.0
  0
LINE
  5
1E
330
2
100
AcDbEntity
  8
-VERGLASUNG
100
AcDbLine
 10
607.9690965858754
 20
393.7387956218157
 30
0.0
 11
604.0752217662493
 21
389.8449208021896
 31
0.0
  0
LINE
  5
1F
330
2
100
AcDbEntity
  8
-VERGLASUNG
100
AcDbLine
 10
604.8440965858754
 20
393.7387956218157
 30
0.0
 11
600.9502217662493
 21
389.8449208021896
 31
0.0
  0
LINE
  5
20
330
2
100
AcDbEntity
  8
-VERGLASUNG
100
AcDbLine
 10
609.6241820218661
 20
380.132670441441
 30
0.0
 11
605.73030720224
 21
376.238795621815
 31
0.0
  0
LINE
  5
21
330
2
100
AcDbEntity
  8
-VERGLASUNG
100
AcDbLine
 10
608.0616820218661
 20
380.132670441441
 30
0.0
 11
604.16780720224
 21
376.238795621815
 31
0.0
  0
LINE
  5
22
330
2
100
AcDbEntity
  8
-VERGLASUNG
100
AcDbLine
 10
611.1866820218661
 20
380.132670441441
 30
0.0
 11
607.29280720224
 21
376.238795621815
 31
0.0
  0
LINE
  5
23
330
2
100
AcDbEntity
  8
-VERGLASUNG
100
AcDbLine
 10
632.9690965439247
 20
393.7387956218157
 30
0.0
 11
629.0752217242986
 21
389.8449208021896
 31
0.0
  0
LINE
  5
24
330
2
100
AcDbEntity
  8
-VERGLASUNG
100
AcDbLine
 10
631.4065965439247
 20
393.7387956218157
 30
0.0
 11
627.5127217242986
 21
389.8449208021896
 31
0.0
  0
LINE
  5
25
330
2
100
AcDbEntity
  8
-VERGLASUNG
100
AcDbLine
 10
633.0616819799153
 20
380.132670441441
 30
0.0
 11
629.1678071602894
 21
376.238795621815
 31
0.0
  0
LINE
  5
26
330
2
100
AcDbEntity
  8
-VERGLASUNG
100
AcDbLine
 10
629.8440965439247
 20
393.7387956218157
 30
0.0
 11
625.9502217242986
 21
389.8449208021896
 31
0.0
  0
LINE
  5
27
330
2
100
AcDbEntity
  8
-VERGLASUNG
100
AcDbLine
 10
636.1866819799153
 20
380.132670441441
 30
0.0
 11
632.2928071602894
 21
376.238795621815
 31
0.0
  0
LINE
  5
28
330
2
100
AcDbEntity
  8
-VERGLASUNG
100
AcDbLine
 10
634.6241819799153
 20
380.132670441441
 30
0.0
 11
630.7303071602894
 21
376.238795621815
 31
0.0
  0
DIMENSION
  5
29
330
2
100
AcDbEntity
  8
-TEXT2
100
AcDbDimension
  2
*D8
 10
678.599129835628
 20
464.1662192975743
 30
0.0
 11
694.8491298356279
 21
467.720789556783
 31
0.0
 71
     5
 42
32.5
  3
1-1
100
AcDbAlignedDimension
 13
711.099129835628
 23
426.7387956218154
 33
0.0
 14
678.599129835628
 24
454.1662192975743
 34
0.0
100
AcDbRotatedDimension
  0
DIMENSION
  5
36
330
2
100
AcDbEntity
  8
-TEXT3
100
AcDbDimension
  2
*D7
 10
746.201336826738
 20
396.7387956218157
 30
0.0
 11
742.6484718881295
 21
401.7387956218157
 31
0.0
 71
     5
 42
9.999999999999886
  3
1-1
100
AcDbAlignedDimension
 13
711.099129835628
 23
406.7387956218155
 33
0.0
 14
704.5791298356284
 24
396.7387956218157
 34
0.0
 50
270.0
100
AcDbRotatedDimension
  0
DIMENSION
  5
44
330
2
100
AcDbEntity
  8
-TEXT3
100
AcDbDimension
  2
*D6
 10
746.201336826738
 20
426.7387956218154
 30
0.0
 11
742.508635598907
 21
416.7387956218156
 31
0.0
  1
%%c<>
 71
     5
 42
19.99999999999994
  3
1-1
100
AcDbAlignedDimension
 13
711.099129835628
 23
406.7387956218155
 33
0.0
 14
711.099129835628
 24
426.7387956218154
 34
0.0
 50
270.0
100
AcDbRotatedDimension
  0
DIMENSION
  5
51
330
2
100
AcDbEntity
  8
-SCHRAFFUR
100
AcDbDimension
  2
*D1
 10
704.599129835628
 20
348.4120851096771
 30
0.0
 11
678.599129835628
 21
352.1047863375079
 31
0.0
  1
%%c<>
 71
     5
 42
52.00000000000011
  3
1-1
100
AcDbAlignedDimension
 13
652.5991298356278
 23
369.4330497985822
 33
0.0
 14
704.599129835628
 24
369.4330497985806
 34
0.0
 50
180.0
100
AcDbRotatedDimension
  0
LINE
  5
5F
330
2
100
AcDbEntity
  8
-SCHRAFFUR
100
AcDbLine
 10
666.1497735726757
 20
406.8268356326798
 30
0.0
 11
691.04848609858
 21
406.8268356326793
 31
0.0
  0
LINE
  5
60
330
2
100
AcDbEntity
  8
-SCHRAFFUR
100
AcDbLine
 10
667.6284029945861
 20
408.7387956218158
 30
0.0
 11
689.5698566766707
 21
408.7387956218144
 31
0.0
  0
LINE
  5
61
330
2
100
AcDbEntity
  8
-SCHRAFFUR
100
AcDbLine
 10
664.141072903099
 20
404.0135893505085
 30
0.0
 11
693.0571867681569
 21
404.0135893505083
 31
0.0
  0
LWPOLYLINE
  5
62
330
2
100
AcDbEntity
  8
-PROFILAUSSENKANTET
100
AcDbPolyline
 90
        6
 70
     1
 43
0.0
 10
674.6991298356278
 20
421.7387956218158
 42
-0.2656816979737874
 10
666.099129835628
 20
426.7387956218156
 10
666.099129835628
 20
429.7387956218155
 10
691.099129835628
 20
429.7387956218155
 10
691.099129835628
 20
426.7387956218156
 42
-0.2656816979737873
 10
682.499129835628
 20
421.7387956218158
  0
LINE
  5
65
330
2
100
AcDbEntity
  8
-SCHRAFFUR
100
AcDbLine
 10
689.5770422490982
 20
424.7387956218155
 30
0.0
 11
667.6212174221578
 21
424.7387956218156
 31
0.0
  0
LINE
  5
66
330
2
100
AcDbEntity
  8
-SCHRAFFUR
100
AcDbLine
 10
652.5791298356287
 20
400.0427822848608
 30
0.0
 11
704.5791298356284
 21
400.0427822848608
 31
0.0
  0
LINE
  5
67
330
2
100
AcDbEntity
  8
-SCHRAFFUR
100
AcDbLine
 10
653.2318154798051
 20
400.9805310455847
 30
0.0
 11
703.926444191452
 21
400.9805310455845
 31
0.0
  0
LWPOLYLINE
  5
68
330
2
100
AcDbEntity
  8
-PROFILAUSSENKANTET
100
AcDbPolyline
 90
       13
 70
     1
 43
0.0
 10
652.5791298356284
 20
396.7387956218157
 10
652.5791298356287
 20
400.0427822848608
 42
-0.3137493583978639
 10
653.2318154798051
 20
400.9805310455847
 10
664.1410729030986
 20
404.0135893505085
 42
0.3057076911406833
 10
666.0978377167805
 20
406.7387956218154
 42
-0.2667424445669822
 10
674.799129835628
 20
411.7387956218157
 10
682.3991298356275
 20
411.7387956218157
 42
-0.266742444566985
 10
691.100421954475
 20
406.7387956218154
 42
0.3057076911407296
 10
693.0571867681569
 20
404.0135893505083
 10
703.926444191452
 20
400.9805310455845
 42
-0.3137493583978905
 10
704.5791298356284
 20
400.0427822848608
 10
704.5791298356284
 20
396.7387956218157
 10
669.5791298356284
 20
396.7387956218157
  0
INSERT
  5
69
330
2
100
AcDbEntity
  8
-TEXT3
100
AcDbBlockReference
  2
1587-M12
 10
678.599129835628
 20
429.7387956218156
 30
0.0
 41
-1.0
 50
180.0
  0
LINE
  5
7D
330
2
100
AcDbEntity
  8
-SYSTEM
100
AcDbLine
 10
678.599129835628
 20
370.8485237180473
 30
0.0
 11
678.599129835628
 21
454.1662192975743
 31
0.0
  0
LINE
  5
80
330
2
100
AcDbEntity
  8
-VERGLASUNG
100
AcDbLine
 10
656.4065965726847
 20
393.7387956925266
 30
0.0
 11
652.512721682348
 21
389.8449208021896
 31
0.0
  0
LINE
  5
81
330
2
100
AcDbEntity
  8
-VERGLASUNG
100
AcDbLine
 10
654.8440965726847
 20
393.7387956925266
 30
0.0
 11
650.950221682348
 21
389.8449208021899
 31
0.0
  0
LINE
  5
82
330
2
100
AcDbEntity
  8
-VERGLASUNG
100
AcDbLine
 10
657.9690965726847
 20
393.7387956925266
 30
0.0
 11
654.075221682348
 21
389.8449208021896
 31
0.0
  0
LINE
  5
83
330
2
100
AcDbEntity
  8
-VERGLASUNG
100
AcDbLine
 10
659.6241820086754
 20
380.1326705121517
 30
0.0
 11
655.7303071183387
 21
376.2387956218152
 31
0.0
  0
LINE
  5
84
330
2
100
AcDbEntity
  8
-VERGLASUNG
100
AcDbLine
 10
661.1866820086754
 20
380.1326705121519
 30
0.0
 11
657.2928071183387
 21
376.2387956218152
 31
0.0
  0
LINE
  5
85
330
2
100
AcDbEntity
  8
-VERGLASUNG
100
AcDbLine
 10
658.0616820086754
 20
380.1326705121519
 30
0.0
 11
654.1678071183387
 21
376.2387956218152
 31
0.0
  0
LWPOLYLINE
  5
86
330
2
100
AcDbEntity
  8
-PROFILAUSSENKANTET
100
AcDbPolyline
 90
        4
 70
     0
 43
0.0
 10
691.099129835628
 20
426.7387956218155
 10
711.099129835628
 20
426.7387956218154
 10
711.099129835628
 20
406.7387956218155
 10
691.100421954475
 20
406.7387956218155
  0
LINE
  5
87
330
2
100
AcDbEntity
  8
-VERGLASUNG
100
AcDbLine
 10
707.9690966302048
 20
393.7387958339485
 30
0.0
 11
704.075221739868
 21
389.8449209436115
 31
0.0
  0
LINE
  5
88
330
2
100
AcDbEntity
  8
-VERGLASUNG
100
AcDbLine
 10
706.4065966302048
 20
393.7387958339485
 30
0.0
 11
702.512721739868
 21
389.8449209436115
 31
0.0
  0
LINE
  5
89
330
2
100
AcDbEntity
  8
-VERGLASUNG
100
AcDbLine
 10
709.6241820661955
 20
380.1326706535736
 30
0.0
 11
705.7303071758588
 21
376.2387957632371
 31
0.0
  0
LINE
  5
8A
330
2
100
AcDbEntity
  8
-VERGLASUNG
100
AcDbLine
 10
708.0616820661955
 20
380.1326706535738
 30
0.0
 11
704.1678071758588
 21
376.2387957632371
 31
0.0
  0
LINE
  5
8B
330
2
100
AcDbEntity
  8
-VERGLASUNG
100
AcDbLine
 10
704.8440966302048
 20
393.7387958339485
 30
0.0
 11
700.950221739868
 21
389.8449209436117
 31
0.0
  0
LINE
  5
8C
330
2
100
AcDbEntity
  8
-VERGLASUNG
100
AcDbLine
 10
711.1866820661955
 20
380.1326706535738
 30
0.0
 11
707.2928071758588
 21
376.2387957632371
 31
0.0
  0
DIMENSION
  5
8D
330
2
100
AcDbEntity
  8
-TEXT2
100
AcDbDimension
  2
*D5
 10
746.2013368267381
 20
396.7587956218149
 30
0.0
 11
746.201336826738
 21
395.2487956218154
 31
0.0
 70
   128
 71
     5
 42
3.019999999999299
  3
1-1
100
AcDbAlignedDimension
 13
733.1816062175002
 23
393.7387956218157
 33
0.0
 14
733.1816062175002
 24
396.7587956218149
 34
0.0
 50
90.0
100
AcDbRotatedDimension
  0
DIMENSION
  5
9B
330
2
100
AcDbEntity
  8
-TEXT3
100
AcDbDimension
  2
*D4
 10
746.201336826738
 20
376.238795621815
 30
0.0
 11
742.6160707967243
 21
384.9887956218154
 31
0.0
  1
G
 71
     5
 42
17.50000000000068
  3
1-1
100
AcDbAlignedDimension
 13
733.1816062175002
 23
393.7387956218157
 33
0.0
 14
733.1816062175002
 24
376.238795621815
 34
0.0
 50
270.0
100
AcDbRotatedDimension
  0
LINE
  5
A8
330
2
100
AcDbEntity
  8
-VERGLASUNG
100
AcDbLine
 10
732.9690966589646
 20
393.7387959046594
 30
0.0
 11
729.0752217686281
 21
389.8449210143224
 31
0.0
  0
LINE
  5
A9
330
2
100
AcDbEntity
  8
-VERGLASUNG
100
AcDbLine
 10
729.8440966589646
 20
393.7387959046594
 30
0.0
 11
725.9502217686281
 21
389.8449210143227
 31
0.0
  0
LINE
  5
AA
330
2
100
AcDbEntity
  8
-VERGLASUNG
100
AcDbLine
 10
731.4065966589646
 20
393.7387959046594
 30
0.0
 11
727.5127217686281
 21
389.8449210143224
 31
0.0
  0
LINE
  5
AB
330
2
100
AcDbEntity
  8
-VERGLASUNG
100
AcDbLine
 10
734.6241820949558
 20
380.1326707242846
 30
0.0
 11
730.7303072046188
 21
376.238795833948
 31
0.0
  0
LINE
  5
AC
330
2
100
AcDbEntity
  8
-VERGLASUNG
100
AcDbLine
 10
726.6195462871559
 20
380.1326707242848
 30
0.0
 11
722.7256713968189
 21
376.238795833948
 31
0.0
  0
LINE
  5
AD
330
2
100
AcDbEntity
  8
-VERGLASUNG
100
AcDbLine
 10
733.0616820949558
 20
380.1326707242848
 30
0.0
 11
729.1678072046188
 21
376.238795833948
 31
0.0
  0
LINE
  5
AE
330
2
100
AcDbEntity
  8
-SYSTEM
100
AcDbLine
 10
708.5956932453292
 20
598.2097539337163
 30
0.0
 11
648.6025664259264
 21
598.2097539337161
 31
0.0
  0
CIRCLE
  5
AF
330
2
100
AcDbEntity
  8
-PROFILAUSSENKANTET
100
AcDbCircle
 10
685.5991298356278
 20
598.2097539337162
 30
0.0
 40
1.75
  0
CIRCLE
  5
B0
330
2
100
AcDbEntity
  8
-PROFILAUSSENKANTET
100
AcDbCircle
 10
678.5991298356279
 20
598.2097539337162
 30
0.0
 40
26.0
  0
LINE
  5
B1
330
2
100
AcDbEntity
  8
-SYSTEM
100
AcDbLine
 10
678.5991298356276
 20
628.2063173434177
 30
0.0
 11
678.599129835628
 21
568.2131905240148
 31
0.0
  0
CIRCLE
  5
B2
330
2
100
AcDbEntity
  8
-PROFILAUSSENKANTET
100
AcDbCircle
 10
675.0991298356279
 20
592.1475761072251
 30
0.0
 40
1.75
  0
CIRCLE
  5
B3
330
2
100
AcDbEntity
  8
-PROFILAUSSENKANTET
100
AcDbCircle
 10
675.0991298356277
 20
604.2719317602072
 30
0.0
 40
1.75
  0
LINE
  5
B4
330
2
100
AcDbEntity
  8
-SYSTEM
100
AcDbLine
 10
593.5991298356279
 20
598.2097539337156
 30
0.0
 11
653.0065535113848
 21
598.2097539337172
 31
0.0
  0
LINE
  5
B5
330
2
100
AcDbEntity
  8
-NORMTEIL_VERDECKT
100
AcDbLine
 10
702.5991298356278
 20
608.2097539337163
 30
0.0
 11
711.0991298356281
 21
608.2097539337163
 31
0.0
  0
LINE
  5
B8
330
2
100
AcDbEntity
  8
-NORMTEIL_VERDECKT
100
AcDbLine
 10
711.0991298356281
 20
608.2097539337163
 30
0.0
 11
711.0991298356283
 21
588.2097539337165
 31
0.0
  0
LINE
  5
B9
330
2
100
AcDbEntity
  8
-NORMTEIL_VERDECKT
100
AcDbLine
 10
711.0991298356283
 20
588.2097539337165
 30
0.0
 11
702.5991298356278
 21
588.2097539337162
 31
0.0
  0
LINE
  5
BA
330
2
100
AcDbEntity
  8
-NORMTEIL_VERDECKT
100
AcDbLine
 10
593.5991298356281
 20
608.2097539337162
 30
0.0
 11
654.5991298356279
 21
608.2097539337162
 31
0.0
  0
LINE
  5
BB
330
2
100
AcDbEntity
  8
-NORMTEIL_VERDECKT
100
AcDbLine
 10
593.5991298356281
 20
588.2097539337162
 30
0.0
 11
654.5991298356279
 21
588.2097539337163
 31
0.0
  0
MTEXT
  5
BC
330
2
100
AcDbEntity
  8
-TEXT2
100
AcDbMText
 10
345.1177611671101
 20
489.6546299027697
 30
0.0
 40
5.0
 41
115.8862353619997
 71
     1
 72
     5
  1
{\H4x;Draufsicht}\P{\H2x;M1:1}
 73
     1
 44
1.0
1001
ACAD
1000
MTEXTBEGIN
1070
    73
1070
     1
1070
    44
1040
1.0
1070
    74
1070
     0
1000
MTEXTEND
  0
MTEXT
  5
BD
330
2
100
AcDbEntity
  8
-TEXT2
100
AcDbMText
 10
345.1177611671101
 20
642.8718068840776
 30
0.0
 40
5.0
 41
115.8862353619997
 71
     1
 72
     5
  1
{\H4x;Ansicht}\P{\H2x;M1:1}
 73
     1
 44
1.0
1001
ACAD
1000
MTEXTBEGIN
1070
    73
1070
     1
1070
    44
1040
1.0
1070
    74
1070
     0
1000
MTEXTEND
  0
LWPOLYLINE
  5
BE
330
2
100
AcDbEntity
  8
-TRENNEN
100
AcDbPolyline
 90
        4
 70
     0
 43
0.0
 10
593.5991298356279
 20
529.8359209775838
 10
733.1816062175002
 20
529.8359209775838
 10
733.1816062175002
 20
684.2117856675363
 10
593.5991298356279
 20
684.2117856675363
  0
HATCH
  5
C1
330
2
100
AcDbEntity
  8
-SCHRAFFUR
100
AcDbHatch
 10
0.0
 20
0.0
 30
0.0
210
0.0
220
0.0
230
1.0
  2
SOLID
 70
     1
 71
     1
 91
        1
 92
        1
 93
        4
 72
     1
 10
704.099129835628
 20
376.2387956218149
 11
653.0991298356278
 21
376.2387956218149
 72
     1
 10
653.0991298356278
 20
376.2387956218149
 11
653.0991298356278
 21
373.2387956218149
 72
     1
 10
653.0991298356278
 20
373.2387956218149
 11
704.099129835628
 21
373.2387956218149
 72
     1
 10
704.099129835628
 20
373.2387956218149
 11
704.099129835628
 21
376.2387956218149
 97
        1
330
C2
 75
     0
 76
     1
 98
        1
 10
678.5991298356277
 20
549.9765779523746
  0
LWPOLYLINE
  5
C2
102
{ACAD_REACTORS
330
C1
102
}
330
2
100
AcDbEntity
  8
-DICHTUNG
100
AcDbPolyline
 90
        4
 70
     1
 43
0.0
 10
704.099129835628
 20
376.2387956218149
 10
653.0991298356278
 20
376.2387956218149
 10
653.0991298356278
 20
373.2387956218149
 10
704.099129835628
 20
373.2387956218149
  0
LINE
  5
C4
330
2
100
AcDbEntity
  8
-NORMTEIL_VERDECKT
100
AcDbLine
 10
689.0991298356273
 20
376.2387956218149
 30
0.0
 11
668.0991298356273
 21
376.2387956218149
 31
0.0
  0
LINE
  5
C5
330
2
100
AcDbEntity
  8
-NORMTEIL_VERDECKT
100
AcDbLine
 10
673.0991298356284
 20
369.2387956218158
 30
0.0
 11
670.0991298356284
 21
369.2387956218158
 31
0.0
  0
LWPOLYLINE
  5
C6
330
2
100
AcDbEntity
  8
-NORMTEIL_VERDECKT
100
AcDbPolyline
 90
        5
 70
     0
 43
0.0
 10
673.0991298356284
 20
365.2387956218158
 10
673.0991298356284
 20
369.2387956218158
 10
671.5991298356284
 20
370.2387956218158
 10
670.0991298356284
 20
369.2387956218158
 10
670.0991298356284
 20
365.2387956218158
  0
LINE
  5
C7
330
2
100
AcDbEntity
  8
-NORMTEIL_VERDECKT
100
AcDbLine
 10
683.5991298356284
 20
369.2387956218158
 30
0.0
 11
680.5991298356284
 21
369.2387956218158
 31
0.0
  0
LWPOLYLINE
  5
C8
330
2
100
AcDbEntity
  8
-NORMTEIL_VERDECKT
100
AcDbPolyline
 90
        5
 70
     0
 43
0.0
 10
683.5991298356284
 20
365.2387956218158
 10
683.5991298356284
 20
369.2387956218158
 10
682.0991298356284
 20
370.2387956218158
 10
680.5991298356284
 20
369.2387956218158
 10
680.5991298356284
 20
365.2387956218149
  0
LWPOLYLINE
  5
C9
330
2
100
AcDbEntity
  8
-PROFILAUSSENKANTET
100
AcDbPolyline
 90
       11
 70
     0
 43
0.0
 10
704.599129835628
 20
373.2387956218147
 10
652.5991298356278
 20
373.2387956218149
 10
652.5991298356278
 20
369.4330497985822
 42
0.375901963977188
 10
654.3348023954458
 20
367.4505939972168
 10
667.7007264170169
 20
365.2826561184017
 42
0.033150018187446
 10
668.361545017472
 20
365.2387956218149
 10
687.6158674899272
 20
365.2387956218149
 42
0.0413106451481675
 10
688.4378624264538
 20
365.3068260026541
 10
702.9279278102385
 20
367.4602619509164
 42
0.3666293647015965
 10
704.599129835628
 20
369.4330497985806
 10
704.599129835628
 20
373.2387956218147
  0
LINE
  5
CA
330
2
100
AcDbEntity
  8
-NORMTEIL_VERDECKT
100
AcDbLine
 10
665.5991298356277
 20
393.7387956218156
 30
0.0
 11
665.5991298356277
 21
376.2387956218149
 31
0.0
  0
LINE
  5
CB
330
2
100
AcDbEntity
  8
-NORMTEIL_VERDECKT
100
AcDbLine
 10
667.5991298356278
 20
393.7387956218156
 30
0.0
 11
667.5991298356278
 21
376.2387956218149
 31
0.0
  0
DIMENSION
  5
CC
330
2
100
AcDbEntity
  8
-TEXT3
100
AcDbDimension
  2
*D3
 10
746.4145229569178
 20
373.2387956218147
 30
0.0
 11
742.8616580183093
 21
369.2387956218149
 31
0.0
 71
     5
 42
7.999999999999772
  3
1-1
100
AcDbAlignedDimension
 13
683.5991298356284
 23
365.2387956218149
 33
0.0
 14
717.6188604448657
 24
373.2387956218147
 34
0.0
 50
270.0
100
AcDbRotatedDimension
  0
DIMENSION
  5
D9
330
2
100
AcDbEntity
  8
-TEXT3
100
AcDbDimension
  2
*D2
 10
746.4145229569179
 20
373.2387956218147
 30
0.0
 11
746.4145229569178
 21
374.7387956218148
 31
0.0
 70
   128
 71
     5
 42
3.0
  3
1-1
100
AcDbAlignedDimension
 13
741.3231979328123
 23
376.2387956218146
 33
0.0
 14
704.599129835628
 24
373.2387956218147
 34
0.0
 50
270.0
100
AcDbRotatedDimension
  0
LINE
  5
E7
330
2
100
AcDbEntity
  8
-NORMTEIL_VERDECKT
100
AcDbLine
 10
682.599129835628
 20
385.5617956218147
 30
0.0
 11
674.599129835628
 21
385.5617956218147
 31
0.0
  0
LINE
  5
E8
330
2
100
AcDbEntity
  8
-NORMTEIL_VERDECKT
100
AcDbLine
 10
681.9221298356278
 20
386.2387956218146
 30
0.0
 11
681.9221298356274
 21
373.2387956218144
 31
0.0
  0
LINE
  5
E9
330
2
100
AcDbEntity
  8
-NORMTEIL_VERDECKT
100
AcDbLine
 10
691.5991298356277
 20
393.7387956218154
 30
0.0
 11
691.5991298356277
 21
376.2387956218149
 31
0.0
  0
LINE
  5
EA
330
2
100
AcDbEntity
  8
-NORMTEIL_VERDECKT
100
AcDbLine
 10
689.5991298356277
 20
393.7387956218154
 30
0.0
 11
689.5991298356277
 21
376.2387956218149
 31
0.0
  0
LWPOLYLINE
  5
EB
330
2
100
AcDbEntity
  8
-NORMTEIL_VERDECKT
100
AcDbPolyline
 90
        6
 70
     0
 43
0.0
 10
682.5991298356275
 20
373.2387956218145
 10
682.599129835628
 20
385.5617956218147
 10
681.9221298356278
 20
386.2387956218146
 10
675.2761298356277
 20
386.2387956218147
 10
674.599129835628
 20
385.5617956218147
 10
674.5991298356275
 20
373.2387956218147
  0
LINE
  5
EC
330
2
100
AcDbEntity
  8
-NORMTEIL_VERDECKT
100
AcDbLine
 10
675.2761298356277
 20
386.2387956218146
 30
0.0
 11
675.2761298356272
 21
373.2387956218147
 31
0.0
  0
LWPOLYLINE
  5
ED
330
2
100
AcDbEntity
  8
-NORMTEIL_VERDECKT
100
AcDbPolyline
 90
        4
 70
     0
 43
0.0
 10
687.5991298356277
 20
396.7387956218155
 10
687.5991298356277
 20
378.2387956218146
 10
669.5991298356277
 20
378.2387956218146
 10
669.5991298356277
 20
396.7387956218157
  0
LWPOLYLINE
  5
EE
102
{ACAD_REACTORS
330
EF
102
}
330
2
100
AcDbEntity
  8
-DICHTUNG
100
AcDbPolyline
 90
        4
 70
     1
 43
0.0
 10
704.099129835628
 20
396.7387956218156
 10
653.099129835628
 20
396.7387956218157
 10
653.099129835628
 20
393.7387956218157
 10
704.099129835628
 20
393.7387956218156
  0
HATCH
  5
EF
330
2
100
AcDbEntity
  8
-SCHRAFFUR
100
AcDbHatch
 10
0.0
 20
0.0
 30
0.0
210
0.0
220
0.0
230
1.0
  2
SOLID
 70
     1
 71
     1
 91
        1
 92
        1
 93
        4
 72
     1
 10
704.099129835628
 20
396.7387956218156
 11
653.099129835628
 21
396.7387956218157
 72
     1
 10
653.099129835628
 20
396.7387956218157
 11
653.099129835628
 21
393.7387956218157
 72
     1
 10
653.099129835628
 20
393.7387956218157
 11
704.099129835628
 21
393.7387956218156
 72
     1
 10
704.099129835628
 20
393.7387956218156
 11
704.099129835628
 21
396.7387956218156
 97
        1
330
EE
 75
     0
 76
     1
 98
        1
 10
678.5991298356277
 20
570.4765779523754
  0
CIRCLE
  5
F0
330
2
100
AcDbEntity
  8
-SCHRAFFUR
100
AcDbCircle
 10
678.5991298356279
 20
598.2097539337162
 30
0.0
 40
10.0
  0
CIRCLE
  5
F1
330
2
100
AcDbEntity
  8
-SCHRAFFUR
100
AcDbCircle
 10
678.5991298356279
 20
598.2097539337162
 30
0.0
 40
24.32879797461067
  0
CIRCLE
  5
F2
330
2
100
AcDbEntity
  8
-SCHRAFFUR
100
AcDbCircle
 10
508.5991298356282
 20
598.2097539337162
 30
0.0
 40
24.32879797461067
  0
CIRCLE
  5
F3
330
2
100
AcDbEntity
  8
-SCHRAFFUR
100
AcDbCircle
 10
508.5991298356282
 20
598.2097539337162
 30
0.0
 40
10.0
  0
HATCH
  5
F4
330
2
100
AcDbEntity
  8
-SCHRAFFUR
100
AcDbHatch
 10
0.0
 20
0.0
 30
0.0
210
0.0
220
0.0
230
1.0
  2
SOLID
 70
     1
 71
     1
 91
        1
 92
        1
 93
        4
 72
     1
 10
483.0991298356281
 20
396.7387956218156
 11
534.099129835628
 21
396.7387956218157
 72
     1
 10
534.099129835628
 20
396.7387956218157
 11
534.099129835628
 21
393.7387956218157
 72
     1
 10
534.099129835628
 20
393.7387956218157
 11
483.0991298356281
 21
393.7387956218156
 72
     1
 10
483.0991298356281
 20
393.7387956218156
 11
483.0991298356281
 21
396.7387956218156
 97
        1
330
F5
 75
     0
 76
     1
 98
        1
 10
508.5991298356283
 20
570.4765779523754
  0
LWPOLYLINE
  5
F5
102
{ACAD_REACTORS
330
F4
102
}
330
2
100
AcDbEntity
  8
-DICHTUNG
100
AcDbPolyline
 90
        4
 70
     1
 43
0.0
 10
483.0991298356281
 20
396.7387956218156
 10
534.099129835628
 20
396.7387956218157
 10
534.099129835628
 20
393.7387956218157
 10
483.0991298356281
 20
393.7387956218156
  0
LWPOLYLINE
  5
F6
330
2
100
AcDbEntity
  8
-NORMTEIL_VERDECKT
100
AcDbPolyline
 90
        4
 70
     0
 43
0.0
 10
499.5991298356283
 20
396.7387956218155
 10
499.5991298356283
 20
378.2387956218146
 10
517.5991298356283
 20
378.2387956218146
 10
517.5991298356283
 20
396.7387956218157
  0
LINE
  5
F7
330
2
100
AcDbEntity
  8
-NORMTEIL_VERDECKT
100
AcDbLine
 10
511.9221298356284
 20
386.2387956218146
 30
0.0
 11
511.9221298356288
 21
373.2387956218147
 31
0.0
  0
LWPOLYLINE
  5
F8
330
2
100
AcDbEntity
  8
-NORMTEIL_VERDECKT
100
AcDbPolyline
 90
        6
 70
     0
 43
0.0
 10
504.5991298356285
 20
373.2387956218145
 10
504.599129835628
 20
385.5617956218147
 10
505.2761298356282
 20
386.2387956218146
 10
511.9221298356284
 20
386.2387956218147
 10
512.599129835628
 20
385.5617956218147
 10
512.5991298356285
 20
373.2387956218147
  0
LINE
  5
F9
330
2
100
AcDbEntity
  8
-NORMTEIL_VERDECKT
100
AcDbLine
 10
497.5991298356283
 20
393.7387956218154
 30
0.0
 11
497.5991298356283
 21
376.2387956218149
 31
0.0
  0
LINE
  5
FA
330
2
100
AcDbEntity
  8
-NORMTEIL_VERDECKT
100
AcDbLine
 10
495.5991298356283
 20
393.7387956218154
 30
0.0
 11
495.5991298356283
 21
376.2387956218149
 31
0.0
  0
LINE
  5
FB
330
2
100
AcDbEntity
  8
-NORMTEIL_VERDECKT
100
AcDbLine
 10
505.2761298356282
 20
386.2387956218146
 30
0.0
 11
505.2761298356286
 21
373.2387956218144
 31
0.0
  0
LINE
  5
FC
330
2
100
AcDbEntity
  8
-NORMTEIL_VERDECKT
100
AcDbLine
 10
504.599129835628
 20
385.5617956218147
 30
0.0
 11
512.599129835628
 21
385.5617956218147
 31
0.0
  0
DIMENSION
  5
FD
330
2
100
AcDbEntity
  8
-TEXT3
100
AcDbDimension
  2
*D18
 10
440.7837367143383
 20
373.2387956218147
 30
0.0
 11
440.7837367143383
 21
374.7387956218148
 31
0.0
 70
   128
 71
     5
 42
3.0
  3
1-1
100
AcDbAlignedDimension
 13
445.8750617384438
 23
376.2387956218146
 33
0.0
 14
482.5991298356281
 24
373.2387956218147
 34
0.0
 50
270.0
100
AcDbRotatedDimension
  0
DIMENSION
  5
10B
330
2
100
AcDbEntity
  8
-TEXT3
100
AcDbDimension
  2
*D17
 10
440.7837367143383
 20
373.2387956218147
 30
0.0
 11
437.2308717757297
 21
369.2387956218149
 31
0.0
 71
     5
 42
7.999999999999772
  3
1-1
100
AcDbAlignedDimension
 13
503.5991298356276
 23
365.2387956218149
 33
0.0
 14
469.5793992263904
 24
373.2387956218147
 34
0.0
 50
270.0
100
AcDbRotatedDimension
  0
LINE
  5
118
330
2
100
AcDbEntity
  8
-NORMTEIL_VERDECKT
100
AcDbLine
 10
519.5991298356283
 20
393.7387956218156
 30
0.0
 11
519.5991298356283
 21
376.2387956218149
 31
0.0
  0
LINE
  5
119
330
2
100
AcDbEntity
  8
-NORMTEIL_VERDECKT
100
AcDbLine
 10
521.5991298356283
 20
393.7387956218156
 30
0.0
 11
521.5991298356283
 21
376.2387956218149
 31
0.0
  0
LWPOLYLINE
  5
11A
330
2
100
AcDbEntity
  8
-PROFILAUSSENKANTET
100
AcDbPolyline
 90
       11
 70
     0
 43
0.0
 10
482.5991298356281
 20
373.2387956218147
 10
534.5991298356282
 20
373.2387956218149
 10
534.5991298356282
 20
369.4330497985822
 42
-0.375901963977188
 10
532.8634572758102
 20
367.4505939972168
 10
519.4975332542391
 20
365.2826561184017
 42
-0.033150018187446
 10
518.836714653784
 20
365.2387956218149
 10
499.5823921813288
 20
365.2387956218149
 42
-0.0413106451481675
 10
498.7603972448022
 20
365.3068260026541
 10
484.2703318610175
 20
367.4602619509164
 42
-0.3666293647015965
 10
482.5991298356281
 20
369.4330497985806
 10
482.5991298356281
 20
373.2387956218147
  0
LWPOLYLINE
  5
11B
330
2
100
AcDbEntity
  8
-NORMTEIL_VERDECKT
100
AcDbPolyline
 90
        5
 70
     0
 43
0.0
 10
503.5991298356276
 20
365.2387956218158
 10
503.5991298356276
 20
369.2387956218158
 10
505.0991298356276
 20
370.2387956218158
 10
506.5991298356276
 20
369.2387956218158
 10
506.5991298356276
 20
365.2387956218149
  0
LINE
  5
11C
330
2
100
AcDbEntity
  8
-NORMTEIL_VERDECKT
100
AcDbLine
 10
503.5991298356276
 20
369.2387956218158
 30
0.0
 11
506.5991298356276
 21
369.2387956218158
 31
0.0
  0
LWPOLYLINE
  5
11D
330
2
100
AcDbEntity
  8
-NORMTEIL_VERDECKT
100
AcDbPolyline
 90
        5
 70
     0
 43
0.0
 10
514.0991298356276
 20
365.2387956218158
 10
514.0991298356276
 20
369.2387956218158
 10
515.5991298356276
 20
370.2387956218158
 10
517.0991298356276
 20
369.2387956218158
 10
517.0991298356276
 20
365.2387956218158
  0
LINE
  5
11E
330
2
100
AcDbEntity
  8
-NORMTEIL_VERDECKT
100
AcDbLine
 10
514.0991298356276
 20
369.2387956218158
 30
0.0
 11
517.0991298356276
 21
369.2387956218158
 31
0.0
  0
LINE
  5
11F
330
2
100
AcDbEntity
  8
-NORMTEIL_VERDECKT
100
AcDbLine
 10
498.0991298356287
 20
376.2387956218149
 30
0.0
 11
519.0991298356287
 21
376.2387956218149
 31
0.0
  0
LWPOLYLINE
  5
120
102
{ACAD_REACTORS
330
121
102
}
330
2
100
AcDbEntity
  8
-DICHTUNG
100
AcDbPolyline
 90
        4
 70
     1
 43
0.0
 10
483.0991298356281
 20
376.2387956218149
 10
534.0991298356282
 20
376.2387956218149
 10
534.0991298356282
 20
373.2387956218149
 10
483.0991298356281
 20
373.2387956218149
  0
HATCH
  5
121
330
2
100
AcDbEntity
  8
-SCHRAFFUR
100
AcDbHatch
 10
0.0
 20
0.0
 30
0.0
210
0.0
220
0.0
230
1.0
  2
SOLID
 70
     1
 71
     1
 91
        1
 92
        1
 93
        4
 72
     1
 10
483.0991298356281
 20
376.2387956218149
 11
534.0991298356282
 21
376.2387956218149
 72
     1
 10
534.0991298356282
 20
376.2387956218149
 11
534.0991298356282
 21
373.2387956218149
 72
     1
 10
534.0991298356282
 20
373.2387956218149
 11
483.0991298356281
 21
373.2387956218149
 72
     1
 10
483.0991298356281
 20
373.2387956218149
 11
483.0991298356281
 21
376.2387956218149
 97
        1
330
120
 75
     0
 76
     1
 98
        1
 10
508.5991298356283
 20
549.9765779523746
  0
LWPOLYLINE
  5
122
330
2
100
AcDbEntity
  8
-TRENNEN
100
AcDbPolyline
 90
        4
 70
     0
 43
0.0
 10
593.5991298356281
 20
529.8359209775838
 10
454.0166534537558
 20
529.8359209775838
 10
454.0166534537558
 20
684.2117856675363
 10
593.5991298356281
 20
684.2117856675363
  0
LINE
  5
123
330
2
100
AcDbEntity
  8
-NORMTEIL_VERDECKT
100
AcDbLine
 10
593.5991298356279
 20
588.2097539337162
 30
0.0
 11
532.5991298356282
 21
588.2097539337163
 31
0.0
  0
LINE
  5
124
330
2
100
AcDbEntity
  8
-NORMTEIL_VERDECKT
100
AcDbLine
 10
593.5991298356279
 20
608.2097539337162
 30
0.0
 11
532.5991298356282
 21
608.2097539337162
 31
0.0
  0
LINE
  5
125
330
2
100
AcDbEntity
  8
-NORMTEIL_VERDECKT
100
AcDbLine
 10
476.0991298356278
 20
588.2097539337165
 30
0.0
 11
484.5991298356282
 21
588.2097539337162
 31
0.0
  0
LINE
  5
126
330
2
100
AcDbEntity
  8
-NORMTEIL_VERDECKT
100
AcDbLine
 10
476.0991298356279
 20
608.2097539337163
 30
0.0
 11
476.0991298356278
 21
588.2097539337165
 31
0.0
  0
LINE
  5
127
330
2
100
AcDbEntity
  8
-NORMTEIL_VERDECKT
100
AcDbLine
 10
484.5991298356282
 20
608.2097539337163
 30
0.0
 11
476.0991298356279
 21
608.2097539337163
 31
0.0
  0
LINE
  5
128
330
2
100
AcDbEntity
  8
-SYSTEM
100
AcDbLine
 10
593.5991298356281
 20
598.2097539337156
 30
0.0
 11
534.1917061598713
 21
598.2097539337172
 31
0.0
  0
CIRCLE
  5
129
330
2
100
AcDbEntity
  8
-PROFILAUSSENKANTET
100
AcDbCircle
 10
512.0991298356283
 20
604.2719317602072
 30
0.0
 40
1.75
  0
CIRCLE
  5
12A
330
2
100
AcDbEntity
  8
-PROFILAUSSENKANTET
100
AcDbCircle
 10
512.0991298356281
 20
592.1475761072251
 30
0.0
 40
1.75
  0
LINE
  5
12B
330
2
100
AcDbEntity
  8
-SYSTEM
100
AcDbLine
 10
508.5991298356284
 20
628.2063173434177
 30
0.0
 11
508.599129835628
 21
568.2131905240148
 31
0.0
  0
CIRCLE
  5
12C
330
2
100
AcDbEntity
  8
-PROFILAUSSENKANTET
100
AcDbCircle
 10
508.5991298356282
 20
598.2097539337162
 30
0.0
 40
26.0
  0
CIRCLE
  5
12D
330
2
100
AcDbEntity
  8
-PROFILAUSSENKANTET
100
AcDbCircle
 10
501.5991298356282
 20
598.2097539337162
 30
0.0
 40
1.75
  0
LINE
  5
12E
330
2
100
AcDbEntity
  8
-SYSTEM
100
AcDbLine
 10
478.6025664259268
 20
598.2097539337163
 30
0.0
 11
538.5956932453296
 21
598.2097539337161
 31
0.0
  0
LINE
  5
12F
330
2
100
AcDbEntity
  8
-VERGLASUNG
100
AcDbLine
 10
454.1365775763003
 20
380.1326707242848
 30
0.0
 11
458.0304524666372
 21
376.238795833948
 31
0.0
  0
LINE
  5
130
330
2
100
AcDbEntity
  8
-VERGLASUNG
100
AcDbLine
 10
460.5787133841001
 20
380.1326707242848
 30
0.0
 11
464.4725882744372
 21
376.238795833948
 31
0.0
  0
LINE
  5
131
330
2
100
AcDbEntity
  8
-VERGLASUNG
100
AcDbLine
 10
452.5740775763003
 20
380.1326707242846
 30
0.0
 11
456.4679524666372
 21
376.238795833948
 31
0.0
  0
LINE
  5
132
330
2
100
AcDbEntity
  8
-VERGLASUNG
100
AcDbLine
 10
455.7916630122914
 20
393.7387959046594
 30
0.0
 11
459.6855379026279
 21
389.8449210143224
 31
0.0
  0
LINE
  5
133
330
2
100
AcDbEntity
  8
-VERGLASUNG
100
AcDbLine
 10
457.3541630122914
 20
393.7387959046594
 30
0.0
 11
461.2480379026279
 21
389.8449210143227
 31
0.0
  0
LINE
  5
134
330
2
100
AcDbEntity
  8
-VERGLASUNG
100
AcDbLine
 10
454.2291630122914
 20
393.7387959046594
 30
0.0
 11
458.1230379026279
 21
389.8449210143224
 31
0.0
  0
DIMENSION
  5
135
330
2
100
AcDbEntity
  8
-TEXT3
100
AcDbDimension
  2
*D16
 10
440.996922844518
 20
376.238795621815
 30
0.0
 11
437.4116568145043
 21
384.9887956218154
 31
0.0
  1
G
 71
     5
 42
17.50000000000068
  3
1-1
100
AcDbAlignedDimension
 13
454.0166534537558
 23
393.7387956218157
 33
0.0
 14
454.0166534537558
 24
376.238795621815
 34
0.0
 50
270.0
100
AcDbRotatedDimension
  0
DIMENSION
  5
142
330
2
100
AcDbEntity
  8
-TEXT2
100
AcDbDimension
  2
*D15
 10
440.9969228445182
 20
396.7587956218149
 30
0.0
 11
440.996922844518
 21
395.2487956218154
 31
0.0
 70
   128
 71
     5
 42
3.019999999999299
  3
1-1
100
AcDbAlignedDimension
 13
454.0166534537558
 23
393.7387956218157
 33
0.0
 14
454.0166534537558
 24
396.7587956218149
 34
0.0
 50
90.0
100
AcDbRotatedDimension
  0
LINE
  5
150
330
2
100
AcDbEntity
  8
-VERGLASUNG
100
AcDbLine
 10
476.0115776050605
 20
380.1326706535738
 30
0.0
 11
479.9054524953972
 21
376.2387957632371
 31
0.0
  0
LINE
  5
151
330
2
100
AcDbEntity
  8
-VERGLASUNG
100
AcDbLine
 10
482.3541630410512
 20
393.7387958339485
 30
0.0
 11
486.248037931388
 21
389.8449209436117
 31
0.0
  0
LINE
  5
152
330
2
100
AcDbEntity
  8
-VERGLASUNG
100
AcDbLine
 10
479.1365776050605
 20
380.1326706535738
 30
0.0
 11
483.0304524953972
 21
376.2387957632371
 31
0.0
  0
LINE
  5
153
330
2
100
AcDbEntity
  8
-VERGLASUNG
100
AcDbLine
 10
477.5740776050605
 20
380.1326706535736
 30
0.0
 11
481.4679524953972
 21
376.2387957632371
 31
0.0
  0
LINE
  5
154
330
2
100
AcDbEntity
  8
-VERGLASUNG
100
AcDbLine
 10
480.7916630410512
 20
393.7387958339485
 30
0.0
 11
484.685537931388
 21
389.8449209436115
 31
0.0
  0
LINE
  5
155
330
2
100
AcDbEntity
  8
-VERGLASUNG
100
AcDbLine
 10
479.2291630410512
 20
393.7387958339485
 30
0.0
 11
483.123037931388
 21
389.8449209436115
 31
0.0
  0
LWPOLYLINE
  5
156
330
2
100
AcDbEntity
  8
-PROFILAUSSENKANTET
100
AcDbPolyline
 90
        4
 70
     0
 43
0.0
 10
496.099129835628
 20
426.7387956218155
 10
476.099129835628
 20
426.7387956218154
 10
476.099129835628
 20
406.7387956218155
 10
496.0978377167811
 20
406.7387956218155
  0
LINE
  5
157
330
2
100
AcDbEntity
  8
-VERGLASUNG
100
AcDbLine
 10
529.1365776625806
 20
380.1326705121519
 30
0.0
 11
533.0304525529173
 21
376.2387956218152
 31
0.0
  0
LINE
  5
158
330
2
100
AcDbEntity
  8
-VERGLASUNG
100
AcDbLine
 10
526.0115776625806
 20
380.1326705121519
 30
0.0
 11
529.9054525529173
 21
376.2387956218152
 31
0.0
  0
LINE
  5
159
330
2
100
AcDbEntity
  8
-VERGLASUNG
100
AcDbLine
 10
527.5740776625806
 20
380.1326705121517
 30
0.0
 11
531.4679525529173
 21
376.2387956218152
 31
0.0
  0
LINE
  5
15A
330
2
100
AcDbEntity
  8
-VERGLASUNG
100
AcDbLine
 10
529.2291630985713
 20
393.7387956925266
 30
0.0
 11
533.123037988908
 21
389.8449208021896
 31
0.0
  0
LINE
  5
15B
330
2
100
AcDbEntity
  8
-VERGLASUNG
100
AcDbLine
 10
532.3541630985713
 20
393.7387956925266
 30
0.0
 11
536.248037988908
 21
389.8449208021899
 31
0.0
  0
LINE
  5
15C
330
2
100
AcDbEntity
  8
-VERGLASUNG
100
AcDbLine
 10
530.7916630985713
 20
393.7387956925266
 30
0.0
 11
534.685537988908
 21
389.8449208021896
 31
0.0
  0
LINE
  5
15D
330
2
100
AcDbEntity
  8
-SYSTEM
100
AcDbLine
 10
508.599129835628
 20
370.8485237180473
 30
0.0
 11
508.599129835628
 21
454.1662192975743
 31
0.0
  0
INSERT
  5
15E
330
2
100
AcDbEntity
  8
-TEXT3
100
AcDbBlockReference
  2
1587-M12
 10
508.599129835628
 20
429.7387956218156
 30
0.0
 50
180.0
  0
LWPOLYLINE
  5
15F
330
2
100
AcDbEntity
  8
-PROFILAUSSENKANTET
100
AcDbPolyline
 90
       13
 70
     1
 43
0.0
 10
534.6191298356276
 20
396.7387956218157
 10
534.6191298356274
 20
400.0427822848608
 42
0.3137493583978639
 10
533.9664441914509
 20
400.9805310455847
 10
523.0571867681574
 20
404.0135893505085
 42
-0.3057076911406833
 10
521.1004219544755
 20
406.7387956218154
 42
0.2667424445669822
 10
512.399129835628
 20
411.7387956218157
 10
504.7991298356286
 20
411.7387956218157
 42
0.266742444566985
 10
496.0978377167811
 20
406.7387956218154
 42
-0.3057076911407296
 10
494.1410729030991
 20
404.0135893505083
 10
483.271815479804
 20
400.9805310455845
 42
0.3137493583978905
 10
482.6191298356276
 20
400.0427822848608
 10
482.6191298356276
 20
396.7387956218157
 10
517.6191298356276
 20
396.7387956218157
  0
LINE
  5
160
330
2
100
AcDbEntity
  8
-SCHRAFFUR
100
AcDbLine
 10
533.9664441914509
 20
400.9805310455847
 30
0.0
 11
483.271815479804
 21
400.9805310455845
 31
0.0
  0
LINE
  5
161
330
2
100
AcDbEntity
  8
-SCHRAFFUR
100
AcDbLine
 10
534.6191298356274
 20
400.0427822848608
 30
0.0
 11
482.6191298356276
 21
400.0427822848608
 31
0.0
  0
LINE
  5
162
330
2
100
AcDbEntity
  8
-SCHRAFFUR
100
AcDbLine
 10
497.6212174221578
 20
424.7387956218155
 30
0.0
 11
519.5770422490983
 21
424.7387956218156
 31
0.0
  0
LWPOLYLINE
  5
163
330
2
100
AcDbEntity
  8
-PROFILAUSSENKANTET
100
AcDbPolyline
 90
        6
 70
     1
 43
0.0
 10
512.4991298356282
 20
421.7387956218158
 42
0.2656816979737874
 10
521.099129835628
 20
426.7387956218156
 10
521.099129835628
 20
429.7387956218155
 10
496.099129835628
 20
429.7387956218155
 10
496.099129835628
 20
426.7387956218156
 42
0.2656816979737873
 10
504.699129835628
 20
421.7387956218158
  0
LINE
  5
164
330
2
100
AcDbEntity
  8
-SCHRAFFUR
100
AcDbLine
 10
523.057186768157
 20
404.0135893505085
 30
0.0
 11
494.1410729030991
 21
404.0135893505083
 31
0.0
  0
LINE
  5
165
330
2
100
AcDbEntity
  8
-SCHRAFFUR
100
AcDbLine
 10
519.5698566766699
 20
408.7387956218158
 30
0.0
 11
497.6284029945853
 21
408.7387956218144
 31
0.0
  0
LINE
  5
166
330
2
100
AcDbEntity
  8
-SCHRAFFUR
100
AcDbLine
 10
521.0484860985803
 20
406.8268356326798
 30
0.0
 11
496.149773572676
 21
406.8268356326793
 31
0.0
  0
DIMENSION
  5
167
330
2
100
AcDbEntity
  8
-SCHRAFFUR
100
AcDbDimension
  2
*D14
 10
482.5991298356281
 20
348.4120851096771
 30
0.0
 11
508.5991298356281
 21
352.1047863375079
 31
0.0
  1
%%c<>
 71
     5
 42
52.00000000000011
  3
1-1
100
AcDbAlignedDimension
 13
534.5991298356282
 23
369.4330497985822
 33
0.0
 14
482.5991298356281
 24
369.4330497985806
 34
0.0
 50
0.000000000000007
100
AcDbRotatedDimension
  0
DIMENSION
  5
174
330
2
100
AcDbEntity
  8
-TEXT3
100
AcDbDimension
  2
*D13
 10
440.996922844518
 20
426.7387956218154
 30
0.0
 11
437.3042216166871
 21
416.7387956218155
 31
0.0
  1
%%c<>
 71
     5
 42
19.99999999999994
  3
1-1
100
AcDbAlignedDimension
 13
476.099129835628
 23
406.7387956218155
 33
0.0
 14
476.099129835628
 24
426.7387956218154
 34
0.0
 50
270.0
100
AcDbRotatedDimension
  0
DIMENSION
  5
181
330
2
100
AcDbEntity
  8
-TEXT3
100
AcDbDimension
  2
*D12
 10
440.996922844518
 20
396.7387956218157
 30
0.0
 11
437.4440579059094
 21
401.7387956218157
 31
0.0
 71
     5
 42
9.999999999999886
  3
1-1
100
AcDbAlignedDimension
 13
476.099129835628
 23
406.7387956218155
 33
0.0
 14
482.6191298356276
 24
396.7387956218157
 34
0.0
 50
270.0
100
AcDbRotatedDimension
  0
DIMENSION
  5
18E
330
2
100
AcDbEntity
  8
-TEXT2
100
AcDbDimension
  2
*D11
 10
508.599129835628
 20
464.1662192975743
 30
0.0
 11
492.3491298356281
 21
467.720789556783
 31
0.0
 71
     5
 42
32.5
  3
1-1
100
AcDbAlignedDimension
 13
476.099129835628
 23
426.7387956218154
 33
0.0
 14
508.599129835628
 24
454.1662192975743
 34
0.0
 50
180.0
100
AcDbRotatedDimension
  0
LINE
  5
19B
330
2
100
AcDbEntity
  8
-VERGLASUNG
100
AcDbLine
 10
552.5740776913407
 20
380.132670441441
 30
0.0
 11
556.4679525109666
 21
376.238795621815
 31
0.0
  0
LINE
  5
19C
330
2
100
AcDbEntity
  8
-VERGLASUNG
100
AcDbLine
 10
551.0115776913407
 20
380.132670441441
 30
0.0
 11
554.9054525109666
 21
376.238795621815
 31
0.0
  0
LINE
  5
19D
330
2
100
AcDbEntity
  8
-VERGLASUNG
100
AcDbLine
 10
557.3541631273314
 20
393.7387956218157
 30
0.0
 11
561.2480379469574
 21
389.8449208021896
 31
0.0
  0
LINE
  5
19E
330
2
100
AcDbEntity
  8
-VERGLASUNG
100
AcDbLine
 10
554.1365776913407
 20
380.132670441441
 30
0.0
 11
558.0304525109666
 21
376.238795621815
 31
0.0
  0
LINE
  5
19F
330
2
100
AcDbEntity
  8
-VERGLASUNG
100
AcDbLine
 10
555.7916631273314
 20
393.7387956218157
 30
0.0
 11
559.6855379469574
 21
389.8449208021896
 31
0.0
  0
LINE
  5
1A0
330
2
100
AcDbEntity
  8
-VERGLASUNG
100
AcDbLine
 10
554.2291631273314
 20
393.7387956218157
 30
0.0
 11
558.1230379469574
 21
389.8449208021896
 31
0.0
  0
LINE
  5
1A1
330
2
100
AcDbEntity
  8
-VERGLASUNG
100
AcDbLine
 10
576.01157764939
 20
380.132670441441
 30
0.0
 11
579.905452469016
 21
376.238795621815
 31
0.0
  0
LINE
  5
1A2
330
2
100
AcDbEntity
  8
-VERGLASUNG
100
AcDbLine
 10
579.13657764939
 20
380.132670441441
 30
0.0
 11
583.030452469016
 21
376.238795621815
 31
0.0
  0
LINE
  5
1A3
330
2
100
AcDbEntity
  8
-VERGLASUNG
100
AcDbLine
 10
577.57407764939
 20
380.132670441441
 30
0.0
 11
581.467952469016
 21
376.238795621815
 31
0.0
  0
LINE
  5
1A4
330
2
100
AcDbEntity
  8
-VERGLASUNG
100
AcDbLine
 10
582.3541630853807
 20
393.7387956218157
 30
0.0
 11
586.2480379050067
 21
389.8449208021896
 31
0.0
  0
LINE
  5
1A5
330
2
100
AcDbEntity
  8
-VERGLASUNG
100
AcDbLine
 10
579.2291630853807
 20
393.7387956218157
 30
0.0
 11
583.1230379050067
 21
389.8449208021896
 31
0.0
  0
LINE
  5
1A6
330
2
100
AcDbEntity
  8
-VERGLASUNG
100
AcDbLine
 10
580.7916630853807
 20
393.7387956218157
 30
0.0
 11
584.6855379050067
 21
389.8449208021896
 31
0.0
  0
LWPOLYLINE
  5
1A7
330
2
100
AcDbEntity
  8
-VERGLASUNG
100
AcDbPolyline
 90
        6
 70
     0
 43
0.0
 10
454.0166534537558
 20
376.238795621815
 10
587.599129835628
 20
376.2387956218145
 10
588.599129835628
 20
377.2387956218145
 10
588.599129835628
 20
392.738795621815
 10
587.599129835628
 20
393.738795621815
 10
454.0166534537558
 20
393.7387956218157
  0
DIMENSION
  5
1A8
330
2
100
AcDbEntity
  8
-TEXT2
100
AcDbDimension
  2
*D10
 10
508.599129835628
 20
464.1662192975743
 30
0.0
 11
548.5991298356281
 21
467.7190842361828
 31
0.0
 71
     5
 42
80.0
  3
1-1
100
AcDbAlignedDimension
 13
588.599129835628
 23
392.738795621815
 33
0.0
 14
508.599129835628
 24
454.1662192975743
 34
0.0
 50
180.0
100
AcDbRotatedDimension
  0
LWPOLYLINE
  5
1B5
330
2
100
AcDbEntity
  8
-PROFILAUSSENKANTET
100
AcDbPolyline
 90
        3
 70
     0
 43
0.0
 10
666.0991298356281
 20
426.7387956218155
 10
593.5991298356281
 20
426.7387956218159
 10
521.099129835628
 20
426.7387956218155
  0
LWPOLYLINE
  5
1B6
330
2
100
AcDbEntity
  8
-PROFILAUSSENKANTET
100
AcDbPolyline
 90
        3
 70
     0
 43
0.0
 10
666.0978377167804
 20
406.7387956218154
 10
593.5991298356279
 20
406.7387956218154
 10
521.1004219544756
 20
406.7387956218154
  0
DIMENSION
  5
1B7
330
2
100
AcDbEntity
  8
-SCHRAFFUR
100
AcDbDimension
  2
*D19
 10
476.099129835628
 20
485.1662192975743
 30
0.0
 11
593.5991298356279
 21
488.720789556783
 31
0.0
 71
     5
 42
234.9999999999999
  3
1-1
100
AcDbAlignedDimension
 13
711.099129835628
 23
465.1662192975743
 33
0.0
 14
476.099129835628
 24
465.1662192975743
 34
0.0
100
AcDbRotatedDimension
  0
DIMENSION
  5
1C4
330
2
100
AcDbEntity
  8
-SCHRAFFUR
100
AcDbDimension
  2
*D20
 10
598.599129835628
 20
464.1662192975743
 30
0.0
 11
607.2079292899253
 21
467.7190842361828
 31
0.0
  1
~<>
 71
     5
 42
9.999999999999886
  3
1-1
100
AcDbAlignedDimension
 13
588.599129835628
 23
392.738795621815
 33
0.0
 14
598.599129835628
 24
392.738795621815
 34
0.0
100
AcDbRotatedDimension
  0
ENDSEC
  0
SECTION
  2
OBJECTS
  0
DICTIONARY
  5
7
330
0
100
AcDbDictionary
281
     1
  3
ACAD_COLOR
350
1EC
  3
ACAD_GROUP
350
1E8
  3
ACAD_LAYOUT
350
1D4
  3
ACAD_MATERIAL
350
1EB
  3
ACAD_MLINESTYLE
350
1E9
  3
ACAD_PLOTSETTINGS
350
1EA
  3
ACAD_PLOTSTYLENAME
350
6
  3
ACDBHEADERROUNDTRIPXREC
350
1F2
  3
AcDbVariableDictionary
350
1EE
  0
DICTIONARY
  5
1DA
330
1D9
100
AcDbDictionary
280
     1
281
     1
  3
ACAD_LAYERSTATES
360
1DB
  0
DICTIONARY
  5
1EC
102
{ACAD_REACTORS
330
7
102
}
330
7
100
AcDbDictionary
281
     1
  0
DICTIONARY
  5
1E8
102
{ACAD_REACTORS
330
7
102
}
330
7
100
AcDbDictionary
281
     1
  0
DICTIONARY
  5
1D4
102
{ACAD_REACTORS
330
7
102
}
330
7
100
AcDbDictionary
281
     1
  3
Layout1
350
1D8
  3
Model
350
1D3
  0
DICTIONARY
  5
1EB
102
{ACAD_REACTORS
330
7
102
}
330
7
100
AcDbDictionary
281
     1
  0
DICTIONARY
  5
1E9
102
{ACAD_REACTORS
330
7
102
}
330
7
100
AcDbDictionary
281
     1
  3
STANDARD
350
1ED
  0
DICTIONARY
  5
1EA
102
{ACAD_REACTORS
330
7
102
}
330
7
100
AcDbDictionary
281
     1
  0
ACDBDICTIONARYWDFLT
  5
6
102
{ACAD_REACTORS
330
7
102
}
330
7
100
AcDbDictionary
281
     1
  3
Normal
350
5
100
AcDbDictionaryWithDefault
340
5
  0
DICTIONARY
  5
1F2
102
{ACAD_REACTORS
330
7
102
}
330
7
100
AcDbDictionary
281
     1
  3
COLORDICT
350
1F4
  3
MATERIALDICT
350
1F3
  0
DICTIONARY
  5
1EE
102
{ACAD_REACTORS
330
7
102
}
330
7
100
AcDbDictionary
281
     1
  3
DIMASSOC
350
1F0
  3
HIDETEXT
350
1EF
  3
PROJECTNAME
350
1F1
  0
DICTIONARY
  5
1DB
102
{ACAD_REACTORS
330
1DA
102
}
330
1DA
100
AcDbDictionary
281
     1
  0
LAYOUT
  5
1D8
102
{ACAD_XDICTIONARY
360
1F8
102
}
102
{ACAD_REACTORS
330
1D4
102
}
330
1D4
100
AcDbPlotSettings
  1

  2
\\pc02\HP
  4

  6

 40
0.0
 41
0.0
 42
0.0
 43
0.0
 44
0.0
 45
0.0
 46
0.0
 47
0.0
 48
0.0
 49
0.0
140
0.0
141
0.0
142
1.0
143
1.0
 70
   688
 72
     0
 73
     0
 74
     5
  7
monochrome.ctb
 75
    16
147
1.0
148
0.0
149
0.0
100
AcDbLayout
  1
Layout1
 70
     1
 71
     1
 10
0.0
 20
0.0
 11
420.0
 21
297.0
 12
0.0
 22
0.0
 32
0.0
 14
0.0
 24
0.0
 34
0.0
 15
1189.0
 25
841.0
 35
0.0
146
0.0
 13
0.0
 23
0.0
 33
0.0
 16
1.0
 26
0.0
 36
0.0
 17
0.0
 27
1.0
 37
0.0
 76
     0
330
1D5
  0
LAYOUT
  5
1D3
102
{ACAD_XDICTIONARY
360
1F6
102
}
102
{ACAD_REACTORS
330
1D4
102
}
330
1D4
100
AcDbPlotSettings
  1

  2
HP DeskJet 1220C
  4
A4
  6

 40
4.180416584014892
 41
13.4937515258789
 42
4.180404663085937
 43
3.67242431640625
 44
209.9733276367187
 45
297.0106506347656
 46
0.0
 47
0.0
 48
481.1978817096998
 49
309.4654971710613
140
768.1978817096998
141
509.4654971710613
142
1.0
143
1.025569649759302
 70
 11952
 72
     1
 73
     3
 74
     4
  7
monochrome.ctb
 75
     0
147
0.9750678564197924
148
-481.1978817096998
149
-309.4654971710613
100
AcDbLayout
  1
Model
 70
     1
 71
     0
 10
0.0
 20
0.0
 11
12.0
 21
9.0
 12
0.0
 22
0.0
 32
0.0
 14
0.0
 24
0.0
 34
0.0
 15
0.0
 25
0.0
 35
0.0
146
0.0
 13
0.0
 23
0.0
 33
0.0
 16
1.0
 26
0.0
 36
0.0
 17
0.0
 27
1.0
 37
0.0
 76
     0
330
2
  0
MLINESTYLE
  5
1ED
102
{ACAD_REACTORS
330
1E9
102
}
330
1E9
100
AcDbMlineStyle
  2
STANDARD
 70
     0
  3

 62
     0
 51
90.0
 52
90.0
 71
     2
 49
0.5
 62
   256
  6
BYLAYER
 49
-0.5
 62
   256
  6
BYLAYER
  0
ACDBPLACEHOLDER
  5
5
102
{ACAD_REACTORS
330
6
102
}
330
6
  0
XRECORD
  5
1F4
102
{ACAD_REACTORS
330
1F2
102
}
330
1F2
100
AcDbXrecord
280
     1
340
1EC
  0
XRECORD
  5
1F3
102
{ACAD_REACTORS
330
1F2
102
}
330
1F2
100
AcDbXrecord
280
     1
340
1EB
  0
DICTIONARYVAR
  5
1F0
102
{ACAD_REACTORS
330
1EE
102
}
330
1EE
100
DictionaryVariables
280
     0
  1
1
  0
DICTIONARYVAR
  5
1EF
102
{ACAD_REACTORS
330
1EE
102
}
330
1EE
100
DictionaryVariables
280
     0
  1
1
  0
DICTIONARYVAR
  5
1F1
102
{ACAD_REACTORS
330
1EE
102
}
330
1EE
100
DictionaryVariables
280
     0
  1

  0
DICTIONARY
  5
1F8
330
1D8
100
AcDbDictionary
280
     1
281
     1
  3
ACAD_XREC_ROUNDTRIP
360
1F9
  0
DICTIONARY
  5
1F6
330
1D3
100
AcDbDictionary
280
     1
281
     1
  3
ACAD_XREC_ROUNDTRIP
360
1F7
  0
XRECORD
  5
1F9
102
{ACAD_REACTORS
330
1F8
102
}
330
1F8
100
AcDbXrecord
280
     1
102
SHADEPLOT
 70
     0
102
SHADEPLOTRESLEVEL
 70
     2
102
SHADEPLOTCUSTOMDPI
 70
   300
  0
XRECORD
  5
1F7
102
{ACAD_REACTORS
330
1F6
102
}
330
1F6
100
AcDbXrecord
280
     1
102
SHADEPLOT
 70
     0
102
SHADEPLOTRESLEVEL
 70
     2
102
SHADEPLOTCUSTOMDPI
 70
   300
  0
ENDSEC
  0
EOF
