  0
SECTION
  2
HEADER
  9
$ACADVER
  1
AC1015
  9
$ACADMAINTVER
 70
    18
  9
$DWGCODEPAGE
  3
ANSI_1252
  9
$INSBASE
 10
421.1785771780096
 20
450.2667582667103
 30
0.0
  9
$EXTMIN
 10
1.000000000000000E+20
 20
1.000000000000000E+20
 30
1.000000000000000E+20
  9
$EXTMAX
 10
0.0
 20
0.0
 30
0.0
  9
$LIMMIN
 10
0.0
 20
0.0
  9
$LIMMAX
 10
420.0
 20
297.0
  9
$ORTHOMODE
 70
     1
  9
$REGENMODE
 70
     1
  9
$FILLMODE
 70
     1
  9
$QTEXTMODE
 70
     0
  9
$MIRRTEXT
 70
     1
  9
$LTSCALE
 40
5.0
  9
$ATTMODE
 70
     1
  9
$TEXTSIZE
 40
2.5
  9
$TRACEWID
 40
1.0
  9
$TEXTSTYLE
  7
STANDARD
  9
$CLAYER
  8
-SCHRAFFUR
  9
$CELTYPE
  6
BYLAYER
  9
$CECOLOR
 62
   256
  9
$CELTSCALE
 40
1.0
  9
$DISPSILH
 70
     0
  9
$DIMSCALE
 40
1.0
  9
$DIMASZ
 40
2.0
  9
$DIMEXO
 40
2.0
  9
$DIMDLI
 40
2.0
  9
$DIMRND
 40
0.0
  9
$DIMDLE
 40
0.0
  9
$DIMEXE
 40
1.0
  9
$DIMTP
 40
0.0
  9
$DIMTM
 40
0.0
  9
$DIMTXT
 40
5.0
  9
$DIMCEN
 40
0.09
  9
$DIMTSZ
 40
0.0
  9
$DIMTOL
 70
     0
  9
$DIMLIM
 70
     0
  9
$DIMTIH
 70
     0
  9
$DIMTOH
 70
     0
  9
$DIMSE1
 70
     0
  9
$DIMSE2
 70
     0
  9
$DIMTAD
 70
     1
  9
$DIMZIN
 70
     9
  9
$DIMBLK
  1

  9
$DIMASO
 70
     1
  9
$DIMSHO
 70
     1
  9
$DIMPOST
  1

  9
$DIMAPOST
  1

  9
$DIMALT
 70
     0
  9
$DIMALTD
 70
     2
  9
$DIMALTF
 40
25.4
  9
$DIMLFAC
 40
1.0
  9
$DIMTOFL
 70
     0
  9
$DIMTVP
 40
0.0
  9
$DIMTIX
 70
     0
  9
$DIMSOXD
 70
     0
  9
$DIMSAH
 70
     0
  9
$DIMBLK1
  1

  9
$DIMBLK2
  1

  9
$DIMSTYLE
  2
1-1
  9
$DIMCLRD
 70
     2
  9
$DIMCLRE
 70
     2
  9
$DIMCLRT
 70
     3
  9
$DIMTFAC
 40
1.0
  9
$DIMGAP
 40
1.0
  9
$DIMJUST
 70
     0
  9
$DIMSD1
 70
     0
  9
$DIMSD2
 70
     0
  9
$DIMTOLJ
 70
     1
  9
$DIMTZIN
 70
     0
  9
$DIMALTZ
 70
     0
  9
$DIMALTTZ
 70
     0
  9
$DIMUPT
 70
     0
  9
$DIMDEC
 70
     0
  9
$DIMTDEC
 70
     4
  9
$DIMALTU
 70
     2
  9
$DIMALTTD
 70
     2
  9
$DIMTXSTY
  7
STANDARD
  9
$DIMAUNIT
 70
     0
  9
$DIMADEC
 70
     0
  9
$DIMALTRND
 40
0.0
  9
$DIMAZIN
 70
     0
  9
$DIMDSEP
 70
    46
  9
$DIMATFIT
 70
     2
  9
$DIMFRAC
 70
     0
  9
$DIMLDRBLK
  1

  9
$DIMLUNIT
 70
     2
  9
$DIMLWD
 70
    -2
  9
$DIMLWE
 70
    -2
  9
$DIMTMOVE
 70
     0
  9
$LUNITS
 70
     2
  9
$LUPREC
 70
     4
  9
$SKETCHINC
 40
1.0
  9
$FILLETRAD
 40
0.0
  9
$AUNITS
 70
     0
  9
$AUPREC
 70
     0
  9
$MENU
  1
.
  9
$ELEVATION
 40
0.0
  9
$PELEVATION
 40
0.0
  9
$THICKNESS
 40
0.0
  9
$LIMCHECK
 70
     0
  9
$CHAMFERA
 40
10.0
  9
$CHAMFERB
 40
10.0
  9
$CHAMFERC
 40
20.0
  9
$CHAMFERD
 40
0.0
  9
$SKPOLY
 70
     0
  9
$TDCREATE
 40
2452087.408717245
  9
$TDUCREATE
 40
2452087.367050579
  9
$TDUPDATE
 40
2453411.586706562
  9
$TDUUPDATE
 40
2453411.545039896
  9
$TDINDWG
 40
0.6563741319
  9
$TDUSRTIMER
 40
0.6563741319
  9
$USRTIMER
 70
     1
  9
$ANGBASE
 50
0.0
  9
$ANGDIR
 70
     0
  9
$PDMODE
 70
     0
  9
$PDSIZE
 40
0.0
  9
$PLINEWID
 40
0.0
  9
$SPLFRAME
 70
     0
  9
$SPLINETYPE
 70
     6
  9
$SPLINESEGS
 70
     8
  9
$HANDSEED
  5
1AD
  9
$SURFTAB1
 70
     6
  9
$SURFTAB2
 70
     6
  9
$SURFTYPE
 70
     6
  9
$SURFU
 70
     6
  9
$SURFV
 70
     6
  9
$UCSBASE
  2

  9
$UCSNAME
  2

  9
$UCSORG
 10
0.0
 20
0.0
 30
0.0
  9
$UCSXDIR
 10
1.0
 20
0.0
 30
0.0
  9
$UCSYDIR
 10
0.0
 20
1.0
 30
0.0
  9
$UCSORTHOREF
  2

  9
$UCSORTHOVIEW
 70
     0
  9
$UCSORGTOP
 10
0.0
 20
0.0
 30
0.0
  9
$UCSORGBOTTOM
 10
0.0
 20
0.0
 30
0.0
  9
$UCSORGLEFT
 10
0.0
 20
0.0
 30
0.0
  9
$UCSORGRIGHT
 10
0.0
 20
0.0
 30
0.0
  9
$UCSORGFRONT
 10
0.0
 20
0.0
 30
0.0
  9
$UCSORGBACK
 10
0.0
 20
0.0
 30
0.0
  9
$PUCSBASE
  2

  9
$PUCSNAME
  2

  9
$PUCSORG
 10
0.0
 20
0.0
 30
0.0
  9
$PUCSXDIR
 10
1.0
 20
0.0
 30
0.0
  9
$PUCSYDIR
 10
0.0
 20
1.0
 30
0.0
  9
$PUCSORTHOREF
  2

  9
$PUCSORTHOVIEW
 70
     0
  9
$PUCSORGTOP
 10
0.0
 20
0.0
 30
0.0
  9
$PUCSORGBOTTOM
 10
0.0
 20
0.0
 30
0.0
  9
$PUCSORGLEFT
 10
0.0
 20
0.0
 30
0.0
  9
$PUCSORGRIGHT
 10
0.0
 20
0.0
 30
0.0
  9
$PUCSORGFRONT
 10
0.0
 20
0.0
 30
0.0
  9
$PUCSORGBACK
 10
0.0
 20
0.0
 30
0.0
  9
$USERI1
 70
     0
  9
$USERI2
 70
     0
  9
$USERI3
 70
     0
  9
$USERI4
 70
     0
  9
$USERI5
 70
     0
  9
$USERR1
 40
0.0
  9
$USERR2
 40
0.0
  9
$USERR3
 40
0.0
  9
$USERR4
 40
0.0
  9
$USERR5
 40
0.0
  9
$WORLDVIEW
 70
     1
  9
$SHADEDGE
 70
     3
  9
$SHADEDIF
 70
    70
  9
$TILEMODE
 70
     1
  9
$MAXACTVP
 70
    48
  9
$PINSBASE
 10
0.0
 20
0.0
 30
0.0
  9
$PLIMCHECK
 70
     0
  9
$PEXTMIN
 10
0.0
 20
0.0
 30
0.0
  9
$PEXTMAX
 10
1189.0
 20
841.0
 30
0.0
  9
$PLIMMIN
 10
0.0
 20
0.0
  9
$PLIMMAX
 10
420.0
 20
297.0
  9
$UNITMODE
 70
     0
  9
$VISRETAIN
 70
     1
  9
$PLINEGEN
 70
     0
  9
$PSLTSCALE
 70
     1
  9
$TREEDEPTH
 70
  3020
  9
$CMLSTYLE
  2
STANDARD
  9
$CMLJUST
 70
     0
  9
$CMLSCALE
 40
1.0
  9
$PROXYGRAPHICS
 70
     1
  9
$MEASUREMENT
 70
     0
  9
$CELWEIGHT
370
    -1
  9
$ENDCAPS
280
     0
  9
$JOINSTYLE
280
     0
  9
$LWDISPLAY
290
     0
  9
$INSUNITS
 70
     0
  9
$HYPERLINKBASE
  1

  9
$STYLESHEET
  1

  9
$XEDIT
290
     1
  9
$CEPSNTYPE
380
     0
  9
$PSTYLEMODE
290
     1
  9
$FINGERPRINTGUID
  2
{9588F985-4B3C-4C9C-BEE4-2544F6211083}
  9
$VERSIONGUID
  2
{D6999056-2414-494E-96FA-9B5CE8020005}
  9
$EXTNAMES
290
     1
  9
$PSVPSCALE
 40
0.0
  9
$OLESTARTUP
290
     0
  0
ENDSEC
  0
SECTION
  2
CLASSES
  0
CLASS
  1
DICTIONARYVAR
  2
AcDbDictionaryVar
  3
ObjectDBX Classes
 90
        0
280
     0
281
     0
  0
CLASS
  1
ACDBDICTIONARYWDFLT
  2
AcDbDictionaryWithDefault
  3
ObjectDBX Classes
 90
        0
280
     0
281
     0
  0
CLASS
  1
ACDBPLACEHOLDER
  2
AcDbPlaceHolder
  3
ObjectDBX Classes
 90
        0
280
     0
281
     0
  0
CLASS
  1
LAYOUT
  2
AcDbLayout
  3
ObjectDBX Classes
 90
        0
280
     0
281
     0
  0
ENDSEC
  0
SECTION
  2
TABLES
  0
TABLE
  2
VPORT
  5
196
330
0
100
AcDbSymbolTable
 70
     1
  0
VPORT
  5
197
330
196
100
AcDbSymbolTableRecord
100
AcDbViewportTableRecord
  2
*Active
 70
     0
 10
0.0
 20
0.0
 11
1.0
 21
1.0
 12
575.1004327969268
 22
522.3549546840547
 13
0.0
 23
0.0
 14
10.0
 24
10.0
 15
10.0
 25
10.0
 16
0.0
 26
0.0
 36
1.0
 17
0.0
 27
0.0
 37
0.0
 40
301.2887579310987
 41
1.549148099606815
 42
50.0
 43
0.0
 44
0.0
 50
0.0
 51
0.0
 71
     0
 72
   100
 73
     1
 74
     1
 75
     0
 76
     0
 77
     0
 78
     0
281
     0
 65
     1
110
0.0
120
0.0
130
0.0
111
1.0
121
0.0
131
0.0
112
0.0
122
1.0
132
0.0
 79
     0
146
0.0
  0
ENDTAB
  0
TABLE
  2
LTYPE
  5
191
330
0
100
AcDbSymbolTable
 70
     3
  0
LTYPE
  5
192
330
191
100
AcDbSymbolTableRecord
100
AcDbLinetypeTableRecord
  2
BYBLOCK
 70
     0
  3

 72
    65
 73
     0
 40
0.0
  0
LTYPE
  5
193
330
191
100
AcDbSymbolTableRecord
100
AcDbLinetypeTableRecord
  2
BYLAYER
 70
     0
  3

 72
    65
 73
     0
 40
0.0
  0
LTYPE
  5
8
330
191
100
AcDbSymbolTableRecord
100
AcDbLinetypeTableRecord
  2
CONTINUOUS
 70
     0
  3
Solid line
 72
    65
 73
     0
 40
0.0
  0
LTYPE
  5
3D
330
191
100
AcDbSymbolTableRecord
100
AcDbLinetypeTableRecord
  2
MITTEX2
 70
     0
  3
Mitte (2x) ________  __  ________  __  _____
 72
    65
 73
     4
 40
4.0
 49
2.5
 74
     0
 49
-0.5
 74
     0
 49
0.5
 74
     0
 49
-0.5
 74
     0
  0
LTYPE
  5
12
330
191
100
AcDbSymbolTableRecord
100
AcDbLinetypeTableRecord
  2
STRICHLINIEX2
 70
     0
  3
Strichlinie (2x) ____  ____  ____  ____  ____  
 72
    65
 73
     2
 40
1.5
 49
1.0
 74
     0
 49
-0.5
 74
     0
  0
ENDTAB
  0
TABLE
  2
LAYER
  5
18C
102
{ACAD_XDICTIONARY
360
18D
102
}
330
0
100
AcDbSymbolTable
 70
    10
  0
LAYER
  5
4
330
18C
100
AcDbSymbolTableRecord
100
AcDbLayerTableRecord
  2
0
 70
     0
 62
     7
  6
CONTINUOUS
370
    -3
390
5
  0
LAYER
  5
17
330
18C
100
AcDbSymbolTableRecord
100
AcDbLayerTableRecord
  2
-PROFILAUSSENKANTET
 70
     0
 62
     4
  6
CONTINUOUS
370
    -3
390
5
1001
AVE_FINISH
1002
{
1070
     0
1005
0
1002
}
  0
LAYER
  5
4C
330
18C
100
AcDbSymbolTableRecord
100
AcDbLayerTableRecord
  2
-DICHTUNG
 70
     0
 62
     3
  6
CONTINUOUS
370
    -3
390
5
1001
AVE_FINISH
1002
{
1070
     0
1005
0
1002
}
  0
LAYER
  5
11
330
18C
100
AcDbSymbolTableRecord
100
AcDbLayerTableRecord
  2
-NORMTEIL_VERDECKT
 70
     0
 62
     9
  6
STRICHLINIEX2
370
    -3
390
5
  0
LAYER
  5
26
330
18C
100
AcDbSymbolTableRecord
100
AcDbLayerTableRecord
  2
DEFPOINTS
 70
     0
 62
     7
  6
CONTINUOUS
290
     0
370
    -3
390
5
  0
LAYER
  5
3C
330
18C
100
AcDbSymbolTableRecord
100
AcDbLayerTableRecord
  2
-SYSTEM
 70
     0
 62
     2
  6
MITTEX2
370
    -3
390
5
  0
LAYER
  5
2D
330
18C
100
AcDbSymbolTableRecord
100
AcDbLayerTableRecord
  2
-TEXT3
 70
     0
 62
     2
  6
CONTINUOUS
370
    -3
390
5
  0
LAYER
  5
1B
330
18C
100
AcDbSymbolTableRecord
100
AcDbLayerTableRecord
  2
-SCHRAFFUR
 70
     0
 62
     9
  6
CONTINUOUS
370
    -3
390
5
  0
LAYER
  5
F
330
18C
100
AcDbSymbolTableRecord
100
AcDbLayerTableRecord
  2
-VERGLASUNG
 70
     0
 62
     1
  6
CONTINUOUS
370
    -3
390
5
  0
LAYER
  5
A
330
18C
100
AcDbSymbolTableRecord
100
AcDbLayerTableRecord
  2
-TEXT2
 70
     0
 62
     3
  6
CONTINUOUS
370
    -3
390
5
  0
ENDTAB
  0
TABLE
  2
STYLE
  5
18F
330
0
100
AcDbSymbolTable
 70
     1
  0
STYLE
  5
B
330
18F
100
AcDbSymbolTableRecord
100
AcDbTextStyleTableRecord
  2
STANDARD
 70
     0
 40
0.0
 41
1.0
 50
0.0
 71
     0
 42
2.5
  3
ARIAL.TTF
  4

1001
ACAD
1000
Arial
1071
       34
  0
ENDTAB
  0
TABLE
  2
VIEW
  5
194
330
0
100
AcDbSymbolTable
 70
     0
  0
ENDTAB
  0
TABLE
  2
UCS
  5
195
330
0
100
AcDbSymbolTable
 70
     0
  0
ENDTAB
  0
TABLE
  2
APPID
  5
198
330
0
100
AcDbSymbolTable
 70
     2
  0
APPID
  5
C
330
198
100
AcDbSymbolTableRecord
100
AcDbRegAppTableRecord
  2
ACAD
 70
     0
  0
APPID
  5
18
330
198
100
AcDbSymbolTableRecord
100
AcDbRegAppTableRecord
  2
AVE_FINISH
 70
     0
  0
ENDTAB
  0
TABLE
  2
DIMSTYLE
  5
199
330
0
100
AcDbSymbolTable
 70
     1
100
AcDbDimStyleTable
 71
     1
340
1C
  0
DIMSTYLE
105
1C
102
{ACAD_REACTORS
330
AC
330
9E
330
91
330
111
330
103
330
F5
330
CC
330
BA
330
68
330
5B
330
2C
330
1A
330
13F
330
132
330
16C
330
15F
102
}
330
199
100
AcDbSymbolTableRecord
100
AcDbDimStyleTableRecord
  2
1-1
 70
     0
 41
2.0
 42
2.0
 43
2.0
 44
1.0
 73
     0
 74
     0
 77
     1
 78
     9
140
5.0
147
1.0
176
     2
177
     2
178
     3
271
     0
289
     2
340
B
  0
ENDTAB
  0
TABLE
  2
BLOCK_RECORD
  5
1
330
0
100
AcDbSymbolTable
 70
    17
  0
BLOCK_RECORD
  5
2
330
1
100
AcDbSymbolTableRecord
100
AcDbBlockTableRecord
  2
*MODEL_SPACE
340
186
  0
BLOCK_RECORD
  5
188
330
1
100
AcDbSymbolTableRecord
100
AcDbBlockTableRecord
  2
*PAPER_SPACE
340
18B
  0
BLOCK_RECORD
  5
1D
330
1
100
AcDbSymbolTableRecord
100
AcDbBlockTableRecord
  2
*D0
340
0
  0
BLOCK_RECORD
  5
5C
330
1
100
AcDbSymbolTableRecord
100
AcDbBlockTableRecord
  2
*D1
340
0
  0
BLOCK_RECORD
  5
92
330
1
100
AcDbSymbolTableRecord
100
AcDbBlockTableRecord
  2
*D2
340
0
  0
BLOCK_RECORD
  5
9F
330
1
100
AcDbSymbolTableRecord
100
AcDbBlockTableRecord
  2
*D3
340
0
  0
BLOCK_RECORD
  5
AD
330
1
100
AcDbSymbolTableRecord
100
AcDbBlockTableRecord
  2
*D4
340
0
  0
BLOCK_RECORD
  5
BB
330
1
100
AcDbSymbolTableRecord
100
AcDbBlockTableRecord
  2
*D5
340
0
  0
BLOCK_RECORD
  5
CD
330
1
100
AcDbSymbolTableRecord
100
AcDbBlockTableRecord
  2
*D6
340
0
  0
BLOCK_RECORD
  5
F6
330
1
100
AcDbSymbolTableRecord
100
AcDbBlockTableRecord
  2
*D7
340
0
  0
BLOCK_RECORD
  5
104
330
1
100
AcDbSymbolTableRecord
100
AcDbBlockTableRecord
  2
*D8
340
0
  0
BLOCK_RECORD
  5
112
330
1
100
AcDbSymbolTableRecord
100
AcDbBlockTableRecord
  2
*D9
340
0
  0
BLOCK_RECORD
  5
151
330
1
100
AcDbSymbolTableRecord
100
AcDbBlockTableRecord
  2
A$C12D21FE6
340
0
102
{BLKREFS
331
150
331
180
102
}
  0
BLOCK_RECORD
  5
140
330
1
100
AcDbSymbolTableRecord
100
AcDbBlockTableRecord
  2
*D11
340
0
  0
BLOCK_RECORD
  5
133
330
1
100
AcDbSymbolTableRecord
100
AcDbBlockTableRecord
  2
*D12
340
0
  0
BLOCK_RECORD
  5
16D
330
1
100
AcDbSymbolTableRecord
100
AcDbBlockTableRecord
  2
*D13
340
0
  0
BLOCK_RECORD
  5
160
330
1
100
AcDbSymbolTableRecord
100
AcDbBlockTableRecord
  2
*D14
340
0
  0
BLOCK_RECORD
  5
69
330
1
100
AcDbSymbolTableRecord
100
AcDbBlockTableRecord
  2
*D15
340
0
  0
BLOCK_RECORD
  5
2E
330
1
100
AcDbSymbolTableRecord
100
AcDbBlockTableRecord
  2
*D16
340
0
  0
ENDTAB
  0
ENDSEC
  0
SECTION
  2
BLOCKS
  0
BLOCK
  5
3
330
2
100
AcDbEntity
  8
0
100
AcDbBlockBegin
  2
*MODEL_SPACE
 70
     0
 10
0.0
 20
0.0
 30
0.0
  3
*MODEL_SPACE
  1

  0
ENDBLK
  5
185
330
2
100
AcDbEntity
  8
0
100
AcDbBlockEnd
  0
BLOCK
  5
189
330
188
100
AcDbEntity
 67
     1
  8
0
100
AcDbBlockBegin
  2
*PAPER_SPACE
 70
     0
 10
0.0
 20
0.0
 30
0.0
  3
*PAPER_SPACE
  1

  0
ENDBLK
  5
18A
330
188
100
AcDbEntity
 67
     1
  8
0
100
AcDbBlockEnd
  0
BLOCK
  5
1E
330
1D
100
AcDbEntity
  8
0
100
AcDbBlockBegin
  2
*D0
 70
     1
 10
0.0
 20
0.0
 30
0.0
  3
*D0
  1

  0
LINE
  5
1F
330
1D
100
AcDbEntity
  8
-SCHRAFFUR
 62
     2
370
    -2
100
AcDbLine
 10
508.327208843757
 20
461.3230625993062
 30
0.0
 11
508.327208843757
 21
500.5844003806745
 31
0.0
  0
LINE
  5
20
330
1D
100
AcDbEntity
  8
-SCHRAFFUR
 62
     2
370
    -2
100
AcDbLine
 10
770.3672088437561
 20
461.3230625993062
 30
0.0
 11
770.3672088437561
 21
500.5844003806745
 31
0.0
  0
LINE
  5
21
330
1D
100
AcDbEntity
  8
-SCHRAFFUR
 62
     2
370
    -2
100
AcDbLine
 10
510.327208843757
 20
499.5844003806745
 30
0.0
 11
768.367208843756
 21
499.5844003806745
 31
0.0
  0
SOLID
  5
22
330
1D
100
AcDbEntity
  8
-SCHRAFFUR
 62
     2
100
AcDbTrace
 10
510.327208843757
 20
499.9177337140078
 30
0.0
 11
510.327208843757
 21
499.2510670473412
 31
0.0
 12
508.327208843757
 22
499.5844003806745
 32
0.0
 13
508.327208843757
 23
499.5844003806745
 33
0.0
  0
SOLID
  5
23
330
1D
100
AcDbEntity
  8
-SCHRAFFUR
 62
     2
100
AcDbTrace
 10
768.367208843756
 20
499.9177337140078
 30
0.0
 11
768.367208843756
 21
499.2510670473412
 31
0.0
 12
770.3672088437561
 22
499.5844003806745
 32
0.0
 13
770.3672088437561
 23
499.5844003806745
 33
0.0
  0
MTEXT
  5
24
330
1D
100
AcDbEntity
  8
-SCHRAFFUR
 62
     3
100
AcDbMText
 10
639.3472088437565
 20
503.137265319283
 30
0.0
 40
5.0
 41
0.0
 71
     5
 72
     1
  1
\A1;262
 73
     1
 44
1.0
1001
ACAD
1000
MTEXTBEGIN
1070
    73
1070
     1
1070
    44
1040
1.0
1070
    74
1070
     0
1000
MTEXTEND
  0
POINT
  5
25
330
1D
100
AcDbEntity
  8
DEFPOINTS
 62
     0
100
AcDbPoint
 10
508.327208843757
 20
459.3230625993062
 30
0.0
  0
POINT
  5
27
330
1D
100
AcDbEntity
  8
DEFPOINTS
 62
     0
100
AcDbPoint
 10
770.3672088437561
 20
459.3230625993062
 30
0.0
  0
POINT
  5
28
330
1D
100
AcDbEntity
  8
DEFPOINTS
 62
     0
100
AcDbPoint
 10
770.3672088437561
 20
499.5844003806745
 30
0.0
  0
ENDBLK
  5
29
330
1D
100
AcDbEntity
  8
0
100
AcDbBlockEnd
  0
BLOCK
  5
5D
330
5C
100
AcDbEntity
  8
0
100
AcDbBlockBegin
  2
*D1
 70
     1
 10
0.0
 20
0.0
 30
0.0
  3
*D1
  1

  0
LINE
  5
5E
330
5C
100
AcDbEntity
  8
-SCHRAFFUR
 62
     2
370
    -2
100
AcDbLine
 10
634.3472088437565
 20
410.8230625993057
 30
0.0
 11
634.3472088437565
 21
373.7718862733647
 31
0.0
  0
LINE
  5
5F
330
5C
100
AcDbEntity
  8
-SCHRAFFUR
 62
     2
370
    -2
100
AcDbLine
 10
644.3472088437565
 20
410.8230625993057
 30
0.0
 11
644.3472088437565
 21
373.7718862733647
 31
0.0
  0
LINE
  5
60
330
5C
100
AcDbEntity
  8
-SCHRAFFUR
 62
     2
370
    -2
100
AcDbLine
 10
636.3472088437565
 20
374.7718862733647
 30
0.0
 11
642.3472088437566
 21
374.7718862733647
 31
0.0
  0
SOLID
  5
61
330
5C
100
AcDbEntity
  8
-SCHRAFFUR
 62
     2
100
AcDbTrace
 10
636.3472088437565
 20
375.105219606698
 30
0.0
 11
636.3472088437565
 21
374.4385529400314
 31
0.0
 12
634.3472088437565
 22
374.7718862733647
 32
0.0
 13
634.3472088437565
 23
374.7718862733647
 33
0.0
  0
SOLID
  5
62
330
5C
100
AcDbEntity
  8
-SCHRAFFUR
 62
     2
100
AcDbTrace
 10
642.3472088437566
 20
375.105219606698
 30
0.0
 11
642.3472088437566
 21
374.4385529400314
 31
0.0
 12
644.3472088437565
 22
374.7718862733647
 32
0.0
 13
644.3472088437565
 23
374.7718862733647
 33
0.0
  0
MTEXT
  5
63
330
5C
100
AcDbEntity
  8
-SCHRAFFUR
 62
     3
100
AcDbMText
 10
639.3472088437565
 20
378.3247512119731
 30
0.0
 40
5.0
 41
0.0
 71
     5
 72
     1
  1
\A1;~10
 73
     1
 44
1.0
1001
ACAD
1000
MTEXTBEGIN
1070
    73
1070
     1
1070
    44
1040
1.0
1070
    74
1070
     0
1000
MTEXTEND
  0
POINT
  5
64
330
5C
100
AcDbEntity
  8
DEFPOINTS
 62
     0
100
AcDbPoint
 10
634.3472088437565
 20
412.8230625993056
 30
0.0
  0
POINT
  5
65
330
5C
100
AcDbEntity
  8
DEFPOINTS
 62
     0
100
AcDbPoint
 10
644.3472088437565
 20
412.8230625993056
 30
0.0
  0
POINT
  5
66
330
5C
100
AcDbEntity
  8
DEFPOINTS
 62
     0
100
AcDbPoint
 10
644.3472088437565
 20
374.7718862733647
 30
0.0
  0
ENDBLK
  5
67
330
5C
100
AcDbEntity
  8
0
100
AcDbBlockEnd
  0
BLOCK
  5
93
330
92
100
AcDbEntity
  8
0
100
AcDbBlockBegin
  2
*D2
 70
     1
 10
0.0
 20
0.0
 30
0.0
  3
*D2
  1

  0
LINE
  5
94
330
92
100
AcDbEntity
  8
-TEXT3
 62
     2
370
    -2
100
AcDbLine
 10
772.327208843757
 20
588.5154091494314
 30
0.0
 11
792.9694158348661
 21
588.5154091494314
 31
0.0
  0
LINE
  5
95
330
92
100
AcDbEntity
  8
-TEXT3
 62
     2
370
    -2
100
AcDbLine
 10
772.327208843757
 20
573.5154091494314
 30
0.0
 11
792.9694158348661
 21
573.5154091494314
 31
0.0
  0
LINE
  5
96
330
92
100
AcDbEntity
  8
-TEXT3
 62
     2
370
    -2
100
AcDbLine
 10
791.9694158348661
 20
586.5154091494314
 30
0.0
 11
791.9694158348661
 21
575.5154091494314
 31
0.0
  0
SOLID
  5
97
330
92
100
AcDbEntity
  8
-TEXT3
 62
     2
100
AcDbTrace
 10
791.6360825015328
 20
586.5154091494314
 30
0.0
 11
792.3027491681994
 21
586.5154091494314
 31
0.0
 12
791.9694158348661
 22
588.5154091494314
 32
0.0
 13
791.9694158348661
 23
588.5154091494314
 33
0.0
  0
SOLID
  5
98
330
92
100
AcDbEntity
  8
-TEXT3
 62
     2
100
AcDbTrace
 10
791.6360825015328
 20
575.5154091494314
 30
0.0
 11
792.3027491681994
 21
575.5154091494314
 31
0.0
 12
791.9694158348661
 22
573.5154091494314
 32
0.0
 13
791.9694158348661
 23
573.5154091494314
 33
0.0
  0
MTEXT
  5
99
330
92
100
AcDbEntity
  8
-TEXT3
 62
     3
100
AcDbMText
 10
788.4165508962576
 20
581.0154091494316
 30
0.0
 40
5.0
 41
0.0
 71
     5
 72
     1
  1
\A1;15
 11
0.0000000000000001
 21
1.0
 31
0.0
 73
     1
 44
1.0
1001
ACAD
1000
MTEXTBEGIN
1070
    73
1070
     1
1070
    44
1040
1.0
1070
    74
1070
     0
1000
MTEXTEND
  0
POINT
  5
9A
330
92
100
AcDbEntity
  8
DEFPOINTS
 62
     0
100
AcDbPoint
 10
770.327208843757
 20
588.5154091494314
 30
0.0
  0
POINT
  5
9B
330
92
100
AcDbEntity
  8
DEFPOINTS
 62
     0
100
AcDbPoint
 10
770.327208843757
 20
573.5154091494314
 30
0.0
  0
POINT
  5
9C
330
92
100
AcDbEntity
  8
DEFPOINTS
 62
     0
100
AcDbPoint
 10
791.9694158348661
 20
573.5154091494314
 30
0.0
  0
ENDBLK
  5
9D
330
92
100
AcDbEntity
  8
0
100
AcDbBlockEnd
  0
BLOCK
  5
A0
330
9F
100
AcDbEntity
  8
0
100
AcDbBlockBegin
  2
*D3
 70
     1
 10
0.0
 20
0.0
 30
0.0
  3
*D3
  1

  0
LINE
  5
A1
330
9F
100
AcDbEntity
  8
-TEXT3
 62
     2
370
    -2
100
AcDbLine
 10
772.327208843757
 20
561.5154091494314
 30
0.0
 11
792.9694158348662
 21
561.5154091494314
 31
0.0
  0
LINE
  5
A2
330
9F
100
AcDbEntity
  8
-TEXT3
 62
     2
370
    -2
100
AcDbLine
 10
772.327208843757
 20
573.5154091494314
 30
0.0
 11
792.9694158348662
 21
573.5154091494314
 31
0.0
  0
LINE
  5
A3
330
9F
100
AcDbEntity
  8
-TEXT3
 62
     2
370
    -2
100
AcDbLine
 10
791.9694158348662
 20
571.5154091494314
 30
0.0
 11
791.9694158348662
 21
563.5154091494314
 31
0.0
  0
LINE
  5
A4
330
9F
100
AcDbEntity
  8
-TEXT3
 62
     2
370
    -2
100
AcDbLine
 10
791.9694158348662
 20
561.5154091494314
 30
0.0
 11
791.9694158348662
 21
544.9642495314231
 31
0.0
  0
SOLID
  5
A5
330
9F
100
AcDbEntity
  8
-TEXT3
 62
     2
100
AcDbTrace
 10
791.6360825015329
 20
571.5154091494314
 30
0.0
 11
792.3027491681996
 21
571.5154091494314
 31
0.0
 12
791.9694158348662
 22
573.5154091494314
 32
0.0
 13
791.9694158348662
 23
573.5154091494314
 33
0.0
  0
SOLID
  5
A6
330
9F
100
AcDbEntity
  8
-TEXT3
 62
     2
100
AcDbTrace
 10
791.6360825015329
 20
563.5154091494314
 30
0.0
 11
792.3027491681996
 21
563.5154091494314
 31
0.0
 12
791.9694158348662
 22
561.5154091494314
 32
0.0
 13
791.9694158348662
 23
561.5154091494314
 33
0.0
  0
MTEXT
  5
A7
330
9F
100
AcDbEntity
  8
-TEXT3
 62
     3
100
AcDbMText
 10
788.2767146070352
 20
552.2398293404275
 30
0.0
 40
5.0
 41
0.0
 71
     5
 72
     1
  1
\A1;%%c12
 11
0.0000000000000001
 21
1.0
 31
0.0
 73
     1
 44
1.0
1001
ACAD
1000
MTEXTBEGIN
1070
    73
1070
     1
1070
    44
1040
1.0
1070
    74
1070
     0
1000
MTEXTEND
  0
POINT
  5
A8
330
9F
100
AcDbEntity
  8
DEFPOINTS
 62
     0
100
AcDbPoint
 10
770.327208843757
 20
561.5154091494314
 30
0.0
  0
POINT
  5
A9
330
9F
100
AcDbEntity
  8
DEFPOINTS
 62
     0
100
AcDbPoint
 10
770.327208843757
 20
573.5154091494314
 30
0.0
  0
POINT
  5
AA
330
9F
100
AcDbEntity
  8
DEFPOINTS
 62
     0
100
AcDbPoint
 10
791.9694158348662
 20
573.5154091494314
 30
0.0
  0
ENDBLK
  5
AB
330
9F
100
AcDbEntity
  8
0
100
AcDbBlockEnd
  0
BLOCK
  5
AE
330
AD
100
AcDbEntity
  8
0
100
AcDbBlockBegin
  2
*D4
 70
     1
 10
0.0
 20
0.0
 30
0.0
  3
*D4
  1

  0
LINE
  5
AF
330
AD
100
AcDbEntity
  8
-TEXT3
 62
     2
370
    -2
100
AcDbLine
 10
772.327208843757
 20
600.5154091494314
 30
0.0
 11
792.9694158348662
 21
600.5154091494314
 31
0.0
  0
LINE
  5
B0
330
AD
100
AcDbEntity
  8
-TEXT3
 62
     2
370
    -2
100
AcDbLine
 10
772.327208843757
 20
588.5154091494314
 30
0.0
 11
792.9694158348662
 21
588.5154091494314
 31
0.0
  0
LINE
  5
B1
330
AD
100
AcDbEntity
  8
-TEXT3
 62
     2
370
    -2
100
AcDbLine
 10
791.9694158348662
 20
590.5154091494314
 30
0.0
 11
791.9694158348662
 21
598.5154091494314
 31
0.0
  0
LINE
  5
B2
330
AD
100
AcDbEntity
  8
-TEXT3
 62
     2
370
    -2
100
AcDbLine
 10
791.9694158348662
 20
600.5154091494314
 30
0.0
 11
791.9694158348662
 21
617.0665687674397
 31
0.0
  0
SOLID
  5
B3
330
AD
100
AcDbEntity
  8
-TEXT3
 62
     2
100
AcDbTrace
 10
791.6360825015329
 20
590.5154091494314
 30
0.0
 11
792.3027491681996
 21
590.5154091494314
 31
0.0
 12
791.9694158348662
 22
588.5154091494314
 32
0.0
 13
791.9694158348662
 23
588.5154091494314
 33
0.0
  0
SOLID
  5
B4
330
AD
100
AcDbEntity
  8
-TEXT3
 62
     2
100
AcDbTrace
 10
791.6360825015329
 20
598.5154091494314
 30
0.0
 11
792.3027491681996
 21
598.5154091494314
 31
0.0
 12
791.9694158348662
 22
600.5154091494314
 32
0.0
 13
791.9694158348662
 23
600.5154091494314
 33
0.0
  0
MTEXT
  5
B5
330
AD
100
AcDbEntity
  8
-TEXT3
 62
     3
100
AcDbMText
 10
788.2767146070352
 20
609.7909889584357
 30
0.0
 40
5.0
 41
0.0
 71
     5
 72
     1
  1
\A1;%%c12
 11
0.0000000000000001
 21
1.0
 31
0.0
 73
     1
 44
1.0
1001
ACAD
1000
MTEXTBEGIN
1070
    73
1070
     1
1070
    44
1040
1.0
1070
    74
1070
     0
1000
MTEXTEND
  0
POINT
  5
B6
330
AD
100
AcDbEntity
  8
DEFPOINTS
 62
     0
100
AcDbPoint
 10
770.327208843757
 20
600.5154091494314
 30
0.0
  0
POINT
  5
B7
330
AD
100
AcDbEntity
  8
DEFPOINTS
 62
     0
100
AcDbPoint
 10
770.327208843757
 20
588.5154091494314
 30
0.0
  0
POINT
  5
B8
330
AD
100
AcDbEntity
  8
DEFPOINTS
 62
     0
100
AcDbPoint
 10
791.9694158348662
 20
588.5154091494314
 30
0.0
  0
ENDBLK
  5
B9
330
AD
100
AcDbEntity
  8
0
100
AcDbBlockEnd
  0
BLOCK
  5
BC
330
BB
100
AcDbEntity
  8
0
100
AcDbBlockBegin
  2
*D5
 70
     1
 10
0.0
 20
0.0
 30
0.0
  3
*D5
  1

  0
LINE
  5
BD
330
BB
100
AcDbEntity
  8
-TEXT3
 62
     2
370
    -2
100
AcDbLine
 10
795.4694158348661
 20
432.3430625993053
 30
0.0
 11
807.2691446949558
 21
432.3430625993053
 31
0.0
  0
LINE
  5
BE
330
BB
100
AcDbEntity
  8
-TEXT3
 62
     2
370
    -2
100
AcDbLine
 10
749.3672088437561
 20
489.3230625993062
 30
0.0
 11
807.2691446949558
 21
489.3230625993062
 31
0.0
  0
LINE
  5
BF
330
BB
100
AcDbEntity
  8
-TEXT3
 62
     2
370
    -2
100
AcDbLine
 10
806.2691446949559
 20
434.3430625993054
 30
0.0
 11
806.2691446949559
 21
487.3230625993062
 31
0.0
  0
SOLID
  5
C0
330
BB
100
AcDbEntity
  8
-TEXT3
 62
     2
100
AcDbTrace
 10
805.9358113616225
 20
434.3430625993054
 30
0.0
 11
806.6024780282893
 21
434.3430625993054
 31
0.0
 12
806.2691446949559
 22
432.3430625993053
 32
0.0
 13
806.2691446949559
 23
432.3430625993053
 33
0.0
  0
SOLID
  5
C1
330
BB
100
AcDbEntity
  8
-TEXT3
 62
     2
100
AcDbTrace
 10
805.9358113616225
 20
487.3230625993062
 30
0.0
 11
806.6024780282893
 21
487.3230625993062
 31
0.0
 12
806.2691446949559
 22
489.3230625993062
 32
0.0
 13
806.2691446949559
 23
489.3230625993062
 33
0.0
  0
MTEXT
  5
C2
330
BB
100
AcDbEntity
  8
-TEXT3
 62
     3
100
AcDbMText
 10
802.726511679949
 20
460.8330625993059
 30
0.0
 40
5.0
 41
0.0
 71
     5
 72
     1
  1
\A1;57
 11
0.0000000000000001
 21
1.0
 31
0.0
 73
     1
 44
1.0
1001
ACAD
1000
MTEXTBEGIN
1070
    73
1070
     1
1070
    44
1040
1.0
1070
    74
1070
     0
1000
MTEXTEND
  0
POINT
  5
C3
330
BB
100
AcDbEntity
  8
DEFPOINTS
 62
     0
100
AcDbPoint
 10
793.4694158348661
 20
432.3430625993053
 30
0.0
  0
POINT
  5
C4
330
BB
100
AcDbEntity
  8
DEFPOINTS
 62
     0
100
AcDbPoint
 10
747.367208843756
 20
489.3230625993062
 30
0.0
  0
POINT
  5
C5
330
BB
100
AcDbEntity
  8
DEFPOINTS
 62
     0
100
AcDbPoint
 10
806.2691446949559
 20
489.3230625993062
 30
0.0
  0
ENDBLK
  5
C6
330
BB
100
AcDbEntity
  8
0
100
AcDbBlockEnd
  0
BLOCK
  5
CE
330
CD
100
AcDbEntity
  8
0
100
AcDbBlockBegin
  2
*D6
 70
     1
 10
0.0
 20
0.0
 30
0.0
  3
*D6
  1

  0
LINE
  5
CF
330
CD
100
AcDbEntity
  8
-TEXT3
 62
     2
370
    -2
100
AcDbLine
 10
772.367208843756
 20
447.3230625993062
 30
0.0
 11
792.9694158348661
 21
447.3230625993062
 31
0.0
  0
LINE
  5
D0
330
CD
100
AcDbEntity
  8
-TEXT3
 62
     2
370
    -2
100
AcDbLine
 10
752.3472088437565
 20
432.3230625993061
 30
0.0
 11
792.9694158348661
 21
432.3230625993061
 31
0.0
  0
LINE
  5
D1
330
CD
100
AcDbEntity
  8
-TEXT3
 62
     2
370
    -2
100
AcDbLine
 10
791.9694158348661
 20
445.3230625993062
 30
0.0
 11
791.9694158348661
 21
434.3230625993061
 31
0.0
  0
SOLID
  5
D2
330
CD
100
AcDbEntity
  8
-TEXT3
 62
     2
100
AcDbTrace
 10
791.6360825015328
 20
445.3230625993062
 30
0.0
 11
792.3027491681994
 21
445.3230625993062
 31
0.0
 12
791.9694158348661
 22
447.3230625993062
 32
0.0
 13
791.9694158348661
 23
447.3230625993062
 33
0.0
  0
SOLID
  5
D3
330
CD
100
AcDbEntity
  8
-TEXT3
 62
     2
100
AcDbTrace
 10
791.6360825015328
 20
434.3230625993061
 30
0.0
 11
792.3027491681994
 21
434.3230625993061
 31
0.0
 12
791.9694158348661
 22
432.3230625993061
 32
0.0
 13
791.9694158348661
 23
432.3230625993061
 33
0.0
  0
MTEXT
  5
D4
330
CD
100
AcDbEntity
  8
-TEXT3
 62
     3
100
AcDbMText
 10
788.4165508962576
 20
439.8230625993063
 30
0.0
 40
5.0
 41
0.0
 71
     5
 72
     1
  1
\A1;15
 11
0.0000000000000001
 21
1.0
 31
0.0
 73
     1
 44
1.0
1001
ACAD
1000
MTEXTBEGIN
1070
    73
1070
     1
1070
    44
1040
1.0
1070
    74
1070
     0
1000
MTEXTEND
  0
POINT
  5
D5
330
CD
100
AcDbEntity
  8
DEFPOINTS
 62
     0
100
AcDbPoint
 10
770.3672088437561
 20
447.3230625993062
 30
0.0
  0
POINT
  5
D6
330
CD
100
AcDbEntity
  8
DEFPOINTS
 62
     0
100
AcDbPoint
 10
750.3472088437566
 20
432.3230625993061
 30
0.0
  0
POINT
  5
D7
330
CD
100
AcDbEntity
  8
DEFPOINTS
 62
     0
100
AcDbPoint
 10
791.9694158348661
 20
432.3230625993061
 30
0.0
  0
ENDBLK
  5
D8
330
CD
100
AcDbEntity
  8
0
100
AcDbBlockEnd
  0
BLOCK
  5
F7
330
F6
100
AcDbEntity
  8
0
100
AcDbBlockBegin
  2
*D7
 70
     1
 10
0.0
 20
0.0
 30
0.0
  3
*D7
  1

  0
LINE
  5
F8
330
F6
100
AcDbEntity
  8
-TEXT3
 62
     2
370
    -2
100
AcDbLine
 10
772.367208843756
 20
447.3230625993062
 30
0.0
 11
792.9694158348662
 21
447.3230625993062
 31
0.0
  0
LINE
  5
F9
330
F6
100
AcDbEntity
  8
-TEXT3
 62
     2
370
    -2
100
AcDbLine
 10
772.367208843756
 20
459.3230625993062
 30
0.0
 11
792.9694158348662
 21
459.3230625993062
 31
0.0
  0
LINE
  5
FA
330
F6
100
AcDbEntity
  8
-TEXT3
 62
     2
370
    -2
100
AcDbLine
 10
791.9694158348662
 20
449.3230625993062
 30
0.0
 11
791.9694158348662
 21
457.3230625993062
 31
0.0
  0
LINE
  5
FB
330
F6
100
AcDbEntity
  8
-TEXT3
 62
     2
370
    -2
100
AcDbLine
 10
791.9694158348662
 20
459.3230625993062
 30
0.0
 11
791.9694158348662
 21
475.9363534335979
 31
0.0
  0
SOLID
  5
FC
330
F6
100
AcDbEntity
  8
-TEXT3
 62
     2
100
AcDbTrace
 10
791.6360825015329
 20
449.3230625993062
 30
0.0
 11
792.3027491681996
 21
449.3230625993062
 31
0.0
 12
791.9694158348662
 22
447.3230625993062
 32
0.0
 13
791.9694158348662
 23
447.3230625993062
 33
0.0
  0
SOLID
  5
FD
330
F6
100
AcDbEntity
  8
-TEXT3
 62
     2
100
AcDbTrace
 10
791.6360825015329
 20
457.3230625993062
 30
0.0
 11
792.3027491681996
 21
457.3230625993062
 31
0.0
 12
791.9694158348662
 22
459.3230625993062
 32
0.0
 13
791.9694158348662
 23
459.3230625993062
 33
0.0
  0
MTEXT
  5
FE
330
F6
100
AcDbEntity
  8
-TEXT3
 62
     3
100
AcDbMText
 10
788.2767146070352
 20
468.6607736245939
 30
0.0
 40
5.0
 41
0.0
 71
     5
 72
     1
  1
\A1;%%c12
 11
0.0000000000000001
 21
1.0
 31
0.0
 73
     1
 44
1.0
1001
ACAD
1000
MTEXTBEGIN
1070
    73
1070
     1
1070
    44
1040
1.0
1070
    74
1070
     0
1000
MTEXTEND
  0
POINT
  5
FF
330
F6
100
AcDbEntity
  8
DEFPOINTS
 62
     0
100
AcDbPoint
 10
770.3672088437561
 20
447.3230625993062
 30
0.0
  0
POINT
  5
100
330
F6
100
AcDbEntity
  8
DEFPOINTS
 62
     0
100
AcDbPoint
 10
770.3672088437561
 20
459.3230625993062
 30
0.0
  0
POINT
  5
101
330
F6
100
AcDbEntity
  8
DEFPOINTS
 62
     0
100
AcDbPoint
 10
791.9694158348662
 20
459.3230625993062
 30
0.0
  0
ENDBLK
  5
102
330
F6
100
AcDbEntity
  8
0
100
AcDbBlockEnd
  0
BLOCK
  5
105
330
104
100
AcDbEntity
  8
0
100
AcDbBlockBegin
  2
*D8
 70
     1
 10
0.0
 20
0.0
 30
0.0
  3
*D8
  1

  0
LINE
  5
106
330
104
100
AcDbEntity
  8
-TEXT2
 62
     2
370
    -2
100
AcDbLine
 10
780.9496852256284
 20
429.3230625993061
 30
0.0
 11
792.9694158348662
 21
429.3230625993061
 31
0.0
  0
LINE
  5
107
330
104
100
AcDbEntity
  8
-TEXT2
 62
     2
370
    -2
100
AcDbLine
 10
780.9496852256284
 20
432.3430625993053
 30
0.0
 11
792.9694158348662
 21
432.3430625993053
 31
0.0
  0
LINE
  5
108
330
104
100
AcDbEntity
  8
-TEXT2
 62
     2
370
    -2
100
AcDbLine
 10
791.9694158348662
 20
427.3230625993061
 30
0.0
 11
791.9694158348662
 21
425.3230625993061
 31
0.0
  0
LINE
  5
109
330
104
100
AcDbEntity
  8
-TEXT2
 62
     2
370
    -2
100
AcDbLine
 10
791.9694158348662
 20
434.3430625993054
 30
0.0
 11
791.9694158348662
 21
436.3430625993053
 31
0.0
  0
SOLID
  5
10A
330
104
100
AcDbEntity
  8
-TEXT2
 62
     2
100
AcDbTrace
 10
791.6360825015329
 20
427.3230625993061
 30
0.0
 11
792.3027491681996
 21
427.3230625993061
 31
0.0
 12
791.9694158348662
 22
429.3230625993061
 32
0.0
 13
791.9694158348662
 23
429.3230625993061
 33
0.0
  0
SOLID
  5
10B
330
104
100
AcDbEntity
  8
-TEXT2
 62
     2
100
AcDbTrace
 10
791.6360825015329
 20
434.3430625993054
 30
0.0
 11
792.3027491681996
 21
434.3430625993054
 31
0.0
 12
791.9694158348662
 22
432.3430625993053
 32
0.0
 13
791.9694158348662
 23
432.3430625993053
 33
0.0
  0
MTEXT
  5
10C
330
104
100
AcDbEntity
  8
-TEXT2
 62
     3
100
AcDbMText
 10
788.4148455756574
 20
430.8330625993058
 30
0.0
 40
5.0
 41
0.0
 71
     5
 72
     1
  1
\A1;3
 11
0.0000000000000001
 21
1.0
 31
0.0
 73
     1
 44
1.0
1001
ACAD
1000
MTEXTBEGIN
1070
    73
1070
     1
1070
    44
1040
1.0
1070
    74
1070
     0
1000
MTEXTEND
  0
POINT
  5
10D
330
104
100
AcDbEntity
  8
DEFPOINTS
 62
     0
100
AcDbPoint
 10
778.9496852256283
 20
429.3230625993061
 30
0.0
  0
POINT
  5
10E
330
104
100
AcDbEntity
  8
DEFPOINTS
 62
     0
100
AcDbPoint
 10
778.9496852256283
 20
432.3430625993053
 30
0.0
  0
POINT
  5
10F
330
104
100
AcDbEntity
  8
DEFPOINTS
 62
     0
100
AcDbPoint
 10
791.9694158348662
 20
432.3430625993053
 30
0.0
  0
ENDBLK
  5
110
330
104
100
AcDbEntity
  8
0
100
AcDbBlockEnd
  0
BLOCK
  5
113
330
112
100
AcDbEntity
  8
0
100
AcDbBlockBegin
  2
*D9
 70
     1
 10
0.0
 20
0.0
 30
0.0
  3
*D9
  1

  0
LINE
  5
114
330
112
100
AcDbEntity
  8
-TEXT3
 62
     2
370
    -2
100
AcDbLine
 10
780.9496852256284
 20
429.3230625993061
 30
0.0
 11
792.9694158348661
 21
429.3230625993061
 31
0.0
  0
LINE
  5
115
330
112
100
AcDbEntity
  8
-TEXT3
 62
     2
370
    -2
100
AcDbLine
 10
780.9496852256284
 20
411.8230625993054
 30
0.0
 11
792.9694158348661
 21
411.8230625993054
 31
0.0
  0
LINE
  5
116
330
112
100
AcDbEntity
  8
-TEXT3
 62
     2
370
    -2
100
AcDbLine
 10
791.9694158348661
 20
427.3230625993061
 30
0.0
 11
791.9694158348661
 21
413.8230625993054
 31
0.0
  0
SOLID
  5
117
330
112
100
AcDbEntity
  8
-TEXT3
 62
     2
100
AcDbTrace
 10
791.6360825015328
 20
427.3230625993061
 30
0.0
 11
792.3027491681994
 21
427.3230625993061
 31
0.0
 12
791.9694158348661
 22
429.3230625993061
 32
0.0
 13
791.9694158348661
 23
429.3230625993061
 33
0.0
  0
SOLID
  5
118
330
112
100
AcDbEntity
  8
-TEXT3
 62
     2
100
AcDbTrace
 10
791.6360825015328
 20
413.8230625993054
 30
0.0
 11
792.3027491681994
 21
413.8230625993054
 31
0.0
 12
791.9694158348661
 22
411.8230625993054
 32
0.0
 13
791.9694158348661
 23
411.8230625993054
 33
0.0
  0
MTEXT
  5
119
330
112
100
AcDbEntity
  8
-TEXT3
 62
     3
100
AcDbMText
 10
788.3841498048524
 20
420.5730625993059
 30
0.0
 40
5.0
 41
0.0
 71
     5
 72
     1
  1
\A1;G
 11
0.0000000000000001
 21
1.0
 31
0.0
 73
     1
 44
1.0
1001
ACAD
1000
MTEXTBEGIN
1070
    73
1070
     1
1070
    44
1040
1.0
1070
    74
1070
     0
1000
MTEXTEND
  0
POINT
  5
11A
330
112
100
AcDbEntity
  8
DEFPOINTS
 62
     0
100
AcDbPoint
 10
778.9496852256283
 20
429.3230625993061
 30
0.0
  0
POINT
  5
11B
330
112
100
AcDbEntity
  8
DEFPOINTS
 62
     0
100
AcDbPoint
 10
778.9496852256283
 20
411.8230625993054
 30
0.0
  0
POINT
  5
11C
330
112
100
AcDbEntity
  8
DEFPOINTS
 62
     0
100
AcDbPoint
 10
791.9694158348661
 20
411.8230625993054
 30
0.0
  0
ENDBLK
  5
11D
330
112
100
AcDbEntity
  8
0
100
AcDbBlockEnd
  0
BLOCK
  5
152
330
151
100
AcDbEntity
  8
0
100
AcDbBlockBegin
  2
A$C12D21FE6
 70
     0
 10
0.0
 20
0.0
 30
0.0
  3
A$C12D21FE6
  1

  0
LWPOLYLINE
  5
153
330
151
100
AcDbEntity
  8
-NORMTEIL_VERDECKT
100
AcDbPolyline
 90
        6
 70
     0
 43
0.0
 10
-0.00000004186154
 20
11.00000006123278
 10
-0.0000000418618811
 20
0.6770000612326186
 10
0.6769999581382536
 20
0.0000000612325977
 10
7.322999958138439
 20
0.0000000612325692
 10
7.999999958138118
 20
0.6770000612325902
 10
7.999999958138459
 20
11.00000006123272
  0
LINE
  5
154
330
151
100
AcDbEntity
  8
-NORMTEIL_VERDECKT
100
AcDbLine
 10
7.322999958138439
 20
0.0000000612325977
 30
0.0
 11
7.32299995813878
 21
11.00000006123272
 31
0.0
  0
LINE
  5
155
330
151
100
AcDbEntity
  8
-NORMTEIL_VERDECKT
100
AcDbLine
 10
0.6769999581382536
 20
0.0000000612325977
 30
0.0
 11
0.6769999581385946
 21
11.00000006123284
 31
0.0
  0
LINE
  5
156
330
151
100
AcDbEntity
  8
-NORMTEIL_VERDECKT
100
AcDbLine
 10
-0.0000000418618811
 20
0.6770000612326186
 30
0.0
 11
7.999999958138118
 21
0.6770000612325902
 31
0.0
  0
ENDBLK
  5
157
330
151
100
AcDbEntity
  8
0
100
AcDbBlockEnd
  0
BLOCK
  5
141
330
140
100
AcDbEntity
  8
0
100
AcDbBlockBegin
  2
*D11
 70
     1
 10
0.0
 20
0.0
 30
0.0
  3
*D11
  1

  0
LINE
  5
142
330
140
100
AcDbEntity
  8
-SCHRAFFUR
 62
     2
370
    -2
100
AcDbLine
 10
698.3472088437565
 20
409.8230625993055
 30
0.0
 11
698.3472088437565
 21
388.496352087168
 31
0.0
  0
LINE
  5
143
330
140
100
AcDbEntity
  8
-SCHRAFFUR
 62
     2
370
    -2
100
AcDbLine
 10
750.3472088437566
 20
409.8230625993055
 30
0.0
 11
750.3472088437566
 21
388.496352087168
 31
0.0
  0
LINE
  5
144
330
140
100
AcDbEntity
  8
-SCHRAFFUR
 62
     2
370
    -2
100
AcDbLine
 10
700.3472088437566
 20
389.496352087168
 30
0.0
 11
748.3472088437565
 21
389.496352087168
 31
0.0
  0
SOLID
  5
145
330
140
100
AcDbEntity
  8
-SCHRAFFUR
 62
     2
100
AcDbTrace
 10
700.3472088437566
 20
389.8296854205014
 30
0.0
 11
700.3472088437566
 21
389.1630187538347
 31
0.0
 12
698.3472088437565
 22
389.496352087168
 32
0.0
 13
698.3472088437565
 23
389.496352087168
 33
0.0
  0
SOLID
  5
146
330
140
100
AcDbEntity
  8
-SCHRAFFUR
 62
     2
100
AcDbTrace
 10
748.3472088437565
 20
389.8296854205014
 30
0.0
 11
748.3472088437565
 21
389.1630187538347
 31
0.0
 12
750.3472088437566
 22
389.496352087168
 32
0.0
 13
750.3472088437566
 23
389.496352087168
 33
0.0
  0
MTEXT
  5
147
330
140
100
AcDbEntity
  8
-SCHRAFFUR
 62
     3
100
AcDbMText
 10
724.3472088437565
 20
393.1890533149988
 30
0.0
 40
5.0
 41
0.0
 71
     5
 72
     1
  1
\A1;%%c52
 73
     1
 44
1.0
1001
ACAD
1000
MTEXTBEGIN
1070
    73
1070
     1
1070
    44
1040
1.0
1070
    74
1070
     0
1000
MTEXTEND
  0
POINT
  5
148
330
140
100
AcDbEntity
  8
DEFPOINTS
 62
     0
100
AcDbPoint
 10
698.3472088437565
 20
411.8230625993055
 30
0.0
  0
POINT
  5
149
330
140
100
AcDbEntity
  8
DEFPOINTS
 62
     0
100
AcDbPoint
 10
750.3472088437566
 20
411.8230625993055
 30
0.0
  0
POINT
  5
14A
330
140
100
AcDbEntity
  8
DEFPOINTS
 62
     0
100
AcDbPoint
 10
750.3472088437566
 20
389.496352087168
 30
0.0
  0
ENDBLK
  5
14B
330
140
100
AcDbEntity
  8
0
100
AcDbBlockEnd
  0
BLOCK
  5
134
330
133
100
AcDbEntity
  8
0
100
AcDbBlockBegin
  2
*D12
 70
     1
 10
0.0
 20
0.0
 30
0.0
  3
*D12
  1

  0
LINE
  5
135
330
133
100
AcDbEntity
  8
-TEXT3
 62
     2
370
    -2
100
AcDbLine
 10
711.327208843757
 20
409.8230625993055
 30
0.0
 11
711.327208843757
 21
398.833331028373
 31
0.0
  0
LINE
  5
136
330
133
100
AcDbEntity
  8
-TEXT3
 62
     2
370
    -2
100
AcDbLine
 10
737.327208843757
 20
409.8230625993055
 30
0.0
 11
737.327208843757
 21
398.833331028373
 31
0.0
  0
LINE
  5
137
330
133
100
AcDbEntity
  8
-TEXT3
 62
     2
370
    -2
100
AcDbLine
 10
713.327208843757
 20
399.833331028373
 30
0.0
 11
735.327208843757
 21
399.833331028373
 31
0.0
  0
SOLID
  5
138
330
133
100
AcDbEntity
  8
-TEXT3
 62
     2
100
AcDbTrace
 10
713.327208843757
 20
400.1666643617062
 30
0.0
 11
713.327208843757
 21
399.4999976950396
 31
0.0
 12
711.327208843757
 22
399.833331028373
 32
0.0
 13
711.327208843757
 23
399.833331028373
 33
0.0
  0
SOLID
  5
139
330
133
100
AcDbEntity
  8
-TEXT3
 62
     2
100
AcDbTrace
 10
735.327208843757
 20
400.1666643617062
 30
0.0
 11
735.327208843757
 21
399.4999976950396
 31
0.0
 12
737.327208843757
 22
399.833331028373
 32
0.0
 13
737.327208843757
 23
399.833331028373
 33
0.0
  0
MTEXT
  5
13A
330
133
100
AcDbEntity
  8
-TEXT3
 62
     3
100
AcDbMText
 10
724.0799641323258
 20
403.5260322562037
 30
0.0
 40
5.0
 41
0.0
 71
     5
 72
     1
  1
\A1;%%c26
 73
     1
 44
1.0
1001
ACAD
1000
MTEXTBEGIN
1070
    73
1070
     1
1070
    44
1040
1.0
1070
    74
1070
     0
1000
MTEXTEND
  0
POINT
  5
13B
330
133
100
AcDbEntity
  8
DEFPOINTS
 62
     0
100
AcDbPoint
 10
711.327208843757
 20
411.8230625993055
 30
0.0
  0
POINT
  5
13C
330
133
100
AcDbEntity
  8
DEFPOINTS
 62
     0
100
AcDbPoint
 10
737.327208843757
 20
411.8230625993055
 30
0.0
  0
POINT
  5
13D
330
133
100
AcDbEntity
  8
DEFPOINTS
 62
     0
100
AcDbPoint
 10
737.327208843757
 20
399.833331028373
 30
0.0
  0
ENDBLK
  5
13E
330
133
100
AcDbEntity
  8
0
100
AcDbBlockEnd
  0
BLOCK
  5
16E
330
16D
100
AcDbEntity
  8
0
100
AcDbBlockBegin
  2
*D13
 70
     1
 10
0.0
 20
0.0
 30
0.0
  3
*D13
  1

  0
LINE
  5
16F
330
16D
100
AcDbEntity
  8
-TEXT3
 62
     2
370
    -2
100
AcDbLine
 10
541.287208843758
 20
409.8230625993055
 30
0.0
 11
541.287208843758
 21
398.833331028373
 31
0.0
  0
LINE
  5
170
330
16D
100
AcDbEntity
  8
-TEXT3
 62
     2
370
    -2
100
AcDbLine
 10
567.2872088437579
 20
409.8230625993055
 30
0.0
 11
567.2872088437579
 21
398.833331028373
 31
0.0
  0
LINE
  5
171
330
16D
100
AcDbEntity
  8
-TEXT3
 62
     2
370
    -2
100
AcDbLine
 10
543.2872088437579
 20
399.833331028373
 30
0.0
 11
565.287208843758
 21
399.833331028373
 31
0.0
  0
SOLID
  5
172
330
16D
100
AcDbEntity
  8
-TEXT3
 62
     2
100
AcDbTrace
 10
543.2872088437579
 20
400.1666643617062
 30
0.0
 11
543.2872088437579
 21
399.4999976950396
 31
0.0
 12
541.287208843758
 22
399.833331028373
 32
0.0
 13
541.287208843758
 23
399.833331028373
 33
0.0
  0
SOLID
  5
173
330
16D
100
AcDbEntity
  8
-TEXT3
 62
     2
100
AcDbTrace
 10
565.287208843758
 20
400.1666643617062
 30
0.0
 11
565.287208843758
 21
399.4999976950396
 31
0.0
 12
567.2872088437579
 22
399.833331028373
 32
0.0
 13
567.2872088437579
 23
399.833331028373
 33
0.0
  0
MTEXT
  5
174
330
16D
100
AcDbEntity
  8
-TEXT3
 62
     3
100
AcDbMText
 10
554.0399641323268
 20
403.5260322562037
 30
0.0
 40
5.0
 41
0.0
 71
     5
 72
     1
  1
\A1;%%c26
 73
     1
 44
1.0
1001
ACAD
1000
MTEXTBEGIN
1070
    73
1070
     1
1070
    44
1040
1.0
1070
    74
1070
     0
1000
MTEXTEND
  0
POINT
  5
175
330
16D
100
AcDbEntity
  8
DEFPOINTS
 62
     0
100
AcDbPoint
 10
541.287208843758
 20
411.8230625993055
 30
0.0
  0
POINT
  5
176
330
16D
100
AcDbEntity
  8
DEFPOINTS
 62
     0
100
AcDbPoint
 10
567.2872088437579
 20
411.8230625993055
 30
0.0
  0
POINT
  5
177
330
16D
100
AcDbEntity
  8
DEFPOINTS
 62
     0
100
AcDbPoint
 10
567.2872088437579
 20
399.833331028373
 30
0.0
  0
ENDBLK
  5
178
330
16D
100
AcDbEntity
  8
0
100
AcDbBlockEnd
  0
BLOCK
  5
161
330
160
100
AcDbEntity
  8
0
100
AcDbBlockBegin
  2
*D14
 70
     1
 10
0.0
 20
0.0
 30
0.0
  3
*D14
  1

  0
LINE
  5
162
330
160
100
AcDbEntity
  8
-SCHRAFFUR
 62
     2
370
    -2
100
AcDbLine
 10
528.3072088437575
 20
409.8230625993055
 30
0.0
 11
528.3072088437575
 21
388.496352087168
 31
0.0
  0
LINE
  5
163
330
160
100
AcDbEntity
  8
-SCHRAFFUR
 62
     2
370
    -2
100
AcDbLine
 10
580.3072088437574
 20
409.8230625993055
 30
0.0
 11
580.3072088437574
 21
388.496352087168
 31
0.0
  0
LINE
  5
164
330
160
100
AcDbEntity
  8
-SCHRAFFUR
 62
     2
370
    -2
100
AcDbLine
 10
530.3072088437574
 20
389.496352087168
 30
0.0
 11
578.3072088437575
 21
389.496352087168
 31
0.0
  0
SOLID
  5
165
330
160
100
AcDbEntity
  8
-SCHRAFFUR
 62
     2
100
AcDbTrace
 10
530.3072088437574
 20
389.8296854205014
 30
0.0
 11
530.3072088437574
 21
389.1630187538347
 31
0.0
 12
528.3072088437575
 22
389.496352087168
 32
0.0
 13
528.3072088437575
 23
389.496352087168
 33
0.0
  0
SOLID
  5
166
330
160
100
AcDbEntity
  8
-SCHRAFFUR
 62
     2
100
AcDbTrace
 10
578.3072088437575
 20
389.8296854205014
 30
0.0
 11
578.3072088437575
 21
389.1630187538347
 31
0.0
 12
580.3072088437574
 22
389.496352087168
 32
0.0
 13
580.3072088437574
 23
389.496352087168
 33
0.0
  0
MTEXT
  5
167
330
160
100
AcDbEntity
  8
-SCHRAFFUR
 62
     3
100
AcDbMText
 10
554.3072088437575
 20
393.1890533149988
 30
0.0
 40
5.0
 41
0.0
 71
     5
 72
     1
  1
\A1;%%c52
 73
     1
 44
1.0
1001
ACAD
1000
MTEXTBEGIN
1070
    73
1070
     1
1070
    44
1040
1.0
1070
    74
1070
     0
1000
MTEXTEND
  0
POINT
  5
168
330
160
100
AcDbEntity
  8
DEFPOINTS
 62
     0
100
AcDbPoint
 10
528.3072088437575
 20
411.8230625993055
 30
0.0
  0
POINT
  5
169
330
160
100
AcDbEntity
  8
DEFPOINTS
 62
     0
100
AcDbPoint
 10
580.3072088437574
 20
411.8230625993055
 30
0.0
  0
POINT
  5
16A
330
160
100
AcDbEntity
  8
DEFPOINTS
 62
     0
100
AcDbPoint
 10
580.3072088437574
 20
389.496352087168
 30
0.0
  0
ENDBLK
  5
16B
330
160
100
AcDbEntity
  8
0
100
AcDbBlockEnd
  0
BLOCK
  5
6A
330
69
100
AcDbEntity
  8
0
100
AcDbBlockBegin
  2
*D15
 70
     1
 10
0.0
 20
0.0
 30
0.0
  3
*D15
  1

  0
LINE
  5
6B
330
69
100
AcDbEntity
  8
-TEXT3
 62
     2
370
    -2
100
AcDbLine
 10
554.3472088437566
 20
387.496352087168
 30
0.0
 11
554.3472088437566
 21
373.7718862733647
 31
0.0
  0
LINE
  5
6C
330
69
100
AcDbEntity
  8
-TEXT3
 62
     2
370
    -2
100
AcDbLine
 10
634.3472088437565
 20
410.8230625993057
 30
0.0
 11
634.3472088437565
 21
373.7718862733647
 31
0.0
  0
LINE
  5
6D
330
69
100
AcDbEntity
  8
-TEXT3
 62
     2
370
    -2
100
AcDbLine
 10
556.3472088437565
 20
374.7718862733647
 30
0.0
 11
632.3472088437565
 21
374.7718862733647
 31
0.0
  0
SOLID
  5
6E
330
69
100
AcDbEntity
  8
-TEXT3
 62
     2
100
AcDbTrace
 10
556.3472088437565
 20
375.105219606698
 30
0.0
 11
556.3472088437565
 21
374.4385529400314
 31
0.0
 12
554.3472088437566
 22
374.7718862733647
 32
0.0
 13
554.3472088437566
 23
374.7718862733647
 33
0.0
  0
SOLID
  5
6F
330
69
100
AcDbEntity
  8
-TEXT3
 62
     2
100
AcDbTrace
 10
632.3472088437565
 20
375.105219606698
 30
0.0
 11
632.3472088437565
 21
374.4385529400314
 31
0.0
 12
634.3472088437565
 22
374.7718862733647
 32
0.0
 13
634.3472088437565
 23
374.7718862733647
 33
0.0
  0
MTEXT
  5
70
330
69
100
AcDbEntity
  8
-TEXT3
 62
     3
100
AcDbMText
 10
594.3472088437565
 20
378.3247512119731
 30
0.0
 40
5.0
 41
0.0
 71
     5
 72
     1
  1
\A1;80
 73
     1
 44
1.0
1001
ACAD
1000
MTEXTBEGIN
1070
    73
1070
     1
1070
    44
1040
1.0
1070
    74
1070
     0
1000
MTEXTEND
  0
POINT
  5
71
330
69
100
AcDbEntity
  8
DEFPOINTS
 62
     0
100
AcDbPoint
 10
554.3472088437566
 20
389.496352087168
 30
0.0
  0
POINT
  5
72
330
69
100
AcDbEntity
  8
DEFPOINTS
 62
     0
100
AcDbPoint
 10
634.3472088437565
 20
412.8230625993056
 30
0.0
  0
POINT
  5
73
330
69
100
AcDbEntity
  8
DEFPOINTS
 62
     0
100
AcDbPoint
 10
634.3472088437565
 20
374.7718862733647
 30
0.0
  0
ENDBLK
  5
74
330
69
100
AcDbEntity
  8
0
100
AcDbBlockEnd
  0
BLOCK
  5
2F
330
2E
100
AcDbEntity
  8
0
100
AcDbBlockBegin
  2
*D16
 70
     1
 10
0.0
 20
0.0
 30
0.0
  3
*D16
  1

  0
LINE
  5
30
330
2E
100
AcDbEntity
  8
-TEXT3
 62
     2
370
    -2
100
AcDbLine
 10
724.3472088437565
 20
387.496352087168
 30
0.0
 11
724.3472088437565
 21
373.7718862733647
 31
0.0
  0
LINE
  5
31
330
2E
100
AcDbEntity
  8
-TEXT3
 62
     2
370
    -2
100
AcDbLine
 10
644.3472088437565
 20
410.8230625993057
 30
0.0
 11
644.3472088437565
 21
373.7718862733647
 31
0.0
  0
LINE
  5
32
330
2E
100
AcDbEntity
  8
-TEXT3
 62
     2
370
    -2
100
AcDbLine
 10
722.3472088437565
 20
374.7718862733647
 30
0.0
 11
646.3472088437566
 21
374.7718862733647
 31
0.0
  0
SOLID
  5
33
330
2E
100
AcDbEntity
  8
-TEXT3
 62
     2
100
AcDbTrace
 10
722.3472088437565
 20
375.105219606698
 30
0.0
 11
722.3472088437565
 21
374.4385529400314
 31
0.0
 12
724.3472088437565
 22
374.7718862733647
 32
0.0
 13
724.3472088437565
 23
374.7718862733647
 33
0.0
  0
SOLID
  5
34
330
2E
100
AcDbEntity
  8
-TEXT3
 62
     2
100
AcDbTrace
 10
646.3472088437566
 20
375.105219606698
 30
0.0
 11
646.3472088437566
 21
374.4385529400314
 31
0.0
 12
644.3472088437565
 22
374.7718862733647
 32
0.0
 13
644.3472088437565
 23
374.7718862733647
 33
0.0
  0
MTEXT
  5
35
330
2E
100
AcDbEntity
  8
-TEXT3
 62
     3
100
AcDbMText
 10
684.3472088437565
 20
378.3247512119731
 30
0.0
 40
5.0
 41
0.0
 71
     5
 72
     1
  1
\A1;80
 73
     1
 44
1.0
1001
ACAD
1000
MTEXTBEGIN
1070
    73
1070
     1
1070
    44
1040
1.0
1070
    74
1070
     0
1000
MTEXTEND
  0
POINT
  5
36
330
2E
100
AcDbEntity
  8
DEFPOINTS
 62
     0
100
AcDbPoint
 10
724.3472088437565
 20
389.496352087168
 30
0.0
  0
POINT
  5
37
330
2E
100
AcDbEntity
  8
DEFPOINTS
 62
     0
100
AcDbPoint
 10
644.3472088437565
 20
412.8230625993056
 30
0.0
  0
POINT
  5
38
330
2E
100
AcDbEntity
  8
DEFPOINTS
 62
     0
100
AcDbPoint
 10
644.3472088437565
 20
374.7718862733647
 30
0.0
  0
ENDBLK
  5
39
330
2E
100
AcDbEntity
  8
0
100
AcDbBlockEnd
  0
ENDSEC
  0
SECTION
  2
ENTITIES
  0
MTEXT
  5
9
330
2
100
AcDbEntity
  8
-TEXT2
100
AcDbMText
 10
345.1177611671101
 20
473.5772038029251
 30
0.0
 40
5.0
 41
115.8862353619997
 71
     1
 72
     5
  1
{\H4x;Draufsicht}\P{\H2x;M1:1}
 73
     1
 44
1.0
1001
ACAD
1000
MTEXTBEGIN
1070
    73
1070
     1
1070
    44
1040
1.0
1070
    74
1070
     0
1000
MTEXTEND
  0
MTEXT
  5
D
330
2
100
AcDbEntity
  8
-TEXT2
100
AcDbMText
 10
345.1177611671101
 20
626.7943807842329
 30
0.0
 40
5.0
 41
115.8862353619997
 71
     1
 72
     5
  1
{\H4x;Ansicht}\P{\H2x;M1:1}
 73
     1
 44
1.0
1001
ACAD
1000
MTEXTBEGIN
1070
    73
1070
     1
1070
    44
1040
1.0
1070
    74
1070
     0
1000
MTEXTEND
  0
LINE
  5
E
330
2
100
AcDbEntity
  8
-VERGLASUNG
100
AcDbLine
 10
646.3472088437566
 20
661.0154091494314
 30
0.0
 11
778.9496852256283
 21
661.0154091494314
 31
0.0
  0
LINE
  5
10
330
2
100
AcDbEntity
  8
-NORMTEIL_VERDECKT
100
AcDbLine
 10
707.1298253218372
 20
561.5154091494314
 30
0.0
 11
571.5245923656769
 21
561.5154091494314
 31
0.0
  0
LINE
  5
13
330
2
100
AcDbEntity
  8
-NORMTEIL_VERDECKT
100
AcDbLine
 10
699.4324302747479
 20
573.5154091494314
 30
0.0
 11
579.2219874127663
 21
573.5154091494314
 31
0.0
  0
LINE
  5
14
330
2
100
AcDbEntity
  8
-NORMTEIL_VERDECKT
100
AcDbLine
 10
699.4324302747479
 20
588.5154091494314
 30
0.0
 11
579.2219874127663
 21
588.5154091494314
 31
0.0
  0
LINE
  5
15
330
2
100
AcDbEntity
  8
-NORMTEIL_VERDECKT
100
AcDbLine
 10
707.1298253218372
 20
600.5154091494314
 30
0.0
 11
571.5245923656769
 21
600.5154091494314
 31
0.0
  0
LINE
  5
16
330
2
100
AcDbEntity
  8
-PROFILAUSSENKANTET
100
AcDbLine
 10
580.327208843757
 20
459.3230625993062
 30
0.0
 11
698.367208843756
 21
459.3230625993062
 31
0.0
  0
LINE
  5
19
330
2
100
AcDbEntity
  8
-PROFILAUSSENKANTET
100
AcDbLine
 10
580.327208843757
 20
447.3230625993062
 30
0.0
 11
698.367208843756
 21
447.3230625993062
 31
0.0
  0
DIMENSION
  5
1A
330
2
100
AcDbEntity
  8
-SCHRAFFUR
100
AcDbDimension
  2
*D0
 10
770.3672088437561
 20
499.5844003806745
 30
0.0
 11
639.3472088437565
 21
503.137265319283
 31
0.0
 71
     5
 42
262.0399999999991
  3
1-1
100
AcDbAlignedDimension
 13
508.327208843757
 23
459.3230625993062
 33
0.0
 14
770.3672088437561
 24
459.3230625993062
 34
0.0
100
AcDbRotatedDimension
  0
LINE
  5
2A
330
2
100
AcDbEntity
  8
-VERGLASUNG
100
AcDbLine
 10
652.1746755940035
 20
429.3230625993061
 30
0.0
 11
648.2808007743774
 21
425.42918777968
 31
0.0
  0
LINE
  5
2B
330
2
100
AcDbEntity
  8
-VERGLASUNG
100
AcDbLine
 10
650.6121755940035
 20
429.3230625993061
 30
0.0
 11
646.7183007743774
 21
425.42918777968
 31
0.0
  0
DIMENSION
  5
2C
330
2
100
AcDbEntity
  8
-TEXT3
100
AcDbDimension
  2
*D16
 10
644.3472088437565
 20
374.7718862733647
 30
0.0
 11
684.3472088437565
 21
378.3247512119731
 31
0.0
 71
     5
 42
80.0
  3
1-1
100
AcDbAlignedDimension
 13
724.3472088437565
 23
389.496352087168
 33
0.0
 14
644.3472088437565
 24
412.8230625993056
 34
0.0
100
AcDbRotatedDimension
  0
LWPOLYLINE
  5
3A
330
2
100
AcDbEntity
  8
-VERGLASUNG
100
AcDbPolyline
 90
        6
 70
     0
 43
0.0
 10
778.9496852256283
 20
411.8230625993054
 10
645.3472088437565
 20
411.8230625993057
 10
644.3472088437565
 20
412.8230625993056
 10
644.3472088437565
 20
428.3230625993061
 10
645.3472088437565
 20
429.3230625993061
 10
778.9496852256283
 20
429.3230625993061
  0
LINE
  5
3B
330
2
100
AcDbEntity
  8
-SYSTEM
100
AcDbLine
 10
593.5390034676948
 20
581.0154091494314
 30
0.0
 11
515.1154142198192
 21
581.0154091494314
 31
0.0
  0
LINE
  5
3E
330
2
100
AcDbEntity
  8
-VERGLASUNG
100
AcDbLine
 10
500.9680908737947
 20
661.0154091494314
 30
0.0
 11
632.3472088437565
 21
661.0154091494314
 31
0.0
  0
LWPOLYLINE
  5
3F
330
2
100
AcDbEntity
  8
-NORMTEIL_VERDECKT
100
AcDbPolyline
 90
        4
 70
     0
 43
0.0
 10
537.1298253218371
 20
561.5154091494314
 10
508.327208843757
 20
561.5154091494314
 10
508.327208843757
 20
573.5154091494314
 10
529.4324302747478
 20
573.5154091494314
  0
LWPOLYLINE
  5
40
330
2
100
AcDbEntity
  8
-NORMTEIL_VERDECKT
100
AcDbPolyline
 90
        4
 70
     0
 43
0.0
 10
537.1298253218371
 20
600.5154091494314
 10
508.327208843757
 20
600.5154091494314
 10
508.327208843757
 20
588.5154091494314
 10
529.4324302747478
 20
588.5154091494314
  0
LINE
  5
41
330
2
100
AcDbEntity
  8
-SYSTEM
100
AcDbLine
 10
554.327208843757
 20
620.2272037733692
 30
0.0
 11
554.327208843757
 21
541.8036145254936
 31
0.0
  0
LINE
  5
42
330
2
100
AcDbEntity
  8
-VERGLASUNG
100
AcDbLine
 10
644.3472088437565
 20
659.0154091494314
 30
0.0
 11
644.3472088437565
 21
542.3494422701306
 31
0.0
  0
LINE
  5
43
330
2
100
AcDbEntity
  8
-VERGLASUNG
100
AcDbLine
 10
634.3472088437565
 20
659.0154091494314
 30
0.0
 11
634.3472088437565
 21
542.3494422701305
 31
0.0
  0
MTEXT
  5
44
330
2
100
AcDbEntity
  8
-TEXT2
100
AcDbMText
 10
554.8586731965867
 20
670.0671348283529
 30
0.0
 40
3.5
 41
23.92767240387241
 71
     1
 72
     5
  1
Glaskante
 73
     1
 44
1.0
1001
ACAD
1000
MTEXTBEGIN
1070
    73
1070
     1
1070
    44
1040
1.0
1070
    74
1070
     0
1000
MTEXTEND
  0
LWPOLYLINE
  5
45
330
2
100
AcDbEntity
  8
-PROFILAUSSENKANTET
100
AcDbPolyline
 90
        3
 70
     1
 43
0.0
 10
566.6576498587756
 20
661.0154091494314
 10
568.7357459771126
 20
664.6147772094025
 10
564.5795537404388
 20
664.6147772094025
  0
LINE
  5
46
330
2
100
AcDbEntity
  8
-VERGLASUNG
100
AcDbLine
 10
632.3472088437565
 20
661.0154091494314
 30
0.0
 11
634.3472088437565
 21
659.0154091494314
 31
0.0
  0
LINE
  5
47
330
2
100
AcDbEntity
  8
-VERGLASUNG
100
AcDbLine
 10
646.3472088437566
 20
661.0154091494314
 30
0.0
 11
644.3472088437565
 21
659.0154091494314
 31
0.0
  0
LWPOLYLINE
  5
48
330
2
100
AcDbEntity
  8
-PROFILAUSSENKANTET
100
AcDbPolyline
 90
        6
 70
     1
 43
0.0
 10
531.327208843757
 20
489.3230625993062
 10
577.327208843757
 20
489.3230625993062
 42
-0.4142135623730951
 10
580.327208843757
 20
486.3230625993062
 10
580.327208843757
 20
464.3230625993062
 10
528.327208843757
 20
464.3230625993062
 10
528.327208843757
 20
486.3230625993062
 42
-0.4142135623730951
  0
LWPOLYLINE
  5
49
330
2
100
AcDbEntity
  8
-PROFILAUSSENKANTET
100
AcDbPolyline
 90
        4
 70
     1
 43
0.0
 10
528.327208843757
 20
464.3230625993062
 10
580.327208843757
 20
464.3230625993062
 10
580.327208843757
 20
447.3230625993062
 10
528.327208843757
 20
447.3230625993062
  0
LWPOLYLINE
  5
4A
330
2
100
AcDbEntity
  8
-PROFILAUSSENKANTET
100
AcDbPolyline
 90
        4
 70
     1
 43
0.0
 10
528.327208843757
 20
447.3230625993062
 10
580.327208843757
 20
447.3230625993062
 10
580.327208843757
 20
432.3230625993061
 10
528.327208843757
 20
432.3230625993061
  0
LWPOLYLINE
  5
4B
102
{ACAD_REACTORS
330
4D
102
}
330
2
100
AcDbEntity
  8
-DICHTUNG
100
AcDbPolyline
 90
        4
 70
     1
 43
0.0
 10
528.8472088437565
 20
432.3230625993061
 10
579.8472088437566
 20
432.3230625993061
 10
579.8472088437566
 20
429.3230625993061
 10
528.8472088437565
 20
429.3230625993061
  0
HATCH
  5
4D
330
2
100
AcDbEntity
  8
-SCHRAFFUR
100
AcDbHatch
 10
0.0
 20
0.0
 30
0.0
210
0.0
220
0.0
230
1.0
  2
SOLID
 70
     1
 71
     1
 91
        1
 92
        1
 93
        4
 72
     1
 10
528.8472088437565
 20
432.3230625993061
 11
579.8472088437566
 21
432.3230625993061
 72
     1
 10
579.8472088437566
 20
432.3230625993061
 11
579.8472088437566
 21
429.3230625993061
 72
     1
 10
579.8472088437566
 20
429.3230625993061
 11
528.8472088437565
 21
429.3230625993061
 72
     1
 10
528.8472088437565
 20
429.3230625993061
 11
528.8472088437565
 21
432.3230625993061
 97
        1
330
4B
 75
     0
 76
     1
 98
        1
 10
1011.985501713166
 20
619.2301698394751
  0
LWPOLYLINE
  5
4E
330
2
100
AcDbEntity
  8
-VERGLASUNG
100
AcDbPolyline
 90
        6
 70
     0
 43
0.0
 10
499.7447324618847
 20
411.8230625993054
 10
633.3472088437566
 20
411.8230625993057
 10
634.3472088437565
 20
412.8230625993056
 10
634.3472088437565
 20
428.3230625993061
 10
633.3472088437566
 20
429.3230625993061
 10
499.7447324618847
 20
429.3230625993061
  0
LWPOLYLINE
  5
4F
330
2
100
AcDbEntity
  8
-PROFILAUSSENKANTET
100
AcDbPolyline
 90
        4
 70
     0
 43
0.0
 10
528.327208843757
 20
447.3230625993062
 10
508.327208843757
 20
447.3230625993062
 10
508.327208843757
 20
459.3230625993062
 10
528.327208843757
 20
459.3230625993062
  0
LINE
  5
50
330
2
100
AcDbEntity
  8
-VERGLASUNG
100
AcDbLine
 10
499.9572420204203
 20
429.3230628821499
 30
0.0
 11
503.8511169107569
 21
425.4291879918128
 31
0.0
  0
LINE
  5
51
330
2
100
AcDbEntity
  8
-VERGLASUNG
100
AcDbLine
 10
501.5197420204203
 20
429.3230628821499
 30
0.0
 11
505.4136169107569
 21
425.4291879918128
 31
0.0
  0
LINE
  5
52
330
2
100
AcDbEntity
  8
-VERGLASUNG
100
AcDbLine
 10
503.0822420204203
 20
429.3230628821499
 30
0.0
 11
506.9761169107569
 21
425.4291879918131
 31
0.0
  0
LINE
  5
53
330
2
100
AcDbEntity
  8
-VERGLASUNG
100
AcDbLine
 10
499.8646565844292
 20
415.7169377017752
 30
0.0
 11
503.7585314747661
 21
411.8230628114385
 31
0.0
  0
LINE
  5
54
330
2
100
AcDbEntity
  8
-VERGLASUNG
100
AcDbLine
 10
498.3021565844292
 20
415.716937701775
 30
0.0
 11
502.1960314747661
 21
411.8230628114385
 31
0.0
  0
LINE
  5
55
330
2
100
AcDbEntity
  8
-VERGLASUNG
100
AcDbLine
 10
526.5197420491801
 20
429.3230628114389
 30
0.0
 11
530.4136169395169
 21
425.4291879211019
 31
0.0
  0
LINE
  5
56
330
2
100
AcDbEntity
  8
-VERGLASUNG
100
AcDbLine
 10
524.9572420491801
 20
429.3230628114389
 30
0.0
 11
528.8511169395169
 21
425.4291879211019
 31
0.0
  0
LINE
  5
57
330
2
100
AcDbEntity
  8
-VERGLASUNG
100
AcDbLine
 10
528.0822420491801
 20
429.3230628114389
 30
0.0
 11
531.9761169395169
 21
425.4291879211022
 31
0.0
  0
LINE
  5
58
330
2
100
AcDbEntity
  8
-VERGLASUNG
100
AcDbLine
 10
523.3021568253223
 20
415.7169374189314
 30
0.0
 11
527.1960316449483
 21
411.8230625993054
 31
0.0
  0
LINE
  5
59
330
2
100
AcDbEntity
  8
-VERGLASUNG
100
AcDbLine
 10
524.8646566131895
 20
415.7169376310642
 30
0.0
 11
528.7585315035262
 21
411.8230627407275
 31
0.0
  0
LINE
  5
5A
330
2
100
AcDbEntity
  8
-VERGLASUNG
100
AcDbLine
 10
521.7396568253223
 20
415.7169374189314
 30
0.0
 11
525.6335316449483
 21
411.8230625993054
 31
0.0
  0
DIMENSION
  5
5B
330
2
100
AcDbEntity
  8
-SCHRAFFUR
100
AcDbDimension
  2
*D1
 10
644.3472088437565
 20
374.7718862733647
 30
0.0
 11
639.3472088437565
 21
374.7718862733647
 31
0.0
 70
   128
  1
~<>
 71
     5
 42
10.0
  3
1-1
100
AcDbAlignedDimension
 13
634.3472088437565
 23
412.8230625993056
 33
0.0
 14
644.3472088437565
 24
412.8230625993056
 34
0.0
100
AcDbRotatedDimension
  0
DIMENSION
  5
68
330
2
100
AcDbEntity
  8
-TEXT3
100
AcDbDimension
  2
*D15
 10
634.3472088437565
 20
374.7718862733647
 30
0.0
 11
594.3472088437565
 21
378.3247512119731
 31
0.0
 71
     5
 42
80.0
  3
1-1
100
AcDbAlignedDimension
 13
554.3472088437566
 23
389.496352087168
 33
0.0
 14
634.3472088437565
 24
412.8230625993056
 34
0.0
 50
180.0
100
AcDbRotatedDimension
  0
LINE
  5
75
330
2
100
AcDbEntity
  8
-VERGLASUNG
100
AcDbLine
 10
596.7396566994696
 20
415.7169374189314
 30
0.0
 11
600.6335315190956
 21
411.8230625993054
 31
0.0
  0
LINE
  5
76
330
2
100
AcDbEntity
  8
-NORMTEIL_VERDECKT
100
AcDbLine
 10
549.0972088437565
 20
485.3230625993062
 30
0.0
 11
552.5972088437563
 21
485.3230625993062
 31
0.0
  0
LWPOLYLINE
  5
77
330
2
100
AcDbEntity
  8
-NORMTEIL_VERDECKT
100
AcDbPolyline
 90
        5
 70
     0
 43
0.0
 10
549.0972088437565
 20
489.3230625993062
 10
549.0972088437565
 20
485.3230625993062
 10
550.8472088437565
 20
484.3230625993062
 10
552.5972088437563
 20
485.3230625993062
 10
552.5972088437566
 20
489.3230625993062
  0
LWPOLYLINE
  5
78
330
2
100
AcDbEntity
  8
-NORMTEIL_VERDECKT
100
AcDbPolyline
 90
        5
 70
     0
 43
0.0
 10
559.5972088437565
 20
489.3230625993062
 10
559.5972088437565
 20
485.3230625993062
 10
561.3472088437565
 20
484.3230625993062
 10
563.0972088437563
 20
485.3230625993062
 10
563.0972088437565
 20
489.3230625993062
  0
LINE
  5
79
330
2
100
AcDbEntity
  8
-NORMTEIL_VERDECKT
100
AcDbLine
 10
559.5972088437565
 20
485.3230625993062
 30
0.0
 11
563.0972088437563
 21
485.3230625993062
 31
0.0
  0
LINE
  5
7A
330
2
100
AcDbEntity
  8
-VERGLASUNG
100
AcDbLine
 10
571.7396566707095
 20
415.7169374896424
 30
0.0
 11
575.6335315610463
 21
411.8230625993057
 31
0.0
  0
LINE
  5
7B
330
2
100
AcDbEntity
  8
-VERGLASUNG
100
AcDbLine
 10
578.0822421067003
 20
429.3230626700171
 30
0.0
 11
581.9761169970369
 21
425.4291877796803
 31
0.0
  0
LINE
  5
7C
330
2
100
AcDbEntity
  8
-VERGLASUNG
100
AcDbLine
 10
576.5197421067003
 20
429.3230626700171
 30
0.0
 11
580.4136169970369
 21
425.42918777968
 31
0.0
  0
LINE
  5
7D
330
2
100
AcDbEntity
  8
-VERGLASUNG
100
AcDbLine
 10
574.9572421067003
 20
429.3230626700171
 30
0.0
 11
578.8511169970369
 21
425.42918777968
 31
0.0
  0
LINE
  5
7E
330
2
100
AcDbEntity
  8
-VERGLASUNG
100
AcDbLine
 10
574.8646566707095
 20
415.7169374896424
 30
0.0
 11
578.7585315610463
 21
411.8230625993057
 31
0.0
  0
LINE
  5
7F
330
2
100
AcDbEntity
  8
-VERGLASUNG
100
AcDbLine
 10
573.3021566707095
 20
415.7169374896422
 30
0.0
 11
577.1960315610463
 21
411.8230625993057
 31
0.0
  0
LINE
  5
80
330
2
100
AcDbEntity
  8
-VERGLASUNG
100
AcDbLine
 10
623.3021566575189
 20
415.7169374189314
 30
0.0
 11
627.1960314771449
 21
411.8230625993054
 31
0.0
  0
LINE
  5
81
330
2
100
AcDbEntity
  8
-VERGLASUNG
100
AcDbLine
 10
621.7396566575189
 20
415.7169374189314
 30
0.0
 11
625.6335314771449
 21
411.8230625993054
 31
0.0
  0
LINE
  5
82
330
2
100
AcDbEntity
  8
-VERGLASUNG
100
AcDbLine
 10
603.0822421354603
 20
429.3230625993061
 30
0.0
 11
606.9761169550863
 21
425.42918777968
 31
0.0
  0
LINE
  5
83
330
2
100
AcDbEntity
  8
-VERGLASUNG
100
AcDbLine
 10
601.5197421354603
 20
429.3230625993061
 30
0.0
 11
605.4136169550863
 21
425.42918777968
 31
0.0
  0
LINE
  5
84
330
2
100
AcDbEntity
  8
-VERGLASUNG
100
AcDbLine
 10
599.9572421354603
 20
429.3230625993061
 30
0.0
 11
603.8511169550863
 21
425.42918777968
 31
0.0
  0
LINE
  5
85
330
2
100
AcDbEntity
  8
-VERGLASUNG
100
AcDbLine
 10
598.3021566994696
 20
415.7169374189314
 30
0.0
 11
602.1960315190956
 21
411.8230625993054
 31
0.0
  0
LINE
  5
86
330
2
100
AcDbEntity
  8
-VERGLASUNG
100
AcDbLine
 10
599.8646566994696
 20
415.7169374189314
 30
0.0
 11
603.7585315190956
 21
411.8230625993054
 31
0.0
  0
LINE
  5
87
330
2
100
AcDbEntity
  8
-VERGLASUNG
100
AcDbLine
 10
628.0822420935096
 20
429.3230625993061
 30
0.0
 11
631.9761169131356
 21
425.42918777968
 31
0.0
  0
LINE
  5
88
330
2
100
AcDbEntity
  8
-VERGLASUNG
100
AcDbLine
 10
626.5197420935096
 20
429.3230625993061
 30
0.0
 11
630.4136169131356
 21
425.42918777968
 31
0.0
  0
LINE
  5
89
330
2
100
AcDbEntity
  8
-VERGLASUNG
100
AcDbLine
 10
624.9572420935096
 20
429.3230625993061
 30
0.0
 11
628.8511169131356
 21
425.42918777968
 31
0.0
  0
LINE
  5
8A
330
2
100
AcDbEntity
  8
-VERGLASUNG
100
AcDbLine
 10
624.8646566575189
 20
415.7169374189314
 30
0.0
 11
628.7585314771449
 21
411.8230625993054
 31
0.0
  0
LWPOLYLINE
  5
8B
330
2
100
AcDbEntity
  8
-NORMTEIL_VERDECKT
100
AcDbPolyline
 90
        4
 70
     0
 43
0.0
 10
741.5245923656769
 20
561.5154091494314
 10
770.327208843757
 20
561.5154091494314
 10
770.327208843757
 20
573.5154091494314
 10
749.2219874127661
 20
573.5154091494314
  0
LWPOLYLINE
  5
8C
330
2
100
AcDbEntity
  8
-NORMTEIL_VERDECKT
100
AcDbPolyline
 90
        4
 70
     0
 43
0.0
 10
741.5245923656769
 20
600.5154091494314
 10
770.327208843757
 20
600.5154091494314
 10
770.327208843757
 20
588.5154091494314
 10
749.2219874127661
 20
588.5154091494314
  0
LINE
  5
8D
330
2
100
AcDbEntity
  8
-SYSTEM
100
AcDbLine
 10
763.5390034676947
 20
581.0154091494314
 30
0.0
 11
685.1154142198192
 21
581.0154091494314
 31
0.0
  0
LINE
  5
8E
330
2
100
AcDbEntity
  8
-SYSTEM
100
AcDbLine
 10
724.327208843757
 20
620.2272037733692
 30
0.0
 11
724.327208843757
 21
541.8036145254936
 31
0.0
  0
MTEXT
  5
8F
330
2
100
AcDbEntity
  8
-TEXT2
100
AcDbMText
 10
700.8494703725037
 20
670.0671348283529
 30
0.0
 40
3.5
 41
23.92767240387241
 71
     1
 72
     5
  1
Glaskante
 73
     1
 44
1.0
1001
ACAD
1000
MTEXTBEGIN
1070
    73
1070
     1
1070
    44
1040
1.0
1070
    74
1070
     0
1000
MTEXTEND
  0
LWPOLYLINE
  5
90
330
2
100
AcDbEntity
  8
-PROFILAUSSENKANTET
100
AcDbPolyline
 90
        3
 70
     1
 43
0.0
 10
712.6484470346924
 20
661.0154091494314
 10
714.7265431530293
 20
664.6147772094025
 10
710.5703509163556
 20
664.6147772094025
  0
DIMENSION
  5
91
330
2
100
AcDbEntity
  8
-TEXT3
100
AcDbDimension
  2
*D2
 10
791.9694158348661
 20
573.5154091494314
 30
0.0
 11
788.4165508962576
 21
581.0154091494316
 31
0.0
 71
     5
 42
15.0
  3
1-1
100
AcDbAlignedDimension
 13
770.327208843757
 23
588.5154091494314
 33
0.0
 14
770.327208843757
 24
573.5154091494314
 34
0.0
 50
90.0
100
AcDbRotatedDimension
  0
DIMENSION
  5
9E
330
2
100
AcDbEntity
  8
-TEXT3
100
AcDbDimension
  2
*D3
 10
791.9694158348662
 20
573.5154091494314
 30
0.0
 11
791.9694158348661
 21
552.2398293404275
 31
0.0
 70
   128
  1
%%c<>
 71
     5
 42
12.0
  3
1-1
100
AcDbAlignedDimension
 13
770.327208843757
 23
561.5154091494314
 33
0.0
 14
770.327208843757
 24
573.5154091494314
 34
0.0
 50
270.0
100
AcDbRotatedDimension
  0
DIMENSION
  5
AC
330
2
100
AcDbEntity
  8
-TEXT3
100
AcDbDimension
  2
*D4
 10
791.9694158348662
 20
588.5154091494314
 30
0.0
 11
791.9694158348661
 21
609.7909889584357
 31
0.0
 70
   128
  1
%%c<>
 71
     5
 42
12.0
  3
1-1
100
AcDbAlignedDimension
 13
770.327208843757
 23
600.5154091494314
 33
0.0
 14
770.327208843757
 24
588.5154091494314
 34
0.0
 50
90.0
100
AcDbRotatedDimension
  0
DIMENSION
  5
BA
330
2
100
AcDbEntity
  8
-TEXT3
100
AcDbDimension
  2
*D5
 10
806.2691446949559
 20
489.3230625993062
 30
0.0
 11
802.726511679949
 21
460.8330625993059
 31
0.0
 71
     5
 42
56.98000000000082
  3
1-1
100
AcDbAlignedDimension
 13
793.4694158348661
 23
432.3430625993053
 33
0.0
 14
747.367208843756
 24
489.3230625993062
 34
0.0
 50
270.0
100
AcDbRotatedDimension
  0
LWPOLYLINE
  5
C7
330
2
100
AcDbEntity
  8
-PROFILAUSSENKANTET
100
AcDbPolyline
 90
        4
 70
     0
 43
0.0
 10
750.3672088437561
 20
447.3230625993062
 10
770.3672088437561
 20
447.3230625993062
 10
770.3672088437561
 20
459.3230625993062
 10
750.3672088437561
 20
459.3230625993062
  0
LINE
  5
C8
330
2
100
AcDbEntity
  8
-VERGLASUNG
100
AcDbLine
 10
756.9547610743236
 20
415.7169376310642
 30
0.0
 11
753.0608861839866
 21
411.8230627407275
 31
0.0
  0
LINE
  5
C9
330
2
100
AcDbEntity
  8
-VERGLASUNG
100
AcDbLine
 10
755.3922610743236
 20
415.716937631064
 30
0.0
 11
751.4983861839866
 21
411.8230627407275
 31
0.0
  0
LINE
  5
CA
330
2
100
AcDbEntity
  8
-VERGLASUNG
100
AcDbLine
 10
753.7371756383329
 20
429.3230628114389
 30
0.0
 11
749.8433007479961
 21
425.4291879211019
 31
0.0
  0
LINE
  5
CB
330
2
100
AcDbEntity
  8
-VERGLASUNG
100
AcDbLine
 10
753.8297610743236
 20
415.7169376310642
 30
0.0
 11
749.9358861839868
 21
411.8230627407275
 31
0.0
  0
DIMENSION
  5
CC
330
2
100
AcDbEntity
  8
-TEXT3
100
AcDbDimension
  2
*D6
 10
791.9694158348661
 20
432.3230625993061
 30
0.0
 11
788.4165508962576
 21
439.8230625993063
 31
0.0
 71
     5
 42
15.00000000000011
  3
1-1
100
AcDbAlignedDimension
 13
770.3672088437561
 23
447.3230625993062
 33
0.0
 14
750.3472088437566
 24
432.3230625993061
 34
0.0
 50
270.0
100
AcDbRotatedDimension
  0
LINE
  5
D9
330
2
100
AcDbEntity
  8
-SYSTEM
100
AcDbLine
 10
724.327208843757
 20
408.8635433738532
 30
0.0
 11
724.327208843757
 21
493.4602816675399
 31
0.0
  0
LWPOLYLINE
  5
DA
330
2
100
AcDbEntity
  8
-PROFILAUSSENKANTET
100
AcDbPolyline
 90
        4
 70
     1
 43
0.0
 10
750.3672088437561
 20
447.3230625993062
 10
698.367208843756
 20
447.3230625993062
 10
698.367208843756
 20
432.3230625993061
 10
750.3672088437561
 20
432.3230625993061
  0
LWPOLYLINE
  5
DB
330
2
100
AcDbEntity
  8
-PROFILAUSSENKANTET
100
AcDbPolyline
 90
        4
 70
     1
 43
0.0
 10
750.3672088437561
 20
464.3230625993062
 10
698.367208843756
 20
464.3230625993062
 10
698.367208843756
 20
447.3230625993062
 10
750.3672088437561
 20
447.3230625993062
  0
LWPOLYLINE
  5
DC
330
2
100
AcDbEntity
  8
-PROFILAUSSENKANTET
100
AcDbPolyline
 90
        6
 70
     1
 43
0.0
 10
747.367208843756
 20
489.3230625993062
 10
701.367208843756
 20
489.3230625993062
 42
0.4142135623730951
 10
698.367208843756
 20
486.3230625993062
 10
698.367208843756
 20
464.3230625993062
 10
750.3672088437561
 20
464.3230625993062
 10
750.3672088437561
 20
486.3230625993062
 42
0.4142135623730951
  0
HATCH
  5
DD
330
2
100
AcDbEntity
  8
-SCHRAFFUR
100
AcDbHatch
 10
0.0
 20
0.0
 30
0.0
210
0.0
220
0.0
230
1.0
  2
SOLID
 70
     1
 71
     1
 91
        1
 92
        1
 93
        4
 72
     1
 10
749.8472088437566
 20
432.3230625993061
 11
698.8472088437565
 21
432.3230625993061
 72
     1
 10
698.8472088437565
 20
432.3230625993061
 11
698.8472088437565
 21
429.3230625993061
 72
     1
 10
698.8472088437565
 20
429.3230625993061
 11
749.8472088437566
 21
429.3230625993061
 72
     1
 10
749.8472088437566
 20
429.3230625993061
 11
749.8472088437566
 21
432.3230625993061
 97
        1
330
DE
 75
     0
 76
     1
 98
        1
 10
266.7089159743473
 20
619.2301698394751
  0
LWPOLYLINE
  5
DE
102
{ACAD_REACTORS
330
DD
102
}
330
2
100
AcDbEntity
  8
-DICHTUNG
100
AcDbPolyline
 90
        4
 70
     1
 43
0.0
 10
749.8472088437566
 20
432.3230625993061
 10
698.8472088437565
 20
432.3230625993061
 10
698.8472088437565
 20
429.3230625993061
 10
749.8472088437566
 20
429.3230625993061
  0
LINE
  5
DF
330
2
100
AcDbEntity
  8
-VERGLASUNG
100
AcDbLine
 10
702.1746755808128
 20
429.3230626700171
 30
0.0
 11
698.2808006904761
 21
425.42918777968
 31
0.0
  0
LINE
  5
E0
330
2
100
AcDbEntity
  8
-VERGLASUNG
100
AcDbLine
 10
703.7371755808128
 20
429.3230626700171
 30
0.0
 11
699.8433006904761
 21
425.42918777968
 31
0.0
  0
LINE
  5
E1
330
2
100
AcDbEntity
  8
-VERGLASUNG
100
AcDbLine
 10
705.3922610168036
 20
415.7169374896422
 30
0.0
 11
701.4983861264668
 21
411.8230625993057
 31
0.0
  0
LINE
  5
E2
330
2
100
AcDbEntity
  8
-VERGLASUNG
100
AcDbLine
 10
703.8297610168036
 20
415.7169374896424
 30
0.0
 11
699.9358861264668
 21
411.8230625993057
 31
0.0
  0
LINE
  5
E3
330
2
100
AcDbEntity
  8
-VERGLASUNG
100
AcDbLine
 10
678.7371755520528
 20
429.3230625993061
 30
0.0
 11
674.8433007324267
 21
425.42918777968
 31
0.0
  0
LINE
  5
E4
330
2
100
AcDbEntity
  8
-VERGLASUNG
100
AcDbLine
 10
677.1746755520528
 20
429.3230625993061
 30
0.0
 11
673.2808007324267
 21
425.42918777968
 31
0.0
  0
LINE
  5
E5
330
2
100
AcDbEntity
  8
-VERGLASUNG
100
AcDbLine
 10
678.8297609880435
 20
415.7169374189314
 30
0.0
 11
674.9358861684174
 21
411.8230625993054
 31
0.0
  0
LINE
  5
E6
330
2
100
AcDbEntity
  8
-VERGLASUNG
100
AcDbLine
 10
653.7371755940035
 20
429.3230625993061
 30
0.0
 11
649.8433007743774
 21
425.42918777968
 31
0.0
  0
LINE
  5
E7
330
2
100
AcDbEntity
  8
-VERGLASUNG
100
AcDbLine
 10
656.9547610299942
 20
415.7169374189314
 30
0.0
 11
653.0608862103681
 21
411.8230625993054
 31
0.0
  0
LINE
  5
E8
330
2
100
AcDbEntity
  8
-VERGLASUNG
100
AcDbLine
 10
655.3922610299942
 20
415.7169374189314
 30
0.0
 11
651.4983862103681
 21
411.8230625993054
 31
0.0
  0
LINE
  5
E9
330
2
100
AcDbEntity
  8
-VERGLASUNG
100
AcDbLine
 10
653.8297610299942
 20
415.7169374189314
 30
0.0
 11
649.9358862103681
 21
411.8230625993054
 31
0.0
  0
LINE
  5
EA
330
2
100
AcDbEntity
  8
-VERGLASUNG
100
AcDbLine
 10
675.6121755520528
 20
429.3230625993061
 30
0.0
 11
671.7183007324267
 21
425.42918777968
 31
0.0
  0
LINE
  5
EB
330
2
100
AcDbEntity
  8
-VERGLASUNG
100
AcDbLine
 10
681.9547609880435
 20
415.7169374189314
 30
0.0
 11
678.0608861684174
 21
411.8230625993054
 31
0.0
  0
LINE
  5
EC
330
2
100
AcDbEntity
  8
-VERGLASUNG
100
AcDbLine
 10
680.3922609880435
 20
415.7169374189314
 30
0.0
 11
676.4983861684174
 21
411.8230625993054
 31
0.0
  0
LINE
  5
ED
330
2
100
AcDbEntity
  8
-VERGLASUNG
100
AcDbLine
 10
700.6121755808128
 20
429.3230626700171
 30
0.0
 11
696.7183006904761
 21
425.4291877796803
 31
0.0
  0
LINE
  5
EE
330
2
100
AcDbEntity
  8
-NORMTEIL_VERDECKT
100
AcDbLine
 10
729.5972088437565
 20
485.3230625993062
 30
0.0
 11
726.0972088437568
 21
485.3230625993062
 31
0.0
  0
LWPOLYLINE
  5
EF
330
2
100
AcDbEntity
  8
-NORMTEIL_VERDECKT
100
AcDbPolyline
 90
        5
 70
     0
 43
0.0
 10
729.5972088437565
 20
489.3230625993062
 10
729.5972088437565
 20
485.3230625993062
 10
727.8472088437565
 20
484.3230625993062
 10
726.0972088437568
 20
485.3230625993062
 10
726.0972088437565
 20
489.3230625993062
  0
LWPOLYLINE
  5
F0
330
2
100
AcDbEntity
  8
-NORMTEIL_VERDECKT
100
AcDbPolyline
 90
        5
 70
     0
 43
0.0
 10
719.0972088437566
 20
489.3230625993062
 10
719.0972088437566
 20
485.3230625993062
 10
717.3472088437566
 20
484.3230625993062
 10
715.5972088437567
 20
485.3230625993062
 10
715.5972088437565
 20
489.3230625993062
  0
LINE
  5
F1
330
2
100
AcDbEntity
  8
-NORMTEIL_VERDECKT
100
AcDbLine
 10
719.0972088437566
 20
485.3230625993062
 30
0.0
 11
715.5972088437567
 21
485.3230625993062
 31
0.0
  0
LINE
  5
F2
330
2
100
AcDbEntity
  8
-VERGLASUNG
100
AcDbLine
 10
706.9547610168036
 20
415.7169374896424
 30
0.0
 11
703.0608861264668
 21
411.8230625993057
 31
0.0
  0
LINE
  5
F3
330
2
100
AcDbEntity
  8
-VERGLASUNG
100
AcDbLine
 10
750.6121756383329
 20
429.3230628114389
 30
0.0
 11
746.7183007479961
 21
425.4291879211022
 31
0.0
  0
LINE
  5
F4
330
2
100
AcDbEntity
  8
-VERGLASUNG
100
AcDbLine
 10
752.1746756383329
 20
429.3230628114389
 30
0.0
 11
748.2808007479961
 21
425.4291879211019
 31
0.0
  0
DIMENSION
  5
F5
330
2
100
AcDbEntity
  8
-TEXT3
100
AcDbDimension
  2
*D7
 10
791.9694158348662
 20
459.3230625993062
 30
0.0
 11
791.9694158348661
 21
468.6607736245939
 31
0.0
 70
   128
  1
%%c<>
 71
     5
 42
12.0
  3
1-1
100
AcDbAlignedDimension
 13
770.3672088437561
 23
447.3230625993062
 33
0.0
 14
770.3672088437561
 24
459.3230625993062
 34
0.0
 50
270.0
100
AcDbRotatedDimension
  0
DIMENSION
  5
103
330
2
100
AcDbEntity
  8
-TEXT2
100
AcDbDimension
  2
*D8
 10
791.9694158348662
 20
432.3430625993053
 30
0.0
 11
791.9694158348661
 21
430.8330625993058
 31
0.0
 70
   128
 71
     5
 42
3.019999999999299
  3
1-1
100
AcDbAlignedDimension
 13
778.9496852256283
 23
429.3230625993061
 33
0.0
 14
778.9496852256283
 24
432.3430625993053
 34
0.0
 50
90.0
100
AcDbRotatedDimension
  0
DIMENSION
  5
111
330
2
100
AcDbEntity
  8
-TEXT3
100
AcDbDimension
  2
*D9
 10
791.9694158348661
 20
411.8230625993054
 30
0.0
 11
788.3841498048524
 21
420.5730625993059
 31
0.0
  1
G
 71
     5
 42
17.50000000000068
  3
1-1
100
AcDbAlignedDimension
 13
778.9496852256283
 23
429.3230625993061
 33
0.0
 14
778.9496852256283
 24
411.8230625993054
 34
0.0
 50
270.0
100
AcDbRotatedDimension
  0
LINE
  5
11E
330
2
100
AcDbEntity
  8
-VERGLASUNG
100
AcDbLine
 10
780.3922611030839
 20
415.716937701775
 30
0.0
 11
776.4983862127469
 21
411.8230628114385
 31
0.0
  0
LINE
  5
11F
330
2
100
AcDbEntity
  8
-VERGLASUNG
100
AcDbLine
 10
781.9547611030839
 20
415.7169377017752
 30
0.0
 11
778.0608862127469
 21
411.8230628114385
 31
0.0
  0
LINE
  5
120
330
2
100
AcDbEntity
  8
-VERGLASUNG
100
AcDbLine
 10
775.6121756670927
 20
429.3230628821499
 30
0.0
 11
771.7183007767562
 21
425.4291879918131
 31
0.0
  0
LINE
  5
121
330
2
100
AcDbEntity
  8
-VERGLASUNG
100
AcDbLine
 10
778.7371756670927
 20
429.3230628821499
 30
0.0
 11
774.8433007767562
 21
425.4291879918128
 31
0.0
  0
LINE
  5
122
330
2
100
AcDbEntity
  8
-VERGLASUNG
100
AcDbLine
 10
777.1746756670927
 20
429.3230628821499
 30
0.0
 11
773.2808007767562
 21
425.4291879918128
 31
0.0
  0
LINE
  5
123
330
2
100
AcDbEntity
  8
-VERGLASUNG
100
AcDbLine
 10
778.8297611030839
 20
415.7169377017752
 30
0.0
 11
774.9358862127469
 21
411.8230628114385
 31
0.0
  0
CIRCLE
  5
124
330
2
100
AcDbEntity
  8
-NORMTEIL_VERDECKT
100
AcDbCircle
 10
554.327208843757
 20
581.0154091494314
 30
0.0
 40
26.0
  0
CIRCLE
  5
125
330
2
100
AcDbEntity
  8
-PROFILAUSSENKANTET
100
AcDbCircle
 10
561.327208843757
 20
581.0154091494314
 30
0.0
 40
1.75
  0
CIRCLE
  5
126
330
2
100
AcDbEntity
  8
-PROFILAUSSENKANTET
100
AcDbCircle
 10
550.827208843757
 20
574.9532313229403
 30
0.0
 40
1.75
  0
CIRCLE
  5
127
330
2
100
AcDbEntity
  8
-PROFILAUSSENKANTET
100
AcDbCircle
 10
550.8272088437568
 20
587.0775869759224
 30
0.0
 40
1.75
  0
HATCH
  5
128
330
2
100
AcDbEntity
  8
-SCHRAFFUR
100
AcDbHatch
 10
0.0
 20
0.0
 30
0.0
210
0.0
220
0.0
230
1.0
  2
SOLID
 70
     1
 71
     1
 91
        2
 92
       16
 93
        1
 72
     2
 10
554.327208843757
 20
581.0154091494314
 40
13.0
 50
0.0
 51
360.0
 73
     1
 97
        1
330
129
 92
        1
 93
        1
 72
     2
 10
554.327208843757
 20
581.0154091494314
 40
15.82842712474638
 50
0.0
 51
360.0
 73
     1
 97
        1
330
12A
 75
     0
 76
     1
 98
        1
 10
442.0191903507298
 20
525.753344209057
  0
CIRCLE
  5
129
102
{ACAD_REACTORS
330
128
102
}
330
2
100
AcDbEntity
  8
-PROFILAUSSENKANTET
100
AcDbCircle
 10
554.327208843757
 20
581.0154091494314
 30
0.0
 40
13.0
  0
CIRCLE
  5
12A
102
{ACAD_REACTORS
330
128
102
}
330
2
100
AcDbEntity
  8
-DICHTUNG
100
AcDbCircle
 10
554.327208843757
 20
581.0154091494314
 30
0.0
 40
15.82842712474638
  0
CIRCLE
  5
12B
102
{ACAD_REACTORS
330
12D
102
}
330
2
100
AcDbEntity
  8
-DICHTUNG
100
AcDbCircle
 10
724.327208843757
 20
581.0154091494314
 30
0.0
 40
15.82842712474638
  0
CIRCLE
  5
12C
102
{ACAD_REACTORS
330
12D
102
}
330
2
100
AcDbEntity
  8
-PROFILAUSSENKANTET
100
AcDbCircle
 10
724.327208843757
 20
581.0154091494314
 30
0.0
 40
13.0
  0
HATCH
  5
12D
330
2
100
AcDbEntity
  8
-SCHRAFFUR
100
AcDbHatch
 10
0.0
 20
0.0
 30
0.0
210
0.0
220
0.0
230
1.0
  2
SOLID
 70
     1
 71
     1
 91
        2
 92
       16
 93
        1
 72
     2
 10
724.327208843757
 20
581.0154091494314
 40
13.0
 50
0.0
 51
360.0
 73
     1
 97
        1
330
12C
 92
        1
 93
        1
 72
     2
 10
724.327208843757
 20
581.0154091494314
 40
15.82842712474638
 50
0.0
 51
360.0
 73
     1
 97
        1
330
12B
 75
     0
 76
     1
 98
        1
 10
612.0191903507297
 20
525.753344209057
  0
CIRCLE
  5
12E
330
2
100
AcDbEntity
  8
-NORMTEIL_VERDECKT
100
AcDbCircle
 10
724.327208843757
 20
581.0154091494314
 30
0.0
 40
26.0
  0
CIRCLE
  5
12F
330
2
100
AcDbEntity
  8
-PROFILAUSSENKANTET
100
AcDbCircle
 10
720.8272088437568
 20
587.0775869759224
 30
0.0
 40
1.75
  0
CIRCLE
  5
130
330
2
100
AcDbEntity
  8
-PROFILAUSSENKANTET
100
AcDbCircle
 10
720.827208843757
 20
574.9532313229403
 30
0.0
 40
1.75
  0
CIRCLE
  5
131
330
2
100
AcDbEntity
  8
-PROFILAUSSENKANTET
100
AcDbCircle
 10
731.327208843757
 20
581.0154091494314
 30
0.0
 40
1.75
  0
DIMENSION
  5
132
330
2
100
AcDbEntity
  8
-TEXT3
100
AcDbDimension
  2
*D12
 10
737.327208843757
 20
399.833331028373
 30
0.0
 11
724.0799641323258
 21
399.833331028373
 31
0.0
 70
   128
  1
%%c<>
 71
     5
 42
26.0
  3
1-1
100
AcDbAlignedDimension
 13
711.327208843757
 23
411.8230625993055
 33
0.0
 14
737.327208843757
 24
411.8230625993055
 34
0.0
100
AcDbRotatedDimension
  0
DIMENSION
  5
13F
330
2
100
AcDbEntity
  8
-SCHRAFFUR
100
AcDbDimension
  2
*D11
 10
750.3472088437566
 20
389.496352087168
 30
0.0
 11
724.3472088437565
 21
393.1890533149988
 31
0.0
  1
%%c<>
 71
     5
 42
52.0
  3
1-1
100
AcDbAlignedDimension
 13
698.3472088437565
 23
411.8230625993055
 33
0.0
 14
750.3472088437566
 24
411.8230625993055
 34
0.0
 50
180.0
100
AcDbRotatedDimension
  0
LINE
  5
14C
330
2
100
AcDbEntity
  8
-NORMTEIL_VERDECKT
100
AcDbLine
 10
729.577208843757
 20
414.8230625993059
 30
0.0
 11
733.077208843757
 21
414.8230625993059
 31
0.0
  0
LWPOLYLINE
  5
14D
330
2
100
AcDbEntity
  8
-NORMTEIL_VERDECKT
100
AcDbPolyline
 90
        5
 70
     0
 43
0.0
 10
729.577208843757
 20
411.823062599306
 10
729.577208843757
 20
414.8230625993059
 10
731.327208843757
 20
415.823062599306
 10
733.077208843757
 20
414.8230625993059
 10
733.077208843757
 20
411.823062599306
  0
LWPOLYLINE
  5
14E
330
2
100
AcDbEntity
  8
-NORMTEIL_VERDECKT
100
AcDbPolyline
 90
        4
 70
     0
 43
0.0
 10
711.327208843757
 20
411.8230625993055
 10
737.327208843757
 20
411.8230625993055
 10
733.327208843757
 20
415.8230625993055
 10
715.327208843757
 20
415.8230625993055
  0
LWPOLYLINE
  5
14F
330
2
100
AcDbEntity
  8
-NORMTEIL_VERDECKT
100
AcDbPolyline
 90
        4
 70
     0
 43
0.0
 10
727.9397088437569
 20
432.3230625993062
 10
733.327208843757
 20
432.3230625993062
 10
733.327208843757
 20
417.8230625993055
 10
720.8687088437571
 20
417.8230625993055
  0
INSERT
  5
150
330
2
100
AcDbEntity
  8
-TEXT2
100
AcDbBlockReference
  2
A$C12D21FE6
 10
720.3272088856188
 20
426.8230626605383
 30
0.0
 41
-1.0
 50
180.0
  0
LWPOLYLINE
  5
158
330
2
100
AcDbEntity
  8
-NORMTEIL_VERDECKT
100
AcDbPolyline
 90
        4
 70
     1
 43
0.0
 10
733.327208843757
 20
429.3230625993061
 10
734.827208843757
 20
429.3230625993061
 10
734.827208843757
 20
417.8230625993055
 10
733.327208843757
 20
417.8230625993055
  0
LWPOLYLINE
  5
159
330
2
100
AcDbEntity
  8
-NORMTEIL_VERDECKT
100
AcDbPolyline
 90
        7
 70
     0
 43
0.0
 10
737.327208843757
 20
411.8230625993055
 10
740.1556359685032
 20
411.8230625993055
 10
735.327208843757
 20
416.6514897240516
 10
735.327208843757
 20
417.8230625993055
 10
733.327208843757
 20
417.8230625993055
 10
733.327208843757
 20
415.8230625993055
 10
737.327208843757
 20
411.8230625993055
  0
LWPOLYLINE
  5
15A
330
2
100
AcDbEntity
  8
-NORMTEIL_VERDECKT
100
AcDbPolyline
 90
        7
 70
     0
 43
0.0
 10
711.327208843757
 20
411.8230625993055
 10
708.4987817190108
 20
411.8230625993055
 10
713.327208843757
 20
416.6514897240516
 10
713.327208843757
 20
417.8230625993055
 10
715.327208843757
 20
417.8230625993055
 10
715.327208843757
 20
415.8230625993055
 10
711.327208843757
 20
411.8230625993055
  0
LWPOLYLINE
  5
15B
330
2
100
AcDbEntity
  8
-NORMTEIL_VERDECKT
100
AcDbPolyline
 90
        4
 70
     1
 43
0.0
 10
715.327208843757
 20
429.3230625993061
 10
713.827208843757
 20
429.3230625993061
 10
713.827208843757
 20
417.8230625993055
 10
715.327208843757
 20
417.8230625993055
  0
LWPOLYLINE
  5
15C
330
2
100
AcDbEntity
  8
-NORMTEIL_VERDECKT
100
AcDbPolyline
 90
        4
 70
     0
 43
0.0
 10
720.8687088437571
 20
417.8230625993055
 10
715.327208843757
 20
417.8230625993055
 10
715.327208843757
 20
432.3230625993062
 10
727.9397088437569
 20
432.3230625993062
  0
LINE
  5
15D
330
2
100
AcDbEntity
  8
-NORMTEIL_VERDECKT
100
AcDbLine
 10
719.0552276797293
 20
414.8230625993055
 30
0.0
 11
722.5552276797288
 21
414.8230625993055
 31
0.0
  0
LWPOLYLINE
  5
15E
330
2
100
AcDbEntity
  8
-NORMTEIL_VERDECKT
100
AcDbPolyline
 90
        5
 70
     0
 43
0.0
 10
719.0552276797293
 20
411.8230625993055
 10
719.0552276797293
 20
414.8230625993055
 10
720.8272088437574
 20
415.8230625993055
 10
722.5552276797288
 20
414.8230625993055
 10
722.5552276797288
 20
411.8230625993055
  0
DIMENSION
  5
15F
330
2
100
AcDbEntity
  8
-SCHRAFFUR
100
AcDbDimension
  2
*D14
 10
580.3072088437574
 20
389.496352087168
 30
0.0
 11
554.3072088437575
 21
393.1890533149988
 31
0.0
  1
%%c<>
 71
     5
 42
52.0
  3
1-1
100
AcDbAlignedDimension
 13
528.3072088437575
 23
411.8230625993055
 33
0.0
 14
580.3072088437574
 24
411.8230625993055
 34
0.0
 50
180.0
100
AcDbRotatedDimension
  0
DIMENSION
  5
16C
330
2
100
AcDbEntity
  8
-TEXT3
100
AcDbDimension
  2
*D13
 10
567.2872088437579
 20
399.833331028373
 30
0.0
 11
554.0399641323268
 21
399.833331028373
 31
0.0
 70
   128
  1
%%c<>
 71
     5
 42
26.0
  3
1-1
100
AcDbAlignedDimension
 13
541.287208843758
 23
411.8230625993055
 33
0.0
 14
567.2872088437579
 24
411.8230625993055
 34
0.0
100
AcDbRotatedDimension
  0
LWPOLYLINE
  5
179
330
2
100
AcDbEntity
  8
-NORMTEIL_VERDECKT
100
AcDbPolyline
 90
        5
 70
     0
 43
0.0
 10
549.0152276797302
 20
411.8230625993055
 10
549.0152276797302
 20
414.8230625993055
 10
550.7872088437584
 20
415.8230625993055
 10
552.5152276797298
 20
414.8230625993055
 10
552.5152276797298
 20
411.8230625993055
  0
LINE
  5
17A
330
2
100
AcDbEntity
  8
-NORMTEIL_VERDECKT
100
AcDbLine
 10
549.0152276797302
 20
414.8230625993055
 30
0.0
 11
552.5152276797298
 21
414.8230625993055
 31
0.0
  0
LWPOLYLINE
  5
17B
330
2
100
AcDbEntity
  8
-NORMTEIL_VERDECKT
100
AcDbPolyline
 90
        4
 70
     0
 43
0.0
 10
550.828708843758
 20
417.8230625993055
 10
545.287208843758
 20
417.8230625993055
 10
545.287208843758
 20
432.3230625993062
 10
557.8997088437579
 20
432.3230625993062
  0
LWPOLYLINE
  5
17C
330
2
100
AcDbEntity
  8
-NORMTEIL_VERDECKT
100
AcDbPolyline
 90
        4
 70
     1
 43
0.0
 10
545.287208843758
 20
429.3230625993061
 10
543.7872088437579
 20
429.3230625993061
 10
543.7872088437579
 20
417.8230625993055
 10
545.287208843758
 20
417.8230625993055
  0
LWPOLYLINE
  5
17D
330
2
100
AcDbEntity
  8
-NORMTEIL_VERDECKT
100
AcDbPolyline
 90
        7
 70
     0
 43
0.0
 10
541.287208843758
 20
411.8230625993055
 10
538.4587817190118
 20
411.8230625993055
 10
543.2872088437579
 20
416.6514897240516
 10
543.2872088437579
 20
417.8230625993055
 10
545.287208843758
 20
417.8230625993055
 10
545.287208843758
 20
415.8230625993055
 10
541.287208843758
 20
411.8230625993055
  0
LWPOLYLINE
  5
17E
330
2
100
AcDbEntity
  8
-NORMTEIL_VERDECKT
100
AcDbPolyline
 90
        7
 70
     0
 43
0.0
 10
567.2872088437579
 20
411.8230625993055
 10
570.1156359685041
 20
411.8230625993055
 10
565.287208843758
 20
416.6514897240516
 10
565.287208843758
 20
417.8230625993055
 10
563.2872088437579
 20
417.8230625993055
 10
563.2872088437579
 20
415.8230625993055
 10
567.2872088437579
 20
411.8230625993055
  0
LWPOLYLINE
  5
17F
330
2
100
AcDbEntity
  8
-NORMTEIL_VERDECKT
100
AcDbPolyline
 90
        4
 70
     1
 43
0.0
 10
563.2872088437579
 20
429.3230625993061
 10
564.7872088437579
 20
429.3230625993061
 10
564.7872088437579
 20
417.8230625993055
 10
563.2872088437579
 20
417.8230625993055
  0
INSERT
  5
180
330
2
100
AcDbEntity
  8
-TEXT2
100
AcDbBlockReference
  2
A$C12D21FE6
 10
550.2872088856197
 20
426.8230626605383
 30
0.0
 41
-1.0
 50
180.0
  0
LWPOLYLINE
  5
181
330
2
100
AcDbEntity
  8
-NORMTEIL_VERDECKT
100
AcDbPolyline
 90
        4
 70
     0
 43
0.0
 10
557.8997088437579
 20
432.3230625993062
 10
563.2872088437579
 20
432.3230625993062
 10
563.2872088437579
 20
417.8230625993055
 10
550.828708843758
 20
417.8230625993055
  0
LWPOLYLINE
  5
182
330
2
100
AcDbEntity
  8
-NORMTEIL_VERDECKT
100
AcDbPolyline
 90
        4
 70
     0
 43
0.0
 10
541.287208843758
 20
411.8230625993055
 10
567.2872088437579
 20
411.8230625993055
 10
563.2872088437579
 20
415.8230625993055
 10
545.287208843758
 20
415.8230625993055
  0
LWPOLYLINE
  5
183
330
2
100
AcDbEntity
  8
-NORMTEIL_VERDECKT
100
AcDbPolyline
 90
        5
 70
     0
 43
0.0
 10
559.537208843758
 20
411.823062599306
 10
559.537208843758
 20
414.8230625993059
 10
561.287208843758
 20
415.823062599306
 10
563.037208843758
 20
414.8230625993059
 10
563.037208843758
 20
411.823062599306
  0
LINE
  5
184
330
2
100
AcDbEntity
  8
-NORMTEIL_VERDECKT
100
AcDbLine
 10
559.537208843758
 20
414.8230625993059
 30
0.0
 11
563.037208843758
 21
414.8230625993059
 31
0.0
  0
ENDSEC
  0
SECTION
  2
OBJECTS
  0
DICTIONARY
  5
7
330
0
100
AcDbDictionary
281
     1
  3
ACAD_COLOR
350
19F
  3
ACAD_GROUP
350
19B
  3
ACAD_LAYOUT
350
187
  3
ACAD_MATERIAL
350
19E
  3
ACAD_MLINESTYLE
350
19C
  3
ACAD_PLOTSETTINGS
350
19D
  3
ACAD_PLOTSTYLENAME
350
6
  3
ACDBHEADERROUNDTRIPXREC
350
1A5
  3
AcDbVariableDictionary
350
1A1
  0
DICTIONARY
  5
18D
330
18C
100
AcDbDictionary
280
     1
281
     1
  3
ACAD_LAYERSTATES
360
18E
  0
DICTIONARY
  5
19F
102
{ACAD_REACTORS
330
7
102
}
330
7
100
AcDbDictionary
281
     1
  0
DICTIONARY
  5
19B
102
{ACAD_REACTORS
330
7
102
}
330
7
100
AcDbDictionary
281
     1
  0
DICTIONARY
  5
187
102
{ACAD_REACTORS
330
7
102
}
330
7
100
AcDbDictionary
281
     1
  3
Layout1
350
18B
  3
Model
350
186
  0
DICTIONARY
  5
19E
102
{ACAD_REACTORS
330
7
102
}
330
7
100
AcDbDictionary
281
     1
  0
DICTIONARY
  5
19C
102
{ACAD_REACTORS
330
7
102
}
330
7
100
AcDbDictionary
281
     1
  3
STANDARD
350
1A0
  0
DICTIONARY
  5
19D
102
{ACAD_REACTORS
330
7
102
}
330
7
100
AcDbDictionary
281
     1
  0
ACDBDICTIONARYWDFLT
  5
6
102
{ACAD_REACTORS
330
7
102
}
330
7
100
AcDbDictionary
281
     1
  3
Normal
350
5
100
AcDbDictionaryWithDefault
340
5
  0
DICTIONARY
  5
1A5
102
{ACAD_REACTORS
330
7
102
}
330
7
100
AcDbDictionary
281
     1
  3
COLORDICT
350
1A7
  3
MATERIALDICT
350
1A6
  0
DICTIONARY
  5
1A1
102
{ACAD_REACTORS
330
7
102
}
330
7
100
AcDbDictionary
281
     1
  3
DIMASSOC
350
1A3
  3
HIDETEXT
350
1A2
  3
PROJECTNAME
350
1A4
  0
DICTIONARY
  5
18E
102
{ACAD_REACTORS
330
18D
102
}
330
18D
100
AcDbDictionary
281
     1
  0
LAYOUT
  5
18B
102
{ACAD_XDICTIONARY
360
1AB
102
}
102
{ACAD_REACTORS
330
187
102
}
330
187
100
AcDbPlotSettings
  1

  2
\\pc02\HP
  4

  6

 40
0.0
 41
0.0
 42
0.0
 43
0.0
 44
0.0
 45
0.0
 46
0.0
 47
0.0
 48
0.0
 49
0.0
140
0.0
141
0.0
142
1.0
143
1.0
 70
   688
 72
     0
 73
     0
 74
     5
  7
monochrome.ctb
 75
    16
147
1.0
148
0.0
149
0.0
100
AcDbLayout
  1
Layout1
 70
     1
 71
     1
 10
0.0
 20
0.0
 11
420.0
 21
297.0
 12
0.0
 22
0.0
 32
0.0
 14
0.0
 24
0.0
 34
0.0
 15
1189.0
 25
841.0
 35
0.0
146
0.0
 13
0.0
 23
0.0
 33
0.0
 16
1.0
 26
0.0
 36
0.0
 17
0.0
 27
1.0
 37
0.0
 76
     0
330
188
  0
LAYOUT
  5
186
102
{ACAD_XDICTIONARY
360
1A9
102
}
102
{ACAD_REACTORS
330
187
102
}
330
187
100
AcDbPlotSettings
  1

  2
HP DeskJet 1220C
  4
A4
  6

 40
4.180416584014892
 41
13.4937515258789
 42
4.180404663085937
 43
3.67242431640625
 44
209.9733276367187
 45
297.0106506347656
 46
0.0
 47
0.0
 48
481.1978817096998
 49
309.4654971710613
140
768.1978817096998
141
509.4654971710613
142
1.0
143
1.025569649759302
 70
 11952
 72
     1
 73
     3
 74
     4
  7
monochrome.ctb
 75
     0
147
0.9750678564197924
148
-481.1978817096998
149
-309.4654971710613
100
AcDbLayout
  1
Model
 70
     1
 71
     0
 10
0.0
 20
0.0
 11
12.0
 21
9.0
 12
0.0
 22
0.0
 32
0.0
 14
0.0
 24
0.0
 34
0.0
 15
0.0
 25
0.0
 35
0.0
146
0.0
 13
0.0
 23
0.0
 33
0.0
 16
1.0
 26
0.0
 36
0.0
 17
0.0
 27
1.0
 37
0.0
 76
     0
330
2
  0
MLINESTYLE
  5
1A0
102
{ACAD_REACTORS
330
19C
102
}
330
19C
100
AcDbMlineStyle
  2
STANDARD
 70
     0
  3

 62
     0
 51
90.0
 52
90.0
 71
     2
 49
0.5
 62
   256
  6
BYLAYER
 49
-0.5
 62
   256
  6
BYLAYER
  0
ACDBPLACEHOLDER
  5
5
102
{ACAD_REACTORS
330
6
102
}
330
6
  0
XRECORD
  5
1A7
102
{ACAD_REACTORS
330
1A5
102
}
330
1A5
100
AcDbXrecord
280
     1
340
19F
  0
XRECORD
  5
1A6
102
{ACAD_REACTORS
330
1A5
102
}
330
1A5
100
AcDbXrecord
280
     1
340
19E
  0
DICTIONARYVAR
  5
1A3
102
{ACAD_REACTORS
330
1A1
102
}
330
1A1
100
DictionaryVariables
280
     0
  1
1
  0
DICTIONARYVAR
  5
1A2
102
{ACAD_REACTORS
330
1A1
102
}
330
1A1
100
DictionaryVariables
280
     0
  1
1
  0
DICTIONARYVAR
  5
1A4
102
{ACAD_REACTORS
330
1A1
102
}
330
1A1
100
DictionaryVariables
280
     0
  1

  0
DICTIONARY
  5
1AB
330
18B
100
AcDbDictionary
280
     1
281
     1
  3
ACAD_XREC_ROUNDTRIP
360
1AC
  0
DICTIONARY
  5
1A9
330
186
100
AcDbDictionary
280
     1
281
     1
  3
ACAD_XREC_ROUNDTRIP
360
1AA
  0
XRECORD
  5
1AC
102
{ACAD_REACTORS
330
1AB
102
}
330
1AB
100
AcDbXrecord
280
     1
102
SHADEPLOT
 70
     0
102
SHADEPLOTRESLEVEL
 70
     2
102
SHADEPLOTCUSTOMDPI
 70
   300
  0
XRECORD
  5
1AA
102
{ACAD_REACTORS
330
1A9
102
}
330
1A9
100
AcDbXrecord
280
     1
102
SHADEPLOT
 70
     0
102
SHADEPLOTRESLEVEL
 70
     2
102
SHADEPLOTCUSTOMDPI
 70
   300
  0
ENDSEC
  0
EOF
