  0
SECTION
  2
HEADER
  9
$ACADVER
  1
AC1015
  9
$ACADMAINTVER
 70
    18
  9
$DWGCODEPAGE
  3
ANSI_1252
  9
$INSBASE
 10
421.1785771780096
 20
450.2667582667103
 30
0.0
  9
$EXTMIN
 10
1.000000000000000E+20
 20
1.000000000000000E+20
 30
1.000000000000000E+20
  9
$EXTMAX
 10
0.0
 20
0.0
 30
0.0
  9
$LIMMIN
 10
0.0
 20
0.0
  9
$LIMMAX
 10
420.0
 20
297.0
  9
$ORTHOMODE
 70
     1
  9
$REGENMODE
 70
     1
  9
$FILLMODE
 70
     1
  9
$QTEXTMODE
 70
     0
  9
$MIRRTEXT
 70
     1
  9
$LTSCALE
 40
2.5
  9
$ATTMODE
 70
     1
  9
$TEXTSIZE
 40
2.5
  9
$TRACEWID
 40
1.0
  9
$TEXTSTYLE
  7
STANDARD
  9
$CLAYER
  8
-SCHRAFFUR
  9
$CELTYPE
  6
BYLAYER
  9
$CECOLOR
 62
   256
  9
$CELTSCALE
 40
1.0
  9
$DISPSILH
 70
     0
  9
$DIMSCALE
 40
96.0
  9
$DIMASZ
 40
2.0
  9
$DIMEXO
 40
2.0
  9
$DIMDLI
 40
2.0
  9
$DIMRND
 40
0.0
  9
$DIMDLE
 40
0.0
  9
$DIMEXE
 40
1.0
  9
$DIMTP
 40
0.0
  9
$DIMTM
 40
0.0
  9
$DIMTXT
 40
5.0
  9
$DIMCEN
 40
0.09
  9
$DIMTSZ
 40
0.0
  9
$DIMTOL
 70
     0
  9
$DIMLIM
 70
     0
  9
$DIMTIH
 70
     0
  9
$DIMTOH
 70
     0
  9
$DIMSE1
 70
     0
  9
$DIMSE2
 70
     0
  9
$DIMTAD
 70
     1
  9
$DIMZIN
 70
     9
  9
$DIMBLK
  1

  9
$DIMASO
 70
     1
  9
$DIMSHO
 70
     1
  9
$DIMPOST
  1

  9
$DIMAPOST
  1

  9
$DIMALT
 70
     0
  9
$DIMALTD
 70
     2
  9
$DIMALTF
 40
25.4
  9
$DIMLFAC
 40
1.0
  9
$DIMTOFL
 70
     0
  9
$DIMTVP
 40
0.0
  9
$DIMTIX
 70
     0
  9
$DIMSOXD
 70
     0
  9
$DIMSAH
 70
     0
  9
$DIMBLK1
  1

  9
$DIMBLK2
  1

  9
$DIMSTYLE
  2
1-1
  9
$DIMCLRD
 70
     2
  9
$DIMCLRE
 70
     2
  9
$DIMCLRT
 70
     3
  9
$DIMTFAC
 40
1.0
  9
$DIMGAP
 40
1.0
  9
$DIMJUST
 70
     0
  9
$DIMSD1
 70
     0
  9
$DIMSD2
 70
     0
  9
$DIMTOLJ
 70
     1
  9
$DIMTZIN
 70
     0
  9
$DIMALTZ
 70
     0
  9
$DIMALTTZ
 70
     0
  9
$DIMUPT
 70
     0
  9
$DIMDEC
 70
     1
  9
$DIMTDEC
 70
     1
  9
$DIMALTU
 70
     2
  9
$DIMALTTD
 70
     2
  9
$DIMTXSTY
  7
STANDARD
  9
$DIMAUNIT
 70
     0
  9
$DIMADEC
 70
     0
  9
$DIMALTRND
 40
0.0
  9
$DIMAZIN
 70
     0
  9
$DIMDSEP
 70
    46
  9
$DIMATFIT
 70
     2
  9
$DIMFRAC
 70
     0
  9
$DIMLDRBLK
  1

  9
$DIMLUNIT
 70
     2
  9
$DIMLWD
 70
    -2
  9
$DIMLWE
 70
    -2
  9
$DIMTMOVE
 70
     0
  9
$LUNITS
 70
     2
  9
$LUPREC
 70
     4
  9
$SKETCHINC
 40
1.0
  9
$FILLETRAD
 40
0.0
  9
$AUNITS
 70
     0
  9
$AUPREC
 70
     2
  9
$MENU
  1
.
  9
$ELEVATION
 40
0.0
  9
$PELEVATION
 40
0.0
  9
$THICKNESS
 40
0.0
  9
$LIMCHECK
 70
     0
  9
$CHAMFERA
 40
10.0
  9
$CHAMFERB
 40
10.0
  9
$CHAMFERC
 40
20.0
  9
$CHAMFERD
 40
0.0
  9
$SKPOLY
 70
     0
  9
$TDCREATE
 40
2452087.408717245
  9
$TDUCREATE
 40
2452087.367050579
  9
$TDUPDATE
 40
2453411.435097778
  9
$TDUUPDATE
 40
2453411.393431111
  9
$TDINDWG
 40
0.7343942014
  9
$TDUSRTIMER
 40
0.7343942014
  9
$USRTIMER
 70
     1
  9
$ANGBASE
 50
0.0
  9
$ANGDIR
 70
     0
  9
$PDMODE
 70
     0
  9
$PDSIZE
 40
0.0
  9
$PLINEWID
 40
0.0
  9
$SPLFRAME
 70
     0
  9
$SPLINETYPE
 70
     6
  9
$SPLINESEGS
 70
     8
  9
$HANDSEED
  5
23B
  9
$SURFTAB1
 70
     6
  9
$SURFTAB2
 70
     6
  9
$SURFTYPE
 70
     6
  9
$SURFU
 70
     6
  9
$SURFV
 70
     6
  9
$UCSBASE
  2

  9
$UCSNAME
  2

  9
$UCSORG
 10
0.0
 20
0.0
 30
0.0
  9
$UCSXDIR
 10
1.0
 20
0.0
 30
0.0
  9
$UCSYDIR
 10
0.0
 20
1.0
 30
0.0
  9
$UCSORTHOREF
  2

  9
$UCSORTHOVIEW
 70
     0
  9
$UCSORGTOP
 10
0.0
 20
0.0
 30
0.0
  9
$UCSORGBOTTOM
 10
0.0
 20
0.0
 30
0.0
  9
$UCSORGLEFT
 10
0.0
 20
0.0
 30
0.0
  9
$UCSORGRIGHT
 10
0.0
 20
0.0
 30
0.0
  9
$UCSORGFRONT
 10
0.0
 20
0.0
 30
0.0
  9
$UCSORGBACK
 10
0.0
 20
0.0
 30
0.0
  9
$PUCSBASE
  2

  9
$PUCSNAME
  2

  9
$PUCSORG
 10
0.0
 20
0.0
 30
0.0
  9
$PUCSXDIR
 10
1.0
 20
0.0
 30
0.0
  9
$PUCSYDIR
 10
0.0
 20
1.0
 30
0.0
  9
$PUCSORTHOREF
  2

  9
$PUCSORTHOVIEW
 70
     0
  9
$PUCSORGTOP
 10
0.0
 20
0.0
 30
0.0
  9
$PUCSORGBOTTOM
 10
0.0
 20
0.0
 30
0.0
  9
$PUCSORGLEFT
 10
0.0
 20
0.0
 30
0.0
  9
$PUCSORGRIGHT
 10
0.0
 20
0.0
 30
0.0
  9
$PUCSORGFRONT
 10
0.0
 20
0.0
 30
0.0
  9
$PUCSORGBACK
 10
0.0
 20
0.0
 30
0.0
  9
$USERI1
 70
     0
  9
$USERI2
 70
     0
  9
$USERI3
 70
     0
  9
$USERI4
 70
     0
  9
$USERI5
 70
     0
  9
$USERR1
 40
0.0
  9
$USERR2
 40
0.0
  9
$USERR3
 40
0.0
  9
$USERR4
 40
0.0
  9
$USERR5
 40
0.0
  9
$WORLDVIEW
 70
     1
  9
$SHADEDGE
 70
     3
  9
$SHADEDIF
 70
    70
  9
$TILEMODE
 70
     1
  9
$MAXACTVP
 70
    48
  9
$PINSBASE
 10
0.0
 20
0.0
 30
0.0
  9
$PLIMCHECK
 70
     0
  9
$PEXTMIN
 10
0.0
 20
0.0
 30
0.0
  9
$PEXTMAX
 10
1189.0
 20
841.0
 30
0.0
  9
$PLIMMIN
 10
0.0
 20
0.0
  9
$PLIMMAX
 10
420.0
 20
297.0
  9
$UNITMODE
 70
     0
  9
$VISRETAIN
 70
     1
  9
$PLINEGEN
 70
     0
  9
$PSLTSCALE
 70
     1
  9
$TREEDEPTH
 70
  3020
  9
$CMLSTYLE
  2
STANDARD
  9
$CMLJUST
 70
     0
  9
$CMLSCALE
 40
1.0
  9
$PROXYGRAPHICS
 70
     1
  9
$MEASUREMENT
 70
     0
  9
$CELWEIGHT
370
    -1
  9
$ENDCAPS
280
     0
  9
$JOINSTYLE
280
     0
  9
$LWDISPLAY
290
     0
  9
$INSUNITS
 70
     4
  9
$HYPERLINKBASE
  1

  9
$STYLESHEET
  1

  9
$XEDIT
290
     1
  9
$CEPSNTYPE
380
     0
  9
$PSTYLEMODE
290
     1
  9
$FINGERPRINTGUID
  2
{9588F985-4B3C-4C9C-BEE4-2544F6211083}
  9
$VERSIONGUID
  2
{27CDBE17-1C5D-4BD6-A8C4-AE83284E1C64}
  9
$EXTNAMES
290
     1
  9
$PSVPSCALE
 40
0.0
  9
$OLESTARTUP
290
     0
  0
ENDSEC
  0
SECTION
  2
CLASSES
  0
CLASS
  1
DICTIONARYVAR
  2
AcDbDictionaryVar
  3
ObjectDBX Classes
 90
        0
280
     0
281
     0
  0
CLASS
  1
ACDBDICTIONARYWDFLT
  2
AcDbDictionaryWithDefault
  3
ObjectDBX Classes
 90
        0
280
     0
281
     0
  0
CLASS
  1
ACDBPLACEHOLDER
  2
AcDbPlaceHolder
  3
ObjectDBX Classes
 90
        0
280
     0
281
     0
  0
CLASS
  1
LAYOUT
  2
AcDbLayout
  3
ObjectDBX Classes
 90
        0
280
     0
281
     0
  0
CLASS
  1
AEC_VARS_DWG_SETUP
  2
AecDbVarsDwgSetup
  3
AecBase40|Product Desc: Autodesk Architectural Desktop 2004 |Company: Autodesk,Inc. |WEB Address: www.autodesk.com
 90
    32897
280
     0
281
     0
  0
CLASS
  1
AEC_DISP_REP_CONFIG
  2
AecDbDispRepConfig
  3
AecBase40|Product Desc: Autodesk Architectural Desktop 2004 |Company: Autodesk,Inc. |WEB Address: www.autodesk.com
 90
    32897
280
     0
281
     0
  0
CLASS
  1
AEC_DISP_REP_SET
  2
AecDbDispRepSet
  3
AecBase40|Product Desc: Autodesk Architectural Desktop 2004 |Company: Autodesk,Inc. |WEB Address: www.autodesk.com
 90
    32897
280
     0
281
     0
  0
CLASS
  1
AEC_DISP_REP_2D_SECTION
  2
AecDbDispRep2dSection
  3
AecBase40|Product Desc: Autodesk Architectural Desktop 2004 |Company: Autodesk,Inc. |WEB Address: www.autodesk.com
 90
    32897
280
     0
281
     0
  0
CLASS
  1
AEC_DISP_REP_ANCHOR_BUB_TO_GRID
  2
AecDbDispRepAnchorBubToGrid
  3
AecStructureBase40|Product Desc: Autodesk Architectural Desktop 2004 |Company: Autodesk,Inc. |WEB Address: www.autodesk.com
 90
    32897
280
     0
281
     0
  0
CLASS
  1
AEC_DISP_REP_ANCHOR_BUB_TO_GRID_MODEL
  2
AecDbDispRepAnchorBubToGridMdl
  3
AecStructureBase40|Product Desc: Autodesk Architectural Desktop 2004 |Company: Autodesk,Inc. |WEB Address: www.autodesk.com
 90
    32897
280
     0
281
     0
  0
CLASS
  1
AEC_DISP_REP_ANCHOR_ENT_TO_NODE
  2
AecDbDispRepAnchorEntToNode
  3
AecBase40|Product Desc: Autodesk Architectural Desktop 2004 |Company: Autodesk,Inc. |WEB Address: www.autodesk.com
 90
    32897
280
     0
281
     0
  0
CLASS
  1
AEC_DISP_REP_AREA
  2
AecDbDispRepArea
  3
AecAreaCalculationBase40|Product Desc: Autodesk Architectural Desktop 2004 |Company: Autodesk,Inc. |WEB Address: www.autodesk.com
 90
    32897
280
     0
281
     0
  0
CLASS
  1
AEC_DISP_REP_AREAGROUP
  2
AecDbDispRepAreaGroup
  3
AecAreaCalculationBase40|Product Desc: Autodesk Architectural Desktop 2004 |Company: Autodesk,Inc. |WEB Address: www.autodesk.com
 90
    32897
280
     0
281
     0
  0
CLASS
  1
AEC_DISP_REP_BDG_ELEVLINE_MODEL
  2
AecDbDispRepBdgElevLineModel
  3
AecArchBase40|Product Desc: Autodesk Architectural Desktop 2004 |Company: Autodesk,Inc. |WEB Address: www.autodesk.com
 90
    32897
280
     0
281
     0
  0
CLASS
  1
AEC_DISP_REP_BDG_ELEVLINE_PLAN
  2
AecDbDispRepBdgElevLinePlan
  3
AecArchBase40|Product Desc: Autodesk Architectural Desktop 2004 |Company: Autodesk,Inc. |WEB Address: www.autodesk.com
 90
    32897
280
     0
281
     0
  0
CLASS
  1
AEC_DISP_REP_BDG_SECTIONLINE_MODEL
  2
AecDbDispRepBdgSectionLineModel
  3
AecArchBase40|Product Desc: Autodesk Architectural Desktop 2004 |Company: Autodesk,Inc. |WEB Address: www.autodesk.com
 90
    32897
280
     0
281
     0
  0
CLASS
  1
AEC_DISP_REP_BDG_SECTIONLINE_PLAN
  2
AecDbDispRepBdgSectionLinePlan
  3
AecArchBase40|Product Desc: Autodesk Architectural Desktop 2004 |Company: Autodesk,Inc. |WEB Address: www.autodesk.com
 90
    32897
280
     0
281
     0
  0
CLASS
  1
AEC_DISP_REP_BDG_SECTION_SUBDIV
  2
AecDbDispRepBdgSectionSubDiv
  3
AecArchBase40|Product Desc: Autodesk Architectural Desktop 2004 |Company: Autodesk,Inc. |WEB Address: www.autodesk.com
 90
    32897
280
     0
281
     0
  0
CLASS
  1
AEC_DISP_REP_CAMERA
  2
AecDbDispRepCamera
  3
AecBase40|Product Desc: Autodesk Architectural Desktop 2004 |Company: Autodesk,Inc. |WEB Address: www.autodesk.com
 90
    32897
280
     0
281
     0
  0
CLASS
  1
AEC_DISP_REP_CEILING_GRID
  2
AecDbDispRepCeilingGrid
  3
AecArchBase40|Product Desc: Autodesk Architectural Desktop 2004 |Company: Autodesk,Inc. |WEB Address: www.autodesk.com
 90
    33661
280
     0
281
     0
  0
CLASS
  1
AEC_DISP_REP_CEILING_GRID_MODEL
  2
AecDbDispRepCeilingGridModel
  3
AecArchBase40|Product Desc: Autodesk Architectural Desktop 2004 |Company: Autodesk,Inc. |WEB Address: www.autodesk.com
 90
    32897
280
     0
281
     0
  0
CLASS
  1
AEC_DISP_REP_CLIP_VOLUME_MODEL
  2
AecDbDispRepClipVolModel
  3
AecBase40|Product Desc: Autodesk Architectural Desktop 2004 |Company: Autodesk,Inc. |WEB Address: www.autodesk.com
 90
    32897
280
     0
281
     0
  0
CLASS
  1
AEC_DISP_REP_CLIP_VOLUME_PLAN
  2
AecDbDispRepClipVolPlan
  3
AecBase40|Product Desc: Autodesk Architectural Desktop 2004 |Company: Autodesk,Inc. |WEB Address: www.autodesk.com
 90
    32897
280
     0
281
     0
  0
CLASS
  1
AEC_DISP_REP_CLIP_VOLUME_RESULT_SUBDIV
  2
AecDbDispRepClipVolResSubDiv
  3
AecBase40|Product Desc: Autodesk Architectural Desktop 2004 |Company: Autodesk,Inc. |WEB Address: www.autodesk.com
 90
    32897
280
     0
281
     0
  0
CLASS
  1
AEC_DISP_REP_COLUMN_GRID
  2
AecDbDispRepColumnGrid
  3
AecStructureBase40|Product Desc: Autodesk Architectural Desktop 2004 |Company: Autodesk,Inc. |WEB Address: www.autodesk.com
 90
    32897
280
     0
281
     0
  0
CLASS
  1
AEC_DISP_REP_COLUMN_GRID_MODEL
  2
AecDbDispRepColumnGridModel
  3
AecStructureBase40|Product Desc: Autodesk Architectural Desktop 2004 |Company: Autodesk,Inc. |WEB Address: www.autodesk.com
 90
    32897
280
     0
281
     0
  0
CLASS
  1
AEC_DISP_REP_CURTAIN_WALL_LAYOUT_MODEL
  2
AecDbDispRepCurtainWallLayoutModel
  3
AecArchBase40|Product Desc: Autodesk Architectural Desktop 2004 |Company: Autodesk,Inc. |WEB Address: www.autodesk.com
 90
    32897
280
     0
281
     0
  0
CLASS
  1
AEC_DISP_REP_CURTAIN_WALL_LAYOUT_PLAN
  2
AecDbDispRepCurtainWallLayoutPlan
  3
AecArchBase40|Product Desc: Autodesk Architectural Desktop 2004 |Company: Autodesk,Inc. |WEB Address: www.autodesk.com
 90
    32897
280
     0
281
     0
  0
CLASS
  1
AEC_DISP_REP_CURTAIN_WALL_UNIT_MODEL
  2
AecDbDispRepCurtainWallUnitModel
  3
AecArchBase40|Product Desc: Autodesk Architectural Desktop 2004 |Company: Autodesk,Inc. |WEB Address: www.autodesk.com
 90
    32897
280
     0
281
     0
  0
CLASS
  1
AEC_DISP_REP_CURTAIN_WALL_UNIT_PLAN
  2
AecDbDispRepCurtainWallUnitPlan
  3
AecArchBase40|Product Desc: Autodesk Architectural Desktop 2004 |Company: Autodesk,Inc. |WEB Address: www.autodesk.com
 90
    32897
280
     0
281
     0
  0
CLASS
  1
AEC_DB_DISP_REP_DIM_GROUP_PLAN
  2
AecDbDispRepDimGroupPlan
  3
AecArchDACHBase40|Product Desc: Autodesk Architectural Desktop 2004 |Company: Autodesk,Inc. |WEB Address: www.autodesk.com
 90
    32897
280
     0
281
     0
  0
CLASS
  1
AEC_DISP_REP_DOOR_MODEL
  2
AecDbDispRepDoorModel
  3
AecArchBase40|Product Desc: Autodesk Architectural Desktop 2004 |Company: Autodesk,Inc. |WEB Address: www.autodesk.com
 90
    32897
280
     0
281
     0
  0
CLASS
  1
AEC_DISP_REP_DOOR_PLAN
  2
AecDbDispRepDoorPlan
  3
AecArchBase40|Product Desc: Autodesk Architectural Desktop 2004 |Company: Autodesk,Inc. |WEB Address: www.autodesk.com
 90
    32897
280
     0
281
     0
  0
CLASS
  1
AEC_DISP_REP_DOOR_THRESHOLD_PLAN
  2
AecDbDispRepDoorThresholdPlan
  3
AecArchBase40|Product Desc: Autodesk Architectural Desktop 2004 |Company: Autodesk,Inc. |WEB Address: www.autodesk.com
 90
    32897
280
     0
281
     0
  0
CLASS
  1
AEC_DISP_REP_EDITINPLACEPROFILE
  2
AecDbDispRepEditInPlaceProfile
  3
AecBase40|Product Desc: Autodesk Architectural Desktop 2004 |Company: Autodesk,Inc. |WEB Address: www.autodesk.com
 90
    32897
280
     0
281
     0
  0
CLASS
  1
AEC_DISP_REP_ENT_REF
  2
AecDbDispRepEntRef
  3
AecBase40|Product Desc: Autodesk Architectural Desktop 2004 |Company: Autodesk,Inc. |WEB Address: www.autodesk.com
 90
    32897
280
     0
281
     0
  0
CLASS
  1
AEC_DISP_REP_LAYOUT_CURVE
  2
AecDbDispRepLayoutCurve
  3
AecBase40|Product Desc: Autodesk Architectural Desktop 2004 |Company: Autodesk,Inc. |WEB Address: www.autodesk.com
 90
    32897
280
     0
281
     0
  0
CLASS
  1
AEC_DISP_REP_LAYOUT_GRID2D
  2
AecDbDispRepLayoutGrid2d
  3
AecBase40|Product Desc: Autodesk Architectural Desktop 2004 |Company: Autodesk,Inc. |WEB Address: www.autodesk.com
 90
    32897
280
     0
281
     0
  0
CLASS
  1
AEC_DISP_REP_LAYOUT_GRID3D
  2
AecDbDispRepLayoutGrid3d
  3
AecBase40|Product Desc: Autodesk Architectural Desktop 2004 |Company: Autodesk,Inc. |WEB Address: www.autodesk.com
 90
    32897
280
     0
281
     0
  0
CLASS
  1
AEC_DISP_REP_MASKBLOCK_REF
  2
AecDbDispRepMaskBlockRef
  3
AecBase40|Product Desc: Autodesk Architectural Desktop 2004 |Company: Autodesk,Inc. |WEB Address: www.autodesk.com
 90
    32897
280
     0
281
     0
  0
CLASS
  1
AEC_DISP_REP_MASS_ELEM_MODEL
  2
AecDbDispRepMassElemModel
  3
AecBase40|Product Desc: Autodesk Architectural Desktop 2004 |Company: Autodesk,Inc. |WEB Address: www.autodesk.com
 90
    32897
280
     0
281
     0
  0
CLASS
  1
AEC_DISP_REP_MASS_ELEM_SCHEM
  2
AecDbDispRepMassElemSchem
  3
AecBase40|Product Desc: Autodesk Architectural Desktop 2004 |Company: Autodesk,Inc. |WEB Address: www.autodesk.com
 90
    32897
280
     0
281
     0
  0
CLASS
  1
AEC_DISP_REP_MASS_GROUP_MODEL
  2
AecDbDispRepMassGroupModel
  3
AecBase40|Product Desc: Autodesk Architectural Desktop 2004 |Company: Autodesk,Inc. |WEB Address: www.autodesk.com
 90
    32897
280
     0
281
     0
  0
CLASS
  1
AEC_DISP_REP_MASS_GROUP_PLAN
  2
AecDbDispRepMassGroupPlan
  3
AecBase40|Product Desc: Autodesk Architectural Desktop 2004 |Company: Autodesk,Inc. |WEB Address: www.autodesk.com
 90
    32897
280
     0
281
     0
  0
CLASS
  1
AEC_DISP_REP_MATERIAL
  2
AecDbDispRepMaterial
  3
AecBase40|Product Desc: Autodesk Architectural Desktop 2004 |Company: Autodesk,Inc. |WEB Address: www.autodesk.com
 90
    32897
280
     0
281
     0
  0
CLASS
  1
AEC_DISP_REP_MVBLOCK_REF
  2
AecDbDispRepMvBlockRef
  3
AecBase40|Product Desc: Autodesk Architectural Desktop 2004 |Company: Autodesk,Inc. |WEB Address: www.autodesk.com
 90
    32897
280
     0
281
     0
  0
CLASS
  1
AEC_DISP_REP_MVBLOCK_REF_MODEL
  2
AecDbDispRepMvBlockRefModel
  3
AecBase40|Product Desc: Autodesk Architectural Desktop 2004 |Company: Autodesk,Inc. |WEB Address: www.autodesk.com
 90
    32897
280
     0
281
     0
  0
CLASS
  1
AEC_DISP_REP_OPENING
  2
AecDbDispRepOpening
  3
AecArchBase40|Product Desc: Autodesk Architectural Desktop 2004 |Company: Autodesk,Inc. |WEB Address: www.autodesk.com
 90
    32897
280
     0
281
     0
  0
CLASS
  1
AEC_DISP_REP_OPENING_MODEL
  2
AecDbDispRepOpeningModel
  3
AecArchBase40|Product Desc: Autodesk Architectural Desktop 2004 |Company: Autodesk,Inc. |WEB Address: www.autodesk.com
 90
    32897
280
     0
281
     0
  0
CLASS
  1
AEC_DISP_REP_POLYGON_MODEL
  2
AecDbDispRepPolygonModel
  3
AecBase40|Product Desc: Autodesk Architectural Desktop 2004 |Company: Autodesk,Inc. |WEB Address: www.autodesk.com
 90
    32897
280
     0
281
     0
  0
CLASS
  1
AEC_DISP_REP_RAILING_MODEL
  2
AecDbDispRepRailingModel
  3
AecArchBase40|Product Desc: Autodesk Architectural Desktop 2004 |Company: Autodesk,Inc. |WEB Address: www.autodesk.com
 90
    32897
280
     0
281
     0
  0
CLASS
  1
AEC_DISP_REP_RAILING_PLAN
  2
AecDbDispRepRailingPlan
  3
AecArchBase40|Product Desc: Autodesk Architectural Desktop 2004 |Company: Autodesk,Inc. |WEB Address: www.autodesk.com
 90
    32897
280
     0
281
     0
  0
CLASS
  1
AEC_DISP_REP_ROOF_MODEL
  2
AecDbDispRepRoofModel
  3
AecArchBase40|Product Desc: Autodesk Architectural Desktop 2004 |Company: Autodesk,Inc. |WEB Address: www.autodesk.com
 90
    32897
280
     0
281
     0
  0
CLASS
  1
AEC_DISP_REP_ROOF_PLAN
  2
AecDbDispRepRoofPlan
  3
AecArchBase40|Product Desc: Autodesk Architectural Desktop 2004 |Company: Autodesk,Inc. |WEB Address: www.autodesk.com
 90
    32897
280
     0
281
     0
  0
CLASS
  1
AEC_DISP_REP_ROOFSLAB_MODEL
  2
AecDbDispRepRoofSlabModel
  3
AecArchBase40|Product Desc: Autodesk Architectural Desktop 2004 |Company: Autodesk,Inc. |WEB Address: www.autodesk.com
 90
    32897
280
     0
281
     0
  0
CLASS
  1
AEC_DISP_REP_ROOFSLAB_PLAN
  2
AecDbDispRepRoofSlabPlan
  3
AecArchBase40|Product Desc: Autodesk Architectural Desktop 2004 |Company: Autodesk,Inc. |WEB Address: www.autodesk.com
 90
    32897
280
     0
281
     0
  0
CLASS
  1
AEC_DISP_REP_SCHEDULE_TABLE
  2
AecDbDispRepScheduleTable
  3
AecSchedule40|Product Desc: Autodesk Architectural Desktop 2004 |Company: Autodesk,Inc. |WEB Address: www.autodesk.com
 90
    32897
280
     0
281
     0
  0
CLASS
  1
AEC_DISP_REP_SLAB_MODEL
  2
AecDbDispRepSlabModel
  3
AecArchBase40|Product Desc: Autodesk Architectural Desktop 2004 |Company: Autodesk,Inc. |WEB Address: www.autodesk.com
 90
    32897
280
     0
281
     0
  0
CLASS
  1
AEC_DISP_REP_SLAB_PLAN
  2
AecDbDispRepSlabPlan
  3
AecArchBase40|Product Desc: Autodesk Architectural Desktop 2004 |Company: Autodesk,Inc. |WEB Address: www.autodesk.com
 90
    32897
280
     0
281
     0
  0
CLASS
  1
AEC_DISP_REP_SLICE
  2
AecDbDispRepSlice
  3
AecBase40|Product Desc: Autodesk Architectural Desktop 2004 |Company: Autodesk,Inc. |WEB Address: www.autodesk.com
 90
    32897
280
     0
281
     0
  0
CLASS
  1
AEC_DISP_REP_SPACE_BOUNDARY_MODEL
  2
AecDbDispRepSpaceBoundaryModel
  3
AecArchBase40|Product Desc: Autodesk Architectural Desktop 2004 |Company: Autodesk,Inc. |WEB Address: www.autodesk.com
 90
    32897
280
     0
281
     0
  0
CLASS
  1
AEC_DISP_REP_SPACE_BOUNDARY_PLAN
  2
AecDbDispRepSpaceBoundaryPlan
  3
AecArchBase40|Product Desc: Autodesk Architectural Desktop 2004 |Company: Autodesk,Inc. |WEB Address: www.autodesk.com
 90
    32897
280
     0
281
     0
  0
CLASS
  1
AEC_DISP_REP_SPACE_MODEL
  2
AecDbDispRepSpaceModel
  3
AecArchBase40|Product Desc: Autodesk Architectural Desktop 2004 |Company: Autodesk,Inc. |WEB Address: www.autodesk.com
 90
    32897
280
     0
281
     0
  0
CLASS
  1
AEC_DISP_REP_SPACE_PLAN
  2
AecDbDispRepSpacePlan
  3
AecArchBase40|Product Desc: Autodesk Architectural Desktop 2004 |Company: Autodesk,Inc. |WEB Address: www.autodesk.com
 90
    32897
280
     0
281
     0
  0
CLASS
  1
AEC_DISP_REP_STAIR_MODEL
  2
AecDbDispRepStairModel
  3
AecArchBase40|Product Desc: Autodesk Architectural Desktop 2004 |Company: Autodesk,Inc. |WEB Address: www.autodesk.com
 90
    32897
280
     0
281
     0
  0
CLASS
  1
AEC_DISP_REP_STAIR_PLAN
  2
AecDbDispRepStairPlan
  3
AecArchBase40|Product Desc: Autodesk Architectural Desktop 2004 |Company: Autodesk,Inc. |WEB Address: www.autodesk.com
 90
    32897
280
     0
281
     0
  0
CLASS
  1
AEC_DISP_REP_WALL_MODEL
  2
AecDbDispRepWallModel
  3
AecArchBase40|Product Desc: Autodesk Architectural Desktop 2004 |Company: Autodesk,Inc. |WEB Address: www.autodesk.com
 90
    32897
280
     0
281
     0
  0
CLASS
  1
AEC_DISP_REP_WALL_PLAN
  2
AecDbDispRepWallPlan
  3
AecArchBase40|Product Desc: Autodesk Architectural Desktop 2004 |Company: Autodesk,Inc. |WEB Address: www.autodesk.com
 90
    32897
280
     0
281
     0
  0
CLASS
  1
AEC_DISP_REP_WINDOW_ASSEMBLY_MODEL
  2
AecDbDispRepWindowAssemblyModel
  3
AecArchBase40|Product Desc: Autodesk Architectural Desktop 2004 |Company: Autodesk,Inc. |WEB Address: www.autodesk.com
 90
    32897
280
     0
281
     0
  0
CLASS
  1
AEC_DISP_REP_WINDOW_ASSEMBLY_PLAN
  2
AecDbDispRepWindowAssemblyPlan
  3
AecArchBase40|Product Desc: Autodesk Architectural Desktop 2004 |Company: Autodesk,Inc. |WEB Address: www.autodesk.com
 90
    32897
280
     0
281
     0
  0
CLASS
  1
AEC_DISP_REP_WINDOW_MODEL
  2
AecDbDispRepWindowModel
  3
AecArchBase40|Product Desc: Autodesk Architectural Desktop 2004 |Company: Autodesk,Inc. |WEB Address: www.autodesk.com
 90
    32897
280
     0
281
     0
  0
CLASS
  1
AEC_DISP_REP_WINDOW_PLAN
  2
AecDbDispRepWindowPlan
  3
AecArchBase40|Product Desc: Autodesk Architectural Desktop 2004 |Company: Autodesk,Inc. |WEB Address: www.autodesk.com
 90
    32897
280
     0
281
     0
  0
CLASS
  1
AEC_DISP_REP_WINDOW_SILL_PLAN
  2
AecDbDispRepWindowSillPlan
  3
AecArchBase40|Product Desc: Autodesk Architectural Desktop 2004 |Company: Autodesk,Inc. |WEB Address: www.autodesk.com
 90
    32897
280
     0
281
     0
  0
CLASS
  1
AECS_DISP_REP_MEMBER_MODEL_DESIGN
  2
AecsDbDispRepMemberModelDesign
  3
AecStructureBase40|Product Desc: Autodesk Architectural Desktop 2004 |Company: Autodesk,Inc. |WEB Address: www.autodesk.com
 90
    32897
280
     0
281
     0
  0
CLASS
  1
AECS_DISP_REP_MEMBER_PLAN_DESIGN
  2
AecsDbDispRepMemberPlanDesign
  3
AecStructureBase40|Product Desc: Autodesk Architectural Desktop 2004 |Company: Autodesk,Inc. |WEB Address: www.autodesk.com
 90
    32897
280
     0
281
     0
  0
CLASS
  1
AEC_DISP_PROPS_CAMERA
  2
AecDbDispPropsCamera
  3
AecBase40|Product Desc: Autodesk Architectural Desktop 2004 |Company: Autodesk,Inc. |WEB Address: www.autodesk.com
 90
    32897
280
     0
281
     0
  0
CLASS
  1
AEC_DISP_PROPS_LAYOUT_GRID2D
  2
AecDbDispPropsLayoutGrid2d
  3
AecBase40|Product Desc: Autodesk Architectural Desktop 2004 |Company: Autodesk,Inc. |WEB Address: www.autodesk.com
 90
    32897
280
     0
281
     0
  0
CLASS
  1
AEC_DISP_PROPS_OPENING
  2
AecDbDispPropsOpening
  3
AecArchBase40|Product Desc: Autodesk Architectural Desktop 2004 |Company: Autodesk,Inc. |WEB Address: www.autodesk.com
 90
    32897
280
     0
281
     0
  0
CLASS
  1
AEC_DISP_PROPS_MASS_GROUP
  2
AecDbDispPropsMassGroup
  3
AecBase40|Product Desc: Autodesk Architectural Desktop 2004 |Company: Autodesk,Inc. |WEB Address: www.autodesk.com
 90
    32897
280
     0
281
     0
  0
CLASS
  1
AEC_DISP_PROPS_ROOFSLAB
  2
AecDbDispPropsRoofSlab
  3
AecArchBase40|Product Desc: Autodesk Architectural Desktop 2004 |Company: Autodesk,Inc. |WEB Address: www.autodesk.com
 90
    32897
280
     0
281
     0
  0
CLASS
  1
AEC_DISP_PROPS_STAIR_MODEL
  2
AecDbDispPropsStairModel
  3
AecArchBase40|Product Desc: Autodesk Architectural Desktop 2004 |Company: Autodesk,Inc. |WEB Address: www.autodesk.com
 90
    32897
280
     0
281
     0
  0
CLASS
  1
AEC_DISP_PROPS_ENT
  2
AecDbDispPropsEnt
  3
AecBase40|Product Desc: Autodesk Architectural Desktop 2004 |Company: Autodesk,Inc. |WEB Address: www.autodesk.com
 90
    32897
280
     0
281
     0
  0
CLASS
  1
AEC_DISP_PROPS_CLIP_VOLUME
  2
AecDbDispPropsClipVol
  3
AecBase40|Product Desc: Autodesk Architectural Desktop 2004 |Company: Autodesk,Inc. |WEB Address: www.autodesk.com
 90
    32897
280
     0
281
     0
  0
CLASS
  1
AEC_DISP_PROPS_STAIR_PLAN
  2
AecDbDispPropsStairPlan
  3
AecArchBase40|Product Desc: Autodesk Architectural Desktop 2004 |Company: Autodesk,Inc. |WEB Address: www.autodesk.com
 90
    32897
280
     0
281
     0
  0
CLASS
  1
AEC_DISP_PROPS_CLIP_VOLUME_RESULT
  2
AecDbDispPropsClipVolResSubDiv
  3
AecBase40|Product Desc: Autodesk Architectural Desktop 2004 |Company: Autodesk,Inc. |WEB Address: www.autodesk.com
 90
    32897
280
     0
281
     0
  0
CLASS
  1
AEC_DISP_PROPS_SPACE_MODEL
  2
AecDbDispPropsSpaceModel
  3
AecArchBase40|Product Desc: Autodesk Architectural Desktop 2004 |Company: Autodesk,Inc. |WEB Address: www.autodesk.com
 90
    32897
280
     0
281
     0
  0
CLASS
  1
AEC_DISP_PROPS_2D_SECTION
  2
AecDbDispProps2dSection
  3
AecBase40|Product Desc: Autodesk Architectural Desktop 2004 |Company: Autodesk,Inc. |WEB Address: www.autodesk.com
 90
    32897
280
     0
281
     0
  0
CLASS
  1
AEC_DISP_PROPS_DOOR_THRESHOLD_PLAN
  2
AecDbDispPropsDoorThresholdPlan
  3
AecArchBase40|Product Desc: Autodesk Architectural Desktop 2004 |Company: Autodesk,Inc. |WEB Address: www.autodesk.com
 90
    32897
280
     0
281
     0
  0
CLASS
  1
AEC_DISP_PROPS_POLYGON_MODEL
  2
AecDbDispPropsPolygonModel
  3
AecBase40|Product Desc: Autodesk Architectural Desktop 2004 |Company: Autodesk,Inc. |WEB Address: www.autodesk.com
 90
    32897
280
     0
281
     0
  0
CLASS
  1
AEC_DISP_PROPS_GRID_ASSEMBLY_MODEL
  2
AecDbDispPropsGridAssemblyModel
  3
AecArchBase40|Product Desc: Autodesk Architectural Desktop 2004 |Company: Autodesk,Inc. |WEB Address: www.autodesk.com
 90
    32897
280
     0
281
     0
  0
CLASS
  1
AEC_DISP_PROPS_AREA
  2
AecDbDispPropsArea
  3
AecAreaCalculationBase40|Product Desc: Autodesk Architectural Desktop 2004 |Company: Autodesk,Inc. |WEB Address: www.autodesk.com
 90
    32897
280
     0
281
     0
  0
CLASS
  1
AEC_DISP_PROPS_SPACE_PLAN
  2
AecDbDispPropsSpacePlan
  3
AecArchBase40|Product Desc: Autodesk Architectural Desktop 2004 |Company: Autodesk,Inc. |WEB Address: www.autodesk.com
 90
    32897
280
     0
281
     0
  0
CLASS
  1
AEC_DISP_PROPS_GRID_ASSEMBLY_PLAN
  2
AecDbDispPropsGridAssemblyPlan
  3
AecArchBase40|Product Desc: Autodesk Architectural Desktop 2004 |Company: Autodesk,Inc. |WEB Address: www.autodesk.com
 90
    32897
280
     0
281
     0
  0
CLASS
  1
AEC_DISP_PROPS_WINDOW
  2
AecDbDispPropsWindow
  3
AecArchBase40|Product Desc: Autodesk Architectural Desktop 2004 |Company: Autodesk,Inc. |WEB Address: www.autodesk.com
 90
    32897
280
     0
281
     0
  0
CLASS
  1
AEC_DISP_PROPS_ROOFSLAB_PLAN
  2
AecDbDispPropsRoofSlabPlan
  3
AecArchBase40|Product Desc: Autodesk Architectural Desktop 2004 |Company: Autodesk,Inc. |WEB Address: www.autodesk.com
 90
    32897
280
     0
281
     0
  0
CLASS
  1
AEC_DISP_PROPS_SLAB_PLAN
  2
AecDbDispPropsSlabPlan
  3
AecArchBase40|Product Desc: Autodesk Architectural Desktop 2004 |Company: Autodesk,Inc. |WEB Address: www.autodesk.com
 90
    32897
280
     0
281
     0
  0
CLASS
  1
AEC_DISP_PROPS_ROOF
  2
AecDbDispPropsRoof
  3
AecArchBase40|Product Desc: Autodesk Architectural Desktop 2004 |Company: Autodesk,Inc. |WEB Address: www.autodesk.com
 90
    32897
280
     0
281
     0
  0
CLASS
  1
AEC_DISP_PROPS_WALL_MODEL
  2
AecDbDispPropsWallModel
  3
AecArchBase40|Product Desc: Autodesk Architectural Desktop 2004 |Company: Autodesk,Inc. |WEB Address: www.autodesk.com
 90
    32897
280
     0
281
     0
  0
CLASS
  1
AEC_DISP_PROPS_AREAGROUP
  2
AecDbDispPropsAreaGroup
  3
AecAreaCalculationBase40|Product Desc: Autodesk Architectural Desktop 2004 |Company: Autodesk,Inc. |WEB Address: www.autodesk.com
 90
    32897
280
     0
281
     0
  0
CLASS
  1
AEC_DISP_PROPS_WALL_PLAN
  2
AecDbDispPropsWallPlan
  3
AecArchBase40|Product Desc: Autodesk Architectural Desktop 2004 |Company: Autodesk,Inc. |WEB Address: www.autodesk.com
 90
    32897
280
     0
281
     0
  0
CLASS
  1
AEC_DISP_PROPS_DOOR
  2
AecDbDispPropsDoor
  3
AecArchBase40|Product Desc: Autodesk Architectural Desktop 2004 |Company: Autodesk,Inc. |WEB Address: www.autodesk.com
 90
    32897
280
     0
281
     0
  0
CLASS
  1
AEC_DISP_PROPS_ENT_REF
  2
AecDbDispPropsEntRef
  3
AecBase40|Product Desc: Autodesk Architectural Desktop 2004 |Company: Autodesk,Inc. |WEB Address: www.autodesk.com
 90
    32897
280
     0
281
     0
  0
CLASS
  1
AECS_DISP_PROPS_MEMBER
  2
AecsDbDispPropsMember
  3
AecStructureBase40|Product Desc: Autodesk Architectural Desktop 2004 |Company: Autodesk,Inc. |WEB Address: www.autodesk.com
 90
    32897
280
     0
281
     0
  0
CLASS
  1
AEC_DISP_PROPS_RAILING_MODEL
  2
AecDbDispPropsRailingModel
  3
AecArchBase40|Product Desc: Autodesk Architectural Desktop 2004 |Company: Autodesk,Inc. |WEB Address: www.autodesk.com
 90
    32897
280
     0
281
     0
  0
CLASS
  1
AEC_DISP_PROPS_MASS_ELEM_MODEL
  2
AecDbDispPropsMassElem
  3
AecBase40|Product Desc: Autodesk Architectural Desktop 2004 |Company: Autodesk,Inc. |WEB Address: www.autodesk.com
 90
    32897
280
     0
281
     0
  0
CLASS
  1
AECS_DISP_PROPS_MEMBER_PLAN
  2
AecsDbDispPropsMemberPlan
  3
AecStructureBase40|Product Desc: Autodesk Architectural Desktop 2004 |Company: Autodesk,Inc. |WEB Address: www.autodesk.com
 90
    32897
280
     0
281
     0
  0
CLASS
  1
AEC_DISP_PROPS_EDITINPLACEPROFILE_MODEL
  2
AecDbDispPropsEditInPlaceProfile
  3
AecBase40|Product Desc: Autodesk Architectural Desktop 2004 |Company: Autodesk,Inc. |WEB Address: www.autodesk.com
 90
    32897
280
     0
281
     0
  0
CLASS
  1
AEC_DISP_PROPS_WINDOW_SILL_PLAN
  2
AecDbDispPropsWindowSillPlan
  3
AecArchBase40|Product Desc: Autodesk Architectural Desktop 2004 |Company: Autodesk,Inc. |WEB Address: www.autodesk.com
 90
    32897
280
     0
281
     0
  0
CLASS
  1
AEC_DISP_PROPS_MATERIAL
  2
AecDbDispPropsMaterial
  3
AecBase40|Product Desc: Autodesk Architectural Desktop 2004 |Company: Autodesk,Inc. |WEB Address: www.autodesk.com
 90
    32897
280
     0
281
     0
  0
CLASS
  1
AEC_DISP_PROPS_MASKBLOCK
  2
AecDbDispPropsMaskBlock
  3
AecBase40|Product Desc: Autodesk Architectural Desktop 2004 |Company: Autodesk,Inc. |WEB Address: www.autodesk.com
 90
    32897
280
     0
281
     0
  0
CLASS
  1
AEC_DISP_PROPS_SLAB
  2
AecDbDispPropsSlab
  3
AecArchBase40|Product Desc: Autodesk Architectural Desktop 2004 |Company: Autodesk,Inc. |WEB Address: www.autodesk.com
 90
    32897
280
     0
281
     0
  0
CLASS
  1
AEC_DISP_PROPS_SLICE
  2
AecDbDispPropsSlice
  3
AecBase40|Product Desc: Autodesk Architectural Desktop 2004 |Company: Autodesk,Inc. |WEB Address: www.autodesk.com
 90
    32897
280
     0
281
     0
  0
CLASS
  1
AEC_DISP_PROPS_SPACE_BOUNDARY
  2
AecDbDispPropsSpaceBoundary
  3
AecArchBase40|Product Desc: Autodesk Architectural Desktop 2004 |Company: Autodesk,Inc. |WEB Address: www.autodesk.com
 90
    32897
280
     0
281
     0
  0
CLASS
  1
AEC_DISP_PROPS_SCHEDULE_TABLE
  2
AecDbDispPropsScheduleTable
  3
AecSchedule40|Product Desc: Autodesk Architectural Desktop 2004 |Company: Autodesk,Inc. |WEB Address: www.autodesk.com
 90
    32897
280
     0
281
     0
  0
CLASS
  1
AEC_DISP_PROPS_RAILING_PLAN
  2
AecDbDispPropsRailingPlan
  3
AecArchBase40|Product Desc: Autodesk Architectural Desktop 2004 |Company: Autodesk,Inc. |WEB Address: www.autodesk.com
 90
    32897
280
     0
281
     0
  0
CLASS
  1
AEC_DISP_PROPS_DIM
  2
AecDbDispPropsDimGroup
  3
AecArchDACHBase40|Product Desc: Autodesk Architectural Desktop 2004 |Company: Autodesk,Inc. |WEB Address: www.autodesk.com
 90
    32897
280
     0
281
     0
  0
CLASS
  1
AEC_DISP_PROPS_LAYOUT_CURVE
  2
AecDbDispPropsLayoutCurve
  3
AecBase40|Product Desc: Autodesk Architectural Desktop 2004 |Company: Autodesk,Inc. |WEB Address: www.autodesk.com
 90
    32897
280
     0
281
     0
  0
CLASS
  1
AEC_DISP_PROPS_LAYOUT_GRID3D
  2
AecDbDispPropsLayoutGrid3d
  3
AecBase40|Product Desc: Autodesk Architectural Desktop 2004 |Company: Autodesk,Inc. |WEB Address: www.autodesk.com
 90
    32897
280
     0
281
     0
  0
CLASS
  1
AEC_LAYERKEY_STYLE
  2
AecDbLayerKeyStyle
  3
AecBase40|Product Desc: Autodesk Architectural Desktop 2004 |Company: Autodesk,Inc. |WEB Address: www.autodesk.com
 90
    32897
280
     0
281
     0
  0
CLASS
  1
AEC_VARS_ARCHBASE
  2
AecDbVarsArchBase
  3
AecArchBase40|Product Desc: Autodesk Architectural Desktop 2004 |Company: Autodesk,Inc. |WEB Address: www.autodesk.com
 90
    32897
280
     0
281
     0
  0
CLASS
  1
AEC_VARS_MUNICH
  2
AecDbVarsMunich
  3
AecArchDACHBase40|Product Desc: Autodesk Architectural Desktop 2004 |Company: Autodesk,Inc. |WEB Address: www.autodesk.com
 90
    32897
280
     0
281
     0
  0
CLASS
  1
AEC_NOTIFICATION_TRACKER
  2
AecDbNotificationTracker
  3
AecBase40|Product Desc: Autodesk Architectural Desktop 2004 |Company: Autodesk,Inc. |WEB Address: www.autodesk.com
 90
    32897
280
     0
281
     0
  0
CLASS
  1
AEC_DISP_REP_ANCHOR
  2
AecDbDispRepAnchor
  3
AecBase40|Product Desc: Autodesk Architectural Desktop 2004 |Company: Autodesk,Inc. |WEB Address: www.autodesk.com
 90
    32897
280
     0
281
     0
  0
CLASS
  1
AEC_DISP_REP_CLIP_VOLUME_RESULT
  2
AecDbDispRepClipVolResult
  3
AecBase40|Product Desc: Autodesk Architectural Desktop 2004 |Company: Autodesk,Inc. |WEB Address: www.autodesk.com
 90
    32897
280
     0
281
     0
  0
CLASS
  1
AEC_DISP_REP_POLYGON_TRUECOLOUR
  2
AecDbDispRepPolygonTrueColour
  3
AecBase40|Product Desc: Autodesk Architectural Desktop 2004 |Company: Autodesk,Inc. |WEB Address: www.autodesk.com
 90
    32897
280
     0
281
     0
  0
CLASS
  1
AEC_DISP_PROPS_POLYGON_TRUECOLOUR
  2
AecDbDispPropsPolygonTrueColour
  3
AecBase40|Product Desc: Autodesk Architectural Desktop 2004 |Company: Autodesk,Inc. |WEB Address: www.autodesk.com
 90
    32897
280
     0
281
     0
  0
CLASS
  1
AEC_DISP_REP_ANCHOR_TAG_TO_ENT
  2
AecDbDispRepAnchorTagToEnt
  3
AecScheduleData40|Product Desc: Autodesk Architectural Desktop 2004 |Company: Autodesk,Inc. |WEB Address: www.autodesk.com
 90
    32897
280
     0
281
     0
  0
CLASS
  1
AEC_DISP_REP_ANCHOR_BUB_TO_GRID_RCP
  2
AecDbDispRepAnchorBubToGridRcp
  3
AecStructureBase40|Product Desc: Autodesk Architectural Desktop 2004 |Company: Autodesk,Inc. |WEB Address: www.autodesk.com
 90
    32897
280
     0
281
     0
  0
CLASS
  1
AEC_DISP_REP_COLUMN_GRID_RCP
  2
AecDbDispRepColumnGridRcp
  3
AecStructureBase40|Product Desc: Autodesk Architectural Desktop 2004 |Company: Autodesk,Inc. |WEB Address: www.autodesk.com
 90
    32897
280
     0
281
     0
  0
CLASS
  1
AECS_DISP_REP_MEMBER_ELEVATION_DESIGN
  2
AecsDbDispRepMemberElevationDesign
  3
AecStructureBase40|Product Desc: Autodesk Architectural Desktop 2004 |Company: Autodesk,Inc. |WEB Address: www.autodesk.com
 90
    32897
280
     0
281
     0
  0
CLASS
  1
AECS_DISP_PROPS_MEMBER_PROJECTED
  2
AecsDbDispPropsMemberProjected
  3
AecStructureBase40|Product Desc: Autodesk Architectural Desktop 2004 |Company: Autodesk,Inc. |WEB Address: www.autodesk.com
 90
    32897
280
     0
281
     0
  0
CLASS
  1
AECS_DISP_REP_MEMBER_ELEVATION_DETAIL
  2
AecsDbDispRepMemberElevationDetail
  3
AecStructureBase40|Product Desc: Autodesk Architectural Desktop 2004 |Company: Autodesk,Inc. |WEB Address: www.autodesk.com
 90
    32897
280
     0
281
     0
  0
CLASS
  1
AECS_DISP_REP_MEMBER_LOGICAL
  2
AecsDbDispRepMemberLogical
  3
AecStructureBase40|Product Desc: Autodesk Architectural Desktop 2004 |Company: Autodesk,Inc. |WEB Address: www.autodesk.com
 90
    32897
280
     0
281
     0
  0
CLASS
  1
AECS_DISP_PROPS_MEMBER_LOGICAL
  2
AecsDbDispPropsMemberLogical
  3
AecStructureBase40|Product Desc: Autodesk Architectural Desktop 2004 |Company: Autodesk,Inc. |WEB Address: www.autodesk.com
 90
    32897
280
     0
281
     0
  0
CLASS
  1
AECS_DISP_REP_MEMBER_MODEL_DETAIL
  2
AecsDbDispRepMemberModelDetail
  3
AecStructureBase40|Product Desc: Autodesk Architectural Desktop 2004 |Company: Autodesk,Inc. |WEB Address: www.autodesk.com
 90
    32897
280
     0
281
     0
  0
CLASS
  1
AECS_DISP_REP_MEMBER_PLAN_DETAIL
  2
AecsDbDispRepMemberPlanDetail
  3
AecStructureBase40|Product Desc: Autodesk Architectural Desktop 2004 |Company: Autodesk,Inc. |WEB Address: www.autodesk.com
 90
    32897
280
     0
281
     0
  0
CLASS
  1
AECS_DISP_REP_MEMBER_PLAN_SKETCH
  2
AecsDbDispRepMemberPlanSketch
  3
AecStructureBase40|Product Desc: Autodesk Architectural Desktop 2004 |Company: Autodesk,Inc. |WEB Address: www.autodesk.com
 90
    32897
280
     0
281
     0
  0
CLASS
  1
AECS_DISP_PROPS_MEMBER_PLAN_SKETCH
  2
AecsDbDispPropsMemberPlanSketch
  3
AecStructureBase40|Product Desc: Autodesk Architectural Desktop 2004 |Company: Autodesk,Inc. |WEB Address: www.autodesk.com
 90
    32897
280
     0
281
     0
  0
CLASS
  1
AEC_DISP_REP_BDG_ELEVLINE_RCP
  2
AecDbDispRepBdgElevLineRcp
  3
AecArchBase40|Product Desc: Autodesk Architectural Desktop 2004 |Company: Autodesk,Inc. |WEB Address: www.autodesk.com
 90
    32897
280
     0
281
     0
  0
CLASS
  1
AEC_DISP_REP_BDG_SECTIONLINE_RCP
  2
AecDbDispRepBdgSectionLineRcp
  3
AecArchBase40|Product Desc: Autodesk Architectural Desktop 2004 |Company: Autodesk,Inc. |WEB Address: www.autodesk.com
 90
    32897
280
     0
281
     0
  0
CLASS
  1
AEC_DISP_REP_BDG_SECTION_MODEL
  2
AecDbDispRepBdgSectionModel
  3
AecArchBase40|Product Desc: Autodesk Architectural Desktop 2004 |Company: Autodesk,Inc. |WEB Address: www.autodesk.com
 90
    32897
280
     0
281
     0
  0
CLASS
  1
AEC_DISP_REP_CEILING_GRID_RCP
  2
AecDbDispRepCeilingGridRcp
  3
AecArchBase40|Product Desc: Autodesk Architectural Desktop 2004 |Company: Autodesk,Inc. |WEB Address: www.autodesk.com
 90
    32897
280
     0
281
     0
  0
CLASS
  1
AEC_DISP_REP_DOOR_ELEV
  2
AecDbDispRepDoorElev
  3
AecArchBase40|Product Desc: Autodesk Architectural Desktop 2004 |Company: Autodesk,Inc. |WEB Address: www.autodesk.com
 90
    32897
280
     0
281
     0
  0
CLASS
  1
AEC_DISP_REP_DOOR_NOMINAL
  2
AecDbDispRepDoorNominal
  3
AecArchBase40|Product Desc: Autodesk Architectural Desktop 2004 |Company: Autodesk,Inc. |WEB Address: www.autodesk.com
 90
    32897
280
     0
281
     0
  0
CLASS
  1
AEC_DISP_PROPS_DOOR_NOMINAL
  2
AecDbDispPropsDoorNominal
  3
AecArchBase40|Product Desc: Autodesk Architectural Desktop 2004 |Company: Autodesk,Inc. |WEB Address: www.autodesk.com
 90
    32897
280
     0
281
     0
  0
CLASS
  1
AEC_DISP_REP_DOOR_RCP
  2
AecDbDispRepDoorRcp
  3
AecArchBase40|Product Desc: Autodesk Architectural Desktop 2004 |Company: Autodesk,Inc. |WEB Address: www.autodesk.com
 90
    32897
280
     0
281
     0
  0
CLASS
  1
AEC_DISP_REP_MASKBLOCK_REF_RCP
  2
AecDbDispRepMaskBlockRefRcp
  3
AecArchBase40|Product Desc: Autodesk Architectural Desktop 2004 |Company: Autodesk,Inc. |WEB Address: www.autodesk.com
 90
    32897
280
     0
281
     0
  0
CLASS
  1
AEC_DISP_REP_MASS_ELEM_RCP
  2
AecDbDispRepMassElemRcp
  3
AecArchBase40|Product Desc: Autodesk Architectural Desktop 2004 |Company: Autodesk,Inc. |WEB Address: www.autodesk.com
 90
    32897
280
     0
281
     0
  0
CLASS
  1
AEC_DISP_REP_MASS_GROUP_RCP
  2
AecDbDispRepMassGroupRcp
  3
AecArchBase40|Product Desc: Autodesk Architectural Desktop 2004 |Company: Autodesk,Inc. |WEB Address: www.autodesk.com
 90
    32897
280
     0
281
     0
  0
CLASS
  1
AEC_DISP_REP_MVBLOCK_REF_RCP
  2
AecDbDispRepMvBlockRefRcp
  3
AecArchBase40|Product Desc: Autodesk Architectural Desktop 2004 |Company: Autodesk,Inc. |WEB Address: www.autodesk.com
 90
    32897
280
     0
281
     0
  0
CLASS
  1
AEC_DISP_REP_ROOF_RCP
  2
AecDbDispRepRoofRcp
  3
AecArchBase40|Product Desc: Autodesk Architectural Desktop 2004 |Company: Autodesk,Inc. |WEB Address: www.autodesk.com
 90
    32897
280
     0
281
     0
  0
CLASS
  1
AEC_DISP_REP_SPACE_BOUNDARY_DIAGRAM
  2
AecDbDispRepSpaceBoundaryDgrm
  3
AecArchBase40|Product Desc: Autodesk Architectural Desktop 2004 |Company: Autodesk,Inc. |WEB Address: www.autodesk.com
 90
    32897
280
     0
281
     0
  0
CLASS
  1
AEC_DISP_REP_SPACE_BOUNDARY_SCHEM
  2
AecDbDispRepSpaceBoundarySketch
  3
AecArchBase40|Product Desc: Autodesk Architectural Desktop 2004 |Company: Autodesk,Inc. |WEB Address: www.autodesk.com
 90
    32897
280
     0
281
     0
  0
CLASS
  1
AEC_DISP_REP_SPACE_RCP
  2
AecDbDispRepSpaceRcp
  3
AecArchBase40|Product Desc: Autodesk Architectural Desktop 2004 |Company: Autodesk,Inc. |WEB Address: www.autodesk.com
 90
    32897
280
     0
281
     0
  0
CLASS
  1
AEC_DISP_REP_SPACE_VOLUME
  2
AecDbDispRepSpaceVolume
  3
AecArchBase40|Product Desc: Autodesk Architectural Desktop 2004 |Company: Autodesk,Inc. |WEB Address: www.autodesk.com
 90
    32897
280
     0
281
     0
  0
CLASS
  1
AEC_DISP_REP_STAIR_PLAN_OVERLAPPING
  2
AecDbDispRepStairPlanOverlapping
  3
AecArchBase40|Product Desc: Autodesk Architectural Desktop 2004 |Company: Autodesk,Inc. |WEB Address: www.autodesk.com
 90
    32897
280
     0
281
     0
  0
CLASS
  1
AEC_DISP_PROPS_STAIR_PLAN_OVERLAPPING
  2
AecDbDispPropsStairPlanOverlapping
  3
AecArchBase40|Product Desc: Autodesk Architectural Desktop 2004 |Company: Autodesk,Inc. |WEB Address: www.autodesk.com
 90
    32897
280
     0
281
     0
  0
CLASS
  1
AEC_DISP_REP_STAIR_RCP
  2
AecDbDispRepStairRcp
  3
AecArchBase40|Product Desc: Autodesk Architectural Desktop 2004 |Company: Autodesk,Inc. |WEB Address: www.autodesk.com
 90
    32897
280
     0
281
     0
  0
CLASS
  1
AEC_DISP_REP_WALL_GRAPH
  2
AecDbDispRepWallGraph
  3
AecArchBase40|Product Desc: Autodesk Architectural Desktop 2004 |Company: Autodesk,Inc. |WEB Address: www.autodesk.com
 90
    32897
280
     0
281
     0
  0
CLASS
  1
AEC_DISP_PROPS_WALL_GRAPH
  2
AecDbDispPropsWallGraph
  3
AecArchBase40|Product Desc: Autodesk Architectural Desktop 2004 |Company: Autodesk,Inc. |WEB Address: www.autodesk.com
 90
    32897
280
     0
281
     0
  0
CLASS
  1
AEC_DISP_REP_WALL_RCP
  2
AecDbDispRepWallRcp
  3
AecArchBase40|Product Desc: Autodesk Architectural Desktop 2004 |Company: Autodesk,Inc. |WEB Address: www.autodesk.com
 90
    32897
280
     0
281
     0
  0
CLASS
  1
AEC_DISP_REP_WALL_SCHEM
  2
AecDbDispRepWallSchem
  3
AecArchBase40|Product Desc: Autodesk Architectural Desktop 2004 |Company: Autodesk,Inc. |WEB Address: www.autodesk.com
 90
    32897
280
     0
281
     0
  0
CLASS
  1
AEC_DISP_PROPS_WALL_SCHEM
  2
AecDbDispPropsWallSchem
  3
AecArchBase40|Product Desc: Autodesk Architectural Desktop 2004 |Company: Autodesk,Inc. |WEB Address: www.autodesk.com
 90
    32897
280
     0
281
     0
  0
CLASS
  1
AEC_DISP_REP_WINDOWASSEMBLY_SILL_PLAN
  2
AecDbDispRepWindowAssemblySillPlan
  3
AecArchBase40|Product Desc: Autodesk Architectural Desktop 2004 |Company: Autodesk,Inc. |WEB Address: www.autodesk.com
 90
    32897
280
     0
281
     0
  0
CLASS
  1
AEC_DISP_PROPS_WINDOW_ASSEMBLY_SILL_PLAN
  2
AecDbDispPropsWindowAssemblySillPlan
  3
AecArchBase40|Product Desc: Autodesk Architectural Desktop 2004 |Company: Autodesk,Inc. |WEB Address: www.autodesk.com
 90
    32897
280
     0
281
     0
  0
CLASS
  1
AEC_DISP_REP_WINDOW_ELEV
  2
AecDbDispRepWindowElev
  3
AecArchBase40|Product Desc: Autodesk Architectural Desktop 2004 |Company: Autodesk,Inc. |WEB Address: www.autodesk.com
 90
    32897
280
     0
281
     0
  0
CLASS
  1
AEC_DISP_REP_WINDOW_NOMINAL
  2
AecDbDispRepWindowNominal
  3
AecArchBase40|Product Desc: Autodesk Architectural Desktop 2004 |Company: Autodesk,Inc. |WEB Address: www.autodesk.com
 90
    32897
280
     0
281
     0
  0
CLASS
  1
AEC_DISP_PROPS_WINDOW_NOMINAL
  2
AecDbDispPropsWindowNominal
  3
AecArchBase40|Product Desc: Autodesk Architectural Desktop 2004 |Company: Autodesk,Inc. |WEB Address: www.autodesk.com
 90
    32897
280
     0
281
     0
  0
CLASS
  1
AEC_DISP_REP_WINDOW_RCP
  2
AecDbDispRepWindowRcp
  3
AecArchBase40|Product Desc: Autodesk Architectural Desktop 2004 |Company: Autodesk,Inc. |WEB Address: www.autodesk.com
 90
    32897
280
     0
281
     0
  0
CLASS
  1
AEC_DISP_REP_AREA_DECOMPOSED
  2
AecDbDispRepAreaDecomposed
  3
AecAreaCalculationBase40|Product Desc: Autodesk Architectural Desktop 2004 |Company: Autodesk,Inc. |WEB Address: www.autodesk.com
 90
    32897
280
     0
281
     0
  0
CLASS
  1
AEC_DISP_PROPS_AREA_DECOMPOSED
  2
AecDbDispPropsAreaDecomposed
  3
AecAreaCalculationBase40|Product Desc: Autodesk Architectural Desktop 2004 |Company: Autodesk,Inc. |WEB Address: www.autodesk.com
 90
    32897
280
     0
281
     0
  0
CLASS
  1
AEC_AECDBDISPREPAREA100
  2
AecDbDispRepArea100
  3
AecBase40|Product Desc: Autodesk Architectural Desktop 2004 |Company: Autodesk,Inc. |WEB Address: www.autodesk.com
 90
    32897
280
     0
281
     0
  0
CLASS
  1
AEC_AECDBDISPREPAREAGROUP100
  2
AecDbDispRepAreaGroup100
  3
AecBase40|Product Desc: Autodesk Architectural Desktop 2004 |Company: Autodesk,Inc. |WEB Address: www.autodesk.com
 90
    32897
280
     0
281
     0
  0
CLASS
  1
AEC_AECDBDISPREPBDGELEVLINEPLAN100
  2
AecDbDispRepBdgElevLinePlan100
  3
AecBase40|Product Desc: Autodesk Architectural Desktop 2004 |Company: Autodesk,Inc. |WEB Address: www.autodesk.com
 90
    32897
280
     0
281
     0
  0
CLASS
  1
AEC_AECDBDISPREPBDGSECTIONLINEPLAN100
  2
AecDbDispRepBdgSectionLinePlan100
  3
AecBase40|Product Desc: Autodesk Architectural Desktop 2004 |Company: Autodesk,Inc. |WEB Address: www.autodesk.com
 90
    32897
280
     0
281
     0
  0
CLASS
  1
AEC_AECDBDISPREPCEILINGGRIDPLAN100
  2
AecDbDispRepCeilingGridPlan100
  3
AecBase40|Product Desc: Autodesk Architectural Desktop 2004 |Company: Autodesk,Inc. |WEB Address: www.autodesk.com
 90
    32897
280
     0
281
     0
  0
CLASS
  1
AEC_AECDBDISPREPCOLUMNGRIDPLAN100
  2
AecDbDispRepColumnGridPlan100
  3
AecBase40|Product Desc: Autodesk Architectural Desktop 2004 |Company: Autodesk,Inc. |WEB Address: www.autodesk.com
 90
    32897
280
     0
281
     0
  0
CLASS
  1
AEC_AECDBDISPREPCURTAINWALLLAYOUTPLAN100
  2
AecDbDispRepCurtainWallLayoutPlan100
  3
AecBase40|Product Desc: Autodesk Architectural Desktop 2004 |Company: Autodesk,Inc. |WEB Address: www.autodesk.com
 90
    32897
280
     0
281
     0
  0
CLASS
  1
AEC_AECDBDISPREPCURTAINWALLUNITPLAN100
  2
AecDbDispRepCurtainWallUnitPlan100
  3
AecBase40|Product Desc: Autodesk Architectural Desktop 2004 |Company: Autodesk,Inc. |WEB Address: www.autodesk.com
 90
    32897
280
     0
281
     0
  0
CLASS
  1
AEC_AECDBDISPREPMVBLOCKREFPLAN100
  2
AecDbDispRepMvBlockRefPlan100
  3
AecBase40|Product Desc: Autodesk Architectural Desktop 2004 |Company: Autodesk,Inc. |WEB Address: www.autodesk.com
 90
    32897
280
     0
281
     0
  0
CLASS
  1
AEC_AECDBDISPREPROOFPLAN100
  2
AecDbDispRepRoofPlan100
  3
AecBase40|Product Desc: Autodesk Architectural Desktop 2004 |Company: Autodesk,Inc. |WEB Address: www.autodesk.com
 90
    32897
280
     0
281
     0
  0
CLASS
  1
AEC_AECDBDISPREPROOFSLABPLAN100
  2
AecDbDispRepRoofSlabPlan100
  3
AecBase40|Product Desc: Autodesk Architectural Desktop 2004 |Company: Autodesk,Inc. |WEB Address: www.autodesk.com
 90
    32897
280
     0
281
     0
  0
CLASS
  1
AEC_AECDBDISPREPSLABPLAN100
  2
AecDbDispRepSlabPlan100
  3
AecBase40|Product Desc: Autodesk Architectural Desktop 2004 |Company: Autodesk,Inc. |WEB Address: www.autodesk.com
 90
    32897
280
     0
281
     0
  0
CLASS
  1
AEC_AECDBDISPREPSPACEBOUNDARYPLAN100
  2
AecDbDispRepSpaceBoundaryPlan100
  3
AecBase40|Product Desc: Autodesk Architectural Desktop 2004 |Company: Autodesk,Inc. |WEB Address: www.autodesk.com
 90
    32897
280
     0
281
     0
  0
CLASS
  1
AEC_AECDBDISPREPSPACEPLAN100
  2
AecDbDispRepSpacePlan100
  3
AecBase40|Product Desc: Autodesk Architectural Desktop 2004 |Company: Autodesk,Inc. |WEB Address: www.autodesk.com
 90
    32897
280
     0
281
     0
  0
CLASS
  1
AEC_AECDBDISPREPWALLPLAN100
  2
AecDbDispRepWallPlan100
  3
AecBase40|Product Desc: Autodesk Architectural Desktop 2004 |Company: Autodesk,Inc. |WEB Address: www.autodesk.com
 90
    32897
280
     0
281
     0
  0
CLASS
  1
AEC_AECDBDISPREPWINDOWASSEMBLYPLAN100
  2
AecDbDispRepWindowAssemblyPlan100
  3
AecBase40|Product Desc: Autodesk Architectural Desktop 2004 |Company: Autodesk,Inc. |WEB Address: www.autodesk.com
 90
    32897
280
     0
281
     0
  0
CLASS
  1
AEC_AECDBDISPREPAREA50
  2
AecDbDispRepArea50
  3
AecBase40|Product Desc: Autodesk Architectural Desktop 2004 |Company: Autodesk,Inc. |WEB Address: www.autodesk.com
 90
    32897
280
     0
281
     0
  0
CLASS
  1
AEC_AECDBDISPREPAREAGROUP50
  2
AecDbDispRepAreaGroup50
  3
AecBase40|Product Desc: Autodesk Architectural Desktop 2004 |Company: Autodesk,Inc. |WEB Address: www.autodesk.com
 90
    32897
280
     0
281
     0
  0
CLASS
  1
AEC_AECDBDISPREPBDGELEVLINEPLAN50
  2
AecDbDispRepBdgElevLinePlan50
  3
AecBase40|Product Desc: Autodesk Architectural Desktop 2004 |Company: Autodesk,Inc. |WEB Address: www.autodesk.com
 90
    32897
280
     0
281
     0
  0
CLASS
  1
AEC_AECDBDISPREPBDGSECTIONLINEPLAN50
  2
AecDbDispRepBdgSectionLinePlan50
  3
AecBase40|Product Desc: Autodesk Architectural Desktop 2004 |Company: Autodesk,Inc. |WEB Address: www.autodesk.com
 90
    32897
280
     0
281
     0
  0
CLASS
  1
AEC_AECDBDISPREPCEILINGGRIDPLAN50
  2
AecDbDispRepCeilingGridPlan50
  3
AecBase40|Product Desc: Autodesk Architectural Desktop 2004 |Company: Autodesk,Inc. |WEB Address: www.autodesk.com
 90
    32897
280
     0
281
     0
  0
CLASS
  1
AEC_AECDBDISPREPCOLUMNGRIDPLAN50
  2
AecDbDispRepColumnGridPlan50
  3
AecBase40|Product Desc: Autodesk Architectural Desktop 2004 |Company: Autodesk,Inc. |WEB Address: www.autodesk.com
 90
    32897
280
     0
281
     0
  0
CLASS
  1
AEC_AECDBDISPREPCURTAINWALLLAYOUTPLAN50
  2
AecDbDispRepCurtainWallLayoutPlan50
  3
AecBase40|Product Desc: Autodesk Architectural Desktop 2004 |Company: Autodesk,Inc. |WEB Address: www.autodesk.com
 90
    32897
280
     0
281
     0
  0
CLASS
  1
AEC_AECDBDISPREPCURTAINWALLUNITPLAN50
  2
AecDbDispRepCurtainWallUnitPlan50
  3
AecBase40|Product Desc: Autodesk Architectural Desktop 2004 |Company: Autodesk,Inc. |WEB Address: www.autodesk.com
 90
    32897
280
     0
281
     0
  0
CLASS
  1
AEC_AECDBDISPREPMVBLOCKREFPLAN50
  2
AecDbDispRepMvBlockRefPlan50
  3
AecBase40|Product Desc: Autodesk Architectural Desktop 2004 |Company: Autodesk,Inc. |WEB Address: www.autodesk.com
 90
    32897
280
     0
281
     0
  0
CLASS
  1
AEC_AECDBDISPREPROOFPLAN50
  2
AecDbDispRepRoofPlan50
  3
AecBase40|Product Desc: Autodesk Architectural Desktop 2004 |Company: Autodesk,Inc. |WEB Address: www.autodesk.com
 90
    32897
280
     0
281
     0
  0
CLASS
  1
AEC_AECDBDISPREPROOFSLABPLAN50
  2
AecDbDispRepRoofSlabPlan50
  3
AecBase40|Product Desc: Autodesk Architectural Desktop 2004 |Company: Autodesk,Inc. |WEB Address: www.autodesk.com
 90
    32897
280
     0
281
     0
  0
CLASS
  1
AEC_AECDBDISPREPSLABPLAN50
  2
AecDbDispRepSlabPlan50
  3
AecBase40|Product Desc: Autodesk Architectural Desktop 2004 |Company: Autodesk,Inc. |WEB Address: www.autodesk.com
 90
    32897
280
     0
281
     0
  0
CLASS
  1
AEC_AECDBDISPREPSPACEBOUNDARYPLAN50
  2
AecDbDispRepSpaceBoundaryPlan50
  3
AecBase40|Product Desc: Autodesk Architectural Desktop 2004 |Company: Autodesk,Inc. |WEB Address: www.autodesk.com
 90
    32897
280
     0
281
     0
  0
CLASS
  1
AEC_AECDBDISPREPSPACEPLAN50
  2
AecDbDispRepSpacePlan50
  3
AecBase40|Product Desc: Autodesk Architectural Desktop 2004 |Company: Autodesk,Inc. |WEB Address: www.autodesk.com
 90
    32897
280
     0
281
     0
  0
CLASS
  1
AEC_AECDBDISPREPWALLPLAN50
  2
AecDbDispRepWallPlan50
  3
AecBase40|Product Desc: Autodesk Architectural Desktop 2004 |Company: Autodesk,Inc. |WEB Address: www.autodesk.com
 90
    32897
280
     0
281
     0
  0
CLASS
  1
AEC_AECDBDISPREPWINDOWASSEMBLYPLAN50
  2
AecDbDispRepWindowAssemblyPlan50
  3
AecBase40|Product Desc: Autodesk Architectural Desktop 2004 |Company: Autodesk,Inc. |WEB Address: www.autodesk.com
 90
    32897
280
     0
281
     0
  0
CLASS
  1
AEC_DB_DISP_REP_DIM_GROUP_PLAN100
  2
AecDbDispRepDimGroupPlan100
  3
AecArchDACHBase40|Product Desc: Autodesk Architectural Desktop 2004 |Company: Autodesk,Inc. |WEB Address: www.autodesk.com
 90
    32897
280
     0
281
     0
  0
CLASS
  1
AEC_DB_DISP_REP_DIM_GROUP_PLAN50
  2
AecDbDispRepDimGroupPlan50
  3
AecArchDACHBase40|Product Desc: Autodesk Architectural Desktop 2004 |Company: Autodesk,Inc. |WEB Address: www.autodesk.com
 90
    32897
280
     0
281
     0
  0
CLASS
  1
AEC_DISP_REP_DOOR_PLAN_50
  2
AecDbDispRepDoorPlan50
  3
AecArchDACHBase40|Product Desc: Autodesk Architectural Desktop 2004 |Company: Autodesk,Inc. |WEB Address: www.autodesk.com
 90
    32897
280
     0
281
     0
  0
CLASS
  1
AEC_DISP_PROPS_DOOR_PLAN_50
  2
AecDbDispPropsDoorPlan50
  3
AecArchDACHBase40|Product Desc: Autodesk Architectural Desktop 2004 |Company: Autodesk,Inc. |WEB Address: www.autodesk.com
 90
    32897
280
     0
281
     0
  0
CLASS
  1
AEC_DISP_REP_DOOR_PLAN_HEKTO
  2
AecDbDispRepDoorPlanHekto
  3
AecArchDACHBase40|Product Desc: Autodesk Architectural Desktop 2004 |Company: Autodesk,Inc. |WEB Address: www.autodesk.com
 90
    32897
280
     0
281
     0
  0
CLASS
  1
AEC_DISP_PROPS_DOOR_PLAN_100
  2
AecDbDispPropsDoorPlan100
  3
AecArchDACHBase40|Product Desc: Autodesk Architectural Desktop 2004 |Company: Autodesk,Inc. |WEB Address: www.autodesk.com
 90
    32897
280
     0
281
     0
  0
CLASS
  1
AEC_DISP_REP_DOOR_THRESHOLD_SYMBOL_PLAN
  2
AecDbDispRepDoorThresholdSymbolPlan
  3
AecArchDACHBase40|Product Desc: Autodesk Architectural Desktop 2004 |Company: Autodesk,Inc. |WEB Address: www.autodesk.com
 90
    32897
280
     0
281
     0
  0
CLASS
  1
AEC_DISP_PROPS_DOOR_THRESHOLD_SYMBOL_PLAN
  2
AecDbDispPropsDoorThresholdSymbolPlan
  3
AecArchDACHBase40|Product Desc: Autodesk Architectural Desktop 2004 |Company: Autodesk,Inc. |WEB Address: www.autodesk.com
 90
    32897
280
     0
281
     0
  0
CLASS
  1
AEC_DISPREPAECDBDISPREPMASSELEMPLAN100
  2
AecDbDispRepMassElemPlan100
  3
AecArchDACHBase40|Product Desc: Autodesk Architectural Desktop 2004 |Company: Autodesk,Inc. |WEB Address: www.autodesk.com
 90
    32897
280
     0
281
     0
  0
CLASS
  1
AEC_DISPROPSMASSELEMPLANCOMMON
  2
AecDbDispPropsMassElemPlanCommon
  3
AecArchDACHBase40|Product Desc: Autodesk Architectural Desktop 2004 |Company: Autodesk,Inc. |WEB Address: www.autodesk.com
 90
    32897
280
     0
281
     0
  0
CLASS
  1
AEC_DISPREPAECDBDISPREPMASSELEMPLAN50
  2
AecDbDispRepMassElemPlan50
  3
AecArchDACHBase40|Product Desc: Autodesk Architectural Desktop 2004 |Company: Autodesk,Inc. |WEB Address: www.autodesk.com
 90
    32897
280
     0
281
     0
  0
CLASS
  1
AEC_DISPREPAECDBDISPREPMASSGROUPPLAN100
  2
AecDbDispRepMassGroupPlan100
  3
AecArchDACHBase40|Product Desc: Autodesk Architectural Desktop 2004 |Company: Autodesk,Inc. |WEB Address: www.autodesk.com
 90
    32897
280
     0
281
     0
  0
CLASS
  1
AEC_DISPROPSMASSGROUPPLANCOMMON
  2
AecDbDispPropsMassGroupPlanCommon
  3
AecArchDACHBase40|Product Desc: Autodesk Architectural Desktop 2004 |Company: Autodesk,Inc. |WEB Address: www.autodesk.com
 90
    32897
280
     0
281
     0
  0
CLASS
  1
AEC_DISPREPAECDBDISPREPMASSGROUPPLAN50
  2
AecDbDispRepMassGroupPlan50
  3
AecArchDACHBase40|Product Desc: Autodesk Architectural Desktop 2004 |Company: Autodesk,Inc. |WEB Address: www.autodesk.com
 90
    32897
280
     0
281
     0
  0
CLASS
  1
AEC_DISPREPAECDBDISPREPOPENINGPLAN100
  2
AecDbDispRepOpeningPlan100
  3
AecArchDACHBase40|Product Desc: Autodesk Architectural Desktop 2004 |Company: Autodesk,Inc. |WEB Address: www.autodesk.com
 90
    32897
280
     0
281
     0
  0
CLASS
  1
AEC_DISPROPSOPENINGPLANCOMMONHATCHED
  2
AecDbDispPropsOpeningPlanCommonHatched
  3
AecArchDACHBase40|Product Desc: Autodesk Architectural Desktop 2004 |Company: Autodesk,Inc. |WEB Address: www.autodesk.com
 90
    32897
280
     0
281
     0
  0
CLASS
  1
AEC_DISPREPAECDBDISPREPOPENINGPLAN50
  2
AecDbDispRepOpeningPlan50
  3
AecArchDACHBase40|Product Desc: Autodesk Architectural Desktop 2004 |Company: Autodesk,Inc. |WEB Address: www.autodesk.com
 90
    32897
280
     0
281
     0
  0
CLASS
  1
AEC_DISPREPAECDBDISPREPOPENINGPLANREFLECTED
  2
AecDbDispRepOpeningPlanReflected
  3
AecArchDACHBase40|Product Desc: Autodesk Architectural Desktop 2004 |Company: Autodesk,Inc. |WEB Address: www.autodesk.com
 90
    32897
280
     0
281
     0
  0
CLASS
  1
AEC_DISPROPSOPENINGPLANCOMMON
  2
AecDbDispPropsOpeningPlanCommon
  3
AecArchDACHBase40|Product Desc: Autodesk Architectural Desktop 2004 |Company: Autodesk,Inc. |WEB Address: www.autodesk.com
 90
    32897
280
     0
281
     0
  0
CLASS
  1
AEC_DISPREPAECDBDISPREPOPENINGSILLPLAN
  2
AecDbDispRepOpeningSillPlan
  3
AecArchDACHBase40|Product Desc: Autodesk Architectural Desktop 2004 |Company: Autodesk,Inc. |WEB Address: www.autodesk.com
 90
    32897
280
     0
281
     0
  0
CLASS
  1
AEC_DISPROPSOPENINGSILLPLAN
  2
AecDbDispPropsOpeningSillPlan
  3
AecArchDACHBase40|Product Desc: Autodesk Architectural Desktop 2004 |Company: Autodesk,Inc. |WEB Address: www.autodesk.com
 90
    32897
280
     0
281
     0
  0
CLASS
  1
AEC_DISP_REP_RAILING_PLAN_100
  2
AecDbDispRepRailingPlan100
  3
AecArchDACHBase40|Product Desc: Autodesk Architectural Desktop 2004 |Company: Autodesk,Inc. |WEB Address: www.autodesk.com
 90
    32897
280
     0
281
     0
  0
CLASS
  1
AEC_DISP_ROPS_RAILING_PLAN_100
  2
AecDbDispPropsRailingPlan100
  3
AecArchDACHBase40|Product Desc: Autodesk Architectural Desktop 2004 |Company: Autodesk,Inc. |WEB Address: www.autodesk.com
 90
    32897
280
     0
281
     0
  0
CLASS
  1
AEC_DISP_REP_RAILING_PLAN_50
  2
AecDbDispRepRailingPlan50
  3
AecArchDACHBase40|Product Desc: Autodesk Architectural Desktop 2004 |Company: Autodesk,Inc. |WEB Address: www.autodesk.com
 90
    32897
280
     0
281
     0
  0
CLASS
  1
AEC_DISP_ROPS_RAILING_PLAN_50
  2
AecDbDispPropsRailingPlan50
  3
AecArchDACHBase40|Product Desc: Autodesk Architectural Desktop 2004 |Company: Autodesk,Inc. |WEB Address: www.autodesk.com
 90
    32897
280
     0
281
     0
  0
CLASS
  1
AEC_DISP_REP_STAIR_PLAN_100
  2
AecDbDispRepStairPlan100
  3
AecArchDACHBase40|Product Desc: Autodesk Architectural Desktop 2004 |Company: Autodesk,Inc. |WEB Address: www.autodesk.com
 90
    32897
280
     0
281
     0
  0
CLASS
  1
AEC_DISP_ROPS_STAIR_PLAN_100
  2
AecDbDispPropsStairPlan100
  3
AecArchDACHBase40|Product Desc: Autodesk Architectural Desktop 2004 |Company: Autodesk,Inc. |WEB Address: www.autodesk.com
 90
    32897
280
     0
281
     0
  0
CLASS
  1
AEC_DISP_REP_STAIR_PLAN_50
  2
AecDbDispRepStairPlan50
  3
AecArchDACHBase40|Product Desc: Autodesk Architectural Desktop 2004 |Company: Autodesk,Inc. |WEB Address: www.autodesk.com
 90
    32897
280
     0
281
     0
  0
CLASS
  1
AEC_DISP_ROPS_STAIR_PLAN_50
  2
AecDbDispPropsStairPlan50
  3
AecArchDACHBase40|Product Desc: Autodesk Architectural Desktop 2004 |Company: Autodesk,Inc. |WEB Address: www.autodesk.com
 90
    32897
280
     0
281
     0
  0
CLASS
  1
AEC_DISP_REP_WINDOW_PLAN_100
  2
AecDbDispRepWindowPlan100
  3
AecArchDACHBase40|Product Desc: Autodesk Architectural Desktop 2004 |Company: Autodesk,Inc. |WEB Address: www.autodesk.com
 90
    32897
280
     0
281
     0
  0
CLASS
  1
AEC_DISP_PROPS_WINDOW_PLAN_100
  2
AecDbDispPropsWindowPlan100
  3
AecArchDACHBase40|Product Desc: Autodesk Architectural Desktop 2004 |Company: Autodesk,Inc. |WEB Address: www.autodesk.com
 90
    32897
280
     0
281
     0
  0
CLASS
  1
AEC_DISP_REP_WINDOW_PLAN_50
  2
AecDbDispRepWindowPlan50
  3
AecArchDACHBase40|Product Desc: Autodesk Architectural Desktop 2004 |Company: Autodesk,Inc. |WEB Address: www.autodesk.com
 90
    32897
280
     0
281
     0
  0
CLASS
  1
AEC_DISP_PROPS_WINDOW_PLAN_50
  2
AecDbDispPropsWindowPlan50
  3
AecArchDACHBase40|Product Desc: Autodesk Architectural Desktop 2004 |Company: Autodesk,Inc. |WEB Address: www.autodesk.com
 90
    32897
280
     0
281
     0
  0
CLASS
  1
BINRECORD
  2
AcAecBinRecord
  3
AecBase40|Product Desc: Autodesk Architectural Desktop 2004 |Company: Autodesk,Inc. |WEB Address: www.autodesk.com
 90
    32897
280
     0
281
     0
  0
ENDSEC
  0
SECTION
  2
TABLES
  0
TABLE
  2
VPORT
  5
224
330
0
100
AcDbSymbolTable
 70
     1
  0
VPORT
  5
225
330
224
100
AcDbSymbolTableRecord
100
AcDbViewportTableRecord
  2
*Active
 70
     0
 10
0.0
 20
0.0
 11
1.0
 21
1.0
 12
18.89855142152427
 22
157.0706488263697
 13
0.0
 23
0.0
 14
10.0
 24
10.0
 15
10.0
 25
10.0
 16
0.0
 26
0.0
 36
1.0
 17
0.0
 27
0.0
 37
0.0
 40
434.7454088238671
 41
1.549148099606814
 42
50.0
 43
0.0
 44
0.0
 50
0.0
 51
0.0
 71
     0
 72
   100
 73
     1
 74
     1
 75
     0
 76
     0
 77
     0
 78
     0
281
     0
 65
     1
110
0.0
120
0.0
130
0.0
111
1.0
121
0.0
131
0.0
112
0.0
122
1.0
132
0.0
 79
     0
146
0.0
  0
ENDTAB
  0
TABLE
  2
LTYPE
  5
21F
330
0
100
AcDbSymbolTable
 70
     4
  0
LTYPE
  5
220
330
21F
100
AcDbSymbolTableRecord
100
AcDbLinetypeTableRecord
  2
BYBLOCK
 70
     0
  3

 72
    65
 73
     0
 40
0.0
  0
LTYPE
  5
221
330
21F
100
AcDbSymbolTableRecord
100
AcDbLinetypeTableRecord
  2
BYLAYER
 70
     0
  3

 72
    65
 73
     0
 40
0.0
  0
LTYPE
  5
8
330
21F
100
AcDbSymbolTableRecord
100
AcDbLinetypeTableRecord
  2
CONTINUOUS
 70
     0
  3
Solid line
 72
    65
 73
     0
 40
0.0
  0
LTYPE
  5
B
330
21F
100
AcDbSymbolTableRecord
100
AcDbLinetypeTableRecord
  2
MITTEX2
 70
     0
  3
Mitte (2x) ________  __  ________  __  _____
 72
    65
 73
     4
 40
4.0
 49
2.5
 74
     0
 49
-0.5
 74
     0
 49
0.5
 74
     0
 49
-0.5
 74
     0
  0
LTYPE
  5
64
330
21F
100
AcDbSymbolTableRecord
100
AcDbLinetypeTableRecord
  2
STRICHLINIEX2
 70
     0
  3
Strichlinie (2x) ____  ____  ____  ____  ____  
 72
    65
 73
     2
 40
1.5
 49
1.0
 74
     0
 49
-0.5
 74
     0
  0
LTYPE
  5
F
330
21F
100
AcDbSymbolTableRecord
100
AcDbLinetypeTableRecord
  2
GETRENNTX2
 70
     0
  3
Getrennt (2x) ________  .  .  ________  .  .  _
 72
    65
 73
     6
 40
2.5
 49
1.0
 74
     0
 49
-0.5
 74
     0
 49
0.0
 74
     0
 49
-0.5
 74
     0
 49
0.0
 74
     0
 49
-0.5
 74
     0
  0
ENDTAB
  0
TABLE
  2
LAYER
  5
21A
102
{ACAD_XDICTIONARY
360
21B
102
}
330
0
100
AcDbSymbolTable
 70
    12
  0
LAYER
  5
4
330
21A
100
AcDbSymbolTableRecord
100
AcDbLayerTableRecord
  2
0
 70
     0
 62
     7
  6
CONTINUOUS
370
    -3
390
5
  0
LAYER
  5
73
330
21A
100
AcDbSymbolTableRecord
100
AcDbLayerTableRecord
  2
-PROFILAUSSENKANTET
 70
     0
 62
     4
  6
CONTINUOUS
370
    -3
390
5
1001
AVE_FINISH
1002
{
1070
     0
1005
0
1002
}
  0
LAYER
  5
92
330
21A
100
AcDbSymbolTableRecord
100
AcDbLayerTableRecord
  2
-DICHTUNG
 70
     0
 62
     3
  6
CONTINUOUS
370
    -3
390
5
1001
AVE_FINISH
1002
{
1070
     0
1005
0
1002
}
  0
LAYER
  5
116
330
21A
100
AcDbSymbolTableRecord
100
AcDbLayerTableRecord
  2
-NORMTEIL
 70
     0
 62
     6
  6
CONTINUOUS
370
    -3
390
5
  0
LAYER
  5
63
330
21A
100
AcDbSymbolTableRecord
100
AcDbLayerTableRecord
  2
-NORMTEIL_VERDECKT
 70
     0
 62
     9
  6
STRICHLINIEX2
370
    -3
390
5
  0
LAYER
  5
1F
330
21A
100
AcDbSymbolTableRecord
100
AcDbLayerTableRecord
  2
DEFPOINTS
 70
     0
 62
     7
  6
CONTINUOUS
290
     0
370
    -3
390
5
  0
LAYER
  5
A
330
21A
100
AcDbSymbolTableRecord
100
AcDbLayerTableRecord
  2
-SYSTEM
 70
     0
 62
     2
  6
MITTEX2
370
    -3
390
5
  0
LAYER
  5
16
330
21A
100
AcDbSymbolTableRecord
100
AcDbLayerTableRecord
  2
-TEXT3
 70
     0
 62
     2
  6
CONTINUOUS
370
    -3
390
5
  0
LAYER
  5
43
330
21A
100
AcDbSymbolTableRecord
100
AcDbLayerTableRecord
  2
-SCHRAFFUR
 70
     0
 62
     9
  6
CONTINUOUS
370
    -3
390
5
  0
LAYER
  5
33
330
21A
100
AcDbSymbolTableRecord
100
AcDbLayerTableRecord
  2
-VERGLASUNG
 70
     0
 62
     1
  6
CONTINUOUS
370
    -3
390
5
  0
LAYER
  5
11
330
21A
100
AcDbSymbolTableRecord
100
AcDbLayerTableRecord
  2
-TEXT2
 70
     0
 62
     3
  6
CONTINUOUS
370
    -3
390
5
  0
LAYER
  5
E
330
21A
100
AcDbSymbolTableRecord
100
AcDbLayerTableRecord
  2
-TRENNEN
 70
     0
 62
     2
  6
GETRENNTX2
370
    -3
390
5
  0
ENDTAB
  0
TABLE
  2
STYLE
  5
21D
330
0
100
AcDbSymbolTable
 70
     1
  0
STYLE
  5
12
330
21D
100
AcDbSymbolTableRecord
100
AcDbTextStyleTableRecord
  2
STANDARD
 70
     0
 40
0.0
 41
1.0
 50
0.0
 71
     0
 42
2.5
  3
ARIAL.TTF
  4

1001
ACAD
1000
Arial
1071
       34
  0
ENDTAB
  0
TABLE
  2
VIEW
  5
222
330
0
100
AcDbSymbolTable
 70
     0
  0
ENDTAB
  0
TABLE
  2
UCS
  5
223
330
0
100
AcDbSymbolTable
 70
     0
  0
ENDTAB
  0
TABLE
  2
APPID
  5
226
330
0
100
AcDbSymbolTable
 70
     2
  0
APPID
  5
13
330
226
100
AcDbSymbolTableRecord
100
AcDbRegAppTableRecord
  2
ACAD
 70
     0
  0
APPID
  5
74
330
226
100
AcDbSymbolTableRecord
100
AcDbRegAppTableRecord
  2
AVE_FINISH
 70
     0
  0
ENDTAB
  0
TABLE
  2
DIMSTYLE
  5
227
330
0
100
AcDbSymbolTable
 70
     1
100
AcDbDimStyleTable
 71
     1
340
17
  0
DIMSTYLE
105
17
102
{ACAD_REACTORS
330
F2
330
C9
330
BC
330
AF
330
65
330
136
330
50
330
42
330
34
330
79
330
15
330
25
330
103
330
11F
330
19E
330
1BC
330
1AF
330
1F6
330
1E1
330
1D3
102
}
330
227
100
AcDbSymbolTableRecord
100
AcDbDimStyleTableRecord
  2
1-1
 70
     0
 41
2.0
 42
2.0
 43
2.0
 44
1.0
 73
     0
 74
     0
 77
     1
 78
     9
140
5.0
147
1.0
176
     2
177
     2
178
     3
271
     1
272
     1
289
     2
340
12
  0
ENDTAB
  0
TABLE
  2
BLOCK_RECORD
  5
1
330
0
100
AcDbSymbolTable
 70
    20
  0
BLOCK_RECORD
  5
2
330
1
100
AcDbSymbolTableRecord
100
AcDbBlockTableRecord
  2
*MODEL_SPACE
340
214
  0
BLOCK_RECORD
  5
216
330
1
100
AcDbSymbolTableRecord
100
AcDbBlockTableRecord
  2
*PAPER_SPACE
340
219
  0
BLOCK_RECORD
  5
18
330
1
100
AcDbSymbolTableRecord
100
AcDbBlockTableRecord
  2
*D0
340
0
  0
BLOCK_RECORD
  5
26
330
1
100
AcDbSymbolTableRecord
100
AcDbBlockTableRecord
  2
*D1
340
0
  0
BLOCK_RECORD
  5
35
330
1
100
AcDbSymbolTableRecord
100
AcDbBlockTableRecord
  2
*D2
340
0
  0
BLOCK_RECORD
  5
44
330
1
100
AcDbSymbolTableRecord
100
AcDbBlockTableRecord
  2
*D3
340
0
  0
BLOCK_RECORD
  5
51
330
1
100
AcDbSymbolTableRecord
100
AcDbBlockTableRecord
  2
*D4
340
0
  0
BLOCK_RECORD
  5
66
330
1
100
AcDbSymbolTableRecord
100
AcDbBlockTableRecord
  2
*D5
340
0
  0
BLOCK_RECORD
  5
7A
330
1
100
AcDbSymbolTableRecord
100
AcDbBlockTableRecord
  2
*D6
340
0
  0
BLOCK_RECORD
  5
B0
330
1
100
AcDbSymbolTableRecord
100
AcDbBlockTableRecord
  2
*D7
340
0
  0
BLOCK_RECORD
  5
BD
330
1
100
AcDbSymbolTableRecord
100
AcDbBlockTableRecord
  2
*D8
340
0
  0
BLOCK_RECORD
  5
CA
330
1
100
AcDbSymbolTableRecord
100
AcDbBlockTableRecord
  2
*D9
340
0
  0
BLOCK_RECORD
  5
F3
330
1
100
AcDbSymbolTableRecord
100
AcDbBlockTableRecord
  2
*D10
340
0
  0
BLOCK_RECORD
  5
104
330
1
100
AcDbSymbolTableRecord
100
AcDbBlockTableRecord
  2
*D11
340
0
  0
BLOCK_RECORD
  5
120
330
1
100
AcDbSymbolTableRecord
100
AcDbBlockTableRecord
  2
*D12
340
0
  0
BLOCK_RECORD
  5
137
330
1
100
AcDbSymbolTableRecord
100
AcDbBlockTableRecord
  2
*D13
340
0
  0
BLOCK_RECORD
  5
19F
330
1
100
AcDbSymbolTableRecord
100
AcDbBlockTableRecord
  2
*D14
340
0
  0
BLOCK_RECORD
  5
1BD
330
1
100
AcDbSymbolTableRecord
100
AcDbBlockTableRecord
  2
*D15
340
0
  0
BLOCK_RECORD
  5
1B0
330
1
100
AcDbSymbolTableRecord
100
AcDbBlockTableRecord
  2
*D16
340
0
  0
BLOCK_RECORD
  5
1F7
330
1
100
AcDbSymbolTableRecord
100
AcDbBlockTableRecord
  2
*D17
340
0
  0
BLOCK_RECORD
  5
1E2
330
1
100
AcDbSymbolTableRecord
100
AcDbBlockTableRecord
  2
*D18
340
0
  0
BLOCK_RECORD
  5
1D4
330
1
100
AcDbSymbolTableRecord
100
AcDbBlockTableRecord
  2
*D19
340
0
  0
ENDTAB
  0
ENDSEC
  0
SECTION
  2
BLOCKS
  0
BLOCK
  5
3
330
2
100
AcDbEntity
  8
0
100
AcDbBlockBegin
  2
*MODEL_SPACE
 70
     0
 10
0.0
 20
0.0
 30
0.0
  3
*MODEL_SPACE
  1

  0
ENDBLK
  5
213
330
2
100
AcDbEntity
  8
0
100
AcDbBlockEnd
  0
BLOCK
  5
217
330
216
100
AcDbEntity
 67
     1
  8
0
100
AcDbBlockBegin
  2
*PAPER_SPACE
 70
     0
 10
0.0
 20
0.0
 30
0.0
  3
*PAPER_SPACE
  1

  0
ENDBLK
  5
218
330
216
100
AcDbEntity
 67
     1
  8
0
100
AcDbBlockEnd
  0
BLOCK
  5
19
330
18
100
AcDbEntity
  8
0
100
AcDbBlockBegin
  2
*D0
 70
     1
 10
0.0
 20
0.0
 30
0.0
  3
*D0
  1

  0
ARC
  5
1A
330
18
100
AcDbEntity
  8
-TEXT3
 62
     2
370
    -2
100
AcDbCircle
 10
31.23048429790225
 20
-4.049683562374086
 30
0.0
 40
38.56970207934319
100
AcDbArc
 50
2.971358218261551
 51
87.02864178173765
  0
SOLID
  5
1B
330
18
100
AcDbEntity
  8
-TEXT3
 62
     2
100
AcDbTrace
 10
70.08155348321762
 20
-2.041713527043285
 30
0.0
 11
69.41511092549008
 21
-2.058998251340476
 31
0.0
 12
69.80018637724544
 22
-4.049683562374482
 32
0.0
 13
69.80018637724544
 23
-4.049683562374482
 33
0.0
  0
SOLID
  5
1C
330
18
100
AcDbEntity
  8
-TEXT3
 62
     2
100
AcDbTrace
 10
33.22116960893637
 20
34.13494306521372
 30
0.0
 11
33.23845433323358
 21
34.80138562294126
 31
0.0
 12
31.23048429790238
 22
34.52001851696909
 32
0.0
 13
31.23048429790238
 23
34.52001851696909
 33
0.0
  0
MTEXT
  5
1D
330
18
100
AcDbEntity
  8
-TEXT3
 62
     3
100
AcDbMText
 10
61.01563707728087
 20
25.73546921700412
 30
0.0
 40
5.0
 41
0.0
 71
     5
 72
     1
  1
\A1;90°-180°
 11
0.7071067811865431
 21
-0.7071067811865519
 31
0.0
 73
     1
 44
1.0
1001
ACAD
1000
MTEXTBEGIN
1070
    73
1070
     1
1070
    44
1040
1.0
1070
    74
1070
     0
1000
MTEXTEND
  0
POINT
  5
1E
330
18
100
AcDbEntity
  8
DEFPOINTS
 62
     0
100
AcDbPoint
 10
64.63282611501108
 20
15.23516747729724
 30
0.0
  0
POINT
  5
20
330
18
100
AcDbEntity
  8
DEFPOINTS
 62
     0
100
AcDbPoint
 10
31.23048429790215
 20
-44.85395480983642
 30
0.0
  0
POINT
  5
21
330
18
100
AcDbEntity
  8
DEFPOINTS
 62
     0
100
AcDbPoint
 10
42.23048429790231
 20
-4.049683562374198
 30
0.0
  0
POINT
  5
22
330
18
100
AcDbEntity
  8
DEFPOINTS
 62
     0
100
AcDbPoint
 10
155.9982773397407
 20
-4.049683562375335
 30
0.0
  0
POINT
  5
23
330
18
100
AcDbEntity
  8
DEFPOINTS
 62
     0
100
AcDbPoint
 10
31.23048429790256
 20
120.7181094794634
 30
0.0
  0
ENDBLK
  5
24
330
18
100
AcDbEntity
  8
0
100
AcDbBlockEnd
  0
BLOCK
  5
27
330
26
100
AcDbEntity
  8
0
100
AcDbBlockBegin
  2
*D1
 70
     1
 10
0.0
 20
0.0
 30
0.0
  3
*D1
  1

  0
LINE
  5
28
330
26
100
AcDbEntity
  8
-TEXT3
 62
     2
370
    -2
100
AcDbLine
 10
82.07157263597208
 20
117.5020828943489
 30
0.0
 11
103.6609602056462
 21
139.0914704640231
 31
0.0
  0
LINE
  5
29
330
26
100
AcDbEntity
  8
-TEXT3
 62
     2
370
    -2
100
AcDbLine
 10
152.7822507546268
 20
46.79140477569414
 30
0.0
 11
174.3716383243009
 21
68.38079234536831
 31
0.0
  0
LINE
  5
2A
330
26
100
AcDbEntity
  8
-TEXT3
 62
     2
370
    -2
100
AcDbLine
 10
104.3680669868328
 20
136.9701501204634
 30
0.0
 11
172.2503179807413
 21
69.08789912655485
 31
0.0
  0
SOLID
  5
2B
330
26
100
AcDbEntity
  8
-TEXT3
 62
     2
100
AcDbTrace
 10
104.6037692472283
 20
137.2058523808589
 30
0.0
 11
104.1323647264372
 21
136.7344478600679
 31
0.0
 12
102.9538534244597
 22
138.3843636828365
 32
0.0
 13
102.9538534244597
 23
138.3843636828365
 33
0.0
  0
SOLID
  5
2C
330
26
100
AcDbEntity
  8
-TEXT3
 62
     2
100
AcDbTrace
 10
172.4860202411368
 20
69.32360138695037
 30
0.0
 11
172.0146157203458
 21
68.85219686615934
 31
0.0
 12
173.6645315431144
 22
67.67368556418175
 32
0.0
 13
173.6645315431144
 23
67.67368556418175
 33
0.0
  0
MTEXT
  5
2D
330
26
100
AcDbEntity
  8
-TEXT3
 62
     3
100
AcDbMText
 10
140.821447374517
 20
105.5412795142391
 30
0.0
 40
5.0
 41
0.0
 71
     5
 72
     1
  1
\A1;100
 11
0.7071067811865476
 21
-0.7071067811865475
 31
0.0
 73
     1
 44
1.0
1001
ACAD
1000
MTEXTBEGIN
1070
    73
1070
     1
1070
    44
1040
1.0
1070
    74
1070
     0
1000
MTEXTEND
  0
POINT
  5
2E
330
26
100
AcDbEntity
  8
DEFPOINTS
 62
     0
100
AcDbPoint
 10
80.65735907359897
 20
116.0878693319758
 30
0.0
  0
POINT
  5
2F
330
26
100
AcDbEntity
  8
DEFPOINTS
 62
     0
100
AcDbPoint
 10
151.3680371922537
 20
45.37719121332104
 30
0.0
  0
POINT
  5
30
330
26
100
AcDbEntity
  8
DEFPOINTS
 62
     0
100
AcDbPoint
 10
173.6645315431144
 20
67.67368556418175
 30
0.0
  0
ENDBLK
  5
31
330
26
100
AcDbEntity
  8
0
100
AcDbBlockEnd
  0
BLOCK
  5
36
330
35
100
AcDbEntity
  8
0
100
AcDbBlockBegin
  2
*D2
 70
     1
 10
0.0
 20
0.0
 30
0.0
  3
*D2
  1

  0
LINE
  5
37
330
35
100
AcDbEntity
  8
-TEXT3
 62
     2
370
    -2
100
AcDbLine
 10
31.23048429790276
 20
151.0023807269254
 30
0.0
 11
31.23048429790276
 21
158.9347870036145
 31
0.0
  0
LINE
  5
38
330
35
100
AcDbEntity
  8
-TEXT3
 62
     2
370
    -2
100
AcDbLine
 10
34.23048429790276
 20
135.2490345671438
 30
0.0
 11
34.23048429790276
 21
158.9347870036145
 31
0.0
  0
LINE
  5
39
330
35
100
AcDbEntity
  8
-TEXT3
 62
     2
370
    -2
100
AcDbLine
 10
29.23048429790276
 20
157.9347870036145
 30
0.0
 11
27.23048429790277
 21
157.9347870036145
 31
0.0
  0
LINE
  5
3A
330
35
100
AcDbEntity
  8
-TEXT3
 62
     2
370
    -2
100
AcDbLine
 10
36.23048429790276
 20
157.9347870036145
 30
0.0
 11
43.50469985042663
 21
157.9347870036145
 31
0.0
  0
SOLID
  5
3B
330
35
100
AcDbEntity
  8
-TEXT3
 62
     2
100
AcDbTrace
 10
29.23048429790276
 20
158.2681203369479
 30
0.0
 11
29.23048429790276
 21
157.6014536702812
 31
0.0
 12
31.23048429790276
 22
157.9347870036145
 32
0.0
 13
31.23048429790276
 23
157.9347870036145
 33
0.0
  0
SOLID
  5
3C
330
35
100
AcDbEntity
  8
-TEXT3
 62
     2
100
AcDbTrace
 10
36.23048429790276
 20
158.2681203369479
 30
0.0
 11
36.23048429790276
 21
157.6014536702812
 31
0.0
 12
34.23048429790276
 22
157.9347870036145
 32
0.0
 13
34.23048429790276
 23
157.9347870036145
 33
0.0
  0
MTEXT
  5
3D
330
35
100
AcDbEntity
  8
-TEXT3
 62
     3
100
AcDbMText
 10
40.86759207416469
 20
161.4893572628233
 30
0.0
 40
5.0
 41
0.0
 71
     5
 72
     1
  1
\A1;3
 73
     1
 44
1.0
1001
ACAD
1000
MTEXTBEGIN
1070
    73
1070
     1
1070
    44
1040
1.0
1070
    74
1070
     0
1000
MTEXTEND
  0
POINT
  5
3E
330
35
100
AcDbEntity
  8
DEFPOINTS
 62
     0
100
AcDbPoint
 10
31.23048429790276
 20
149.0023807269253
 30
0.0
  0
POINT
  5
3F
330
35
100
AcDbEntity
  8
DEFPOINTS
 62
     0
100
AcDbPoint
 10
34.23048429790276
 20
133.2490345671438
 30
0.0
  0
POINT
  5
40
330
35
100
AcDbEntity
  8
DEFPOINTS
 62
     0
100
AcDbPoint
 10
34.23048429790276
 20
157.9347870036145
 30
0.0
  0
ENDBLK
  5
41
330
35
100
AcDbEntity
  8
0
100
AcDbBlockEnd
  0
BLOCK
  5
45
330
44
100
AcDbEntity
  8
0
100
AcDbBlockBegin
  2
*D3
 70
     1
 10
0.0
 20
0.0
 30
0.0
  3
*D3
  1

  0
LINE
  5
46
330
44
100
AcDbEntity
  8
-SCHRAFFUR
 62
     2
370
    -2
100
AcDbLine
 10
31.23048429790276
 20
160.9347870036145
 30
0.0
 11
31.23048429790276
 21
168.9347870036144
 31
0.0
  0
LINE
  5
47
330
44
100
AcDbEntity
  8
-SCHRAFFUR
 62
     2
370
    -2
100
AcDbLine
 10
71.81852430876699
 20
125.0998824755449
 30
0.0
 11
71.81852430876699
 21
168.9347870036144
 31
0.0
  0
LINE
  5
48
330
44
100
AcDbEntity
  8
-SCHRAFFUR
 62
     2
370
    -2
100
AcDbLine
 10
33.23048429790276
 20
167.9347870036144
 30
0.0
 11
69.81852430876699
 21
167.9347870036144
 31
0.0
  0
SOLID
  5
49
330
44
100
AcDbEntity
  8
-SCHRAFFUR
 62
     2
100
AcDbTrace
 10
33.23048429790276
 20
168.2681203369477
 30
0.0
 11
33.23048429790276
 21
167.601453670281
 31
0.0
 12
31.23048429790276
 22
167.9347870036144
 32
0.0
 13
31.23048429790276
 23
167.9347870036144
 33
0.0
  0
SOLID
  5
4A
330
44
100
AcDbEntity
  8
-SCHRAFFUR
 62
     2
100
AcDbTrace
 10
69.81852430876699
 20
168.2681203369477
 30
0.0
 11
69.81852430876699
 21
167.601453670281
 31
0.0
 12
71.81852430876699
 22
167.9347870036144
 32
0.0
 13
71.81852430876699
 23
167.9347870036144
 33
0.0
  0
MTEXT
  5
4B
330
44
100
AcDbEntity
  8
-SCHRAFFUR
 62
     3
100
AcDbMText
 10
51.52450430333487
 20
171.4876519422228
 30
0.0
 40
5.0
 41
0.0
 71
     5
 72
     1
  1
\A1;40.6
 73
     1
 44
1.0
1001
ACAD
1000
MTEXTBEGIN
1070
    73
1070
     1
1070
    44
1040
1.0
1070
    74
1070
     0
1000
MTEXTEND
  0
POINT
  5
4C
330
44
100
AcDbEntity
  8
DEFPOINTS
 62
     0
100
AcDbPoint
 10
31.23048429790276
 20
158.9347870036145
 30
0.0
  0
POINT
  5
4D
330
44
100
AcDbEntity
  8
DEFPOINTS
 62
     0
100
AcDbPoint
 10
71.81852430876699
 20
123.0998824755449
 30
0.0
  0
POINT
  5
4E
330
44
100
AcDbEntity
  8
DEFPOINTS
 62
     0
100
AcDbPoint
 10
71.81852430876699
 20
167.9347870036144
 30
0.0
  0
ENDBLK
  5
4F
330
44
100
AcDbEntity
  8
0
100
AcDbBlockEnd
  0
BLOCK
  5
52
330
51
100
AcDbEntity
  8
0
100
AcDbBlockBegin
  2
*D4
 70
     1
 10
0.0
 20
0.0
 30
0.0
  3
*D4
  1

  0
LINE
  5
53
330
51
100
AcDbEntity
  8
-SCHRAFFUR
 62
     2
370
    -2
100
AcDbLine
 10
31.23048429790276
 20
170.9347870036144
 30
0.0
 11
31.23048429790276
 21
178.9347870036144
 31
0.0
  0
LINE
  5
54
330
51
100
AcDbEntity
  8
-SCHRAFFUR
 62
     2
370
    -2
100
AcDbLine
 10
84.318524308767
 20
109.2490345671438
 30
0.0
 11
84.318524308767
 21
178.9347870036144
 31
0.0
  0
LINE
  5
55
330
51
100
AcDbEntity
  8
-SCHRAFFUR
 62
     2
370
    -2
100
AcDbLine
 10
33.23048429790276
 20
177.9347870036144
 30
0.0
 11
82.31852430876699
 21
177.9347870036144
 31
0.0
  0
SOLID
  5
56
330
51
100
AcDbEntity
  8
-SCHRAFFUR
 62
     2
100
AcDbTrace
 10
33.23048429790276
 20
178.2681203369477
 30
0.0
 11
33.23048429790276
 21
177.6014536702811
 31
0.0
 12
31.23048429790276
 22
177.9347870036144
 32
0.0
 13
31.23048429790276
 23
177.9347870036144
 33
0.0
  0
SOLID
  5
57
330
51
100
AcDbEntity
  8
-SCHRAFFUR
 62
     2
100
AcDbTrace
 10
82.31852430876699
 20
178.2681203369477
 30
0.0
 11
82.31852430876699
 21
177.6014536702811
 31
0.0
 12
84.318524308767
 22
177.9347870036144
 32
0.0
 13
84.318524308767
 23
177.9347870036144
 33
0.0
  0
MTEXT
  5
58
330
51
100
AcDbEntity
  8
-SCHRAFFUR
 62
     3
100
AcDbMText
 10
57.77450430333487
 20
181.4893572628231
 30
0.0
 40
5.0
 41
0.0
 71
     5
 72
     1
  1
\A1;53.1
 73
     1
 44
1.0
1001
ACAD
1000
MTEXTBEGIN
1070
    73
1070
     1
1070
    44
1040
1.0
1070
    74
1070
     0
1000
MTEXTEND
  0
POINT
  5
59
330
51
100
AcDbEntity
  8
DEFPOINTS
 62
     0
100
AcDbPoint
 10
31.23048429790276
 20
168.9347870036144
 30
0.0
  0
POINT
  5
5A
330
51
100
AcDbEntity
  8
DEFPOINTS
 62
     0
100
AcDbPoint
 10
84.318524308767
 20
107.2490345671438
 30
0.0
  0
POINT
  5
5B
330
51
100
AcDbEntity
  8
DEFPOINTS
 62
     0
100
AcDbPoint
 10
84.318524308767
 20
177.9347870036144
 30
0.0
  0
ENDBLK
  5
5C
330
51
100
AcDbEntity
  8
0
100
AcDbBlockEnd
  0
BLOCK
  5
67
330
66
100
AcDbEntity
  8
0
100
AcDbBlockBegin
  2
*D5
 70
     1
 10
0.0
 20
0.0
 30
0.0
  3
*D5
  1

  0
LINE
  5
68
330
66
100
AcDbEntity
  8
-TEXT3
 62
     2
370
    -2
100
AcDbLine
 10
142.5292024274201
 20
-47.56959693776259
 30
0.0
 11
142.5292024274201
 21
-58.60603414748908
 31
0.0
  0
LINE
  5
69
330
66
100
AcDbEntity
  8
-TEXT3
 62
     2
370
    -2
100
AcDbLine
 10
17.71048429790173
 20
-18.5696835623744
 30
0.0
 11
17.71048429790172
 21
-58.60603414748908
 31
0.0
  0
LINE
  5
6A
330
66
100
AcDbEntity
  8
-TEXT3
 62
     2
370
    -2
100
AcDbLine
 10
140.5292024274201
 20
-57.60603414748908
 30
0.0
 11
19.71048429790172
 21
-57.60603414748908
 31
0.0
  0
SOLID
  5
6B
330
66
100
AcDbEntity
  8
-TEXT3
 62
     2
100
AcDbTrace
 10
140.5292024274201
 20
-57.27270081415575
 30
0.0
 11
140.5292024274201
 21
-57.93936748082241
 31
0.0
 12
142.5292024274201
 22
-57.60603414748908
 32
0.0
 13
142.5292024274201
 23
-57.60603414748908
 33
0.0
  0
SOLID
  5
6C
330
66
100
AcDbEntity
  8
-TEXT3
 62
     2
100
AcDbTrace
 10
19.71048429790172
 20
-57.27270081415575
 30
0.0
 11
19.71048429790172
 21
-57.93936748082241
 31
0.0
 12
17.71048429790172
 22
-57.60603414748908
 32
0.0
 13
17.71048429790172
 23
-57.60603414748908
 33
0.0
  0
MTEXT
  5
6D
330
66
100
AcDbEntity
  8
-TEXT3
 62
     3
100
AcDbMText
 10
80.11984336266092
 20
-53.32840795376466
 30
0.0
 40
5.0
 41
0.0
 71
     5
 72
     1
  1
\A1;abhänig von Glasdicke "G"
 73
     1
 44
1.0
1001
ACAD
1000
MTEXTBEGIN
1070
    73
1070
     1
1070
    44
1040
1.0
1070
    74
1070
     0
1000
MTEXTEND
  0
POINT
  5
6E
330
66
100
AcDbEntity
  8
DEFPOINTS
 62
     0
100
AcDbPoint
 10
142.5292024274201
 20
-45.56959693776259
 30
0.0
  0
POINT
  5
6F
330
66
100
AcDbEntity
  8
DEFPOINTS
 62
     0
100
AcDbPoint
 10
17.71048429790173
 20
-16.5696835623744
 30
0.0
  0
POINT
  5
70
330
66
100
AcDbEntity
  8
DEFPOINTS
 62
     0
100
AcDbPoint
 10
17.71048429790172
 20
-57.60603414748908
 30
0.0
  0
ENDBLK
  5
71
330
66
100
AcDbEntity
  8
0
100
AcDbBlockEnd
  0
BLOCK
  5
7B
330
7A
100
AcDbEntity
  8
0
100
AcDbBlockBegin
  2
*D6
 70
     1
 10
0.0
 20
0.0
 30
0.0
  3
*D6
  1

  0
LINE
  5
7C
330
7A
100
AcDbEntity
  8
-TEXT3
 62
     2
370
    -2
100
AcDbLine
 10
-18.29041332945314
 20
107.2490345671426
 30
0.0
 11
-23.32586628721245
 21
107.2490345671426
 31
0.0
  0
LINE
  5
7D
330
7A
100
AcDbEntity
  8
-TEXT3
 62
     2
370
    -2
100
AcDbLine
 10
16.7104842979017
 20
-17.56968356237451
 30
0.0
 11
-23.32586628721248
 21
-17.5696835623745
 31
0.0
  0
LINE
  5
7E
330
7A
100
AcDbEntity
  8
-TEXT3
 62
     2
370
    -2
100
AcDbLine
 10
-22.32586628721245
 20
105.2490345671426
 30
0.0
 11
-22.32586628721248
 21
-15.5696835623745
 31
0.0
  0
SOLID
  5
7F
330
7A
100
AcDbEntity
  8
-TEXT3
 62
     2
100
AcDbTrace
 10
-22.65919962054578
 20
105.2490345671426
 30
0.0
 11
-21.99253295387912
 21
105.2490345671426
 31
0.0
 12
-22.32586628721245
 22
107.2490345671426
 32
0.0
 13
-22.32586628721245
 23
107.2490345671426
 33
0.0
  0
SOLID
  5
80
330
7A
100
AcDbEntity
  8
-TEXT3
 62
     2
100
AcDbTrace
 10
-22.65919962054581
 20
-15.5696835623745
 30
0.0
 11
-21.99253295387915
 21
-15.5696835623745
 31
0.0
 12
-22.32586628721248
 22
-17.5696835623745
 32
0.0
 13
-22.32586628721248
 23
-17.5696835623745
 33
0.0
  0
MTEXT
  5
81
330
7A
100
AcDbEntity
  8
-TEXT3
 62
     3
100
AcDbMText
 10
-26.60349248093689
 20
44.83967550238406
 30
0.0
 40
5.0
 41
0.0
 71
     5
 72
     1
  1
\A1;abhänig von Glasdicke "G"
 11
0.0000000000000001
 21
1.0
 31
0.0
 73
     1
 44
1.0
1001
ACAD
1000
MTEXTBEGIN
1070
    73
1070
     1
1070
    44
1040
1.0
1070
    74
1070
     0
1000
MTEXTEND
  0
POINT
  5
82
330
7A
100
AcDbEntity
  8
DEFPOINTS
 62
     0
100
AcDbPoint
 10
-16.29041332945314
 20
107.2490345671426
 30
0.0
  0
POINT
  5
83
330
7A
100
AcDbEntity
  8
DEFPOINTS
 62
     0
100
AcDbPoint
 10
18.7104842979017
 20
-17.56968356237451
 30
0.0
  0
POINT
  5
84
330
7A
100
AcDbEntity
  8
DEFPOINTS
 62
     0
100
AcDbPoint
 10
-22.32586628721248
 20
-17.5696835623745
 30
0.0
  0
ENDBLK
  5
85
330
7A
100
AcDbEntity
  8
0
100
AcDbBlockEnd
  0
BLOCK
  5
B1
330
B0
100
AcDbEntity
  8
0
100
AcDbBlockBegin
  2
*D7
 70
     1
 10
0.0
 20
0.0
 30
0.0
  3
*D7
  1

  0
LINE
  5
B2
330
B0
100
AcDbEntity
  8
-SCHRAFFUR
 62
     2
370
    -2
100
AcDbLine
 10
206.2149548638924
 20
-4.049683562375446
 30
0.0
 11
214.2149548638924
 21
-4.049683562375449
 31
0.0
  0
LINE
  5
B3
330
B0
100
AcDbEntity
  8
-SCHRAFFUR
 62
     2
370
    -2
100
AcDbLine
 10
144.5292024274218
 20
49.03835644848906
 30
0.0
 11
214.2149548638924
 21
49.03835644848903
 31
0.0
  0
LINE
  5
B4
330
B0
100
AcDbEntity
  8
-SCHRAFFUR
 62
     2
370
    -2
100
AcDbLine
 10
213.2149548638924
 20
-2.049683562375448
 30
0.0
 11
213.2149548638924
 21
47.03835644848903
 31
0.0
  0
SOLID
  5
B5
330
B0
100
AcDbEntity
  8
-SCHRAFFUR
 62
     2
100
AcDbTrace
 10
212.881621530559
 20
-2.049683562375448
 30
0.0
 11
213.5482881972257
 21
-2.049683562375448
 31
0.0
 12
213.2149548638924
 22
-4.049683562375448
 32
0.0
 13
213.2149548638924
 23
-4.049683562375448
 33
0.0
  0
SOLID
  5
B6
330
B0
100
AcDbEntity
  8
-SCHRAFFUR
 62
     2
100
AcDbTrace
 10
212.881621530559
 20
47.03835644848903
 30
0.0
 11
213.5482881972257
 21
47.03835644848903
 31
0.0
 12
213.2149548638924
 22
49.03835644848903
 32
0.0
 13
213.2149548638924
 23
49.03835644848903
 33
0.0
  0
MTEXT
  5
B7
330
B0
100
AcDbEntity
  8
-SCHRAFFUR
 62
     3
100
AcDbMText
 10
209.6603846046837
 20
22.49433644305683
 30
0.0
 40
5.0
 41
0.0
 71
     5
 72
     1
  1
\A1;53.1
 11
0.0000000000000001
 21
1.0
 31
0.0
 73
     1
 44
1.0
1001
ACAD
1000
MTEXTBEGIN
1070
    73
1070
     1
1070
    44
1040
1.0
1070
    74
1070
     0
1000
MTEXTEND
  0
POINT
  5
B8
330
B0
100
AcDbEntity
  8
DEFPOINTS
 62
     0
100
AcDbPoint
 10
204.2149548638924
 20
-4.049683562375445
 30
0.0
  0
POINT
  5
B9
330
B0
100
AcDbEntity
  8
DEFPOINTS
 62
     0
100
AcDbPoint
 10
142.5292024274218
 20
49.03835644848907
 30
0.0
  0
POINT
  5
BA
330
B0
100
AcDbEntity
  8
DEFPOINTS
 62
     0
100
AcDbPoint
 10
213.2149548638924
 20
49.03835644848903
 30
0.0
  0
ENDBLK
  5
BB
330
B0
100
AcDbEntity
  8
0
100
AcDbBlockEnd
  0
BLOCK
  5
BE
330
BD
100
AcDbEntity
  8
0
100
AcDbBlockBegin
  2
*D8
 70
     1
 10
0.0
 20
0.0
 30
0.0
  3
*D8
  1

  0
LINE
  5
BF
330
BD
100
AcDbEntity
  8
-SCHRAFFUR
 62
     2
370
    -2
100
AcDbLine
 10
196.2149548638924
 20
-4.049683562375388
 30
0.0
 11
204.2149548638924
 21
-4.049683562375391
 31
0.0
  0
LINE
  5
C0
330
BD
100
AcDbEntity
  8
-SCHRAFFUR
 62
     2
370
    -2
100
AcDbLine
 10
157.029202427422
 20
36.53835644848901
 30
0.0
 11
204.2149548638924
 21
36.538356448489
 31
0.0
  0
LINE
  5
C1
330
BD
100
AcDbEntity
  8
-SCHRAFFUR
 62
     2
370
    -2
100
AcDbLine
 10
203.2149548638924
 20
-2.049683562375391
 30
0.0
 11
203.2149548638924
 21
34.53835644848901
 31
0.0
  0
SOLID
  5
C2
330
BD
100
AcDbEntity
  8
-SCHRAFFUR
 62
     2
100
AcDbTrace
 10
202.8816215305591
 20
-2.049683562375391
 30
0.0
 11
203.5482881972257
 21
-2.049683562375391
 31
0.0
 12
203.2149548638924
 22
-4.049683562375391
 32
0.0
 13
203.2149548638924
 23
-4.049683562375391
 33
0.0
  0
SOLID
  5
C3
330
BD
100
AcDbEntity
  8
-SCHRAFFUR
 62
     2
100
AcDbTrace
 10
202.8816215305591
 20
34.53835644848901
 30
0.0
 11
203.5482881972257
 21
34.53835644848901
 31
0.0
 12
203.2149548638924
 22
36.538356448489
 32
0.0
 13
203.2149548638924
 23
36.538356448489
 33
0.0
  0
MTEXT
  5
C4
330
BD
100
AcDbEntity
  8
-SCHRAFFUR
 62
     3
100
AcDbMText
 10
199.6620899252839
 20
16.24433644305684
 30
0.0
 40
5.0
 41
0.0
 71
     5
 72
     1
  1
\A1;40.6
 11
0.0000000000000001
 21
1.0
 31
0.0
 73
     1
 44
1.0
1001
ACAD
1000
MTEXTBEGIN
1070
    73
1070
     1
1070
    44
1040
1.0
1070
    74
1070
     0
1000
MTEXTEND
  0
POINT
  5
C5
330
BD
100
AcDbEntity
  8
DEFPOINTS
 62
     0
100
AcDbPoint
 10
194.2149548638924
 20
-4.049683562375388
 30
0.0
  0
POINT
  5
C6
330
BD
100
AcDbEntity
  8
DEFPOINTS
 62
     0
100
AcDbPoint
 10
155.029202427422
 20
36.53835644848901
 30
0.0
  0
POINT
  5
C7
330
BD
100
AcDbEntity
  8
DEFPOINTS
 62
     0
100
AcDbPoint
 10
203.2149548638924
 20
36.538356448489
 30
0.0
  0
ENDBLK
  5
C8
330
BD
100
AcDbEntity
  8
0
100
AcDbBlockEnd
  0
BLOCK
  5
CB
330
CA
100
AcDbEntity
  8
0
100
AcDbBlockBegin
  2
*D9
 70
     1
 10
0.0
 20
0.0
 30
0.0
  3
*D9
  1

  0
LINE
  5
CC
330
CA
100
AcDbEntity
  8
-TEXT3
 62
     2
370
    -2
100
AcDbLine
 10
186.2825485872029
 20
-4.049683562375389
 30
0.0
 11
194.2149548638924
 21
-4.049683562375392
 31
0.0
  0
LINE
  5
CD
330
CA
100
AcDbEntity
  8
-TEXT3
 62
     2
370
    -2
100
AcDbLine
 10
170.5292024274214
 20
-1.049683562375389
 30
0.0
 11
194.2149548638924
 21
-1.049683562375395
 31
0.0
  0
LINE
  5
CE
330
CA
100
AcDbEntity
  8
-TEXT3
 62
     2
370
    -2
100
AcDbLine
 10
193.2149548638924
 20
-6.049683562375391
 30
0.0
 11
193.2149548638924
 21
-8.049683562375392
 31
0.0
  0
LINE
  5
CF
330
CA
100
AcDbEntity
  8
-TEXT3
 62
     2
370
    -2
100
AcDbLine
 10
193.2149548638924
 20
0.9503164376246042
 30
0.0
 11
193.2149548638924
 21
8.2245319901485
 31
0.0
  0
SOLID
  5
D0
330
CA
100
AcDbEntity
  8
-TEXT3
 62
     2
100
AcDbTrace
 10
192.881621530559
 20
-6.049683562375391
 30
0.0
 11
193.5482881972257
 21
-6.049683562375391
 31
0.0
 12
193.2149548638924
 22
-4.049683562375391
 32
0.0
 13
193.2149548638924
 23
-4.049683562375391
 33
0.0
  0
SOLID
  5
D1
330
CA
100
AcDbEntity
  8
-TEXT3
 62
     2
100
AcDbTrace
 10
192.881621530559
 20
0.9503164376246042
 30
0.0
 11
193.5482881972257
 21
0.9503164376246042
 31
0.0
 12
193.2149548638924
 22
-1.049683562375395
 32
0.0
 13
193.2149548638924
 23
-1.049683562375395
 33
0.0
  0
MTEXT
  5
D2
330
CA
100
AcDbEntity
  8
-TEXT3
 62
     3
100
AcDbMText
 10
189.6603846046836
 20
5.587424213886595
 30
0.0
 40
5.0
 41
0.0
 71
     5
 72
     1
  1
\A1;3
 11
0.0000000000000001
 21
1.0
 31
0.0
 73
     1
 44
1.0
1001
ACAD
1000
MTEXTBEGIN
1070
    73
1070
     1
1070
    44
1040
1.0
1070
    74
1070
     0
1000
MTEXTEND
  0
POINT
  5
D3
330
CA
100
AcDbEntity
  8
DEFPOINTS
 62
     0
100
AcDbPoint
 10
184.2825485872029
 20
-4.049683562375388
 30
0.0
  0
POINT
  5
D4
330
CA
100
AcDbEntity
  8
DEFPOINTS
 62
     0
100
AcDbPoint
 10
168.5292024274214
 20
-1.049683562375388
 30
0.0
  0
POINT
  5
D5
330
CA
100
AcDbEntity
  8
DEFPOINTS
 62
     0
100
AcDbPoint
 10
193.2149548638924
 20
-1.049683562375395
 30
0.0
  0
ENDBLK
  5
D6
330
CA
100
AcDbEntity
  8
0
100
AcDbBlockEnd
  0
BLOCK
  5
F4
330
F3
100
AcDbEntity
  8
0
100
AcDbBlockBegin
  2
*D10
 70
     1
 10
0.0
 20
0.0
 30
0.0
  3
*D10
  1

  0
LINE
  5
F5
330
F3
100
AcDbEntity
  8
-TEXT3
 62
     2
370
    -2
100
AcDbLine
 10
186.2825485872029
 20
-17.56968356237605
 30
0.0
 11
194.2149548638921
 21
-17.56968356237605
 31
0.0
  0
LINE
  5
F6
330
F3
100
AcDbEntity
  8
-TEXT3
 62
     2
370
    -2
100
AcDbLine
 10
186.2825485872029
 20
-4.049683562375389
 30
0.0
 11
194.2149548638921
 21
-4.049683562375392
 31
0.0
  0
LINE
  5
F7
330
F3
100
AcDbEntity
  8
-TEXT3
 62
     2
370
    -2
100
AcDbLine
 10
193.2149548638921
 20
-15.56968356237605
 30
0.0
 11
193.2149548638921
 21
-6.049683562375391
 31
0.0
  0
SOLID
  5
F8
330
F3
100
AcDbEntity
  8
-TEXT3
 62
     2
100
AcDbTrace
 10
192.8816215305588
 20
-15.56968356237605
 30
0.0
 11
193.5482881972255
 21
-15.56968356237605
 31
0.0
 12
193.2149548638921
 22
-17.56968356237605
 32
0.0
 13
193.2149548638921
 23
-17.56968356237605
 33
0.0
  0
SOLID
  5
F9
330
F3
100
AcDbEntity
  8
-TEXT3
 62
     2
100
AcDbTrace
 10
192.8816215305588
 20
-6.049683562375391
 30
0.0
 11
193.5482881972255
 21
-6.049683562375391
 31
0.0
 12
193.2149548638921
 22
-4.049683562375391
 32
0.0
 13
193.2149548638921
 23
-4.049683562375391
 33
0.0
  0
MTEXT
  5
FA
330
F3
100
AcDbEntity
  8
-TEXT3
 62
     3
100
AcDbMText
 10
189.6296888338785
 20
-10.80968356237569
 30
0.0
 40
5.0
 41
0.0
 71
     5
 72
     1
  1
\A1;G
 11
0.0000000000000001
 21
1.0
 31
0.0
 73
     1
 44
1.0
1001
ACAD
1000
MTEXTBEGIN
1070
    73
1070
     1
1070
    44
1040
1.0
1070
    74
1070
     0
1000
MTEXTEND
  0
POINT
  5
FB
330
F3
100
AcDbEntity
  8
DEFPOINTS
 62
     0
100
AcDbPoint
 10
184.2825485872029
 20
-17.56968356237605
 30
0.0
  0
POINT
  5
FC
330
F3
100
AcDbEntity
  8
DEFPOINTS
 62
     0
100
AcDbPoint
 10
184.2825485872029
 20
-4.049683562375388
 30
0.0
  0
POINT
  5
FD
330
F3
100
AcDbEntity
  8
DEFPOINTS
 62
     0
100
AcDbPoint
 10
193.2149548638921
 20
-4.049683562375391
 30
0.0
  0
ENDBLK
  5
FE
330
F3
100
AcDbEntity
  8
0
100
AcDbBlockEnd
  0
BLOCK
  5
105
330
104
100
AcDbEntity
  8
0
100
AcDbBlockBegin
  2
*D11
 70
     1
 10
0.0
 20
0.0
 30
0.0
  3
*D11
  1

  0
LINE
  5
106
330
104
100
AcDbEntity
  8
-TEXT3
 62
     2
370
    -2
100
AcDbLine
 10
154.5500177075932
 20
45.02363782272775
 30
0.0
 11
169.0683374654023
 21
59.54195758053645
 31
0.0
  0
LINE
  5
107
330
104
100
AcDbEntity
  8
-TEXT3
 62
     2
370
    -2
100
AcDbLine
 10
151.0144838016605
 20
48.55917172866049
 30
0.0
 11
165.5328035594697
 21
63.07749148646921
 31
0.0
  0
LINE
  5
108
330
104
100
AcDbEntity
  8
-TEXT3
 62
     2
370
    -2
100
AcDbLine
 10
169.7754442465889
 20
57.42063723697679
 30
0.0
 11
171.1896578089619
 21
56.00642367460367
 31
0.0
  0
LINE
  5
109
330
104
100
AcDbEntity
  8
-TEXT3
 62
     2
370
    -2
100
AcDbLine
 10
163.4114832159101
 20
63.78459826765579
 30
0.0
 11
151.3921149482516
 21
75.80396653531463
 31
0.0
  0
SOLID
  5
10A
330
104
100
AcDbEntity
  8
-TEXT3
 62
     2
100
AcDbTrace
 10
170.0111465069843
 20
57.65633949737232
 30
0.0
 11
169.5397419861933
 21
57.18493497658128
 31
0.0
 12
168.3612306842158
 22
58.83485079934991
 32
0.0
 13
168.3612306842158
 23
58.83485079934991
 33
0.0
  0
SOLID
  5
10B
330
104
100
AcDbEntity
  8
-TEXT3
 62
     2
100
AcDbTrace
 10
163.6471854763056
 20
64.02030052805132
 30
0.0
 11
163.1757809555145
 21
63.54889600726028
 31
0.0
 12
164.8256967782831
 22
62.37038470528267
 32
0.0
 13
164.8256967782831
 23
62.37038470528267
 33
0.0
  0
MTEXT
  5
10C
330
104
100
AcDbEntity
  8
-TEXT3
 62
     3
100
AcDbMText
 10
159.2069471916243
 20
73.01364407340173
 30
0.0
 40
5.0
 41
0.0
 71
     5
 72
     1
  1
\A1;±2.5
 11
0.7071067811865363
 21
-0.7071067811865588
 31
0.0
 73
     1
 44
1.0
1001
ACAD
1000
MTEXTBEGIN
1070
    73
1070
     1
1070
    44
1040
1.0
1070
    74
1070
     0
1000
MTEXTEND
  0
POINT
  5
10D
330
104
100
AcDbEntity
  8
DEFPOINTS
 62
     0
100
AcDbPoint
 10
153.13580414522
 20
43.60942426035467
 30
0.0
  0
POINT
  5
10E
330
104
100
AcDbEntity
  8
DEFPOINTS
 62
     0
100
AcDbPoint
 10
149.6002702392874
 20
47.14495816628742
 30
0.0
  0
POINT
  5
10F
330
104
100
AcDbEntity
  8
DEFPOINTS
 62
     0
100
AcDbPoint
 10
164.8256967782831
 20
62.37038470528267
 30
0.0
  0
ENDBLK
  5
110
330
104
100
AcDbEntity
  8
0
100
AcDbBlockEnd
  0
BLOCK
  5
121
330
120
100
AcDbEntity
  8
0
100
AcDbBlockBegin
  2
*D12
 70
     1
 10
0.0
 20
0.0
 30
0.0
  3
*D12
  1

  0
LINE
  5
122
330
120
100
AcDbEntity
  8
-TEXT3
 62
     2
370
    -2
100
AcDbLine
 10
80.30380568300548
 20
119.2698498473153
 30
0.0
 11
94.82212544081397
 21
133.7881696051243
 31
0.0
  0
LINE
  5
123
330
120
100
AcDbEntity
  8
-TEXT3
 62
     2
370
    -2
100
AcDbLine
 10
83.83933958893827
 20
115.7343159413827
 30
0.0
 11
98.35765934674675
 21
130.2526356991916
 31
0.0
  0
LINE
  5
124
330
120
100
AcDbEntity
  8
-TEXT3
 62
     2
370
    -2
100
AcDbLine
 10
92.70080509725431
 20
134.4952763863108
 30
0.0
 11
91.2865915348812
 21
135.9094899486839
 31
0.0
  0
LINE
  5
125
330
120
100
AcDbEntity
  8
-TEXT3
 62
     2
370
    -2
100
AcDbLine
 10
99.06476612793333
 20
128.131315355632
 30
0.0
 11
111.0841343955921
 21
116.1119470879736
 31
0.0
  0
SOLID
  5
126
330
120
100
AcDbEntity
  8
-TEXT3
 62
     2
100
AcDbTrace
 10
92.93650735764984
 20
134.7309786467063
 30
0.0
 11
92.46510283685879
 21
134.2595741259153
 31
0.0
 12
94.11501865962746
 22
133.0810628239377
 32
0.0
 13
94.11501865962746
 23
133.0810628239377
 33
0.0
  0
SOLID
  5
127
330
120
100
AcDbEntity
  8
-TEXT3
 62
     2
100
AcDbTrace
 10
99.30046838832884
 20
128.3670176160276
 30
0.0
 11
98.82906386753781
 21
127.8956130952365
 31
0.0
 12
97.65055256556022
 22
129.5455289180051
 32
0.0
 13
97.65055256556022
 23
129.5455289180051
 33
0.0
  0
MTEXT
  5
128
330
120
100
AcDbEntity
  8
-TEXT3
 62
     3
100
AcDbMText
 10
108.2938119336792
 20
123.9267793313463
 30
0.0
 40
5.0
 41
0.0
 71
     5
 72
     1
  1
\A1;±2.5
 11
0.707106781186559
 21
-0.7071067811865363
 31
0.0
 73
     1
 44
1.0
1001
ACAD
1000
MTEXTBEGIN
1070
    73
1070
     1
1070
    44
1040
1.0
1070
    74
1070
     0
1000
MTEXTEND
  0
POINT
  5
129
330
120
100
AcDbEntity
  8
DEFPOINTS
 62
     0
100
AcDbPoint
 10
78.88959212063241
 20
117.8556362849422
 30
0.0
  0
POINT
  5
12A
330
120
100
AcDbEntity
  8
DEFPOINTS
 62
     0
100
AcDbPoint
 10
82.42512602656519
 20
114.3201023790096
 30
0.0
  0
POINT
  5
12B
330
120
100
AcDbEntity
  8
DEFPOINTS
 62
     0
100
AcDbPoint
 10
97.65055256556022
 20
129.5455289180051
 30
0.0
  0
ENDBLK
  5
12C
330
120
100
AcDbEntity
  8
0
100
AcDbBlockEnd
  0
BLOCK
  5
138
330
137
100
AcDbEntity
  8
0
100
AcDbBlockBegin
  2
*D13
 70
     1
 10
0.0
 20
0.0
 30
0.0
  3
*D13
  1

  0
LINE
  5
139
330
137
100
AcDbEntity
  8
-TEXT3
 62
     2
370
    -2
100
AcDbLine
 10
17.7104842979021
 20
151.0023807269254
 30
0.0
 11
17.7104842979021
 21
158.9347870036145
 31
0.0
  0
LINE
  5
13A
330
137
100
AcDbEntity
  8
-TEXT3
 62
     2
370
    -2
100
AcDbLine
 10
31.23048429790276
 20
151.0023807269254
 30
0.0
 11
31.23048429790276
 21
158.9347870036145
 31
0.0
  0
LINE
  5
13B
330
137
100
AcDbEntity
  8
-TEXT3
 62
     2
370
    -2
100
AcDbLine
 10
19.7104842979021
 20
157.9347870036145
 30
0.0
 11
29.23048429790276
 21
157.9347870036145
 31
0.0
  0
SOLID
  5
13C
330
137
100
AcDbEntity
  8
-TEXT3
 62
     2
100
AcDbTrace
 10
19.7104842979021
 20
158.2681203369479
 30
0.0
 11
19.7104842979021
 21
157.6014536702812
 31
0.0
 12
17.7104842979021
 22
157.9347870036145
 32
0.0
 13
17.7104842979021
 23
157.9347870036145
 33
0.0
  0
SOLID
  5
13D
330
137
100
AcDbEntity
  8
-TEXT3
 62
     2
100
AcDbTrace
 10
29.23048429790276
 20
158.2681203369479
 30
0.0
 11
29.23048429790276
 21
157.6014536702812
 31
0.0
 12
31.23048429790276
 22
157.9347870036145
 32
0.0
 13
31.23048429790276
 23
157.9347870036145
 33
0.0
  0
MTEXT
  5
13E
330
137
100
AcDbEntity
  8
-TEXT3
 62
     3
100
AcDbMText
 10
24.47048429790243
 20
161.5200530336282
 30
0.0
 40
5.0
 41
0.0
 71
     5
 72
     1
  1
\A1;G
 73
     1
 44
1.0
1001
ACAD
1000
MTEXTBEGIN
1070
    73
1070
     1
1070
    44
1040
1.0
1070
    74
1070
     0
1000
MTEXTEND
  0
POINT
  5
13F
330
137
100
AcDbEntity
  8
DEFPOINTS
 62
     0
100
AcDbPoint
 10
17.7104842979021
 20
149.0023807269253
 30
0.0
  0
POINT
  5
140
330
137
100
AcDbEntity
  8
DEFPOINTS
 62
     0
100
AcDbPoint
 10
31.23048429790276
 20
149.0023807269253
 30
0.0
  0
POINT
  5
141
330
137
100
AcDbEntity
  8
DEFPOINTS
 62
     0
100
AcDbPoint
 10
31.23048429790276
 20
157.9347870036145
 30
0.0
  0
ENDBLK
  5
142
330
137
100
AcDbEntity
  8
0
100
AcDbBlockEnd
  0
BLOCK
  5
1A0
330
19F
100
AcDbEntity
  8
0
100
AcDbBlockBegin
  2
*D14
 70
     1
 10
0.0
 20
0.0
 30
0.0
  3
*D14
  1

  0
LINE
  5
1A1
330
19F
100
AcDbEntity
  8
-SCHRAFFUR
 62
     2
370
    -2
100
AcDbLine
 10
116.5292024274217
 20
-26.37542938560839
 30
0.0
 11
116.5292024274217
 21
-46.39639407451349
 31
0.0
  0
LINE
  5
1A2
330
19F
100
AcDbEntity
  8
-SCHRAFFUR
 62
     2
370
    -2
100
AcDbLine
 10
168.5292024274218
 20
-26.37542938560998
 30
0.0
 11
168.5292024274218
 21
-46.39639407451349
 31
0.0
  0
LINE
  5
1A3
330
19F
100
AcDbEntity
  8
-SCHRAFFUR
 62
     2
370
    -2
100
AcDbLine
 10
118.5292024274217
 20
-45.39639407451349
 30
0.0
 11
166.5292024274218
 21
-45.39639407451349
 31
0.0
  0
SOLID
  5
1A4
330
19F
100
AcDbEntity
  8
-SCHRAFFUR
 62
     2
100
AcDbTrace
 10
118.5292024274217
 20
-45.06306074118016
 30
0.0
 11
118.5292024274217
 21
-45.72972740784683
 31
0.0
 12
116.5292024274217
 22
-45.39639407451349
 32
0.0
 13
116.5292024274217
 23
-45.39639407451349
 33
0.0
  0
SOLID
  5
1A5
330
19F
100
AcDbEntity
  8
-SCHRAFFUR
 62
     2
100
AcDbTrace
 10
166.5292024274218
 20
-45.06306074118016
 30
0.0
 11
166.5292024274218
 21
-45.72972740784683
 31
0.0
 12
168.5292024274218
 22
-45.39639407451349
 32
0.0
 13
168.5292024274218
 23
-45.39639407451349
 33
0.0
  0
MTEXT
  5
1A6
330
19F
100
AcDbEntity
  8
-SCHRAFFUR
 62
     3
100
AcDbMText
 10
142.5292024274218
 20
-41.70369284668266
 30
0.0
 40
5.0
 41
0.0
 71
     5
 72
     1
  1
\A1;%%c52
 73
     1
 44
1.0
1001
ACAD
1000
MTEXTBEGIN
1070
    73
1070
     1
1070
    44
1040
1.0
1070
    74
1070
     0
1000
MTEXTEND
  0
POINT
  5
1A7
330
19F
100
AcDbEntity
  8
DEFPOINTS
 62
     0
100
AcDbPoint
 10
116.5292024274217
 20
-24.37542938560838
 30
0.0
  0
POINT
  5
1A8
330
19F
100
AcDbEntity
  8
DEFPOINTS
 62
     0
100
AcDbPoint
 10
168.5292024274218
 20
-24.37542938560998
 30
0.0
  0
POINT
  5
1A9
330
19F
100
AcDbEntity
  8
DEFPOINTS
 62
     0
100
AcDbPoint
 10
168.5292024274218
 20
-45.39639407451349
 30
0.0
  0
ENDBLK
  5
1AA
330
19F
100
AcDbEntity
  8
0
100
AcDbBlockEnd
  0
BLOCK
  5
1BE
330
1BD
100
AcDbEntity
  8
0
100
AcDbBlockBegin
  2
*D15
 70
     1
 10
0.0
 20
0.0
 30
0.0
  3
*D15
  1

  0
LINE
  5
1BF
330
1BD
100
AcDbEntity
  8
-TEXT3
 62
     2
370
    -2
100
AcDbLine
 10
190.123629839783
 20
-17.56968356237567
 30
0.0
 11
194.2149548638886
 21
-17.56968356237567
 31
0.0
  0
LINE
  5
1C0
330
1BD
100
AcDbEntity
  8
-TEXT3
 62
     2
370
    -2
100
AcDbLine
 10
170.5292024274183
 20
-20.56968356237596
 30
0.0
 11
194.2149548638886
 21
-20.56968356237596
 31
0.0
  0
LINE
  5
1C1
330
1BD
100
AcDbEntity
  8
-TEXT3
 62
     2
370
    -2
100
AcDbLine
 10
193.2149548638886
 20
-15.56968356237567
 30
0.0
 11
193.2149548638886
 21
-13.56968356237567
 31
0.0
  0
LINE
  5
1C2
330
1BD
100
AcDbEntity
  8
-TEXT3
 62
     2
370
    -2
100
AcDbLine
 10
193.2149548638886
 20
-22.56968356237596
 30
0.0
 11
193.2149548638886
 21
-24.56968356237596
 31
0.0
  0
SOLID
  5
1C3
330
1BD
100
AcDbEntity
  8
-TEXT3
 62
     2
100
AcDbTrace
 10
192.8816215305552
 20
-15.56968356237567
 30
0.0
 11
193.5482881972219
 21
-15.56968356237567
 31
0.0
 12
193.2149548638886
 22
-17.56968356237567
 32
0.0
 13
193.2149548638886
 23
-17.56968356237567
 33
0.0
  0
SOLID
  5
1C4
330
1BD
100
AcDbEntity
  8
-TEXT3
 62
     2
100
AcDbTrace
 10
192.8816215305552
 20
-22.56968356237596
 30
0.0
 11
193.5482881972219
 21
-22.56968356237596
 31
0.0
 12
193.2149548638886
 22
-20.56968356237596
 32
0.0
 13
193.2149548638886
 23
-20.56968356237596
 33
0.0
  0
MTEXT
  5
1C5
330
1BD
100
AcDbEntity
  8
-TEXT3
 62
     3
100
AcDbMText
 10
189.6603846046798
 20
-19.06968356237578
 30
0.0
 40
5.0
 41
0.0
 71
     5
 72
     1
  1
\A1;3
 11
0.0000000000000001
 21
1.0
 31
0.0
 73
     1
 44
1.0
1001
ACAD
1000
MTEXTBEGIN
1070
    73
1070
     1
1070
    44
1040
1.0
1070
    74
1070
     0
1000
MTEXTEND
  0
POINT
  5
1C6
330
1BD
100
AcDbEntity
  8
DEFPOINTS
 62
     0
100
AcDbPoint
 10
188.123629839783
 20
-17.56968356237567
 30
0.0
  0
POINT
  5
1C7
330
1BD
100
AcDbEntity
  8
DEFPOINTS
 62
     0
100
AcDbPoint
 10
168.5292024274183
 20
-20.56968356237596
 30
0.0
  0
POINT
  5
1C8
330
1BD
100
AcDbEntity
  8
DEFPOINTS
 62
     0
100
AcDbPoint
 10
193.2149548638886
 20
-20.56968356237596
 30
0.0
  0
ENDBLK
  5
1C9
330
1BD
100
AcDbEntity
  8
0
100
AcDbBlockEnd
  0
BLOCK
  5
1B1
330
1B0
100
AcDbEntity
  8
0
100
AcDbBlockBegin
  2
*D16
 70
     1
 10
0.0
 20
0.0
 30
0.0
  3
*D16
  1

  0
LINE
  5
1B2
330
1B0
100
AcDbEntity
  8
-TEXT3
 62
     2
370
    -2
100
AcDbLine
 10
149.5292024274188
 20
-28.56968356237573
 30
0.0
 11
194.2149548638886
 21
-28.56968356237575
 31
0.0
  0
LINE
  5
1B3
330
1B0
100
AcDbEntity
  8
-TEXT3
 62
     2
370
    -2
100
AcDbLine
 10
183.5489330366561
 20
-20.56968356237596
 30
0.0
 11
194.2149548638886
 21
-20.56968356237596
 31
0.0
  0
LINE
  5
1B4
330
1B0
100
AcDbEntity
  8
-TEXT3
 62
     2
370
    -2
100
AcDbLine
 10
193.2149548638886
 20
-26.56968356237574
 30
0.0
 11
193.2149548638886
 21
-22.56968356237596
 31
0.0
  0
SOLID
  5
1B5
330
1B0
100
AcDbEntity
  8
-TEXT3
 62
     2
100
AcDbTrace
 10
192.8816215305552
 20
-26.56968356237574
 30
0.0
 11
193.5482881972219
 21
-26.56968356237574
 31
0.0
 12
193.2149548638886
 22
-28.56968356237575
 32
0.0
 13
193.2149548638886
 23
-28.56968356237575
 33
0.0
  0
SOLID
  5
1B6
330
1B0
100
AcDbEntity
  8
-TEXT3
 62
     2
100
AcDbTrace
 10
192.8816215305552
 20
-22.56968356237596
 30
0.0
 11
193.5482881972219
 21
-22.56968356237596
 31
0.0
 12
193.2149548638886
 22
-20.56968356237596
 32
0.0
 13
193.2149548638886
 23
-20.56968356237596
 33
0.0
  0
MTEXT
  5
1B7
330
1B0
100
AcDbEntity
  8
-TEXT3
 62
     3
100
AcDbMText
 10
189.6620899252801
 20
-24.56968356237582
 30
0.0
 40
5.0
 41
0.0
 71
     5
 72
     1
  1
\A1;8
 11
0.0000000000000001
 21
1.0
 31
0.0
 73
     1
 44
1.0
1001
ACAD
1000
MTEXTBEGIN
1070
    73
1070
     1
1070
    44
1040
1.0
1070
    74
1070
     0
1000
MTEXTEND
  0
POINT
  5
1B8
330
1B0
100
AcDbEntity
  8
DEFPOINTS
 62
     0
100
AcDbPoint
 10
147.5292024274188
 20
-28.56968356237573
 30
0.0
  0
POINT
  5
1B9
330
1B0
100
AcDbEntity
  8
DEFPOINTS
 62
     0
100
AcDbPoint
 10
181.5489330366561
 20
-20.56968356237596
 30
0.0
  0
POINT
  5
1BA
330
1B0
100
AcDbEntity
  8
DEFPOINTS
 62
     0
100
AcDbPoint
 10
193.2149548638886
 20
-20.56968356237596
 30
0.0
  0
ENDBLK
  5
1BB
330
1B0
100
AcDbEntity
  8
0
100
AcDbBlockEnd
  0
BLOCK
  5
1F8
330
1F7
100
AcDbEntity
  8
0
100
AcDbBlockBegin
  2
*D17
 70
     1
 10
0.0
 20
0.0
 30
0.0
  3
*D17
  1

  0
LINE
  5
1F9
330
1F7
100
AcDbEntity
  8
-SCHRAFFUR
 62
     2
370
    -2
100
AcDbLine
 10
8.904738474669329
 20
81.24903456714415
 30
0.0
 11
-11.11622621423579
 21
81.24903456714415
 31
0.0
  0
LINE
  5
1FA
330
1F7
100
AcDbEntity
  8
-SCHRAFFUR
 62
     2
370
    -2
100
AcDbLine
 10
8.904738474667723
 20
133.2490345671442
 30
0.0
 11
-11.11622621423578
 21
133.2490345671442
 31
0.0
  0
LINE
  5
1FB
330
1F7
100
AcDbEntity
  8
-SCHRAFFUR
 62
     2
370
    -2
100
AcDbLine
 10
-10.11622621423579
 20
83.24903456714414
 30
0.0
 11
-10.11622621423578
 21
131.2490345671442
 31
0.0
  0
SOLID
  5
1FC
330
1F7
100
AcDbEntity
  8
-SCHRAFFUR
 62
     2
100
AcDbTrace
 10
-10.44955954756912
 20
83.24903456714414
 30
0.0
 11
-9.782892880902458
 21
83.24903456714414
 31
0.0
 12
-10.11622621423579
 22
81.24903456714415
 32
0.0
 13
-10.11622621423579
 23
81.24903456714415
 33
0.0
  0
SOLID
  5
1FD
330
1F7
100
AcDbEntity
  8
-SCHRAFFUR
 62
     2
100
AcDbTrace
 10
-10.44955954756911
 20
131.2490345671442
 30
0.0
 11
-9.782892880902448
 21
131.2490345671442
 31
0.0
 12
-10.11622621423578
 22
133.2490345671442
 32
0.0
 13
-10.11622621423578
 23
133.2490345671442
 33
0.0
  0
MTEXT
  5
1FE
330
1F7
100
AcDbEntity
  8
-SCHRAFFUR
 62
     3
100
AcDbMText
 10
-13.80892744206663
 20
107.2490345671442
 30
0.0
 40
5.0
 41
0.0
 71
     5
 72
     1
  1
\A1;%%c52
 11
0.0000000000000001
 21
1.0
 31
0.0
 73
     1
 44
1.0
1001
ACAD
1000
MTEXTBEGIN
1070
    73
1070
     1
1070
    44
1040
1.0
1070
    74
1070
     0
1000
MTEXTEND
  0
POINT
  5
1FF
330
1F7
100
AcDbEntity
  8
DEFPOINTS
 62
     0
100
AcDbPoint
 10
10.90473847466933
 20
81.24903456714415
 30
0.0
  0
POINT
  5
200
330
1F7
100
AcDbEntity
  8
DEFPOINTS
 62
     0
100
AcDbPoint
 10
10.90473847466772
 20
133.2490345671442
 30
0.0
  0
POINT
  5
201
330
1F7
100
AcDbEntity
  8
DEFPOINTS
 62
     0
100
AcDbPoint
 10
-10.11622621423578
 20
133.2490345671442
 30
0.0
  0
ENDBLK
  5
202
330
1F7
100
AcDbEntity
  8
0
100
AcDbBlockEnd
  0
BLOCK
  5
1E3
330
1E2
100
AcDbEntity
  8
0
100
AcDbBlockBegin
  2
*D18
 70
     1
 10
0.0
 20
0.0
 30
0.0
  3
*D18
  1

  0
LINE
  5
1E4
330
1E2
100
AcDbEntity
  8
-TEXT3
 62
     2
370
    -2
100
AcDbLine
 10
6.710484297901984
 20
114.2490345671412
 30
0.0
 11
6.710484297901987
 21
158.934787003611
 31
0.0
  0
LINE
  5
1E5
330
1E2
100
AcDbEntity
  8
-TEXT3
 62
     2
370
    -2
100
AcDbLine
 10
14.71048429790174
 20
148.2687651763785
 30
0.0
 11
14.71048429790174
 21
158.934787003611
 31
0.0
  0
LINE
  5
1E6
330
1E2
100
AcDbEntity
  8
-TEXT3
 62
     2
370
    -2
100
AcDbLine
 10
8.710484297901988
 20
157.934787003611
 30
0.0
 11
12.71048429790174
 21
157.934787003611
 31
0.0
  0
SOLID
  5
1E7
330
1E2
100
AcDbEntity
  8
-TEXT3
 62
     2
100
AcDbTrace
 10
8.710484297901988
 20
158.2681203369443
 30
0.0
 11
8.710484297901988
 21
157.6014536702776
 31
0.0
 12
6.710484297901987
 22
157.934787003611
 32
0.0
 13
6.710484297901987
 23
157.934787003611
 33
0.0
  0
SOLID
  5
1E8
330
1E2
100
AcDbEntity
  8
-TEXT3
 62
     2
100
AcDbTrace
 10
12.71048429790174
 20
158.2681203369443
 30
0.0
 11
12.71048429790174
 21
157.6014536702776
 31
0.0
 12
14.71048429790174
 22
157.934787003611
 32
0.0
 13
14.71048429790174
 23
157.934787003611
 33
0.0
  0
MTEXT
  5
1E9
330
1E2
100
AcDbEntity
  8
-TEXT3
 62
     3
100
AcDbMText
 10
10.71048429790186
 20
161.4876519422194
 30
0.0
 40
5.0
 41
0.0
 71
     5
 72
     1
  1
\A1;8
 73
     1
 44
1.0
1001
ACAD
1000
MTEXTBEGIN
1070
    73
1070
     1
1070
    44
1040
1.0
1070
    74
1070
     0
1000
MTEXTEND
  0
POINT
  5
1EA
330
1E2
100
AcDbEntity
  8
DEFPOINTS
 62
     0
100
AcDbPoint
 10
6.710484297901984
 20
112.2490345671412
 30
0.0
  0
POINT
  5
1EB
330
1E2
100
AcDbEntity
  8
DEFPOINTS
 62
     0
100
AcDbPoint
 10
14.71048429790174
 20
146.2687651763785
 30
0.0
  0
POINT
  5
1EC
330
1E2
100
AcDbEntity
  8
DEFPOINTS
 62
     0
100
AcDbPoint
 10
14.71048429790174
 20
157.934787003611
 30
0.0
  0
ENDBLK
  5
1ED
330
1E2
100
AcDbEntity
  8
0
100
AcDbBlockEnd
  0
BLOCK
  5
1D5
330
1D4
100
AcDbEntity
  8
0
100
AcDbBlockBegin
  2
*D19
 70
     1
 10
0.0
 20
0.0
 30
0.0
  3
*D19
  1

  0
LINE
  5
1D6
330
1D4
100
AcDbEntity
  8
-TEXT3
 62
     2
370
    -2
100
AcDbLine
 10
17.71048429790203
 20
154.8434619795054
 30
0.0
 11
17.71048429790203
 21
158.934787003611
 31
0.0
  0
LINE
  5
1D7
330
1D4
100
AcDbEntity
  8
-TEXT3
 62
     2
370
    -2
100
AcDbLine
 10
14.71048429790174
 20
135.2490345671407
 30
0.0
 11
14.71048429790174
 21
158.934787003611
 31
0.0
  0
LINE
  5
1D8
330
1D4
100
AcDbEntity
  8
-TEXT3
 62
     2
370
    -2
100
AcDbLine
 10
19.71048429790203
 20
157.934787003611
 30
0.0
 11
21.71048429790203
 21
157.934787003611
 31
0.0
  0
LINE
  5
1D9
330
1D4
100
AcDbEntity
  8
-TEXT3
 62
     2
370
    -2
100
AcDbLine
 10
12.71048429790174
 20
157.934787003611
 30
0.0
 11
10.71048429790174
 21
157.934787003611
 31
0.0
  0
SOLID
  5
1DA
330
1D4
100
AcDbEntity
  8
-TEXT3
 62
     2
100
AcDbTrace
 10
19.71048429790203
 20
158.2681203369443
 30
0.0
 11
19.71048429790203
 21
157.6014536702776
 31
0.0
 12
17.71048429790203
 22
157.934787003611
 32
0.0
 13
17.71048429790203
 23
157.934787003611
 33
0.0
  0
SOLID
  5
1DB
330
1D4
100
AcDbEntity
  8
-TEXT3
 62
     2
100
AcDbTrace
 10
12.71048429790174
 20
158.2681203369443
 30
0.0
 11
12.71048429790174
 21
157.6014536702776
 31
0.0
 12
14.71048429790174
 22
157.934787003611
 32
0.0
 13
14.71048429790174
 23
157.934787003611
 33
0.0
  0
MTEXT
  5
1DC
330
1D4
100
AcDbEntity
  8
-TEXT3
 62
     3
100
AcDbMText
 10
16.21048429790188
 20
161.4893572628197
 30
0.0
 40
5.0
 41
0.0
 71
     5
 72
     1
  1
\A1;3
 73
     1
 44
1.0
1001
ACAD
1000
MTEXTBEGIN
1070
    73
1070
     1
1070
    44
1040
1.0
1070
    74
1070
     0
1000
MTEXTEND
  0
POINT
  5
1DD
330
1D4
100
AcDbEntity
  8
DEFPOINTS
 62
     0
100
AcDbPoint
 10
17.71048429790203
 20
152.8434619795054
 30
0.0
  0
POINT
  5
1DE
330
1D4
100
AcDbEntity
  8
DEFPOINTS
 62
     0
100
AcDbPoint
 10
14.71048429790174
 20
133.2490345671407
 30
0.0
  0
POINT
  5
1DF
330
1D4
100
AcDbEntity
  8
DEFPOINTS
 62
     0
100
AcDbPoint
 10
14.71048429790174
 20
157.934787003611
 30
0.0
  0
ENDBLK
  5
1E0
330
1D4
100
AcDbEntity
  8
0
100
AcDbBlockEnd
  0
ENDSEC
  0
SECTION
  2
ENTITIES
  0
LINE
  5
9
330
2
100
AcDbEntity
  8
-SYSTEM
100
AcDbLine
 10
142.5292024274219
 20
327.1933151949623
 30
0.0
 11
142.5292024274222
 21
267.2001883755595
 31
0.0
  0
LINE
  5
C
330
2
100
AcDbEntity
  8
-SYSTEM
100
AcDbLine
 10
12.9880650756437
 20
297.196751785261
 30
0.0
 11
174.9301719114467
 21
297.1967517852608
 31
0.0
  0
LWPOLYLINE
  5
D
330
2
100
AcDbEntity
  8
-TRENNEN
100
AcDbPolyline
 90
        4
 70
     0
 43
0.0
 10
8.657746604140356
 20
218.3733674894418
 10
184.2825485872031
 20
218.3733674894418
 10
184.2825485872031
 20
372.7492321793942
 10
8.657746604140356
 20
372.7492321793942
  0
MTEXT
  5
10
330
2
100
AcDbEntity
  8
-TEXT2
100
AcDbMText
 10
-174.2591163780573
 20
259.7312812984501
 30
0.0
 40
5.0
 41
115.8862353619997
 71
     1
 72
     5
  1
{\H4x;Ansicht}\P{\H2x;M1:1}
 73
     1
 44
1.0
1001
ACAD
1000
MTEXTBEGIN
1070
    73
1070
     1
1070
    44
1040
1.0
1070
    74
1070
     0
1000
MTEXTEND
  0
MTEXT
  5
14
330
2
100
AcDbEntity
  8
-TEXT2
100
AcDbMText
 10
-174.2591163780573
 20
60.35497656719309
 30
0.0
 40
5.0
 41
115.8862353619997
 71
     1
 72
     5
  1
{\H4x;Draufsicht}\P{\H2x;M1:1}
 73
     1
 44
1.0
1001
ACAD
1000
MTEXTBEGIN
1070
    73
1070
     1
1070
    44
1040
1.0
1070
    74
1070
     0
1000
MTEXTEND
  0
DIMENSION
  5
15
330
2
100
AcDbEntity
  8
-TEXT3
100
AcDbDimension
  2
*D0
 10
31.23048429790254
 20
120.7181094794634
 30
0.0
 11
61.01563707728086
 21
25.73546921700413
 31
0.0
 70
     2
  1
<>-180°
 71
     5
 42
1.570796326794903
  3
1-1
100
AcDb2LineAngularDimension
 13
42.23048429790231
 23
-4.049683562374195
 33
0.0
 14
155.9982773397407
 24
-4.049683562375332
 34
0.0
 15
31.23048429790215
 25
-44.85395480983642
 35
0.0
 16
64.63282611501108
 26
15.23516747729724
 36
0.0
  0
DIMENSION
  5
25
330
2
100
AcDbEntity
  8
-TEXT3
100
AcDbDimension
  2
*D1
 10
173.6645315431144
 20
67.67368556418175
 30
0.0
 11
140.821447374517
 21
105.5412795142391
 31
0.0
 70
     1
 71
     5
 42
100.0
  3
1-1
100
AcDbAlignedDimension
 13
80.65735907359897
 23
116.0878693319758
 33
0.0
 14
151.3680371922537
 24
45.37719121332105
 34
0.0
  0
LWPOLYLINE
  5
32
330
2
100
AcDbEntity
  8
-VERGLASUNG
100
AcDbPolyline
 90
        6
 70
     0
 43
0.0
 10
17.7104842979021
 20
149.0023807269253
 10
17.7104842979017
 20
-16.56968356237451
 10
18.7104842979017
 20
-17.56968356237451
 10
30.23048429790214
 20
-17.56968356237451
 10
31.23048429790237
 20
-16.56968356237451
 10
31.23048429790276
 20
149.0023807269253
  0
DIMENSION
  5
34
330
2
100
AcDbEntity
  8
-TEXT3
100
AcDbDimension
  2
*D2
 10
34.23048429790276
 20
157.9347870036145
 30
0.0
 11
40.86759207416469
 21
157.9347870036145
 31
0.0
 70
   128
 71
     5
 42
3.0
  3
1-1
100
AcDbAlignedDimension
 13
31.23048429790276
 23
149.0023807269253
 33
0.0
 14
34.23048429790276
 24
133.2490345671438
 34
0.0
100
AcDbRotatedDimension
  0
DIMENSION
  5
42
330
2
100
AcDbEntity
  8
-SCHRAFFUR
100
AcDbDimension
  2
*D3
 10
71.81852430876699
 20
167.9347870036144
 30
0.0
 11
51.52450430333487
 21
171.4876519422228
 31
0.0
 71
     5
 42
40.58804001086423
  3
1-1
100
AcDbAlignedDimension
 13
31.23048429790276
 23
158.9347870036145
 33
0.0
 14
71.81852430876699
 24
123.0998824755449
 34
0.0
 50
180.0
100
AcDbRotatedDimension
  0
DIMENSION
  5
50
330
2
100
AcDbEntity
  8
-SCHRAFFUR
100
AcDbDimension
  2
*D4
 10
84.318524308767
 20
177.9347870036144
 30
0.0
 11
57.77450430333487
 21
181.4893572628231
 31
0.0
 71
     5
 42
53.08804001086423
  3
1-1
100
AcDbAlignedDimension
 13
31.23048429790276
 23
168.9347870036144
 33
0.0
 14
84.318524308767
 24
107.2490345671438
 34
0.0
 50
180.0
100
AcDbRotatedDimension
  0
LINE
  5
5D
330
2
100
AcDbEntity
  8
-VERGLASUNG
100
AcDbLine
 10
87.98755492145604
 20
-13.67580881345982
 30
0.0
 11
84.09368010182999
 21
-17.56968363308586
 31
0.0
  0
LINE
  5
5E
330
2
100
AcDbEntity
  8
-VERGLASUNG
100
AcDbLine
 10
89.55005492145604
 20
-13.67580881345982
 30
0.0
 11
85.65618010182999
 21
-17.56968363308586
 31
0.0
  0
LINE
  5
5F
330
2
100
AcDbEntity
  8
-VERGLASUNG
100
AcDbLine
 10
87.89496948546533
 20
-4.049683633085194
 30
0.0
 11
84.00109466583939
 21
-7.943558452711229
 31
0.0
  0
LINE
  5
60
330
2
100
AcDbEntity
  8
-VERGLASUNG
100
AcDbLine
 10
86.33246948546533
 20
-4.049683633085194
 30
0.0
 11
82.43859466583939
 21
-7.943558452711229
 31
0.0
  0
LWPOLYLINE
  5
61
330
2
100
AcDbEntity
  8
-VERGLASUNG
100
AcDbPolyline
 90
        6
 70
     0
 43
0.0
 10
184.2825485872029
 20
-17.56968356237605
 10
42.23048429790236
 20
-17.56968356237492
 10
41.23048429790237
 20
-16.56968356237492
 10
41.23048429790247
 20
-5.049683562374482
 10
42.23048429790236
 20
-4.049683562374255
 10
184.2825485872029
 20
-4.049683562375388
  0
LWPOLYLINE
  5
62
330
2
100
AcDbEntity
  8
-NORMTEIL_VERDECKT
100
AcDbPolyline
 90
        3
 70
     0
 43
0.0
 10
71.31852430876699
 20
119.7390305639408
 42
0.6538057339304829
 10
62.97968954393525
 20
98.41019980231209
 10
66.1408547791035
 20
95.24903456714378
  0
DIMENSION
  5
65
330
2
100
AcDbEntity
  8
-TEXT3
100
AcDbDimension
  2
*D5
 10
17.71048429790172
 20
-57.60603414748908
 30
0.0
 11
80.11984336266092
 21
-53.32840795376466
 31
0.0
  1
abhänig von Glasdicke "G"
 71
     5
 42
124.8187181295183
  3
1-1
100
AcDbAlignedDimension
 13
142.5292024274201
 23
-45.56959693776259
 33
0.0
 14
17.71048429790173
 24
-16.5696835623744
 34
0.0
100
AcDbRotatedDimension
  0
LWPOLYLINE
  5
72
330
2
100
AcDbEntity
  8
-PROFILAUSSENKANTET
100
AcDbPolyline
 90
       13
 70
     1
 43
0.0
 10
34.23048429790299
 20
133.2490345671438
 10
34.23048429790322
 20
81.24903456714378
 10
37.53447096094863
 20
81.24903456714401
 42
0.3137493583979784
 10
38.47221972167233
 20
81.9017202113207
 10
41.50527802659587
 20
92.79097763461413
 42
-0.3599935144607427
 10
44.31852430876722
 20
94.74903456714377
 10
59.31852430876699
 20
94.74903456714377
 10
71.81852430876699
 20
94.74903456714413
 42
0.9999999999999998
 10
71.81852430876699
 20
119.7490345671441
 10
44.31852430876654
 20
119.7490345671438
 42
-0.359993514460832
 10
41.50527802659564
 20
121.7070914996727
 10
38.47221972167188
 20
132.5963489229673
 42
0.3137493583978905
 10
37.53447096094817
 20
133.2490345671438
  0
LINE
  5
75
330
2
100
AcDbEntity
  8
-SYSTEM
100
AcDbLine
 10
13.08516539839013
 20
107.2490345671442
 30
0.0
 11
86.81852430876711
 21
107.249034567144
 31
0.0
  0
LINE
  5
76
330
2
100
AcDbEntity
  8
-VERGLASUNG
100
AcDbLine
 10
31.23048415648157
 20
34.29493946288289
 30
0.0
 11
27.33660933685553
 21
30.40106464325686
 31
0.0
  0
LINE
  5
77
330
2
100
AcDbEntity
  8
-VERGLASUNG
100
AcDbLine
 10
21.60435897610694
 20
35.95002489887361
 30
0.0
 11
17.7104841564809
 21
32.05615007924758
 31
0.0
  0
LINE
  5
78
330
2
100
AcDbEntity
  8
-VERGLASUNG
100
AcDbLine
 10
21.60435897610694
 20
34.38752489887361
 30
0.0
 11
17.7104841564809
 21
30.49365007924758
 31
0.0
  0
DIMENSION
  5
79
330
2
100
AcDbEntity
  8
-TEXT3
100
AcDbDimension
  2
*D6
 10
-22.32586628721248
 20
-17.5696835623745
 30
0.0
 11
-26.60349248093689
 21
44.83967550238406
 31
0.0
  1
abhänig von Glasdicke "G"
 71
     5
 42
124.8187181295171
  3
1-1
100
AcDbAlignedDimension
 13
-16.29041332945314
 23
107.2490345671426
 33
0.0
 14
18.7104842979017
 24
-17.56968356237451
 34
0.0
 50
90.0
100
AcDbRotatedDimension
  0
LINE
  5
86
330
2
100
AcDbEntity
  8
-VERGLASUNG
100
AcDbLine
 10
31.23048415648157
 20
31.16993946288289
 30
0.0
 11
27.33660933685553
 21
27.27606464325686
 31
0.0
  0
LINE
  5
87
330
2
100
AcDbEntity
  8
-VERGLASUNG
100
AcDbLine
 10
31.23048415648157
 20
32.73243946288289
 30
0.0
 11
27.33660933685553
 21
28.83856464325686
 31
0.0
  0
LINE
  5
88
330
2
100
AcDbEntity
  8
-VERGLASUNG
100
AcDbLine
 10
84.76996948546533
 20
-4.049683633085194
 30
0.0
 11
80.87609466583939
 21
-7.943558452711229
 31
0.0
  0
LINE
  5
89
330
2
100
AcDbEntity
  8
-PROFILAUSSENKANTET
100
AcDbLine
 10
34.23048429790299
 20
97.24903456714379
 30
0.0
 11
34.23048429790322
 21
81.24903456714378
 31
0.0
  0
LINE
  5
8A
330
2
100
AcDbEntity
  8
-PROFILAUSSENKANTET
100
AcDbLine
 10
34.23048429790322
 20
81.24903456714378
 30
0.0
 11
34.23048429790299
 21
97.24903456714379
 31
0.0
  0
LINE
  5
8B
330
2
100
AcDbEntity
  8
-VERGLASUNG
100
AcDbLine
 10
31.2304843686137
 20
86.12952594979743
 30
0.0
 11
27.33660954898767
 21
82.23565113017139
 31
0.0
  0
LINE
  5
8C
330
2
100
AcDbEntity
  8
-VERGLASUNG
100
AcDbLine
 10
31.2304843686137
 20
87.69202594979743
 30
0.0
 11
27.33660954898767
 21
83.79815113017139
 31
0.0
  0
LINE
  5
8D
330
2
100
AcDbEntity
  8
-VERGLASUNG
100
AcDbLine
 10
31.2304843686137
 20
89.25452594979743
 30
0.0
 11
27.33660954898767
 21
85.36065113017139
 31
0.0
  0
LINE
  5
8E
330
2
100
AcDbEntity
  8
-VERGLASUNG
100
AcDbLine
 10
21.60435918823907
 20
89.34711138578814
 30
0.0
 11
17.71048436861304
 21
85.4532365661621
 31
0.0
  0
LINE
  5
8F
330
2
100
AcDbEntity
  8
-SCHRAFFUR
100
AcDbLine
 10
37.5344709609484
 20
81.24903456714378
 30
0.0
 11
37.5344709609484
 21
133.2490345671438
 31
0.0
  0
LINE
  5
90
330
2
100
AcDbEntity
  8
-SCHRAFFUR
100
AcDbLine
 10
38.47221972167188
 20
81.9017202113207
 30
0.0
 11
38.47221972167188
 21
132.5963489229673
 31
0.0
  0
LWPOLYLINE
  5
91
102
{ACAD_REACTORS
330
93
102
}
330
2
100
AcDbEntity
  8
-DICHTUNG
100
AcDbPolyline
 90
        4
 70
     1
 43
0.0
 10
34.23048429790299
 20
132.7490345671435
 10
34.23048429790322
 20
81.74903456714355
 10
31.23048429790322
 20
81.74903456714355
 10
31.23048429790299
 20
132.7490345671435
  0
HATCH
  5
93
330
2
100
AcDbEntity
  8
-SCHRAFFUR
100
AcDbHatch
 10
0.0
 20
0.0
 30
0.0
210
0.0
220
0.0
230
1.0
  2
SOLID
 70
     1
 71
     1
 91
        1
 92
        1
 93
        4
 72
     1
 10
34.23048429790299
 20
132.7490345671435
 11
34.23048429790322
 21
81.74903456714355
 72
     1
 10
34.23048429790322
 20
81.74903456714355
 11
31.23048429790322
 21
81.74903456714355
 72
     1
 10
31.23048429790322
 20
81.74903456714355
 11
31.23048429790299
 21
132.7490345671435
 72
     1
 10
31.23048429790299
 20
132.7490345671435
 11
34.23048429790299
 21
132.7490345671435
 97
        1
330
91
 75
     0
 76
     1
 98
        1
 10
777.3964312832035
 20
555.0853063250597
  0
LINE
  5
94
330
2
100
AcDbEntity
  8
-VERGLASUNG
100
AcDbLine
 10
21.60435897610694
 20
37.51252489887361
 30
0.0
 11
17.7104841564809
 21
33.61865007924758
 31
0.0
  0
LINE
  5
95
330
2
100
AcDbEntity
  8
-VERGLASUNG
100
AcDbLine
 10
21.60435904681765
 20
52.70738706117845
 30
0.0
 11
17.71048422719161
 21
48.81351224155242
 31
0.0
  0
LINE
  5
96
330
2
100
AcDbEntity
  8
-VERGLASUNG
100
AcDbLine
 10
21.60435904681765
 20
54.26988706117845
 30
0.0
 11
17.71048422719161
 21
50.37601224155242
 31
0.0
  0
LINE
  5
97
330
2
100
AcDbEntity
  8
-VERGLASUNG
100
AcDbLine
 10
21.60435904681765
 20
55.83238706117845
 30
0.0
 11
17.71048422719161
 21
51.93851224155242
 31
0.0
  0
LINE
  5
98
330
2
100
AcDbEntity
  8
-VERGLASUNG
100
AcDbLine
 10
21.60435911752836
 20
71.02724922348329
 30
0.0
 11
17.71048429790232
 21
67.13337440385726
 31
0.0
  0
LINE
  5
99
330
2
100
AcDbEntity
  8
-VERGLASUNG
100
AcDbLine
 10
21.60435911752836
 20
72.58974922348329
 30
0.0
 11
17.71048429790232
 21
68.69587440385726
 31
0.0
  0
LINE
  5
9A
330
2
100
AcDbEntity
  8
-VERGLASUNG
100
AcDbLine
 10
21.60435911752836
 20
74.15224922348329
 30
0.0
 11
17.71048429790232
 21
70.25837440385726
 31
0.0
  0
LINE
  5
9B
330
2
100
AcDbEntity
  8
-VERGLASUNG
100
AcDbLine
 10
31.23048422719228
 20
49.48980162518774
 30
0.0
 11
27.33660940756625
 21
45.5959268055617
 31
0.0
  0
LINE
  5
9C
330
2
100
AcDbEntity
  8
-VERGLASUNG
100
AcDbLine
 10
31.23048422719228
 20
51.05230162518774
 30
0.0
 11
27.33660940756625
 21
47.1584268055617
 31
0.0
  0
LINE
  5
9D
330
2
100
AcDbEntity
  8
-VERGLASUNG
100
AcDbLine
 10
31.23048422719228
 20
52.61480162518774
 30
0.0
 11
27.33660940756625
 21
48.7209268055617
 31
0.0
  0
LINE
  5
9E
330
2
100
AcDbEntity
  8
-VERGLASUNG
100
AcDbLine
 10
31.23048429790299
 20
70.93466378749258
 30
0.0
 11
27.33660947827696
 21
67.04078896786654
 31
0.0
  0
LINE
  5
9F
330
2
100
AcDbEntity
  8
-VERGLASUNG
100
AcDbLine
 10
31.23048429790299
 20
69.37216378749258
 30
0.0
 11
27.33660947827696
 21
65.47828896786654
 31
0.0
  0
LINE
  5
A0
330
2
100
AcDbEntity
  8
-VERGLASUNG
100
AcDbLine
 10
31.23048429790299
 20
67.80966378749258
 30
0.0
 11
27.33660947827696
 21
63.91578896786654
 31
0.0
  0
LINE
  5
A1
330
2
100
AcDbEntity
  8
-VERGLASUNG
100
AcDbLine
 10
21.60435918823907
 20
90.90961138578814
 30
0.0
 11
17.71048436861304
 21
87.0157365661621
 31
0.0
  0
LINE
  5
A2
330
2
100
AcDbEntity
  8
-VERGLASUNG
100
AcDbLine
 10
21.60435918823907
 20
92.47211138578814
 30
0.0
 11
17.71048436861304
 21
88.5782365661621
 31
0.0
  0
LINE
  5
A3
330
2
100
AcDbEntity
  8
-VERGLASUNG
100
AcDbLine
 10
21.60435925894979
 20
127.7073851687635
 30
0.0
 11
17.71048443932375
 21
123.8135103491374
 31
0.0
  0
LINE
  5
A4
330
2
100
AcDbEntity
  8
-VERGLASUNG
100
AcDbLine
 10
21.60435925894979
 20
129.2698851687635
 30
0.0
 11
17.71048443932375
 21
125.3760103491374
 31
0.0
  0
LINE
  5
A5
330
2
100
AcDbEntity
  8
-VERGLASUNG
100
AcDbLine
 10
21.60435925894979
 20
130.8323851687635
 30
0.0
 11
17.71048443932375
 21
126.9385103491374
 31
0.0
  0
LINE
  5
A6
330
2
100
AcDbEntity
  8
-NORMTEIL_VERDECKT
100
AcDbLine
 10
56.31852430876699
 20
119.749034567144
 30
0.0
 11
56.31852430876688
 21
94.749034567144
 31
0.0
  0
LINE
  5
A7
330
2
100
AcDbEntity
  8
-SCHRAFFUR
100
AcDbLine
 10
41.50527802659541
 20
92.79097763461299
 30
0.0
 11
41.50527802659587
 21
121.7070914996716
 31
0.0
  0
LINE
  5
A8
330
2
100
AcDbEntity
  8
-SCHRAFFUR
100
AcDbLine
 10
44.31852430876722
 20
94.74903456714377
 30
0.0
 11
44.3185243087695
 21
119.7490345671438
 31
0.0
  0
LINE
  5
A9
330
2
100
AcDbEntity
  8
-PROFILAUSSENKANTET
100
AcDbLine
 10
34.23048429790299
 20
98.24903456714356
 30
0.0
 11
34.23048429790299
 21
97.24903456714379
 31
0.0
  0
LINE
  5
AA
330
2
100
AcDbEntity
  8
-VERGLASUNG
100
AcDbLine
 10
31.23048443932442
 20
126.0522997327728
 30
0.0
 11
27.33660961969838
 21
122.1584249131467
 31
0.0
  0
LINE
  5
AB
330
2
100
AcDbEntity
  8
-VERGLASUNG
100
AcDbLine
 10
31.23048443932442
 20
127.6147997327728
 30
0.0
 11
27.33660961969838
 21
123.7209249131467
 31
0.0
  0
LINE
  5
AC
330
2
100
AcDbEntity
  8
-VERGLASUNG
100
AcDbLine
 10
31.23048443932442
 20
124.4897997327728
 30
0.0
 11
27.33660961969838
 21
120.5959249131467
 31
0.0
  0
LWPOLYLINE
  5
AD
330
2
100
AcDbEntity
  8
-PROFILAUSSENKANTET
100
AcDbPolyline
 90
       13
 70
     1
 43
0.0
 10
168.5292024274214
 20
-1.049683562375161
 10
116.5292024274215
 20
-1.049683562374479
 10
116.5292024274218
 20
2.254303100670927
 42
-0.3137493583979784
 10
117.1818880715985
 20
3.192051861394634
 10
128.0711454948919
 20
6.225110166318064
 42
0.3599935144607427
 10
130.0292024274215
 20
9.038356448489412
 10
130.0292024274217
 20
24.03835644848919
 10
130.029202427422
 20
36.53835644848918
 42
-0.9999999999999998
 10
155.029202427422
 20
36.53835644848896
 10
155.0292024274216
 20
9.038356448488503
 42
0.359993514460832
 10
156.9872593599505
 20
6.225110166317609
 10
167.8765167832451
 20
3.192051861393725
 42
-0.3137493583978905
 10
168.5292024274215
 20
2.254303100670018
  0
LINE
  5
AE
330
2
100
AcDbEntity
  8
-SYSTEM
100
AcDbLine
 10
142.5292024274218
 20
-22.1950024618878
 30
0.0
 11
142.5292024274221
 21
51.53835644848903
 31
0.0
  0
DIMENSION
  5
AF
330
2
100
AcDbEntity
  8
-SCHRAFFUR
100
AcDbDimension
  2
*D7
 10
213.2149548638924
 20
49.03835644848903
 30
0.0
 11
209.6603846046837
 21
22.49433644305683
 31
0.0
 71
     5
 42
53.0880400108645
  3
1-1
100
AcDbAlignedDimension
 13
204.2149548638924
 23
-4.049683562375445
 33
0.0
 14
142.5292024274218
 24
49.03835644848907
 34
0.0
 50
270.0
100
AcDbRotatedDimension
  0
DIMENSION
  5
BC
330
2
100
AcDbEntity
  8
-SCHRAFFUR
100
AcDbDimension
  2
*D8
 10
203.2149548638924
 20
36.538356448489
 30
0.0
 11
199.6620899252839
 21
16.24433644305684
 31
0.0
 71
     5
 42
40.58804001086438
  3
1-1
100
AcDbAlignedDimension
 13
194.2149548638924
 23
-4.049683562375388
 33
0.0
 14
155.029202427422
 24
36.53835644848901
 34
0.0
 50
270.0
100
AcDbRotatedDimension
  0
DIMENSION
  5
C9
330
2
100
AcDbEntity
  8
-TEXT3
100
AcDbDimension
  2
*D9
 10
193.2149548638924
 20
-1.049683562375395
 30
0.0
 11
193.2149548638924
 21
5.587424213886595
 31
0.0
 70
   128
 71
     5
 42
2.999999999999996
  3
1-1
100
AcDbAlignedDimension
 13
184.2825485872029
 23
-4.049683562375388
 33
0.0
 14
168.5292024274214
 24
-1.049683562375388
 34
0.0
 50
90.0
100
AcDbRotatedDimension
  0
LINE
  5
D7
330
2
100
AcDbEntity
  8
-VERGLASUNG
100
AcDbLine
 10
162.8949675930503
 20
-4.049683420953627
 30
0.0
 11
159.0010927734244
 21
-7.943558240579662
 31
0.0
  0
LINE
  5
D8
330
2
100
AcDbEntity
  8
-VERGLASUNG
100
AcDbLine
 10
161.3324675930503
 20
-4.049683420953627
 30
0.0
 11
157.4385927734244
 21
-7.943558240579662
 31
0.0
  0
LINE
  5
D9
330
2
100
AcDbEntity
  8
-VERGLASUNG
100
AcDbLine
 10
159.7699675930503
 20
-4.049683420953627
 30
0.0
 11
155.8760927734244
 21
-7.943558240579662
 31
0.0
  0
LINE
  5
DA
330
2
100
AcDbEntity
  8
-SCHRAFFUR
100
AcDbLine
 10
116.5292024274215
 20
2.254303100670696
 30
0.0
 11
168.5292024274215
 21
2.254303100670242
 31
0.0
  0
LINE
  5
DB
330
2
100
AcDbEntity
  8
-SCHRAFFUR
100
AcDbLine
 10
117.1818880715985
 20
3.19205186139419
 30
0.0
 11
167.8765167832451
 21
3.192051861393736
 31
0.0
  0
LWPOLYLINE
  5
DC
102
{ACAD_REACTORS
330
DD
102
}
330
2
100
AcDbEntity
  8
-DICHTUNG
100
AcDbPolyline
 90
        4
 70
     1
 43
0.0
 10
168.0292024274212
 20
-1.049683562375161
 10
117.0292024274212
 20
-1.049683562374479
 10
117.0292024274211
 20
-4.049683562374479
 10
168.0292024274211
 20
-4.049683562375161
  0
HATCH
  5
DD
330
2
100
AcDbEntity
  8
-SCHRAFFUR
100
AcDbHatch
 10
0.0
 20
0.0
 30
0.0
210
0.0
220
0.0
230
1.0
  2
SOLID
 70
     1
 71
     1
 91
        1
 92
        1
 93
        4
 72
     1
 10
168.0292024274212
 20
-1.049683562375161
 11
117.0292024274212
 21
-1.049683562374479
 72
     1
 10
117.0292024274212
 20
-1.049683562374479
 11
117.0292024274211
 21
-4.049683562374479
 72
     1
 10
117.0292024274211
 20
-4.049683562374479
 11
168.0292024274211
 21
-4.049683562375161
 72
     1
 10
168.0292024274211
 20
-4.049683562375161
 11
168.0292024274212
 21
-1.049683562375161
 97
        1
330
DC
 75
     0
 76
     1
 98
        1
 10
590.3654741853431
 20
742.1162634229223
  0
LINE
  5
DE
330
2
100
AcDbEntity
  8
-VERGLASUNG
100
AcDbLine
 10
162.987553029041
 20
-13.67580860132825
 30
0.0
 11
159.093678209415
 21
-17.56968342095429
 31
0.0
  0
LINE
  5
DF
330
2
100
AcDbEntity
  8
-VERGLASUNG
100
AcDbLine
 10
122.972193810075
 20
-4.049683491664112
 30
0.0
 11
119.078318990449
 21
-7.943558311290033
 31
0.0
  0
LINE
  5
E0
330
2
100
AcDbEntity
  8
-VERGLASUNG
100
AcDbLine
 10
124.534693810075
 20
-4.049683491664112
 30
0.0
 11
120.640818990449
 21
-7.943558311290146
 31
0.0
  0
LINE
  5
E1
330
2
100
AcDbEntity
  8
-PROFILAUSSENKANTET
100
AcDbLine
 10
132.5292024274214
 20
-1.049683562374823
 30
0.0
 11
116.5292024274214
 21
-1.049683562374482
 31
0.0
  0
LINE
  5
E2
330
2
100
AcDbEntity
  8
-PROFILAUSSENKANTET
100
AcDbLine
 10
116.5292024274214
 20
-1.049683562374482
 30
0.0
 11
132.5292024274214
 21
-1.049683562374823
 31
0.0
  0
LINE
  5
E3
330
2
100
AcDbEntity
  8
-VERGLASUNG
100
AcDbLine
 10
124.6272792460657
 20
-13.67580867203874
 30
0.0
 11
120.7334044264396
 21
-17.56968349166477
 31
0.0
  0
LINE
  5
E4
330
2
100
AcDbEntity
  8
-VERGLASUNG
100
AcDbLine
 10
126.1897792460657
 20
-13.67580867203874
 30
0.0
 11
122.2959044264396
 21
-17.56968349166477
 31
0.0
  0
LINE
  5
E5
330
2
100
AcDbEntity
  8
-VERGLASUNG
100
AcDbLine
 10
104.6523316477701
 20
-4.049683562374596
 30
0.0
 11
100.7584568281442
 21
-7.943558382000631
 31
0.0
  0
LINE
  5
E6
330
2
100
AcDbEntity
  8
-VERGLASUNG
100
AcDbLine
 10
106.2148316477701
 20
-4.049683562374596
 30
0.0
 11
102.3209568281442
 21
-7.943558382000631
 31
0.0
  0
LINE
  5
E7
330
2
100
AcDbEntity
  8
-VERGLASUNG
100
AcDbLine
 10
106.3074170837609
 20
-13.67580874274922
 30
0.0
 11
102.4135422641348
 21
-17.56968356237526
 31
0.0
  0
LINE
  5
E8
330
2
100
AcDbEntity
  8
-VERGLASUNG
100
AcDbLine
 10
107.8699170837609
 20
-13.67580874274922
 30
0.0
 11
103.9760422641348
 21
-17.56968356237526
 31
0.0
  0
LINE
  5
E9
330
2
100
AcDbEntity
  8
-VERGLASUNG
100
AcDbLine
 10
91.11255492145604
 20
-13.67580881345982
 30
0.0
 11
87.21868010182999
 21
-17.56968363308586
 31
0.0
  0
LINE
  5
EA
330
2
100
AcDbEntity
  8
-VERGLASUNG
100
AcDbLine
 10
103.0898316477701
 20
-4.049683562374596
 30
0.0
 11
99.19595682814424
 21
-7.943558382000631
 31
0.0
  0
LINE
  5
EB
330
2
100
AcDbEntity
  8
-VERGLASUNG
100
AcDbLine
 10
109.4324170837609
 20
-13.67580874274922
 30
0.0
 11
105.5385422641348
 21
-17.56968356237526
 31
0.0
  0
LINE
  5
EC
330
2
100
AcDbEntity
  8
-VERGLASUNG
100
AcDbLine
 10
121.409693810075
 20
-4.049683491664112
 30
0.0
 11
117.515818990449
 21
-7.943558311290033
 31
0.0
  0
LINE
  5
ED
330
2
100
AcDbEntity
  8
-VERGLASUNG
100
AcDbLine
 10
127.7522792460657
 20
-13.67580867203874
 30
0.0
 11
123.8584044264396
 21
-17.56968349166477
 31
0.0
  0
LINE
  5
EE
330
2
100
AcDbEntity
  8
-VERGLASUNG
100
AcDbLine
 10
180.099580095432
 20
-4.049683350243029
 30
0.0
 11
176.205705275806
 21
-7.943558169869064
 31
0.0
  0
LINE
  5
EF
330
2
100
AcDbEntity
  8
-VERGLASUNG
100
AcDbLine
 10
178.537080095432
 20
-4.049683350243029
 30
0.0
 11
174.643205275806
 21
-7.943558169869064
 31
0.0
  0
LINE
  5
F0
330
2
100
AcDbEntity
  8
-VERGLASUNG
100
AcDbLine
 10
164.550053029041
 20
-13.67580860132837
 30
0.0
 11
160.656178209415
 21
-17.56968342095429
 31
0.0
  0
LINE
  5
F1
330
2
100
AcDbEntity
  8
-VERGLASUNG
100
AcDbLine
 10
166.112553029041
 20
-13.67580860132837
 30
0.0
 11
162.218678209415
 21
-17.56968342095429
 31
0.0
  0
DIMENSION
  5
F2
330
2
100
AcDbEntity
  8
-TEXT3
100
AcDbDimension
  2
*D10
 10
193.2149548638921
 20
-4.049683562375391
 30
0.0
 11
189.6296888338785
 21
-10.80968356237569
 31
0.0
  1
G
 71
     5
 42
13.52000000000066
  3
1-1
100
AcDbAlignedDimension
 13
184.2825485872029
 23
-17.56968356237605
 33
0.0
 14
184.2825485872029
 24
-4.049683562375388
 34
0.0
 50
90.0
100
AcDbRotatedDimension
  0
LINE
  5
FF
330
2
100
AcDbEntity
  8
-VERGLASUNG
100
AcDbLine
 10
183.3171655314227
 20
-13.67580853061766
 30
0.0
 11
179.4232907117967
 21
-17.56968335024369
 31
0.0
  0
LINE
  5
100
330
2
100
AcDbEntity
  8
-VERGLASUNG
100
AcDbLine
 10
184.8796655314227
 20
-13.67580853061766
 30
0.0
 11
180.9857907117967
 21
-17.56968335024369
 31
0.0
  0
LINE
  5
101
330
2
100
AcDbEntity
  8
-VERGLASUNG
100
AcDbLine
 10
181.7546655314227
 20
-13.67580853061766
 30
0.0
 11
177.8607907117967
 21
-17.56968335024369
 31
0.0
  0
LINE
  5
102
330
2
100
AcDbEntity
  8
-VERGLASUNG
100
AcDbLine
 10
181.662080095432
 20
-4.049683350243029
 30
0.0
 11
177.768205275806
 21
-7.943558169869064
 31
0.0
  0
DIMENSION
  5
103
330
2
100
AcDbEntity
  8
-TEXT3
100
AcDbDimension
  2
*D11
 10
164.8256967782831
 20
62.37038470528267
 30
0.0
 11
159.2069471916243
 21
73.01364407340173
 31
0.0
 70
     1
  1
±2.5
 71
     5
 42
4.999999999999957
  3
1-1
100
AcDbAlignedDimension
 13
153.13580414522
 23
43.60942426035467
 33
0.0
 14
149.6002702392874
 24
47.14495816628743
 34
0.0
  0
LWPOLYLINE
  5
111
330
2
100
AcDbEntity
  8
-PROFILAUSSENKANTET
100
AcDbPolyline
 90
        4
 70
     0
 43
0.0
 10
155.0292024274218
 20
36.53835644848886
 42
0.1989123673796656
 10
151.3680371922537
 20
45.37719121332105
 10
80.65735907359897
 20
116.0878693319758
 42
0.1989123673796602
 10
71.81852430876699
 20
119.7490345671439
  0
LWPOLYLINE
  5
112
330
2
100
AcDbEntity
  8
-PROFILAUSSENKANTET
100
AcDbPolyline
 90
        2
 70
     0
 43
0.0
 10
66.64085477910339
 20
94.74903456714395
 10
130.0292024274218
 20
31.36068691882547
  0
LINE
  5
113
330
2
100
AcDbEntity
  8
-SYSTEM
100
AcDbLine
 10
61.21192259096893
 20
117.8556362849423
 30
0.0
 11
153.13580414522
 21
25.93175473069101
 31
0.0
  0
LWPOLYLINE
  5
114
330
2
100
AcDbEntity
  8
-NORMTEIL_VERDECKT
100
AcDbPolyline
 90
        3
 70
     0
 43
0.0
 10
155.0191984242187
 20
36.03835644848907
 42
-0.6538057339304829
 10
133.6903676625899
 20
27.69952168365733
 10
130.5292024274217
 20
30.86068691882558
  0
CIRCLE
  5
115
330
2
100
AcDbEntity
  8
-NORMTEIL
100
AcDbCircle
 10
142.529202427422
 20
31.53835644848903
 30
0.0
 40
1.75
  0
CIRCLE
  5
117
330
2
100
AcDbEntity
  8
-NORMTEIL
100
AcDbCircle
 10
142.529202427422
 20
36.53835644848903
 30
0.0
 40
7.5
  0
CIRCLE
  5
118
330
2
100
AcDbEntity
  8
-PROFILAUSSENKANTET
100
AcDbCircle
 10
142.5292024274219
 20
36.53835644848914
 30
0.0
 40
7.75
  0
LINE
  5
119
330
2
100
AcDbEntity
  8
-SYSTEM
100
AcDbLine
 10
151.3680371922538
 20
45.37719121332099
 30
0.0
 11
133.69036766259
 21
27.69952168365728
 31
0.0
  0
LINE
  5
11A
330
2
100
AcDbEntity
  8
-NORMTEIL_VERDECKT
100
AcDbLine
 10
155.0292024274219
 20
21.03835644848897
 30
0.0
 11
130.0292024274219
 21
21.03835644848908
 31
0.0
  0
LINE
  5
11B
330
2
100
AcDbEntity
  8
-SCHRAFFUR
100
AcDbLine
 10
128.0711454948908
 20
6.22511016631762
 30
0.0
 11
156.9872593599494
 21
6.225110166317847
 31
0.0
  0
LINE
  5
11C
330
2
100
AcDbEntity
  8
-SCHRAFFUR
100
AcDbLine
 10
130.0292024274215
 20
9.038356448489423
 30
0.0
 11
155.0292024274216
 21
9.03835644849147
 31
0.0
  0
CIRCLE
  5
11D
330
2
100
AcDbEntity
  8
-NORMTEIL
100
AcDbCircle
 10
138.1990754084998
 20
39.03835644848903
 30
0.0
 40
1.75
  0
CIRCLE
  5
11E
330
2
100
AcDbEntity
  8
-NORMTEIL
100
AcDbCircle
 10
146.8593294463442
 20
39.03835644848903
 30
0.0
 40
1.75
  0
DIMENSION
  5
11F
330
2
100
AcDbEntity
  8
-TEXT3
100
AcDbDimension
  2
*D12
 10
97.65055256556022
 20
129.5455289180051
 30
0.0
 11
108.2938119336792
 21
123.9267793313463
 31
0.0
 70
     1
  1
±2.5
 71
     5
 42
4.999999999999964
  3
1-1
100
AcDbAlignedDimension
 13
78.88959212063241
 23
117.8556362849422
 33
0.0
 14
82.42512602656518
 24
114.3201023790096
 34
0.0
  0
CIRCLE
  5
12D
330
2
100
AcDbEntity
  8
-NORMTEIL
100
AcDbCircle
 10
74.31852430876699
 20
111.5791615860662
 30
0.0
 40
1.75
  0
CIRCLE
  5
12E
330
2
100
AcDbEntity
  8
-NORMTEIL
100
AcDbCircle
 10
71.81852430876699
 20
107.249034567144
 30
0.0
 40
7.5
  0
CIRCLE
  5
12F
330
2
100
AcDbEntity
  8
-PROFILAUSSENKANTET
100
AcDbCircle
 10
71.81852430876699
 20
107.249034567144
 30
0.0
 40
7.75
  0
LINE
  5
130
330
2
100
AcDbEntity
  8
-SYSTEM
100
AcDbLine
 10
80.65735907359885
 20
116.0878693319759
 30
0.0
 11
62.97968954393525
 21
98.41019980231209
 31
0.0
  0
LINE
  5
131
330
2
100
AcDbEntity
  8
-PROFILAUSSENKANTET
100
AcDbLine
 10
73.93984465232676
 20
87.45004469392062
 30
0.0
 11
91.61751418199049
 21
105.1277142235844
 31
0.0
  0
CIRCLE
  5
132
330
2
100
AcDbEntity
  8
-NORMTEIL
100
AcDbCircle
 10
66.81852430876699
 20
107.249034567144
 30
0.0
 40
1.75
  0
ARC
  5
133
330
2
100
AcDbEntity
  8
-PROFILAUSSENKANTET
100
AcDbCircle
 10
71.81852430876699
 20
107.249034567144
 30
0.0
 40
12.5
100
AcDbArc
 50
180.0
 51
180.0
  0
CIRCLE
  5
134
330
2
100
AcDbEntity
  8
-NORMTEIL
100
AcDbCircle
 10
74.31852430876699
 20
102.9189075482218
 30
0.0
 40
1.75
  0
LINE
  5
135
330
2
100
AcDbEntity
  8
-VERGLASUNG
100
AcDbLine
 10
21.6043593296605
 20
146.4744976711451
 30
0.0
 11
17.71048451003446
 21
142.5806228515191
 31
0.0
  0
DIMENSION
  5
136
330
2
100
AcDbEntity
  8
-TEXT3
100
AcDbDimension
  2
*D13
 10
31.23048429790276
 20
157.9347870036145
 30
0.0
 11
24.47048429790243
 21
161.5200530336282
 31
0.0
  1
G
 71
     5
 42
13.52000000000066
  3
1-1
100
AcDbAlignedDimension
 13
17.7104842979021
 23
149.0023807269253
 33
0.0
 14
31.23048429790276
 24
149.0023807269253
 34
0.0
100
AcDbRotatedDimension
  0
LINE
  5
143
330
2
100
AcDbEntity
  8
-VERGLASUNG
100
AcDbLine
 10
21.6043593296605
 20
148.0369976711451
 30
0.0
 11
17.71048451003446
 21
144.1431228515191
 31
0.0
  0
LINE
  5
144
330
2
100
AcDbEntity
  8
-VERGLASUNG
100
AcDbLine
 10
21.6043593296605
 20
149.5994976711451
 30
0.0
 11
17.71048451003446
 21
145.7056228515191
 31
0.0
  0
LINE
  5
145
330
2
100
AcDbEntity
  8
-VERGLASUNG
100
AcDbLine
 10
31.23048451003513
 20
144.8194122351544
 30
0.0
 11
27.33660969040909
 21
140.9255374155284
 31
0.0
  0
LINE
  5
146
330
2
100
AcDbEntity
  8
-VERGLASUNG
100
AcDbLine
 10
31.23048451003513
 20
146.3819122351544
 30
0.0
 11
27.33660969040909
 21
142.4880374155284
 31
0.0
  0
LINE
  5
147
330
2
100
AcDbEntity
  8
-VERGLASUNG
100
AcDbLine
 10
31.23048451003513
 20
143.2569122351544
 30
0.0
 11
27.33660969040909
 21
139.3630374155284
 31
0.0
  0
LINE
  5
148
330
2
100
AcDbEntity
  8
-VERGLASUNG
100
AcDbLine
 10
41.23048429790412
 20
372.7492321793958
 30
0.0
 11
41.23048429790424
 21
218.3733674894433
 31
0.0
  0
LINE
  5
149
330
2
100
AcDbEntity
  8
-VERGLASUNG
100
AcDbLine
 10
31.23048429790265
 20
372.7492321793958
 30
0.0
 11
31.23048429790276
 21
218.3733674894433
 31
0.0
  0
LINE
  5
14A
330
2
100
AcDbEntity
  8
-VERGLASUNG
100
AcDbLine
 10
17.71048429790204
 20
372.7492321793958
 30
0.0
 11
17.71048429790215
 21
218.3733674894433
 31
0.0
  0
LWPOLYLINE
  5
14B
330
2
100
AcDbEntity
  8
-NORMTEIL_VERDECKT
100
AcDbPolyline
 90
        2
 70
     0
 43
0.0
 10
119.7311761970661
 20
309.6967517852612
 10
82.77867941715856
 20
309.6967517852612
  0
LWPOLYLINE
  5
14C
330
2
100
AcDbEntity
  8
-NORMTEIL_VERDECKT
100
AcDbPolyline
 90
        2
 70
     0
 43
0.0
 10
82.77867941715861
 20
284.6967517852609
 10
119.7311761970661
 20
284.696751785261
  0
LINE
  5
14D
330
2
100
AcDbEntity
  8
-NORMTEIL_VERDECKT
100
AcDbLine
 10
56.31852430876694
 20
302.196751785261
 30
0.0
 11
74.91879510933159
 21
302.196751785261
 31
0.0
  0
LINE
  5
14E
330
2
100
AcDbEntity
  8
-NORMTEIL_VERDECKT
100
AcDbLine
 10
56.31852430876694
 20
292.196751785261
 30
0.0
 11
74.91879510933164
 21
292.196751785261
 31
0.0
  0
ARC
  5
14F
330
2
100
AcDbEntity
  8
-NORMTEIL_VERDECKT
100
AcDbCircle
 10
87.19809679957464
 20
297.196751785261
 30
0.0
 40
13.25825214724796
100
AcDbArc
 50
109.4712206344908
 51
157.8443737355611
  0
LINE
  5
150
330
2
100
AcDbEntity
  8
-NORMTEIL_VERDECKT
100
AcDbLine
 10
44.31852430876751
 20
284.6967517852608
 30
0.0
 11
44.31852430876978
 21
309.6967517852608
 31
0.0
  0
LINE
  5
151
330
2
100
AcDbEntity
  8
-SCHRAFFUR
100
AcDbLine
 10
38.47221972167216
 20
271.8494374294377
 30
0.0
 11
38.47221972167216
 21
322.5440661410843
 31
0.0
  0
LINE
  5
152
330
2
100
AcDbEntity
  8
-SCHRAFFUR
100
AcDbLine
 10
37.53447096094868
 20
271.1967517852607
 30
0.0
 11
37.53447096094868
 21
323.1967517852607
 31
0.0
  0
LINE
  5
153
330
2
100
AcDbEntity
  8
-PROFILAUSSENKANTET
100
AcDbLine
 10
34.2304842979035
 20
271.1967517852607
 30
0.0
 11
34.23048429790327
 21
287.1967517852608
 31
0.0
  0
LINE
  5
154
330
2
100
AcDbEntity
  8
-PROFILAUSSENKANTET
100
AcDbLine
 10
34.23048429790327
 20
287.1967517852608
 30
0.0
 11
34.2304842979035
 21
271.1967517852607
 31
0.0
  0
LINE
  5
155
330
2
100
AcDbEntity
  8
-DICHTUNG
100
AcDbLine
 10
34.23048429790327
 20
322.6967517852605
 30
0.0
 11
34.2304842979035
 21
271.6967517852605
 31
0.0
  0
LINE
  5
156
330
2
100
AcDbEntity
  8
-DICHTUNG
100
AcDbLine
 10
34.2304842979035
 20
271.6967517852605
 30
0.0
 11
31.2304842979035
 21
271.6967517852605
 31
0.0
  0
LINE
  5
157
330
2
100
AcDbEntity
  8
-DICHTUNG
100
AcDbLine
 10
31.2304842979035
 20
271.6967517852605
 30
0.0
 11
31.23048429790328
 21
322.6967517852605
 31
0.0
  0
LINE
  5
158
330
2
100
AcDbEntity
  8
-DICHTUNG
100
AcDbLine
 10
31.23048429790328
 20
322.6967517852605
 30
0.0
 11
34.23048429790327
 21
322.6967517852605
 31
0.0
  0
LWPOLYLINE
  5
159
330
2
100
AcDbEntity
  8
-NORMTEIL_VERDECKT
100
AcDbPolyline
 90
        4
 70
     0
 43
0.0
 10
41.73048429790419
 20
283.2964677982694
 42
-0.2978725052836182
 10
44.31852430876751
 20
284.6967517852608
 10
59.31852430876729
 20
284.6967517852608
 10
82.77867941715895
 20
284.6967517852614
  0
LWPOLYLINE
  5
15A
330
2
100
AcDbEntity
  8
-PROFILAUSSENKANTET
100
AcDbPolyline
 90
        8
 70
     0
 43
0.0
 10
41.23048429790417
 20
312.641370580176
 10
38.47221972167217
 20
322.5440661410843
 42
0.3137493583978905
 10
37.53447096094846
 20
323.1967517852607
 10
34.23048429790328
 20
323.1967517852607
 10
34.23048429790351
 20
271.1967517852607
 10
37.53447096094892
 20
271.196751785261
 42
0.3137493583979784
 10
38.47221972167263
 20
271.8494374294377
 10
41.23048429790418
 20
281.7521329903442
  0
LINE
  5
15B
330
2
100
AcDbEntity
  8
-NORMTEIL_VERDECKT
100
AcDbLine
 10
56.31852430876694
 20
292.196751785261
 30
0.0
 11
56.31852430876694
 21
302.196751785261
 31
0.0
  0
LWPOLYLINE
  5
15C
330
2
100
AcDbEntity
  8
-NORMTEIL_VERDECKT
100
AcDbPolyline
 90
        2
 70
     0
 43
0.0
 10
82.77867941715735
 20
309.6967517852612
 10
78.81852430876728
 20
309.6967517852612
  0
LINE
  5
15D
330
2
100
AcDbEntity
  8
-NORMTEIL_VERDECKT
100
AcDbLine
 10
59.31852430876699
 20
292.196751785261
 30
0.0
 11
59.31852430876699
 21
302.196751785261
 31
0.0
  0
HATCH
  5
15E
330
2
100
AcDbEntity
  8
-SCHRAFFUR
100
AcDbHatch
 10
0.0
 20
0.0
 30
0.0
210
0.0
220
0.0
230
1.0
  2
SOLID
 70
     1
 71
     0
 91
        3
 92
        1
 93
        4
 72
     1
 10
31.23048429790328
 20
322.6967517852605
 11
34.23048429790327
 21
322.6967517852605
 72
     1
 10
34.23048429790327
 20
322.6967517852605
 11
34.2304842979035
 21
271.6967517852605
 72
     1
 10
34.2304842979035
 20
271.6967517852605
 11
31.2304842979035
 21
271.6967517852605
 72
     1
 10
31.2304842979035
 20
271.6967517852605
 11
31.23048429790328
 21
322.6967517852605
 97
        0
 92
        1
 93
        2
 72
     1
 10
34.23048429790327
 20
287.1967517852608
 11
34.2304842979035
 21
271.1967517852607
 72
     1
 10
34.2304842979035
 20
271.1967517852607
 11
34.23048429790327
 21
287.1967517852608
 97
        0
 92
       49
 93
        1
 72
     1
 10
34.23048429790327
 20
288.1967517852605
 11
34.23048429790327
 21
287.1967517852608
 97
        0
 75
     0
 76
     1
 98
        1
 10
11.30877538947993
 20
14.69458768508548
  0
LINE
  5
15F
330
2
100
AcDbEntity
  8
-NORMTEIL_VERDECKT
100
AcDbLine
 10
75.81852430876728
 20
286.4637517852609
 30
0.0
 11
75.81852430876728
 21
290.393327652777
 31
0.0
  0
LINE
  5
160
330
2
100
AcDbEntity
  8
-NORMTEIL_VERDECKT
100
AcDbLine
 10
75.05152430876745
 20
285.6967517852611
 30
0.0
 11
75.05152430876745
 21
291.88242899439
 31
0.0
  0
LINE
  5
161
330
2
100
AcDbEntity
  8
-NORMTEIL_VERDECKT
100
AcDbLine
 10
68.5855243087671
 20
285.6967517852611
 30
0.0
 11
68.5855243087671
 21
305.6967517852611
 31
0.0
  0
LINE
  5
162
330
2
100
AcDbEntity
  8
-NORMTEIL_VERDECKT
100
AcDbLine
 10
67.81852430876728
 20
286.4637517852609
 30
0.0
 11
67.81852430876728
 21
305.6967517852611
 31
0.0
  0
LINE
  5
163
330
2
100
AcDbEntity
  8
-NORMTEIL_VERDECKT
100
AcDbLine
 10
67.81852430876728
 20
286.4637517852609
 30
0.0
 11
75.81852430876728
 21
286.4637517852609
 31
0.0
  0
LWPOLYLINE
  5
164
330
2
100
AcDbEntity
  8
-NORMTEIL_VERDECKT
100
AcDbPolyline
 90
        4
 70
     0
 43
0.0
 10
67.81852430876728
 20
286.4637517852609
 10
68.5855243087671
 20
285.6967517852611
 10
75.05152430876745
 20
285.6967517852611
 10
75.81852430876728
 20
286.4637517852609
  0
LINE
  5
165
330
2
100
AcDbEntity
  8
-NORMTEIL_VERDECKT
100
AcDbLine
 10
74.39865132768904
 20
306.6967517852611
 30
0.0
 11
77.89865132768904
 21
306.6967517852611
 31
0.0
  0
LINE
  5
166
330
2
100
AcDbEntity
  8
-NORMTEIL_VERDECKT
100
AcDbLine
 10
65.73839728984552
 20
306.6967517852611
 30
0.0
 11
69.23839728984552
 21
306.6967517852611
 31
0.0
  0
LINE
  5
167
330
2
100
AcDbEntity
  8
-NORMTEIL_VERDECKT
100
AcDbLine
 10
70.09552955035991
 20
306.6967517852611
 30
0.0
 11
73.59552955035991
 21
306.6967517852611
 31
0.0
  0
LWPOLYLINE
  5
168
330
2
100
AcDbEntity
  8
-NORMTEIL_VERDECKT
100
AcDbPolyline
 90
        5
 70
     0
 43
0.0
 10
70.09552955035991
 20
309.6967517852611
 10
70.09552955035991
 20
306.6967517852611
 10
71.84552955035991
 20
305.6967517852611
 10
73.59552955035991
 20
306.6967517852611
 10
73.59552955035991
 20
309.6967517852611
  0
LWPOLYLINE
  5
169
330
2
100
AcDbEntity
  8
-NORMTEIL_VERDECKT
100
AcDbPolyline
 90
        5
 70
     0
 43
0.0
 10
69.23839728984552
 20
309.6967517852611
 10
69.23839728984552
 20
306.6967517852611
 10
67.48839728984552
 20
305.6967517852611
 10
65.73839728984552
 20
306.6967517852611
 10
65.73839728984552
 20
309.6967517852611
  0
LWPOLYLINE
  5
16A
330
2
100
AcDbEntity
  8
-NORMTEIL_VERDECKT
100
AcDbPolyline
 90
        5
 70
     0
 43
0.0
 10
74.39865132768904
 20
309.6967517852611
 10
74.39865132768904
 20
306.6967517852611
 10
76.14865132768904
 20
305.6967517852611
 10
77.89865132768904
 20
306.6967517852611
 10
77.89865132768904
 20
309.6967517852611
  0
LWPOLYLINE
  5
16B
330
2
100
AcDbEntity
  8
-NORMTEIL_VERDECKT
100
AcDbPolyline
 90
        3
 70
     0
 43
0.0
 10
64.31852430876728
 20
307.1967517852611
 10
64.31852430876728
 20
305.6967517852611
 10
77.02306608709008
 20
305.6967517852611
  0
LWPOLYLINE
  5
16C
330
2
100
AcDbEntity
  8
-NORMTEIL_VERDECKT
100
AcDbPolyline
 90
        6
 70
     0
 43
0.0
 10
64.31852430876728
 20
307.1967517852611
 10
64.31852430876728
 20
309.1967517852611
 42
-0.4142135623730951
 10
64.81852430876728
 20
309.6967517852611
 10
78.81852430876728
 20
309.6967517852611
 42
-0.4142135623730951
 10
79.31852430876728
 20
309.1967517852611
 10
79.31852430876728
 20
307.1967517852629
  0
ARC
  5
16D
330
2
100
AcDbEntity
  8
-NORMTEIL_VERDECKT
100
AcDbCircle
 10
87.19809679957464
 20
297.196751785261
 30
0.0
 40
13.25825214724796
100
AcDbArc
 50
202.1556262644394
 51
250.528779365509
  0
LWPOLYLINE
  5
16E
330
2
100
AcDbEntity
  8
-NORMTEIL_VERDECKT
100
AcDbPolyline
 90
        3
 70
     0
 43
0.0
 10
64.81852430876728
 20
309.696751785261
 10
44.31852430876683
 20
309.6967517852608
 42
-0.2978725052836313
 10
41.73048429790416
 20
311.097035772251
  0
LINE
  5
16F
330
2
100
AcDbEntity
  8
-NORMTEIL_VERDECKT
100
AcDbLine
 10
75.81852430876728
 20
304.000175917745
 30
0.0
 11
75.81852430876728
 21
305.6967517852611
 31
0.0
  0
LINE
  5
170
330
2
100
AcDbEntity
  8
-NORMTEIL_VERDECKT
100
AcDbLine
 10
75.05152430876745
 20
302.511074576132
 30
0.0
 11
75.05152430876745
 21
305.6967517852611
 31
0.0
  0
LWPOLYLINE
  5
171
330
2
100
AcDbEntity
  8
-NORMTEIL_VERDECKT
100
AcDbPolyline
 90
        3
 70
     0
 43
0.0
 10
59.31852430876699
 20
299.696751785261
 10
62.97968954393525
 20
297.196751785261
 10
59.31852430876699
 20
294.6967517852609
  0
LINE
  5
172
330
2
100
AcDbEntity
  8
-PROFILAUSSENKANTET
100
AcDbLine
 10
122.7302125541985
 20
38.65967679204885
 30
0.0
 11
140.4078820838623
 21
56.33734632171258
 31
0.0
  0
LINE
  5
173
330
2
100
AcDbEntity
  8
-VERGLASUNG
100
AcDbLine
 10
72.79269275915119
 20
-13.67580888417042
 30
0.0
 11
68.89881793952516
 21
-17.56968370379645
 31
0.0
  0
LINE
  5
174
330
2
100
AcDbEntity
  8
-VERGLASUNG
100
AcDbLine
 10
68.01260732316048
 20
-4.049683703795793
 30
0.0
 11
64.11873250353456
 21
-7.943558523421827
 31
0.0
  0
LINE
  5
175
330
2
100
AcDbEntity
  8
-VERGLASUNG
100
AcDbLine
 10
69.57510732316048
 20
-4.049683703795793
 30
0.0
 11
65.68123250353456
 21
-7.943558523421827
 31
0.0
  0
LINE
  5
176
330
2
100
AcDbEntity
  8
-VERGLASUNG
100
AcDbLine
 10
71.23019275915119
 20
-13.67580888417042
 30
0.0
 11
67.33631793952516
 21
-17.56968370379645
 31
0.0
  0
LINE
  5
177
330
2
100
AcDbEntity
  8
-VERGLASUNG
100
AcDbLine
 10
69.66769275915119
 20
-13.67580888417042
 30
0.0
 11
65.77381793952516
 21
-17.56968370379645
 31
0.0
  0
LINE
  5
178
330
2
100
AcDbEntity
  8
-VERGLASUNG
100
AcDbLine
 10
66.45010732316048
 20
-4.049683703795793
 30
0.0
 11
62.55623250353456
 21
-7.943558523421827
 31
0.0
  0
LINE
  5
179
330
2
100
AcDbEntity
  8
-VERGLASUNG
100
AcDbLine
 10
48.13024516085564
 20
-4.049683774506391
 30
0.0
 11
44.23637034122971
 21
-7.943558594132426
 31
0.0
  0
LINE
  5
17A
330
2
100
AcDbEntity
  8
-VERGLASUNG
100
AcDbLine
 10
51.34783059684635
 20
-13.67580895488102
 30
0.0
 11
47.45395577722031
 21
-17.56968377450705
 31
0.0
  0
LINE
  5
17B
330
2
100
AcDbEntity
  8
-VERGLASUNG
100
AcDbLine
 10
52.91033059684635
 20
-13.67580895488102
 30
0.0
 11
49.01645577722032
 21
-17.56968377450705
 31
0.0
  0
LINE
  5
17C
330
2
100
AcDbEntity
  8
-VERGLASUNG
100
AcDbLine
 10
51.25524516085564
 20
-4.049683774506391
 30
0.0
 11
47.36137034122971
 21
-7.943558594132426
 31
0.0
  0
LINE
  5
17D
330
2
100
AcDbEntity
  8
-VERGLASUNG
100
AcDbLine
 10
49.69274516085564
 20
-4.049683774506391
 30
0.0
 11
45.79887034122971
 21
-7.943558594132426
 31
0.0
  0
LINE
  5
17E
330
2
100
AcDbEntity
  8
-VERGLASUNG
100
AcDbLine
 10
54.47283059684635
 20
-13.67580895488102
 30
0.0
 11
50.57895577722032
 21
-17.56968377450705
 31
0.0
  0
LINE
  5
17F
330
2
100
AcDbEntity
  8
-VERGLASUNG
100
AcDbLine
 10
31.23048408577086
 20
15.97507730057805
 30
0.0
 11
27.33660926614482
 21
12.08120248095201
 31
0.0
  0
LINE
  5
180
330
2
100
AcDbEntity
  8
-VERGLASUNG
100
AcDbLine
 10
31.23048408577086
 20
14.41257730057805
 30
0.0
 11
27.33660926614482
 21
10.51870248095201
 31
0.0
  0
LINE
  5
181
330
2
100
AcDbEntity
  8
-VERGLASUNG
100
AcDbLine
 10
31.23048408577086
 20
12.85007730057805
 30
0.0
 11
27.33660926614482
 21
8.956202480952015
 31
0.0
  0
LINE
  5
182
330
2
100
AcDbEntity
  8
-VERGLASUNG
100
AcDbLine
 10
21.60435890539623
 20
19.19266273656876
 30
0.0
 11
17.71048408577019
 21
15.29878791694273
 31
0.0
  0
LINE
  5
183
330
2
100
AcDbEntity
  8
-VERGLASUNG
100
AcDbLine
 10
21.60435890539623
 20
17.63016273656876
 30
0.0
 11
17.71048408577019
 21
13.73628791694273
 31
0.0
  0
LINE
  5
184
330
2
100
AcDbEntity
  8
-VERGLASUNG
100
AcDbLine
 10
21.60435890539623
 20
16.06766273656876
 30
0.0
 11
17.71048408577019
 21
12.17378791694273
 31
0.0
  0
LINE
  5
185
330
2
100
AcDbEntity
  8
-VERGLASUNG
100
AcDbLine
 10
21.60435883468551
 20
0.8728005742639197
 30
0.0
 11
17.71048401505948
 21
-3.021074245362115
 31
0.0
  0
LINE
  5
186
330
2
100
AcDbEntity
  8
-VERGLASUNG
100
AcDbLine
 10
31.23048401506014
 20
-3.907284861726793
 30
0.0
 11
27.33660919543411
 21
-7.801159681352828
 31
0.0
  0
LINE
  5
187
330
2
100
AcDbEntity
  8
-VERGLASUNG
100
AcDbLine
 10
31.23048401506014
 20
-5.469784861726793
 30
0.0
 11
27.33660919543411
 21
-9.363659681352828
 31
0.0
  0
LINE
  5
188
330
2
100
AcDbEntity
  8
-VERGLASUNG
100
AcDbLine
 10
21.60435883468551
 20
-2.25219942573608
 30
0.0
 11
17.71048401505948
 21
-6.146074245362115
 31
0.0
  0
LINE
  5
189
330
2
100
AcDbEntity
  8
-VERGLASUNG
100
AcDbLine
 10
21.60435883468551
 20
-0.6896994257360803
 30
0.0
 11
17.71048401505948
 21
-4.583574245362115
 31
0.0
  0
LINE
  5
18A
330
2
100
AcDbEntity
  8
-VERGLASUNG
100
AcDbLine
 10
31.23048401506014
 20
-2.344784861726793
 30
0.0
 11
27.33660919543411
 21
-6.238659681352828
 31
0.0
  0
CIRCLE
  5
18B
330
2
100
AcDbEntity
  8
-PROFILAUSSENKANTET
100
AcDbCircle
 10
149.5292024274221
 20
297.1967517852609
 30
0.0
 40
1.75
  0
CIRCLE
  5
18C
330
2
100
AcDbEntity
  8
-PROFILAUSSENKANTET
100
AcDbCircle
 10
139.0292024274221
 20
291.1345739587698
 30
0.0
 40
1.75
  0
CIRCLE
  5
18D
330
2
100
AcDbEntity
  8
-PROFILAUSSENKANTET
100
AcDbCircle
 10
139.029202427422
 20
303.2589296117519
 30
0.0
 40
1.75
  0
CIRCLE
  5
18E
330
2
100
AcDbEntity
  8
-SCHRAFFUR
100
AcDbCircle
 10
142.5292024274221
 20
297.1967517852609
 30
0.0
 40
10.0
  0
CIRCLE
  5
18F
330
2
100
AcDbEntity
  8
-PROFILAUSSENKANTET
100
AcDbCircle
 10
142.5292024274221
 20
297.1967517852609
 30
0.0
 40
26.0
  0
CIRCLE
  5
190
330
2
100
AcDbEntity
  8
-SCHRAFFUR
100
AcDbCircle
 10
142.5292024274221
 20
297.1967517852609
 30
0.0
 40
24.32879797461067
  0
LINE
  5
191
330
2
100
AcDbEntity
  8
-NORMTEIL_VERDECKT
100
AcDbLine
 10
129.5292024274216
 20
-4.049683562374813
 30
0.0
 11
129.5292024274216
 21
-17.56968356237573
 31
0.0
  0
LINE
  5
192
330
2
100
AcDbEntity
  8
-NORMTEIL_VERDECKT
100
AcDbLine
 10
131.5292024274216
 20
-4.049683562374813
 30
0.0
 11
131.5292024274216
 21
-17.56968356237573
 31
0.0
  0
LINE
  5
193
330
2
100
AcDbEntity
  8
-NORMTEIL_VERDECKT
100
AcDbLine
 10
146.5292024274218
 20
-8.246683562375864
 30
0.0
 11
138.5292024274218
 21
-8.246683562375864
 31
0.0
  0
LINE
  5
194
330
2
100
AcDbEntity
  8
-NORMTEIL_VERDECKT
100
AcDbLine
 10
145.8522024274217
 20
-7.569683562375956
 30
0.0
 11
145.8522024274213
 21
-20.56968356237618
 31
0.0
  0
LINE
  5
195
330
2
100
AcDbEntity
  8
-NORMTEIL_VERDECKT
100
AcDbLine
 10
155.5292024274216
 20
-4.049683562374926
 30
0.0
 11
155.5292024274216
 21
-17.56968356237573
 31
0.0
  0
LINE
  5
196
330
2
100
AcDbEntity
  8
-NORMTEIL_VERDECKT
100
AcDbLine
 10
153.5292024274216
 20
-4.049683562374926
 30
0.0
 11
153.5292024274216
 21
-17.56968356237573
 31
0.0
  0
LWPOLYLINE
  5
197
330
2
100
AcDbEntity
  8
-NORMTEIL_VERDECKT
100
AcDbPolyline
 90
        6
 70
     0
 43
0.0
 10
146.5292024274214
 20
-20.56968356237607
 10
146.5292024274218
 20
-8.246683562375864
 10
145.8522024274217
 20
-7.569683562375956
 10
139.2062024274215
 20
-7.569683562375843
 10
138.5292024274218
 20
-8.246683562375864
 10
138.5292024274214
 20
-20.56968356237596
  0
LINE
  5
198
330
2
100
AcDbEntity
  8
-NORMTEIL_VERDECKT
100
AcDbLine
 10
139.2062024274215
 20
-7.569683562375956
 30
0.0
 11
139.2062024274211
 21
-20.56968356237596
 31
0.0
  0
LWPOLYLINE
  5
199
330
2
100
AcDbEntity
  8
-NORMTEIL_VERDECKT
100
AcDbPolyline
 90
        4
 70
     0
 43
0.0
 10
151.5292024274216
 20
-1.049683562374813
 10
151.5292024274216
 20
-15.56968356237596
 10
133.5292024274216
 20
-15.56968356237596
 10
133.5292024274216
 20
-1.049683562374699
  0
LINE
  5
19A
330
2
100
AcDbEntity
  8
-NORMTEIL_VERDECKT
100
AcDbLine
 10
153.0292024274212
 20
-17.56968356237573
 30
0.0
 11
132.0292024274211
 21
-17.56968356237573
 31
0.0
  0
HATCH
  5
19B
330
2
100
AcDbEntity
  8
-SCHRAFFUR
100
AcDbHatch
 10
0.0
 20
0.0
 30
0.0
210
0.0
220
0.0
230
1.0
  2
SOLID
 70
     1
 71
     1
 91
        1
 92
        1
 93
        4
 72
     1
 10
168.0292024274218
 20
-17.56968356237573
 11
117.0292024274217
 21
-17.56968356237573
 72
     1
 10
117.0292024274217
 20
-17.56968356237573
 11
117.0292024274217
 21
-20.56968356237573
 72
     1
 10
117.0292024274217
 20
-20.56968356237573
 11
168.0292024274218
 21
-20.56968356237573
 72
     1
 10
168.0292024274218
 20
-20.56968356237573
 11
168.0292024274218
 21
-17.56968356237573
 97
        1
330
19C
 75
     0
 76
     1
 98
        1
 10
142.5292024274216
 20
156.1680987681839
  0
LWPOLYLINE
  5
19C
102
{ACAD_REACTORS
330
19B
102
}
330
2
100
AcDbEntity
  8
-DICHTUNG
100
AcDbPolyline
 90
        4
 70
     1
 43
0.0
 10
168.0292024274218
 20
-17.56968356237573
 10
117.0292024274217
 20
-17.56968356237573
 10
117.0292024274217
 20
-20.56968356237573
 10
168.0292024274218
 20
-20.56968356237573
  0
LWPOLYLINE
  5
19D
330
2
100
AcDbEntity
  8
-PROFILAUSSENKANTET
100
AcDbPolyline
 90
       11
 70
     0
 43
0.0
 10
168.5292024274218
 20
-20.56968356237596
 10
116.5292024274217
 20
-20.56968356237573
 10
116.5292024274217
 20
-24.37542938560838
 42
0.375901963977188
 10
118.2648749872397
 20
-26.35788518697379
 10
131.6307990088108
 20
-28.5258230657889
 42
0.033150018187446
 10
132.2916176092659
 20
-28.56968356237573
 10
151.5459400817211
 20
-28.56968356237573
 42
0.0413106451481675
 10
152.3679350182477
 20
-28.50165318153651
 10
166.8580004020324
 20
-26.3482172332742
 42
0.3666293647015965
 10
168.5292024274218
 20
-24.37542938560998
 10
168.5292024274218
 20
-20.56968356237596
  0
DIMENSION
  5
19E
330
2
100
AcDbEntity
  8
-SCHRAFFUR
100
AcDbDimension
  2
*D14
 10
168.5292024274218
 20
-45.39639407451349
 30
0.0
 11
142.5292024274218
 21
-41.70369284668266
 31
0.0
  1
%%c<>
 71
     5
 42
52.00000000000011
  3
1-1
100
AcDbAlignedDimension
 13
116.5292024274217
 23
-24.37542938560838
 33
0.0
 14
168.5292024274218
 24
-24.37542938560998
 34
0.0
 50
180.0
100
AcDbRotatedDimension
  0
LINE
  5
1AB
330
2
100
AcDbEntity
  8
-NORMTEIL_VERDECKT
100
AcDbLine
 10
137.0292024274223
 20
-24.56968356237482
 30
0.0
 11
134.0292024274223
 21
-24.56968356237482
 31
0.0
  0
LWPOLYLINE
  5
1AC
330
2
100
AcDbEntity
  8
-NORMTEIL_VERDECKT
100
AcDbPolyline
 90
        5
 70
     0
 43
0.0
 10
137.0292024274223
 20
-28.56968356237482
 10
137.0292024274223
 20
-24.56968356237482
 10
135.5292024274223
 20
-23.56968356237482
 10
134.0292024274223
 20
-24.56968356237482
 10
134.0292024274223
 20
-28.56968356237482
  0
LINE
  5
1AD
330
2
100
AcDbEntity
  8
-NORMTEIL_VERDECKT
100
AcDbLine
 10
147.5292024274223
 20
-24.56968356237482
 30
0.0
 11
144.5292024274223
 21
-24.56968356237482
 31
0.0
  0
LWPOLYLINE
  5
1AE
330
2
100
AcDbEntity
  8
-NORMTEIL_VERDECKT
100
AcDbPolyline
 90
        5
 70
     0
 43
0.0
 10
147.5292024274223
 20
-28.56968356237482
 10
147.5292024274223
 20
-24.56968356237482
 10
146.0292024274223
 20
-23.56968356237482
 10
144.5292024274223
 20
-24.56968356237482
 10
144.5292024274223
 20
-28.56968356237573
  0
DIMENSION
  5
1AF
330
2
100
AcDbEntity
  8
-TEXT3
100
AcDbDimension
  2
*D16
 10
193.2149548638886
 20
-20.56968356237596
 30
0.0
 11
189.6620899252801
 21
-24.56968356237582
 31
0.0
 71
     5
 42
7.999999999999779
  3
1-1
100
AcDbAlignedDimension
 13
147.5292024274188
 23
-28.56968356237573
 33
0.0
 14
181.5489330366561
 24
-20.56968356237596
 34
0.0
 50
270.0
100
AcDbRotatedDimension
  0
DIMENSION
  5
1BC
330
2
100
AcDbEntity
  8
-TEXT3
100
AcDbDimension
  2
*D15
 10
193.2149548638886
 20
-20.56968356237596
 30
0.0
 11
193.2149548638886
 21
-19.06968356237578
 31
0.0
 70
   128
 71
     5
 42
3.000000000000287
  3
1-1
100
AcDbAlignedDimension
 13
188.123629839783
 23
-17.56968356237567
 33
0.0
 14
168.5292024274183
 24
-20.56968356237596
 34
0.0
 50
270.0
100
AcDbRotatedDimension
  0
LINE
  5
1CA
330
2
100
AcDbEntity
  8
-NORMTEIL_VERDECKT
100
AcDbLine
 10
17.71048429790197
 20
117.7490345671436
 30
0.0
 11
17.71048429790198
 21
96.74903456714359
 31
0.0
  0
LINE
  5
1CB
330
2
100
AcDbEntity
  8
-NORMTEIL_VERDECKT
100
AcDbLine
 10
27.71048429790176
 20
103.9260345671439
 30
0.0
 11
14.71048429790176
 21
103.9260345671435
 31
0.0
  0
LWPOLYLINE
  5
1CC
330
2
100
AcDbEntity
  8
-NORMTEIL_VERDECKT
100
AcDbPolyline
 90
        6
 70
     0
 43
0.0
 10
14.71048429790164
 20
111.2490345671438
 10
27.03348429790185
 20
111.2490345671442
 10
27.71048429790174
 20
110.5720345671441
 10
27.71048429790187
 20
103.9260345671439
 10
27.03348429790185
 20
103.2490345671442
 10
14.71048429790176
 20
103.2490345671438
  0
LINE
  5
1CD
330
2
100
AcDbEntity
  8
-NORMTEIL_VERDECKT
100
AcDbLine
 10
31.23048429790278
 20
118.249034567144
 30
0.0
 11
17.71048429790197
 21
118.249034567144
 31
0.0
  0
LINE
  5
1CE
330
2
100
AcDbEntity
  8
-NORMTEIL_VERDECKT
100
AcDbLine
 10
31.23048429790278
 20
120.249034567144
 30
0.0
 11
17.71048429790197
 21
120.249034567144
 31
0.0
  0
LINE
  5
1CF
330
2
100
AcDbEntity
  8
-NORMTEIL_VERDECKT
100
AcDbLine
 10
27.71048429790174
 20
110.5720345671441
 30
0.0
 11
14.71048429790153
 21
110.5720345671437
 31
0.0
  0
LINE
  5
1D0
330
2
100
AcDbEntity
  8
-NORMTEIL_VERDECKT
100
AcDbLine
 10
27.03348429790185
 20
111.2490345671442
 30
0.0
 11
27.03348429790185
 21
103.2490345671442
 31
0.0
  0
LINE
  5
1D1
330
2
100
AcDbEntity
  8
-NORMTEIL_VERDECKT
100
AcDbLine
 10
31.23048429790291
 20
96.24903456714404
 30
0.0
 11
17.71048429790198
 21
96.24903456714404
 31
0.0
  0
LINE
  5
1D2
330
2
100
AcDbEntity
  8
-NORMTEIL_VERDECKT
100
AcDbLine
 10
31.23048429790291
 20
94.24903456714403
 30
0.0
 11
17.71048429790198
 21
94.24903456714403
 31
0.0
  0
DIMENSION
  5
1D3
330
2
100
AcDbEntity
  8
-TEXT3
100
AcDbDimension
  2
*D19
 10
14.71048429790174
 20
157.934787003611
 30
0.0
 11
16.21048429790188
 21
157.934787003611
 31
0.0
 70
   128
 71
     5
 42
3.000000000000284
  3
1-1
100
AcDbAlignedDimension
 13
17.71048429790203
 23
152.8434619795054
 33
0.0
 14
14.71048429790174
 24
133.2490345671407
 34
0.0
 50
180.0
100
AcDbRotatedDimension
  0
DIMENSION
  5
1E1
330
2
100
AcDbEntity
  8
-TEXT3
100
AcDbDimension
  2
*D18
 10
14.71048429790174
 20
157.934787003611
 30
0.0
 11
10.71048429790186
 21
161.4876519422194
 31
0.0
 71
     5
 42
7.999999999999758
  3
1-1
100
AcDbAlignedDimension
 13
6.710484297901984
 23
112.2490345671412
 33
0.0
 14
14.71048429790174
 24
146.2687651763785
 34
0.0
 50
180.0
100
AcDbRotatedDimension
  0
LWPOLYLINE
  5
1EE
330
2
100
AcDbEntity
  8
-NORMTEIL_VERDECKT
100
AcDbPolyline
 90
        5
 70
     0
 43
0.0
 10
6.710484297902894
 20
112.2490345671447
 10
10.71048429790289
 20
112.2490345671447
 10
11.71048429790289
 20
110.7490345671447
 10
10.71048429790289
 20
109.2490345671447
 10
6.710484297901984
 20
109.2490345671447
  0
LINE
  5
1EF
330
2
100
AcDbEntity
  8
-NORMTEIL_VERDECKT
100
AcDbLine
 10
10.71048429790289
 20
112.2490345671447
 30
0.0
 11
10.71048429790289
 21
109.2490345671447
 31
0.0
  0
LWPOLYLINE
  5
1F0
330
2
100
AcDbEntity
  8
-NORMTEIL_VERDECKT
100
AcDbPolyline
 90
        5
 70
     0
 43
0.0
 10
6.710484297902894
 20
101.7490345671447
 10
10.71048429790289
 20
101.7490345671447
 10
11.71048429790289
 20
100.2490345671447
 10
10.71048429790289
 20
98.74903456714472
 10
6.710484297902894
 20
98.74903456714472
  0
LINE
  5
1F1
330
2
100
AcDbEntity
  8
-NORMTEIL_VERDECKT
100
AcDbLine
 10
10.71048429790289
 20
101.7490345671447
 30
0.0
 11
10.71048429790289
 21
98.74903456714472
 31
0.0
  0
LWPOLYLINE
  5
1F2
330
2
100
AcDbEntity
  8
-PROFILAUSSENKANTET
100
AcDbPolyline
 90
       11
 70
     0
 43
0.0
 10
14.71048429790174
 20
133.2490345671442
 10
14.71048429790198
 20
81.24903456714415
 10
10.90473847466933
 20
81.24903456714415
 42
-0.375901963977188
 10
8.922282673303925
 20
82.98470712696214
 10
6.754344794488815
 20
96.35063114853327
 42
-0.033150018187446
 10
6.710484297901984
 20
97.01144974898832
 10
6.710484297901984
 20
116.2657722214435
 42
-0.0413106451481675
 10
6.778514678741203
 20
117.0877671579701
 10
8.931950627003502
 20
131.5778325417548
 42
-0.3666293647015965
 10
10.90473847466772
 20
133.2490345671442
 10
14.71048429790174
 20
133.2490345671442
  0
LWPOLYLINE
  5
1F3
102
{ACAD_REACTORS
330
1F4
102
}
330
2
100
AcDbEntity
  8
-DICHTUNG
100
AcDbPolyline
 90
        4
 70
     1
 43
0.0
 10
17.71048429790197
 20
132.7490345671442
 10
17.71048429790198
 20
81.74903456714416
 10
14.71048429790198
 20
81.74903456714416
 10
14.71048429790197
 20
132.7490345671442
  0
HATCH
  5
1F4
330
2
100
AcDbEntity
  8
-SCHRAFFUR
100
AcDbHatch
 10
0.0
 20
0.0
 30
0.0
210
0.0
220
0.0
230
1.0
  2
SOLID
 70
     1
 71
     1
 91
        1
 92
        1
 93
        4
 72
     1
 10
17.71048429790197
 20
132.7490345671442
 11
17.71048429790198
 21
81.74903456714416
 72
     1
 10
17.71048429790198
 20
81.74903456714416
 11
14.71048429790198
 21
81.74903456714416
 72
     1
 10
14.71048429790198
 20
81.74903456714416
 11
14.71048429790197
 21
132.7490345671442
 72
     1
 10
14.71048429790197
 20
132.7490345671442
 11
17.71048429790197
 21
132.7490345671442
 97
        1
330
1F3
 75
     0
 76
     1
 98
        1
 10
191.4482666284617
 20
107.249034567144
  0
LWPOLYLINE
  5
1F5
330
2
100
AcDbEntity
  8
-NORMTEIL_VERDECKT
100
AcDbPolyline
 90
        4
 70
     0
 43
0.0
 10
34.23048429790289
 20
116.249034567144
 10
19.71048429790174
 20
116.249034567144
 10
19.71048429790176
 20
98.24903456714404
 10
34.23048429790301
 20
98.24903456714404
  0
DIMENSION
  5
1F6
330
2
100
AcDbEntity
  8
-SCHRAFFUR
100
AcDbDimension
  2
*D17
 10
-10.11622621423578
 20
133.2490345671442
 30
0.0
 11
-13.80892744206663
 21
107.2490345671442
 31
0.0
  1
%%c<>
 71
     5
 42
52.00000000000011
  3
1-1
100
AcDbAlignedDimension
 13
10.90473847466933
 23
81.24903456714415
 33
0.0
 14
10.90473847466772
 24
133.2490345671442
 34
0.0
 50
270.0
100
AcDbRotatedDimension
  0
LINE
  5
203
330
2
100
AcDbEntity
  8
-NORMTEIL_VERDECKT
100
AcDbLine
 10
10.71048429790299
 20
291.6967517852615
 30
0.0
 11
10.71048429790299
 21
288.6967517852615
 31
0.0
  0
LWPOLYLINE
  5
204
330
2
100
AcDbEntity
  8
-NORMTEIL_VERDECKT
100
AcDbPolyline
 90
        5
 70
     0
 43
0.0
 10
6.710484297902993
 20
291.6967517852615
 10
10.71048429790299
 20
291.6967517852615
 10
11.71048429790299
 20
290.1967517852615
 10
10.71048429790299
 20
288.6967517852615
 10
6.710484297902993
 20
288.6967517852615
  0
LINE
  5
205
330
2
100
AcDbEntity
  8
-NORMTEIL_VERDECKT
100
AcDbLine
 10
10.71048429790299
 20
302.1967517852615
 30
0.0
 11
10.71048429790299
 21
299.1967517852615
 31
0.0
  0
LWPOLYLINE
  5
206
330
2
100
AcDbEntity
  8
-NORMTEIL_VERDECKT
100
AcDbPolyline
 90
        5
 70
     0
 43
0.0
 10
6.710484297902993
 20
302.1967517852615
 10
10.71048429790299
 20
302.1967517852615
 10
11.71048429790299
 20
300.6967517852615
 10
10.71048429790299
 20
299.1967517852615
 10
6.710484297902084
 20
299.1967517852615
  0
LINE
  5
207
330
2
100
AcDbEntity
  8
-NORMTEIL_VERDECKT
100
AcDbLine
 10
31.230484297903
 20
284.1967517852609
 30
0.0
 11
17.71048429790208
 21
284.1967517852609
 31
0.0
  0
LINE
  5
208
330
2
100
AcDbEntity
  8
-NORMTEIL_VERDECKT
100
AcDbLine
 10
31.230484297903
 20
286.1967517852609
 30
0.0
 11
17.71048429790208
 21
286.1967517852609
 31
0.0
  0
LINE
  5
209
330
2
100
AcDbEntity
  8
-NORMTEIL_VERDECKT
100
AcDbLine
 10
27.03348429790195
 20
301.1967517852611
 30
0.0
 11
27.03348429790195
 21
293.1967517852611
 31
0.0
  0
LINE
  5
20A
330
2
100
AcDbEntity
  8
-NORMTEIL_VERDECKT
100
AcDbLine
 10
27.71048429790184
 20
300.519751785261
 30
0.0
 11
14.71048429790163
 21
300.5197517852605
 31
0.0
  0
LINE
  5
20B
330
2
100
AcDbEntity
  8
-NORMTEIL_VERDECKT
100
AcDbLine
 10
31.23048429790288
 20
310.1967517852608
 30
0.0
 11
17.71048429790207
 21
310.1967517852608
 31
0.0
  0
LINE
  5
20C
330
2
100
AcDbEntity
  8
-NORMTEIL_VERDECKT
100
AcDbLine
 10
31.23048429790288
 20
308.1967517852608
 30
0.0
 11
17.71048429790207
 21
308.1967517852608
 31
0.0
  0
LWPOLYLINE
  5
20D
330
2
100
AcDbEntity
  8
-NORMTEIL_VERDECKT
100
AcDbPolyline
 90
        6
 70
     0
 43
0.0
 10
14.71048429790174
 20
301.1967517852606
 10
27.03348429790195
 20
301.1967517852611
 10
27.71048429790184
 20
300.519751785261
 10
27.71048429790197
 20
293.8737517852608
 10
27.03348429790195
 20
293.1967517852611
 10
14.71048429790186
 20
293.1967517852606
  0
LINE
  5
20E
330
2
100
AcDbEntity
  8
-NORMTEIL_VERDECKT
100
AcDbLine
 10
27.71048429790186
 20
293.8737517852608
 30
0.0
 11
14.71048429790186
 21
293.8737517852603
 31
0.0
  0
LINE
  5
20F
330
2
100
AcDbEntity
  8
-NORMTEIL_VERDECKT
100
AcDbLine
 10
17.71048429790207
 20
307.6967517852604
 30
0.0
 11
17.71048429790208
 21
286.6967517852604
 31
0.0
  0
LWPOLYLINE
  5
210
330
2
100
AcDbEntity
  8
-PROFILAUSSENKANTET
100
AcDbPolyline
 90
       11
 70
     0
 43
0.0
 10
14.71048429790184
 20
323.1967517852611
 10
14.71048429790208
 20
271.196751785261
 10
10.90473847466943
 20
271.196751785261
 42
-0.375901963977188
 10
8.922282673304025
 20
272.932424345079
 10
6.754344794488915
 20
286.2983483666501
 42
-0.033150018187446
 10
6.710484297902084
 20
286.9591669671052
 10
6.710484297902084
 20
306.2134894395604
 42
-0.0413106451481675
 10
6.778514678741302
 20
307.035484376087
 10
8.931950627003601
 20
321.5255497598716
 42
-0.3666293647015965
 10
10.90473847466782
 20
323.1967517852611
 10
14.71048429790184
 20
323.1967517852611
  0
HATCH
  5
211
330
2
100
AcDbEntity
  8
-SCHRAFFUR
100
AcDbHatch
 10
0.0
 20
0.0
 30
0.0
210
0.0
220
0.0
230
1.0
  2
SOLID
 70
     1
 71
     1
 91
        1
 92
        1
 93
        4
 72
     1
 10
17.71048429790207
 20
322.6967517852611
 11
17.71048429790208
 21
271.696751785261
 72
     1
 10
17.71048429790208
 20
271.696751785261
 11
14.71048429790208
 21
271.696751785261
 72
     1
 10
14.71048429790208
 20
271.696751785261
 11
14.71048429790207
 21
322.6967517852611
 72
     1
 10
14.71048429790207
 20
322.6967517852611
 11
17.71048429790207
 21
322.6967517852611
 97
        1
330
212
 75
     0
 76
     1
 98
        1
 10
191.4482666284618
 20
297.1967517852609
  0
LWPOLYLINE
  5
212
102
{ACAD_REACTORS
330
211
102
}
330
2
100
AcDbEntity
  8
-DICHTUNG
100
AcDbPolyline
 90
        4
 70
     1
 43
0.0
 10
17.71048429790207
 20
322.6967517852611
 10
17.71048429790208
 20
271.696751785261
 10
14.71048429790208
 20
271.696751785261
 10
14.71048429790207
 20
322.6967517852611
  0
ENDSEC
  0
SECTION
  2
OBJECTS
  0
DICTIONARY
  5
7
330
0
100
AcDbDictionary
281
     1
  3
ACAD_COLOR
350
22D
  3
ACAD_GROUP
350
229
  3
ACAD_LAYOUT
350
215
  3
ACAD_MATERIAL
350
22C
  3
ACAD_MLINESTYLE
350
22A
  3
ACAD_PLOTSETTINGS
350
22B
  3
ACAD_PLOTSTYLENAME
350
6
  3
ACDBHEADERROUNDTRIPXREC
350
233
  3
AcDbVariableDictionary
350
22F
  0
DICTIONARY
  5
21B
330
21A
100
AcDbDictionary
280
     1
281
     1
  3
ACAD_LAYERSTATES
360
21C
  0
DICTIONARY
  5
22D
102
{ACAD_REACTORS
330
7
102
}
330
7
100
AcDbDictionary
281
     1
  0
DICTIONARY
  5
229
102
{ACAD_REACTORS
330
7
102
}
330
7
100
AcDbDictionary
281
     1
  0
DICTIONARY
  5
215
102
{ACAD_REACTORS
330
7
102
}
330
7
100
AcDbDictionary
281
     1
  3
Layout1
350
219
  3
Model
350
214
  0
DICTIONARY
  5
22C
102
{ACAD_REACTORS
330
7
102
}
330
7
100
AcDbDictionary
281
     1
  0
DICTIONARY
  5
22A
102
{ACAD_REACTORS
330
7
102
}
330
7
100
AcDbDictionary
281
     1
  3
STANDARD
350
22E
  0
DICTIONARY
  5
22B
102
{ACAD_REACTORS
330
7
102
}
330
7
100
AcDbDictionary
281
     1
  0
ACDBDICTIONARYWDFLT
  5
6
102
{ACAD_REACTORS
330
7
102
}
330
7
100
AcDbDictionary
281
     1
  3
Normal
350
5
100
AcDbDictionaryWithDefault
340
5
  0
DICTIONARY
  5
233
102
{ACAD_REACTORS
330
7
102
}
330
7
100
AcDbDictionary
281
     1
  3
COLORDICT
350
235
  3
MATERIALDICT
350
234
  0
DICTIONARY
  5
22F
102
{ACAD_REACTORS
330
7
102
}
330
7
100
AcDbDictionary
281
     1
  3
DIMASSOC
350
231
  3
HIDETEXT
350
230
  3
PROJECTNAME
350
232
  0
DICTIONARY
  5
21C
102
{ACAD_REACTORS
330
21B
102
}
330
21B
100
AcDbDictionary
281
     1
  0
LAYOUT
  5
219
102
{ACAD_XDICTIONARY
360
239
102
}
102
{ACAD_REACTORS
330
215
102
}
330
215
100
AcDbPlotSettings
  1

  2
\\pc02\HP
  4

  6

 40
0.0
 41
0.0
 42
0.0
 43
0.0
 44
0.0
 45
0.0
 46
0.0
 47
0.0
 48
0.0
 49
0.0
140
0.0
141
0.0
142
1.0
143
1.0
 70
   688
 72
     0
 73
     0
 74
     5
  7
monochrome.ctb
 75
    16
147
1.0
148
0.0
149
0.0
100
AcDbLayout
  1
Layout1
 70
     1
 71
     1
 10
0.0
 20
0.0
 11
420.0
 21
297.0
 12
0.0
 22
0.0
 32
0.0
 14
0.0
 24
0.0
 34
0.0
 15
1189.0
 25
841.0
 35
0.0
146
0.0
 13
0.0
 23
0.0
 33
0.0
 16
1.0
 26
0.0
 36
0.0
 17
0.0
 27
1.0
 37
0.0
 76
     0
330
216
  0
LAYOUT
  5
214
102
{ACAD_XDICTIONARY
360
237
102
}
102
{ACAD_REACTORS
330
215
102
}
330
215
100
AcDbPlotSettings
  1

  2
Epson Stylus Photo 1270 ESC_P 2.pc3
  4
A4
  6

 40
3.757083177566528
 41
14.7637300491333
 42
3.757080078125
 43
3.757080078125
 44
209.9733276367187
 45
296.9683227539062
 46
12.47
 47
35.02000000000001
 48
481.1978817096998
 49
309.4654971710613
140
768.1978817096998
141
509.4654971710613
142
1.0
143
1.0
 70
 11956
 72
     1
 73
     3
 74
     1
  7
monochrome.ctb
 75
    16
147
1.0
148
34.70312743292288
149
35.34084240176026
100
AcDbLayout
  1
Model
 70
     1
 71
     0
 10
0.0
 20
0.0
 11
12.0
 21
9.0
 12
0.0
 22
0.0
 32
0.0
 14
0.0
 24
0.0
 34
0.0
 15
0.0
 25
0.0
 35
0.0
146
0.0
 13
0.0
 23
0.0
 33
0.0
 16
1.0
 26
0.0
 36
0.0
 17
0.0
 27
1.0
 37
0.0
 76
     0
330
2
  0
MLINESTYLE
  5
22E
102
{ACAD_REACTORS
330
22A
102
}
330
22A
100
AcDbMlineStyle
  2
STANDARD
 70
     0
  3

 62
     0
 51
90.0
 52
90.0
 71
     2
 49
0.5
 62
   256
  6
BYLAYER
 49
-0.5
 62
   256
  6
BYLAYER
  0
ACDBPLACEHOLDER
  5
5
102
{ACAD_REACTORS
330
6
102
}
330
6
  0
XRECORD
  5
235
102
{ACAD_REACTORS
330
233
102
}
330
233
100
AcDbXrecord
280
     1
340
22D
  0
XRECORD
  5
234
102
{ACAD_REACTORS
330
233
102
}
330
233
100
AcDbXrecord
280
     1
340
22C
  0
DICTIONARYVAR
  5
231
102
{ACAD_REACTORS
330
22F
102
}
330
22F
100
DictionaryVariables
280
     0
  1
1
  0
DICTIONARYVAR
  5
230
102
{ACAD_REACTORS
330
22F
102
}
330
22F
100
DictionaryVariables
280
     0
  1
1
  0
DICTIONARYVAR
  5
232
102
{ACAD_REACTORS
330
22F
102
}
330
22F
100
DictionaryVariables
280
     0
  1

  0
DICTIONARY
  5
239
330
219
100
AcDbDictionary
280
     1
281
     1
  3
ACAD_XREC_ROUNDTRIP
360
23A
  0
DICTIONARY
  5
237
330
214
100
AcDbDictionary
280
     1
281
     1
  3
ACAD_XREC_ROUNDTRIP
360
238
  0
XRECORD
  5
23A
102
{ACAD_REACTORS
330
239
102
}
330
239
100
AcDbXrecord
280
     1
102
SHADEPLOT
 70
     0
102
SHADEPLOTRESLEVEL
 70
     2
102
SHADEPLOTCUSTOMDPI
 70
   300
  0
XRECORD
  5
238
102
{ACAD_REACTORS
330
237
102
}
330
237
100
AcDbXrecord
280
     1
102
SHADEPLOT
 70
     0
102
SHADEPLOTRESLEVEL
 70
     2
102
SHADEPLOTCUSTOMDPI
 70
   300
  0
ENDSEC
  0
EOF
