  0
SECTION
  2
HEADER
  9
$ACADVER
  1
AC1015
  9
$ACADMAINTVER
 70
    18
  9
$DWGCODEPAGE
  3
ANSI_1252
  9
$INSBASE
 10
421.1785771780096
 20
450.2667582667103
 30
0.0
  9
$EXTMIN
 10
1.000000000000000E+20
 20
1.000000000000000E+20
 30
1.000000000000000E+20
  9
$EXTMAX
 10
0.0
 20
0.0
 30
0.0
  9
$LIMMIN
 10
0.0
 20
0.0
  9
$LIMMAX
 10
420.0
 20
297.0
  9
$ORTHOMODE
 70
     1
  9
$REGENMODE
 70
     1
  9
$FILLMODE
 70
     1
  9
$QTEXTMODE
 70
     0
  9
$MIRRTEXT
 70
     1
  9
$LTSCALE
 40
2.5
  9
$ATTMODE
 70
     1
  9
$TEXTSIZE
 40
2.5
  9
$TRACEWID
 40
1.0
  9
$TEXTSTYLE
  7
STANDARD
  9
$CLAYER
  8
-SCHRAFFUR
  9
$CELTYPE
  6
BYLAYER
  9
$CECOLOR
 62
   256
  9
$CELTSCALE
 40
1.0
  9
$DISPSILH
 70
     0
  9
$DIMSCALE
 40
1.0
  9
$DIMASZ
 40
2.0
  9
$DIMEXO
 40
2.0
  9
$DIMDLI
 40
2.0
  9
$DIMRND
 40
0.0
  9
$DIMDLE
 40
0.0
  9
$DIMEXE
 40
1.0
  9
$DIMTP
 40
0.0
  9
$DIMTM
 40
0.0
  9
$DIMTXT
 40
5.0
  9
$DIMCEN
 40
0.09
  9
$DIMTSZ
 40
0.0
  9
$DIMTOL
 70
     0
  9
$DIMLIM
 70
     0
  9
$DIMTIH
 70
     0
  9
$DIMTOH
 70
     0
  9
$DIMSE1
 70
     0
  9
$DIMSE2
 70
     0
  9
$DIMTAD
 70
     1
  9
$DIMZIN
 70
     9
  9
$DIMBLK
  1

  9
$DIMASO
 70
     1
  9
$DIMSHO
 70
     1
  9
$DIMPOST
  1

  9
$DIMAPOST
  1

  9
$DIMALT
 70
     0
  9
$DIMALTD
 70
     2
  9
$DIMALTF
 40
25.4
  9
$DIMLFAC
 40
1.0
  9
$DIMTOFL
 70
     0
  9
$DIMTVP
 40
0.0
  9
$DIMTIX
 70
     0
  9
$DIMSOXD
 70
     0
  9
$DIMSAH
 70
     0
  9
$DIMBLK1
  1

  9
$DIMBLK2
  1

  9
$DIMSTYLE
  2
1-1
  9
$DIMCLRD
 70
     2
  9
$DIMCLRE
 70
     2
  9
$DIMCLRT
 70
     3
  9
$DIMTFAC
 40
1.0
  9
$DIMGAP
 40
1.0
  9
$DIMJUST
 70
     0
  9
$DIMSD1
 70
     0
  9
$DIMSD2
 70
     0
  9
$DIMTOLJ
 70
     1
  9
$DIMTZIN
 70
     0
  9
$DIMALTZ
 70
     0
  9
$DIMALTTZ
 70
     0
  9
$DIMUPT
 70
     0
  9
$DIMDEC
 70
     0
  9
$DIMTDEC
 70
     4
  9
$DIMALTU
 70
     2
  9
$DIMALTTD
 70
     2
  9
$DIMTXSTY
  7
STANDARD
  9
$DIMAUNIT
 70
     0
  9
$DIMADEC
 70
     0
  9
$DIMALTRND
 40
0.0
  9
$DIMAZIN
 70
     0
  9
$DIMDSEP
 70
    46
  9
$DIMATFIT
 70
     2
  9
$DIMFRAC
 70
     0
  9
$DIMLDRBLK
  1

  9
$DIMLUNIT
 70
     2
  9
$DIMLWD
 70
    -2
  9
$DIMLWE
 70
    -2
  9
$DIMTMOVE
 70
     0
  9
$LUNITS
 70
     2
  9
$LUPREC
 70
     4
  9
$SKETCHINC
 40
1.0
  9
$FILLETRAD
 40
0.0
  9
$AUNITS
 70
     0
  9
$AUPREC
 70
     0
  9
$MENU
  1
.
  9
$ELEVATION
 40
0.0
  9
$PELEVATION
 40
0.0
  9
$THICKNESS
 40
0.0
  9
$LIMCHECK
 70
     0
  9
$CHAMFERA
 40
10.0
  9
$CHAMFERB
 40
10.0
  9
$CHAMFERC
 40
20.0
  9
$CHAMFERD
 40
0.0
  9
$SKPOLY
 70
     0
  9
$TDCREATE
 40
2452087.408717245
  9
$TDUCREATE
 40
2452087.367050579
  9
$TDUPDATE
 40
2453419.462757407
  9
$TDUUPDATE
 40
2453419.421090741
  9
$TDINDWG
 40
0.6055664699
  9
$TDUSRTIMER
 40
0.6055664699
  9
$USRTIMER
 70
     1
  9
$ANGBASE
 50
0.0
  9
$ANGDIR
 70
     0
  9
$PDMODE
 70
     0
  9
$PDSIZE
 40
0.0
  9
$PLINEWID
 40
0.0
  9
$SPLFRAME
 70
     0
  9
$SPLINETYPE
 70
     6
  9
$SPLINESEGS
 70
     8
  9
$HANDSEED
  5
1EF
  9
$SURFTAB1
 70
     6
  9
$SURFTAB2
 70
     6
  9
$SURFTYPE
 70
     6
  9
$SURFU
 70
     6
  9
$SURFV
 70
     6
  9
$UCSBASE
  2

  9
$UCSNAME
  2

  9
$UCSORG
 10
0.0
 20
0.0
 30
0.0
  9
$UCSXDIR
 10
1.0
 20
0.0
 30
0.0
  9
$UCSYDIR
 10
0.0
 20
1.0
 30
0.0
  9
$UCSORTHOREF
  2

  9
$UCSORTHOVIEW
 70
     0
  9
$UCSORGTOP
 10
0.0
 20
0.0
 30
0.0
  9
$UCSORGBOTTOM
 10
0.0
 20
0.0
 30
0.0
  9
$UCSORGLEFT
 10
0.0
 20
0.0
 30
0.0
  9
$UCSORGRIGHT
 10
0.0
 20
0.0
 30
0.0
  9
$UCSORGFRONT
 10
0.0
 20
0.0
 30
0.0
  9
$UCSORGBACK
 10
0.0
 20
0.0
 30
0.0
  9
$PUCSBASE
  2

  9
$PUCSNAME
  2

  9
$PUCSORG
 10
0.0
 20
0.0
 30
0.0
  9
$PUCSXDIR
 10
1.0
 20
0.0
 30
0.0
  9
$PUCSYDIR
 10
0.0
 20
1.0
 30
0.0
  9
$PUCSORTHOREF
  2

  9
$PUCSORTHOVIEW
 70
     0
  9
$PUCSORGTOP
 10
0.0
 20
0.0
 30
0.0
  9
$PUCSORGBOTTOM
 10
0.0
 20
0.0
 30
0.0
  9
$PUCSORGLEFT
 10
0.0
 20
0.0
 30
0.0
  9
$PUCSORGRIGHT
 10
0.0
 20
0.0
 30
0.0
  9
$PUCSORGFRONT
 10
0.0
 20
0.0
 30
0.0
  9
$PUCSORGBACK
 10
0.0
 20
0.0
 30
0.0
  9
$USERI1
 70
     0
  9
$USERI2
 70
     0
  9
$USERI3
 70
     0
  9
$USERI4
 70
     0
  9
$USERI5
 70
     0
  9
$USERR1
 40
0.0
  9
$USERR2
 40
0.0
  9
$USERR3
 40
0.0
  9
$USERR4
 40
0.0
  9
$USERR5
 40
0.0
  9
$WORLDVIEW
 70
     1
  9
$SHADEDGE
 70
     3
  9
$SHADEDIF
 70
    70
  9
$TILEMODE
 70
     1
  9
$MAXACTVP
 70
    48
  9
$PINSBASE
 10
0.0
 20
0.0
 30
0.0
  9
$PLIMCHECK
 70
     0
  9
$PEXTMIN
 10
0.0
 20
0.0
 30
0.0
  9
$PEXTMAX
 10
1189.0
 20
841.0
 30
0.0
  9
$PLIMMIN
 10
0.0
 20
0.0
  9
$PLIMMAX
 10
420.0
 20
297.0
  9
$UNITMODE
 70
     0
  9
$VISRETAIN
 70
     1
  9
$PLINEGEN
 70
     0
  9
$PSLTSCALE
 70
     1
  9
$TREEDEPTH
 70
  3020
  9
$CMLSTYLE
  2
STANDARD
  9
$CMLJUST
 70
     0
  9
$CMLSCALE
 40
1.0
  9
$PROXYGRAPHICS
 70
     1
  9
$MEASUREMENT
 70
     0
  9
$CELWEIGHT
370
    -1
  9
$ENDCAPS
280
     0
  9
$JOINSTYLE
280
     0
  9
$LWDISPLAY
290
     0
  9
$INSUNITS
 70
     0
  9
$HYPERLINKBASE
  1

  9
$STYLESHEET
  1

  9
$XEDIT
290
     1
  9
$CEPSNTYPE
380
     0
  9
$PSTYLEMODE
290
     1
  9
$FINGERPRINTGUID
  2
{9588F985-4B3C-4C9C-BEE4-2544F6211083}
  9
$VERSIONGUID
  2
{FED2C684-9226-414C-A1E4-BFDC55438F82}
  9
$EXTNAMES
290
     1
  9
$PSVPSCALE
 40
0.0
  9
$OLESTARTUP
290
     0
  0
ENDSEC
  0
SECTION
  2
CLASSES
  0
CLASS
  1
DICTIONARYVAR
  2
AcDbDictionaryVar
  3
ObjectDBX Classes
 90
        0
280
     0
281
     0
  0
CLASS
  1
ACDBDICTIONARYWDFLT
  2
AcDbDictionaryWithDefault
  3
ObjectDBX Classes
 90
        0
280
     0
281
     0
  0
CLASS
  1
ACDBPLACEHOLDER
  2
AcDbPlaceHolder
  3
ObjectDBX Classes
 90
        0
280
     0
281
     0
  0
CLASS
  1
LAYOUT
  2
AcDbLayout
  3
ObjectDBX Classes
 90
        0
280
     0
281
     0
  0
ENDSEC
  0
SECTION
  2
TABLES
  0
TABLE
  2
VPORT
  5
1D8
330
0
100
AcDbSymbolTable
 70
     1
  0
VPORT
  5
1D9
330
1D8
100
AcDbSymbolTableRecord
100
AcDbViewportTableRecord
  2
*Active
 70
     0
 10
0.0
 20
0.0
 11
1.0
 21
1.0
 12
180.9259624142366
 22
225.7674955283837
 13
0.0
 23
0.0
 14
10.0
 24
10.0
 15
10.0
 25
10.0
 16
0.0
 26
0.0
 36
1.0
 17
0.0
 27
0.0
 37
0.0
 40
464.1579403772048
 41
1.549148099606815
 42
50.0
 43
0.0
 44
0.0
 50
0.0
 51
0.0
 71
     0
 72
   100
 73
     1
 74
     1
 75
     0
 76
     0
 77
     0
 78
     0
281
     0
 65
     1
110
0.0
120
0.0
130
0.0
111
1.0
121
0.0
131
0.0
112
0.0
122
1.0
132
0.0
 79
     0
146
0.0
  0
ENDTAB
  0
TABLE
  2
LTYPE
  5
1D3
330
0
100
AcDbSymbolTable
 70
     4
  0
LTYPE
  5
1D4
330
1D3
100
AcDbSymbolTableRecord
100
AcDbLinetypeTableRecord
  2
BYBLOCK
 70
     0
  3

 72
    65
 73
     0
 40
0.0
  0
LTYPE
  5
1D5
330
1D3
100
AcDbSymbolTableRecord
100
AcDbLinetypeTableRecord
  2
BYLAYER
 70
     0
  3

 72
    65
 73
     0
 40
0.0
  0
LTYPE
  5
8
330
1D3
100
AcDbSymbolTableRecord
100
AcDbLinetypeTableRecord
  2
CONTINUOUS
 70
     0
  3
Solid line
 72
    65
 73
     0
 40
0.0
  0
LTYPE
  5
54
330
1D3
100
AcDbSymbolTableRecord
100
AcDbLinetypeTableRecord
  2
MITTEX2
 70
     0
  3
Mitte (2x) ________  __  ________  __  _____
 72
    65
 73
     4
 40
4.0
 49
2.5
 74
     0
 49
-0.5
 74
     0
 49
0.5
 74
     0
 49
-0.5
 74
     0
  0
LTYPE
  5
12
330
1D3
100
AcDbSymbolTableRecord
100
AcDbLinetypeTableRecord
  2
STRICHLINIEX2
 70
     0
  3
Strichlinie (2x) ____  ____  ____  ____  ____  
 72
    65
 73
     2
 40
1.5
 49
1.0
 74
     0
 49
-0.5
 74
     0
  0
LTYPE
  5
17
330
1D3
100
AcDbSymbolTableRecord
100
AcDbLinetypeTableRecord
  2
GETRENNTX2
 70
     0
  3
Getrennt (2x) ________  .  .  ________  .  .  _
 72
    65
 73
     6
 40
2.5
 49
1.0
 74
     0
 49
-0.5
 74
     0
 49
0.0
 74
     0
 49
-0.5
 74
     0
 49
0.0
 74
     0
 49
-0.5
 74
     0
  0
ENDTAB
  0
TABLE
  2
LAYER
  5
1CE
102
{ACAD_XDICTIONARY
360
1CF
102
}
330
0
100
AcDbSymbolTable
 70
    11
  0
LAYER
  5
4
330
1CE
100
AcDbSymbolTableRecord
100
AcDbLayerTableRecord
  2
0
 70
     0
 62
     7
  6
CONTINUOUS
370
    -3
390
5
  0
LAYER
  5
37
330
1CE
100
AcDbSymbolTableRecord
100
AcDbLayerTableRecord
  2
-PROFILAUSSENKANTET
 70
     0
 62
     4
  6
CONTINUOUS
370
    -3
390
5
1001
AVE_FINISH
1002
{
1070
     0
1005
0
1002
}
  0
LAYER
  5
5E
330
1CE
100
AcDbSymbolTableRecord
100
AcDbLayerTableRecord
  2
-DICHTUNG
 70
     0
 62
     3
  6
CONTINUOUS
370
    -3
390
5
1001
AVE_FINISH
1002
{
1070
     0
1005
0
1002
}
  0
LAYER
  5
11
330
1CE
100
AcDbSymbolTableRecord
100
AcDbLayerTableRecord
  2
-NORMTEIL_VERDECKT
 70
     0
 62
     9
  6
STRICHLINIEX2
370
    -3
390
5
  0
LAYER
  5
22
330
1CE
100
AcDbSymbolTableRecord
100
AcDbLayerTableRecord
  2
DEFPOINTS
 70
     0
 62
     7
  6
CONTINUOUS
290
     0
370
    -3
390
5
  0
LAYER
  5
53
330
1CE
100
AcDbSymbolTableRecord
100
AcDbLayerTableRecord
  2
-SYSTEM
 70
     0
 62
     2
  6
MITTEX2
370
    -3
390
5
  0
LAYER
  5
19
330
1CE
100
AcDbSymbolTableRecord
100
AcDbLayerTableRecord
  2
-TEXT3
 70
     0
 62
     2
  6
CONTINUOUS
370
    -3
390
5
  0
LAYER
  5
29
330
1CE
100
AcDbSymbolTableRecord
100
AcDbLayerTableRecord
  2
-SCHRAFFUR
 70
     0
 62
     9
  6
CONTINUOUS
370
    -3
390
5
  0
LAYER
  5
A
330
1CE
100
AcDbSymbolTableRecord
100
AcDbLayerTableRecord
  2
-VERGLASUNG
 70
     0
 62
     1
  6
CONTINUOUS
370
    -3
390
5
  0
LAYER
  5
C
330
1CE
100
AcDbSymbolTableRecord
100
AcDbLayerTableRecord
  2
-TEXT2
 70
     0
 62
     3
  6
CONTINUOUS
370
    -3
390
5
  0
LAYER
  5
16
330
1CE
100
AcDbSymbolTableRecord
100
AcDbLayerTableRecord
  2
-TRENNEN
 70
     0
 62
     2
  6
GETRENNTX2
370
    -3
390
5
  0
ENDTAB
  0
TABLE
  2
STYLE
  5
1D1
330
0
100
AcDbSymbolTable
 70
     1
  0
STYLE
  5
E
330
1D1
100
AcDbSymbolTableRecord
100
AcDbTextStyleTableRecord
  2
STANDARD
 70
     0
 40
0.0
 41
1.0
 50
0.0
 71
     0
 42
2.5
  3
ARIAL.TTF
  4

1001
ACAD
1000
Arial
1071
       34
  0
ENDTAB
  0
TABLE
  2
VIEW
  5
1D6
330
0
100
AcDbSymbolTable
 70
     0
  0
ENDTAB
  0
TABLE
  2
UCS
  5
1D7
330
0
100
AcDbSymbolTable
 70
     0
  0
ENDTAB
  0
TABLE
  2
APPID
  5
1DA
330
0
100
AcDbSymbolTable
 70
     2
  0
APPID
  5
F
330
1DA
100
AcDbSymbolTableRecord
100
AcDbRegAppTableRecord
  2
ACAD
 70
     0
  0
APPID
  5
38
330
1DA
100
AcDbSymbolTableRecord
100
AcDbRegAppTableRecord
  2
AVE_FINISH
 70
     0
  0
ENDTAB
  0
TABLE
  2
DIMSTYLE
  5
1DB
330
0
100
AcDbSymbolTable
 70
     1
100
AcDbDimStyleTable
 71
     1
340
1A
  0
DIMSTYLE
105
1A
102
{ACAD_REACTORS
330
149
330
132
330
119
330
109
330
FC
330
EF
330
E2
330
D4
330
C6
330
73
330
60
330
3A
330
28
330
18
330
185
330
177
330
169
330
1AE
102
}
330
1DB
100
AcDbSymbolTableRecord
100
AcDbDimStyleTableRecord
  2
1-1
 70
     0
 41
2.0
 42
2.0
 43
2.0
 44
1.0
 73
     0
 74
     0
 77
     1
 78
     9
140
5.0
147
1.0
176
     2
177
     2
178
     3
271
     0
289
     2
340
E
  0
ENDTAB
  0
TABLE
  2
BLOCK_RECORD
  5
1
330
0
100
AcDbSymbolTable
 70
    18
  0
BLOCK_RECORD
  5
2
330
1
100
AcDbSymbolTableRecord
100
AcDbBlockTableRecord
  2
*MODEL_SPACE
340
1C8
  0
BLOCK_RECORD
  5
1CA
330
1
100
AcDbSymbolTableRecord
100
AcDbBlockTableRecord
  2
*PAPER_SPACE
340
1CD
  0
BLOCK_RECORD
  5
1B
330
1
100
AcDbSymbolTableRecord
100
AcDbBlockTableRecord
  2
*D0
340
0
  0
BLOCK_RECORD
  5
2A
330
1
100
AcDbSymbolTableRecord
100
AcDbBlockTableRecord
  2
*D1
340
0
  0
BLOCK_RECORD
  5
3B
330
1
100
AcDbSymbolTableRecord
100
AcDbBlockTableRecord
  2
*D2
340
0
  0
BLOCK_RECORD
  5
61
330
1
100
AcDbSymbolTableRecord
100
AcDbBlockTableRecord
  2
*D3
340
0
  0
BLOCK_RECORD
  5
74
330
1
100
AcDbSymbolTableRecord
100
AcDbBlockTableRecord
  2
*D4
340
0
  0
BLOCK_RECORD
  5
C7
330
1
100
AcDbSymbolTableRecord
100
AcDbBlockTableRecord
  2
*D5
340
0
  0
BLOCK_RECORD
  5
D5
330
1
100
AcDbSymbolTableRecord
100
AcDbBlockTableRecord
  2
*D6
340
0
  0
BLOCK_RECORD
  5
E3
330
1
100
AcDbSymbolTableRecord
100
AcDbBlockTableRecord
  2
*D7
340
0
  0
BLOCK_RECORD
  5
F0
330
1
100
AcDbSymbolTableRecord
100
AcDbBlockTableRecord
  2
*D8
340
0
  0
BLOCK_RECORD
  5
FD
330
1
100
AcDbSymbolTableRecord
100
AcDbBlockTableRecord
  2
*D9
340
0
  0
BLOCK_RECORD
  5
10A
330
1
100
AcDbSymbolTableRecord
100
AcDbBlockTableRecord
  2
*D10
340
0
  0
BLOCK_RECORD
  5
11A
330
1
100
AcDbSymbolTableRecord
100
AcDbBlockTableRecord
  2
*D11
340
0
  0
BLOCK_RECORD
  5
133
330
1
100
AcDbSymbolTableRecord
100
AcDbBlockTableRecord
  2
*D12
340
0
  0
BLOCK_RECORD
  5
14A
330
1
100
AcDbSymbolTableRecord
100
AcDbBlockTableRecord
  2
*D13
340
0
  0
BLOCK_RECORD
  5
186
330
1
100
AcDbSymbolTableRecord
100
AcDbBlockTableRecord
  2
*D14
340
0
  0
BLOCK_RECORD
  5
178
330
1
100
AcDbSymbolTableRecord
100
AcDbBlockTableRecord
  2
*D15
340
0
  0
BLOCK_RECORD
  5
16A
330
1
100
AcDbSymbolTableRecord
100
AcDbBlockTableRecord
  2
*D16
340
0
  0
BLOCK_RECORD
  5
1AF
330
1
100
AcDbSymbolTableRecord
100
AcDbBlockTableRecord
  2
*D17
340
0
  0
ENDTAB
  0
ENDSEC
  0
SECTION
  2
BLOCKS
  0
BLOCK
  5
3
330
2
100
AcDbEntity
  8
0
100
AcDbBlockBegin
  2
*MODEL_SPACE
 70
     0
 10
0.0
 20
0.0
 30
0.0
  3
*MODEL_SPACE
  1

  0
ENDBLK
  5
1C7
330
2
100
AcDbEntity
  8
0
100
AcDbBlockEnd
  0
BLOCK
  5
1CB
330
1CA
100
AcDbEntity
 67
     1
  8
0
100
AcDbBlockBegin
  2
*PAPER_SPACE
 70
     0
 10
0.0
 20
0.0
 30
0.0
  3
*PAPER_SPACE
  1

  0
ENDBLK
  5
1CC
330
1CA
100
AcDbEntity
 67
     1
  8
0
100
AcDbBlockEnd
  0
BLOCK
  5
1C
330
1B
100
AcDbEntity
  8
0
100
AcDbBlockBegin
  2
*D0
 70
     1
 10
0.0
 20
0.0
 30
0.0
  3
*D0
  1

  0
ARC
  5
1D
330
1B
100
AcDbEntity
  8
-TEXT3
 62
     2
370
    -2
100
AcDbCircle
 10
200.9658376963535
 20
65.94839264570845
 30
0.0
 40
36.71192436359784
100
AcDbArc
 50
3.121757747881859
 51
86.87824225211807
  0
SOLID
  5
1E
330
1B
100
AcDbEntity
  8
-TEXT3
 62
     2
100
AcDbTrace
 10
237.9564934968119
 20
67.95673024113828
 30
0.0
 11
237.2900741990043
 21
67.93857083712383
 31
0.0
 12
237.6777620599514
 22
65.94839264570845
 32
0.0
 13
237.6777620599514
 23
65.94839264570845
 33
0.0
  0
SOLID
  5
1F
330
1B
100
AcDbEntity
  8
-TEXT3
 62
     2
100
AcDbTrace
 10
202.956015887769
 20
102.2726291483592
 30
0.0
 11
202.9741752917835
 21
102.9390484461667
 31
0.0
 12
200.9658376963536
 22
102.6603170093063
 32
0.0
 13
200.9658376963536
 23
102.6603170093063
 33
0.0
  0
MTEXT
  5
20
330
1B
100
AcDbEntity
  8
-TEXT3
 62
     3
100
AcDbMText
 10
229.4373432549912
 20
94.4198982043461
 30
0.0
 40
5.0
 41
0.0
 71
     5
 72
     1
  1
\A1;90°-180°
 11
0.7071067811865476
 21
-0.7071067811865475
 31
0.0
 73
     1
 44
1.0
1001
ACAD
1000
MTEXTBEGIN
1070
    73
1070
     1
1070
    44
1040
1.0
1070
    74
1070
     0
1000
MTEXTEND
  0
POINT
  5
21
330
1B
100
AcDbEntity
  8
DEFPOINTS
 62
     0
100
AcDbPoint
 10
232.7592968170422
 20
84.30435482750736
 30
0.0
  0
POINT
  5
23
330
1B
100
AcDbEntity
  8
DEFPOINTS
 62
     0
100
AcDbPoint
 10
215.9658376963536
 20
65.94839264570845
 30
0.0
  0
POINT
  5
24
330
1B
100
AcDbEntity
  8
DEFPOINTS
 62
     0
100
AcDbPoint
 10
200.9658376963535
 20
139.9483926457084
 30
0.0
  0
POINT
  5
25
330
1B
100
AcDbEntity
  8
DEFPOINTS
 62
     0
100
AcDbPoint
 10
200.9658376963535
 20
80.94839264570845
 30
0.0
  0
POINT
  5
26
330
1B
100
AcDbEntity
  8
DEFPOINTS
 62
     0
100
AcDbPoint
 10
275.0058376963526
 20
65.94839264570847
 30
0.0
  0
ENDBLK
  5
27
330
1B
100
AcDbEntity
  8
0
100
AcDbBlockEnd
  0
BLOCK
  5
2B
330
2A
100
AcDbEntity
  8
0
100
AcDbBlockBegin
  2
*D1
 70
     1
 10
0.0
 20
0.0
 30
0.0
  3
*D1
  1

  0
LINE
  5
2C
330
2A
100
AcDbEntity
  8
-SCHRAFFUR
 62
     2
370
    -2
100
AcDbLine
 10
202.9658376963535
 20
211.9483926457085
 30
0.0
 11
369.6080446874627
 21
211.9483926457085
 31
0.0
  0
LINE
  5
2D
330
2A
100
AcDbEntity
  8
-SCHRAFFUR
 62
     2
370
    -2
100
AcDbLine
 10
351.0058376963526
 20
65.94839264570845
 30
0.0
 11
369.6080446874627
 21
65.94839264570843
 31
0.0
  0
LINE
  5
2E
330
2A
100
AcDbEntity
  8
-SCHRAFFUR
 62
     2
370
    -2
100
AcDbLine
 10
368.6080446874627
 20
209.9483926457085
 30
0.0
 11
368.6080446874627
 21
67.94839264570843
 31
0.0
  0
SOLID
  5
2F
330
2A
100
AcDbEntity
  8
-SCHRAFFUR
 62
     2
100
AcDbTrace
 10
368.2747113541294
 20
209.9483926457085
 30
0.0
 11
368.941378020796
 21
209.9483926457085
 31
0.0
 12
368.6080446874627
 22
211.9483926457085
 32
0.0
 13
368.6080446874627
 23
211.9483926457085
 33
0.0
  0
SOLID
  5
30
330
2A
100
AcDbEntity
  8
-SCHRAFFUR
 62
     2
100
AcDbTrace
 10
368.2747113541294
 20
67.94839264570843
 30
0.0
 11
368.941378020796
 21
67.94839264570843
 31
0.0
 12
368.6080446874627
 22
65.94839264570843
 32
0.0
 13
368.6080446874627
 23
65.94839264570843
 33
0.0
  0
MTEXT
  5
31
330
2A
100
AcDbEntity
  8
-SCHRAFFUR
 62
     3
100
AcDbMText
 10
365.0551797488542
 20
138.9483926457085
 30
0.0
 40
5.0
 41
0.0
 71
     5
 72
     1
  1
\A1;146
 11
0.0000000000000001
 21
1.0
 31
0.0
 73
     1
 44
1.0
1001
ACAD
1000
MTEXTBEGIN
1070
    73
1070
     1
1070
    44
1040
1.0
1070
    74
1070
     0
1000
MTEXTEND
  0
POINT
  5
32
330
2A
100
AcDbEntity
  8
DEFPOINTS
 62
     0
100
AcDbPoint
 10
200.9658376963535
 20
211.9483926457085
 30
0.0
  0
POINT
  5
33
330
2A
100
AcDbEntity
  8
DEFPOINTS
 62
     0
100
AcDbPoint
 10
349.0058376963526
 20
65.94839264570845
 30
0.0
  0
POINT
  5
34
330
2A
100
AcDbEntity
  8
DEFPOINTS
 62
     0
100
AcDbPoint
 10
368.6080446874627
 20
65.94839264570843
 30
0.0
  0
ENDBLK
  5
35
330
2A
100
AcDbEntity
  8
0
100
AcDbBlockEnd
  0
BLOCK
  5
3C
330
3B
100
AcDbEntity
  8
0
100
AcDbBlockBegin
  2
*D2
 70
     1
 10
0.0
 20
0.0
 30
0.0
  3
*D2
  1

  0
LINE
  5
3D
330
3B
100
AcDbEntity
  8
-SCHRAFFUR
 62
     2
370
    -2
100
AcDbLine
 10
200.9658376963535
 20
213.9483926457085
 30
0.0
 11
200.9658376963535
 21
241.7782024264593
 31
0.0
  0
LINE
  5
3E
330
3B
100
AcDbEntity
  8
-SCHRAFFUR
 62
     2
370
    -2
100
AcDbLine
 10
347.0058376963526
 20
67.94839264570845
 30
0.0
 11
347.0058376963526
 21
241.7782024264593
 31
0.0
  0
LINE
  5
3F
330
3B
100
AcDbEntity
  8
-SCHRAFFUR
 62
     2
370
    -2
100
AcDbLine
 10
202.9658376963535
 20
240.7782024264593
 30
0.0
 11
345.0058376963526
 21
240.7782024264593
 31
0.0
  0
SOLID
  5
40
330
3B
100
AcDbEntity
  8
-SCHRAFFUR
 62
     2
100
AcDbTrace
 10
202.9658376963535
 20
241.1115357597926
 30
0.0
 11
202.9658376963535
 21
240.444869093126
 31
0.0
 12
200.9658376963535
 22
240.7782024264593
 32
0.0
 13
200.9658376963535
 23
240.7782024264593
 33
0.0
  0
SOLID
  5
41
330
3B
100
AcDbEntity
  8
-SCHRAFFUR
 62
     2
100
AcDbTrace
 10
345.0058376963526
 20
241.1115357597926
 30
0.0
 11
345.0058376963526
 21
240.444869093126
 31
0.0
 12
347.0058376963526
 22
240.7782024264593
 32
0.0
 13
347.0058376963526
 23
240.7782024264593
 33
0.0
  0
MTEXT
  5
42
330
3B
100
AcDbEntity
  8
-SCHRAFFUR
 62
     3
100
AcDbMText
 10
273.9858376963531
 20
244.3310673650678
 30
0.0
 40
5.0
 41
0.0
 71
     5
 72
     1
  1
\A1;146
 73
     1
 44
1.0
1001
ACAD
1000
MTEXTBEGIN
1070
    73
1070
     1
1070
    44
1040
1.0
1070
    74
1070
     0
1000
MTEXTEND
  0
POINT
  5
43
330
3B
100
AcDbEntity
  8
DEFPOINTS
 62
     0
100
AcDbPoint
 10
200.9658376963535
 20
211.9483926457085
 30
0.0
  0
POINT
  5
44
330
3B
100
AcDbEntity
  8
DEFPOINTS
 62
     0
100
AcDbPoint
 10
347.0058376963526
 20
65.94839264570845
 30
0.0
  0
POINT
  5
45
330
3B
100
AcDbEntity
  8
DEFPOINTS
 62
     0
100
AcDbPoint
 10
347.0058376963526
 20
240.7782024264593
 30
0.0
  0
ENDBLK
  5
46
330
3B
100
AcDbEntity
  8
0
100
AcDbBlockEnd
  0
BLOCK
  5
62
330
61
100
AcDbEntity
  8
0
100
AcDbBlockBegin
  2
*D3
 70
     1
 10
0.0
 20
0.0
 30
0.0
  3
*D3
  1

  0
LINE
  5
63
330
61
100
AcDbEntity
  8
-SCHRAFFUR
 62
     2
370
    -2
100
AcDbLine
 10
144.8561144462825
 20
191.9283926457089
 30
0.0
 11
130.5293604592763
 21
191.9283926457089
 31
0.0
  0
LINE
  5
64
330
61
100
AcDbEntity
  8
-SCHRAFFUR
 62
     2
370
    -2
100
AcDbLine
 10
144.6400918731211
 20
139.9283926457089
 30
0.0
 11
130.5293604592763
 21
139.9283926457089
 31
0.0
  0
LINE
  5
65
330
61
100
AcDbEntity
  8
-SCHRAFFUR
 62
     2
370
    -2
100
AcDbLine
 10
131.5293604592763
 20
189.928392645709
 30
0.0
 11
131.5293604592763
 21
141.9283926457089
 31
0.0
  0
SOLID
  5
66
330
61
100
AcDbEntity
  8
-SCHRAFFUR
 62
     2
100
AcDbTrace
 10
131.1960271259429
 20
189.928392645709
 30
0.0
 11
131.8626937926096
 21
189.928392645709
 31
0.0
 12
131.5293604592763
 22
191.9283926457089
 32
0.0
 13
131.5293604592763
 23
191.9283926457089
 33
0.0
  0
SOLID
  5
67
330
61
100
AcDbEntity
  8
-SCHRAFFUR
 62
     2
100
AcDbTrace
 10
131.1960271259429
 20
141.9283926457089
 30
0.0
 11
131.8626937926096
 21
141.9283926457089
 31
0.0
 12
131.5293604592763
 22
139.9283926457089
 32
0.0
 13
131.5293604592763
 23
139.9283926457089
 33
0.0
  0
MTEXT
  5
68
330
61
100
AcDbEntity
  8
-SCHRAFFUR
 62
     3
100
AcDbMText
 10
127.8366592314454
 20
165.9283926457089
 30
0.0
 40
5.0
 41
0.0
 71
     5
 72
     1
  1
\A1;%%c52
 11
0.0000000000000001
 21
1.0
 31
0.0
 73
     1
 44
1.0
1001
ACAD
1000
MTEXTBEGIN
1070
    73
1070
     1
1070
    44
1040
1.0
1070
    74
1070
     0
1000
MTEXTEND
  0
POINT
  5
69
330
61
100
AcDbEntity
  8
DEFPOINTS
 62
     0
100
AcDbPoint
 10
146.8561144462825
 20
191.9283926457089
 30
0.0
  0
POINT
  5
6A
330
61
100
AcDbEntity
  8
DEFPOINTS
 62
     0
100
AcDbPoint
 10
146.6400918731211
 20
139.9283926457089
 30
0.0
  0
POINT
  5
6B
330
61
100
AcDbEntity
  8
DEFPOINTS
 62
     0
100
AcDbPoint
 10
131.5293604592763
 20
139.9283926457089
 30
0.0
  0
ENDBLK
  5
6C
330
61
100
AcDbEntity
  8
0
100
AcDbBlockEnd
  0
BLOCK
  5
75
330
74
100
AcDbEntity
  8
0
100
AcDbBlockBegin
  2
*D4
 70
     1
 10
0.0
 20
0.0
 30
0.0
  3
*D4
  1

  0
LINE
  5
76
330
74
100
AcDbEntity
  8
-TEXT3
 62
     2
370
    -2
100
AcDbLine
 10
237.1030567645872
 20
165.9483926457085
 30
0.0
 11
255.7022927875356
 21
165.9483926457085
 31
0.0
  0
LINE
  5
77
330
74
100
AcDbEntity
  8
-TEXT3
 62
     2
370
    -2
100
AcDbLine
 10
202.9658376963535
 20
211.9483926457085
 30
0.0
 11
255.7022927875356
 21
211.9483926457085
 31
0.0
  0
LINE
  5
78
330
74
100
AcDbEntity
  8
-TEXT3
 62
     2
370
    -2
100
AcDbLine
 10
254.7022927875356
 20
167.9483926457085
 30
0.0
 11
254.7022927875356
 21
209.9483926457085
 31
0.0
  0
SOLID
  5
79
330
74
100
AcDbEntity
  8
-TEXT3
 62
     2
100
AcDbTrace
 10
254.3689594542022
 20
167.9483926457085
 30
0.0
 11
255.0356261208689
 21
167.9483926457085
 31
0.0
 12
254.7022927875356
 22
165.9483926457085
 32
0.0
 13
254.7022927875356
 23
165.9483926457085
 33
0.0
  0
SOLID
  5
7A
330
74
100
AcDbEntity
  8
-TEXT3
 62
     2
100
AcDbTrace
 10
254.3689594542023
 20
209.9483926457085
 30
0.0
 11
255.035626120869
 21
209.9483926457085
 31
0.0
 12
254.7022927875356
 22
211.9483926457085
 32
0.0
 13
254.7022927875356
 23
211.9483926457085
 33
0.0
  0
MTEXT
  5
7B
330
74
100
AcDbEntity
  8
-TEXT3
 62
     3
100
AcDbMText
 10
251.1494278489271
 20
188.9483926457085
 30
0.0
 40
5.0
 41
0.0
 71
     5
 72
     1
  1
\A1;46
 11
0.0000000000000001
 21
1.0
 31
0.0
 73
     1
 44
1.0
1001
ACAD
1000
MTEXTBEGIN
1070
    73
1070
     1
1070
    44
1040
1.0
1070
    74
1070
     0
1000
MTEXTEND
  0
POINT
  5
7C
330
74
100
AcDbEntity
  8
DEFPOINTS
 62
     0
100
AcDbPoint
 10
235.1030567645872
 20
165.9483926457085
 30
0.0
  0
POINT
  5
7D
330
74
100
AcDbEntity
  8
DEFPOINTS
 62
     0
100
AcDbPoint
 10
200.9658376963535
 20
211.9483926457085
 30
0.0
  0
POINT
  5
7E
330
74
100
AcDbEntity
  8
DEFPOINTS
 62
     0
100
AcDbPoint
 10
254.7022927875356
 20
211.9483926457085
 30
0.0
  0
ENDBLK
  5
7F
330
74
100
AcDbEntity
  8
0
100
AcDbBlockEnd
  0
BLOCK
  5
C8
330
C7
100
AcDbEntity
  8
0
100
AcDbBlockBegin
  2
*D5
 70
     1
 10
0.0
 20
0.0
 30
0.0
  3
*D5
  1

  0
LINE
  5
C9
330
C7
100
AcDbEntity
  8
-TEXT2
 62
     2
370
    -2
100
AcDbLine
 10
357.5883140782249
 20
35.94839264570846
 30
0.0
 11
369.6080446874627
 21
35.94839264570845
 31
0.0
  0
LINE
  5
CA
330
C7
100
AcDbEntity
  8
-TEXT2
 62
     2
370
    -2
100
AcDbLine
 10
357.5883140782249
 20
38.96839264570775
 30
0.0
 11
369.6080446874627
 21
38.96839264570775
 31
0.0
  0
LINE
  5
CB
330
C7
100
AcDbEntity
  8
-TEXT2
 62
     2
370
    -2
100
AcDbLine
 10
368.6080446874627
 20
33.94839264570844
 30
0.0
 11
368.6080446874627
 21
31.94839264570845
 31
0.0
  0
LINE
  5
CC
330
C7
100
AcDbEntity
  8
-TEXT2
 62
     2
370
    -2
100
AcDbLine
 10
368.6080446874627
 20
40.96839264570774
 30
0.0
 11
368.6080446874627
 21
42.96839264570774
 31
0.0
  0
SOLID
  5
CD
330
C7
100
AcDbEntity
  8
-TEXT2
 62
     2
100
AcDbTrace
 10
368.2747113541294
 20
33.94839264570844
 30
0.0
 11
368.941378020796
 21
33.94839264570844
 31
0.0
 12
368.6080446874627
 22
35.94839264570845
 32
0.0
 13
368.6080446874627
 23
35.94839264570845
 33
0.0
  0
SOLID
  5
CE
330
C7
100
AcDbEntity
  8
-TEXT2
 62
     2
100
AcDbTrace
 10
368.2747113541294
 20
40.96839264570774
 30
0.0
 11
368.941378020796
 21
40.96839264570774
 31
0.0
 12
368.6080446874627
 22
38.96839264570775
 32
0.0
 13
368.6080446874627
 23
38.96839264570775
 33
0.0
  0
MTEXT
  5
CF
330
C7
100
AcDbEntity
  8
-TEXT2
 62
     3
100
AcDbMText
 10
365.0534744282539
 20
37.45839264570816
 30
0.0
 40
5.0
 41
0.0
 71
     5
 72
     1
  1
\A1;3
 11
0.0000000000000001
 21
1.0
 31
0.0
 73
     1
 44
1.0
1001
ACAD
1000
MTEXTBEGIN
1070
    73
1070
     1
1070
    44
1040
1.0
1070
    74
1070
     0
1000
MTEXTEND
  0
POINT
  5
D0
330
C7
100
AcDbEntity
  8
DEFPOINTS
 62
     0
100
AcDbPoint
 10
355.5883140782249
 20
35.94839264570846
 30
0.0
  0
POINT
  5
D1
330
C7
100
AcDbEntity
  8
DEFPOINTS
 62
     0
100
AcDbPoint
 10
355.5883140782249
 20
38.96839264570775
 30
0.0
  0
POINT
  5
D2
330
C7
100
AcDbEntity
  8
DEFPOINTS
 62
     0
100
AcDbPoint
 10
368.6080446874627
 20
38.96839264570775
 30
0.0
  0
ENDBLK
  5
D3
330
C7
100
AcDbEntity
  8
0
100
AcDbBlockEnd
  0
BLOCK
  5
D6
330
D5
100
AcDbEntity
  8
0
100
AcDbBlockBegin
  2
*D6
 70
     1
 10
0.0
 20
0.0
 30
0.0
  3
*D6
  1

  0
LINE
  5
D7
330
D5
100
AcDbEntity
  8
-TEXT2
 62
     2
370
    -2
100
AcDbLine
 10
357.5883140782249
 20
18.44839264570777
 30
0.0
 11
369.6080446874627
 21
18.44839264570777
 31
0.0
  0
LINE
  5
D8
330
D5
100
AcDbEntity
  8
-TEXT2
 62
     2
370
    -2
100
AcDbLine
 10
357.5883140782249
 20
15.42839264570847
 30
0.0
 11
369.6080446874627
 21
15.42839264570847
 31
0.0
  0
LINE
  5
D9
330
D5
100
AcDbEntity
  8
-TEXT2
 62
     2
370
    -2
100
AcDbLine
 10
368.6080446874627
 20
20.44839264570777
 30
0.0
 11
368.6080446874627
 21
22.44839264570777
 31
0.0
  0
LINE
  5
DA
330
D5
100
AcDbEntity
  8
-TEXT2
 62
     2
370
    -2
100
AcDbLine
 10
368.6080446874627
 20
13.42839264570846
 30
0.0
 11
368.6080446874627
 21
11.42839264570846
 31
0.0
  0
SOLID
  5
DB
330
D5
100
AcDbEntity
  8
-TEXT2
 62
     2
100
AcDbTrace
 10
368.2747113541294
 20
20.44839264570777
 30
0.0
 11
368.941378020796
 21
20.44839264570777
 31
0.0
 12
368.6080446874627
 22
18.44839264570777
 32
0.0
 13
368.6080446874627
 23
18.44839264570777
 33
0.0
  0
SOLID
  5
DC
330
D5
100
AcDbEntity
  8
-TEXT2
 62
     2
100
AcDbTrace
 10
368.2747113541294
 20
13.42839264570846
 30
0.0
 11
368.941378020796
 21
13.42839264570846
 31
0.0
 12
368.6080446874627
 22
15.42839264570847
 32
0.0
 13
368.6080446874627
 23
15.42839264570847
 33
0.0
  0
MTEXT
  5
DD
330
D5
100
AcDbEntity
  8
-TEXT2
 62
     3
100
AcDbMText
 10
365.0534744282539
 20
16.93839264570818
 30
0.0
 40
5.0
 41
0.0
 71
     5
 72
     1
  1
\A1;3
 11
0.0000000000000001
 21
1.0
 31
0.0
 73
     1
 44
1.0
1001
ACAD
1000
MTEXTBEGIN
1070
    73
1070
     1
1070
    44
1040
1.0
1070
    74
1070
     0
1000
MTEXTEND
  0
POINT
  5
DE
330
D5
100
AcDbEntity
  8
DEFPOINTS
 62
     0
100
AcDbPoint
 10
355.5883140782249
 20
18.44839264570777
 30
0.0
  0
POINT
  5
DF
330
D5
100
AcDbEntity
  8
DEFPOINTS
 62
     0
100
AcDbPoint
 10
355.5883140782249
 20
15.42839264570847
 30
0.0
  0
POINT
  5
E0
330
D5
100
AcDbEntity
  8
DEFPOINTS
 62
     0
100
AcDbPoint
 10
368.6080446874627
 20
15.42839264570847
 30
0.0
  0
ENDBLK
  5
E1
330
D5
100
AcDbEntity
  8
0
100
AcDbBlockEnd
  0
BLOCK
  5
E4
330
E3
100
AcDbEntity
  8
0
100
AcDbBlockBegin
  2
*D7
 70
     1
 10
0.0
 20
0.0
 30
0.0
  3
*D7
  1

  0
LINE
  5
E5
330
E3
100
AcDbEntity
  8
-TEXT3
 62
     2
370
    -2
100
AcDbLine
 10
328.9858376963531
 20
15.42839264570847
 30
0.0
 11
369.6080446874627
 21
15.42839264570846
 31
0.0
  0
LINE
  5
E6
330
E3
100
AcDbEntity
  8
-TEXT3
 62
     2
370
    -2
100
AcDbLine
 10
312.0025753506521
 20
7.42839264570847
 30
0.0
 11
369.6080446874627
 21
7.428392645708454
 31
0.0
  0
LINE
  5
E7
330
E3
100
AcDbEntity
  8
-TEXT3
 62
     2
370
    -2
100
AcDbLine
 10
368.6080446874627
 20
13.42839264570846
 30
0.0
 11
368.6080446874627
 21
9.428392645708454
 31
0.0
  0
SOLID
  5
E8
330
E3
100
AcDbEntity
  8
-TEXT3
 62
     2
100
AcDbTrace
 10
368.2747113541294
 20
13.42839264570846
 30
0.0
 11
368.941378020796
 21
13.42839264570846
 31
0.0
 12
368.6080446874627
 22
15.42839264570846
 32
0.0
 13
368.6080446874627
 23
15.42839264570846
 33
0.0
  0
SOLID
  5
E9
330
E3
100
AcDbEntity
  8
-TEXT3
 62
     2
100
AcDbTrace
 10
368.2747113541294
 20
9.428392645708454
 30
0.0
 11
368.941378020796
 21
9.428392645708454
 31
0.0
 12
368.6080446874627
 22
7.428392645708454
 32
0.0
 13
368.6080446874627
 23
7.428392645708454
 33
0.0
  0
MTEXT
  5
EA
330
E3
100
AcDbEntity
  8
-TEXT3
 62
     3
100
AcDbMText
 10
365.0551797488542
 20
11.42839264570851
 30
0.0
 40
5.0
 41
0.0
 71
     5
 72
     1
  1
\A1;8
 11
0.0000000000000001
 21
1.0
 31
0.0
 73
     1
 44
1.0
1001
ACAD
1000
MTEXTBEGIN
1070
    73
1070
     1
1070
    44
1040
1.0
1070
    74
1070
     0
1000
MTEXTEND
  0
POINT
  5
EB
330
E3
100
AcDbEntity
  8
DEFPOINTS
 62
     0
100
AcDbPoint
 10
326.9858376963531
 20
15.42839264570847
 30
0.0
  0
POINT
  5
EC
330
E3
100
AcDbEntity
  8
DEFPOINTS
 62
     0
100
AcDbPoint
 10
310.0025753506522
 20
7.42839264570847
 30
0.0
  0
POINT
  5
ED
330
E3
100
AcDbEntity
  8
DEFPOINTS
 62
     0
100
AcDbPoint
 10
368.6080446874627
 20
7.428392645708454
 30
0.0
  0
ENDBLK
  5
EE
330
E3
100
AcDbEntity
  8
0
100
AcDbBlockEnd
  0
BLOCK
  5
F1
330
F0
100
AcDbEntity
  8
0
100
AcDbBlockBegin
  2
*D8
 70
     1
 10
0.0
 20
0.0
 30
0.0
  3
*D8
  1

  0
LINE
  5
F2
330
F0
100
AcDbEntity
  8
-TEXT3
 62
     2
370
    -2
100
AcDbLine
 10
357.5883140782249
 20
35.94839264570846
 30
0.0
 11
369.6080446874627
 21
35.94839264570845
 31
0.0
  0
LINE
  5
F3
330
F0
100
AcDbEntity
  8
-TEXT3
 62
     2
370
    -2
100
AcDbLine
 10
357.5883140782249
 20
18.44839264570777
 30
0.0
 11
369.6080446874627
 21
18.44839264570777
 31
0.0
  0
LINE
  5
F4
330
F0
100
AcDbEntity
  8
-TEXT3
 62
     2
370
    -2
100
AcDbLine
 10
368.6080446874627
 20
33.94839264570844
 30
0.0
 11
368.6080446874627
 21
20.44839264570777
 31
0.0
  0
SOLID
  5
F5
330
F0
100
AcDbEntity
  8
-TEXT3
 62
     2
100
AcDbTrace
 10
368.2747113541294
 20
33.94839264570844
 30
0.0
 11
368.941378020796
 21
33.94839264570844
 31
0.0
 12
368.6080446874627
 22
35.94839264570845
 32
0.0
 13
368.6080446874627
 23
35.94839264570845
 33
0.0
  0
SOLID
  5
F6
330
F0
100
AcDbEntity
  8
-TEXT3
 62
     2
100
AcDbTrace
 10
368.2747113541294
 20
20.44839264570777
 30
0.0
 11
368.941378020796
 21
20.44839264570777
 31
0.0
 12
368.6080446874627
 22
18.44839264570777
 32
0.0
 13
368.6080446874627
 23
18.44839264570777
 33
0.0
  0
MTEXT
  5
F7
330
F0
100
AcDbEntity
  8
-TEXT3
 62
     3
100
AcDbMText
 10
365.022778657449
 20
27.19839264570817
 30
0.0
 40
5.0
 41
0.0
 71
     5
 72
     1
  1
\A1;G
 11
0.0000000000000001
 21
1.0
 31
0.0
 73
     1
 44
1.0
1001
ACAD
1000
MTEXTBEGIN
1070
    73
1070
     1
1070
    44
1040
1.0
1070
    74
1070
     0
1000
MTEXTEND
  0
POINT
  5
F8
330
F0
100
AcDbEntity
  8
DEFPOINTS
 62
     0
100
AcDbPoint
 10
355.5883140782249
 20
35.94839264570846
 30
0.0
  0
POINT
  5
F9
330
F0
100
AcDbEntity
  8
DEFPOINTS
 62
     0
100
AcDbPoint
 10
355.5883140782249
 20
18.44839264570777
 30
0.0
  0
POINT
  5
FA
330
F0
100
AcDbEntity
  8
DEFPOINTS
 62
     0
100
AcDbPoint
 10
368.6080446874627
 20
18.44839264570777
 30
0.0
  0
ENDBLK
  5
FB
330
F0
100
AcDbEntity
  8
0
100
AcDbBlockEnd
  0
BLOCK
  5
FE
330
FD
100
AcDbEntity
  8
0
100
AcDbBlockBegin
  2
*D9
 70
     1
 10
0.0
 20
0.0
 30
0.0
  3
*D9
  1

  0
LINE
  5
FF
330
FD
100
AcDbEntity
  8
-TEXT3
 62
     2
370
    -2
100
AcDbLine
 10
349.0058376963526
 20
53.94839264570845
 30
0.0
 11
369.6080446874627
 21
53.94839264570844
 31
0.0
  0
LINE
  5
100
330
FD
100
AcDbEntity
  8
-TEXT3
 62
     2
370
    -2
100
AcDbLine
 10
328.9858376963531
 20
38.94839264570845
 30
0.0
 11
369.6080446874627
 21
38.94839264570844
 31
0.0
  0
LINE
  5
101
330
FD
100
AcDbEntity
  8
-TEXT3
 62
     2
370
    -2
100
AcDbLine
 10
368.6080446874627
 20
51.94839264570845
 30
0.0
 11
368.6080446874627
 21
40.94839264570843
 31
0.0
  0
SOLID
  5
102
330
FD
100
AcDbEntity
  8
-TEXT3
 62
     2
100
AcDbTrace
 10
368.2747113541294
 20
51.94839264570845
 30
0.0
 11
368.941378020796
 21
51.94839264570845
 31
0.0
 12
368.6080446874627
 22
53.94839264570844
 32
0.0
 13
368.6080446874627
 23
53.94839264570844
 33
0.0
  0
SOLID
  5
103
330
FD
100
AcDbEntity
  8
-TEXT3
 62
     2
100
AcDbTrace
 10
368.2747113541294
 20
40.94839264570843
 30
0.0
 11
368.941378020796
 21
40.94839264570843
 31
0.0
 12
368.6080446874627
 22
38.94839264570844
 32
0.0
 13
368.6080446874627
 23
38.94839264570844
 33
0.0
  0
MTEXT
  5
104
330
FD
100
AcDbEntity
  8
-TEXT3
 62
     3
100
AcDbMText
 10
365.0551797488542
 20
46.4483926457085
 30
0.0
 40
5.0
 41
0.0
 71
     5
 72
     1
  1
\A1;15
 11
0.0000000000000001
 21
1.0
 31
0.0
 73
     1
 44
1.0
1001
ACAD
1000
MTEXTBEGIN
1070
    73
1070
     1
1070
    44
1040
1.0
1070
    74
1070
     0
1000
MTEXTEND
  0
POINT
  5
105
330
FD
100
AcDbEntity
  8
DEFPOINTS
 62
     0
100
AcDbPoint
 10
347.0058376963526
 20
53.94839264570845
 30
0.0
  0
POINT
  5
106
330
FD
100
AcDbEntity
  8
DEFPOINTS
 62
     0
100
AcDbPoint
 10
326.9858376963531
 20
38.94839264570845
 30
0.0
  0
POINT
  5
107
330
FD
100
AcDbEntity
  8
DEFPOINTS
 62
     0
100
AcDbPoint
 10
368.6080446874627
 20
38.94839264570844
 30
0.0
  0
ENDBLK
  5
108
330
FD
100
AcDbEntity
  8
0
100
AcDbBlockEnd
  0
BLOCK
  5
10B
330
10A
100
AcDbEntity
  8
0
100
AcDbBlockBegin
  2
*D10
 70
     1
 10
0.0
 20
0.0
 30
0.0
  3
*D10
  1

  0
LINE
  5
10C
330
10A
100
AcDbEntity
  8
-TEXT3
 62
     2
370
    -2
100
AcDbLine
 10
349.0058376963526
 20
53.94839264570845
 30
0.0
 11
369.6080446874627
 21
53.94839264570844
 31
0.0
  0
LINE
  5
10D
330
10A
100
AcDbEntity
  8
-TEXT3
 62
     2
370
    -2
100
AcDbLine
 10
349.0058376963526
 20
65.94839264570845
 30
0.0
 11
369.6080446874627
 21
65.94839264570843
 31
0.0
  0
LINE
  5
10E
330
10A
100
AcDbEntity
  8
-TEXT3
 62
     2
370
    -2
100
AcDbLine
 10
368.6080446874627
 20
55.94839264570844
 30
0.0
 11
368.6080446874627
 21
63.94839264570844
 31
0.0
  0
SOLID
  5
10F
330
10A
100
AcDbEntity
  8
-TEXT3
 62
     2
100
AcDbTrace
 10
368.2747113541294
 20
55.94839264570844
 30
0.0
 11
368.941378020796
 21
55.94839264570844
 31
0.0
 12
368.6080446874627
 22
53.94839264570844
 32
0.0
 13
368.6080446874627
 23
53.94839264570844
 33
0.0
  0
SOLID
  5
110
330
10A
100
AcDbEntity
  8
-TEXT3
 62
     2
100
AcDbTrace
 10
368.2747113541294
 20
63.94839264570844
 30
0.0
 11
368.941378020796
 21
63.94839264570844
 31
0.0
 12
368.6080446874627
 22
65.94839264570843
 32
0.0
 13
368.6080446874627
 23
65.94839264570843
 33
0.0
  0
MTEXT
  5
111
330
10A
100
AcDbEntity
  8
-TEXT3
 62
     3
100
AcDbMText
 10
364.9153434596319
 20
59.9483926457085
 30
0.0
 40
5.0
 41
0.0
 71
     5
 72
     1
  1
\A1;%%c12
 11
0.0000000000000001
 21
1.0
 31
0.0
 73
     1
 44
1.0
1001
ACAD
1000
MTEXTBEGIN
1070
    73
1070
     1
1070
    44
1040
1.0
1070
    74
1070
     0
1000
MTEXTEND
  0
POINT
  5
112
330
10A
100
AcDbEntity
  8
DEFPOINTS
 62
     0
100
AcDbPoint
 10
347.0058376963526
 20
53.94839264570845
 30
0.0
  0
POINT
  5
113
330
10A
100
AcDbEntity
  8
DEFPOINTS
 62
     0
100
AcDbPoint
 10
347.0058376963526
 20
65.94839264570845
 30
0.0
  0
POINT
  5
114
330
10A
100
AcDbEntity
  8
DEFPOINTS
 62
     0
100
AcDbPoint
 10
368.6080446874627
 20
65.94839264570843
 30
0.0
  0
ENDBLK
  5
115
330
10A
100
AcDbEntity
  8
0
100
AcDbBlockEnd
  0
BLOCK
  5
11B
330
11A
100
AcDbEntity
  8
0
100
AcDbBlockBegin
  2
*D11
 70
     1
 10
0.0
 20
0.0
 30
0.0
  3
*D11
  1

  0
LINE
  5
11C
330
11A
100
AcDbEntity
  8
-TEXT3
 62
     2
370
    -2
100
AcDbLine
 10
300.9658376963536
 20
102.0856117139421
 30
0.0
 11
300.9658376963536
 21
114.8279029914871
 31
0.0
  0
LINE
  5
11D
330
11A
100
AcDbEntity
  8
-TEXT3
 62
     2
370
    -2
100
AcDbLine
 10
347.0058376963526
 20
67.94839264570845
 30
0.0
 11
347.0058376963526
 21
114.8279029914871
 31
0.0
  0
LINE
  5
11E
330
11A
100
AcDbEntity
  8
-TEXT3
 62
     2
370
    -2
100
AcDbLine
 10
302.9658376963535
 20
113.8279029914871
 30
0.0
 11
345.0058376963526
 21
113.8279029914871
 31
0.0
  0
SOLID
  5
11F
330
11A
100
AcDbEntity
  8
-TEXT3
 62
     2
100
AcDbTrace
 10
302.9658376963535
 20
114.1612363248205
 30
0.0
 11
302.9658376963535
 21
113.4945696581538
 31
0.0
 12
300.9658376963536
 22
113.8279029914871
 32
0.0
 13
300.9658376963536
 23
113.8279029914871
 33
0.0
  0
SOLID
  5
120
330
11A
100
AcDbEntity
  8
-TEXT3
 62
     2
100
AcDbTrace
 10
345.0058376963526
 20
114.1612363248205
 30
0.0
 11
345.0058376963526
 21
113.4945696581538
 31
0.0
 12
347.0058376963526
 22
113.8279029914871
 32
0.0
 13
347.0058376963526
 23
113.8279029914871
 33
0.0
  0
MTEXT
  5
121
330
11A
100
AcDbEntity
  8
-TEXT3
 62
     3
100
AcDbMText
 10
323.9858376963531
 20
117.3807679300956
 30
0.0
 40
5.0
 41
0.0
 71
     5
 72
     1
  1
\A1;46
 73
     1
 44
1.0
1001
ACAD
1000
MTEXTBEGIN
1070
    73
1070
     1
1070
    44
1040
1.0
1070
    74
1070
     0
1000
MTEXTEND
  0
POINT
  5
122
330
11A
100
AcDbEntity
  8
DEFPOINTS
 62
     0
100
AcDbPoint
 10
300.9658376963536
 20
100.0856117139421
 30
0.0
  0
POINT
  5
123
330
11A
100
AcDbEntity
  8
DEFPOINTS
 62
     0
100
AcDbPoint
 10
347.0058376963526
 20
65.94839264570845
 30
0.0
  0
POINT
  5
124
330
11A
100
AcDbEntity
  8
DEFPOINTS
 62
     0
100
AcDbPoint
 10
347.0058376963526
 20
113.8279029914871
 30
0.0
  0
ENDBLK
  5
125
330
11A
100
AcDbEntity
  8
0
100
AcDbBlockEnd
  0
BLOCK
  5
134
330
133
100
AcDbEntity
  8
0
100
AcDbBlockBegin
  2
*D12
 70
     1
 10
0.0
 20
0.0
 30
0.0
  3
*D12
  1

  0
LINE
  5
135
330
133
100
AcDbEntity
  8
-TEXT3
 62
     2
370
    -2
100
AcDbLine
 10
329.0058376963526
 20
38.94839264570845
 30
0.0
 11
340.9825974840536
 21
38.94839264570844
 31
0.0
  0
LINE
  5
136
330
133
100
AcDbEntity
  8
-TEXT3
 62
     2
370
    -2
100
AcDbLine
 10
326.0058376963526
 20
95.94839264570845
 30
0.0
 11
340.9825974840536
 21
95.94839264570845
 31
0.0
  0
LINE
  5
137
330
133
100
AcDbEntity
  8
-TEXT3
 62
     2
370
    -2
100
AcDbLine
 10
339.9825974840536
 20
40.94839264570844
 30
0.0
 11
339.9825974840536
 21
93.94839264570846
 31
0.0
  0
SOLID
  5
138
330
133
100
AcDbEntity
  8
-TEXT3
 62
     2
100
AcDbTrace
 10
339.6492641507203
 20
40.94839264570844
 30
0.0
 11
340.3159308173869
 21
40.94839264570844
 31
0.0
 12
339.9825974840536
 22
38.94839264570844
 32
0.0
 13
339.9825974840536
 23
38.94839264570844
 33
0.0
  0
SOLID
  5
139
330
133
100
AcDbEntity
  8
-TEXT3
 62
     2
100
AcDbTrace
 10
339.6492641507203
 20
93.94839264570846
 30
0.0
 11
340.3159308173869
 21
93.94839264570846
 31
0.0
 12
339.9825974840536
 22
95.94839264570845
 32
0.0
 13
339.9825974840536
 23
95.94839264570845
 33
0.0
  0
MTEXT
  5
13A
330
133
100
AcDbEntity
  8
-TEXT3
 62
     3
100
AcDbMText
 10
336.4399644690468
 20
70.71131806978491
 30
0.0
 40
5.0
 41
0.0
 71
     5
 72
     1
  1
\A1;57
 11
0.0000000000000001
 21
1.0
 31
0.0
 73
     1
 44
1.0
1001
ACAD
1000
MTEXTBEGIN
1070
    73
1070
     1
1070
    44
1040
1.0
1070
    74
1070
     0
1000
MTEXTEND
  0
POINT
  5
13B
330
133
100
AcDbEntity
  8
DEFPOINTS
 62
     0
100
AcDbPoint
 10
327.0058376963526
 20
38.94839264570845
 30
0.0
  0
POINT
  5
13C
330
133
100
AcDbEntity
  8
DEFPOINTS
 62
     0
100
AcDbPoint
 10
324.0058376963526
 20
95.94839264570845
 30
0.0
  0
POINT
  5
13D
330
133
100
AcDbEntity
  8
DEFPOINTS
 62
     0
100
AcDbPoint
 10
339.9825974840536
 20
95.94839264570845
 30
0.0
  0
ENDBLK
  5
13E
330
133
100
AcDbEntity
  8
0
100
AcDbBlockEnd
  0
BLOCK
  5
14B
330
14A
100
AcDbEntity
  8
0
100
AcDbBlockBegin
  2
*D13
 70
     1
 10
0.0
 20
0.0
 30
0.0
  3
*D13
  1

  0
LINE
  5
14C
330
14A
100
AcDbEntity
  8
-SCHRAFFUR
 62
     2
370
    -2
100
AcDbLine
 10
326.9858376963531
 20
9.838669395637396
 30
0.0
 11
326.9858376963531
 21
-4.488084591368817
 31
0.0
  0
LINE
  5
14D
330
14A
100
AcDbEntity
  8
-SCHRAFFUR
 62
     2
370
    -2
100
AcDbLine
 10
274.9858376963531
 20
9.622646822475815
 30
0.0
 11
274.9858376963531
 21
-4.488084591368817
 31
0.0
  0
LINE
  5
14E
330
14A
100
AcDbEntity
  8
-SCHRAFFUR
 62
     2
370
    -2
100
AcDbLine
 10
324.9858376963531
 20
-3.488084591368817
 30
0.0
 11
276.9858376963531
 21
-3.488084591368817
 31
0.0
  0
SOLID
  5
14F
330
14A
100
AcDbEntity
  8
-SCHRAFFUR
 62
     2
100
AcDbTrace
 10
324.9858376963531
 20
-3.154751258035484
 30
0.0
 11
324.9858376963531
 21
-3.821417924702151
 31
0.0
 12
326.9858376963531
 22
-3.488084591368817
 32
0.0
 13
326.9858376963531
 23
-3.488084591368817
 33
0.0
  0
SOLID
  5
150
330
14A
100
AcDbEntity
  8
-SCHRAFFUR
 62
     2
100
AcDbTrace
 10
276.9858376963531
 20
-3.154751258035484
 30
0.0
 11
276.9858376963531
 21
-3.821417924702151
 31
0.0
 12
274.9858376963531
 22
-3.488084591368817
 32
0.0
 13
274.9858376963531
 23
-3.488084591368817
 33
0.0
  0
MTEXT
  5
151
330
14A
100
AcDbEntity
  8
-SCHRAFFUR
 62
     3
100
AcDbMText
 10
300.9858376963531
 20
0.2046166364620148
 30
0.0
 40
5.0
 41
0.0
 71
     5
 72
     1
  1
\A1;%%c52
 73
     1
 44
1.0
1001
ACAD
1000
MTEXTBEGIN
1070
    73
1070
     1
1070
    44
1040
1.0
1070
    74
1070
     0
1000
MTEXTEND
  0
POINT
  5
152
330
14A
100
AcDbEntity
  8
DEFPOINTS
 62
     0
100
AcDbPoint
 10
326.9858376963531
 20
11.83866939563739
 30
0.0
  0
POINT
  5
153
330
14A
100
AcDbEntity
  8
DEFPOINTS
 62
     0
100
AcDbPoint
 10
274.9858376963531
 20
11.62264682247581
 30
0.0
  0
POINT
  5
154
330
14A
100
AcDbEntity
  8
DEFPOINTS
 62
     0
100
AcDbPoint
 10
274.9858376963531
 20
-3.488084591368817
 30
0.0
  0
ENDBLK
  5
155
330
14A
100
AcDbEntity
  8
0
100
AcDbBlockEnd
  0
BLOCK
  5
187
330
186
100
AcDbEntity
  8
0
100
AcDbBlockBegin
  2
*D14
 70
     1
 10
0.0
 20
0.0
 30
0.0
  3
*D14
  1

  0
LINE
  5
188
330
186
100
AcDbEntity
  8
-TEXT3
 62
     2
370
    -2
100
AcDbLine
 10
348.9658376963534
 20
377.4860713592842
 30
0.0
 11
369.6080446874626
 21
377.4860713592842
 31
0.0
  0
LINE
  5
189
330
186
100
AcDbEntity
  8
-TEXT3
 62
     2
370
    -2
100
AcDbLine
 10
348.9658376963534
 20
362.4860713592842
 30
0.0
 11
369.6080446874626
 21
362.4860713592842
 31
0.0
  0
LINE
  5
18A
330
186
100
AcDbEntity
  8
-TEXT3
 62
     2
370
    -2
100
AcDbLine
 10
368.6080446874626
 20
375.4860713592842
 30
0.0
 11
368.6080446874626
 21
364.4860713592842
 31
0.0
  0
SOLID
  5
18B
330
186
100
AcDbEntity
  8
-TEXT3
 62
     2
100
AcDbTrace
 10
368.2747113541292
 20
375.4860713592842
 30
0.0
 11
368.9413780207959
 21
375.4860713592842
 31
0.0
 12
368.6080446874626
 22
377.4860713592842
 32
0.0
 13
368.6080446874626
 23
377.4860713592842
 33
0.0
  0
SOLID
  5
18C
330
186
100
AcDbEntity
  8
-TEXT3
 62
     2
100
AcDbTrace
 10
368.2747113541292
 20
364.4860713592842
 30
0.0
 11
368.9413780207959
 21
364.4860713592842
 31
0.0
 12
368.6080446874626
 22
362.4860713592842
 32
0.0
 13
368.6080446874626
 23
362.4860713592842
 33
0.0
  0
MTEXT
  5
18D
330
186
100
AcDbEntity
  8
-TEXT3
 62
     3
100
AcDbMText
 10
365.055179748854
 20
369.9860713592843
 30
0.0
 40
5.0
 41
0.0
 71
     5
 72
     1
  1
\A1;15
 11
0.0000000000000001
 21
1.0
 31
0.0
 73
     1
 44
1.0
1001
ACAD
1000
MTEXTBEGIN
1070
    73
1070
     1
1070
    44
1040
1.0
1070
    74
1070
     0
1000
MTEXTEND
  0
POINT
  5
18E
330
186
100
AcDbEntity
  8
DEFPOINTS
 62
     0
100
AcDbPoint
 10
346.9658376963534
 20
377.4860713592842
 30
0.0
  0
POINT
  5
18F
330
186
100
AcDbEntity
  8
DEFPOINTS
 62
     0
100
AcDbPoint
 10
346.9658376963534
 20
362.4860713592842
 30
0.0
  0
POINT
  5
190
330
186
100
AcDbEntity
  8
DEFPOINTS
 62
     0
100
AcDbPoint
 10
368.6080446874626
 20
362.4860713592842
 30
0.0
  0
ENDBLK
  5
191
330
186
100
AcDbEntity
  8
0
100
AcDbBlockEnd
  0
BLOCK
  5
179
330
178
100
AcDbEntity
  8
0
100
AcDbBlockBegin
  2
*D15
 70
     1
 10
0.0
 20
0.0
 30
0.0
  3
*D15
  1

  0
LINE
  5
17A
330
178
100
AcDbEntity
  8
-TEXT3
 62
     2
370
    -2
100
AcDbLine
 10
348.9658376963534
 20
350.4860713592842
 30
0.0
 11
369.6080446874626
 21
350.4860713592842
 31
0.0
  0
LINE
  5
17B
330
178
100
AcDbEntity
  8
-TEXT3
 62
     2
370
    -2
100
AcDbLine
 10
348.9658376963534
 20
362.4860713592842
 30
0.0
 11
369.6080446874626
 21
362.4860713592842
 31
0.0
  0
LINE
  5
17C
330
178
100
AcDbEntity
  8
-TEXT3
 62
     2
370
    -2
100
AcDbLine
 10
368.6080446874626
 20
360.4860713592842
 30
0.0
 11
368.6080446874626
 21
352.4860713592842
 31
0.0
  0
LINE
  5
17D
330
178
100
AcDbEntity
  8
-TEXT3
 62
     2
370
    -2
100
AcDbLine
 10
368.6080446874626
 20
350.4860713592842
 30
0.0
 11
368.6080446874626
 21
333.934911741276
 31
0.0
  0
SOLID
  5
17E
330
178
100
AcDbEntity
  8
-TEXT3
 62
     2
100
AcDbTrace
 10
368.2747113541293
 20
360.4860713592842
 30
0.0
 11
368.9413780207959
 21
360.4860713592842
 31
0.0
 12
368.6080446874626
 22
362.4860713592842
 32
0.0
 13
368.6080446874626
 23
362.4860713592842
 33
0.0
  0
SOLID
  5
17F
330
178
100
AcDbEntity
  8
-TEXT3
 62
     2
100
AcDbTrace
 10
368.2747113541293
 20
352.4860713592842
 30
0.0
 11
368.9413780207959
 21
352.4860713592842
 31
0.0
 12
368.6080446874626
 22
350.4860713592842
 32
0.0
 13
368.6080446874626
 23
350.4860713592842
 33
0.0
  0
MTEXT
  5
180
330
178
100
AcDbEntity
  8
-TEXT3
 62
     3
100
AcDbMText
 10
364.9153434596318
 20
341.2104915502802
 30
0.0
 40
5.0
 41
0.0
 71
     5
 72
     1
  1
\A1;%%c12
 11
0.0000000000000001
 21
1.0
 31
0.0
 73
     1
 44
1.0
1001
ACAD
1000
MTEXTBEGIN
1070
    73
1070
     1
1070
    44
1040
1.0
1070
    74
1070
     0
1000
MTEXTEND
  0
POINT
  5
181
330
178
100
AcDbEntity
  8
DEFPOINTS
 62
     0
100
AcDbPoint
 10
346.9658376963534
 20
350.4860713592842
 30
0.0
  0
POINT
  5
182
330
178
100
AcDbEntity
  8
DEFPOINTS
 62
     0
100
AcDbPoint
 10
346.9658376963534
 20
362.4860713592842
 30
0.0
  0
POINT
  5
183
330
178
100
AcDbEntity
  8
DEFPOINTS
 62
     0
100
AcDbPoint
 10
368.6080446874626
 20
362.4860713592842
 30
0.0
  0
ENDBLK
  5
184
330
178
100
AcDbEntity
  8
0
100
AcDbBlockEnd
  0
BLOCK
  5
16B
330
16A
100
AcDbEntity
  8
0
100
AcDbBlockBegin
  2
*D16
 70
     1
 10
0.0
 20
0.0
 30
0.0
  3
*D16
  1

  0
LINE
  5
16C
330
16A
100
AcDbEntity
  8
-TEXT3
 62
     2
370
    -2
100
AcDbLine
 10
348.9658376963534
 20
389.4860713592842
 30
0.0
 11
369.6080446874627
 21
389.4860713592842
 31
0.0
  0
LINE
  5
16D
330
16A
100
AcDbEntity
  8
-TEXT3
 62
     2
370
    -2
100
AcDbLine
 10
348.9658376963534
 20
377.4860713592842
 30
0.0
 11
369.6080446874626
 21
377.4860713592842
 31
0.0
  0
LINE
  5
16E
330
16A
100
AcDbEntity
  8
-TEXT3
 62
     2
370
    -2
100
AcDbLine
 10
368.6080446874626
 20
379.4860713592842
 30
0.0
 11
368.6080446874627
 21
387.4860713592842
 31
0.0
  0
LINE
  5
16F
330
16A
100
AcDbEntity
  8
-TEXT3
 62
     2
370
    -2
100
AcDbLine
 10
368.6080446874627
 20
389.4860713592842
 30
0.0
 11
368.6080446874627
 21
406.0372309772924
 31
0.0
  0
SOLID
  5
170
330
16A
100
AcDbEntity
  8
-TEXT3
 62
     2
100
AcDbTrace
 10
368.2747113541293
 20
379.4860713592842
 30
0.0
 11
368.9413780207959
 21
379.4860713592842
 31
0.0
 12
368.6080446874626
 22
377.4860713592842
 32
0.0
 13
368.6080446874626
 23
377.4860713592842
 33
0.0
  0
SOLID
  5
171
330
16A
100
AcDbEntity
  8
-TEXT3
 62
     2
100
AcDbTrace
 10
368.2747113541294
 20
387.4860713592842
 30
0.0
 11
368.941378020796
 21
387.4860713592842
 31
0.0
 12
368.6080446874627
 22
389.4860713592842
 32
0.0
 13
368.6080446874627
 23
389.4860713592842
 33
0.0
  0
MTEXT
  5
172
330
16A
100
AcDbEntity
  8
-TEXT3
 62
     3
100
AcDbMText
 10
364.9153434596318
 20
398.7616511682885
 30
0.0
 40
5.0
 41
0.0
 71
     5
 72
     1
  1
\A1;%%c12
 11
0.0000000000000001
 21
1.0
 31
0.0
 73
     1
 44
1.0
1001
ACAD
1000
MTEXTBEGIN
1070
    73
1070
     1
1070
    44
1040
1.0
1070
    74
1070
     0
1000
MTEXTEND
  0
POINT
  5
173
330
16A
100
AcDbEntity
  8
DEFPOINTS
 62
     0
100
AcDbPoint
 10
346.9658376963534
 20
389.4860713592842
 30
0.0
  0
POINT
  5
174
330
16A
100
AcDbEntity
  8
DEFPOINTS
 62
     0
100
AcDbPoint
 10
346.9658376963534
 20
377.4860713592842
 30
0.0
  0
POINT
  5
175
330
16A
100
AcDbEntity
  8
DEFPOINTS
 62
     0
100
AcDbPoint
 10
368.6080446874626
 20
377.4860713592842
 30
0.0
  0
ENDBLK
  5
176
330
16A
100
AcDbEntity
  8
0
100
AcDbBlockEnd
  0
BLOCK
  5
1B0
330
1AF
100
AcDbEntity
  8
0
100
AcDbBlockBegin
  2
*D17
 70
     1
 10
0.0
 20
0.0
 30
0.0
  3
*D17
  1

  0
LINE
  5
1B1
330
1AF
100
AcDbEntity
  8
-SCHRAFFUR
 62
     2
370
    -2
100
AcDbLine
 10
144.8561144462825
 20
395.9660713592847
 30
0.0
 11
130.5293604592763
 21
395.9660713592847
 31
0.0
  0
LINE
  5
1B2
330
1AF
100
AcDbEntity
  8
-SCHRAFFUR
 62
     2
370
    -2
100
AcDbLine
 10
144.6400918731211
 20
343.9660713592846
 30
0.0
 11
130.5293604592763
 21
343.9660713592846
 31
0.0
  0
LINE
  5
1B3
330
1AF
100
AcDbEntity
  8
-SCHRAFFUR
 62
     2
370
    -2
100
AcDbLine
 10
131.5293604592763
 20
393.9660713592847
 30
0.0
 11
131.5293604592763
 21
345.9660713592846
 31
0.0
  0
SOLID
  5
1B4
330
1AF
100
AcDbEntity
  8
-SCHRAFFUR
 62
     2
100
AcDbTrace
 10
131.1960271259429
 20
393.9660713592847
 30
0.0
 11
131.8626937926096
 21
393.9660713592847
 31
0.0
 12
131.5293604592763
 22
395.9660713592847
 32
0.0
 13
131.5293604592763
 23
395.9660713592847
 33
0.0
  0
SOLID
  5
1B5
330
1AF
100
AcDbEntity
  8
-SCHRAFFUR
 62
     2
100
AcDbTrace
 10
131.1960271259429
 20
345.9660713592846
 30
0.0
 11
131.8626937926096
 21
345.9660713592846
 31
0.0
 12
131.5293604592763
 22
343.9660713592846
 32
0.0
 13
131.5293604592763
 23
343.9660713592846
 33
0.0
  0
MTEXT
  5
1B6
330
1AF
100
AcDbEntity
  8
-SCHRAFFUR
 62
     3
100
AcDbMText
 10
127.8366592314454
 20
369.9660713592847
 30
0.0
 40
5.0
 41
0.0
 71
     5
 72
     1
  1
\A1;%%c52
 11
0.0000000000000001
 21
1.0
 31
0.0
 73
     1
 44
1.0
1001
ACAD
1000
MTEXTBEGIN
1070
    73
1070
     1
1070
    44
1040
1.0
1070
    74
1070
     0
1000
MTEXTEND
  0
POINT
  5
1B7
330
1AF
100
AcDbEntity
  8
DEFPOINTS
 62
     0
100
AcDbPoint
 10
146.8561144462825
 20
395.9660713592847
 30
0.0
  0
POINT
  5
1B8
330
1AF
100
AcDbEntity
  8
DEFPOINTS
 62
     0
100
AcDbPoint
 10
146.6400918731211
 20
343.9660713592846
 30
0.0
  0
POINT
  5
1B9
330
1AF
100
AcDbEntity
  8
DEFPOINTS
 62
     0
100
AcDbPoint
 10
131.5293604592763
 20
343.9660713592846
 30
0.0
  0
ENDBLK
  5
1BA
330
1AF
100
AcDbEntity
  8
0
100
AcDbBlockEnd
  0
ENDSEC
  0
SECTION
  2
ENTITIES
  0
LWPOLYLINE
  5
9
330
2
100
AcDbEntity
  8
-VERGLASUNG
100
AcDbPolyline
 90
        2
 70
     0
 43
0.0
 10
153.4658376963533
 20
455.9881030931043
 10
153.4658376963531
 20
301.6122384031519
  0
LWPOLYLINE
  5
B
330
2
100
AcDbEntity
  8
-TEXT2
100
AcDbPolyline
 90
        3
 70
     1
 43
0.0
 10
153.4658376963533
 20
436.413768932216
 10
146.305648148917
 20
440.547706294877
 10
146.305648148917
 20
432.2798315695549
  0
MTEXT
  5
D
330
2
100
AcDbEntity
  8
-TEXT2
100
AcDbMText
 10
141.2466207298076
 20
427.810456619803
 30
0.0
 40
3.5
 41
17.9978
 71
     1
 72
     5
  1
{\fArial|b0|i0|c0|p34;Glaskante}
 11
0.0000000000000001
 21
1.0
 31
0.0
 73
     1
 44
1.0
1001
ACAD
1000
MTEXTBEGIN
1070
    73
1070
     1
1070
    44
1040
1.0
1070
    74
1070
     0
1000
MTEXTEND
  0
LWPOLYLINE
  5
10
330
2
100
AcDbEntity
  8
-NORMTEIL_VERDECKT
100
AcDbPolyline
 90
        2
 70
     0
 43
0.0
 10
170.9658376963564
 20
455.9881030931043
 10
170.9658376963561
 20
301.6122384031519
  0
MTEXT
  5
13
330
2
100
AcDbEntity
  8
-TEXT2
100
AcDbMText
 10
-5.605378765764555
 20
131.8442269266633
 30
0.0
 40
5.0
 41
115.8862353619997
 71
     1
 72
     5
  1
{\H4x;Draufsicht}\P{\H2x;M1:1}
 73
     1
 44
1.0
1001
ACAD
1000
MTEXTBEGIN
1070
    73
1070
     1
1070
    44
1040
1.0
1070
    74
1070
     0
1000
MTEXTEND
  0
MTEXT
  5
14
330
2
100
AcDbEntity
  8
-TEXT2
100
AcDbMText
 10
-5.605378765764555
 20
383.9322044849043
 30
0.0
 40
5.0
 41
115.8862353619997
 71
     1
 72
     5
  1
{\H4x;Ansicht}\P{\H2x;M1:1}
 73
     1
 44
1.0
1001
ACAD
1000
MTEXTBEGIN
1070
    73
1070
     1
1070
    44
1040
1.0
1070
    74
1070
     0
1000
MTEXTEND
  0
LWPOLYLINE
  5
15
330
2
100
AcDbEntity
  8
-TRENNEN
100
AcDbPolyline
 90
        4
 70
     0
 43
0.0
 10
146.6713501158193
 20
301.6122384031519
 10
355.5483140782259
 20
301.6122384031519
 10
355.5483140782259
 20
455.9881030931043
 10
146.6713501158196
 20
455.9881030931043
  0
DIMENSION
  5
18
330
2
100
AcDbEntity
  8
-TEXT3
100
AcDbDimension
  2
*D0
 10
275.0058376963526
 20
65.94839264570845
 30
0.0
 11
229.4373432549912
 21
94.41989820434605
 31
0.0
 70
     2
  1
<>-180°
 71
     5
 42
1.570796326794895
  3
1-1
100
AcDb2LineAngularDimension
 13
200.9658376963535
 23
139.9483926457084
 33
0.0
 14
200.9658376963535
 24
80.94839264570845
 34
0.0
 15
215.9658376963536
 25
65.94839264570845
 35
0.0
 16
232.7592968170422
 26
84.30435482750736
 36
0.0
  0
DIMENSION
  5
28
330
2
100
AcDbEntity
  8
-SCHRAFFUR
100
AcDbDimension
  2
*D1
 10
368.6080446874627
 20
65.94839264570843
 30
0.0
 11
365.0551797488542
 21
138.9483926457085
 31
0.0
 71
     5
 42
146.0
  3
1-1
100
AcDbAlignedDimension
 13
200.9658376963535
 23
211.9483926457085
 33
0.0
 14
349.0058376963526
 24
65.94839264570845
 34
0.0
 50
270.0
100
AcDbRotatedDimension
  0
LINE
  5
36
330
2
100
AcDbEntity
  8
-PROFILAUSSENKANTET
100
AcDbLine
 10
215.9658376963536
 20
65.94839264570845
 30
0.0
 11
275.0058376963526
 21
65.94839264570845
 31
0.0
  0
LINE
  5
39
330
2
100
AcDbEntity
  8
-PROFILAUSSENKANTET
100
AcDbLine
 10
215.9658376963536
 20
53.94839264570845
 30
0.0
 11
275.0058376963526
 21
53.94839264570845
 31
0.0
  0
DIMENSION
  5
3A
330
2
100
AcDbEntity
  8
-SCHRAFFUR
100
AcDbDimension
  2
*D2
 10
347.0058376963526
 20
240.7782024264593
 30
0.0
 11
273.9858376963531
 21
244.3310673650678
 31
0.0
 71
     5
 42
146.039999999999
  3
1-1
100
AcDbAlignedDimension
 13
200.9658376963535
 23
211.9483926457085
 33
0.0
 14
347.0058376963526
 24
65.94839264570845
 34
0.0
100
AcDbRotatedDimension
  0
LWPOLYLINE
  5
47
330
2
100
AcDbEntity
  8
-VERGLASUNG
100
AcDbPolyline
 90
        6
 70
     0
 43
0.0
 10
355.5883140782249
 20
18.44839264570777
 10
154.4658376963533
 20
18.44839264570788
 10
153.4658376963533
 20
19.44839264570788
 10
153.4658376963533
 20
34.94839264570834
 10
154.4658376963533
 20
35.94839264570834
 10
355.5883140782249
 20
35.94839264570846
  0
LWPOLYLINE
  5
48
330
2
100
AcDbEntity
  8
-VERGLASUNG
100
AcDbPolyline
 90
        6
 70
     0
 43
0.0
 10
153.4658376963531
 20
220.5308690275808
 10
153.4658376963531
 20
46.94839264570833
 10
154.4658376963531
 20
45.94839264570834
 10
169.9658376963535
 20
45.94839264570834
 10
170.9658376963535
 20
46.94839264570833
 10
170.9658376963535
 20
220.5308690275808
  0
LINE
  5
49
330
2
100
AcDbEntity
  8
-PROFILAUSSENKANTET
100
AcDbLine
 10
188.9658376963535
 20
139.9483926457084
 30
0.0
 11
188.9658376963535
 21
80.94839264570845
 31
0.0
  0
LINE
  5
4A
330
2
100
AcDbEntity
  8
-PROFILAUSSENKANTET
100
AcDbLine
 10
200.9658376963535
 20
139.9483926457084
 30
0.0
 11
200.9658376963535
 21
80.94839264570845
 31
0.0
  0
LINE
  5
4B
330
2
100
AcDbEntity
  8
-VERGLASUNG
100
AcDbLine
 10
157.3597125866896
 20
146.9734448187559
 30
0.0
 11
153.4658376963531
 21
143.0795699284191
 31
0.0
  0
LINE
  5
4C
330
2
100
AcDbEntity
  8
-VERGLASUNG
100
AcDbLine
 10
157.3597125866901
 20
145.4109448187559
 30
0.0
 11
153.4658376963531
 21
141.5170699284191
 31
0.0
  0
LWPOLYLINE
  5
4D
330
2
100
AcDbEntity
  8
-NORMTEIL_VERDECKT
100
AcDbPolyline
 90
        4
 70
     1
 43
0.0
 10
170.9658376963535
 20
156.928392645709
 10
170.9658376963535
 20
155.428392645709
 10
153.4458376963535
 20
155.428392645709
 10
153.4458376963535
 20
156.928392645709
  0
LWPOLYLINE
  5
4E
330
2
100
AcDbEntity
  8
-NORMTEIL_VERDECKT
100
AcDbPolyline
 90
       12
 70
     0
 43
0.0
 10
150.4458376963536
 20
168.928392645709
 10
153.92207726565
 20
168.928392645709
 42
0.2679491924311227
 10
154.4416925079209
 20
169.2283926457091
 10
154.8458376963536
 20
169.928392645709
 10
164.8323376963536
 20
169.928392645709
 10
165.4458376963536
 20
169.314892645709
 10
165.4458376963536
 20
162.5418926457089
 10
164.8323376963536
 20
161.928392645709
 10
154.8458376963536
 20
161.928392645709
 10
154.4416925079209
 20
162.6283926457088
 42
0.2679491924311224
 10
153.92207726565
 20
162.9283926457089
 10
150.4458376963536
 20
162.9283926457089
  0
LINE
  5
4F
330
2
100
AcDbEntity
  8
-NORMTEIL_VERDECKT
100
AcDbLine
 10
165.4458376963536
 20
162.5418926457089
 30
0.0
 11
154.4916333062057
 21
162.5418926457089
 31
0.0
  0
LINE
  5
50
330
2
100
AcDbEntity
  8
-NORMTEIL_VERDECKT
100
AcDbLine
 10
165.4458376963536
 20
169.314892645709
 30
0.0
 11
154.4916333062057
 21
169.314892645709
 31
0.0
  0
LINE
  5
51
330
2
100
AcDbEntity
  8
-VERGLASUNG
100
AcDbLine
 10
157.3597125866901
 20
148.5359448187559
 30
0.0
 11
153.4658376963531
 21
144.6420699284191
 31
0.0
  0
LINE
  5
52
330
2
100
AcDbEntity
  8
-SYSTEM
100
AcDbLine
 10
137.0735702047428
 20
165.9483926457085
 30
0.0
 11
235.1030567645872
 21
165.9483926457085
 31
0.0
  0
LWPOLYLINE
  5
55
330
2
100
AcDbEntity
  8
-NORMTEIL_VERDECKT
100
AcDbPolyline
 90
        4
 70
     1
 43
0.0
 10
170.9658376963535
 20
174.928392645709
 10
170.9658376963535
 20
176.4283926457089
 10
153.4458376963535
 20
176.4283926457089
 10
153.4458376963535
 20
174.928392645709
  0
LINE
  5
56
330
2
100
AcDbEntity
  8
-VERGLASUNG
100
AcDbLine
 10
157.3597125159791
 20
198.5359446641432
 30
0.0
 11
153.4658376963531
 21
194.6420698445172
 31
0.0
  0
LINE
  5
57
330
2
100
AcDbEntity
  8
-VERGLASUNG
100
AcDbLine
 10
157.3597127281119
 20
195.410944876276
 30
0.0
 11
153.465837837775
 21
191.5170699859393
 31
0.0
  0
LINE
  5
58
330
2
100
AcDbEntity
  8
-VERGLASUNG
100
AcDbLine
 10
157.3597125159791
 20
196.9734446641432
 30
0.0
 11
153.4658376963531
 21
193.0795698445172
 31
0.0
  0
LINE
  5
59
330
2
100
AcDbEntity
  8
-VERGLASUNG
100
AcDbLine
 10
157.3597127988229
 20
223.5359449050363
 30
0.0
 11
153.4658379084859
 21
219.6420700146993
 31
0.0
  0
LINE
  5
5A
330
2
100
AcDbEntity
  8
-VERGLASUNG
100
AcDbLine
 10
157.3597127988224
 20
221.9734449050363
 30
0.0
 11
153.4658379084859
 21
218.0795700146993
 31
0.0
  0
LINE
  5
5B
330
2
100
AcDbEntity
  8
-VERGLASUNG
100
AcDbLine
 10
157.3597127988229
 20
220.4109449050363
 30
0.0
 11
153.4658379084859
 21
216.5170700146993
 31
0.0
  0
HATCH
  5
5C
330
2
100
AcDbEntity
  8
-SCHRAFFUR
100
AcDbHatch
 10
0.0
 20
0.0
 30
0.0
210
0.0
220
0.0
230
1.0
  2
SOLID
 70
     1
 71
     1
 91
        1
 92
        1
 93
        4
 72
     1
 10
153.4458376963535
 20
191.428392645709
 11
153.4458376963535
 21
140.4283926457089
 72
     1
 10
153.4458376963535
 20
140.4283926457089
 11
150.4458376963536
 21
140.4283926457089
 72
     1
 10
150.4458376963536
 20
140.4283926457089
 11
150.4458376963536
 21
191.428392645709
 72
     1
 10
150.4458376963536
 20
191.428392645709
 11
153.4458376963535
 21
191.428392645709
 97
        1
330
5D
 75
     0
 76
     1
 98
        1
 10
360.8729449365227
 20
-291.7099002237003
  0
LWPOLYLINE
  5
5D
102
{ACAD_REACTORS
330
5C
102
}
330
2
100
AcDbEntity
  8
-DICHTUNG
100
AcDbPolyline
 90
        4
 70
     1
 43
0.0
 10
153.4458376963535
 20
191.428392645709
 10
153.4458376963535
 20
140.4283926457089
 10
150.4458376963536
 20
140.4283926457089
 10
150.4458376963536
 20
191.428392645709
  0
LWPOLYLINE
  5
5F
330
2
100
AcDbEntity
  8
-PROFILAUSSENKANTET
100
AcDbPolyline
 90
       11
 70
     0
 43
0.0
 10
150.4458376963536
 20
191.9283926457089
 10
150.4458376963536
 20
139.9283926457089
 10
146.6400918731211
 20
139.9283926457089
 42
-0.375901963977188
 10
144.6576360717555
 20
141.664065205527
 10
142.4896981929406
 20
155.0299892270977
 42
-0.033150018187446
 10
142.4458376963535
 20
155.6908078275528
 10
142.4458376963535
 20
174.9451303000078
 42
-0.0413106451481675
 10
142.513868077193
 20
175.7671252365346
 10
144.6673040254555
 20
190.2571906203197
 42
-0.3666293647015966
 10
146.6400918731198
 20
191.9283926457089
 10
150.4458376963536
 20
191.9283926457089
  0
DIMENSION
  5
60
330
2
100
AcDbEntity
  8
-SCHRAFFUR
100
AcDbDimension
  2
*D3
 10
131.5293604592763
 20
139.9283926457089
 30
0.0
 11
127.8366592314454
 21
165.9283926457089
 31
0.0
  1
%%c<>
 71
     5
 42
52.00000000000006
  3
1-1
100
AcDbAlignedDimension
 13
146.8561144462825
 23
191.9283926457089
 33
0.0
 14
146.6400918731211
 24
139.9283926457089
 34
0.0
 50
90.0
100
AcDbRotatedDimension
  0
LWPOLYLINE
  5
6D
330
2
100
AcDbEntity
  8
-NORMTEIL_VERDECKT
100
AcDbPolyline
 90
        5
 70
     0
 43
0.0
 10
142.4458376963535
 20
160.6783926457089
 10
146.4458376963535
 20
160.6783926457089
 10
147.4458376963536
 20
158.928392645709
 10
146.4458376963535
 20
157.1783926457092
 10
142.4458376963535
 20
157.178392645709
  0
LWPOLYLINE
  5
6E
330
2
100
AcDbEntity
  8
-NORMTEIL_VERDECKT
100
AcDbPolyline
 90
        5
 70
     0
 43
0.0
 10
142.4458376963535
 20
171.178392645709
 10
146.4458376963535
 20
171.178392645709
 10
147.4458376963536
 20
169.428392645709
 10
146.4458376963535
 20
167.6783926457092
 10
142.4458376963535
 20
167.678392645709
  0
LWPOLYLINE
  5
6F
330
2
100
AcDbEntity
  8
-NORMTEIL_VERDECKT
100
AcDbPolyline
 90
        2
 70
     0
 43
0.0
 10
156.2058376963538
 20
156.928392645709
 10
156.2058376963538
 20
169.928392645709
  0
LINE
  5
70
330
2
100
AcDbEntity
  8
-NORMTEIL_VERDECKT
100
AcDbLine
 10
146.4458376963535
 20
171.178392645709
 30
0.0
 11
146.4458376963535
 21
167.6783926457092
 31
0.0
  0
LWPOLYLINE
  5
71
330
2
100
AcDbEntity
  8
-NORMTEIL_VERDECKT
100
AcDbPolyline
 90
        2
 70
     0
 43
0.0
 10
156.2058376963538
 20
169.928392645709
 10
156.2058376963538
 20
174.928392645709
  0
LINE
  5
72
330
2
100
AcDbEntity
  8
-NORMTEIL_VERDECKT
100
AcDbLine
 10
146.4458376963535
 20
160.6783926457089
 30
0.0
 11
146.4458376963535
 21
157.1783926457092
 31
0.0
  0
DIMENSION
  5
73
330
2
100
AcDbEntity
  8
-TEXT3
100
AcDbDimension
  2
*D4
 10
254.7022927875356
 20
211.9483926457085
 30
0.0
 11
251.1494278489271
 21
188.9483926457085
 31
0.0
 71
     5
 42
46.0
  3
1-1
100
AcDbAlignedDimension
 13
235.1030567645872
 23
165.9483926457085
 33
0.0
 14
200.9658376963535
 24
211.9483926457085
 34
0.0
 50
270.0
100
AcDbRotatedDimension
  0
LWPOLYLINE
  5
80
330
2
100
AcDbEntity
  8
-PROFILAUSSENKANTET
100
AcDbPolyline
 90
        6
 70
     1
 43
0.0
 10
230.9658376963536
 20
188.9483926457085
 10
230.9658376963536
 20
142.9483926457084
 42
-0.4142135623730951
 10
227.9658376963535
 20
139.9483926457084
 10
205.9658376963536
 20
139.9483926457084
 10
205.9658376963536
 20
191.9483926457085
 10
227.9658376963535
 20
191.9483926457085
 42
-0.4142135623730951
  0
HATCH
  5
81
330
2
100
AcDbEntity
  8
-SCHRAFFUR
100
AcDbHatch
 10
0.0
 20
0.0
 30
0.0
210
0.0
220
0.0
230
1.0
  2
SOLID
 70
     1
 71
     1
 91
        1
 92
        1
 93
        4
 72
     1
 10
173.9658376963535
 20
191.428392645709
 11
173.9658376963535
 21
140.4283926457089
 72
     1
 10
173.9658376963535
 20
140.4283926457089
 11
170.9658376963535
 21
140.4283926457089
 72
     1
 10
170.9658376963535
 20
140.4283926457089
 11
170.9658376963535
 21
191.428392645709
 72
     1
 10
170.9658376963535
 20
191.428392645709
 11
173.9658376963535
 21
191.428392645709
 97
        1
330
82
 75
     0
 76
     1
 98
        1
 10
360.8729449365227
 20
-291.7099002237003
  0
LWPOLYLINE
  5
82
102
{ACAD_REACTORS
330
81
102
}
330
2
100
AcDbEntity
  8
-DICHTUNG
100
AcDbPolyline
 90
        4
 70
     1
 43
0.0
 10
173.9658376963535
 20
191.428392645709
 10
173.9658376963535
 20
140.4283926457089
 10
170.9658376963535
 20
140.4283926457089
 10
170.9658376963535
 20
191.428392645709
  0
LWPOLYLINE
  5
83
330
2
100
AcDbEntity
  8
-PROFILAUSSENKANTET
100
AcDbPolyline
 90
        4
 70
     1
 43
0.0
 10
188.9658376963535
 20
191.9483926457085
 10
188.9658376963535
 20
139.9483926457084
 10
173.9658376963535
 20
139.9483926457084
 10
173.9658376963535
 20
191.9483926457085
  0
LWPOLYLINE
  5
84
330
2
100
AcDbEntity
  8
-PROFILAUSSENKANTET
100
AcDbPolyline
 90
        4
 70
     1
 43
0.0
 10
205.9658376963536
 20
191.9483926457085
 10
205.9658376963536
 20
139.9483926457084
 10
188.9658376963535
 20
139.9483926457084
 10
188.9658376963535
 20
191.9483926457085
  0
LINE
  5
85
330
2
100
AcDbEntity
  8
-VERGLASUNG
100
AcDbLine
 10
170.9658379791973
 20
217.1933594690452
 30
0.0
 11
167.0719630888608
 21
213.2994845787087
 31
0.0
  0
LINE
  5
86
330
2
100
AcDbEntity
  8
-VERGLASUNG
100
AcDbLine
 10
170.9658379791973
 20
218.7558594690452
 30
0.0
 11
167.0719630888603
 21
214.8619845787087
 31
0.0
  0
LINE
  5
87
330
2
100
AcDbEntity
  8
-VERGLASUNG
100
AcDbLine
 10
170.9658379791973
 20
220.3183594690452
 30
0.0
 11
167.0719630888603
 21
216.4244845787087
 31
0.0
  0
LINE
  5
88
330
2
100
AcDbEntity
  8
-VERGLASUNG
100
AcDbLine
 10
170.9658379084864
 20
192.1933594402853
 30
0.0
 11
167.0719630181498
 21
188.2994845499486
 31
0.0
  0
LINE
  5
89
330
2
100
AcDbEntity
  8
-VERGLASUNG
100
AcDbLine
 10
170.9658379084864
 20
195.3183594402853
 30
0.0
 11
167.0719630181494
 21
191.4244845499486
 31
0.0
  0
LINE
  5
8A
330
2
100
AcDbEntity
  8
-VERGLASUNG
100
AcDbLine
 10
170.9658379084864
 20
193.7558594402853
 30
0.0
 11
167.0719630181494
 21
189.8619845499486
 31
0.0
  0
LWPOLYLINE
  5
8B
330
2
100
AcDbEntity
  8
-PROFILAUSSENKANTET
100
AcDbPolyline
 90
        4
 70
     0
 43
0.0
 10
188.9658376963535
 20
191.9483926457085
 10
188.9658376963535
 20
211.9483926457085
 10
200.9658376963535
 20
211.9483926457085
 10
200.9658376963535
 20
191.9483926457085
  0
LINE
  5
8C
330
2
100
AcDbEntity
  8
-NORMTEIL_VERDECKT
100
AcDbLine
 10
164.8323376963536
 20
169.928392645709
 30
0.0
 11
164.8323376963536
 21
161.928392645709
 31
0.0
  0
LINE
  5
8D
330
2
100
AcDbEntity
  8
-VERGLASUNG
100
AcDbLine
 10
170.9658377670645
 20
145.3183593827652
 30
0.0
 11
167.0719628767275
 21
141.4244844924284
 31
0.0
  0
LINE
  5
8E
330
2
100
AcDbEntity
  8
-VERGLASUNG
100
AcDbLine
 10
170.9658377670645
 20
143.7558593827652
 30
0.0
 11
167.0719628767275
 21
139.8619844924284
 31
0.0
  0
LINE
  5
8F
330
2
100
AcDbEntity
  8
-VERGLASUNG
100
AcDbLine
 10
170.9658377670645
 20
142.1933593827652
 30
0.0
 11
167.071962876728
 21
138.2994844924284
 31
0.0
  0
LWPOLYLINE
  5
90
330
2
100
AcDbEntity
  8
-NORMTEIL_VERDECKT
100
AcDbPolyline
 90
        5
 70
     0
 43
0.0
 10
230.9658376963536
 20
171.178392645709
 10
226.9658376963536
 20
171.178392645709
 10
225.9658376963535
 20
169.428392645709
 10
226.9658376963536
 20
167.6783926457092
 10
230.9658376963536
 20
167.678392645709
  0
LINE
  5
91
330
2
100
AcDbEntity
  8
-NORMTEIL_VERDECKT
100
AcDbLine
 10
226.9658376963536
 20
171.178392645709
 30
0.0
 11
226.9658376963536
 21
167.6783926457092
 31
0.0
  0
LWPOLYLINE
  5
92
330
2
100
AcDbEntity
  8
-NORMTEIL_VERDECKT
100
AcDbPolyline
 90
        5
 70
     0
 43
0.0
 10
230.9658376963536
 20
160.6783926457089
 10
226.9658376963536
 20
160.6783926457089
 10
225.9658376963535
 20
158.928392645709
 10
226.9658376963536
 20
157.1783926457092
 10
230.9658376963536
 20
157.178392645709
  0
LINE
  5
93
330
2
100
AcDbEntity
  8
-NORMTEIL_VERDECKT
100
AcDbLine
 10
226.9658376963536
 20
160.6783926457089
 30
0.0
 11
226.9658376963536
 21
157.1783926457092
 31
0.0
  0
LINE
  5
94
330
2
100
AcDbEntity
  8
-VERGLASUNG
100
AcDbLine
 10
157.3597125159782
 20
48.53594491584789
 30
0.0
 11
154.7721602458388
 21
45.94839264570834
 31
0.0
  0
LINE
  5
95
330
2
100
AcDbEntity
  8
-VERGLASUNG
100
AcDbLine
 10
157.3597125159782
 20
46.97344491584789
 30
0.0
 11
156.3346602458388
 21
45.94839264570834
 31
0.0
  0
LINE
  5
96
330
2
100
AcDbEntity
  8
-VERGLASUNG
100
AcDbLine
 10
157.3597125159787
 20
71.97344487389722
 30
0.0
 11
153.4658376963526
 21
68.07957005427119
 31
0.0
  0
LINE
  5
97
330
2
100
AcDbEntity
  8
-VERGLASUNG
100
AcDbLine
 10
157.3597125159787
 20
70.41094487389722
 30
0.0
 11
153.4658376963526
 21
66.51707005427119
 31
0.0
  0
LINE
  5
98
330
2
100
AcDbEntity
  8
-VERGLASUNG
100
AcDbLine
 10
157.3597125159787
 20
73.53594487389722
 30
0.0
 11
153.4658376963526
 21
69.64207005427119
 31
0.0
  0
LINE
  5
99
330
2
100
AcDbEntity
  8
-VERGLASUNG
100
AcDbLine
 10
157.3597125159787
 20
95.41094483194655
 30
0.0
 11
153.4658376963526
 21
91.51707001232052
 31
0.0
  0
LINE
  5
9A
330
2
100
AcDbEntity
  8
-VERGLASUNG
100
AcDbLine
 10
157.3597125159787
 20
96.97344483194655
 30
0.0
 11
153.4658376963526
 21
93.07957001232052
 31
0.0
  0
LINE
  5
9B
330
2
100
AcDbEntity
  8
-VERGLASUNG
100
AcDbLine
 10
157.3597125159787
 20
98.53594483194655
 30
0.0
 11
153.4658376963526
 21
94.64207001232052
 31
0.0
  0
LINE
  5
9C
330
2
100
AcDbEntity
  8
-VERGLASUNG
100
AcDbLine
 10
158.5933897256001
 20
22.34226746533392
 30
0.0
 11
154.699514905974
 21
18.44839264570788
 31
0.0
  0
LINE
  5
9D
330
2
100
AcDbEntity
  8
-VERGLASUNG
100
AcDbLine
 10
157.0308897256001
 20
22.34226746533392
 30
0.0
 11
153.8014263011638
 21
19.11280404089751
 31
0.0
  0
LINE
  5
9E
330
2
100
AcDbEntity
  8
-VERGLASUNG
100
AcDbLine
 10
157.3597125159791
 20
120.4109447899958
 30
0.0
 11
153.4658376963531
 21
116.5170699703698
 31
0.0
  0
LINE
  5
9F
330
2
100
AcDbEntity
  8
-VERGLASUNG
100
AcDbLine
 10
157.3597125159791
 20
121.9734447899958
 30
0.0
 11
153.4658376963531
 21
118.0795699703698
 31
0.0
  0
LINE
  5
A0
330
2
100
AcDbEntity
  8
-VERGLASUNG
100
AcDbLine
 10
157.3597125159791
 20
123.5359447899958
 30
0.0
 11
153.4658376963531
 21
119.6420699703698
 31
0.0
  0
LINE
  5
A1
330
2
100
AcDbEntity
  8
-VERGLASUNG
100
AcDbLine
 10
155.3758042896094
 20
35.94839264570857
 30
0.0
 11
153.4658376963533
 21
34.03842605245262
 31
0.0
  0
LINE
  5
A2
330
2
100
AcDbEntity
  8
-VERGLASUNG
100
AcDbLine
 10
155.4683897256001
 20
22.34226746533392
 30
0.0
 11
153.4658376963533
 21
20.33971543608726
 31
0.0
  0
ARC
  5
A3
330
2
100
AcDbEntity
  8
-PROFILAUSSENKANTET
100
AcDbCircle
 10
215.9658376963536
 20
80.94839264570845
 30
0.0
 40
27.0
100
AcDbArc
 50
180.0
 51
270.0
  0
ARC
  5
A4
330
2
100
AcDbEntity
  8
-PROFILAUSSENKANTET
100
AcDbCircle
 10
215.9658376963536
 20
80.94839264570845
 30
0.0
 40
15.0
100
AcDbArc
 50
180.0
 51
270.0
  0
LINE
  5
A5
330
2
100
AcDbEntity
  8
-VERGLASUNG
100
AcDbLine
 10
170.9658376963535
 20
120.3183593540051
 30
0.0
 11
167.0719628767275
 21
116.4244845343791
 31
0.0
  0
LINE
  5
A6
330
2
100
AcDbEntity
  8
-VERGLASUNG
100
AcDbLine
 10
170.9658376963535
 20
118.7558593540051
 30
0.0
 11
167.0719628767275
 21
114.8619845343791
 31
0.0
  0
LINE
  5
A7
330
2
100
AcDbEntity
  8
-VERGLASUNG
100
AcDbLine
 10
170.9658376963535
 20
117.1933593540051
 30
0.0
 11
167.0719628767275
 21
113.2994845343791
 31
0.0
  0
LINE
  5
A8
330
2
100
AcDbEntity
  8
-VERGLASUNG
100
AcDbLine
 10
170.9658376963535
 20
93.75585939595584
 30
0.0
 11
167.0719628767275
 21
89.8619845763298
 31
0.0
  0
LINE
  5
A9
330
2
100
AcDbEntity
  8
-VERGLASUNG
100
AcDbLine
 10
170.9658376963535
 20
92.19335939595584
 30
0.0
 11
167.0719628767275
 21
88.2994845763298
 31
0.0
  0
LINE
  5
AA
330
2
100
AcDbEntity
  8
-VERGLASUNG
100
AcDbLine
 10
170.9658376963535
 20
95.31835939595584
 30
0.0
 11
167.0719628767275
 21
91.4244845763298
 31
0.0
  0
LINE
  5
AB
330
2
100
AcDbEntity
  8
-VERGLASUNG
100
AcDbLine
 10
170.9658376963531
 20
70.31835943790651
 30
0.0
 11
167.0719628767271
 21
66.42448461828047
 31
0.0
  0
LINE
  5
AC
330
2
100
AcDbEntity
  8
-VERGLASUNG
100
AcDbLine
 10
170.9658376963531
 20
67.19335943790651
 30
0.0
 11
167.0719628767271
 21
63.29948461828047
 31
0.0
  0
LINE
  5
AD
330
2
100
AcDbEntity
  8
-VERGLASUNG
100
AcDbLine
 10
170.9658376963531
 20
68.75585943790651
 30
0.0
 11
167.0719628767271
 21
64.86198461828047
 31
0.0
  0
LINE
  5
AE
330
2
100
AcDbEntity
  8
-VERGLASUNG
100
AcDbLine
 10
178.8133043183694
 20
35.94839264570846
 30
0.0
 11
174.9194294987434
 21
32.05451782608242
 31
0.0
  0
LINE
  5
AF
330
2
100
AcDbEntity
  8
-VERGLASUNG
100
AcDbLine
 10
177.2508043183694
 20
35.94839264570846
 30
0.0
 11
173.3569294987434
 21
32.05451782608242
 31
0.0
  0
LINE
  5
B0
330
2
100
AcDbEntity
  8
-VERGLASUNG
100
AcDbLine
 10
180.3758043183694
 20
35.94839264570846
 30
0.0
 11
176.4819294987434
 21
32.05451782608242
 31
0.0
  0
LINE
  5
B1
330
2
100
AcDbEntity
  8
-VERGLASUNG
100
AcDbLine
 10
202.2508043471295
 20
35.94839264570846
 30
0.0
 11
198.3569295275034
 21
32.05451782608242
 31
0.0
  0
LINE
  5
B2
330
2
100
AcDbEntity
  8
-VERGLASUNG
100
AcDbLine
 10
203.8133043471295
 20
35.94839264570846
 30
0.0
 11
199.9194295275034
 21
32.05451782608242
 31
0.0
  0
LINE
  5
B3
330
2
100
AcDbEntity
  8
-VERGLASUNG
100
AcDbLine
 10
205.3758043471295
 20
35.94839264570846
 30
0.0
 11
201.4819295275034
 21
32.05451782608242
 31
0.0
  0
LINE
  5
B4
330
2
100
AcDbEntity
  8
-VERGLASUNG
100
AcDbLine
 10
228.8133043758895
 20
35.94839264570846
 30
0.0
 11
224.9194295562635
 21
32.05451782608242
 31
0.0
  0
LINE
  5
B5
330
2
100
AcDbEntity
  8
-VERGLASUNG
100
AcDbLine
 10
230.3758043758895
 20
35.94839264570846
 30
0.0
 11
226.4819295562635
 21
32.05451782608242
 31
0.0
  0
LINE
  5
B6
330
2
100
AcDbEntity
  8
-VERGLASUNG
100
AcDbLine
 10
227.2508043758895
 20
35.94839264570846
 30
0.0
 11
223.3569295562635
 21
32.05451782608242
 31
0.0
  0
LINE
  5
B7
330
2
100
AcDbEntity
  8
-VERGLASUNG
100
AcDbLine
 10
255.3758044046495
 20
35.94839264570846
 30
0.0
 11
251.4819295850235
 21
32.05451782608242
 31
0.0
  0
LINE
  5
B8
330
2
100
AcDbEntity
  8
-VERGLASUNG
100
AcDbLine
 10
253.8133044046495
 20
35.94839264570846
 30
0.0
 11
249.9194295850235
 21
32.05451782608242
 31
0.0
  0
LINE
  5
B9
330
2
100
AcDbEntity
  8
-VERGLASUNG
100
AcDbLine
 10
252.2508044046495
 20
35.94839264570846
 30
0.0
 11
248.3569295850235
 21
32.05451782608242
 31
0.0
  0
LINE
  5
BA
330
2
100
AcDbEntity
  8
-VERGLASUNG
100
AcDbLine
 10
208.5933897831202
 20
22.3422674653338
 30
0.0
 11
204.6995149634942
 21
18.44839264570777
 31
0.0
  0
LINE
  5
BB
330
2
100
AcDbEntity
  8
-VERGLASUNG
100
AcDbLine
 10
183.5933897543601
 20
22.3422674653338
 30
0.0
 11
179.6995149347341
 21
18.44839264570777
 31
0.0
  0
LINE
  5
BC
330
2
100
AcDbEntity
  8
-VERGLASUNG
100
AcDbLine
 10
180.4683897543601
 20
22.3422674653338
 30
0.0
 11
176.5745149347341
 21
18.44839264570777
 31
0.0
  0
LINE
  5
BD
330
2
100
AcDbEntity
  8
-VERGLASUNG
100
AcDbLine
 10
182.0308897543601
 20
22.3422674653338
 30
0.0
 11
178.1370149347341
 21
18.44839264570777
 31
0.0
  0
LINE
  5
BE
330
2
100
AcDbEntity
  8
-VERGLASUNG
100
AcDbLine
 10
207.0308897831202
 20
22.3422674653338
 30
0.0
 11
203.1370149634942
 21
18.44839264570777
 31
0.0
  0
LINE
  5
BF
330
2
100
AcDbEntity
  8
-VERGLASUNG
100
AcDbLine
 10
205.4683897831202
 20
22.3422674653338
 30
0.0
 11
201.5745149634942
 21
18.44839264570777
 31
0.0
  0
LINE
  5
C0
330
2
100
AcDbEntity
  8
-VERGLASUNG
100
AcDbLine
 10
232.0308898118802
 20
22.3422674653338
 30
0.0
 11
228.1370149922542
 21
18.44839264570777
 31
0.0
  0
LINE
  5
C1
330
2
100
AcDbEntity
  8
-VERGLASUNG
100
AcDbLine
 10
233.5933898118802
 20
22.3422674653338
 30
0.0
 11
229.6995149922542
 21
18.44839264570777
 31
0.0
  0
LINE
  5
C2
330
2
100
AcDbEntity
  8
-VERGLASUNG
100
AcDbLine
 10
230.4683898118802
 20
22.3422674653338
 30
0.0
 11
226.5745149922542
 21
18.44839264570777
 31
0.0
  0
LINE
  5
C3
330
2
100
AcDbEntity
  8
-VERGLASUNG
100
AcDbLine
 10
258.5933898406403
 20
22.3422674653338
 30
0.0
 11
254.6995150210142
 21
18.44839264570777
 31
0.0
  0
LINE
  5
C4
330
2
100
AcDbEntity
  8
-VERGLASUNG
100
AcDbLine
 10
257.0308898406403
 20
22.3422674653338
 30
0.0
 11
253.1370150210142
 21
18.44839264570777
 31
0.0
  0
LINE
  5
C5
330
2
100
AcDbEntity
  8
-VERGLASUNG
100
AcDbLine
 10
255.4683898406403
 20
22.3422674653338
 30
0.0
 11
251.5745150210142
 21
18.44839264570777
 31
0.0
  0
DIMENSION
  5
C6
330
2
100
AcDbEntity
  8
-TEXT2
100
AcDbDimension
  2
*D5
 10
368.6080446874627
 20
38.96839264570775
 30
0.0
 11
368.6080446874627
 21
37.45839264570816
 31
0.0
 70
   128
 71
     5
 42
3.019999999999299
  3
1-1
100
AcDbAlignedDimension
 13
355.5883140782249
 23
35.94839264570846
 33
0.0
 14
355.5883140782249
 24
38.96839264570775
 34
0.0
 50
90.0
100
AcDbRotatedDimension
  0
DIMENSION
  5
D4
330
2
100
AcDbEntity
  8
-TEXT2
100
AcDbDimension
  2
*D6
 10
368.6080446874627
 20
15.42839264570847
 30
0.0
 11
368.6080446874627
 21
16.93839264570818
 31
0.0
 70
   128
 71
     5
 42
3.019999999999299
  3
1-1
100
AcDbAlignedDimension
 13
355.5883140782249
 23
18.44839264570777
 33
0.0
 14
355.5883140782249
 24
15.42839264570847
 34
0.0
 50
270.0
100
AcDbRotatedDimension
  0
DIMENSION
  5
E2
330
2
100
AcDbEntity
  8
-TEXT3
100
AcDbDimension
  2
*D7
 10
368.6080446874627
 20
7.428392645708454
 30
0.0
 11
365.0551797488542
 21
11.42839264570851
 31
0.0
 71
     5
 42
8.000000000000003
  3
1-1
100
AcDbAlignedDimension
 13
326.9858376963531
 23
15.42839264570847
 33
0.0
 14
310.0025753506522
 24
7.42839264570847
 34
0.0
 50
270.0
100
AcDbRotatedDimension
  0
DIMENSION
  5
EF
330
2
100
AcDbEntity
  8
-TEXT3
100
AcDbDimension
  2
*D8
 10
368.6080446874627
 20
18.44839264570777
 30
0.0
 11
365.022778657449
 21
27.19839264570817
 31
0.0
  1
G
 71
     5
 42
17.50000000000068
  3
1-1
100
AcDbAlignedDimension
 13
355.5883140782249
 23
35.94839264570846
 33
0.0
 14
355.5883140782249
 24
18.44839264570777
 34
0.0
 50
270.0
100
AcDbRotatedDimension
  0
DIMENSION
  5
FC
330
2
100
AcDbEntity
  8
-TEXT3
100
AcDbDimension
  2
*D9
 10
368.6080446874627
 20
38.94839264570844
 30
0.0
 11
365.0551797488542
 21
46.4483926457085
 31
0.0
 71
     5
 42
15.00000000000001
  3
1-1
100
AcDbAlignedDimension
 13
347.0058376963526
 23
53.94839264570845
 33
0.0
 14
326.9858376963531
 24
38.94839264570845
 34
0.0
 50
270.0
100
AcDbRotatedDimension
  0
DIMENSION
  5
109
330
2
100
AcDbEntity
  8
-TEXT3
100
AcDbDimension
  2
*D10
 10
368.6080446874627
 20
65.94839264570843
 30
0.0
 11
368.6080446874627
 21
59.9483926457085
 31
0.0
 70
   128
  1
%%c<>
 71
     5
 42
11.99999999999999
  3
1-1
100
AcDbAlignedDimension
 13
347.0058376963526
 23
53.94839264570845
 33
0.0
 14
347.0058376963526
 24
65.94839264570845
 34
0.0
 50
270.0
100
AcDbRotatedDimension
  0
LINE
  5
116
330
2
100
AcDbEntity
  8
-SYSTEM
100
AcDbLine
 10
300.9658376963536
 20
2.056125154097742
 30
0.0
 11
300.9658376963536
 21
100.0856117139421
 31
0.0
  0
LWPOLYLINE
  5
117
330
2
100
AcDbEntity
  8
-NORMTEIL_VERDECKT
100
AcDbPolyline
 90
        4
 70
     1
 43
0.0
 10
309.9858376963531
 20
35.94839264570846
 10
311.4858376963531
 20
35.94839264570846
 10
311.4858376963531
 20
18.42839264570847
 10
309.9858376963531
 20
18.42839264570847
  0
LWPOLYLINE
  5
118
330
2
100
AcDbEntity
  8
-NORMTEIL_VERDECKT
100
AcDbPolyline
 90
        4
 70
     1
 43
0.0
 10
291.9858376963531
 20
35.94839264570846
 10
290.4858376963531
 20
35.94839264570846
 10
290.4858376963531
 20
18.42839264570847
 10
291.9858376963531
 20
18.42839264570847
  0
DIMENSION
  5
119
330
2
100
AcDbEntity
  8
-TEXT3
100
AcDbDimension
  2
*D11
 10
347.0058376963526
 20
113.8279029914871
 30
0.0
 11
323.9858376963531
 21
117.3807679300956
 31
0.0
 71
     5
 42
46.03999999999905
  3
1-1
100
AcDbAlignedDimension
 13
300.9658376963536
 23
100.0856117139421
 33
0.0
 14
347.0058376963526
 24
65.94839264570845
 34
0.0
100
AcDbRotatedDimension
  0
LWPOLYLINE
  5
126
330
2
100
AcDbEntity
  8
-PROFILAUSSENKANTET
100
AcDbPolyline
 90
        4
 70
     1
 43
0.0
 10
327.0058376963526
 20
53.94839264570845
 10
275.0058376963526
 20
53.94839264570845
 10
275.0058376963526
 20
38.94839264570845
 10
327.0058376963526
 20
38.94839264570845
  0
LWPOLYLINE
  5
127
330
2
100
AcDbEntity
  8
-PROFILAUSSENKANTET
100
AcDbPolyline
 90
        4
 70
     1
 43
0.0
 10
327.0058376963526
 20
70.94839264570845
 10
275.0058376963526
 20
70.94839264570845
 10
275.0058376963526
 20
53.94839264570845
 10
327.0058376963526
 20
53.94839264570845
  0
LWPOLYLINE
  5
128
330
2
100
AcDbEntity
  8
-PROFILAUSSENKANTET
100
AcDbPolyline
 90
        6
 70
     1
 43
0.0
 10
324.0058376963526
 20
95.94839264570845
 10
278.0058376963526
 20
95.94839264570845
 42
0.4142135623730951
 10
275.0058376963526
 20
92.94839264570844
 10
275.0058376963526
 20
70.94839264570845
 10
327.0058376963526
 20
70.94839264570845
 10
327.0058376963526
 20
92.94839264570844
 42
0.4142135623730951
  0
HATCH
  5
129
330
2
100
AcDbEntity
  8
-SCHRAFFUR
100
AcDbHatch
 10
0.0
 20
0.0
 30
0.0
210
0.0
220
0.0
230
1.0
  2
SOLID
 70
     1
 71
     1
 91
        1
 92
        1
 93
        4
 72
     1
 10
326.4858376963531
 20
38.94839264570845
 11
275.4858376963531
 21
38.94839264570845
 72
     1
 10
275.4858376963531
 20
38.94839264570845
 11
275.4858376963531
 21
35.94839264570846
 72
     1
 10
275.4858376963531
 20
35.94839264570846
 11
326.4858376963531
 21
35.94839264570846
 72
     1
 10
326.4858376963531
 20
35.94839264570846
 11
326.4858376963531
 21
38.94839264570845
 97
        1
330
12A
 75
     0
 76
     1
 98
        1
 10
-156.6524551730561
 20
225.8554998858774
  0
LWPOLYLINE
  5
12A
102
{ACAD_REACTORS
330
129
102
}
330
2
100
AcDbEntity
  8
-DICHTUNG
100
AcDbPolyline
 90
        4
 70
     1
 43
0.0
 10
326.4858376963531
 20
38.94839264570845
 10
275.4858376963531
 20
38.94839264570845
 10
275.4858376963531
 20
35.94839264570846
 10
326.4858376963531
 20
35.94839264570846
  0
LWPOLYLINE
  5
12B
330
2
100
AcDbEntity
  8
-NORMTEIL_VERDECKT
100
AcDbPolyline
 90
        5
 70
     0
 43
0.0
 10
295.7358376963531
 20
95.94839264570845
 10
295.7358376963531
 20
91.94839264570845
 10
293.9858376963531
 20
90.94839264570845
 10
292.2358376963535
 20
91.94839264570845
 10
292.2358376963531
 20
95.94839264570845
  0
LINE
  5
12C
330
2
100
AcDbEntity
  8
-NORMTEIL_VERDECKT
100
AcDbLine
 10
295.7358376963531
 20
91.94839264570845
 30
0.0
 11
292.2358376963535
 21
91.94839264570845
 31
0.0
  0
LWPOLYLINE
  5
12D
330
2
100
AcDbEntity
  8
-NORMTEIL_VERDECKT
100
AcDbPolyline
 90
        5
 70
     0
 43
0.0
 10
306.2358376963531
 20
95.94839264570845
 10
306.2358376963531
 20
91.94839264570845
 10
304.4858376963531
 20
90.94839264570845
 10
302.7358376963535
 20
91.94839264570845
 10
302.7358376963531
 20
95.94839264570845
  0
LINE
  5
12E
330
2
100
AcDbEntity
  8
-NORMTEIL_VERDECKT
100
AcDbLine
 10
306.2358376963531
 20
91.94839264570845
 30
0.0
 11
302.7358376963535
 21
91.94839264570845
 31
0.0
  0
LINE
  5
12F
330
2
100
AcDbEntity
  8
-VERGLASUNG
100
AcDbLine
 10
280.3758044334096
 20
35.94839271641939
 30
0.0
 11
276.4819295430726
 21
32.05451782608242
 31
0.0
  0
LINE
  5
130
330
2
100
AcDbEntity
  8
-VERGLASUNG
100
AcDbLine
 10
278.8133044334096
 20
35.94839271641939
 30
0.0
 11
274.9194295430726
 21
32.05451782608242
 31
0.0
  0
LINE
  5
131
330
2
100
AcDbEntity
  8
-VERGLASUNG
100
AcDbLine
 10
277.2508044334096
 20
35.94839271641939
 30
0.0
 11
273.3569295430726
 21
32.05451782608264
 31
0.0
  0
DIMENSION
  5
132
330
2
100
AcDbEntity
  8
-TEXT3
100
AcDbDimension
  2
*D12
 10
339.9825974840536
 20
95.94839264570845
 30
0.0
 11
339.9825974840536
 21
70.71131806978491
 31
0.0
 70
   128
 71
     5
 42
57.0
  3
1-1
100
AcDbAlignedDimension
 13
327.0058376963526
 23
38.94839264570845
 33
0.0
 14
324.0058376963526
 24
95.94839264570845
 34
0.0
 50
270.0
100
AcDbRotatedDimension
  0
LWPOLYLINE
  5
13F
330
2
100
AcDbEntity
  8
-PROFILAUSSENKANTET
100
AcDbPolyline
 90
        4
 70
     0
 43
0.0
 10
327.0058376963526
 20
53.94839264570845
 10
347.0058376963526
 20
53.94839264570845
 10
347.0058376963526
 20
65.94839264570845
 10
327.0058376963526
 20
65.94839264570845
  0
LINE
  5
140
330
2
100
AcDbEntity
  8
-VERGLASUNG
100
AcDbLine
 10
327.2508044909297
 20
35.94839285784127
 30
0.0
 11
323.3569296005927
 21
32.05451796750452
 31
0.0
  0
LINE
  5
141
330
2
100
AcDbEntity
  8
-VERGLASUNG
100
AcDbLine
 10
328.8133044909297
 20
35.94839285784127
 30
0.0
 11
324.9194296005927
 21
32.0545179675043
 31
0.0
  0
LINE
  5
142
330
2
100
AcDbEntity
  8
-VERGLASUNG
100
AcDbLine
 10
330.3758044909297
 20
35.94839285784127
 30
0.0
 11
326.4819296005927
 21
32.0545179675043
 31
0.0
  0
LINE
  5
143
330
2
100
AcDbEntity
  8
-VERGLASUNG
100
AcDbLine
 10
352.2508045196893
 20
35.94839292855221
 30
0.0
 11
348.3569296293528
 21
32.05451803821546
 31
0.0
  0
LINE
  5
144
330
2
100
AcDbEntity
  8
-VERGLASUNG
100
AcDbLine
 10
353.8133045196893
 20
35.94839292855221
 30
0.0
 11
349.9194296293528
 21
32.05451803821524
 31
0.0
  0
LINE
  5
145
330
2
100
AcDbEntity
  8
-VERGLASUNG
100
AcDbLine
 10
355.3758045196893
 20
35.94839292855221
 30
0.0
 11
351.4819296293528
 21
32.05451803821524
 31
0.0
  0
HATCH
  5
146
330
2
100
AcDbEntity
  8
-SCHRAFFUR
100
AcDbHatch
 10
0.0
 20
0.0
 30
0.0
210
0.0
220
0.0
230
1.0
  2
SOLID
 70
     1
 71
     1
 91
        1
 92
        1
 93
        4
 72
     1
 10
326.4858376963531
 20
18.42839264570847
 11
275.4858376963531
 21
18.42839264570847
 72
     1
 10
275.4858376963531
 20
18.42839264570847
 11
275.4858376963531
 21
15.42839264570847
 72
     1
 10
275.4858376963531
 20
15.42839264570847
 11
326.4858376963531
 21
15.42839264570847
 72
     1
 10
326.4858376963531
 20
15.42839264570847
 11
326.4858376963531
 21
18.42839264570847
 97
        1
330
147
 75
     0
 76
     1
 98
        1
 10
-156.6524551730561
 20
225.8554998858774
  0
LWPOLYLINE
  5
147
102
{ACAD_REACTORS
330
146
102
}
330
2
100
AcDbEntity
  8
-DICHTUNG
100
AcDbPolyline
 90
        4
 70
     1
 43
0.0
 10
326.4858376963531
 20
18.42839264570847
 10
275.4858376963531
 20
18.42839264570847
 10
275.4858376963531
 20
15.42839264570847
 10
326.4858376963531
 20
15.42839264570847
  0
LWPOLYLINE
  5
148
330
2
100
AcDbEntity
  8
-PROFILAUSSENKANTET
100
AcDbPolyline
 90
       11
 70
     0
 43
0.0
 10
326.9858376963531
 20
15.42839264570847
 10
274.9858376963531
 20
15.42839264570847
 10
274.9858376963531
 20
11.62264682247581
 42
0.375901963977188
 10
276.7215102561714
 20
9.64019102111041
 10
290.0874342777421
 20
7.472253142295301
 42
0.033150018187446
 10
290.7482528781971
 20
7.42839264570847
 10
310.0025753506522
 20
7.42839264570847
 42
0.0413106451481675
 10
310.8245702871788
 20
7.496423026547688
 10
325.3146356709641
 20
9.649858974810229
 42
0.3666293647015966
 10
326.9858376963531
 20
11.62264682247468
 10
326.9858376963531
 20
15.42839264570847
  0
DIMENSION
  5
149
330
2
100
AcDbEntity
  8
-SCHRAFFUR
100
AcDbDimension
  2
*D13
 10
274.9858376963531
 20
-3.488084591368817
 30
0.0
 11
300.9858376963531
 21
0.2046166364620148
 31
0.0
  1
%%c<>
 71
     5
 42
52.0
  3
1-1
100
AcDbAlignedDimension
 13
326.9858376963531
 23
11.83866939563739
 33
0.0
 14
274.9858376963531
 24
11.62264682247581
 34
0.0
100
AcDbRotatedDimension
  0
LINE
  5
156
330
2
100
AcDbEntity
  8
-VERGLASUNG
100
AcDbLine
 10
282.0308898694003
 20
22.34226753604452
 30
0.0
 11
278.1370149790634
 21
18.448392645708
 31
0.0
  0
LINE
  5
157
330
2
100
AcDbEntity
  8
-VERGLASUNG
100
AcDbLine
 10
280.4683898694003
 20
22.34226753604474
 30
0.0
 11
276.5745149790634
 21
18.448392645708
 31
0.0
  0
LINE
  5
158
330
2
100
AcDbEntity
  8
-VERGLASUNG
100
AcDbLine
 10
283.5933898694003
 20
22.34226753604474
 30
0.0
 11
279.6995149790634
 21
18.448392645708
 31
0.0
  0
LINE
  5
159
330
2
100
AcDbEntity
  8
-NORMTEIL_VERDECKT
100
AcDbLine
 10
304.9858376963531
 20
29.81489264570854
 30
0.0
 11
296.9858376963531
 21
29.81489264570854
 31
0.0
  0
LWPOLYLINE
  5
15A
330
2
100
AcDbEntity
  8
-NORMTEIL_VERDECKT
100
AcDbPolyline
 90
        2
 70
     0
 43
0.0
 10
291.9858376963531
 20
21.18839264570846
 10
304.9858376963531
 20
21.18839264570846
  0
LWPOLYLINE
  5
15B
330
2
100
AcDbEntity
  8
-NORMTEIL_VERDECKT
100
AcDbPolyline
 90
       12
 70
     0
 43
0.0
 10
303.9858376963531
 20
15.42839264570847
 10
303.9858376963531
 20
18.90463221500494
 42
-0.2679491924311227
 10
304.2858376963533
 20
19.42424745727561
 10
304.9858376963531
 20
19.82839264570833
 10
304.9858376963531
 20
29.81489264570854
 10
304.3723376963531
 20
30.42839264570847
 10
297.599337696353
 20
30.42839264570847
 10
296.9858376963531
 20
29.81489264570854
 10
296.9858376963531
 20
19.82839264570833
 10
297.6858376963529
 20
19.42424745727561
 42
-0.2679491924311224
 10
297.9858376963531
 20
18.90463221500494
 10
297.9858376963531
 20
15.42839264570847
  0
LINE
  5
15C
330
2
100
AcDbEntity
  8
-NORMTEIL_VERDECKT
100
AcDbLine
 10
297.599337696353
 20
30.42839264570847
 30
0.0
 11
297.599337696353
 21
19.47418825556059
 31
0.0
  0
LINE
  5
15D
330
2
100
AcDbEntity
  8
-NORMTEIL_VERDECKT
100
AcDbLine
 10
295.7358376963531
 20
11.42839264570847
 30
0.0
 11
292.2358376963535
 21
11.42839264570847
 31
0.0
  0
LWPOLYLINE
  5
15E
330
2
100
AcDbEntity
  8
-NORMTEIL_VERDECKT
100
AcDbPolyline
 90
        5
 70
     0
 43
0.0
 10
295.7358376963531
 20
7.42839264570847
 10
295.7358376963531
 20
11.42839264570847
 10
293.9858376963531
 20
12.42839264570847
 10
292.2358376963535
 20
11.42839264570847
 10
292.2358376963531
 20
7.42839264570847
  0
LWPOLYLINE
  5
15F
330
2
100
AcDbEntity
  8
-NORMTEIL_VERDECKT
100
AcDbPolyline
 90
        2
 70
     0
 43
0.0
 10
304.9858376963531
 20
21.18839264570846
 10
309.9858376963531
 20
21.18839264570846
  0
LINE
  5
160
330
2
100
AcDbEntity
  8
-NORMTEIL_VERDECKT
100
AcDbLine
 10
304.3723376963531
 20
30.42839264570847
 30
0.0
 11
304.3723376963531
 21
19.47418825556059
 31
0.0
  0
LINE
  5
161
330
2
100
AcDbEntity
  8
-NORMTEIL_VERDECKT
100
AcDbLine
 10
306.2358376963531
 20
11.42839264570847
 30
0.0
 11
302.7358376963535
 21
11.42839264570847
 31
0.0
  0
LWPOLYLINE
  5
162
330
2
100
AcDbEntity
  8
-NORMTEIL_VERDECKT
100
AcDbPolyline
 90
        5
 70
     0
 43
0.0
 10
306.2358376963531
 20
7.42839264570847
 10
306.2358376963531
 20
11.42839264570847
 10
304.4858376963531
 20
12.42839264570847
 10
302.7358376963535
 20
11.42839264570847
 10
302.7358376963531
 20
7.42839264570847
  0
LINE
  5
163
330
2
100
AcDbEntity
  8
-VERGLASUNG
100
AcDbLine
 10
333.5933899269204
 20
22.34226767746662
 30
0.0
 11
329.6995150365834
 21
18.44839278712987
 31
0.0
  0
LINE
  5
164
330
2
100
AcDbEntity
  8
-VERGLASUNG
100
AcDbLine
 10
332.0308899269204
 20
22.3422676774664
 30
0.0
 11
328.1370150365834
 21
18.44839278712987
 31
0.0
  0
LINE
  5
165
330
2
100
AcDbEntity
  8
-VERGLASUNG
100
AcDbLine
 10
330.4683899269204
 20
22.34226767746662
 30
0.0
 11
326.5745150365834
 21
18.44839278712987
 31
0.0
  0
LINE
  5
166
330
2
100
AcDbEntity
  8
-VERGLASUNG
100
AcDbLine
 10
355.4683899556804
 20
22.34226774817756
 30
0.0
 11
351.5745150653434
 21
18.44839285784081
 31
0.0
  0
LINE
  5
167
330
2
100
AcDbEntity
  8
-VERGLASUNG
100
AcDbLine
 10
357.0308899556804
 20
22.34226774817734
 30
0.0
 11
353.1370150653434
 21
18.44839285784081
 31
0.0
  0
LINE
  5
168
330
2
100
AcDbEntity
  8
-VERGLASUNG
100
AcDbLine
 10
358.5933899556804
 20
22.34226774817756
 30
0.0
 11
354.6995150653434
 21
18.44839285784081
 31
0.0
  0
DIMENSION
  5
169
330
2
100
AcDbEntity
  8
-TEXT3
100
AcDbDimension
  2
*D16
 10
368.6080446874626
 20
377.4860713592842
 30
0.0
 11
368.6080446874626
 21
398.7616511682885
 31
0.0
 70
   128
  1
%%c<>
 71
     5
 42
12.0
  3
1-1
100
AcDbAlignedDimension
 13
346.9658376963534
 23
389.4860713592842
 33
0.0
 14
346.9658376963534
 24
377.4860713592842
 34
0.0
 50
90.0
100
AcDbRotatedDimension
  0
DIMENSION
  5
177
330
2
100
AcDbEntity
  8
-TEXT3
100
AcDbDimension
  2
*D15
 10
368.6080446874626
 20
362.4860713592842
 30
0.0
 11
368.6080446874626
 21
341.2104915502802
 31
0.0
 70
   128
  1
%%c<>
 71
     5
 42
12.0
  3
1-1
100
AcDbAlignedDimension
 13
346.9658376963534
 23
350.4860713592842
 33
0.0
 14
346.9658376963534
 24
362.4860713592842
 34
0.0
 50
270.0
100
AcDbRotatedDimension
  0
DIMENSION
  5
185
330
2
100
AcDbEntity
  8
-TEXT3
100
AcDbDimension
  2
*D14
 10
368.6080446874626
 20
362.4860713592842
 30
0.0
 11
365.055179748854
 21
369.9860713592843
 31
0.0
 71
     5
 42
15.0
  3
1-1
100
AcDbAlignedDimension
 13
346.9658376963534
 23
377.4860713592842
 33
0.0
 14
346.9658376963534
 24
362.4860713592842
 34
0.0
 50
90.0
100
AcDbRotatedDimension
  0
CIRCLE
  5
192
330
2
100
AcDbEntity
  8
-SCHRAFFUR
100
AcDbCircle
 10
307.9658376963534
 20
369.9860713592842
 30
0.0
 40
1.75
  0
CIRCLE
  5
193
330
2
100
AcDbEntity
  8
-SCHRAFFUR
100
AcDbCircle
 10
297.4658376963534
 20
376.0482491857753
 30
0.0
 40
1.75
  0
CIRCLE
  5
194
330
2
100
AcDbEntity
  8
-SCHRAFFUR
100
AcDbCircle
 10
297.4658376963534
 20
363.923893532793
 30
0.0
 40
1.75
  0
CIRCLE
  5
195
330
2
100
AcDbEntity
  8
-SCHRAFFUR
100
AcDbCircle
 10
300.9658376963534
 20
369.9860713592842
 30
0.0
 40
24.0
  0
CIRCLE
  5
196
330
2
100
AcDbEntity
  8
-SCHRAFFUR
100
AcDbCircle
 10
300.9658376963534
 20
369.9860713592842
 30
0.0
 40
10.0
  0
CIRCLE
  5
197
330
2
100
AcDbEntity
  8
-PROFILAUSSENKANTET
100
AcDbCircle
 10
300.9658376963534
 20
369.9860713592842
 30
0.0
 40
26.0
  0
LINE
  5
198
330
2
100
AcDbEntity
  8
-SYSTEM
100
AcDbLine
 10
300.9658376963534
 20
409.197865983222
 30
0.0
 11
300.9658376963534
 21
330.7742767353464
 31
0.0
  0
LINE
  5
199
330
2
100
AcDbEntity
  8
-SYSTEM
100
AcDbLine
 10
340.1776323202912
 20
369.9860713592842
 30
0.0
 11
137.8446331340703
 21
369.9860713592842
 31
0.0
  0
LWPOLYLINE
  5
19A
330
2
100
AcDbEntity
  8
-NORMTEIL_VERDECKT
100
AcDbPolyline
 90
        4
 70
     0
 43
0.0
 10
318.163221218273
 20
389.4860713592842
 10
346.9658376963534
 20
389.4860713592842
 10
346.9658376963534
 20
377.4860713592842
 10
325.8606162653623
 20
377.4860713592842
  0
LWPOLYLINE
  5
19B
330
2
100
AcDbEntity
  8
-NORMTEIL_VERDECKT
100
AcDbPolyline
 90
        4
 70
     0
 43
0.0
 10
318.163221218273
 20
350.4860713592842
 10
346.9658376963534
 20
350.4860713592842
 10
346.9658376963534
 20
362.4860713592842
 10
325.8606162653623
 20
362.4860713592842
  0
LINE
  5
19C
330
2
100
AcDbEntity
  8
-NORMTEIL_VERDECKT
100
AcDbLine
 10
283.7684541744334
 20
389.4860713592842
 30
0.0
 11
188.9658376963535
 21
389.4860713592842
 31
0.0
  0
LINE
  5
19D
330
2
100
AcDbEntity
  8
-NORMTEIL_VERDECKT
100
AcDbLine
 10
276.0710591273441
 20
377.4860713592842
 30
0.0
 11
188.9658376963535
 21
377.4860713592842
 31
0.0
  0
LINE
  5
19E
330
2
100
AcDbEntity
  8
-NORMTEIL_VERDECKT
100
AcDbLine
 10
276.0710591273441
 20
362.4860713592842
 30
0.0
 11
188.9658376963535
 21
362.4860713592842
 31
0.0
  0
LINE
  5
19F
330
2
100
AcDbEntity
  8
-NORMTEIL_VERDECKT
100
AcDbLine
 10
283.7684541744334
 20
350.4860713592842
 30
0.0
 11
188.9658376963535
 21
350.4860713592842
 31
0.0
  0
LINE
  5
1A0
330
2
100
AcDbEntity
  8
-NORMTEIL_VERDECKT
100
AcDbLine
 10
226.9658376963536
 20
364.7160713592847
 30
0.0
 11
226.9658376963536
 21
361.2160713592849
 31
0.0
  0
LWPOLYLINE
  5
1A1
330
2
100
AcDbEntity
  8
-NORMTEIL_VERDECKT
100
AcDbPolyline
 90
        5
 70
     0
 43
0.0
 10
230.9658376963536
 20
364.7160713592847
 10
226.9658376963536
 20
364.7160713592847
 10
225.9658376963535
 20
362.9660713592847
 10
226.9658376963536
 20
361.2160713592849
 10
230.9658376963536
 20
361.2160713592847
  0
LINE
  5
1A2
330
2
100
AcDbEntity
  8
-NORMTEIL_VERDECKT
100
AcDbLine
 10
226.9658376963536
 20
375.2160713592847
 30
0.0
 11
226.9658376963536
 21
371.7160713592849
 31
0.0
  0
LWPOLYLINE
  5
1A3
330
2
100
AcDbEntity
  8
-NORMTEIL_VERDECKT
100
AcDbPolyline
 90
        5
 70
     0
 43
0.0
 10
230.9658376963536
 20
375.2160713592847
 10
226.9658376963536
 20
375.2160713592847
 10
225.9658376963535
 20
373.4660713592847
 10
226.9658376963536
 20
371.7160713592849
 10
230.9658376963536
 20
371.7160713592847
  0
LINE
  5
1A4
330
2
100
AcDbEntity
  8
-NORMTEIL_VERDECKT
100
AcDbLine
 10
164.8323376963536
 20
373.9660713592847
 30
0.0
 11
164.8323376963536
 21
365.9660713592847
 31
0.0
  0
LWPOLYLINE
  5
1A5
330
2
100
AcDbEntity
  8
-NORMTEIL_VERDECKT
100
AcDbPolyline
 90
        4
 70
     1
 43
0.0
 10
205.9658376963536
 20
395.9860713592842
 10
205.9658376963536
 20
343.9860713592841
 10
188.9658376963535
 20
343.9860713592841
 10
188.9658376963535
 20
395.9860713592842
  0
LWPOLYLINE
  5
1A6
330
2
100
AcDbEntity
  8
-NORMTEIL_VERDECKT
100
AcDbPolyline
 90
        4
 70
     1
 43
0.0
 10
188.9658376963535
 20
395.9860713592842
 10
188.9658376963535
 20
343.9860713592841
 10
173.9658376963535
 20
343.9860713592841
 10
173.9658376963535
 20
395.9860713592842
  0
LWPOLYLINE
  5
1A7
330
2
100
AcDbEntity
  8
-NORMTEIL_VERDECKT
100
AcDbPolyline
 90
        6
 70
     1
 43
0.0
 10
230.9658376963536
 20
392.9860713592842
 10
230.9658376963536
 20
346.9860713592841
 42
-0.4142135623730951
 10
227.9658376963535
 20
343.9860713592841
 10
205.9658376963536
 20
343.9860713592841
 10
205.9658376963536
 20
395.9860713592842
 10
227.9658376963535
 20
395.9860713592842
 42
-0.4142135623730951
  0
LINE
  5
1A8
330
2
100
AcDbEntity
  8
-NORMTEIL_VERDECKT
100
AcDbLine
 10
146.4458376963535
 20
364.7160713592847
 30
0.0
 11
146.4458376963535
 21
361.2160713592849
 31
0.0
  0
LWPOLYLINE
  5
1A9
330
2
100
AcDbEntity
  8
-NORMTEIL_VERDECKT
100
AcDbPolyline
 90
        2
 70
     0
 43
0.0
 10
156.2058376963538
 20
373.9660713592847
 10
156.2058376963538
 20
378.9660713592847
  0
LINE
  5
1AA
330
2
100
AcDbEntity
  8
-NORMTEIL_VERDECKT
100
AcDbLine
 10
146.4458376963535
 20
375.2160713592847
 30
0.0
 11
146.4458376963535
 21
371.7160713592849
 31
0.0
  0
LWPOLYLINE
  5
1AB
330
2
100
AcDbEntity
  8
-NORMTEIL_VERDECKT
100
AcDbPolyline
 90
        2
 70
     0
 43
0.0
 10
156.2058376963538
 20
360.9660713592847
 10
156.2058376963538
 20
373.9660713592847
  0
LWPOLYLINE
  5
1AC
330
2
100
AcDbEntity
  8
-NORMTEIL_VERDECKT
100
AcDbPolyline
 90
        5
 70
     0
 43
0.0
 10
142.4458376963535
 20
375.2160713592847
 10
146.4458376963535
 20
375.2160713592847
 10
147.4458376963536
 20
373.4660713592847
 10
146.4458376963535
 20
371.7160713592849
 10
142.4458376963535
 20
371.7160713592847
  0
LWPOLYLINE
  5
1AD
330
2
100
AcDbEntity
  8
-NORMTEIL_VERDECKT
100
AcDbPolyline
 90
        5
 70
     0
 43
0.0
 10
142.4458376963535
 20
364.7160713592847
 10
146.4458376963535
 20
364.7160713592847
 10
147.4458376963536
 20
362.9660713592847
 10
146.4458376963535
 20
361.2160713592849
 10
142.4458376963535
 20
361.2160713592847
  0
DIMENSION
  5
1AE
330
2
100
AcDbEntity
  8
-SCHRAFFUR
100
AcDbDimension
  2
*D17
 10
131.5293604592763
 20
343.9660713592846
 30
0.0
 11
127.8366592314454
 21
369.9660713592847
 31
0.0
  1
%%c<>
 71
     5
 42
52.00000000000011
  3
1-1
100
AcDbAlignedDimension
 13
146.8561144462825
 23
395.9660713592847
 33
0.0
 14
146.6400918731211
 24
343.9660713592846
 34
0.0
 50
90.0
100
AcDbRotatedDimension
  0
LWPOLYLINE
  5
1BB
330
2
100
AcDbEntity
  8
-PROFILAUSSENKANTET
100
AcDbPolyline
 90
       11
 70
     0
 43
0.0
 10
150.4458376963536
 20
395.9660713592847
 10
150.4458376963536
 20
343.9660713592846
 10
146.6400918731211
 20
343.9660713592846
 42
-0.375901963977188
 10
144.6576360717555
 20
345.7017439191027
 10
142.4896981929406
 20
359.0676679406735
 42
-0.033150018187446
 10
142.4458376963535
 20
359.7284865411285
 10
142.4458376963535
 20
378.9828090135835
 42
-0.0413106451481675
 10
142.513868077193
 20
379.8048039501103
 10
144.6673040254555
 20
394.2948693338955
 42
-0.3666293647015966
 10
146.6400918731198
 20
395.9660713592847
 10
150.4458376963536
 20
395.9660713592847
  0
LWPOLYLINE
  5
1BC
102
{ACAD_REACTORS
330
1BD
102
}
330
2
100
AcDbEntity
  8
-DICHTUNG
100
AcDbPolyline
 90
        4
 70
     1
 43
0.0
 10
153.4458376963535
 20
395.4660713592847
 10
153.4458376963535
 20
344.4660713592846
 10
150.4458376963536
 20
344.4660713592846
 10
150.4458376963536
 20
395.4660713592847
  0
HATCH
  5
1BD
330
2
100
AcDbEntity
  8
-SCHRAFFUR
100
AcDbHatch
 10
0.0
 20
0.0
 30
0.0
210
0.0
220
0.0
230
1.0
  2
SOLID
 70
     1
 71
     1
 91
        1
 92
        1
 93
        4
 72
     1
 10
153.4458376963535
 20
395.4660713592847
 11
153.4458376963535
 21
344.4660713592846
 72
     1
 10
153.4458376963535
 20
344.4660713592846
 11
150.4458376963536
 21
344.4660713592846
 72
     1
 10
150.4458376963536
 20
344.4660713592846
 11
150.4458376963536
 21
395.4660713592847
 72
     1
 10
150.4458376963536
 20
395.4660713592847
 11
153.4458376963535
 21
395.4660713592847
 97
        1
330
1BC
 75
     0
 76
     1
 98
        1
 10
360.8729449365227
 20
-87.67222151012465
  0
LWPOLYLINE
  5
1BE
330
2
100
AcDbEntity
  8
-NORMTEIL_VERDECKT
100
AcDbPolyline
 90
        4
 70
     1
 43
0.0
 10
170.9658376963535
 20
378.9660713592847
 10
170.9658376963535
 20
380.4660713592847
 10
153.4458376963535
 20
380.4660713592847
 10
153.4458376963535
 20
378.9660713592847
  0
LINE
  5
1BF
330
2
100
AcDbEntity
  8
-NORMTEIL_VERDECKT
100
AcDbLine
 10
165.4458376963536
 20
373.3525713592848
 30
0.0
 11
154.4916333062057
 21
373.3525713592848
 31
0.0
  0
LINE
  5
1C0
330
2
100
AcDbEntity
  8
-NORMTEIL_VERDECKT
100
AcDbLine
 10
165.4458376963536
 20
366.5795713592846
 30
0.0
 11
154.4916333062057
 21
366.5795713592846
 31
0.0
  0
LWPOLYLINE
  5
1C1
330
2
100
AcDbEntity
  8
-NORMTEIL_VERDECKT
100
AcDbPolyline
 90
       12
 70
     0
 43
0.0
 10
150.4458376963536
 20
372.9660713592847
 10
153.92207726565
 20
372.9660713592847
 42
0.2679491924311227
 10
154.4416925079209
 20
373.2660713592849
 10
154.8458376963536
 20
373.9660713592847
 10
164.8323376963536
 20
373.9660713592847
 10
165.4458376963536
 20
373.3525713592848
 10
165.4458376963536
 20
366.5795713592846
 10
164.8323376963536
 20
365.9660713592847
 10
154.8458376963536
 20
365.9660713592847
 10
154.4416925079209
 20
366.6660713592845
 42
0.2679491924311224
 10
153.92207726565
 20
366.9660713592847
 10
150.4458376963536
 20
366.9660713592847
  0
LWPOLYLINE
  5
1C2
330
2
100
AcDbEntity
  8
-NORMTEIL_VERDECKT
100
AcDbPolyline
 90
        4
 70
     1
 43
0.0
 10
170.9658376963535
 20
360.9660713592847
 10
170.9658376963535
 20
359.4660713592847
 10
153.4458376963535
 20
359.4660713592847
 10
153.4458376963535
 20
360.9660713592847
  0
LINE
  5
1C3
330
2
100
AcDbEntity
  8
-DICHTUNG
100
AcDbLine
 10
173.9658376963535
 20
344.4660713592846
 30
0.0
 11
170.9658376963535
 21
344.4660713592846
 31
0.0
  0
LINE
  5
1C4
330
2
100
AcDbEntity
  8
-DICHTUNG
100
AcDbLine
 10
170.9658376963535
 20
395.4660713592847
 30
0.0
 11
173.9658376963535
 21
395.4660713592847
 31
0.0
  0
CIRCLE
  5
1C5
330
2
100
AcDbEntity
  8
-NORMTEIL_VERDECKT
100
AcDbCircle
 10
194.9658376963535
 20
356.4860713592842
 30
0.0
 40
6.0
  0
CIRCLE
  5
1C6
330
2
100
AcDbEntity
  8
-NORMTEIL_VERDECKT
100
AcDbCircle
 10
194.9658376963535
 20
383.4860713592841
 30
0.0
 40
6.0
  0
ENDSEC
  0
SECTION
  2
OBJECTS
  0
DICTIONARY
  5
7
330
0
100
AcDbDictionary
281
     1
  3
ACAD_COLOR
350
1E1
  3
ACAD_GROUP
350
1DD
  3
ACAD_LAYOUT
350
1C9
  3
ACAD_MATERIAL
350
1E0
  3
ACAD_MLINESTYLE
350
1DE
  3
ACAD_PLOTSETTINGS
350
1DF
  3
ACAD_PLOTSTYLENAME
350
6
  3
ACDBHEADERROUNDTRIPXREC
350
1E7
  3
AcDbVariableDictionary
350
1E3
  0
DICTIONARY
  5
1CF
330
1CE
100
AcDbDictionary
280
     1
281
     1
  3
ACAD_LAYERSTATES
360
1D0
  0
DICTIONARY
  5
1E1
102
{ACAD_REACTORS
330
7
102
}
330
7
100
AcDbDictionary
281
     1
  0
DICTIONARY
  5
1DD
102
{ACAD_REACTORS
330
7
102
}
330
7
100
AcDbDictionary
281
     1
  0
DICTIONARY
  5
1C9
102
{ACAD_REACTORS
330
7
102
}
330
7
100
AcDbDictionary
281
     1
  3
Layout1
350
1CD
  3
Model
350
1C8
  0
DICTIONARY
  5
1E0
102
{ACAD_REACTORS
330
7
102
}
330
7
100
AcDbDictionary
281
     1
  0
DICTIONARY
  5
1DE
102
{ACAD_REACTORS
330
7
102
}
330
7
100
AcDbDictionary
281
     1
  3
STANDARD
350
1E2
  0
DICTIONARY
  5
1DF
102
{ACAD_REACTORS
330
7
102
}
330
7
100
AcDbDictionary
281
     1
  0
ACDBDICTIONARYWDFLT
  5
6
102
{ACAD_REACTORS
330
7
102
}
330
7
100
AcDbDictionary
281
     1
  3
Normal
350
5
100
AcDbDictionaryWithDefault
340
5
  0
DICTIONARY
  5
1E7
102
{ACAD_REACTORS
330
7
102
}
330
7
100
AcDbDictionary
281
     1
  3
COLORDICT
350
1E9
  3
MATERIALDICT
350
1E8
  0
DICTIONARY
  5
1E3
102
{ACAD_REACTORS
330
7
102
}
330
7
100
AcDbDictionary
281
     1
  3
DIMASSOC
350
1E5
  3
HIDETEXT
350
1E4
  3
PROJECTNAME
350
1E6
  0
DICTIONARY
  5
1D0
102
{ACAD_REACTORS
330
1CF
102
}
330
1CF
100
AcDbDictionary
281
     1
  0
LAYOUT
  5
1CD
102
{ACAD_XDICTIONARY
360
1ED
102
}
102
{ACAD_REACTORS
330
1C9
102
}
330
1C9
100
AcDbPlotSettings
  1

  2
\\pc02\HP
  4

  6

 40
0.0
 41
0.0
 42
0.0
 43
0.0
 44
0.0
 45
0.0
 46
0.0
 47
0.0
 48
0.0
 49
0.0
140
0.0
141
0.0
142
1.0
143
1.0
 70
   688
 72
     0
 73
     0
 74
     5
  7
monochrome.ctb
 75
    16
147
1.0
148
0.0
149
0.0
100
AcDbLayout
  1
Layout1
 70
     1
 71
     1
 10
0.0
 20
0.0
 11
420.0
 21
297.0
 12
0.0
 22
0.0
 32
0.0
 14
0.0
 24
0.0
 34
0.0
 15
1189.0
 25
841.0
 35
0.0
146
0.0
 13
0.0
 23
0.0
 33
0.0
 16
1.0
 26
0.0
 36
0.0
 17
0.0
 27
1.0
 37
0.0
 76
     0
330
1CA
  0
LAYOUT
  5
1C8
102
{ACAD_XDICTIONARY
360
1EB
102
}
102
{ACAD_REACTORS
330
1C9
102
}
330
1C9
100
AcDbPlotSettings
  1

  2
HP DeskJet 1220C
  4
A4
  6

 40
4.180416584014892
 41
13.4937515258789
 42
4.180404663085937
 43
3.67242431640625
 44
209.9733276367187
 45
297.0106506347656
 46
0.0
 47
0.0
 48
481.1978817096998
 49
309.4654971710613
140
768.1978817096998
141
509.4654971710613
142
1.0
143
1.025569649759302
 70
 11952
 72
     1
 73
     3
 74
     4
  7
monochrome.ctb
 75
     0
147
0.9750678564197924
148
-481.1978817096998
149
-309.4654971710613
100
AcDbLayout
  1
Model
 70
     1
 71
     0
 10
0.0
 20
0.0
 11
12.0
 21
9.0
 12
0.0
 22
0.0
 32
0.0
 14
0.0
 24
0.0
 34
0.0
 15
0.0
 25
0.0
 35
0.0
146
0.0
 13
0.0
 23
0.0
 33
0.0
 16
1.0
 26
0.0
 36
0.0
 17
0.0
 27
1.0
 37
0.0
 76
     0
330
2
  0
MLINESTYLE
  5
1E2
102
{ACAD_REACTORS
330
1DE
102
}
330
1DE
100
AcDbMlineStyle
  2
STANDARD
 70
     0
  3

 62
     0
 51
90.0
 52
90.0
 71
     2
 49
0.5
 62
   256
  6
BYLAYER
 49
-0.5
 62
   256
  6
BYLAYER
  0
ACDBPLACEHOLDER
  5
5
102
{ACAD_REACTORS
330
6
102
}
330
6
  0
XRECORD
  5
1E9
102
{ACAD_REACTORS
330
1E7
102
}
330
1E7
100
AcDbXrecord
280
     1
340
1E1
  0
XRECORD
  5
1E8
102
{ACAD_REACTORS
330
1E7
102
}
330
1E7
100
AcDbXrecord
280
     1
340
1E0
  0
DICTIONARYVAR
  5
1E5
102
{ACAD_REACTORS
330
1E3
102
}
330
1E3
100
DictionaryVariables
280
     0
  1
1
  0
DICTIONARYVAR
  5
1E4
102
{ACAD_REACTORS
330
1E3
102
}
330
1E3
100
DictionaryVariables
280
     0
  1
1
  0
DICTIONARYVAR
  5
1E6
102
{ACAD_REACTORS
330
1E3
102
}
330
1E3
100
DictionaryVariables
280
     0
  1

  0
DICTIONARY
  5
1ED
330
1CD
100
AcDbDictionary
280
     1
281
     1
  3
ACAD_XREC_ROUNDTRIP
360
1EE
  0
DICTIONARY
  5
1EB
330
1C8
100
AcDbDictionary
280
     1
281
     1
  3
ACAD_XREC_ROUNDTRIP
360
1EC
  0
XRECORD
  5
1EE
102
{ACAD_REACTORS
330
1ED
102
}
330
1ED
100
AcDbXrecord
280
     1
102
SHADEPLOT
 70
     0
102
SHADEPLOTRESLEVEL
 70
     2
102
SHADEPLOTCUSTOMDPI
 70
   300
  0
XRECORD
  5
1EC
102
{ACAD_REACTORS
330
1EB
102
}
330
1EB
100
AcDbXrecord
280
     1
102
SHADEPLOT
 70
     0
102
SHADEPLOTRESLEVEL
 70
     2
102
SHADEPLOTCUSTOMDPI
 70
   300
  0
ENDSEC
  0
EOF
