  0
SECTION
  2
HEADER
  9
$ACADVER
  1
AC1015
  9
$ACADMAINTVER
 70
    18
  9
$DWGCODEPAGE
  3
ANSI_1252
  9
$INSBASE
 10
421.1785771780096
 20
450.2667582667103
 30
0.0
  9
$EXTMIN
 10
1.000000000000000E+20
 20
1.000000000000000E+20
 30
1.000000000000000E+20
  9
$EXTMAX
 10
0.0
 20
0.0
 30
0.0
  9
$LIMMIN
 10
0.0
 20
0.0
  9
$LIMMAX
 10
420.0
 20
297.0
  9
$ORTHOMODE
 70
     1
  9
$REGENMODE
 70
     1
  9
$FILLMODE
 70
     1
  9
$QTEXTMODE
 70
     0
  9
$MIRRTEXT
 70
     1
  9
$LTSCALE
 40
2.5
  9
$ATTMODE
 70
     1
  9
$TEXTSIZE
 40
2.5
  9
$TRACEWID
 40
1.0
  9
$TEXTSTYLE
  7
STANDARD
  9
$CLAYER
  8
-SCHRAFFUR
  9
$CELTYPE
  6
BYLAYER
  9
$CECOLOR
 62
   256
  9
$CELTSCALE
 40
1.0
  9
$DISPSILH
 70
     0
  9
$DIMSCALE
 40
1.0
  9
$DIMASZ
 40
2.0
  9
$DIMEXO
 40
2.0
  9
$DIMDLI
 40
2.0
  9
$DIMRND
 40
0.0
  9
$DIMDLE
 40
0.0
  9
$DIMEXE
 40
1.0
  9
$DIMTP
 40
0.0
  9
$DIMTM
 40
0.0
  9
$DIMTXT
 40
5.0
  9
$DIMCEN
 40
0.09
  9
$DIMTSZ
 40
0.0
  9
$DIMTOL
 70
     0
  9
$DIMLIM
 70
     0
  9
$DIMTIH
 70
     0
  9
$DIMTOH
 70
     0
  9
$DIMSE1
 70
     0
  9
$DIMSE2
 70
     0
  9
$DIMTAD
 70
     1
  9
$DIMZIN
 70
     9
  9
$DIMBLK
  1

  9
$DIMASO
 70
     1
  9
$DIMSHO
 70
     1
  9
$DIMPOST
  1

  9
$DIMAPOST
  1

  9
$DIMALT
 70
     0
  9
$DIMALTD
 70
     2
  9
$DIMALTF
 40
25.4
  9
$DIMLFAC
 40
1.0
  9
$DIMTOFL
 70
     0
  9
$DIMTVP
 40
0.0
  9
$DIMTIX
 70
     0
  9
$DIMSOXD
 70
     0
  9
$DIMSAH
 70
     0
  9
$DIMBLK1
  1

  9
$DIMBLK2
  1

  9
$DIMSTYLE
  2
1-1
  9
$DIMCLRD
 70
     2
  9
$DIMCLRE
 70
     2
  9
$DIMCLRT
 70
     3
  9
$DIMTFAC
 40
1.0
  9
$DIMGAP
 40
1.0
  9
$DIMJUST
 70
     0
  9
$DIMSD1
 70
     0
  9
$DIMSD2
 70
     0
  9
$DIMTOLJ
 70
     1
  9
$DIMTZIN
 70
     0
  9
$DIMALTZ
 70
     0
  9
$DIMALTTZ
 70
     0
  9
$DIMUPT
 70
     0
  9
$DIMDEC
 70
     0
  9
$DIMTDEC
 70
     4
  9
$DIMALTU
 70
     2
  9
$DIMALTTD
 70
     2
  9
$DIMTXSTY
  7
STANDARD
  9
$DIMAUNIT
 70
     0
  9
$DIMADEC
 70
     0
  9
$DIMALTRND
 40
0.0
  9
$DIMAZIN
 70
     0
  9
$DIMDSEP
 70
    46
  9
$DIMATFIT
 70
     2
  9
$DIMFRAC
 70
     0
  9
$DIMLDRBLK
  1

  9
$DIMLUNIT
 70
     2
  9
$DIMLWD
 70
    -2
  9
$DIMLWE
 70
    -2
  9
$DIMTMOVE
 70
     0
  9
$LUNITS
 70
     2
  9
$LUPREC
 70
     4
  9
$SKETCHINC
 40
1.0
  9
$FILLETRAD
 40
0.0
  9
$AUNITS
 70
     0
  9
$AUPREC
 70
     0
  9
$MENU
  1
.
  9
$ELEVATION
 40
0.0
  9
$PELEVATION
 40
0.0
  9
$THICKNESS
 40
0.0
  9
$LIMCHECK
 70
     0
  9
$CHAMFERA
 40
10.0
  9
$CHAMFERB
 40
10.0
  9
$CHAMFERC
 40
20.0
  9
$CHAMFERD
 40
0.0
  9
$SKPOLY
 70
     0
  9
$TDCREATE
 40
2452087.408717245
  9
$TDUCREATE
 40
2452087.367050579
  9
$TDUPDATE
 40
2453405.574302361
  9
$TDUUPDATE
 40
2453405.532635695
  9
$TDINDWG
 40
0.6110147222
  9
$TDUSRTIMER
 40
0.6110147222
  9
$USRTIMER
 70
     1
  9
$ANGBASE
 50
0.0
  9
$ANGDIR
 70
     0
  9
$PDMODE
 70
     0
  9
$PDSIZE
 40
0.0
  9
$PLINEWID
 40
0.0
  9
$SPLFRAME
 70
     0
  9
$SPLINETYPE
 70
     6
  9
$SPLINESEGS
 70
     8
  9
$HANDSEED
  5
1E4
  9
$SURFTAB1
 70
     6
  9
$SURFTAB2
 70
     6
  9
$SURFTYPE
 70
     6
  9
$SURFU
 70
     6
  9
$SURFV
 70
     6
  9
$UCSBASE
  2

  9
$UCSNAME
  2

  9
$UCSORG
 10
0.0
 20
0.0
 30
0.0
  9
$UCSXDIR
 10
1.0
 20
0.0
 30
0.0
  9
$UCSYDIR
 10
0.0
 20
1.0
 30
0.0
  9
$UCSORTHOREF
  2

  9
$UCSORTHOVIEW
 70
     0
  9
$UCSORGTOP
 10
0.0
 20
0.0
 30
0.0
  9
$UCSORGBOTTOM
 10
0.0
 20
0.0
 30
0.0
  9
$UCSORGLEFT
 10
0.0
 20
0.0
 30
0.0
  9
$UCSORGRIGHT
 10
0.0
 20
0.0
 30
0.0
  9
$UCSORGFRONT
 10
0.0
 20
0.0
 30
0.0
  9
$UCSORGBACK
 10
0.0
 20
0.0
 30
0.0
  9
$PUCSBASE
  2

  9
$PUCSNAME
  2

  9
$PUCSORG
 10
0.0
 20
0.0
 30
0.0
  9
$PUCSXDIR
 10
1.0
 20
0.0
 30
0.0
  9
$PUCSYDIR
 10
0.0
 20
1.0
 30
0.0
  9
$PUCSORTHOREF
  2

  9
$PUCSORTHOVIEW
 70
     0
  9
$PUCSORGTOP
 10
0.0
 20
0.0
 30
0.0
  9
$PUCSORGBOTTOM
 10
0.0
 20
0.0
 30
0.0
  9
$PUCSORGLEFT
 10
0.0
 20
0.0
 30
0.0
  9
$PUCSORGRIGHT
 10
0.0
 20
0.0
 30
0.0
  9
$PUCSORGFRONT
 10
0.0
 20
0.0
 30
0.0
  9
$PUCSORGBACK
 10
0.0
 20
0.0
 30
0.0
  9
$USERI1
 70
     0
  9
$USERI2
 70
     0
  9
$USERI3
 70
     0
  9
$USERI4
 70
     0
  9
$USERI5
 70
     0
  9
$USERR1
 40
0.0
  9
$USERR2
 40
0.0
  9
$USERR3
 40
0.0
  9
$USERR4
 40
0.0
  9
$USERR5
 40
0.0
  9
$WORLDVIEW
 70
     1
  9
$SHADEDGE
 70
     3
  9
$SHADEDIF
 70
    70
  9
$TILEMODE
 70
     1
  9
$MAXACTVP
 70
    48
  9
$PINSBASE
 10
0.0
 20
0.0
 30
0.0
  9
$PLIMCHECK
 70
     0
  9
$PEXTMIN
 10
0.0
 20
0.0
 30
0.0
  9
$PEXTMAX
 10
1189.0
 20
841.0
 30
0.0
  9
$PLIMMIN
 10
0.0
 20
0.0
  9
$PLIMMAX
 10
420.0
 20
297.0
  9
$UNITMODE
 70
     0
  9
$VISRETAIN
 70
     1
  9
$PLINEGEN
 70
     0
  9
$PSLTSCALE
 70
     1
  9
$TREEDEPTH
 70
  3020
  9
$CMLSTYLE
  2
STANDARD
  9
$CMLJUST
 70
     0
  9
$CMLSCALE
 40
1.0
  9
$PROXYGRAPHICS
 70
     1
  9
$MEASUREMENT
 70
     0
  9
$CELWEIGHT
370
    -1
  9
$ENDCAPS
280
     0
  9
$JOINSTYLE
280
     0
  9
$LWDISPLAY
290
     0
  9
$INSUNITS
 70
     0
  9
$HYPERLINKBASE
  1

  9
$STYLESHEET
  1

  9
$XEDIT
290
     1
  9
$CEPSNTYPE
380
     0
  9
$PSTYLEMODE
290
     1
  9
$FINGERPRINTGUID
  2
{9588F985-4B3C-4C9C-BEE4-2544F6211083}
  9
$VERSIONGUID
  2
{101DBB2B-82A2-4864-B5E9-7A04511F1722}
  9
$EXTNAMES
290
     1
  9
$PSVPSCALE
 40
0.0
  9
$OLESTARTUP
290
     0
  0
ENDSEC
  0
SECTION
  2
CLASSES
  0
CLASS
  1
DICTIONARYVAR
  2
AcDbDictionaryVar
  3
ObjectDBX Classes
 90
        0
280
     0
281
     0
  0
CLASS
  1
ACDBDICTIONARYWDFLT
  2
AcDbDictionaryWithDefault
  3
ObjectDBX Classes
 90
        0
280
     0
281
     0
  0
CLASS
  1
ACDBPLACEHOLDER
  2
AcDbPlaceHolder
  3
ObjectDBX Classes
 90
        0
280
     0
281
     0
  0
CLASS
  1
LAYOUT
  2
AcDbLayout
  3
ObjectDBX Classes
 90
        0
280
     0
281
     0
  0
ENDSEC
  0
SECTION
  2
TABLES
  0
TABLE
  2
VPORT
  5
1CD
330
0
100
AcDbSymbolTable
 70
     1
  0
VPORT
  5
1CE
330
1CD
100
AcDbSymbolTableRecord
100
AcDbViewportTableRecord
  2
*Active
 70
     0
 10
0.0
 20
0.0
 11
1.0
 21
1.0
 12
513.1544982465043
 22
534.8254395563337
 13
0.0
 23
0.0
 14
10.0
 24
10.0
 15
10.0
 25
10.0
 16
0.0
 26
0.0
 36
1.0
 17
0.0
 27
0.0
 37
0.0
 40
383.5249279631319
 41
1.549148099606815
 42
50.0
 43
0.0
 44
0.0
 50
0.0
 51
0.0
 71
     0
 72
   100
 73
     1
 74
     1
 75
     0
 76
     0
 77
     0
 78
     0
281
     0
 65
     1
110
0.0
120
0.0
130
0.0
111
1.0
121
0.0
131
0.0
112
0.0
122
1.0
132
0.0
 79
     0
146
0.0
  0
ENDTAB
  0
TABLE
  2
LTYPE
  5
1C8
330
0
100
AcDbSymbolTable
 70
     4
  0
LTYPE
  5
1C9
330
1C8
100
AcDbSymbolTableRecord
100
AcDbLinetypeTableRecord
  2
BYBLOCK
 70
     0
  3

 72
    65
 73
     0
 40
0.0
  0
LTYPE
  5
1CA
330
1C8
100
AcDbSymbolTableRecord
100
AcDbLinetypeTableRecord
  2
BYLAYER
 70
     0
  3

 72
    65
 73
     0
 40
0.0
  0
LTYPE
  5
8
330
1C8
100
AcDbSymbolTableRecord
100
AcDbLinetypeTableRecord
  2
CONTINUOUS
 70
     0
  3
Solid line
 72
    65
 73
     0
 40
0.0
  0
LTYPE
  5
B
330
1C8
100
AcDbSymbolTableRecord
100
AcDbLinetypeTableRecord
  2
MITTEX2
 70
     0
  3
Mitte (2x) ________  __  ________  __  _____
 72
    65
 73
     4
 40
4.0
 49
2.5
 74
     0
 49
-0.5
 74
     0
 49
0.5
 74
     0
 49
-0.5
 74
     0
  0
LTYPE
  5
12B
330
1C8
100
AcDbSymbolTableRecord
100
AcDbLinetypeTableRecord
  2
STRICHLINIEX2
 70
     0
  3
Strichlinie (2x) ____  ____  ____  ____  ____  
 72
    65
 73
     2
 40
1.5
 49
1.0
 74
     0
 49
-0.5
 74
     0
  0
LTYPE
  5
135
330
1C8
100
AcDbSymbolTableRecord
100
AcDbLinetypeTableRecord
  2
GETRENNTX2
 70
     0
  3
Getrennt (2x) ________  .  .  ________  .  .  _
 72
    65
 73
     6
 40
2.5
 49
1.0
 74
     0
 49
-0.5
 74
     0
 49
0.0
 74
     0
 49
-0.5
 74
     0
 49
0.0
 74
     0
 49
-0.5
 74
     0
  0
ENDTAB
  0
TABLE
  2
LAYER
  5
1C3
102
{ACAD_XDICTIONARY
360
1C4
102
}
330
0
100
AcDbSymbolTable
 70
    12
  0
LAYER
  5
4
330
1C3
100
AcDbSymbolTableRecord
100
AcDbLayerTableRecord
  2
0
 70
     0
 62
     7
  6
CONTINUOUS
370
    -3
390
5
  0
LAYER
  5
5B
330
1C3
100
AcDbSymbolTableRecord
100
AcDbLayerTableRecord
  2
-PROFILAUSSENKANTET
 70
     0
 62
     4
  6
CONTINUOUS
370
    -3
390
5
1001
AVE_FINISH
1002
{
1070
     0
1005
0
1002
}
  0
LAYER
  5
62
330
1C3
100
AcDbSymbolTableRecord
100
AcDbLayerTableRecord
  2
-DICHTUNG
 70
     0
 62
     3
  6
CONTINUOUS
370
    -3
390
5
1001
AVE_FINISH
1002
{
1070
     0
1005
0
1002
}
  0
LAYER
  5
4A
330
1C3
100
AcDbSymbolTableRecord
100
AcDbLayerTableRecord
  2
-NORMTEIL
 70
     0
 62
     6
  6
CONTINUOUS
370
    -3
390
5
  0
LAYER
  5
12A
330
1C3
100
AcDbSymbolTableRecord
100
AcDbLayerTableRecord
  2
-NORMTEIL_VERDECKT
 70
     0
 62
     9
  6
STRICHLINIEX2
370
    -3
390
5
  0
LAYER
  5
18
330
1C3
100
AcDbSymbolTableRecord
100
AcDbLayerTableRecord
  2
DEFPOINTS
 70
     0
 62
     7
  6
CONTINUOUS
290
     0
370
    -3
390
5
  0
LAYER
  5
A
330
1C3
100
AcDbSymbolTableRecord
100
AcDbLayerTableRecord
  2
-SYSTEM
 70
     0
 62
     2
  6
MITTEX2
370
    -3
390
5
  0
LAYER
  5
D
330
1C3
100
AcDbSymbolTableRecord
100
AcDbLayerTableRecord
  2
-TEXT3
 70
     0
 62
     2
  6
CONTINUOUS
370
    -3
390
5
  0
LAYER
  5
65
330
1C3
100
AcDbSymbolTableRecord
100
AcDbLayerTableRecord
  2
-SCHRAFFUR
 70
     0
 62
     9
  6
CONTINUOUS
370
    -3
390
5
  0
LAYER
  5
5F
330
1C3
100
AcDbSymbolTableRecord
100
AcDbLayerTableRecord
  2
-VERGLASUNG
 70
     0
 62
     1
  6
CONTINUOUS
370
    -3
390
5
  0
LAYER
  5
1F
330
1C3
100
AcDbSymbolTableRecord
100
AcDbLayerTableRecord
  2
-TEXT2
 70
     0
 62
     3
  6
CONTINUOUS
370
    -3
390
5
  0
LAYER
  5
134
330
1C3
100
AcDbSymbolTableRecord
100
AcDbLayerTableRecord
  2
-TRENNEN
 70
     0
 62
     2
  6
GETRENNTX2
370
    -3
390
5
  0
ENDTAB
  0
TABLE
  2
STYLE
  5
1C6
330
0
100
AcDbSymbolTable
 70
     1
  0
STYLE
  5
F
330
1C6
100
AcDbSymbolTableRecord
100
AcDbTextStyleTableRecord
  2
STANDARD
 70
     0
 40
0.0
 41
1.0
 50
0.0
 71
     0
 42
2.5
  3
ARIAL.TTF
  4

1001
ACAD
1000
Arial
1071
       34
  0
ENDTAB
  0
TABLE
  2
VIEW
  5
1CB
330
0
100
AcDbSymbolTable
 70
     0
  0
ENDTAB
  0
TABLE
  2
UCS
  5
1CC
330
0
100
AcDbSymbolTable
 70
     0
  0
ENDTAB
  0
TABLE
  2
APPID
  5
1CF
330
0
100
AcDbSymbolTable
 70
     2
  0
APPID
  5
10
330
1CF
100
AcDbSymbolTableRecord
100
AcDbRegAppTableRecord
  2
ACAD
 70
     0
  0
APPID
  5
5C
330
1CF
100
AcDbSymbolTableRecord
100
AcDbRegAppTableRecord
  2
AVE_FINISH
 70
     0
  0
ENDTAB
  0
TABLE
  2
DIMSTYLE
  5
1D0
330
0
100
AcDbSymbolTable
 70
     1
100
AcDbDimStyleTable
 71
     1
340
E
  0
DIMSTYLE
105
E
102
{ACAD_REACTORS
330
2C
330
111
330
EB
330
DE
330
103
330
39
330
D1
330
1E
330
92
330
85
330
78
330
6B
330
C
330
15E
330
151
330
195
330
188
102
}
330
1D0
100
AcDbSymbolTableRecord
100
AcDbDimStyleTableRecord
  2
1-1
 70
     0
 41
2.0
 42
2.0
 43
2.0
 44
1.0
 73
     0
 74
     0
 77
     1
 78
     9
140
5.0
147
1.0
176
     2
177
     2
178
     3
271
     0
289
     2
340
F
  0
ENDTAB
  0
TABLE
  2
BLOCK_RECORD
  5
1
330
0
100
AcDbSymbolTable
 70
    18
  0
BLOCK_RECORD
  5
2
330
1
100
AcDbSymbolTableRecord
100
AcDbBlockTableRecord
  2
*MODEL_SPACE
340
1BD
  0
BLOCK_RECORD
  5
1BF
330
1
100
AcDbSymbolTableRecord
100
AcDbBlockTableRecord
  2
*PAPER_SPACE
340
1C2
  0
BLOCK_RECORD
  5
47
330
1
100
AcDbSymbolTableRecord
100
AcDbBlockTableRecord
  2
1587-M12
340
0
102
{BLKREFS
331
46
331
100
102
}
  0
BLOCK_RECORD
  5
20
330
1
100
AcDbSymbolTableRecord
100
AcDbBlockTableRecord
  2
*D1
340
0
  0
BLOCK_RECORD
  5
2D
330
1
100
AcDbSymbolTableRecord
100
AcDbBlockTableRecord
  2
*D2
340
0
  0
BLOCK_RECORD
  5
3A
330
1
100
AcDbSymbolTableRecord
100
AcDbBlockTableRecord
  2
*D3
340
0
  0
BLOCK_RECORD
  5
6C
330
1
100
AcDbSymbolTableRecord
100
AcDbBlockTableRecord
  2
*D4
340
0
  0
BLOCK_RECORD
  5
86
330
1
100
AcDbSymbolTableRecord
100
AcDbBlockTableRecord
  2
*D5
340
0
  0
BLOCK_RECORD
  5
93
330
1
100
AcDbSymbolTableRecord
100
AcDbBlockTableRecord
  2
*D6
340
0
  0
BLOCK_RECORD
  5
D2
330
1
100
AcDbSymbolTableRecord
100
AcDbBlockTableRecord
  2
*D7
340
0
  0
BLOCK_RECORD
  5
EC
330
1
100
AcDbSymbolTableRecord
100
AcDbBlockTableRecord
  2
*D8
340
0
  0
BLOCK_RECORD
  5
104
330
1
100
AcDbSymbolTableRecord
100
AcDbBlockTableRecord
  2
*D9
340
0
  0
BLOCK_RECORD
  5
112
330
1
100
AcDbSymbolTableRecord
100
AcDbBlockTableRecord
  2
*D10
340
0
  0
BLOCK_RECORD
  5
11
330
1
100
AcDbSymbolTableRecord
100
AcDbBlockTableRecord
  2
*D11
340
0
  0
BLOCK_RECORD
  5
79
330
1
100
AcDbSymbolTableRecord
100
AcDbBlockTableRecord
  2
*D12
340
0
  0
BLOCK_RECORD
  5
DF
330
1
100
AcDbSymbolTableRecord
100
AcDbBlockTableRecord
  2
*D13
340
0
  0
BLOCK_RECORD
  5
15F
330
1
100
AcDbSymbolTableRecord
100
AcDbBlockTableRecord
  2
*D14
340
0
  0
BLOCK_RECORD
  5
152
330
1
100
AcDbSymbolTableRecord
100
AcDbBlockTableRecord
  2
*D15
340
0
  0
BLOCK_RECORD
  5
196
330
1
100
AcDbSymbolTableRecord
100
AcDbBlockTableRecord
  2
*D16
340
0
  0
BLOCK_RECORD
  5
189
330
1
100
AcDbSymbolTableRecord
100
AcDbBlockTableRecord
  2
*D17
340
0
  0
ENDTAB
  0
ENDSEC
  0
SECTION
  2
BLOCKS
  0
BLOCK
  5
3
330
2
100
AcDbEntity
  8
0
100
AcDbBlockBegin
  2
*MODEL_SPACE
 70
     0
 10
0.0
 20
0.0
 30
0.0
  3
*MODEL_SPACE
  1

  0
ENDBLK
  5
1BC
330
2
100
AcDbEntity
  8
0
100
AcDbBlockEnd
  0
BLOCK
  5
1C0
330
1BF
100
AcDbEntity
 67
     1
  8
0
100
AcDbBlockBegin
  2
*PAPER_SPACE
 70
     0
 10
0.0
 20
0.0
 30
0.0
  3
*PAPER_SPACE
  1

  0
ENDBLK
  5
1C1
330
1BF
100
AcDbEntity
 67
     1
  8
0
100
AcDbBlockEnd
  0
BLOCK
  5
48
330
47
100
AcDbEntity
  8
0
100
AcDbBlockBegin
  2
1587-M12
 70
     0
 10
0.0
 20
0.0
 30
0.0
  3
1587-M12
  1

  0
ARC
  5
49
330
47
100
AcDbEntity
  8
-NORMTEIL
100
AcDbCircle
 10
-0.0000000000056843
 20
-12.90000000000009
 30
0.0
 40
9.099999999999999
100
AcDbArc
 50
180.0
 51
0.0
  0
LWPOLYLINE
  5
4B
330
47
100
AcDbEntity
  8
-NORMTEIL
100
AcDbPolyline
 90
        2
 70
     0
 43
0.0
 10
7.924999999999954
 20
-9.999999999999886
 10
-7.925000000001318
 20
-10.0
  0
ARC
  5
4C
330
47
100
AcDbEntity
  8
-NORMTEIL
100
AcDbCircle
 10
0.0
 20
18.33999999999844
 30
0.0
 40
28.33999999999846
100
AcDbArc
 50
259.2213764800527
 51
280.7786235199473
  0
LWPOLYLINE
  5
4D
330
47
100
AcDbEntity
  8
-NORMTEIL
100
AcDbPolyline
 90
        2
 70
     0
 43
0.0
 10
7.924999999999954
 20
-0.0000000000001137
 10
-7.925000000001318
 20
0.0
  0
ARC
  5
4E
330
47
100
AcDbEntity
  8
-NORMTEIL
100
AcDbCircle
 10
0.0
 20
-28.33999999999844
 30
0.0
 40
28.33999999999846
100
AcDbArc
 50
79.2213764800527
 51
100.7786235199473
  0
LINE
  5
4F
330
47
100
AcDbEntity
  8
-NORMTEIL
100
AcDbLine
 10
-9.100000000005593
 20
-12.90000000000009
 30
0.0
 11
-9.100000000005593
 21
-9.902662612373319
 31
0.0
  0
LINE
  5
50
330
47
100
AcDbEntity
  8
-NORMTEIL
100
AcDbLine
 10
-10.54999999999995
 20
-0.5000000000001137
 30
0.0
 11
-10.54999999999995
 21
-9.499999999999886
 31
0.0
  0
ARC
  5
51
330
47
100
AcDbEntity
  8
-NORMTEIL
100
AcDbCircle
 10
-7.924999999999954
 20
-2.859375000000341
 30
0.0
 40
7.140624999999599
100
AcDbArc
 50
248.4314042648738
 51
291.5685957351245
  0
LINE
  5
52
330
47
100
AcDbEntity
  8
-NORMTEIL
100
AcDbLine
 10
-5.300000000000181
 20
-0.5
 30
0.0
 11
-5.299999999999727
 21
-9.5
 31
0.0
  0
ARC
  5
53
330
47
100
AcDbEntity
  8
-NORMTEIL
100
AcDbCircle
 10
-7.924999999999954
 20
-7.140624999999658
 30
0.0
 40
7.140624999999599
100
AcDbArc
 50
68.43140426487554
 51
111.5685957351262
  0
LINE
  5
54
330
47
100
AcDbEntity
  8
-NORMTEIL
100
AcDbLine
 10
9.099999999994224
 20
-12.90000000000009
 30
0.0
 11
9.099999999994224
 21
-9.902662612375138
 31
0.0
  0
LINE
  5
55
330
47
100
AcDbEntity
  8
-NORMTEIL
100
AcDbLine
 10
10.54999999999995
 20
-0.5000000000001137
 30
0.0
 11
10.54999999999995
 21
-9.499999999999886
 31
0.0
  0
ARC
  5
56
330
47
100
AcDbEntity
  8
-NORMTEIL
100
AcDbCircle
 10
7.924999999999954
 20
-2.859375000000341
 30
0.0
 40
7.140624999999599
100
AcDbArc
 50
248.4314042648755
 51
291.5685957351262
  0
LINE
  5
57
330
47
100
AcDbEntity
  8
-NORMTEIL
100
AcDbLine
 10
5.299999999999954
 20
-0.5000000000001137
 30
0.0
 11
5.299999999999954
 21
-9.5
 31
0.0
  0
ARC
  5
58
330
47
100
AcDbEntity
  8
-NORMTEIL
100
AcDbCircle
 10
7.924999999999954
 20
-7.140624999999658
 30
0.0
 40
7.140624999999599
100
AcDbArc
 50
68.43140426487376
 51
111.5685957351244
  0
ENDBLK
  5
59
330
47
100
AcDbEntity
  8
0
100
AcDbBlockEnd
  0
BLOCK
  5
21
330
20
100
AcDbEntity
  8
0
100
AcDbBlockBegin
  2
*D1
 70
     1
 10
0.0
 20
0.0
 30
0.0
  3
*D1
  1

  0
LINE
  5
22
330
20
100
AcDbEntity
  8
-TEXT2
 62
     2
370
    -2
100
AcDbLine
 10
563.7357081883774
 20
512.2587956218151
 30
0.0
 11
600.1631318641372
 21
512.2587956218151
 31
0.0
  0
LINE
  5
23
330
20
100
AcDbEntity
  8
-TEXT2
 62
     2
370
    -2
100
AcDbLine
 10
591.1631318641371
 20
479.7587956218158
 30
0.0
 11
600.1631318641372
 21
479.7587956218158
 31
0.0
  0
LINE
  5
24
330
20
100
AcDbEntity
  8
-TEXT2
 62
     2
370
    -2
100
AcDbLine
 10
599.1631318641371
 20
510.2587956218151
 30
0.0
 11
599.1631318641371
 21
481.7587956218159
 31
0.0
  0
SOLID
  5
25
330
20
100
AcDbEntity
  8
-TEXT2
 62
     2
100
AcDbTrace
 10
598.8297985308038
 20
510.2587956218151
 30
0.0
 11
599.4964651974705
 21
510.2587956218151
 31
0.0
 12
599.1631318641371
 22
512.2587956218151
 32
0.0
 13
599.1631318641371
 23
512.2587956218151
 33
0.0
  0
SOLID
  5
26
330
20
100
AcDbEntity
  8
-TEXT2
 62
     2
100
AcDbTrace
 10
598.8297985308038
 20
481.7587956218159
 30
0.0
 11
599.4964651974705
 21
481.7587956218159
 31
0.0
 12
599.1631318641371
 22
479.7587956218158
 32
0.0
 13
599.1631318641371
 23
479.7587956218158
 33
0.0
  0
MTEXT
  5
27
330
20
100
AcDbEntity
  8
-TEXT2
 62
     3
100
AcDbMText
 10
595.6085616049283
 20
496.0087956218155
 30
0.0
 40
5.0
 41
0.0
 71
     5
 72
     1
  1
\A1;32
 11
0.0000000000000001
 21
1.0
 31
0.0
 73
     1
 44
1.0
1001
ACAD
1000
MTEXTBEGIN
1070
    73
1070
     1
1070
    44
1040
1.0
1070
    74
1070
     0
1000
MTEXTEND
  0
POINT
  5
28
330
20
100
AcDbEntity
  8
DEFPOINTS
 62
     0
100
AcDbPoint
 10
561.7357081883774
 20
512.2587956218151
 30
0.0
  0
POINT
  5
29
330
20
100
AcDbEntity
  8
DEFPOINTS
 62
     0
100
AcDbPoint
 10
589.1631318641372
 20
479.7587956218158
 30
0.0
  0
POINT
  5
2A
330
20
100
AcDbEntity
  8
DEFPOINTS
 62
     0
100
AcDbPoint
 10
599.1631318641371
 20
479.7587956218158
 30
0.0
  0
ENDBLK
  5
2B
330
20
100
AcDbEntity
  8
0
100
AcDbBlockEnd
  0
BLOCK
  5
2E
330
2D
100
AcDbEntity
  8
0
100
AcDbBlockBegin
  2
*D2
 70
     1
 10
0.0
 20
0.0
 30
0.0
  3
*D2
  1

  0
LINE
  5
2F
330
2D
100
AcDbEntity
  8
-TEXT2
 62
     2
370
    -2
100
AcDbLine
 10
649.2557081883794
 20
426.7387956218154
 30
0.0
 11
683.3579151794895
 21
426.7387956218154
 31
0.0
  0
LINE
  5
30
330
2D
100
AcDbEntity
  8
-TEXT2
 62
     2
370
    -2
100
AcDbLine
 10
563.7357081883774
 20
512.2587956218151
 30
0.0
 11
683.3579151794895
 21
512.2587956218151
 31
0.0
  0
LINE
  5
31
330
2D
100
AcDbEntity
  8
-TEXT2
 62
     2
370
    -2
100
AcDbLine
 10
682.3579151794895
 20
428.7387956218155
 30
0.0
 11
682.3579151794895
 21
510.258795621815
 31
0.0
  0
SOLID
  5
32
330
2D
100
AcDbEntity
  8
-TEXT2
 62
     2
100
AcDbTrace
 10
682.0245818461561
 20
428.7387956218155
 30
0.0
 11
682.6912485128229
 21
428.7387956218155
 31
0.0
 12
682.3579151794895
 22
426.7387956218154
 32
0.0
 13
682.3579151794895
 23
426.7387956218154
 33
0.0
  0
SOLID
  5
33
330
2D
100
AcDbEntity
  8
-TEXT2
 62
     2
100
AcDbTrace
 10
682.0245818461561
 20
510.258795621815
 30
0.0
 11
682.6912485128229
 21
510.258795621815
 31
0.0
 12
682.3579151794895
 22
512.2587956218151
 32
0.0
 13
682.3579151794895
 23
512.2587956218151
 33
0.0
  0
MTEXT
  5
34
330
2D
100
AcDbEntity
  8
-TEXT2
 62
     3
100
AcDbMText
 10
678.8050502408809
 20
469.4987956218154
 30
0.0
 40
5.0
 41
0.0
 71
     5
 72
     1
  1
\A1;86
 11
0.0000000000000001
 21
1.0
 31
0.0
 73
     1
 44
1.0
1001
ACAD
1000
MTEXTBEGIN
1070
    73
1070
     1
1070
    44
1040
1.0
1070
    74
1070
     0
1000
MTEXTEND
  0
POINT
  5
35
330
2D
100
AcDbEntity
  8
DEFPOINTS
 62
     0
100
AcDbPoint
 10
647.2557081883794
 20
426.7387956218154
 30
0.0
  0
POINT
  5
36
330
2D
100
AcDbEntity
  8
DEFPOINTS
 62
     0
100
AcDbPoint
 10
561.7357081883774
 20
512.2587956218151
 30
0.0
  0
POINT
  5
37
330
2D
100
AcDbEntity
  8
DEFPOINTS
 62
     0
100
AcDbPoint
 10
682.3579151794895
 20
512.2587956218151
 30
0.0
  0
ENDBLK
  5
38
330
2D
100
AcDbEntity
  8
0
100
AcDbBlockEnd
  0
BLOCK
  5
3B
330
3A
100
AcDbEntity
  8
0
100
AcDbBlockBegin
  2
*D3
 70
     1
 10
0.0
 20
0.0
 30
0.0
  3
*D3
  1

  0
LINE
  5
3C
330
3A
100
AcDbEntity
  8
-TEXT2
 62
     2
370
    -2
100
AcDbLine
 10
561.7357081883774
 20
514.2587956218151
 30
0.0
 11
561.7357081883774
 21
548.3452368471596
 31
0.0
  0
LINE
  5
3D
330
3A
100
AcDbEntity
  8
-TEXT2
 62
     2
370
    -2
100
AcDbLine
 10
647.2557081883794
 20
428.7387956218155
 30
0.0
 11
647.2557081883794
 21
548.3452368471596
 31
0.0
  0
LINE
  5
3E
330
3A
100
AcDbEntity
  8
-TEXT2
 62
     2
370
    -2
100
AcDbLine
 10
563.7357081883774
 20
547.3452368471596
 30
0.0
 11
645.2557081883794
 21
547.3452368471596
 31
0.0
  0
SOLID
  5
3F
330
3A
100
AcDbEntity
  8
-TEXT2
 62
     2
100
AcDbTrace
 10
563.7357081883774
 20
547.678570180493
 30
0.0
 11
563.7357081883774
 21
547.0119035138262
 31
0.0
 12
561.7357081883774
 22
547.3452368471596
 32
0.0
 13
561.7357081883774
 23
547.3452368471596
 33
0.0
  0
SOLID
  5
40
330
3A
100
AcDbEntity
  8
-TEXT2
 62
     2
100
AcDbTrace
 10
645.2557081883794
 20
547.678570180493
 30
0.0
 11
645.2557081883794
 21
547.0119035138262
 31
0.0
 12
647.2557081883794
 22
547.3452368471596
 32
0.0
 13
647.2557081883794
 23
547.3452368471596
 33
0.0
  0
MTEXT
  5
41
330
3A
100
AcDbEntity
  8
-TEXT2
 62
     3
100
AcDbMText
 10
604.4957081883784
 20
550.8981017857681
 30
0.0
 40
5.0
 41
0.0
 71
     5
 72
     1
  1
\A1;86
 73
     1
 44
1.0
1001
ACAD
1000
MTEXTBEGIN
1070
    73
1070
     1
1070
    44
1040
1.0
1070
    74
1070
     0
1000
MTEXTEND
  0
POINT
  5
42
330
3A
100
AcDbEntity
  8
DEFPOINTS
 62
     0
100
AcDbPoint
 10
561.7357081883774
 20
512.2587956218151
 30
0.0
  0
POINT
  5
43
330
3A
100
AcDbEntity
  8
DEFPOINTS
 62
     0
100
AcDbPoint
 10
647.2557081883794
 20
426.7387956218154
 30
0.0
  0
POINT
  5
44
330
3A
100
AcDbEntity
  8
DEFPOINTS
 62
     0
100
AcDbPoint
 10
647.2557081883794
 20
547.3452368471596
 30
0.0
  0
ENDBLK
  5
45
330
3A
100
AcDbEntity
  8
0
100
AcDbBlockEnd
  0
BLOCK
  5
6D
330
6C
100
AcDbEntity
  8
0
100
AcDbBlockBegin
  2
*D4
 70
     1
 10
0.0
 20
0.0
 30
0.0
  3
*D4
  1

  0
LINE
  5
6E
330
6C
100
AcDbEntity
  8
-TEXT3
 62
     2
370
    -2
100
AcDbLine
 10
541.7357081883773
 20
514.2587956218145
 30
0.0
 11
541.7357081883734
 21
548.3610026129229
 31
0.0
  0
LINE
  5
6F
330
6C
100
AcDbEntity
  8
-TEXT3
 62
     2
370
    -2
100
AcDbLine
 10
561.7357081883771
 20
514.2587956218151
 30
0.0
 11
561.7357081883733
 21
548.3610026129252
 31
0.0
  0
LINE
  5
70
330
6C
100
AcDbEntity
  8
-TEXT3
 62
     2
370
    -2
100
AcDbLine
 10
543.7357081883735
 20
547.3610026129231
 30
0.0
 11
559.7357081883735
 21
547.3610026129249
 31
0.0
  0
SOLID
  5
71
330
6C
100
AcDbEntity
  8
-TEXT3
 62
     2
100
AcDbTrace
 10
543.7357081883734
 20
547.6943359462564
 30
0.0
 11
543.7357081883735
 21
547.0276692795898
 31
0.0
 12
541.7357081883735
 22
547.3610026129229
 32
0.0
 13
541.7357081883735
 23
547.3610026129229
 33
0.0
  0
SOLID
  5
72
330
6C
100
AcDbEntity
  8
-TEXT3
 62
     2
100
AcDbTrace
 10
559.7357081883733
 20
547.6943359462583
 30
0.0
 11
559.7357081883735
 21
547.0276692795915
 31
0.0
 12
561.7357081883734
 22
547.3610026129251
 32
0.0
 13
561.7357081883734
 23
547.3610026129251
 33
0.0
  0
MTEXT
  5
73
330
6C
100
AcDbEntity
  8
-TEXT3
 62
     3
100
AcDbMText
 10
551.7357081883729
 20
551.0537038407549
 30
0.0
 40
5.0
 41
0.0
 71
     5
 72
     1
  1
\A1;%%c20
 73
     1
 44
1.0
1001
ACAD
1000
MTEXTBEGIN
1070
    73
1070
     1
1070
    44
1040
1.0
1070
    74
1070
     0
1000
MTEXTEND
  0
POINT
  5
74
330
6C
100
AcDbEntity
  8
DEFPOINTS
 62
     0
100
AcDbPoint
 10
541.7357081883775
 20
512.2587956218145
 30
0.0
  0
POINT
  5
75
330
6C
100
AcDbEntity
  8
DEFPOINTS
 62
     0
100
AcDbPoint
 10
561.7357081883774
 20
512.2587956218151
 30
0.0
  0
POINT
  5
76
330
6C
100
AcDbEntity
  8
DEFPOINTS
 62
     0
100
AcDbPoint
 10
561.7357081883734
 20
547.3610026129251
 30
0.0
  0
ENDBLK
  5
77
330
6C
100
AcDbEntity
  8
0
100
AcDbBlockEnd
  0
BLOCK
  5
87
330
86
100
AcDbEntity
  8
0
100
AcDbBlockBegin
  2
*D5
 70
     1
 10
0.0
 20
0.0
 30
0.0
  3
*D5
  1

  0
LINE
  5
88
330
86
100
AcDbEntity
  8
-TEXT3
 62
     2
370
    -2
100
AcDbLine
 10
528.7357081883767
 20
536.3412720036865
 30
0.0
 11
528.7357081883754
 21
548.3610026129258
 31
0.0
  0
LINE
  5
89
330
86
100
AcDbEntity
  8
-TEXT3
 62
     2
370
    -2
100
AcDbLine
 10
511.235708188376
 20
536.341272003686
 30
0.0
 11
511.2357081883747
 21
548.3610026129237
 31
0.0
  0
LINE
  5
8A
330
86
100
AcDbEntity
  8
-TEXT3
 62
     2
370
    -2
100
AcDbLine
 10
526.7357081883755
 20
547.3610026129256
 30
0.0
 11
513.2357081883748
 21
547.361002612924
 31
0.0
  0
SOLID
  5
8B
330
86
100
AcDbEntity
  8
-TEXT3
 62
     2
100
AcDbTrace
 10
526.7357081883753
 20
547.6943359462589
 30
0.0
 11
526.7357081883755
 21
547.0276692795922
 31
0.0
 12
528.7357081883754
 22
547.3610026129258
 32
0.0
 13
528.7357081883754
 23
547.3610026129258
 33
0.0
  0
SOLID
  5
8C
330
86
100
AcDbEntity
  8
-TEXT3
 62
     2
100
AcDbTrace
 10
513.2357081883746
 20
547.6943359462573
 30
0.0
 11
513.2357081883748
 21
547.0276692795907
 31
0.0
 12
511.2357081883748
 22
547.3610026129238
 32
0.0
 13
511.2357081883748
 23
547.3610026129238
 33
0.0
  0
MTEXT
  5
8D
330
86
100
AcDbEntity
  8
-TEXT3
 62
     3
100
AcDbMText
 10
519.9857081883747
 20
550.9462686429384
 30
0.0
 40
5.0
 41
0.0
 71
     5
 72
     1
  1
\A1;G
 73
     1
 44
1.0
1001
ACAD
1000
MTEXTBEGIN
1070
    73
1070
     1
1070
    44
1040
1.0
1070
    74
1070
     0
1000
MTEXTEND
  0
POINT
  5
8E
330
86
100
AcDbEntity
  8
DEFPOINTS
 62
     0
100
AcDbPoint
 10
528.735708188377
 20
534.3412720036865
 30
0.0
  0
POINT
  5
8F
330
86
100
AcDbEntity
  8
DEFPOINTS
 62
     0
100
AcDbPoint
 10
511.2357081883763
 20
534.3412720036861
 30
0.0
  0
POINT
  5
90
330
86
100
AcDbEntity
  8
DEFPOINTS
 62
     0
100
AcDbPoint
 10
511.2357081883748
 20
547.3610026129238
 30
0.0
  0
ENDBLK
  5
91
330
86
100
AcDbEntity
  8
0
100
AcDbBlockEnd
  0
BLOCK
  5
94
330
93
100
AcDbEntity
  8
0
100
AcDbBlockBegin
  2
*D6
 70
     1
 10
0.0
 20
0.0
 30
0.0
  3
*D6
  1

  0
LINE
  5
95
330
93
100
AcDbEntity
  8
-TEXT2
 62
     2
370
    -2
100
AcDbLine
 10
528.735708188377
 20
536.3412720036865
 30
0.0
 11
528.735708188377
 21
548.3610026129242
 31
0.0
  0
LINE
  5
96
330
93
100
AcDbEntity
  8
-TEXT2
 62
     2
370
    -2
100
AcDbLine
 10
531.7557081883762
 20
536.3412720036866
 30
0.0
 11
531.7557081883762
 21
548.3610026129242
 31
0.0
  0
LINE
  5
97
330
93
100
AcDbEntity
  8
-TEXT2
 62
     2
370
    -2
100
AcDbLine
 10
526.7357081883769
 20
547.3610026129242
 30
0.0
 11
524.735708188377
 21
547.3610026129242
 31
0.0
  0
LINE
  5
98
330
93
100
AcDbEntity
  8
-TEXT2
 62
     2
370
    -2
100
AcDbLine
 10
533.7557081883763
 20
547.3610026129242
 30
0.0
 11
535.7557081883762
 21
547.3610026129242
 31
0.0
  0
SOLID
  5
99
330
93
100
AcDbEntity
  8
-TEXT2
 62
     2
100
AcDbTrace
 10
526.7357081883769
 20
547.6943359462576
 30
0.0
 11
526.7357081883769
 21
547.0276692795908
 31
0.0
 12
528.735708188377
 22
547.3610026129242
 32
0.0
 13
528.735708188377
 23
547.3610026129242
 33
0.0
  0
SOLID
  5
9A
330
93
100
AcDbEntity
  8
-TEXT2
 62
     2
100
AcDbTrace
 10
533.7557081883763
 20
547.6943359462576
 30
0.0
 11
533.7557081883763
 21
547.0276692795908
 31
0.0
 12
531.7557081883762
 22
547.3610026129242
 32
0.0
 13
531.7557081883762
 23
547.3610026129242
 33
0.0
  0
MTEXT
  5
9B
330
93
100
AcDbEntity
  8
-TEXT2
 62
     3
100
AcDbMText
 10
530.2457081883765
 20
550.915572872133
 30
0.0
 40
5.0
 41
0.0
 71
     5
 72
     1
  1
\A1;3
 73
     1
 44
1.0
1001
ACAD
1000
MTEXTBEGIN
1070
    73
1070
     1
1070
    44
1040
1.0
1070
    74
1070
     0
1000
MTEXTEND
  0
POINT
  5
9C
330
93
100
AcDbEntity
  8
DEFPOINTS
 62
     0
100
AcDbPoint
 10
528.735708188377
 20
534.3412720036865
 30
0.0
  0
POINT
  5
9D
330
93
100
AcDbEntity
  8
DEFPOINTS
 62
     0
100
AcDbPoint
 10
531.7557081883762
 20
534.3412720036866
 30
0.0
  0
POINT
  5
9E
330
93
100
AcDbEntity
  8
DEFPOINTS
 62
     0
100
AcDbPoint
 10
531.7557081883762
 20
547.3610026129242
 30
0.0
  0
ENDBLK
  5
9F
330
93
100
AcDbEntity
  8
0
100
AcDbBlockEnd
  0
BLOCK
  5
D3
330
D2
100
AcDbEntity
  8
0
100
AcDbBlockBegin
  2
*D7
 70
     1
 10
0.0
 20
0.0
 30
0.0
  3
*D7
  1

  0
LINE
  5
D4
330
D2
100
AcDbEntity
  8
-TEXT2
 62
     2
370
    -2
100
AcDbLine
 10
647.2557081883794
 20
428.7387956218155
 30
0.0
 11
647.2557081883794
 21
465.1662192975743
 31
0.0
  0
LINE
  5
D5
330
D2
100
AcDbEntity
  8
-TEXT2
 62
     2
370
    -2
100
AcDbLine
 10
614.7557081883794
 20
456.1662192975743
 30
0.0
 11
614.7557081883794
 21
465.1662192975743
 31
0.0
  0
LINE
  5
D6
330
D2
100
AcDbEntity
  8
-TEXT2
 62
     2
370
    -2
100
AcDbLine
 10
645.2557081883794
 20
464.1662192975743
 30
0.0
 11
616.7557081883794
 21
464.1662192975743
 31
0.0
  0
SOLID
  5
D7
330
D2
100
AcDbEntity
  8
-TEXT2
 62
     2
100
AcDbTrace
 10
645.2557081883794
 20
464.4995526309076
 30
0.0
 11
645.2557081883794
 21
463.832885964241
 31
0.0
 12
647.2557081883794
 22
464.1662192975743
 32
0.0
 13
647.2557081883794
 23
464.1662192975743
 33
0.0
  0
SOLID
  5
D8
330
D2
100
AcDbEntity
  8
-TEXT2
 62
     2
100
AcDbTrace
 10
616.7557081883794
 20
464.4995526309076
 30
0.0
 11
616.7557081883794
 21
463.832885964241
 31
0.0
 12
614.7557081883794
 22
464.1662192975743
 32
0.0
 13
614.7557081883794
 23
464.1662192975743
 33
0.0
  0
MTEXT
  5
D9
330
D2
100
AcDbEntity
  8
-TEXT2
 62
     3
100
AcDbMText
 10
631.0057081883794
 20
467.720789556783
 30
0.0
 40
5.0
 41
0.0
 71
     5
 72
     1
  1
\A1;33
 73
     1
 44
1.0
1001
ACAD
1000
MTEXTBEGIN
1070
    73
1070
     1
1070
    44
1040
1.0
1070
    74
1070
     0
1000
MTEXTEND
  0
POINT
  5
DA
330
D2
100
AcDbEntity
  8
DEFPOINTS
 62
     0
100
AcDbPoint
 10
647.2557081883794
 20
426.7387956218154
 30
0.0
  0
POINT
  5
DB
330
D2
100
AcDbEntity
  8
DEFPOINTS
 62
     0
100
AcDbPoint
 10
614.7557081883794
 20
454.1662192975743
 30
0.0
  0
POINT
  5
DC
330
D2
100
AcDbEntity
  8
DEFPOINTS
 62
     0
100
AcDbPoint
 10
614.7557081883794
 20
464.1662192975743
 30
0.0
  0
ENDBLK
  5
DD
330
D2
100
AcDbEntity
  8
0
100
AcDbBlockEnd
  0
BLOCK
  5
ED
330
EC
100
AcDbEntity
  8
0
100
AcDbBlockBegin
  2
*D8
 70
     1
 10
0.0
 20
0.0
 30
0.0
  3
*D8
  1

  0
LINE
  5
EE
330
EC
100
AcDbEntity
  8
-TEXT3
 62
     2
370
    -2
100
AcDbLine
 10
649.2557081883794
 20
406.7387956218155
 30
0.0
 11
683.3579151794895
 21
406.7387956218155
 31
0.0
  0
LINE
  5
EF
330
EC
100
AcDbEntity
  8
-TEXT3
 62
     2
370
    -2
100
AcDbLine
 10
649.2557081883794
 20
426.7387956218154
 30
0.0
 11
683.3579151794895
 21
426.7387956218154
 31
0.0
  0
LINE
  5
F0
330
EC
100
AcDbEntity
  8
-TEXT3
 62
     2
370
    -2
100
AcDbLine
 10
682.3579151794895
 20
408.7387956218155
 30
0.0
 11
682.3579151794895
 21
424.7387956218155
 31
0.0
  0
SOLID
  5
F1
330
EC
100
AcDbEntity
  8
-TEXT3
 62
     2
100
AcDbTrace
 10
682.0245818461561
 20
408.7387956218155
 30
0.0
 11
682.6912485128229
 21
408.7387956218155
 31
0.0
 12
682.3579151794895
 22
406.7387956218155
 32
0.0
 13
682.3579151794895
 23
406.7387956218155
 33
0.0
  0
SOLID
  5
F2
330
EC
100
AcDbEntity
  8
-TEXT3
 62
     2
100
AcDbTrace
 10
682.0245818461561
 20
424.7387956218155
 30
0.0
 11
682.6912485128229
 21
424.7387956218155
 31
0.0
 12
682.3579151794895
 22
426.7387956218154
 32
0.0
 13
682.3579151794895
 23
426.7387956218154
 33
0.0
  0
MTEXT
  5
F3
330
EC
100
AcDbEntity
  8
-TEXT3
 62
     3
100
AcDbMText
 10
678.6652139516585
 20
416.7387956218156
 30
0.0
 40
5.0
 41
0.0
 71
     5
 72
     1
  1
\A1;%%c20
 11
0.0000000000000001
 21
1.0
 31
0.0
 73
     1
 44
1.0
1001
ACAD
1000
MTEXTBEGIN
1070
    73
1070
     1
1070
    44
1040
1.0
1070
    74
1070
     0
1000
MTEXTEND
  0
POINT
  5
F4
330
EC
100
AcDbEntity
  8
DEFPOINTS
 62
     0
100
AcDbPoint
 10
647.2557081883794
 20
406.7387956218155
 30
0.0
  0
POINT
  5
F5
330
EC
100
AcDbEntity
  8
DEFPOINTS
 62
     0
100
AcDbPoint
 10
647.2557081883794
 20
426.7387956218154
 30
0.0
  0
POINT
  5
F6
330
EC
100
AcDbEntity
  8
DEFPOINTS
 62
     0
100
AcDbPoint
 10
682.3579151794895
 20
426.7387956218154
 30
0.0
  0
ENDBLK
  5
F7
330
EC
100
AcDbEntity
  8
0
100
AcDbBlockEnd
  0
BLOCK
  5
105
330
104
100
AcDbEntity
  8
0
100
AcDbBlockBegin
  2
*D9
 70
     1
 10
0.0
 20
0.0
 30
0.0
  3
*D9
  1

  0
LINE
  5
106
330
104
100
AcDbEntity
  8
-TEXT2
 62
     2
370
    -2
100
AcDbLine
 10
671.3381845702517
 20
393.7387956218157
 30
0.0
 11
683.3579151794896
 21
393.7387956218157
 31
0.0
  0
LINE
  5
107
330
104
100
AcDbEntity
  8
-TEXT2
 62
     2
370
    -2
100
AcDbLine
 10
671.3381845702517
 20
396.7587956218149
 30
0.0
 11
683.3579151794896
 21
396.7587956218149
 31
0.0
  0
LINE
  5
108
330
104
100
AcDbEntity
  8
-TEXT2
 62
     2
370
    -2
100
AcDbLine
 10
682.3579151794896
 20
391.7387956218157
 30
0.0
 11
682.3579151794896
 21
389.7387956218157
 31
0.0
  0
LINE
  5
109
330
104
100
AcDbEntity
  8
-TEXT2
 62
     2
370
    -2
100
AcDbLine
 10
682.3579151794896
 20
398.7587956218149
 30
0.0
 11
682.3579151794896
 21
400.758795621815
 31
0.0
  0
SOLID
  5
10A
330
104
100
AcDbEntity
  8
-TEXT2
 62
     2
100
AcDbTrace
 10
682.0245818461562
 20
391.7387956218157
 30
0.0
 11
682.691248512823
 21
391.7387956218157
 31
0.0
 12
682.3579151794896
 22
393.7387956218157
 32
0.0
 13
682.3579151794896
 23
393.7387956218157
 33
0.0
  0
SOLID
  5
10B
330
104
100
AcDbEntity
  8
-TEXT2
 62
     2
100
AcDbTrace
 10
682.0245818461562
 20
398.7587956218149
 30
0.0
 11
682.691248512823
 21
398.7587956218149
 31
0.0
 12
682.3579151794896
 22
396.7587956218149
 32
0.0
 13
682.3579151794896
 23
396.7587956218149
 33
0.0
  0
MTEXT
  5
10C
330
104
100
AcDbEntity
  8
-TEXT2
 62
     3
100
AcDbMText
 10
678.8033449202807
 20
395.2487956218154
 30
0.0
 40
5.0
 41
0.0
 71
     5
 72
     1
  1
\A1;3
 11
0.0000000000000001
 21
1.0
 31
0.0
 73
     1
 44
1.0
1001
ACAD
1000
MTEXTBEGIN
1070
    73
1070
     1
1070
    44
1040
1.0
1070
    74
1070
     0
1000
MTEXTEND
  0
POINT
  5
10D
330
104
100
AcDbEntity
  8
DEFPOINTS
 62
     0
100
AcDbPoint
 10
669.3381845702518
 20
393.7387956218157
 30
0.0
  0
POINT
  5
10E
330
104
100
AcDbEntity
  8
DEFPOINTS
 62
     0
100
AcDbPoint
 10
669.3381845702518
 20
396.7587956218149
 30
0.0
  0
POINT
  5
10F
330
104
100
AcDbEntity
  8
DEFPOINTS
 62
     0
100
AcDbPoint
 10
682.3579151794896
 20
396.7587956218149
 30
0.0
  0
ENDBLK
  5
110
330
104
100
AcDbEntity
  8
0
100
AcDbBlockEnd
  0
BLOCK
  5
113
330
112
100
AcDbEntity
  8
0
100
AcDbBlockBegin
  2
*D10
 70
     1
 10
0.0
 20
0.0
 30
0.0
  3
*D10
  1

  0
LINE
  5
114
330
112
100
AcDbEntity
  8
-TEXT3
 62
     2
370
    -2
100
AcDbLine
 10
671.3381845702517
 20
393.7387956218157
 30
0.0
 11
683.3579151794895
 21
393.7387956218157
 31
0.0
  0
LINE
  5
115
330
112
100
AcDbEntity
  8
-TEXT3
 62
     2
370
    -2
100
AcDbLine
 10
671.3381845702517
 20
376.238795621815
 30
0.0
 11
683.3579151794895
 21
376.238795621815
 31
0.0
  0
LINE
  5
116
330
112
100
AcDbEntity
  8
-TEXT3
 62
     2
370
    -2
100
AcDbLine
 10
682.3579151794895
 20
391.7387956218157
 30
0.0
 11
682.3579151794895
 21
378.238795621815
 31
0.0
  0
SOLID
  5
117
330
112
100
AcDbEntity
  8
-TEXT3
 62
     2
100
AcDbTrace
 10
682.0245818461561
 20
391.7387956218157
 30
0.0
 11
682.6912485128229
 21
391.7387956218157
 31
0.0
 12
682.3579151794895
 22
393.7387956218157
 32
0.0
 13
682.3579151794895
 23
393.7387956218157
 33
0.0
  0
SOLID
  5
118
330
112
100
AcDbEntity
  8
-TEXT3
 62
     2
100
AcDbTrace
 10
682.0245818461561
 20
378.238795621815
 30
0.0
 11
682.6912485128229
 21
378.238795621815
 31
0.0
 12
682.3579151794895
 22
376.238795621815
 32
0.0
 13
682.3579151794895
 23
376.238795621815
 33
0.0
  0
MTEXT
  5
119
330
112
100
AcDbEntity
  8
-TEXT3
 62
     3
100
AcDbMText
 10
678.7726491494757
 20
384.9887956218154
 30
0.0
 40
5.0
 41
0.0
 71
     5
 72
     1
  1
\A1;G
 11
0.0000000000000001
 21
1.0
 31
0.0
 73
     1
 44
1.0
1001
ACAD
1000
MTEXTBEGIN
1070
    73
1070
     1
1070
    44
1040
1.0
1070
    74
1070
     0
1000
MTEXTEND
  0
POINT
  5
11A
330
112
100
AcDbEntity
  8
DEFPOINTS
 62
     0
100
AcDbPoint
 10
669.3381845702518
 20
393.7387956218157
 30
0.0
  0
POINT
  5
11B
330
112
100
AcDbEntity
  8
DEFPOINTS
 62
     0
100
AcDbPoint
 10
669.3381845702518
 20
376.238795621815
 30
0.0
  0
POINT
  5
11C
330
112
100
AcDbEntity
  8
DEFPOINTS
 62
     0
100
AcDbPoint
 10
682.3579151794895
 20
376.238795621815
 30
0.0
  0
ENDBLK
  5
11D
330
112
100
AcDbEntity
  8
0
100
AcDbBlockEnd
  0
BLOCK
  5
12
330
11
100
AcDbEntity
  8
0
100
AcDbBlockBegin
  2
*D11
 70
     1
 10
0.0
 20
0.0
 30
0.0
  3
*D11
  1

  0
ARC
  5
13
330
11
100
AcDbEntity
  8
-TEXT3
 62
     2
370
    -2
100
AcDbCircle
 10
561.7357081883799
 20
426.7387956218161
 30
0.0
 40
37.942523367904
100
AcDbArc
 50
3.020485177993654
 51
86.97951482200581
  0
SOLID
  5
14
330
11
100
AcDbEntity
  8
-TEXT3
 62
     2
100
AcDbTrace
 10
599.958737792364
 20
428.74688609852
 30
0.0
 11
599.2923027060773
 21
428.7293156628323
 31
0.0
 12
599.6782315562839
 22
426.7387956218156
 32
0.0
 13
599.6782315562839
 23
426.7387956218156
 33
0.0
  0
SOLID
  5
15
330
11
100
AcDbEntity
  8
-TEXT3
 62
     2
100
AcDbTrace
 10
563.7262282293963
 20
464.2953901395134
 30
0.0
 11
563.7437986650842
 21
464.9618252258003
 31
0.0
 12
561.7357081883796
 22
464.6813189897202
 32
0.0
 13
561.7357081883796
 23
464.6813189897202
 33
0.0
  0
MTEXT
  5
16
330
11
100
AcDbEntity
  8
-TEXT3
 62
     3
100
AcDbMText
 10
591.0773786478838
 20
456.0804660813198
 30
0.0
 40
5.0
 41
0.0
 71
     5
 72
     1
  1
\A1;90°-180°
 11
0.7071067811865457
 21
-0.7071067811865494
 31
0.0
 73
     1
 44
1.0
1001
ACAD
1000
MTEXTBEGIN
1070
    73
1070
     1
1070
    44
1040
1.0
1070
    74
1070
     0
1000
MTEXTEND
  0
POINT
  5
17
330
11
100
AcDbEntity
  8
DEFPOINTS
 62
     0
100
AcDbPoint
 10
594.5948973086696
 20
445.7100573057679
 30
0.0
  0
POINT
  5
19
330
11
100
AcDbEntity
  8
DEFPOINTS
 62
     0
100
AcDbPoint
 10
561.7357081883796
 20
467.2587956218154
 30
0.0
  0
POINT
  5
1A
330
11
100
AcDbEntity
  8
DEFPOINTS
 62
     0
100
AcDbPoint
 10
591.7357081883797
 20
426.7387956218157
 30
0.0
  0
POINT
  5
1B
330
11
100
AcDbEntity
  8
DEFPOINTS
 62
     0
100
AcDbPoint
 10
602.2557081883796
 20
426.7387956218156
 30
0.0
  0
POINT
  5
1C
330
11
100
AcDbEntity
  8
DEFPOINTS
 62
     0
100
AcDbPoint
 10
561.7357081883796
 20
456.7387956218155
 30
0.0
  0
ENDBLK
  5
1D
330
11
100
AcDbEntity
  8
0
100
AcDbBlockEnd
  0
BLOCK
  5
7A
330
79
100
AcDbEntity
  8
0
100
AcDbBlockBegin
  2
*D12
 70
     1
 10
0.0
 20
0.0
 30
0.0
  3
*D12
  1

  0
LINE
  5
7B
330
79
100
AcDbEntity
  8
-TEXT3
 62
     2
370
    -2
100
AcDbLine
 10
541.7357081883773
 20
514.2587956218145
 30
0.0
 11
541.7357081883734
 21
548.3610026129254
 31
0.0
  0
LINE
  5
7C
330
79
100
AcDbEntity
  8
-TEXT3
 62
     2
370
    -2
100
AcDbLine
 10
531.7357081883772
 20
515.7387956218149
 30
0.0
 11
531.7357081883736
 21
548.3610026129244
 31
0.0
  0
LINE
  5
7D
330
79
100
AcDbEntity
  8
-TEXT3
 62
     2
370
    -2
100
AcDbLine
 10
539.7357081883735
 20
547.3610026129253
 30
0.0
 11
533.7357081883737
 21
547.3610026129246
 31
0.0
  0
SOLID
  5
7E
330
79
100
AcDbEntity
  8
-TEXT3
 62
     2
100
AcDbTrace
 10
539.7357081883734
 20
547.6943359462587
 30
0.0
 11
539.7357081883735
 21
547.0276692795919
 31
0.0
 12
541.7357081883735
 22
547.3610026129255
 32
0.0
 13
541.7357081883735
 23
547.3610026129255
 33
0.0
  0
SOLID
  5
7F
330
79
100
AcDbEntity
  8
-TEXT3
 62
     2
100
AcDbTrace
 10
533.7357081883737
 20
547.694335946258
 30
0.0
 11
533.7357081883737
 21
547.0276692795912
 31
0.0
 12
531.7357081883738
 22
547.3610026129243
 32
0.0
 13
531.7357081883738
 23
547.3610026129243
 33
0.0
  0
MTEXT
  5
80
330
79
100
AcDbEntity
  8
-TEXT3
 62
     3
100
AcDbMText
 10
536.7357081883731
 20
550.9138675515333
 30
0.0
 40
5.0
 41
0.0
 71
     5
 72
     1
  1
\A1;10
 73
     1
 44
1.0
1001
ACAD
1000
MTEXTBEGIN
1070
    73
1070
     1
1070
    44
1040
1.0
1070
    74
1070
     0
1000
MTEXTEND
  0
POINT
  5
81
330
79
100
AcDbEntity
  8
DEFPOINTS
 62
     0
100
AcDbPoint
 10
541.7357081883775
 20
512.2587956218145
 30
0.0
  0
POINT
  5
82
330
79
100
AcDbEntity
  8
DEFPOINTS
 62
     0
100
AcDbPoint
 10
531.7357081883775
 20
513.7387956218149
 30
0.0
  0
POINT
  5
83
330
79
100
AcDbEntity
  8
DEFPOINTS
 62
     0
100
AcDbPoint
 10
531.7357081883738
 20
547.3610026129243
 30
0.0
  0
ENDBLK
  5
84
330
79
100
AcDbEntity
  8
0
100
AcDbBlockEnd
  0
BLOCK
  5
E0
330
DF
100
AcDbEntity
  8
0
100
AcDbBlockBegin
  2
*D13
 70
     1
 10
0.0
 20
0.0
 30
0.0
  3
*D13
  1

  0
LINE
  5
E1
330
DF
100
AcDbEntity
  8
-TEXT3
 62
     2
370
    -2
100
AcDbLine
 10
649.2557081883794
 20
406.7387956218155
 30
0.0
 11
683.3579151794895
 21
406.7387956218155
 31
0.0
  0
LINE
  5
E2
330
DF
100
AcDbEntity
  8
-TEXT3
 62
     2
370
    -2
100
AcDbLine
 10
650.7357081883799
 20
396.7387956218157
 30
0.0
 11
683.3579151794895
 21
396.7387956218157
 31
0.0
  0
LINE
  5
E3
330
DF
100
AcDbEntity
  8
-TEXT3
 62
     2
370
    -2
100
AcDbLine
 10
682.3579151794895
 20
404.7387956218155
 30
0.0
 11
682.3579151794895
 21
398.7387956218157
 31
0.0
  0
SOLID
  5
E4
330
DF
100
AcDbEntity
  8
-TEXT3
 62
     2
100
AcDbTrace
 10
682.0245818461561
 20
404.7387956218155
 30
0.0
 11
682.6912485128229
 21
404.7387956218155
 31
0.0
 12
682.3579151794895
 22
406.7387956218155
 32
0.0
 13
682.3579151794895
 23
406.7387956218155
 33
0.0
  0
SOLID
  5
E5
330
DF
100
AcDbEntity
  8
-TEXT3
 62
     2
100
AcDbTrace
 10
682.0245818461561
 20
398.7387956218157
 30
0.0
 11
682.6912485128229
 21
398.7387956218157
 31
0.0
 12
682.3579151794895
 22
396.7387956218157
 32
0.0
 13
682.3579151794895
 23
396.7387956218157
 33
0.0
  0
MTEXT
  5
E6
330
DF
100
AcDbEntity
  8
-TEXT3
 62
     3
100
AcDbMText
 10
678.8050502408809
 20
401.7387956218157
 30
0.0
 40
5.0
 41
0.0
 71
     5
 72
     1
  1
\A1;10
 11
0.0000000000000001
 21
1.0
 31
0.0
 73
     1
 44
1.0
1001
ACAD
1000
MTEXTBEGIN
1070
    73
1070
     1
1070
    44
1040
1.0
1070
    74
1070
     0
1000
MTEXTEND
  0
POINT
  5
E7
330
DF
100
AcDbEntity
  8
DEFPOINTS
 62
     0
100
AcDbPoint
 10
647.2557081883794
 20
406.7387956218155
 30
0.0
  0
POINT
  5
E8
330
DF
100
AcDbEntity
  8
DEFPOINTS
 62
     0
100
AcDbPoint
 10
648.7357081883799
 20
396.7387956218157
 30
0.0
  0
POINT
  5
E9
330
DF
100
AcDbEntity
  8
DEFPOINTS
 62
     0
100
AcDbPoint
 10
682.3579151794895
 20
396.7387956218157
 30
0.0
  0
ENDBLK
  5
EA
330
DF
100
AcDbEntity
  8
0
100
AcDbBlockEnd
  0
BLOCK
  5
160
330
15F
100
AcDbEntity
  8
0
100
AcDbBlockBegin
  2
*D14
 70
     1
 10
0.0
 20
0.0
 30
0.0
  3
*D14
  1

  0
LINE
  5
161
330
15F
100
AcDbEntity
  8
-TEXT3
 62
     2
370
    -2
100
AcDbLine
 10
648.7557081883807
 20
374.2387956218144
 30
0.0
 11
648.7557081883807
 21
344.5820550878184
 31
0.0
  0
LINE
  5
162
330
15F
100
AcDbEntity
  8
-TEXT3
 62
     2
370
    -2
100
AcDbLine
 10
580.7557081883796
 20
374.238795621815
 30
0.0
 11
580.7557081883796
 21
344.5820550878184
 31
0.0
  0
LINE
  5
163
330
15F
100
AcDbEntity
  8
-TEXT3
 62
     2
370
    -2
100
AcDbLine
 10
646.7557081883808
 20
345.5820550878184
 30
0.0
 11
582.7557081883797
 21
345.5820550878184
 31
0.0
  0
SOLID
  5
164
330
15F
100
AcDbEntity
  8
-TEXT3
 62
     2
100
AcDbTrace
 10
646.7557081883808
 20
345.9153884211517
 30
0.0
 11
646.7557081883808
 21
345.2487217544851
 31
0.0
 12
648.7557081883807
 22
345.5820550878184
 32
0.0
 13
648.7557081883807
 23
345.5820550878184
 33
0.0
  0
SOLID
  5
165
330
15F
100
AcDbEntity
  8
-TEXT3
 62
     2
100
AcDbTrace
 10
582.7557081883797
 20
345.9153884211517
 30
0.0
 11
582.7557081883797
 21
345.2487217544851
 31
0.0
 12
580.7557081883796
 22
345.5820550878184
 32
0.0
 13
580.7557081883796
 23
345.5820550878184
 33
0.0
  0
MTEXT
  5
166
330
15F
100
AcDbEntity
  8
-TEXT3
 62
     3
100
AcDbMText
 10
614.7557081883794
 20
349.2747563156492
 30
0.0
 40
5.0
 41
0.0
 71
     5
 72
     1
  1
\A1;%%c68
 73
     1
 44
1.0
1001
ACAD
1000
MTEXTBEGIN
1070
    73
1070
     1
1070
    44
1040
1.0
1070
    74
1070
     0
1000
MTEXTEND
  0
POINT
  5
167
330
15F
100
AcDbEntity
  8
DEFPOINTS
 62
     0
100
AcDbPoint
 10
648.7557081883807
 20
376.2387956218144
 30
0.0
  0
POINT
  5
168
330
15F
100
AcDbEntity
  8
DEFPOINTS
 62
     0
100
AcDbPoint
 10
580.7557081883796
 20
376.238795621815
 30
0.0
  0
POINT
  5
169
330
15F
100
AcDbEntity
  8
DEFPOINTS
 62
     0
100
AcDbPoint
 10
580.7557081883796
 20
345.5820550878184
 30
0.0
  0
ENDBLK
  5
16A
330
15F
100
AcDbEntity
  8
0
100
AcDbBlockEnd
  0
BLOCK
  5
153
330
152
100
AcDbEntity
  8
0
100
AcDbBlockBegin
  2
*D15
 70
     1
 10
0.0
 20
0.0
 30
0.0
  3
*D15
  1

  0
LINE
  5
154
330
152
100
AcDbEntity
  8
-TEXT3
 62
     2
370
    -2
100
AcDbLine
 10
635.755708188379
 20
374.2387956218153
 30
0.0
 11
635.755708188379
 21
357.4400541089199
 31
0.0
  0
LINE
  5
155
330
152
100
AcDbEntity
  8
-TEXT3
 62
     2
370
    -2
100
AcDbLine
 10
593.7557081883794
 20
374.2387956218149
 30
0.0
 11
593.7557081883794
 21
357.4400541089199
 31
0.0
  0
LINE
  5
156
330
152
100
AcDbEntity
  8
-TEXT3
 62
     2
370
    -2
100
AcDbLine
 10
633.7557081883789
 20
358.4400541089199
 30
0.0
 11
595.7557081883794
 21
358.4400541089199
 31
0.0
  0
SOLID
  5
157
330
152
100
AcDbEntity
  8
-TEXT3
 62
     2
100
AcDbTrace
 10
633.7557081883789
 20
358.7733874422532
 30
0.0
 11
633.7557081883789
 21
358.1067207755865
 31
0.0
 12
635.755708188379
 22
358.4400541089199
 32
0.0
 13
635.755708188379
 23
358.4400541089199
 33
0.0
  0
SOLID
  5
158
330
152
100
AcDbEntity
  8
-TEXT3
 62
     2
100
AcDbTrace
 10
595.7557081883794
 20
358.7733874422532
 30
0.0
 11
595.7557081883794
 21
358.1067207755865
 31
0.0
 12
593.7557081883794
 22
358.4400541089199
 32
0.0
 13
593.7557081883794
 23
358.4400541089199
 33
0.0
  0
MTEXT
  5
159
330
152
100
AcDbEntity
  8
-TEXT3
 62
     3
100
AcDbMText
 10
615.0029528998125
 20
362.1327553367507
 30
0.0
 40
5.0
 41
0.0
 71
     5
 72
     1
  1
\A1;%%c42
 73
     1
 44
1.0
1001
ACAD
1000
MTEXTBEGIN
1070
    73
1070
     1
1070
    44
1040
1.0
1070
    74
1070
     0
1000
MTEXTEND
  0
POINT
  5
15A
330
152
100
AcDbEntity
  8
DEFPOINTS
 62
     0
100
AcDbPoint
 10
635.755708188379
 20
376.2387956218153
 30
0.0
  0
POINT
  5
15B
330
152
100
AcDbEntity
  8
DEFPOINTS
 62
     0
100
AcDbPoint
 10
593.7557081883794
 20
376.2387956218149
 30
0.0
  0
POINT
  5
15C
330
152
100
AcDbEntity
  8
DEFPOINTS
 62
     0
100
AcDbPoint
 10
593.7557081883794
 20
358.4400541089199
 30
0.0
  0
ENDBLK
  5
15D
330
152
100
AcDbEntity
  8
0
100
AcDbBlockEnd
  0
BLOCK
  5
197
330
196
100
AcDbEntity
  8
0
100
AcDbBlockBegin
  2
*D16
 70
     1
 10
0.0
 20
0.0
 30
0.0
  3
*D16
  1

  0
LINE
  5
198
330
196
100
AcDbEntity
  8
-TEXT3
 62
     2
370
    -2
100
AcDbLine
 10
509.2357081883783
 20
458.7587956218142
 30
0.0
 11
492.4369666754829
 21
458.7587956218142
 31
0.0
  0
LINE
  5
199
330
196
100
AcDbEntity
  8
-TEXT3
 62
     2
370
    -2
100
AcDbLine
 10
509.2357081883779
 20
500.7587956218138
 30
0.0
 11
492.4369666754829
 21
500.7587956218138
 31
0.0
  0
LINE
  5
19A
330
196
100
AcDbEntity
  8
-TEXT3
 62
     2
370
    -2
100
AcDbLine
 10
493.4369666754829
 20
460.7587956218142
 30
0.0
 11
493.4369666754829
 21
498.7587956218137
 31
0.0
  0
SOLID
  5
19B
330
196
100
AcDbEntity
  8
-TEXT3
 62
     2
100
AcDbTrace
 10
493.1036333421496
 20
460.7587956218142
 30
0.0
 11
493.7703000088162
 21
460.7587956218142
 31
0.0
 12
493.4369666754829
 22
458.7587956218142
 32
0.0
 13
493.4369666754829
 23
458.7587956218142
 33
0.0
  0
SOLID
  5
19C
330
196
100
AcDbEntity
  8
-TEXT3
 62
     2
100
AcDbTrace
 10
493.1036333421496
 20
498.7587956218137
 30
0.0
 11
493.7703000088162
 21
498.7587956218137
 31
0.0
 12
493.4369666754829
 22
500.7587956218138
 32
0.0
 13
493.4369666754829
 23
500.7587956218138
 33
0.0
  0
MTEXT
  5
19D
330
196
100
AcDbEntity
  8
-TEXT3
 62
     3
100
AcDbMText
 10
489.744265447652
 20
479.5115509103808
 30
0.0
 40
5.0
 41
0.0
 71
     5
 72
     1
  1
\A1;%%c42
 11
0.0000000000000001
 21
1.0
 31
0.0
 73
     1
 44
1.0
1001
ACAD
1000
MTEXTBEGIN
1070
    73
1070
     1
1070
    44
1040
1.0
1070
    74
1070
     0
1000
MTEXTEND
  0
POINT
  5
19E
330
196
100
AcDbEntity
  8
DEFPOINTS
 62
     0
100
AcDbPoint
 10
511.2357081883782
 20
458.7587956218142
 30
0.0
  0
POINT
  5
19F
330
196
100
AcDbEntity
  8
DEFPOINTS
 62
     0
100
AcDbPoint
 10
511.2357081883779
 20
500.7587956218138
 30
0.0
  0
POINT
  5
1A0
330
196
100
AcDbEntity
  8
DEFPOINTS
 62
     0
100
AcDbPoint
 10
493.4369666754829
 20
500.7587956218138
 30
0.0
  0
ENDBLK
  5
1A1
330
196
100
AcDbEntity
  8
0
100
AcDbBlockEnd
  0
BLOCK
  5
18A
330
189
100
AcDbEntity
  8
0
100
AcDbBlockBegin
  2
*D17
 70
     1
 10
0.0
 20
0.0
 30
0.0
  3
*D17
  1

  0
LINE
  5
18B
330
189
100
AcDbEntity
  8
-TEXT3
 62
     2
370
    -2
100
AcDbLine
 10
509.2357081883773
 20
445.7587956218124
 30
0.0
 11
479.5789676543814
 21
445.7587956218124
 31
0.0
  0
LINE
  5
18C
330
189
100
AcDbEntity
  8
-TEXT3
 62
     2
370
    -2
100
AcDbLine
 10
509.235708188378
 20
513.7587956218135
 30
0.0
 11
479.5789676543814
 21
513.7587956218135
 31
0.0
  0
LINE
  5
18D
330
189
100
AcDbEntity
  8
-TEXT3
 62
     2
370
    -2
100
AcDbLine
 10
480.5789676543814
 20
447.7587956218124
 30
0.0
 11
480.5789676543814
 21
511.7587956218135
 31
0.0
  0
SOLID
  5
18E
330
189
100
AcDbEntity
  8
-TEXT3
 62
     2
100
AcDbTrace
 10
480.2456343210481
 20
447.7587956218124
 30
0.0
 11
480.9123009877147
 21
447.7587956218124
 31
0.0
 12
480.5789676543814
 22
445.7587956218124
 32
0.0
 13
480.5789676543814
 23
445.7587956218124
 33
0.0
  0
SOLID
  5
18F
330
189
100
AcDbEntity
  8
-TEXT3
 62
     2
100
AcDbTrace
 10
480.2456343210481
 20
511.7587956218135
 30
0.0
 11
480.9123009877147
 21
511.7587956218135
 31
0.0
 12
480.5789676543814
 22
513.7587956218135
 32
0.0
 13
480.5789676543814
 23
513.7587956218135
 33
0.0
  0
MTEXT
  5
190
330
189
100
AcDbEntity
  8
-TEXT3
 62
     3
100
AcDbMText
 10
476.8862664265506
 20
479.7587956218138
 30
0.0
 40
5.0
 41
0.0
 71
     5
 72
     1
  1
\A1;%%c68
 11
0.0000000000000001
 21
1.0
 31
0.0
 73
     1
 44
1.0
1001
ACAD
1000
MTEXTBEGIN
1070
    73
1070
     1
1070
    44
1040
1.0
1070
    74
1070
     0
1000
MTEXTEND
  0
POINT
  5
191
330
189
100
AcDbEntity
  8
DEFPOINTS
 62
     0
100
AcDbPoint
 10
511.2357081883772
 20
445.7587956218124
 30
0.0
  0
POINT
  5
192
330
189
100
AcDbEntity
  8
DEFPOINTS
 62
     0
100
AcDbPoint
 10
511.235708188378
 20
513.7587956218135
 30
0.0
  0
POINT
  5
193
330
189
100
AcDbEntity
  8
DEFPOINTS
 62
     0
100
AcDbPoint
 10
480.5789676543814
 20
513.7587956218135
 30
0.0
  0
ENDBLK
  5
194
330
189
100
AcDbEntity
  8
0
100
AcDbBlockEnd
  0
ENDSEC
  0
SECTION
  2
ENTITIES
  0
LINE
  5
9
330
2
100
AcDbEntity
  8
-SYSTEM
100
AcDbLine
 10
505.8454362846101
 20
479.7587956218136
 30
0.0
 11
589.1631318641372
 21
479.7587956218158
 31
0.0
  0
DIMENSION
  5
C
330
2
100
AcDbEntity
  8
-TEXT3
100
AcDbDimension
  2
*D11
 10
561.7357081883795
 20
456.7387956218154
 30
0.0
 11
591.077378647884
 21
456.0804660813198
 31
0.0
 70
     2
  1
<>-180°
 71
     5
 42
1.570796326794917
  3
1-1
100
AcDb2LineAngularDimension
 13
591.7357081883795
 23
426.7387956218156
 33
0.0
 14
602.2557081883795
 24
426.7387956218155
 34
0.0
 15
561.7357081883795
 25
467.2587956218154
 35
0.0
 16
594.5948973086696
 26
445.7100573057679
 36
0.0
  0
DIMENSION
  5
1E
330
2
100
AcDbEntity
  8
-TEXT2
100
AcDbDimension
  2
*D1
 10
599.1631318641371
 20
479.7587956218158
 30
0.0
 11
595.6085616049283
 21
496.0087956218155
 31
0.0
 71
     5
 42
32.4999999999992
  3
1-1
100
AcDbAlignedDimension
 13
561.7357081883774
 23
512.2587956218151
 33
0.0
 14
589.1631318641372
 24
479.7587956218158
 34
0.0
 50
270.0
100
AcDbRotatedDimension
  0
DIMENSION
  5
2C
330
2
100
AcDbEntity
  8
-TEXT2
100
AcDbDimension
  2
*D2
 10
682.3579151794895
 20
512.2587956218151
 30
0.0
 11
678.8050502408809
 21
469.4987956218154
 31
0.0
 71
     5
 42
85.51999999999958
  3
1-1
100
AcDbAlignedDimension
 13
647.2557081883794
 23
426.7387956218154
 33
0.0
 14
561.7357081883774
 24
512.2587956218151
 34
0.0
 50
270.0
100
AcDbRotatedDimension
  0
DIMENSION
  5
39
330
2
100
AcDbEntity
  8
-TEXT2
100
AcDbDimension
  2
*D3
 10
647.2557081883794
 20
547.3452368471596
 30
0.0
 11
604.4957081883784
 21
550.8981017857681
 31
0.0
 71
     5
 42
85.52000000000203
  3
1-1
100
AcDbAlignedDimension
 13
561.7357081883774
 23
512.2587956218151
 33
0.0
 14
647.2557081883794
 24
426.7387956218154
 34
0.0
100
AcDbRotatedDimension
  0
INSERT
  5
46
330
2
100
AcDbEntity
  8
-TEXT3
100
AcDbBlockReference
  2
1587-M12
 10
564.7357081883784
 20
479.7587956218152
 30
0.0
 50
90.0
  0
LWPOLYLINE
  5
5A
330
2
100
AcDbEntity
  8
-PROFILAUSSENKANTET
100
AcDbPolyline
 90
        4
 70
     0
 43
0.0
 10
602.2544160695319
 20
406.7387956218154
 10
591.7357081883798
 20
406.7387956218154
 42
-0.4142135623730942
 10
541.7357081883798
 20
456.7387956218152
 10
541.7357081883798
 20
467.2575035029677
  0
LWPOLYLINE
  5
5D
330
2
100
AcDbEntity
  8
-PROFILAUSSENKANTET
100
AcDbPolyline
 90
        4
 70
     0
 43
0.0
 10
561.7357081883795
 20
467.2587956218154
 10
561.7357081883795
 20
456.7387956218154
 42
0.4142135623730928
 10
591.7357081883795
 20
426.7387956218156
 10
602.2557081883795
 20
426.7387956218155
  0
LWPOLYLINE
  5
5E
330
2
100
AcDbEntity
  8
-VERGLASUNG
100
AcDbPolyline
 90
        6
 70
     0
 43
0.0
 10
669.3381845702518
 20
376.238795621815
 10
512.2357081883808
 20
376.2387956218146
 10
511.2357081883809
 20
377.2387956218146
 10
511.2357081883809
 20
392.738795621815
 10
512.2357081883808
 20
393.738795621815
 10
669.3381845702518
 20
393.7387956218157
  0
LINE
  5
60
330
2
100
AcDbEntity
  8
-VERGLASUNG
100
AcDbLine
 10
515.1295830787153
 20
459.2213477948613
 30
0.0
 11
511.2357081883787
 21
455.3274729045244
 31
0.0
  0
LWPOLYLINE
  5
61
102
{ACAD_REACTORS
330
67
102
}
330
2
100
AcDbEntity
  8
-DICHTUNG
100
AcDbPolyline
 90
        4
 70
     1
 43
0.0
 10
531.7357081883775
 20
513.2387956218149
 10
531.7357081883793
 20
446.2387956218147
 10
528.7357081883794
 20
446.2387956218146
 10
528.7357081883775
 20
513.2387956218146
  0
LWPOLYLINE
  5
63
330
2
100
AcDbEntity
  8
-PROFILAUSSENKANTET
100
AcDbPolyline
 90
       13
 70
     1
 43
0.0
 10
531.7357081883793
 20
445.7387956218147
 10
535.0396948514245
 20
445.7387956218151
 42
0.3137493583978639
 10
535.9774436121484
 20
446.3914812659916
 10
539.0105019170717
 20
465.3007386892851
 42
-0.3057076911406833
 10
541.7357081883785
 20
467.257503502967
 42
0.2667424445669822
 10
546.7357081883785
 20
475.9587956218148
 10
546.7357081883785
 20
483.5587956218142
 42
0.266742444566985
 10
541.7357081883779
 20
492.2600877406615
 42
-0.3057076911407296
 10
539.0105019170707
 20
494.2168525543435
 10
535.9774436121464
 20
513.0861099776384
 42
0.3137493583978905
 10
535.0396948514227
 20
513.7387956218149
 10
531.7357081883775
 20
513.7387956218149
 10
531.7357081883787
 20
470.7387956218147
  0
LINE
  5
64
330
2
100
AcDbEntity
  8
-SCHRAFFUR
100
AcDbLine
 10
535.9774436121484
 20
446.3914812659916
 30
0.0
 11
535.9774436121464
 21
513.0861099776384
 31
0.0
  0
LINE
  5
66
330
2
100
AcDbEntity
  8
-SCHRAFFUR
100
AcDbLine
 10
535.0396948514245
 20
445.7387956218151
 30
0.0
 11
535.0396948514227
 21
513.7387956218149
 31
0.0
  0
HATCH
  5
67
330
2
100
AcDbEntity
  8
-SCHRAFFUR
100
AcDbHatch
 10
0.0
 20
0.0
 30
0.0
210
0.0
220
0.0
230
1.0
  2
SOLID
 70
     1
 71
     1
 91
        1
 92
        1
 93
        4
 72
     1
 10
531.7357081883775
 20
513.2387956218149
 11
531.7357081883793
 21
446.2387956218147
 72
     1
 10
531.7357081883793
 20
446.2387956218147
 11
528.7357081883794
 21
446.2387956218146
 72
     1
 10
528.7357081883794
 20
446.2387956218146
 11
528.7357081883775
 21
513.2387956218146
 72
     1
 10
528.7357081883775
 20
513.2387956218146
 11
531.7357081883775
 21
513.2387956218149
 97
        1
330
61
 75
     0
 76
     1
 98
        1
 10
718.6428154285599
 20
22.10050275241065
  0
LWPOLYLINE
  5
68
330
2
100
AcDbEntity
  8
-VERGLASUNG
100
AcDbPolyline
 90
        6
 70
     0
 43
0.0
 10
511.2357081883763
 20
534.3412720036861
 10
511.2357081883802
 20
400.7387956218142
 10
512.2357081883802
 20
399.7387956218142
 10
527.7357081883807
 20
399.7387956218147
 10
528.7357081883807
 20
400.7387956218146
 10
528.735708188377
 20
534.3412720036865
  0
LINE
  5
69
330
2
100
AcDbEntity
  8
-VERGLASUNG
100
AcDbLine
 10
528.7357082590899
 20
459.1287623588709
 30
0.0
 11
524.841833368753
 21
455.2348874685341
 31
0.0
  0
LINE
  5
6A
330
2
100
AcDbEntity
  8
-VERGLASUNG
100
AcDbLine
 10
528.73570825909
 20
457.5662623588709
 30
0.0
 11
524.841833368753
 21
453.6723874685341
 31
0.0
  0
DIMENSION
  5
6B
330
2
100
AcDbEntity
  8
-TEXT3
100
AcDbDimension
  2
*D4
 10
561.7357081883734
 20
547.3610026129251
 30
0.0
 11
551.7357081883729
 21
551.0537038407549
 31
0.0
  1
%%c<>
 71
     5
 42
19.99999999999988
  3
1-1
100
AcDbAlignedDimension
 13
541.7357081883775
 23
512.2587956218145
 33
0.0
 14
561.7357081883774
 24
512.2587956218151
 34
0.0
 50
180.0000000000065
100
AcDbRotatedDimension
  0
DIMENSION
  5
78
330
2
100
AcDbEntity
  8
-TEXT3
100
AcDbDimension
  2
*D12
 10
531.7357081883738
 20
547.3610026129243
 30
0.0
 11
536.7357081883731
 21
550.9138675515333
 31
0.0
 71
     5
 42
9.999999999999772
  3
1-1
100
AcDbAlignedDimension
 13
541.7357081883775
 23
512.2587956218145
 33
0.0
 14
531.7357081883775
 24
513.7387956218149
 34
0.0
 50
180.0000000000065
100
AcDbRotatedDimension
  0
DIMENSION
  5
85
330
2
100
AcDbEntity
  8
-TEXT3
100
AcDbDimension
  2
*D5
 10
511.2357081883748
 20
547.3610026129238
 30
0.0
 11
519.9857081883747
 21
550.9462686429384
 31
0.0
  1
G
 71
     5
 42
17.50000000000062
  3
1-1
100
AcDbAlignedDimension
 13
528.735708188377
 23
534.3412720036865
 33
0.0
 14
511.2357081883763
 24
534.3412720036861
 34
0.0
 50
180.0000000000065
100
AcDbRotatedDimension
  0
DIMENSION
  5
92
330
2
100
AcDbEntity
  8
-TEXT2
100
AcDbDimension
  2
*D6
 10
531.7557081883762
 20
547.3610026129242
 30
0.0
 11
530.2457081883765
 21
547.3610026129242
 31
0.0
 70
   128
 71
     5
 42
3.019999999999299
  3
1-1
100
AcDbAlignedDimension
 13
528.735708188377
 23
534.3412720036865
 33
0.0
 14
531.7557081883762
 24
534.3412720036866
 34
0.0
 50
0.0000000000065138
100
AcDbRotatedDimension
  0
LWPOLYLINE
  5
A0
330
2
100
AcDbEntity
  8
-PROFILAUSSENKANTET
100
AcDbPolyline
 90
        4
 70
     0
 43
0.0
 10
561.7357081883779
 20
492.258795621815
 10
561.7357081883774
 20
512.2587956218151
 10
541.7357081883775
 20
512.2587956218145
 10
541.7357081883779
 20
492.2600877406615
  0
LINE
  5
A1
330
2
100
AcDbEntity
  8
-VERGLASUNG
100
AcDbLine
 10
515.1295832908458
 20
535.7838478811417
 30
0.0
 11
511.2357084005093
 21
531.8899729908046
 31
0.0
  0
LINE
  5
A2
330
2
100
AcDbEntity
  8
-VERGLASUNG
100
AcDbLine
 10
515.129583290846
 20
534.2213478811417
 30
0.0
 11
511.2357084005094
 21
530.3274729908046
 31
0.0
  0
LINE
  5
A3
330
2
100
AcDbEntity
  8
-VERGLASUNG
100
AcDbLine
 10
515.1295832908459
 20
537.3463478811417
 30
0.0
 11
511.2357084005093
 21
533.4524729908046
 31
0.0
  0
LINE
  5
A4
330
2
100
AcDbEntity
  8
-VERGLASUNG
100
AcDbLine
 10
528.7357084712208
 20
532.5662624451508
 30
0.0
 11
524.8418335808838
 21
528.6723875548142
 31
0.0
  0
LINE
  5
A5
330
2
100
AcDbEntity
  8
-VERGLASUNG
100
AcDbLine
 10
528.7357084712207
 20
534.1287624451508
 30
0.0
 11
524.8418335808838
 21
530.2348875548142
 31
0.0
  0
LINE
  5
A6
330
2
100
AcDbEntity
  8
-VERGLASUNG
100
AcDbLine
 10
528.7357084712208
 20
531.0037624451508
 30
0.0
 11
524.8418335808842
 21
527.1098875548142
 31
0.0
  0
LINE
  5
A7
330
2
100
AcDbEntity
  8
-VERGLASUNG
100
AcDbLine
 10
515.1295832201356
 20
510.7838478523814
 30
0.0
 11
511.2357083297991
 21
506.8899729620445
 31
0.0
  0
LINE
  5
A8
330
2
100
AcDbEntity
  8
-VERGLASUNG
100
AcDbLine
 10
515.1295832201358
 20
512.3463478523814
 30
0.0
 11
511.235708329799
 21
508.4524729620445
 31
0.0
  0
LINE
  5
A9
330
2
100
AcDbEntity
  8
-VERGLASUNG
100
AcDbLine
 10
515.1295832201358
 20
509.2213478523814
 30
0.0
 11
511.2357083297991
 21
505.3274729620445
 31
0.0
  0
LINE
  5
AA
330
2
100
AcDbEntity
  8
-VERGLASUNG
100
AcDbLine
 10
528.7357084005106
 20
507.566262416391
 30
0.0
 11
524.8418335101736
 21
503.6723875260541
 31
0.0
  0
LINE
  5
AB
330
2
100
AcDbEntity
  8
-VERGLASUNG
100
AcDbLine
 10
528.7357084005106
 20
506.003762416391
 30
0.0
 11
524.8418335101739
 21
502.1098875260541
 31
0.0
  0
LINE
  5
AC
330
2
100
AcDbEntity
  8
-VERGLASUNG
100
AcDbLine
 10
528.7357084005105
 20
509.128762416391
 30
0.0
 11
524.8418335101736
 21
505.2348875260541
 31
0.0
  0
LINE
  5
AD
330
2
100
AcDbEntity
  8
-SCHRAFFUR
100
AcDbLine
 10
539.0105019170717
 20
465.3007386892856
 30
0.0
 11
539.0105019170707
 21
494.2168525543435
 31
0.0
  0
LINE
  5
AE
330
2
100
AcDbEntity
  8
-SCHRAFFUR
100
AcDbLine
 10
543.7357081883789
 20
468.7880687807728
 30
0.0
 11
543.7357081883769
 21
490.7295224628573
 31
0.0
  0
LINE
  5
AF
330
2
100
AcDbEntity
  8
-SCHRAFFUR
100
AcDbLine
 10
541.823748199243
 20
467.3094393588622
 30
0.0
 11
541.8237481992418
 21
492.2081518847666
 31
0.0
  0
LINE
  5
B0
330
2
100
AcDbEntity
  8
-SCHRAFFUR
100
AcDbLine
 10
559.735708188378
 20
490.7367080352853
 30
0.0
 11
559.7357081883788
 21
468.7808832083448
 31
0.0
  0
LWPOLYLINE
  5
B1
330
2
100
AcDbEntity
  8
-PROFILAUSSENKANTET
100
AcDbPolyline
 90
        6
 70
     1
 43
0.0
 10
556.7357081883787
 20
475.8587956218149
 42
0.2656816979737874
 10
561.7357081883787
 20
467.258795621815
 10
564.7357081883788
 20
467.2587956218152
 10
564.7357081883781
 20
492.2587956218152
 10
561.735708188378
 20
492.258795621815
 42
0.2656816979737873
 10
556.7357081883785
 20
483.6587956218151
  0
LINE
  5
B2
330
2
100
AcDbEntity
  8
-VERGLASUNG
100
AcDbLine
 10
515.1295830080051
 20
435.7838477661013
 30
0.0
 11
511.2357081883791
 21
431.8899729464751
 31
0.0
  0
LINE
  5
B3
330
2
100
AcDbEntity
  8
-VERGLASUNG
100
AcDbLine
 10
515.1295830080051
 20
437.3463477661013
 30
0.0
 11
511.235708188379
 21
433.4524729464751
 31
0.0
  0
LINE
  5
B4
330
2
100
AcDbEntity
  8
-VERGLASUNG
100
AcDbLine
 10
528.73570825909
 20
456.0037623588709
 30
0.0
 11
524.8418333687534
 21
452.1098874685341
 31
0.0
  0
LINE
  5
B5
330
2
100
AcDbEntity
  8
-VERGLASUNG
100
AcDbLine
 10
515.1295830080051
 20
434.2213477661013
 30
0.0
 11
511.2357081883791
 21
430.3274729464751
 31
0.0
  0
LINE
  5
B6
330
2
100
AcDbEntity
  8
-VERGLASUNG
100
AcDbLine
 10
528.7357081883798
 20
431.0037623301109
 30
0.0
 11
524.8418333687538
 21
427.1098875104847
 31
0.0
  0
LINE
  5
B7
330
2
100
AcDbEntity
  8
-VERGLASUNG
100
AcDbLine
 10
528.7357081883798
 20
432.5662623301109
 30
0.0
 11
524.8418333687538
 21
428.6723875104847
 31
0.0
  0
LINE
  5
B8
330
2
100
AcDbEntity
  8
-VERGLASUNG
100
AcDbLine
 10
528.7357081883796
 20
434.1287623301109
 30
0.0
 11
524.8418333687538
 21
430.2348875104847
 31
0.0
  0
LINE
  5
B9
330
2
100
AcDbEntity
  8
-VERGLASUNG
100
AcDbLine
 10
517.5631749805774
 20
393.7387956218157
 30
0.0
 11
513.6693001609514
 21
389.8449208021896
 31
0.0
  0
LINE
  5
BA
330
2
100
AcDbEntity
  8
-VERGLASUNG
100
AcDbLine
 10
516.0006749805774
 20
393.7387956218157
 30
0.0
 11
512.1068001609514
 21
389.8449208021896
 31
0.0
  0
LINE
  5
BB
330
2
100
AcDbEntity
  8
-VERGLASUNG
100
AcDbLine
 10
519.1256749805774
 20
393.7387956218157
 30
0.0
 11
515.2318001609514
 21
389.8449208021896
 31
0.0
  0
LINE
  5
BC
330
2
100
AcDbEntity
  8
-VERGLASUNG
100
AcDbLine
 10
515.1295830080057
 20
412.346347808052
 30
0.0
 11
511.2357081883797
 21
408.4524729884257
 31
0.0
  0
LINE
  5
BD
330
2
100
AcDbEntity
  8
-VERGLASUNG
100
AcDbLine
 10
515.1295830080057
 20
409.221347808052
 30
0.0
 11
511.2357081883798
 21
405.3274729884257
 31
0.0
  0
LINE
  5
BE
330
2
100
AcDbEntity
  8
-VERGLASUNG
100
AcDbLine
 10
515.1295830080057
 20
410.783847808052
 30
0.0
 11
511.2357081883798
 21
406.8899729884257
 31
0.0
  0
LINE
  5
BF
330
2
100
AcDbEntity
  8
-VERGLASUNG
100
AcDbLine
 10
528.7357081883803
 20
409.1287623720615
 30
0.0
 11
524.8418333687545
 21
405.2348875524354
 31
0.0
  0
LINE
  5
C0
330
2
100
AcDbEntity
  8
-VERGLASUNG
100
AcDbLine
 10
528.7357081883804
 20
407.5662623720615
 30
0.0
 11
524.8418333687545
 21
403.6723875524354
 31
0.0
  0
LINE
  5
C1
330
2
100
AcDbEntity
  8
-VERGLASUNG
100
AcDbLine
 10
528.7357081883804
 20
406.0037623720615
 30
0.0
 11
524.8418333687546
 21
402.1098875524354
 31
0.0
  0
LINE
  5
C2
330
2
100
AcDbEntity
  8
-VERGLASUNG
100
AcDbLine
 10
520.7807604165682
 20
380.132670441441
 30
0.0
 11
516.8868855969422
 21
376.238795621815
 31
0.0
  0
LINE
  5
C3
330
2
100
AcDbEntity
  8
-VERGLASUNG
100
AcDbLine
 10
522.3432604165682
 20
380.132670441441
 30
0.0
 11
518.4493855969422
 21
376.238795621815
 31
0.0
  0
LINE
  5
C4
330
2
100
AcDbEntity
  8
-VERGLASUNG
100
AcDbLine
 10
519.2182604165682
 20
380.132670441441
 30
0.0
 11
515.3243855969422
 21
376.238795621815
 31
0.0
  0
LINE
  5
C5
330
2
100
AcDbEntity
  8
-VERGLASUNG
100
AcDbLine
 10
542.5631749386268
 20
393.7387956218157
 30
0.0
 11
538.6693001190008
 21
389.8449208021896
 31
0.0
  0
LINE
  5
C6
330
2
100
AcDbEntity
  8
-VERGLASUNG
100
AcDbLine
 10
544.1256749386268
 20
393.7387956218157
 30
0.0
 11
540.2318001190008
 21
389.8449208021896
 31
0.0
  0
LINE
  5
C7
330
2
100
AcDbEntity
  8
-VERGLASUNG
100
AcDbLine
 10
541.0006749386268
 20
393.7387956218157
 30
0.0
 11
537.1068001190008
 21
389.8449208021896
 31
0.0
  0
LINE
  5
C8
330
2
100
AcDbEntity
  8
-VERGLASUNG
100
AcDbLine
 10
545.7807603746175
 20
380.132670441441
 30
0.0
 11
541.8868855549915
 21
376.238795621815
 31
0.0
  0
LINE
  5
C9
330
2
100
AcDbEntity
  8
-VERGLASUNG
100
AcDbLine
 10
544.2182603746175
 20
380.132670441441
 30
0.0
 11
540.3243855549915
 21
376.238795621815
 31
0.0
  0
LINE
  5
CA
330
2
100
AcDbEntity
  8
-VERGLASUNG
100
AcDbLine
 10
547.3432603746175
 20
380.132670441441
 30
0.0
 11
543.4493855549915
 21
376.238795621815
 31
0.0
  0
LINE
  5
CB
330
2
100
AcDbEntity
  8
-VERGLASUNG
100
AcDbLine
 10
569.1256748966761
 20
393.7387956218157
 30
0.0
 11
565.2318000770501
 21
389.8449208021896
 31
0.0
  0
LINE
  5
CC
330
2
100
AcDbEntity
  8
-VERGLASUNG
100
AcDbLine
 10
567.5631748966761
 20
393.7387956218157
 30
0.0
 11
563.6693000770501
 21
389.8449208021896
 31
0.0
  0
LINE
  5
CD
330
2
100
AcDbEntity
  8
-VERGLASUNG
100
AcDbLine
 10
569.2182603326669
 20
380.132670441441
 30
0.0
 11
565.3243855130408
 21
376.238795621815
 31
0.0
  0
LINE
  5
CE
330
2
100
AcDbEntity
  8
-VERGLASUNG
100
AcDbLine
 10
566.0006748966761
 20
393.7387956218157
 30
0.0
 11
562.1068000770501
 21
389.8449208021896
 31
0.0
  0
LINE
  5
CF
330
2
100
AcDbEntity
  8
-VERGLASUNG
100
AcDbLine
 10
572.3432603326669
 20
380.132670441441
 30
0.0
 11
568.4493855130408
 21
376.238795621815
 31
0.0
  0
LINE
  5
D0
330
2
100
AcDbEntity
  8
-VERGLASUNG
100
AcDbLine
 10
570.7807603326669
 20
380.132670441441
 30
0.0
 11
566.8868855130408
 21
376.238795621815
 31
0.0
  0
DIMENSION
  5
D1
330
2
100
AcDbEntity
  8
-TEXT2
100
AcDbDimension
  2
*D7
 10
614.7557081883794
 20
464.1662192975743
 30
0.0
 11
631.0057081883794
 21
467.720789556783
 31
0.0
 71
     5
 42
32.5
  3
1-1
100
AcDbAlignedDimension
 13
647.2557081883794
 23
426.7387956218154
 33
0.0
 14
614.7557081883794
 24
454.1662192975743
 34
0.0
100
AcDbRotatedDimension
  0
DIMENSION
  5
DE
330
2
100
AcDbEntity
  8
-TEXT3
100
AcDbDimension
  2
*D13
 10
682.3579151794895
 20
396.7387956218157
 30
0.0
 11
678.8050502408809
 21
401.7387956218157
 31
0.0
 71
     5
 42
9.999999999999886
  3
1-1
100
AcDbAlignedDimension
 13
647.2557081883794
 23
406.7387956218155
 33
0.0
 14
648.7357081883799
 24
396.7387956218157
 34
0.0
 50
270.0
100
AcDbRotatedDimension
  0
DIMENSION
  5
EB
330
2
100
AcDbEntity
  8
-TEXT3
100
AcDbDimension
  2
*D8
 10
682.3579151794895
 20
426.7387956218154
 30
0.0
 11
678.6652139516585
 21
416.7387956218156
 31
0.0
  1
%%c<>
 71
     5
 42
19.99999999999994
  3
1-1
100
AcDbAlignedDimension
 13
647.2557081883794
 23
406.7387956218155
 33
0.0
 14
647.2557081883794
 24
426.7387956218154
 34
0.0
 50
270.0
100
AcDbRotatedDimension
  0
LINE
  5
F8
330
2
100
AcDbEntity
  8
-SCHRAFFUR
100
AcDbLine
 10
602.3063519254272
 20
406.8268356326798
 30
0.0
 11
627.2050644513314
 21
406.8268356326793
 31
0.0
  0
LINE
  5
F9
330
2
100
AcDbEntity
  8
-SCHRAFFUR
100
AcDbLine
 10
603.7849813473376
 20
408.7387956218158
 30
0.0
 11
625.7264350294222
 21
408.7387956218144
 31
0.0
  0
LINE
  5
FA
330
2
100
AcDbEntity
  8
-SCHRAFFUR
100
AcDbLine
 10
600.2976512558505
 20
404.0135893505085
 30
0.0
 11
629.2137651209084
 21
404.0135893505083
 31
0.0
  0
LWPOLYLINE
  5
FB
330
2
100
AcDbEntity
  8
-PROFILAUSSENKANTET
100
AcDbPolyline
 90
        6
 70
     1
 43
0.0
 10
610.8557081883794
 20
421.7387956218158
 42
-0.2656816979737874
 10
602.2557081883794
 20
426.7387956218156
 10
602.2557081883794
 20
429.7387956218155
 10
627.2557081883794
 20
429.7387956218155
 10
627.2557081883794
 20
426.7387956218156
 42
-0.2656816979737873
 10
618.6557081883795
 20
421.7387956218158
  0
LINE
  5
FC
330
2
100
AcDbEntity
  8
-SCHRAFFUR
100
AcDbLine
 10
625.7336206018496
 20
424.7387956218155
 30
0.0
 11
603.7777957749092
 21
424.7387956218156
 31
0.0
  0
LINE
  5
FD
330
2
100
AcDbEntity
  8
-SCHRAFFUR
100
AcDbLine
 10
580.7357081883801
 20
400.0427822848608
 30
0.0
 11
648.7357081883799
 21
400.0427822848608
 31
0.0
  0
LINE
  5
FE
330
2
100
AcDbEntity
  8
-SCHRAFFUR
100
AcDbLine
 10
581.3883938325566
 20
400.9805310455847
 30
0.0
 11
648.0830225442034
 21
400.9805310455845
 31
0.0
  0
LWPOLYLINE
  5
FF
330
2
100
AcDbEntity
  8
-PROFILAUSSENKANTET
100
AcDbPolyline
 90
       13
 70
     1
 43
0.0
 10
580.7357081883799
 20
396.7387956218157
 10
580.7357081883801
 20
400.0427822848608
 42
-0.3137493583978639
 10
581.3883938325566
 20
400.9805310455847
 10
600.29765125585
 20
404.0135893505085
 42
0.3057076911406833
 10
602.254416069532
 20
406.7387956218154
 42
-0.2667424445669822
 10
610.9557081883795
 20
411.7387956218157
 10
618.5557081883789
 20
411.7387956218157
 42
-0.266742444566985
 10
627.2570003072265
 20
406.7387956218154
 42
0.3057076911407296
 10
629.2137651209084
 20
404.0135893505083
 10
648.0830225442034
 20
400.9805310455845
 42
-0.3137493583978905
 10
648.7357081883799
 20
400.0427822848608
 10
648.7357081883799
 20
396.7387956218157
 10
605.7357081883799
 20
396.7387956218157
  0
INSERT
  5
100
330
2
100
AcDbEntity
  8
-TEXT3
100
AcDbBlockReference
  2
1587-M12
 10
614.7557081883794
 20
429.7387956218156
 30
0.0
 41
-1.0
 50
180.0
  0
LINE
  5
101
330
2
100
AcDbEntity
  8
-SYSTEM
100
AcDbLine
 10
614.7557081883794
 20
370.8485237180473
 30
0.0
 11
614.7557081883794
 21
454.1662192975743
 31
0.0
  0
LWPOLYLINE
  5
102
330
2
100
AcDbEntity
  8
-PROFILAUSSENKANTET
100
AcDbPolyline
 90
        4
 70
     0
 43
0.0
 10
627.2557081883794
 20
426.7387956218155
 10
647.2557081883794
 20
426.7387956218154
 10
647.2557081883794
 20
406.7387956218155
 10
627.2570003072265
 20
406.7387956218155
  0
DIMENSION
  5
103
330
2
100
AcDbEntity
  8
-TEXT2
100
AcDbDimension
  2
*D9
 10
682.3579151794896
 20
396.7587956218149
 30
0.0
 11
682.3579151794895
 21
395.2487956218154
 31
0.0
 70
   128
 71
     5
 42
3.019999999999299
  3
1-1
100
AcDbAlignedDimension
 13
669.3381845702518
 23
393.7387956218157
 33
0.0
 14
669.3381845702518
 24
396.7587956218149
 34
0.0
 50
90.00000000000003
100
AcDbRotatedDimension
  0
DIMENSION
  5
111
330
2
100
AcDbEntity
  8
-TEXT3
100
AcDbDimension
  2
*D10
 10
682.3579151794895
 20
376.238795621815
 30
0.0
 11
678.7726491494757
 21
384.9887956218154
 31
0.0
  1
G
 71
     5
 42
17.50000000000068
  3
1-1
100
AcDbAlignedDimension
 13
669.3381845702518
 23
393.7387956218157
 33
0.0
 14
669.3381845702518
 24
376.238795621815
 34
0.0
 50
270.0
100
AcDbRotatedDimension
  0
LINE
  5
11E
330
2
100
AcDbEntity
  8
-VERGLASUNG
100
AcDbLine
 10
669.1256750117161
 20
393.7387959046594
 30
0.0
 11
665.2318001213796
 21
389.8449210143224
 31
0.0
  0
LINE
  5
11F
330
2
100
AcDbEntity
  8
-VERGLASUNG
100
AcDbLine
 10
666.0006750117161
 20
393.7387959046594
 30
0.0
 11
662.1068001213796
 21
389.8449210143227
 31
0.0
  0
LINE
  5
120
330
2
100
AcDbEntity
  8
-VERGLASUNG
100
AcDbLine
 10
667.5631750117161
 20
393.7387959046594
 30
0.0
 11
663.6693001213796
 21
389.8449210143224
 31
0.0
  0
LINE
  5
121
330
2
100
AcDbEntity
  8
-VERGLASUNG
100
AcDbLine
 10
670.7807604477072
 20
380.1326707242846
 30
0.0
 11
666.8868855573703
 21
376.238795833948
 31
0.0
  0
LINE
  5
122
330
2
100
AcDbEntity
  8
-VERGLASUNG
100
AcDbLine
 10
669.2182604477072
 20
380.1326707242848
 30
0.0
 11
665.3243855573703
 21
376.238795833948
 31
0.0
  0
LWPOLYLINE
  5
123
330
2
100
AcDbEntity
  8
-VERGLASUNG
100
AcDbPolyline
 90
        2
 70
     0
 43
0.0
 10
511.2357081883764
 20
725.0715214567929
 10
511.2357081883763
 20
570.6956567668404
  0
LWPOLYLINE
  5
124
330
2
100
AcDbEntity
  8
-TEXT2
100
AcDbPolyline
 90
        3
 70
     1
 43
0.0
 10
511.2357081883764
 20
705.4971872959046
 10
504.0755186409402
 20
709.6311246585656
 10
504.0755186409402
 20
701.3632499332435
  0
MTEXT
  5
125
330
2
100
AcDbEntity
  8
-TEXT2
100
AcDbMText
 10
499.0164912218308
 20
696.8938749834916
 30
0.0
 40
3.5
 41
17.9978
 71
     1
 72
     5
  1
{\fArial|b0|i0|c0|p34;Glaskante}
 11
0.0000000000000001
 21
1.0
 31
0.0
 73
     1
 44
1.0
1001
ACAD
1000
MTEXTBEGIN
1070
    73
1070
     1
1070
    44
1040
1.0
1070
    74
1070
     0
1000
MTEXTEND
  0
LINE
  5
126
330
2
100
AcDbEntity
  8
-SYSTEM
100
AcDbLine
 10
505.8454362846092
 20
639.0694897229715
 30
0.0
 11
589.1631318641363
 21
639.0694897229738
 31
0.0
  0
HATCH
  5
127
330
2
100
AcDbEntity
  8
-SCHRAFFUR
100
AcDbHatch
 10
0.0
 20
0.0
 30
0.0
210
0.0
220
0.0
230
1.0
  2
SOLID
 70
     1
 71
     1
 91
        1
 92
        1
 93
        4
 72
     1
 10
531.7357081883766
 20
672.5494897229727
 11
531.7357081883784
 21
605.5494897229727
 72
     1
 10
531.7357081883784
 20
605.5494897229727
 11
528.7357081883784
 21
605.5494897229725
 72
     1
 10
528.7357081883784
 20
605.5494897229725
 11
528.7357081883766
 21
672.5494897229725
 72
     1
 10
528.7357081883766
 20
672.5494897229725
 11
531.7357081883766
 21
672.5494897229727
 97
        1
330
128
 75
     0
 76
     1
 98
        1
 10
718.642815428559
 20
181.4111968535685
  0
LWPOLYLINE
  5
128
102
{ACAD_REACTORS
330
127
102
}
330
2
100
AcDbEntity
  8
-DICHTUNG
100
AcDbPolyline
 90
        4
 70
     1
 43
0.0
 10
531.7357081883766
 20
672.5494897229727
 10
531.7357081883784
 20
605.5494897229727
 10
528.7357081883784
 20
605.5494897229725
 10
528.7357081883766
 20
672.5494897229725
  0
LWPOLYLINE
  5
129
330
2
100
AcDbEntity
  8
-NORMTEIL_VERDECKT
100
AcDbPolyline
 90
       13
 70
     0
 43
0.0
 10
545.7966194158491
 20
647.1148128707406
 42
0.1531069607823714
 10
541.735708188377
 20
651.5707818418194
 42
-0.3057076911407296
 10
539.0105019170698
 20
653.5275466555013
 10
535.9774436121455
 20
672.3968040787963
 42
0.3137493583978905
 10
535.0396948514218
 20
673.0494897229728
 10
531.7357081883766
 20
673.0494897229727
 10
531.7357081883777
 20
630.0494897229726
 10
531.7357081883784
 20
605.0494897229726
 10
535.0396948514236
 20
605.049489722973
 42
0.3137493583978639
 10
535.9774436121475
 20
605.7021753671494
 10
539.0105019170708
 20
624.611432790443
 42
-0.3057076911406833
 10
541.7357081883777
 20
626.568197604125
 42
0.1531069607823001
 10
545.7966194158482
 20
631.0241665752015
 42
0.1531069607823001
  0
LWPOLYLINE
  5
12C
330
2
100
AcDbEntity
  8
-NORMTEIL_VERDECKT
100
AcDbPolyline
 90
        6
 70
     0
 43
0.0
 10
557.6685421981518
 20
631.0195530392184
 42
0.1539592725158643
 10
561.7357081883779
 20
626.569489722973
 10
564.7357081883779
 20
626.5694897229731
 10
564.7357081883772
 20
651.5694897229731
 10
561.7357081883771
 20
651.569489722973
 42
0.1539592725157162
 10
557.6685421981539
 20
647.1194264067325
 42
0.1539592725157162
  0
CIRCLE
  5
12D
330
2
100
AcDbEntity
  8
-NORMTEIL_VERDECKT
100
AcDbCircle
 10
551.7357081883774
 20
639.0694897229727
 30
0.0
 40
10.0
  0
LINE
  5
12E
330
2
100
AcDbEntity
  8
-NORMTEIL_VERDECKT
100
AcDbLine
 10
551.7357081883774
 20
649.0694897229728
 30
0.0
 11
582.2595545698354
 21
649.0694897229728
 31
0.0
  0
LINE
  5
12F
330
2
100
AcDbEntity
  8
-NORMTEIL_VERDECKT
100
AcDbLine
 10
551.7357081883774
 20
629.0694897229728
 30
0.0
 11
582.2595545698354
 21
629.0694897229728
 31
0.0
  0
LWPOLYLINE
  5
130
330
2
100
AcDbEntity
  8
-NORMTEIL_VERDECKT
100
AcDbPolyline
 90
        2
 70
     0
 43
0.0
 10
528.7357081883795
 20
725.0715214567929
 10
528.7357081883794
 20
570.6956567668404
  0
MTEXT
  5
131
330
2
100
AcDbEntity
  8
-TEXT2
100
AcDbMText
 10
345.1177611671101
 20
489.6546299027697
 30
0.0
 40
5.0
 41
115.8862353619997
 71
     1
 72
     5
  1
{\H4x;Draufsicht}\P{\H2x;M1:1}
 73
     1
 44
1.0
1001
ACAD
1000
MTEXTBEGIN
1070
    73
1070
     1
1070
    44
1040
1.0
1070
    74
1070
     0
1000
MTEXTEND
  0
MTEXT
  5
132
330
2
100
AcDbEntity
  8
-TEXT2
100
AcDbMText
 10
345.1177611671101
 20
683.7315426733341
 30
0.0
 40
5.0
 41
115.8862353619997
 71
     1
 72
     5
  1
{\H4x;Ansicht}\P{\H2x;M1:1}
 73
     1
 44
1.0
1001
ACAD
1000
MTEXTBEGIN
1070
    73
1070
     1
1070
    44
1040
1.0
1070
    74
1070
     0
1000
MTEXTEND
  0
LWPOLYLINE
  5
133
330
2
100
AcDbEntity
  8
-TRENNEN
100
AcDbPolyline
 90
        4
 70
     0
 43
0.0
 10
504.4412206078425
 20
570.6956567668404
 10
669.3381845702518
 20
570.6956567668404
 10
669.3381845702518
 20
725.0715214567929
 10
504.4412206078426
 20
725.0715214567929
  0
LWPOLYLINE
  5
136
102
{ACAD_REACTORS
330
137
102
}
330
2
100
AcDbEntity
  8
-DICHTUNG
100
AcDbPolyline
 90
        4
 70
     1
 43
0.0
 10
648.2557081883794
 20
396.7387956218156
 10
581.2557081883794
 20
396.7387956218157
 10
581.2557081883794
 20
393.7387956218157
 10
648.2557081883794
 20
393.7387956218156
  0
HATCH
  5
137
330
2
100
AcDbEntity
  8
-SCHRAFFUR
100
AcDbHatch
 10
0.0
 20
0.0
 30
0.0
210
0.0
220
0.0
230
1.0
  2
SOLID
 70
     1
 71
     1
 91
        1
 92
        1
 93
        4
 72
     1
 10
648.2557081883794
 20
396.7387956218156
 11
581.2557081883794
 21
396.7387956218157
 72
     1
 10
581.2557081883794
 20
396.7387956218157
 11
581.2557081883794
 21
393.7387956218157
 72
     1
 10
581.2557081883794
 20
393.7387956218157
 11
648.2557081883794
 21
393.7387956218156
 72
     1
 10
648.2557081883794
 20
393.7387956218156
 11
648.2557081883794
 21
396.7387956218156
 97
        1
330
136
 75
     0
 76
     1
 98
        1
 10
614.7557081883792
 20
570.4765779523754
  0
LINE
  5
138
330
2
100
AcDbEntity
  8
-NORMTEIL_VERDECKT
100
AcDbLine
 10
565.2357081883776
 20
644.3694897229731
 30
0.0
 11
574.2357081883775
 21
644.3694897229731
 31
0.0
  0
LINE
  5
139
330
2
100
AcDbEntity
  8
-NORMTEIL_VERDECKT
100
AcDbLine
 10
565.2357081883776
 20
649.619489722973
 30
0.0
 11
574.2357081883774
 21
649.619489722973
 31
0.0
  0
LINE
  5
13A
330
2
100
AcDbEntity
  8
-NORMTEIL_VERDECKT
100
AcDbLine
 10
565.2357081883775
 20
633.7694897229729
 30
0.0
 11
574.2357081883775
 21
633.7694897229734
 31
0.0
  0
LINE
  5
13B
330
2
100
AcDbEntity
  8
-NORMTEIL_VERDECKT
100
AcDbLine
 10
565.2357081883776
 20
628.5194897229732
 30
0.0
 11
574.2357081883774
 21
628.5194897229732
 31
0.0
  0
ARC
  5
13C
330
2
100
AcDbEntity
  8
-NORMTEIL_VERDECKT
100
AcDbCircle
 10
593.075708188376
 20
639.0694897229731
 30
0.0
 40
28.33999999999846
100
AcDbArc
 50
169.2213764800531
 51
190.7786235199469
  0
LWPOLYLINE
  5
13D
330
2
100
AcDbEntity
  8
-NORMTEIL_VERDECKT
100
AcDbPolyline
 90
        2
 70
     0
 43
0.0
 10
564.7357081883776
 20
646.994489722973
 10
564.7357081883775
 20
631.1444897229717
  0
ARC
  5
13E
330
2
100
AcDbEntity
  8
-NORMTEIL_VERDECKT
100
AcDbCircle
 10
571.8763331883772
 20
631.1444897229732
 30
0.0
 40
7.140624999999599
100
AcDbArc
 50
158.4314042648756
 51
201.5685957351244
  0
ARC
  5
13F
330
2
100
AcDbEntity
  8
-NORMTEIL_VERDECKT
100
AcDbCircle
 10
571.8763331883772
 20
646.994489722973
 30
0.0
 40
7.140624999999599
100
AcDbArc
 50
158.4314042648756
 51
201.5685957351244
  0
LWPOLYLINE
  5
140
330
2
100
AcDbEntity
  8
-NORMTEIL_VERDECKT
100
AcDbPolyline
 90
        3
 70
     0
 43
0.0
 10
574.6383708007527
 20
648.1694897229673
 10
577.6357081883776
 20
648.1694897229674
 42
-0.1175145072449199
 10
581.7400239211365
 20
647.1913486460112
 42
-0.1175145072449199
  0
ARC
  5
141
330
2
100
AcDbEntity
  8
-NORMTEIL_VERDECKT
100
AcDbCircle
 10
546.3957081883791
 20
639.0694897229731
 30
0.0
 40
28.33999999999846
100
AcDbArc
 50
349.2213764800531
 51
10.7786235199469
  0
LWPOLYLINE
  5
142
330
2
100
AcDbEntity
  8
-NORMTEIL_VERDECKT
100
AcDbPolyline
 90
        2
 70
     0
 43
0.0
 10
574.7357081883774
 20
646.994489722973
 10
574.7357081883775
 20
631.1444897229717
  0
ARC
  5
143
330
2
100
AcDbEntity
  8
-NORMTEIL_VERDECKT
100
AcDbCircle
 10
567.5950831883779
 20
631.1444897229732
 30
0.0
 40
7.140624999999599
100
AcDbArc
 50
338.4314042648757
 51
21.56859573512435
  0
ARC
  5
144
330
2
100
AcDbEntity
  8
-NORMTEIL_VERDECKT
100
AcDbCircle
 10
567.5950831883779
 20
646.994489722973
 30
0.0
 40
7.140624999999599
100
AcDbArc
 50
338.4314042648757
 51
21.56859573512435
  0
LWPOLYLINE
  5
145
330
2
100
AcDbEntity
  8
-NORMTEIL_VERDECKT
100
AcDbPolyline
 90
        3
 70
     0
 43
0.0
 10
581.7400239211387
 20
630.9476307999249
 42
-0.1175145072449915
 10
577.6357081883776
 20
629.9694897229675
 10
574.6383708007508
 20
629.9694897229675
  0
LINE
  5
146
330
2
100
AcDbEntity
  8
-VERGLASUNG
100
AcDbLine
 10
591.0006748547255
 20
393.7387956218157
 30
0.0
 11
587.1068000350994
 21
389.8449208021896
 31
0.0
  0
LINE
  5
147
330
2
100
AcDbEntity
  8
-VERGLASUNG
100
AcDbLine
 10
594.2182602907162
 20
380.132670441441
 30
0.0
 11
590.3243854710901
 21
376.238795621815
 31
0.0
  0
LINE
  5
148
330
2
100
AcDbEntity
  8
-VERGLASUNG
100
AcDbLine
 10
592.5631748547255
 20
393.7387956218157
 30
0.0
 11
588.6693000350994
 21
389.8449208021896
 31
0.0
  0
LINE
  5
149
330
2
100
AcDbEntity
  8
-VERGLASUNG
100
AcDbLine
 10
594.1256748547255
 20
393.7387956218157
 30
0.0
 11
590.2318000350994
 21
389.8449208021896
 31
0.0
  0
LINE
  5
14A
330
2
100
AcDbEntity
  8
-VERGLASUNG
100
AcDbLine
 10
667.6557604477072
 20
380.132670724285
 30
0.0
 11
663.7618855573703
 21
376.2387958339482
 31
0.0
  0
LINE
  5
14B
330
2
100
AcDbEntity
  8
-VERGLASUNG
100
AcDbLine
 10
644.2182604896579
 20
380.132670724285
 30
0.0
 11
640.3243856700319
 21
376.238795904659
 31
0.0
  0
LINE
  5
14C
330
2
100
AcDbEntity
  8
-VERGLASUNG
100
AcDbLine
 10
645.7807604896579
 20
380.132670724285
 30
0.0
 11
641.8868856700319
 21
376.238795904659
 31
0.0
  0
LINE
  5
14D
330
2
100
AcDbEntity
  8
-VERGLASUNG
100
AcDbLine
 10
639.4381750536672
 20
393.7387959046596
 30
0.0
 11
635.5443002340412
 21
389.8449210850336
 31
0.0
  0
LINE
  5
14E
330
2
100
AcDbEntity
  8
-VERGLASUNG
100
AcDbLine
 10
642.6557604896579
 20
380.132670724285
 30
0.0
 11
638.7618856700319
 21
376.238795904659
 31
0.0
  0
LINE
  5
14F
330
2
100
AcDbEntity
  8
-VERGLASUNG
100
AcDbLine
 10
641.0006750536672
 20
393.7387959046596
 30
0.0
 11
637.1068002340412
 21
389.8449210850336
 31
0.0
  0
LINE
  5
150
330
2
100
AcDbEntity
  8
-VERGLASUNG
100
AcDbLine
 10
642.5631750536672
 20
393.7387959046596
 30
0.0
 11
638.6693002340412
 21
389.8449210850336
 31
0.0
  0
DIMENSION
  5
151
330
2
100
AcDbEntity
  8
-TEXT3
100
AcDbDimension
  2
*D15
 10
593.7557081883794
 20
358.4400541089199
 30
0.0
 11
615.0029528998125
 21
358.4400541089199
 31
0.0
 70
   128
  1
%%c<>
 71
     5
 42
41.99999999999954
  3
1-1
100
AcDbAlignedDimension
 13
635.755708188379
 23
376.2387956218153
 33
0.0
 14
593.7557081883794
 24
376.2387956218149
 34
0.0
 50
180.0
100
AcDbRotatedDimension
  0
DIMENSION
  5
15E
330
2
100
AcDbEntity
  8
-TEXT3
100
AcDbDimension
  2
*D14
 10
580.7557081883796
 20
345.5820550878184
 30
0.0
 11
614.7557081883794
 21
345.5820550878184
 31
0.0
 70
   128
  1
%%c<>
 71
     5
 42
68.00000000000114
  3
1-1
100
AcDbAlignedDimension
 13
648.7557081883807
 23
376.2387956218144
 33
0.0
 14
580.7557081883796
 24
376.238795621815
 34
0.0
 50
180.0
100
AcDbRotatedDimension
  0
LINE
  5
16B
330
2
100
AcDbEntity
  8
-NORMTEIL_VERDECKT
100
AcDbLine
 10
595.7557081883797
 20
382.238795621815
 30
0.0
 11
595.7557081883797
 21
393.7387956218154
 31
0.0
  0
LWPOLYLINE
  5
16C
330
2
100
AcDbEntity
  8
-NORMTEIL_VERDECKT
100
AcDbPolyline
 90
        7
 70
     0
 43
0.0
 10
593.7557081883796
 20
376.238795621815
 10
590.9272810636334
 20
376.238795621815
 10
595.7557081883797
 20
381.0672227465611
 10
595.7557081883797
 20
382.238795621815
 10
597.7557081883796
 20
382.238795621815
 10
597.7557081883796
 20
380.238795621815
 10
593.7557081883796
 20
376.238795621815
  0
LINE
  5
16D
330
2
100
AcDbEntity
  8
-NORMTEIL_VERDECKT
100
AcDbLine
 10
633.7557081883789
 20
382.2387956218154
 30
0.0
 11
633.7557081883789
 21
393.7387956218154
 31
0.0
  0
LWPOLYLINE
  5
16E
330
2
100
AcDbEntity
  8
-NORMTEIL_VERDECKT
100
AcDbPolyline
 90
        7
 70
     0
 43
0.0
 10
635.755708188379
 20
376.2387956218153
 10
638.5841353131252
 20
376.2387956218153
 10
633.7557081883789
 20
381.0672227465614
 10
633.7557081883789
 20
382.2387956218152
 10
631.755708188379
 20
382.2387956218152
 10
631.755708188379
 20
380.2387956218153
 10
635.755708188379
 20
376.2387956218153
  0
LWPOLYLINE
  5
16F
330
2
100
AcDbEntity
  8
-NORMTEIL_VERDECKT
100
AcDbPolyline
 90
        4
 70
     0
 43
0.0
 10
635.7557081883794
 20
376.2387956218148
 10
593.7557081883794
 20
376.2387956218149
 10
597.7557081883794
 20
380.2387956218149
 10
631.7557081883794
 20
380.2387956218148
  0
LINE
  5
170
330
2
100
AcDbEntity
  8
-NORMTEIL_VERDECKT
100
AcDbLine
 10
623.5276893524067
 20
379.2387956218154
 30
0.0
 11
620.0276893524068
 21
379.2387956218154
 31
0.0
  0
LWPOLYLINE
  5
171
330
2
100
AcDbEntity
  8
-NORMTEIL_VERDECKT
100
AcDbPolyline
 90
        5
 70
     0
 43
0.0
 10
623.5276893524067
 20
376.2387956218153
 10
623.5276893524067
 20
379.2387956218153
 10
621.7557081883787
 20
380.2387956218153
 10
620.0276893524068
 20
379.2387956218153
 10
620.0276893524068
 20
376.2387956218153
  0
LINE
  5
172
330
2
100
AcDbEntity
  8
-NORMTEIL_VERDECKT
100
AcDbLine
 10
596.7557081883803
 20
393.7387956218154
 30
0.0
 11
602.6757081883805
 21
393.7387956218154
 31
0.0
  0
LINE
  5
173
330
2
100
AcDbEntity
  8
-NORMTEIL_VERDECKT
100
AcDbLine
 10
596.755708188381
 20
393.7387956218151
 30
0.0
 11
602.6757081883812
 21
393.7387956218151
 31
0.0
  0
LINE
  5
174
330
2
100
AcDbEntity
  8
-NORMTEIL_VERDECKT
100
AcDbLine
 10
632.7557081883806
 20
393.7387956218154
 30
0.0
 11
626.8357081883804
 21
393.7387956218154
 31
0.0
  0
LINE
  5
175
330
2
100
AcDbEntity
  8
-NORMTEIL_VERDECKT
100
AcDbLine
 10
632.7557081883813
 20
393.7387956218151
 30
0.0
 11
626.835708188381
 21
393.7387956218151
 31
0.0
  0
LINE
  5
176
330
2
100
AcDbEntity
  8
-NORMTEIL_VERDECKT
100
AcDbLine
 10
626.8357081883804
 20
393.7387956218154
 30
0.0
 11
602.6757081883805
 21
393.7387956218154
 31
0.0
  0
LINE
  5
177
330
2
100
AcDbEntity
  8
-NORMTEIL_VERDECKT
100
AcDbLine
 10
631.8357081883809
 20
393.7387956218154
 30
0.0
 11
597.675708188381
 21
393.7387956218154
 31
0.0
  0
LINE
  5
178
330
2
100
AcDbEntity
  8
-NORMTEIL_VERDECKT
100
AcDbLine
 10
626.835708188381
 20
393.7387956218151
 30
0.0
 11
602.6757081883812
 21
393.7387956218151
 31
0.0
  0
LWPOLYLINE
  5
179
330
2
100
AcDbEntity
  8
-NORMTEIL_VERDECKT
100
AcDbPolyline
 90
        6
 70
     0
 43
0.0
 10
618.7557081883795
 20
380.2387956218148
 10
618.7557081883798
 20
388.5617956218149
 10
618.0787081883797
 20
389.2387956218149
 10
611.4327081883795
 20
389.2387956218149
 10
610.7557081883798
 20
388.5617956218149
 10
610.7557081883795
 20
380.2387956218149
  0
LINE
  5
17A
330
2
100
AcDbEntity
  8
-NORMTEIL_VERDECKT
100
AcDbLine
 10
611.4327081883795
 20
389.2387956218149
 30
0.0
 11
611.4327081883792
 21
380.2387956218149
 31
0.0
  0
LINE
  5
17B
330
2
100
AcDbEntity
  8
-NORMTEIL_VERDECKT
100
AcDbLine
 10
618.0787081883797
 20
389.2387956218149
 30
0.0
 11
618.0787081883794
 21
380.2387956218148
 31
0.0
  0
LINE
  5
17C
330
2
100
AcDbEntity
  8
-NORMTEIL_VERDECKT
100
AcDbLine
 10
618.7557081883798
 20
388.5617956218149
 30
0.0
 11
610.7557081883798
 21
388.5617956218149
 31
0.0
  0
LWPOLYLINE
  5
17D
330
2
100
AcDbEntity
  8
-NORMTEIL_VERDECKT
100
AcDbPolyline
 90
        5
 70
     0
 43
0.0
 10
613.0276893524081
 20
376.2387956218153
 10
613.0276893524081
 20
379.2387956218153
 10
611.2557081883799
 20
380.2387956218153
 10
609.5276893524081
 20
379.2387956218153
 10
609.5276893524081
 20
376.2387956218153
  0
LINE
  5
17E
330
2
100
AcDbEntity
  8
-NORMTEIL_VERDECKT
100
AcDbLine
 10
613.0276893524081
 20
379.2387956218154
 30
0.0
 11
609.5276893524081
 21
379.2387956218154
 31
0.0
  0
HATCH
  5
17F
330
2
100
AcDbEntity
  8
-SCHRAFFUR
100
AcDbHatch
 10
0.0
 20
0.0
 30
0.0
210
0.0
220
0.0
230
1.0
  2
SOLID
 70
     1
 71
     1
 91
        2
 92
        1
 93
        1
 72
     2
 10
614.7557081883794
 20
639.0694897229727
 40
23.82842712474431
 50
0.0
 51
360.0
 73
     1
 97
        1
330
180
 92
       16
 93
        1
 72
     2
 10
614.7557081883794
 20
639.0694897229727
 40
21.0
 50
0.0
 51
360.0
 73
     1
 97
        1
330
182
 75
     0
 76
     1
 98
        1
 10
497.9334217727751
 20
587.4760408765959
  0
CIRCLE
  5
180
102
{ACAD_REACTORS
330
17F
102
}
330
2
100
AcDbEntity
  8
-DICHTUNG
100
AcDbCircle
 10
614.7557081883794
 20
639.0694897229727
 30
0.0
 40
23.82842712474431
  0
CIRCLE
  5
181
330
2
100
AcDbEntity
  8
-NORMTEIL_VERDECKT
100
AcDbCircle
 10
614.7557081883794
 20
639.0694897229727
 30
0.0
 40
34.0
  0
CIRCLE
  5
182
102
{ACAD_REACTORS
330
17F
102
}
330
2
100
AcDbEntity
  8
-PROFILAUSSENKANTET
100
AcDbCircle
 10
614.7557081883794
 20
639.0694897229727
 30
0.0
 40
21.0
  0
LINE
  5
183
330
2
100
AcDbEntity
  8
-SYSTEM
100
AcDbLine
 10
652.2514124505062
 20
639.069489722973
 30
0.0
 11
577.2600039262527
 21
639.0694897229725
 31
0.0
  0
LINE
  5
184
330
2
100
AcDbEntity
  8
-SYSTEM
100
AcDbLine
 10
614.7557081883792
 20
676.5651939850995
 30
0.0
 11
614.7557081883795
 21
601.573785460846
 31
0.0
  0
CIRCLE
  5
185
330
2
100
AcDbEntity
  8
-PROFILAUSSENKANTET
100
AcDbCircle
 10
611.2557081883794
 20
633.0073118964817
 30
0.0
 40
1.75
  0
CIRCLE
  5
186
330
2
100
AcDbEntity
  8
-PROFILAUSSENKANTET
100
AcDbCircle
 10
611.2557081883793
 20
645.1316675494638
 30
0.0
 40
1.75
  0
CIRCLE
  5
187
330
2
100
AcDbEntity
  8
-PROFILAUSSENKANTET
100
AcDbCircle
 10
621.7557081883795
 20
639.0694897229727
 30
0.0
 40
1.75
  0
DIMENSION
  5
188
330
2
100
AcDbEntity
  8
-TEXT3
100
AcDbDimension
  2
*D17
 10
480.5789676543814
 20
513.7587956218135
 30
0.0
 11
480.5789676543814
 21
479.7587956218138
 31
0.0
 70
   128
  1
%%c<>
 71
     5
 42
68.00000000000108
  3
1-1
100
AcDbAlignedDimension
 13
511.2357081883772
 23
445.7587956218124
 33
0.0
 14
511.235708188378
 24
513.7587956218135
 34
0.0
 50
90.0
100
AcDbRotatedDimension
  0
DIMENSION
  5
195
330
2
100
AcDbEntity
  8
-TEXT3
100
AcDbDimension
  2
*D16
 10
493.4369666754829
 20
500.7587956218138
 30
0.0
 11
493.4369666754829
 21
479.5115509103808
 31
0.0
 70
   128
  1
%%c<>
 71
     5
 42
41.99999999999954
  3
1-1
100
AcDbAlignedDimension
 13
511.2357081883782
 23
458.7587956218142
 33
0.0
 14
511.2357081883779
 24
500.7587956218138
 34
0.0
 50
90.0
100
AcDbRotatedDimension
  0
LWPOLYLINE
  5
1A2
330
2
100
AcDbEntity
  8
-NORMTEIL_VERDECKT
100
AcDbPolyline
 90
        4
 70
     0
 43
0.0
 10
511.2357081883778
 20
458.7587956218138
 10
511.2357081883779
 20
500.7587956218138
 10
515.2357081883779
 20
496.7587956218138
 10
515.2357081883779
 20
462.7587956218138
  0
LWPOLYLINE
  5
1A3
330
2
100
AcDbEntity
  8
-NORMTEIL_VERDECKT
100
AcDbPolyline
 90
        7
 70
     0
 43
0.0
 10
511.235708188378
 20
500.7587956218135
 10
511.235708188378
 20
503.5872227465597
 10
516.064135313124
 20
498.7587956218136
 10
517.2357081883781
 20
498.7587956218136
 10
517.2357081883781
 20
496.7587956218135
 10
515.235708188378
 20
496.7587956218135
 10
511.235708188378
 20
500.7587956218135
  0
LINE
  5
1A4
330
2
100
AcDbEntity
  8
-NORMTEIL_VERDECKT
100
AcDbLine
 10
517.2357081883781
 20
498.7587956218136
 30
0.0
 11
528.7357081883783
 21
498.7587956218136
 31
0.0
  0
LINE
  5
1A5
330
2
100
AcDbEntity
  8
-NORMTEIL_VERDECKT
100
AcDbLine
 10
514.2357081883784
 20
481.486814457785
 30
0.0
 11
514.2357081883784
 21
484.986814457785
 31
0.0
  0
LWPOLYLINE
  5
1A6
330
2
100
AcDbEntity
  8
-NORMTEIL_VERDECKT
100
AcDbPolyline
 90
        5
 70
     0
 43
0.0
 10
511.2357081883783
 20
481.486814457785
 10
514.2357081883783
 20
481.486814457785
 10
515.2357081883783
 20
483.2587956218132
 10
514.2357081883783
 20
484.986814457785
 10
511.2357081883783
 20
484.986814457785
  0
LINE
  5
1A7
330
2
100
AcDbEntity
  8
-NORMTEIL_VERDECKT
100
AcDbLine
 10
523.5587081883779
 20
475.7587956218134
 30
0.0
 11
523.5587081883779
 21
483.7587956218134
 31
0.0
  0
LINE
  5
1A8
330
2
100
AcDbEntity
  8
-NORMTEIL_VERDECKT
100
AcDbLine
 10
524.2357081883779
 20
476.4357956218136
 30
0.0
 11
515.2357081883777
 21
476.4357956218138
 31
0.0
  0
LINE
  5
1A9
330
2
100
AcDbEntity
  8
-NORMTEIL_VERDECKT
100
AcDbLine
 10
524.2357081883779
 20
483.0817956218138
 30
0.0
 11
515.2357081883779
 21
483.0817956218139
 31
0.0
  0
LWPOLYLINE
  5
1AA
330
2
100
AcDbEntity
  8
-NORMTEIL_VERDECKT
100
AcDbPolyline
 90
        6
 70
     0
 43
0.0
 10
515.2357081883777
 20
475.7587956218137
 10
523.5587081883779
 20
475.7587956218134
 10
524.2357081883779
 20
476.4357956218136
 10
524.2357081883779
 20
483.0817956218138
 10
523.5587081883779
 20
483.7587956218134
 10
515.2357081883779
 20
483.7587956218136
  0
LWPOLYLINE
  5
1AB
330
2
100
AcDbEntity
  8
-NORMTEIL_VERDECKT
100
AcDbPolyline
 90
        5
 70
     0
 43
0.0
 10
511.2357081883782
 20
470.9868144577864
 10
514.2357081883783
 20
470.9868144577864
 10
515.2357081883783
 20
472.7587956218146
 10
514.2357081883783
 20
474.4868144577864
 10
511.2357081883782
 20
474.4868144577864
  0
LINE
  5
1AC
330
2
100
AcDbEntity
  8
-NORMTEIL_VERDECKT
100
AcDbLine
 10
514.2357081883783
 20
470.9868144577864
 30
0.0
 11
514.2357081883783
 21
474.4868144577864
 31
0.0
  0
LWPOLYLINE
  5
1AD
330
2
100
AcDbEntity
  8
-NORMTEIL_VERDECKT
100
AcDbPolyline
 90
        7
 70
     0
 43
0.0
 10
511.2357081883782
 20
458.7587956218142
 10
511.2357081883782
 20
455.930368497068
 10
516.0641353131246
 20
460.7587956218142
 10
517.2357081883783
 20
460.7587956218142
 10
517.2357081883783
 20
462.7587956218143
 10
515.2357081883783
 20
462.7587956218143
 10
511.2357081883782
 20
458.7587956218142
  0
LINE
  5
1AE
330
2
100
AcDbEntity
  8
-NORMTEIL_VERDECKT
100
AcDbLine
 10
517.2357081883783
 20
460.7587956218142
 30
0.0
 11
528.7357081883783
 21
460.7587956218142
 31
0.0
  0
LINE
  5
1AF
330
2
100
AcDbEntity
  8
-NORMTEIL_VERDECKT
100
AcDbLine
 10
517.2357081883768
 20
620.0694897229721
 30
0.0
 11
528.7357081883768
 21
620.0694897229721
 31
0.0
  0
LWPOLYLINE
  5
1B0
330
2
100
AcDbEntity
  8
-NORMTEIL_VERDECKT
100
AcDbPolyline
 90
        7
 70
     0
 43
0.0
 10
511.2357081883768
 20
618.069489722972
 10
511.2357081883768
 20
615.2410625982258
 10
516.064135313123
 20
620.0694897229721
 10
517.2357081883768
 20
620.0694897229721
 10
517.2357081883768
 20
622.069489722972
 10
515.2357081883768
 20
622.069489722972
 10
511.2357081883768
 20
618.069489722972
  0
LWPOLYLINE
  5
1B1
330
2
100
AcDbEntity
  8
-NORMTEIL_VERDECKT
100
AcDbPolyline
 90
        4
 70
     0
 43
0.0
 10
511.2357081883764
 20
618.0694897229716
 10
511.2357081883764
 20
660.0694897229716
 10
515.2357081883764
 20
656.0694897229716
 10
515.2357081883764
 20
622.0694897229716
  0
LINE
  5
1B2
330
2
100
AcDbEntity
  8
-NORMTEIL_VERDECKT
100
AcDbLine
 10
514.2357081883768
 20
630.2975085589443
 30
0.0
 11
514.2357081883768
 21
633.7975085589443
 31
0.0
  0
LWPOLYLINE
  5
1B3
330
2
100
AcDbEntity
  8
-NORMTEIL_VERDECKT
100
AcDbPolyline
 90
        5
 70
     0
 43
0.0
 10
511.2357081883768
 20
630.2975085589443
 10
514.2357081883768
 20
630.2975085589443
 10
515.2357081883768
 20
632.0694897229724
 10
514.2357081883768
 20
633.7975085589443
 10
511.2357081883768
 20
633.7975085589443
  0
LWPOLYLINE
  5
1B4
330
2
100
AcDbEntity
  8
-NORMTEIL_VERDECKT
100
AcDbPolyline
 90
        6
 70
     0
 43
0.0
 10
515.2357081883763
 20
635.0694897229715
 10
523.5587081883765
 20
635.0694897229713
 10
524.2357081883763
 20
635.7464897229714
 10
524.2357081883763
 20
642.3924897229716
 10
523.5587081883765
 20
643.0694897229713
 10
515.2357081883764
 20
643.0694897229715
  0
LINE
  5
1B5
330
2
100
AcDbEntity
  8
-NORMTEIL_VERDECKT
100
AcDbLine
 10
524.2357081883763
 20
642.3924897229716
 30
0.0
 11
515.2357081883764
 21
642.3924897229718
 31
0.0
  0
LINE
  5
1B6
330
2
100
AcDbEntity
  8
-NORMTEIL_VERDECKT
100
AcDbLine
 10
524.2357081883763
 20
635.7464897229714
 30
0.0
 11
515.2357081883763
 21
635.7464897229716
 31
0.0
  0
LINE
  5
1B7
330
2
100
AcDbEntity
  8
-NORMTEIL_VERDECKT
100
AcDbLine
 10
523.5587081883765
 20
635.0694897229713
 30
0.0
 11
523.5587081883765
 21
643.0694897229713
 31
0.0
  0
LWPOLYLINE
  5
1B8
330
2
100
AcDbEntity
  8
-NORMTEIL_VERDECKT
100
AcDbPolyline
 90
        5
 70
     0
 43
0.0
 10
511.2357081883768
 20
640.7975085589429
 10
514.2357081883768
 20
640.7975085589429
 10
515.2357081883768
 20
642.569489722971
 10
514.2357081883768
 20
644.2975085589429
 10
511.2357081883768
 20
644.2975085589429
  0
LINE
  5
1B9
330
2
100
AcDbEntity
  8
-NORMTEIL_VERDECKT
100
AcDbLine
 10
514.2357081883769
 20
640.7975085589429
 30
0.0
 11
514.2357081883769
 21
644.2975085589429
 31
0.0
  0
LWPOLYLINE
  5
1BA
330
2
100
AcDbEntity
  8
-NORMTEIL_VERDECKT
100
AcDbPolyline
 90
        7
 70
     0
 43
0.0
 10
511.2357081883765
 20
660.0694897229714
 10
511.2357081883765
 20
662.8979168477176
 10
516.0641353131226
 20
658.0694897229713
 10
517.2357081883766
 20
658.0694897229713
 10
517.2357081883766
 20
656.0694897229714
 10
515.2357081883766
 20
656.0694897229714
 10
511.2357081883765
 20
660.0694897229714
  0
LINE
  5
1BB
330
2
100
AcDbEntity
  8
-NORMTEIL_VERDECKT
100
AcDbLine
 10
517.2357081883766
 20
658.0694897229713
 30
0.0
 11
528.7357081883768
 21
658.0694897229713
 31
0.0
  0
ENDSEC
  0
SECTION
  2
OBJECTS
  0
DICTIONARY
  5
7
330
0
100
AcDbDictionary
281
     1
  3
ACAD_COLOR
350
1D6
  3
ACAD_GROUP
350
1D2
  3
ACAD_LAYOUT
350
1BE
  3
ACAD_MATERIAL
350
1D5
  3
ACAD_MLINESTYLE
350
1D3
  3
ACAD_PLOTSETTINGS
350
1D4
  3
ACAD_PLOTSTYLENAME
350
6
  3
ACDBHEADERROUNDTRIPXREC
350
1DC
  3
AcDbVariableDictionary
350
1D8
  0
DICTIONARY
  5
1C4
330
1C3
100
AcDbDictionary
280
     1
281
     1
  3
ACAD_LAYERSTATES
360
1C5
  0
DICTIONARY
  5
1D6
102
{ACAD_REACTORS
330
7
102
}
330
7
100
AcDbDictionary
281
     1
  0
DICTIONARY
  5
1D2
102
{ACAD_REACTORS
330
7
102
}
330
7
100
AcDbDictionary
281
     1
  0
DICTIONARY
  5
1BE
102
{ACAD_REACTORS
330
7
102
}
330
7
100
AcDbDictionary
281
     1
  3
Layout1
350
1C2
  3
Model
350
1BD
  0
DICTIONARY
  5
1D5
102
{ACAD_REACTORS
330
7
102
}
330
7
100
AcDbDictionary
281
     1
  0
DICTIONARY
  5
1D3
102
{ACAD_REACTORS
330
7
102
}
330
7
100
AcDbDictionary
281
     1
  3
STANDARD
350
1D7
  0
DICTIONARY
  5
1D4
102
{ACAD_REACTORS
330
7
102
}
330
7
100
AcDbDictionary
281
     1
  0
ACDBDICTIONARYWDFLT
  5
6
102
{ACAD_REACTORS
330
7
102
}
330
7
100
AcDbDictionary
281
     1
  3
Normal
350
5
100
AcDbDictionaryWithDefault
340
5
  0
DICTIONARY
  5
1DC
102
{ACAD_REACTORS
330
7
102
}
330
7
100
AcDbDictionary
281
     1
  3
COLORDICT
350
1DE
  3
MATERIALDICT
350
1DD
  0
DICTIONARY
  5
1D8
102
{ACAD_REACTORS
330
7
102
}
330
7
100
AcDbDictionary
281
     1
  3
DIMASSOC
350
1DA
  3
HIDETEXT
350
1D9
  3
PROJECTNAME
350
1DB
  0
DICTIONARY
  5
1C5
102
{ACAD_REACTORS
330
1C4
102
}
330
1C4
100
AcDbDictionary
281
     1
  0
LAYOUT
  5
1C2
102
{ACAD_XDICTIONARY
360
1E2
102
}
102
{ACAD_REACTORS
330
1BE
102
}
330
1BE
100
AcDbPlotSettings
  1

  2
\\pc02\HP
  4

  6

 40
0.0
 41
0.0
 42
0.0
 43
0.0
 44
0.0
 45
0.0
 46
0.0
 47
0.0
 48
0.0
 49
0.0
140
0.0
141
0.0
142
1.0
143
1.0
 70
   688
 72
     0
 73
     0
 74
     5
  7
monochrome.ctb
 75
    16
147
1.0
148
0.0
149
0.0
100
AcDbLayout
  1
Layout1
 70
     1
 71
     1
 10
0.0
 20
0.0
 11
420.0
 21
297.0
 12
0.0
 22
0.0
 32
0.0
 14
0.0
 24
0.0
 34
0.0
 15
1189.0
 25
841.0
 35
0.0
146
0.0
 13
0.0
 23
0.0
 33
0.0
 16
1.0
 26
0.0
 36
0.0
 17
0.0
 27
1.0
 37
0.0
 76
     0
330
1BF
  0
LAYOUT
  5
1BD
102
{ACAD_XDICTIONARY
360
1E0
102
}
102
{ACAD_REACTORS
330
1BE
102
}
330
1BE
100
AcDbPlotSettings
  1

  2
HP DeskJet 1220C
  4
A4
  6

 40
4.180416584014892
 41
13.4937515258789
 42
4.180404663085937
 43
3.67242431640625
 44
209.9733276367187
 45
297.0106506347656
 46
0.0
 47
0.0
 48
481.1978817096998
 49
309.4654971710613
140
768.1978817096998
141
509.4654971710613
142
1.0
143
1.025569649759302
 70
 11952
 72
     1
 73
     3
 74
     4
  7
monochrome.ctb
 75
     0
147
0.9750678564197924
148
-481.1978817096998
149
-309.4654971710613
100
AcDbLayout
  1
Model
 70
     1
 71
     0
 10
0.0
 20
0.0
 11
12.0
 21
9.0
 12
0.0
 22
0.0
 32
0.0
 14
0.0
 24
0.0
 34
0.0
 15
0.0
 25
0.0
 35
0.0
146
0.0
 13
0.0
 23
0.0
 33
0.0
 16
1.0
 26
0.0
 36
0.0
 17
0.0
 27
1.0
 37
0.0
 76
     0
330
2
  0
MLINESTYLE
  5
1D7
102
{ACAD_REACTORS
330
1D3
102
}
330
1D3
100
AcDbMlineStyle
  2
STANDARD
 70
     0
  3

 62
     0
 51
90.0
 52
90.0
 71
     2
 49
0.5
 62
   256
  6
BYLAYER
 49
-0.5
 62
   256
  6
BYLAYER
  0
ACDBPLACEHOLDER
  5
5
102
{ACAD_REACTORS
330
6
102
}
330
6
  0
XRECORD
  5
1DE
102
{ACAD_REACTORS
330
1DC
102
}
330
1DC
100
AcDbXrecord
280
     1
340
1D6
  0
XRECORD
  5
1DD
102
{ACAD_REACTORS
330
1DC
102
}
330
1DC
100
AcDbXrecord
280
     1
340
1D5
  0
DICTIONARYVAR
  5
1DA
102
{ACAD_REACTORS
330
1D8
102
}
330
1D8
100
DictionaryVariables
280
     0
  1
1
  0
DICTIONARYVAR
  5
1D9
102
{ACAD_REACTORS
330
1D8
102
}
330
1D8
100
DictionaryVariables
280
     0
  1
1
  0
DICTIONARYVAR
  5
1DB
102
{ACAD_REACTORS
330
1D8
102
}
330
1D8
100
DictionaryVariables
280
     0
  1

  0
DICTIONARY
  5
1E2
330
1C2
100
AcDbDictionary
280
     1
281
     1
  3
ACAD_XREC_ROUNDTRIP
360
1E3
  0
DICTIONARY
  5
1E0
330
1BD
100
AcDbDictionary
280
     1
281
     1
  3
ACAD_XREC_ROUNDTRIP
360
1E1
  0
XRECORD
  5
1E3
102
{ACAD_REACTORS
330
1E2
102
}
330
1E2
100
AcDbXrecord
280
     1
102
SHADEPLOT
 70
     0
102
SHADEPLOTRESLEVEL
 70
     2
102
SHADEPLOTCUSTOMDPI
 70
   300
  0
XRECORD
  5
1E1
102
{ACAD_REACTORS
330
1E0
102
}
330
1E0
100
AcDbXrecord
280
     1
102
SHADEPLOT
 70
     0
102
SHADEPLOTRESLEVEL
 70
     2
102
SHADEPLOTCUSTOMDPI
 70
   300
  0
ENDSEC
  0
EOF
