  0
SECTION
  2
HEADER
  9
$ACADVER
  1
AC1015
  9
$ACADMAINTVER
 70
    18
  9
$DWGCODEPAGE
  3
ANSI_1252
  9
$INSBASE
 10
421.1785771780096
 20
450.2667582667103
 30
0.0
  9
$EXTMIN
 10
1.000000000000000E+20
 20
1.000000000000000E+20
 30
1.000000000000000E+20
  9
$EXTMAX
 10
0.0
 20
0.0
 30
0.0
  9
$LIMMIN
 10
0.0
 20
0.0
  9
$LIMMAX
 10
420.0
 20
297.0
  9
$ORTHOMODE
 70
     1
  9
$REGENMODE
 70
     1
  9
$FILLMODE
 70
     1
  9
$QTEXTMODE
 70
     0
  9
$MIRRTEXT
 70
     1
  9
$LTSCALE
 40
2.5
  9
$ATTMODE
 70
     1
  9
$TEXTSIZE
 40
2.5
  9
$TRACEWID
 40
1.0
  9
$TEXTSTYLE
  7
STANDARD
  9
$CLAYER
  8
-SCHRAFFUR
  9
$CELTYPE
  6
BYLAYER
  9
$CECOLOR
 62
   256
  9
$CELTSCALE
 40
1.0
  9
$DISPSILH
 70
     0
  9
$DIMSCALE
 40
1.0
  9
$DIMASZ
 40
2.0
  9
$DIMEXO
 40
2.0
  9
$DIMDLI
 40
2.0
  9
$DIMRND
 40
0.0
  9
$DIMDLE
 40
0.0
  9
$DIMEXE
 40
1.0
  9
$DIMTP
 40
0.0
  9
$DIMTM
 40
0.0
  9
$DIMTXT
 40
5.0
  9
$DIMCEN
 40
0.09
  9
$DIMTSZ
 40
0.0
  9
$DIMTOL
 70
     0
  9
$DIMLIM
 70
     0
  9
$DIMTIH
 70
     0
  9
$DIMTOH
 70
     0
  9
$DIMSE1
 70
     0
  9
$DIMSE2
 70
     0
  9
$DIMTAD
 70
     1
  9
$DIMZIN
 70
     9
  9
$DIMBLK
  1

  9
$DIMASO
 70
     1
  9
$DIMSHO
 70
     1
  9
$DIMPOST
  1

  9
$DIMAPOST
  1

  9
$DIMALT
 70
     0
  9
$DIMALTD
 70
     2
  9
$DIMALTF
 40
25.4
  9
$DIMLFAC
 40
1.0
  9
$DIMTOFL
 70
     0
  9
$DIMTVP
 40
0.0
  9
$DIMTIX
 70
     0
  9
$DIMSOXD
 70
     0
  9
$DIMSAH
 70
     0
  9
$DIMBLK1
  1

  9
$DIMBLK2
  1

  9
$DIMSTYLE
  2
1-1
  9
$DIMCLRD
 70
     2
  9
$DIMCLRE
 70
     2
  9
$DIMCLRT
 70
     3
  9
$DIMTFAC
 40
1.0
  9
$DIMGAP
 40
1.0
  9
$DIMJUST
 70
     0
  9
$DIMSD1
 70
     0
  9
$DIMSD2
 70
     0
  9
$DIMTOLJ
 70
     1
  9
$DIMTZIN
 70
     0
  9
$DIMALTZ
 70
     0
  9
$DIMALTTZ
 70
     0
  9
$DIMUPT
 70
     0
  9
$DIMDEC
 70
     0
  9
$DIMTDEC
 70
     4
  9
$DIMALTU
 70
     2
  9
$DIMALTTD
 70
     2
  9
$DIMTXSTY
  7
STANDARD
  9
$DIMAUNIT
 70
     0
  9
$DIMADEC
 70
     0
  9
$DIMALTRND
 40
0.0
  9
$DIMAZIN
 70
     0
  9
$DIMDSEP
 70
    46
  9
$DIMATFIT
 70
     2
  9
$DIMFRAC
 70
     0
  9
$DIMLDRBLK
  1

  9
$DIMLUNIT
 70
     2
  9
$DIMLWD
 70
    -2
  9
$DIMLWE
 70
    -2
  9
$DIMTMOVE
 70
     0
  9
$LUNITS
 70
     2
  9
$LUPREC
 70
     4
  9
$SKETCHINC
 40
1.0
  9
$FILLETRAD
 40
0.0
  9
$AUNITS
 70
     0
  9
$AUPREC
 70
     0
  9
$MENU
  1
.
  9
$ELEVATION
 40
0.0
  9
$PELEVATION
 40
0.0
  9
$THICKNESS
 40
0.0
  9
$LIMCHECK
 70
     0
  9
$CHAMFERA
 40
10.0
  9
$CHAMFERB
 40
10.0
  9
$CHAMFERC
 40
20.0
  9
$CHAMFERD
 40
0.0
  9
$SKPOLY
 70
     0
  9
$TDCREATE
 40
2452087.408717245
  9
$TDUCREATE
 40
2452087.367050579
  9
$TDUPDATE
 40
2453411.609651586
  9
$TDUUPDATE
 40
2453411.567984919
  9
$TDINDWG
 40
0.6265827315
  9
$TDUSRTIMER
 40
0.6265827315
  9
$USRTIMER
 70
     1
  9
$ANGBASE
 50
0.0
  9
$ANGDIR
 70
     0
  9
$PDMODE
 70
     0
  9
$PDSIZE
 40
0.0
  9
$PLINEWID
 40
0.0
  9
$SPLFRAME
 70
     0
  9
$SPLINETYPE
 70
     6
  9
$SPLINESEGS
 70
     8
  9
$HANDSEED
  5
1E5
  9
$SURFTAB1
 70
     6
  9
$SURFTAB2
 70
     6
  9
$SURFTYPE
 70
     6
  9
$SURFU
 70
     6
  9
$SURFV
 70
     6
  9
$UCSBASE
  2

  9
$UCSNAME
  2

  9
$UCSORG
 10
0.0
 20
0.0
 30
0.0
  9
$UCSXDIR
 10
1.0
 20
0.0
 30
0.0
  9
$UCSYDIR
 10
0.0
 20
1.0
 30
0.0
  9
$UCSORTHOREF
  2

  9
$UCSORTHOVIEW
 70
     0
  9
$UCSORGTOP
 10
0.0
 20
0.0
 30
0.0
  9
$UCSORGBOTTOM
 10
0.0
 20
0.0
 30
0.0
  9
$UCSORGLEFT
 10
0.0
 20
0.0
 30
0.0
  9
$UCSORGRIGHT
 10
0.0
 20
0.0
 30
0.0
  9
$UCSORGFRONT
 10
0.0
 20
0.0
 30
0.0
  9
$UCSORGBACK
 10
0.0
 20
0.0
 30
0.0
  9
$PUCSBASE
  2

  9
$PUCSNAME
  2

  9
$PUCSORG
 10
0.0
 20
0.0
 30
0.0
  9
$PUCSXDIR
 10
1.0
 20
0.0
 30
0.0
  9
$PUCSYDIR
 10
0.0
 20
1.0
 30
0.0
  9
$PUCSORTHOREF
  2

  9
$PUCSORTHOVIEW
 70
     0
  9
$PUCSORGTOP
 10
0.0
 20
0.0
 30
0.0
  9
$PUCSORGBOTTOM
 10
0.0
 20
0.0
 30
0.0
  9
$PUCSORGLEFT
 10
0.0
 20
0.0
 30
0.0
  9
$PUCSORGRIGHT
 10
0.0
 20
0.0
 30
0.0
  9
$PUCSORGFRONT
 10
0.0
 20
0.0
 30
0.0
  9
$PUCSORGBACK
 10
0.0
 20
0.0
 30
0.0
  9
$USERI1
 70
     0
  9
$USERI2
 70
     0
  9
$USERI3
 70
     0
  9
$USERI4
 70
     0
  9
$USERI5
 70
     0
  9
$USERR1
 40
0.0
  9
$USERR2
 40
0.0
  9
$USERR3
 40
0.0
  9
$USERR4
 40
0.0
  9
$USERR5
 40
0.0
  9
$WORLDVIEW
 70
     1
  9
$SHADEDGE
 70
     3
  9
$SHADEDIF
 70
    70
  9
$TILEMODE
 70
     1
  9
$MAXACTVP
 70
    48
  9
$PINSBASE
 10
0.0
 20
0.0
 30
0.0
  9
$PLIMCHECK
 70
     0
  9
$PEXTMIN
 10
0.0
 20
0.0
 30
0.0
  9
$PEXTMAX
 10
1189.0
 20
841.0
 30
0.0
  9
$PLIMMIN
 10
0.0
 20
0.0
  9
$PLIMMAX
 10
420.0
 20
297.0
  9
$UNITMODE
 70
     0
  9
$VISRETAIN
 70
     1
  9
$PLINEGEN
 70
     0
  9
$PSLTSCALE
 70
     1
  9
$TREEDEPTH
 70
  3020
  9
$CMLSTYLE
  2
STANDARD
  9
$CMLJUST
 70
     0
  9
$CMLSCALE
 40
1.0
  9
$PROXYGRAPHICS
 70
     1
  9
$MEASUREMENT
 70
     0
  9
$CELWEIGHT
370
    -1
  9
$ENDCAPS
280
     0
  9
$JOINSTYLE
280
     0
  9
$LWDISPLAY
290
     0
  9
$INSUNITS
 70
     0
  9
$HYPERLINKBASE
  1

  9
$STYLESHEET
  1

  9
$XEDIT
290
     1
  9
$CEPSNTYPE
380
     0
  9
$PSTYLEMODE
290
     1
  9
$FINGERPRINTGUID
  2
{9588F985-4B3C-4C9C-BEE4-2544F6211083}
  9
$VERSIONGUID
  2
{89F4CB3F-7948-45A3-B02D-CED73ED4A1C1}
  9
$EXTNAMES
290
     1
  9
$PSVPSCALE
 40
0.0
  9
$OLESTARTUP
290
     0
  0
ENDSEC
  0
SECTION
  2
CLASSES
  0
CLASS
  1
DICTIONARYVAR
  2
AcDbDictionaryVar
  3
ObjectDBX Classes
 90
        0
280
     0
281
     0
  0
CLASS
  1
ACDBDICTIONARYWDFLT
  2
AcDbDictionaryWithDefault
  3
ObjectDBX Classes
 90
        0
280
     0
281
     0
  0
CLASS
  1
ACDBPLACEHOLDER
  2
AcDbPlaceHolder
  3
ObjectDBX Classes
 90
        0
280
     0
281
     0
  0
CLASS
  1
LAYOUT
  2
AcDbLayout
  3
ObjectDBX Classes
 90
        0
280
     0
281
     0
  0
ENDSEC
  0
SECTION
  2
TABLES
  0
TABLE
  2
VPORT
  5
1CE
330
0
100
AcDbSymbolTable
 70
     1
  0
VPORT
  5
1CF
330
1CE
100
AcDbSymbolTableRecord
100
AcDbViewportTableRecord
  2
*Active
 70
     0
 10
0.0
 20
0.0
 11
1.0
 21
1.0
 12
182.1002048670492
 22
200.3585046745098
 13
0.0
 23
0.0
 14
10.0
 24
10.0
 15
10.0
 25
10.0
 16
0.0
 26
0.0
 36
1.0
 17
0.0
 27
0.0
 37
0.0
 40
411.1279992234797
 41
1.549148099606815
 42
50.0
 43
0.0
 44
0.0
 50
0.0
 51
0.0
 71
     0
 72
   100
 73
     1
 74
     1
 75
     0
 76
     0
 77
     0
 78
     0
281
     0
 65
     1
110
0.0
120
0.0
130
0.0
111
1.0
121
0.0
131
0.0
112
0.0
122
1.0
132
0.0
 79
     0
146
0.0
  0
ENDTAB
  0
TABLE
  2
LTYPE
  5
1C9
330
0
100
AcDbSymbolTable
 70
     4
  0
LTYPE
  5
1CA
330
1C9
100
AcDbSymbolTableRecord
100
AcDbLinetypeTableRecord
  2
BYBLOCK
 70
     0
  3

 72
    65
 73
     0
 40
0.0
  0
LTYPE
  5
1CB
330
1C9
100
AcDbSymbolTableRecord
100
AcDbLinetypeTableRecord
  2
BYLAYER
 70
     0
  3

 72
    65
 73
     0
 40
0.0
  0
LTYPE
  5
8
330
1C9
100
AcDbSymbolTableRecord
100
AcDbLinetypeTableRecord
  2
CONTINUOUS
 70
     0
  3
Solid line
 72
    65
 73
     0
 40
0.0
  0
LTYPE
  5
4C
330
1C9
100
AcDbSymbolTableRecord
100
AcDbLinetypeTableRecord
  2
MITTEX2
 70
     0
  3
Mitte (2x) ________  __  ________  __  _____
 72
    65
 73
     4
 40
4.0
 49
2.5
 74
     0
 49
-0.5
 74
     0
 49
0.5
 74
     0
 49
-0.5
 74
     0
  0
LTYPE
  5
12
330
1C9
100
AcDbSymbolTableRecord
100
AcDbLinetypeTableRecord
  2
STRICHLINIEX2
 70
     0
  3
Strichlinie (2x) ____  ____  ____  ____  ____  
 72
    65
 73
     2
 40
1.5
 49
1.0
 74
     0
 49
-0.5
 74
     0
  0
LTYPE
  5
17
330
1C9
100
AcDbSymbolTableRecord
100
AcDbLinetypeTableRecord
  2
GETRENNTX2
 70
     0
  3
Getrennt (2x) ________  .  .  ________  .  .  _
 72
    65
 73
     6
 40
2.5
 49
1.0
 74
     0
 49
-0.5
 74
     0
 49
0.0
 74
     0
 49
-0.5
 74
     0
 49
0.0
 74
     0
 49
-0.5
 74
     0
  0
ENDTAB
  0
TABLE
  2
LAYER
  5
1C4
102
{ACAD_XDICTIONARY
360
1C5
102
}
330
0
100
AcDbSymbolTable
 70
    11
  0
LAYER
  5
4
330
1C4
100
AcDbSymbolTableRecord
100
AcDbLayerTableRecord
  2
0
 70
     0
 62
     7
  6
CONTINUOUS
370
    -3
390
5
  0
LAYER
  5
43
330
1C4
100
AcDbSymbolTableRecord
100
AcDbLayerTableRecord
  2
-PROFILAUSSENKANTET
 70
     0
 62
     4
  6
CONTINUOUS
370
    -3
390
5
1001
AVE_FINISH
1002
{
1070
     0
1005
0
1002
}
  0
LAYER
  5
5F
330
1C4
100
AcDbSymbolTableRecord
100
AcDbLayerTableRecord
  2
-DICHTUNG
 70
     0
 62
     3
  6
CONTINUOUS
370
    -3
390
5
1001
AVE_FINISH
1002
{
1070
     0
1005
0
1002
}
  0
LAYER
  5
11
330
1C4
100
AcDbSymbolTableRecord
100
AcDbLayerTableRecord
  2
-NORMTEIL_VERDECKT
 70
     0
 62
     9
  6
STRICHLINIEX2
370
    -3
390
5
  0
LAYER
  5
22
330
1C4
100
AcDbSymbolTableRecord
100
AcDbLayerTableRecord
  2
DEFPOINTS
 70
     0
 62
     7
  6
CONTINUOUS
290
     0
370
    -3
390
5
  0
LAYER
  5
4B
330
1C4
100
AcDbSymbolTableRecord
100
AcDbLayerTableRecord
  2
-SYSTEM
 70
     0
 62
     2
  6
MITTEX2
370
    -3
390
5
  0
LAYER
  5
19
330
1C4
100
AcDbSymbolTableRecord
100
AcDbLayerTableRecord
  2
-TEXT3
 70
     0
 62
     2
  6
CONTINUOUS
370
    -3
390
5
  0
LAYER
  5
4E
330
1C4
100
AcDbSymbolTableRecord
100
AcDbLayerTableRecord
  2
-SCHRAFFUR
 70
     0
 62
     9
  6
CONTINUOUS
370
    -3
390
5
  0
LAYER
  5
A
330
1C4
100
AcDbSymbolTableRecord
100
AcDbLayerTableRecord
  2
-VERGLASUNG
 70
     0
 62
     1
  6
CONTINUOUS
370
    -3
390
5
  0
LAYER
  5
C
330
1C4
100
AcDbSymbolTableRecord
100
AcDbLayerTableRecord
  2
-TEXT2
 70
     0
 62
     3
  6
CONTINUOUS
370
    -3
390
5
  0
LAYER
  5
16
330
1C4
100
AcDbSymbolTableRecord
100
AcDbLayerTableRecord
  2
-TRENNEN
 70
     0
 62
     2
  6
GETRENNTX2
370
    -3
390
5
  0
ENDTAB
  0
TABLE
  2
STYLE
  5
1C7
330
0
100
AcDbSymbolTable
 70
     1
  0
STYLE
  5
E
330
1C7
100
AcDbSymbolTableRecord
100
AcDbTextStyleTableRecord
  2
STANDARD
 70
     0
 40
0.0
 41
1.0
 50
0.0
 71
     0
 42
2.5
  3
ARIAL.TTF
  4

1001
ACAD
1000
Arial
1071
       34
  0
ENDTAB
  0
TABLE
  2
VIEW
  5
1CC
330
0
100
AcDbSymbolTable
 70
     0
  0
ENDTAB
  0
TABLE
  2
UCS
  5
1CD
330
0
100
AcDbSymbolTable
 70
     0
  0
ENDTAB
  0
TABLE
  2
APPID
  5
1D0
330
0
100
AcDbSymbolTable
 70
     2
  0
APPID
  5
F
330
1D0
100
AcDbSymbolTableRecord
100
AcDbRegAppTableRecord
  2
ACAD
 70
     0
  0
APPID
  5
44
330
1D0
100
AcDbSymbolTableRecord
100
AcDbRegAppTableRecord
  2
AVE_FINISH
 70
     0
  0
ENDTAB
  0
TABLE
  2
DIMSTYLE
  5
1D1
330
0
100
AcDbSymbolTable
 70
     1
100
AcDbDimStyleTable
 71
     1
340
1A
  0
DIMSTYLE
105
1A
102
{ACAD_REACTORS
330
14A
330
13A
330
12D
330
11A
330
EE
330
DF
330
D1
330
C4
330
B6
330
83
330
4D
330
35
330
28
330
18
330
176
330
169
330
15B
330
199
102
}
330
1D1
100
AcDbSymbolTableRecord
100
AcDbDimStyleTableRecord
  2
1-1
 70
     0
 41
2.0
 42
2.0
 43
2.0
 44
1.0
 73
     0
 74
     0
 77
     1
 78
     9
140
5.0
147
1.0
176
     2
177
     2
178
     3
271
     0
289
     2
340
E
  0
ENDTAB
  0
TABLE
  2
BLOCK_RECORD
  5
1
330
0
100
AcDbSymbolTable
 70
    18
  0
BLOCK_RECORD
  5
2
330
1
100
AcDbSymbolTableRecord
100
AcDbBlockTableRecord
  2
*MODEL_SPACE
340
1BE
  0
BLOCK_RECORD
  5
1C0
330
1
100
AcDbSymbolTableRecord
100
AcDbBlockTableRecord
  2
*PAPER_SPACE
340
1C3
  0
BLOCK_RECORD
  5
B7
330
1
100
AcDbSymbolTableRecord
100
AcDbBlockTableRecord
  2
*D0
340
0
  0
BLOCK_RECORD
  5
C5
330
1
100
AcDbSymbolTableRecord
100
AcDbBlockTableRecord
  2
*D1
340
0
  0
BLOCK_RECORD
  5
D2
330
1
100
AcDbSymbolTableRecord
100
AcDbBlockTableRecord
  2
*D2
340
0
  0
BLOCK_RECORD
  5
E0
330
1
100
AcDbSymbolTableRecord
100
AcDbBlockTableRecord
  2
*D3
340
0
  0
BLOCK_RECORD
  5
EF
330
1
100
AcDbSymbolTableRecord
100
AcDbBlockTableRecord
  2
*D4
340
0
  0
BLOCK_RECORD
  5
11B
330
1
100
AcDbSymbolTableRecord
100
AcDbBlockTableRecord
  2
*D5
340
0
  0
BLOCK_RECORD
  5
12E
330
1
100
AcDbSymbolTableRecord
100
AcDbBlockTableRecord
  2
*D6
340
0
  0
BLOCK_RECORD
  5
13B
330
1
100
AcDbSymbolTableRecord
100
AcDbBlockTableRecord
  2
*D7
340
0
  0
BLOCK_RECORD
  5
14B
330
1
100
AcDbSymbolTableRecord
100
AcDbBlockTableRecord
  2
*D8
340
0
  0
BLOCK_RECORD
  5
1B
330
1
100
AcDbSymbolTableRecord
100
AcDbBlockTableRecord
  2
*D9
340
0
  0
BLOCK_RECORD
  5
29
330
1
100
AcDbSymbolTableRecord
100
AcDbBlockTableRecord
  2
*D10
340
0
  0
BLOCK_RECORD
  5
36
330
1
100
AcDbSymbolTableRecord
100
AcDbBlockTableRecord
  2
*D11
340
0
  0
BLOCK_RECORD
  5
4F
330
1
100
AcDbSymbolTableRecord
100
AcDbBlockTableRecord
  2
*D12
340
0
  0
BLOCK_RECORD
  5
84
330
1
100
AcDbSymbolTableRecord
100
AcDbBlockTableRecord
  2
*D13
340
0
  0
BLOCK_RECORD
  5
177
330
1
100
AcDbSymbolTableRecord
100
AcDbBlockTableRecord
  2
*D14
340
0
  0
BLOCK_RECORD
  5
16A
330
1
100
AcDbSymbolTableRecord
100
AcDbBlockTableRecord
  2
*D15
340
0
  0
BLOCK_RECORD
  5
15C
330
1
100
AcDbSymbolTableRecord
100
AcDbBlockTableRecord
  2
*D16
340
0
  0
BLOCK_RECORD
  5
19A
330
1
100
AcDbSymbolTableRecord
100
AcDbBlockTableRecord
  2
*D17
340
0
  0
ENDTAB
  0
ENDSEC
  0
SECTION
  2
BLOCKS
  0
BLOCK
  5
3
330
2
100
AcDbEntity
  8
0
100
AcDbBlockBegin
  2
*MODEL_SPACE
 70
     0
 10
0.0
 20
0.0
 30
0.0
  3
*MODEL_SPACE
  1

  0
ENDBLK
  5
1BD
330
2
100
AcDbEntity
  8
0
100
AcDbBlockEnd
  0
BLOCK
  5
1C1
330
1C0
100
AcDbEntity
 67
     1
  8
0
100
AcDbBlockBegin
  2
*PAPER_SPACE
 70
     0
 10
0.0
 20
0.0
 30
0.0
  3
*PAPER_SPACE
  1

  0
ENDBLK
  5
1C2
330
1C0
100
AcDbEntity
 67
     1
  8
0
100
AcDbBlockEnd
  0
BLOCK
  5
B8
330
B7
100
AcDbEntity
  8
0
100
AcDbBlockBegin
  2
*D0
 70
     1
 10
0.0
 20
0.0
 30
0.0
  3
*D0
  1

  0
LINE
  5
B9
330
B7
100
AcDbEntity
  8
-SCHRAFFUR
 62
     2
370
    -2
100
AcDbLine
 10
311.0387371613261
 20
13.06426372570445
 30
0.0
 11
311.0387371613261
 21
-3.566467688138345
 31
0.0
  0
LINE
  5
BA
330
B7
100
AcDbEntity
  8
-SCHRAFFUR
 62
     2
370
    -2
100
AcDbLine
 10
276.0387371613262
 20
13.06426372570558
 30
0.0
 11
276.0387371613262
 21
-3.566467688138345
 31
0.0
  0
LINE
  5
BB
330
B7
100
AcDbEntity
  8
-SCHRAFFUR
 62
     2
370
    -2
100
AcDbLine
 10
309.0387371613261
 20
-2.566467688138345
 30
0.0
 11
278.0387371613262
 21
-2.566467688138345
 31
0.0
  0
SOLID
  5
BC
330
B7
100
AcDbEntity
  8
-SCHRAFFUR
 62
     2
100
AcDbTrace
 10
309.0387371613261
 20
-2.233134354805012
 30
0.0
 11
309.0387371613261
 21
-2.899801021471679
 31
0.0
 12
311.0387371613261
 22
-2.566467688138345
 32
0.0
 13
311.0387371613261
 23
-2.566467688138345
 33
0.0
  0
SOLID
  5
BD
330
B7
100
AcDbEntity
  8
-SCHRAFFUR
 62
     2
100
AcDbTrace
 10
278.0387371613262
 20
-2.233134354805012
 30
0.0
 11
278.0387371613262
 21
-2.899801021471679
 31
0.0
 12
276.0387371613262
 22
-2.566467688138345
 32
0.0
 13
276.0387371613262
 23
-2.566467688138345
 33
0.0
  0
MTEXT
  5
BE
330
B7
100
AcDbEntity
  8
-SCHRAFFUR
 62
     3
100
AcDbMText
 10
293.5387371613261
 20
1.126233539692486
 30
0.0
 40
5.0
 41
0.0
 71
     5
 72
     1
  1
\A1;%%c35
 73
     1
 44
1.0
1001
ACAD
1000
MTEXTBEGIN
1070
    73
1070
     1
1070
    44
1040
1.0
1070
    74
1070
     0
1000
MTEXTEND
  0
POINT
  5
BF
330
B7
100
AcDbEntity
  8
DEFPOINTS
 62
     0
100
AcDbPoint
 10
311.0387371613261
 20
15.06426372570445
 30
0.0
  0
POINT
  5
C0
330
B7
100
AcDbEntity
  8
DEFPOINTS
 62
     0
100
AcDbPoint
 10
276.0387371613262
 20
15.06426372570558
 30
0.0
  0
POINT
  5
C1
330
B7
100
AcDbEntity
  8
DEFPOINTS
 62
     0
100
AcDbPoint
 10
276.0387371613262
 20
-2.566467688138345
 30
0.0
  0
ENDBLK
  5
C2
330
B7
100
AcDbEntity
  8
0
100
AcDbBlockEnd
  0
BLOCK
  5
C6
330
C5
100
AcDbEntity
  8
0
100
AcDbBlockBegin
  2
*D1
 70
     1
 10
0.0
 20
0.0
 30
0.0
  3
*D1
  1

  0
LINE
  5
C7
330
C5
100
AcDbEntity
  8
-TEXT3
 62
     2
370
    -2
100
AcDbLine
 10
313.0387371613261
 20
39.87000954893881
 30
0.0
 11
326.5287591419207
 21
39.87000954893881
 31
0.0
  0
LINE
  5
C8
330
C5
100
AcDbEntity
  8
-TEXT3
 62
     2
370
    -2
100
AcDbLine
 10
310.0387371613261
 20
77.87000954893881
 30
0.0
 11
326.5287591419207
 21
77.87000954893881
 31
0.0
  0
LINE
  5
C9
330
C5
100
AcDbEntity
  8
-TEXT3
 62
     2
370
    -2
100
AcDbLine
 10
325.5287591419206
 20
41.87000954893881
 30
0.0
 11
325.5287591419206
 21
75.87000954893881
 31
0.0
  0
SOLID
  5
CA
330
C5
100
AcDbEntity
  8
-TEXT3
 62
     2
100
AcDbTrace
 10
325.1954258085874
 20
41.87000954893881
 30
0.0
 11
325.862092475254
 21
41.87000954893881
 31
0.0
 12
325.5287591419206
 22
39.87000954893881
 32
0.0
 13
325.5287591419206
 23
39.87000954893881
 33
0.0
  0
SOLID
  5
CB
330
C5
100
AcDbEntity
  8
-TEXT3
 62
     2
100
AcDbTrace
 10
325.1954258085874
 20
75.87000954893881
 30
0.0
 11
325.862092475254
 21
75.87000954893881
 31
0.0
 12
325.5287591419206
 22
77.87000954893881
 32
0.0
 13
325.5287591419206
 23
77.87000954893881
 33
0.0
  0
MTEXT
  5
CC
330
C5
100
AcDbEntity
  8
-TEXT3
 62
     3
100
AcDbMText
 10
321.9741888827119
 20
62.68375167287422
 30
0.0
 40
5.0
 41
0.0
 71
     5
 72
     1
  1
\A1;38
 11
0.0000000000000001
 21
1.0
 31
0.0
 73
     1
 44
1.0
1001
ACAD
1000
MTEXTBEGIN
1070
    73
1070
     1
1070
    44
1040
1.0
1070
    74
1070
     0
1000
MTEXTEND
  0
POINT
  5
CD
330
C5
100
AcDbEntity
  8
DEFPOINTS
 62
     0
100
AcDbPoint
 10
311.0387371613261
 20
39.87000954893881
 30
0.0
  0
POINT
  5
CE
330
C5
100
AcDbEntity
  8
DEFPOINTS
 62
     0
100
AcDbPoint
 10
308.0387371613261
 20
77.87000954893881
 30
0.0
  0
POINT
  5
CF
330
C5
100
AcDbEntity
  8
DEFPOINTS
 62
     0
100
AcDbPoint
 10
325.5287591419206
 20
77.87000954893881
 30
0.0
  0
ENDBLK
  5
D0
330
C5
100
AcDbEntity
  8
0
100
AcDbBlockEnd
  0
BLOCK
  5
D3
330
D2
100
AcDbEntity
  8
0
100
AcDbBlockBegin
  2
*D2
 70
     1
 10
0.0
 20
0.0
 30
0.0
  3
*D2
  1

  0
LINE
  5
D4
330
D2
100
AcDbEntity
  8
-TEXT3
 62
     2
370
    -2
100
AcDbLine
 10
293.4987371613289
 20
84.00722861717246
 30
0.0
 11
293.4987371613289
 21
99.14118435185674
 31
0.0
  0
LINE
  5
D5
330
D2
100
AcDbEntity
  8
-TEXT3
 62
     2
370
    -2
100
AcDbLine
 10
333.538737161328
 20
59.87000954893881
 30
0.0
 11
333.538737161328
 21
99.14118435185674
 31
0.0
  0
LINE
  5
D6
330
D2
100
AcDbEntity
  8
-TEXT3
 62
     2
370
    -2
100
AcDbLine
 10
295.4987371613289
 20
98.14118435185674
 30
0.0
 11
331.538737161328
 21
98.14118435185674
 31
0.0
  0
SOLID
  5
D7
330
D2
100
AcDbEntity
  8
-TEXT3
 62
     2
100
AcDbTrace
 10
295.4987371613289
 20
98.47451768519007
 30
0.0
 11
295.4987371613289
 21
97.80785101852341
 31
0.0
 12
293.4987371613289
 22
98.14118435185674
 32
0.0
 13
293.4987371613289
 23
98.14118435185674
 33
0.0
  0
SOLID
  5
D8
330
D2
100
AcDbEntity
  8
-TEXT3
 62
     2
100
AcDbTrace
 10
331.538737161328
 20
98.47451768519007
 30
0.0
 11
331.538737161328
 21
97.80785101852341
 31
0.0
 12
333.538737161328
 22
98.14118435185674
 32
0.0
 13
333.538737161328
 23
98.14118435185674
 33
0.0
  0
MTEXT
  5
D9
330
D2
100
AcDbEntity
  8
-TEXT3
 62
     3
100
AcDbMText
 10
313.5187371613284
 20
101.6940492904652
 30
0.0
 40
5.0
 41
0.0
 71
     5
 72
     1
  1
\A1;40
 73
     1
 44
1.0
1001
ACAD
1000
MTEXTBEGIN
1070
    73
1070
     1
1070
    44
1040
1.0
1070
    74
1070
     0
1000
MTEXTEND
  0
POINT
  5
DA
330
D2
100
AcDbEntity
  8
DEFPOINTS
 62
     0
100
AcDbPoint
 10
293.4987371613289
 20
82.00722861717247
 30
0.0
  0
POINT
  5
DB
330
D2
100
AcDbEntity
  8
DEFPOINTS
 62
     0
100
AcDbPoint
 10
333.538737161328
 20
57.87000954893881
 30
0.0
  0
POINT
  5
DC
330
D2
100
AcDbEntity
  8
DEFPOINTS
 62
     0
100
AcDbPoint
 10
333.538737161328
 20
98.14118435185674
 30
0.0
  0
ENDBLK
  5
DD
330
D2
100
AcDbEntity
  8
0
100
AcDbBlockEnd
  0
BLOCK
  5
E1
330
E0
100
AcDbEntity
  8
0
100
AcDbBlockBegin
  2
*D3
 70
     1
 10
0.0
 20
0.0
 30
0.0
  3
*D3
  1

  0
LINE
  5
E2
330
E0
100
AcDbEntity
  8
-TEXT3
 62
     2
370
    -2
100
AcDbLine
 10
321.5187371613284
 20
16.35000954893894
 30
0.0
 11
362.140944152438
 21
16.35000954893893
 31
0.0
  0
LINE
  5
E3
330
E0
100
AcDbEntity
  8
-TEXT3
 62
     2
370
    -2
100
AcDbLine
 10
305.1249245098351
 20
11.37000954893835
 30
0.0
 11
362.140944152438
 21
11.37000954893834
 31
0.0
  0
LINE
  5
E4
330
E0
100
AcDbEntity
  8
-TEXT3
 62
     2
370
    -2
100
AcDbLine
 10
361.140944152438
 20
18.35000954893892
 30
0.0
 11
361.140944152438
 21
20.35000954893893
 31
0.0
  0
LINE
  5
E5
330
E0
100
AcDbEntity
  8
-TEXT3
 62
     2
370
    -2
100
AcDbLine
 10
361.140944152438
 20
9.370009548938339
 30
0.0
 11
361.140944152438
 21
2.054866302007915
 31
0.0
  0
SOLID
  5
E6
330
E0
100
AcDbEntity
  8
-TEXT3
 62
     2
100
AcDbTrace
 10
360.8076108191047
 20
18.35000954893892
 30
0.0
 11
361.4742774857713
 21
18.35000954893892
 31
0.0
 12
361.140944152438
 22
16.35000954893893
 32
0.0
 13
361.140944152438
 23
16.35000954893893
 33
0.0
  0
SOLID
  5
E7
330
E0
100
AcDbEntity
  8
-TEXT3
 62
     2
100
AcDbTrace
 10
360.8076108191047
 20
9.370009548938339
 30
0.0
 11
361.4742774857713
 21
9.370009548938339
 31
0.0
 12
361.140944152438
 22
11.37000954893834
 32
0.0
 13
361.140944152438
 23
11.37000954893834
 33
0.0
  0
MTEXT
  5
E8
330
E0
100
AcDbEntity
  8
-TEXT3
 62
     3
100
AcDbMText
 10
357.5983111374312
 20
4.712437925473185
 30
0.0
 40
5.0
 41
0.0
 71
     5
 72
     1
  1
\A1;5
 11
0.0000000000000001
 21
1.0
 31
0.0
 73
     1
 44
1.0
1001
ACAD
1000
MTEXTBEGIN
1070
    73
1070
     1
1070
    44
1040
1.0
1070
    74
1070
     0
1000
MTEXTEND
  0
POINT
  5
E9
330
E0
100
AcDbEntity
  8
DEFPOINTS
 62
     0
100
AcDbPoint
 10
319.5187371613284
 20
16.35000954893894
 30
0.0
  0
POINT
  5
EA
330
E0
100
AcDbEntity
  8
DEFPOINTS
 62
     0
100
AcDbPoint
 10
303.1249245098351
 20
11.37000954893835
 30
0.0
  0
POINT
  5
EB
330
E0
100
AcDbEntity
  8
DEFPOINTS
 62
     0
100
AcDbPoint
 10
361.140944152438
 20
11.37000954893834
 30
0.0
  0
ENDBLK
  5
EC
330
E0
100
AcDbEntity
  8
0
100
AcDbBlockEnd
  0
BLOCK
  5
F0
330
EF
100
AcDbEntity
  8
0
100
AcDbBlockBegin
  2
*D4
 70
     1
 10
0.0
 20
0.0
 30
0.0
  3
*D4
  1

  0
LINE
  5
F1
330
EF
100
AcDbEntity
  8
-TEXT3
 62
     2
370
    -2
100
AcDbLine
 10
341.538737161328
 20
49.87000954893881
 30
0.0
 11
362.140944152438
 21
49.87000954893881
 31
0.0
  0
LINE
  5
F2
330
EF
100
AcDbEntity
  8
-TEXT3
 62
     2
370
    -2
100
AcDbLine
 10
313.0387371613261
 20
39.87000954893881
 30
0.0
 11
362.140944152438
 21
39.87000954893881
 31
0.0
  0
LINE
  5
F3
330
EF
100
AcDbEntity
  8
-TEXT3
 62
     2
370
    -2
100
AcDbLine
 10
361.140944152438
 20
47.87000954893881
 30
0.0
 11
361.140944152438
 21
41.8700095489388
 31
0.0
  0
SOLID
  5
F4
330
EF
100
AcDbEntity
  8
-TEXT3
 62
     2
100
AcDbTrace
 10
360.8076108191047
 20
47.87000954893881
 30
0.0
 11
361.4742774857713
 21
47.87000954893881
 31
0.0
 12
361.140944152438
 22
49.87000954893881
 32
0.0
 13
361.140944152438
 23
49.87000954893881
 33
0.0
  0
SOLID
  5
F5
330
EF
100
AcDbEntity
  8
-TEXT3
 62
     2
100
AcDbTrace
 10
360.8076108191047
 20
41.8700095489388
 30
0.0
 11
361.4742774857713
 21
41.8700095489388
 31
0.0
 12
361.140944152438
 22
39.87000954893881
 32
0.0
 13
361.140944152438
 23
39.87000954893881
 33
0.0
  0
MTEXT
  5
F6
330
EF
100
AcDbEntity
  8
-TEXT3
 62
     3
100
AcDbMText
 10
357.5880792138296
 20
44.87000954893885
 30
0.0
 40
5.0
 41
0.0
 71
     5
 72
     1
  1
\A1;10
 11
0.0000000000000001
 21
1.0
 31
0.0
 73
     1
 44
1.0
1001
ACAD
1000
MTEXTBEGIN
1070
    73
1070
     1
1070
    44
1040
1.0
1070
    74
1070
     0
1000
MTEXTEND
  0
POINT
  5
F7
330
EF
100
AcDbEntity
  8
DEFPOINTS
 62
     0
100
AcDbPoint
 10
339.538737161328
 20
49.87000954893881
 30
0.0
  0
POINT
  5
F8
330
EF
100
AcDbEntity
  8
DEFPOINTS
 62
     0
100
AcDbPoint
 10
311.0387371613261
 20
39.87000954893881
 30
0.0
  0
POINT
  5
F9
330
EF
100
AcDbEntity
  8
DEFPOINTS
 62
     0
100
AcDbPoint
 10
361.140944152438
 20
39.87000954893881
 30
0.0
  0
ENDBLK
  5
FA
330
EF
100
AcDbEntity
  8
0
100
AcDbBlockEnd
  0
BLOCK
  5
11C
330
11B
100
AcDbEntity
  8
0
100
AcDbBlockBegin
  2
*D5
 70
     1
 10
0.0
 20
0.0
 30
0.0
  3
*D5
  1

  0
LINE
  5
11D
330
11B
100
AcDbEntity
  8
-TEXT3
 62
     2
370
    -2
100
AcDbLine
 10
335.538737161328
 20
49.87000954893881
 30
0.0
 11
362.140944152438
 21
49.8700095489388
 31
0.0
  0
LINE
  5
11E
330
11B
100
AcDbEntity
  8
-TEXT3
 62
     2
370
    -2
100
AcDbLine
 10
335.538737161328
 20
57.87000954893881
 30
0.0
 11
362.140944152438
 21
57.8700095489388
 31
0.0
  0
LINE
  5
11F
330
11B
100
AcDbEntity
  8
-TEXT3
 62
     2
370
    -2
100
AcDbLine
 10
361.140944152438
 20
51.8700095489388
 30
0.0
 11
361.140944152438
 21
55.87000954893881
 31
0.0
  0
SOLID
  5
120
330
11B
100
AcDbEntity
  8
-TEXT3
 62
     2
100
AcDbTrace
 10
360.8076108191047
 20
51.8700095489388
 30
0.0
 11
361.4742774857713
 21
51.8700095489388
 31
0.0
 12
361.140944152438
 22
49.8700095489388
 32
0.0
 13
361.140944152438
 23
49.8700095489388
 33
0.0
  0
SOLID
  5
121
330
11B
100
AcDbEntity
  8
-TEXT3
 62
     2
100
AcDbTrace
 10
360.8076108191047
 20
55.87000954893881
 30
0.0
 11
361.4742774857713
 21
55.87000954893881
 31
0.0
 12
361.140944152438
 22
57.8700095489388
 32
0.0
 13
361.140944152438
 23
57.8700095489388
 33
0.0
  0
MTEXT
  5
122
330
11B
100
AcDbEntity
  8
-TEXT3
 62
     3
100
AcDbMText
 10
357.4482429246072
 20
53.87000954893886
 30
0.0
 40
5.0
 41
0.0
 71
     5
 72
     1
  1
\A1;%%c8
 11
0.0000000000000001
 21
1.0
 31
0.0
 73
     1
 44
1.0
1001
ACAD
1000
MTEXTBEGIN
1070
    73
1070
     1
1070
    44
1040
1.0
1070
    74
1070
     0
1000
MTEXTEND
  0
POINT
  5
123
330
11B
100
AcDbEntity
  8
DEFPOINTS
 62
     0
100
AcDbPoint
 10
333.538737161328
 20
49.87000954893881
 30
0.0
  0
POINT
  5
124
330
11B
100
AcDbEntity
  8
DEFPOINTS
 62
     0
100
AcDbPoint
 10
333.538737161328
 20
57.87000954893881
 30
0.0
  0
POINT
  5
125
330
11B
100
AcDbEntity
  8
DEFPOINTS
 62
     0
100
AcDbPoint
 10
361.140944152438
 20
57.8700095489388
 30
0.0
  0
ENDBLK
  5
126
330
11B
100
AcDbEntity
  8
0
100
AcDbBlockEnd
  0
BLOCK
  5
12F
330
12E
100
AcDbEntity
  8
0
100
AcDbBlockBegin
  2
*D6
 70
     1
 10
0.0
 20
0.0
 30
0.0
  3
*D6
  1

  0
LINE
  5
130
330
12E
100
AcDbEntity
  8
-TEXT3
 62
     2
370
    -2
100
AcDbLine
 10
350.1212135432003
 20
36.87000954893893
 30
0.0
 11
362.140944152438
 21
36.87000954893893
 31
0.0
  0
LINE
  5
131
330
12E
100
AcDbEntity
  8
-TEXT3
 62
     2
370
    -2
100
AcDbLine
 10
350.1212135432003
 20
19.37000954893824
 30
0.0
 11
362.140944152438
 21
19.37000954893824
 31
0.0
  0
LINE
  5
132
330
12E
100
AcDbEntity
  8
-TEXT3
 62
     2
370
    -2
100
AcDbLine
 10
361.140944152438
 20
34.87000954893892
 30
0.0
 11
361.140944152438
 21
21.37000954893824
 31
0.0
  0
SOLID
  5
133
330
12E
100
AcDbEntity
  8
-TEXT3
 62
     2
100
AcDbTrace
 10
360.8076108191047
 20
34.87000954893892
 30
0.0
 11
361.4742774857713
 21
34.87000954893892
 31
0.0
 12
361.140944152438
 22
36.87000954893893
 32
0.0
 13
361.140944152438
 23
36.87000954893893
 33
0.0
  0
SOLID
  5
134
330
12E
100
AcDbEntity
  8
-TEXT3
 62
     2
100
AcDbTrace
 10
360.8076108191047
 20
21.37000954893824
 30
0.0
 11
361.4742774857713
 21
21.37000954893824
 31
0.0
 12
361.140944152438
 22
19.37000954893824
 32
0.0
 13
361.140944152438
 23
19.37000954893824
 33
0.0
  0
MTEXT
  5
135
330
12E
100
AcDbEntity
  8
-TEXT3
 62
     3
100
AcDbMText
 10
357.5556781224244
 20
28.12000954893864
 30
0.0
 40
5.0
 41
0.0
 71
     5
 72
     1
  1
\A1;G
 11
0.0000000000000001
 21
1.0
 31
0.0
 73
     1
 44
1.0
1001
ACAD
1000
MTEXTBEGIN
1070
    73
1070
     1
1070
    44
1040
1.0
1070
    74
1070
     0
1000
MTEXTEND
  0
POINT
  5
136
330
12E
100
AcDbEntity
  8
DEFPOINTS
 62
     0
100
AcDbPoint
 10
348.1212135432003
 20
36.87000954893893
 30
0.0
  0
POINT
  5
137
330
12E
100
AcDbEntity
  8
DEFPOINTS
 62
     0
100
AcDbPoint
 10
348.1212135432003
 20
19.37000954893824
 30
0.0
  0
POINT
  5
138
330
12E
100
AcDbEntity
  8
DEFPOINTS
 62
     0
100
AcDbPoint
 10
361.140944152438
 20
19.37000954893824
 30
0.0
  0
ENDBLK
  5
139
330
12E
100
AcDbEntity
  8
0
100
AcDbBlockEnd
  0
BLOCK
  5
13C
330
13B
100
AcDbEntity
  8
0
100
AcDbBlockBegin
  2
*D7
 70
     1
 10
0.0
 20
0.0
 30
0.0
  3
*D7
  1

  0
LINE
  5
13D
330
13B
100
AcDbEntity
  8
-TEXT2
 62
     2
370
    -2
100
AcDbLine
 10
350.1212135432003
 20
36.87000954893893
 30
0.0
 11
362.1409441524378
 21
36.87000954893893
 31
0.0
  0
LINE
  5
13E
330
13B
100
AcDbEntity
  8
-TEXT2
 62
     2
370
    -2
100
AcDbLine
 10
350.1212135432003
 20
39.89000954893811
 30
0.0
 11
362.1409441524378
 21
39.89000954893811
 31
0.0
  0
LINE
  5
13F
330
13B
100
AcDbEntity
  8
-TEXT2
 62
     2
370
    -2
100
AcDbLine
 10
361.1409441524378
 20
34.87000954893892
 30
0.0
 11
361.1409441524378
 21
32.87000954893893
 31
0.0
  0
LINE
  5
140
330
13B
100
AcDbEntity
  8
-TEXT2
 62
     2
370
    -2
100
AcDbLine
 10
361.1409441524378
 20
41.89000954893811
 30
0.0
 11
361.1409441524378
 21
43.89000954893811
 31
0.0
  0
SOLID
  5
141
330
13B
100
AcDbEntity
  8
-TEXT2
 62
     2
100
AcDbTrace
 10
360.8076108191045
 20
34.87000954893892
 30
0.0
 11
361.4742774857711
 21
34.87000954893892
 31
0.0
 12
361.1409441524378
 22
36.87000954893893
 32
0.0
 13
361.1409441524378
 23
36.87000954893893
 33
0.0
  0
SOLID
  5
142
330
13B
100
AcDbEntity
  8
-TEXT2
 62
     2
100
AcDbTrace
 10
360.8076108191045
 20
41.89000954893811
 30
0.0
 11
361.4742774857711
 21
41.89000954893811
 31
0.0
 12
361.1409441524378
 22
39.89000954893811
 32
0.0
 13
361.1409441524378
 23
39.89000954893811
 33
0.0
  0
MTEXT
  5
143
330
13B
100
AcDbEntity
  8
-TEXT2
 62
     3
100
AcDbMText
 10
357.586373893229
 20
38.38000954893857
 30
0.0
 40
5.0
 41
0.0
 71
     5
 72
     1
  1
\A1;3
 11
0.0000000000000001
 21
1.0
 31
0.0
 73
     1
 44
1.0
1001
ACAD
1000
MTEXTBEGIN
1070
    73
1070
     1
1070
    44
1040
1.0
1070
    74
1070
     0
1000
MTEXTEND
  0
POINT
  5
144
330
13B
100
AcDbEntity
  8
DEFPOINTS
 62
     0
100
AcDbPoint
 10
348.1212135432003
 20
36.87000954893893
 30
0.0
  0
POINT
  5
145
330
13B
100
AcDbEntity
  8
DEFPOINTS
 62
     0
100
AcDbPoint
 10
348.1212135432003
 20
39.89000954893811
 30
0.0
  0
POINT
  5
146
330
13B
100
AcDbEntity
  8
DEFPOINTS
 62
     0
100
AcDbPoint
 10
361.1409441524378
 20
39.89000954893811
 30
0.0
  0
ENDBLK
  5
147
330
13B
100
AcDbEntity
  8
0
100
AcDbBlockEnd
  0
BLOCK
  5
14C
330
14B
100
AcDbEntity
  8
0
100
AcDbBlockBegin
  2
*D8
 70
     1
 10
0.0
 20
0.0
 30
0.0
  3
*D8
  1

  0
LINE
  5
14D
330
14B
100
AcDbEntity
  8
-TEXT2
 62
     2
370
    -2
100
AcDbLine
 10
350.1212135432003
 20
19.37000954893824
 30
0.0
 11
362.1409441524378
 21
19.37000954893824
 31
0.0
  0
LINE
  5
14E
330
14B
100
AcDbEntity
  8
-TEXT2
 62
     2
370
    -2
100
AcDbLine
 10
350.1212135432003
 20
16.35000954893905
 30
0.0
 11
362.1409441524378
 21
16.35000954893905
 31
0.0
  0
LINE
  5
14F
330
14B
100
AcDbEntity
  8
-TEXT2
 62
     2
370
    -2
100
AcDbLine
 10
361.1409441524378
 20
21.37000954893824
 30
0.0
 11
361.1409441524378
 21
23.37000954893824
 31
0.0
  0
LINE
  5
150
330
14B
100
AcDbEntity
  8
-TEXT2
 62
     2
370
    -2
100
AcDbLine
 10
361.1409441524378
 20
14.35000954893905
 30
0.0
 11
361.1409441524378
 21
12.35000954893905
 31
0.0
  0
SOLID
  5
151
330
14B
100
AcDbEntity
  8
-TEXT2
 62
     2
100
AcDbTrace
 10
360.8076108191045
 20
21.37000954893824
 30
0.0
 11
361.4742774857711
 21
21.37000954893824
 31
0.0
 12
361.1409441524378
 22
19.37000954893824
 32
0.0
 13
361.1409441524378
 23
19.37000954893824
 33
0.0
  0
SOLID
  5
152
330
14B
100
AcDbEntity
  8
-TEXT2
 62
     2
100
AcDbTrace
 10
360.8076108191045
 20
14.35000954893905
 30
0.0
 11
361.4742774857711
 21
14.35000954893905
 31
0.0
 12
361.1409441524378
 22
16.35000954893905
 32
0.0
 13
361.1409441524378
 23
16.35000954893905
 33
0.0
  0
MTEXT
  5
153
330
14B
100
AcDbEntity
  8
-TEXT2
 62
     3
100
AcDbMText
 10
357.586373893229
 20
17.8600095489387
 30
0.0
 40
5.0
 41
0.0
 71
     5
 72
     1
  1
\A1;3
 11
0.0000000000000001
 21
1.0
 31
0.0
 73
     1
 44
1.0
1001
ACAD
1000
MTEXTBEGIN
1070
    73
1070
     1
1070
    44
1040
1.0
1070
    74
1070
     0
1000
MTEXTEND
  0
POINT
  5
154
330
14B
100
AcDbEntity
  8
DEFPOINTS
 62
     0
100
AcDbPoint
 10
348.1212135432003
 20
19.37000954893824
 30
0.0
  0
POINT
  5
155
330
14B
100
AcDbEntity
  8
DEFPOINTS
 62
     0
100
AcDbPoint
 10
348.1212135432003
 20
16.35000954893905
 30
0.0
  0
POINT
  5
156
330
14B
100
AcDbEntity
  8
DEFPOINTS
 62
     0
100
AcDbPoint
 10
361.1409441524378
 20
16.35000954893905
 30
0.0
  0
ENDBLK
  5
157
330
14B
100
AcDbEntity
  8
0
100
AcDbBlockEnd
  0
BLOCK
  5
1C
330
1B
100
AcDbEntity
  8
0
100
AcDbBlockBegin
  2
*D9
 70
     1
 10
0.0
 20
0.0
 30
0.0
  3
*D9
  1

  0
ARC
  5
1D
330
1B
100
AcDbEntity
  8
-TEXT3
 62
     2
370
    -2
100
AcDbCircle
 10
213.4987371613289
 20
57.87000954893882
 30
0.0
 40
42.76834048214484
100
AcDbArc
 50
2.679599013009108
 51
87.32040098699089
  0
SOLID
  5
1E
330
1B
100
AcDbEntity
  8
-TEXT3
 62
     2
100
AcDbTrace
 10
256.5535562830361
 20
59.87725669370842
 30
0.0
 11
255.8870718771885
 21
59.8616688392546
 31
0.0
 12
256.2670776434737
 22
57.87000954893885
 32
0.0
 13
256.2670776434737
 23
57.87000954893885
 33
0.0
  0
SOLID
  5
1F
330
1B
100
AcDbEntity
  8
-TEXT3
 62
     2
100
AcDbTrace
 10
215.4903964516447
 20
100.2583442647984
 30
0.0
 11
215.5059843060985
 21
100.924828670646
 31
0.0
 12
213.498737161329
 22
100.6383500310836
 32
0.0
 13
213.498737161329
 23
100.6383500310836
 33
0.0
  0
MTEXT
  5
20
330
1B
100
AcDbEntity
  8
-TEXT3
 62
     3
100
AcDbMText
 10
246.2527756270786
 20
90.62404801468856
 30
0.0
 40
5.0
 41
0.0
 71
     5
 72
     1
  1
\A1;90°-180°
 11
0.7071067811865476
 21
-0.7071067811865475
 31
0.0
 73
     1
 44
1.0
1001
ACAD
1000
MTEXTBEGIN
1070
    73
1070
     1
1070
    44
1040
1.0
1070
    74
1070
     0
1000
MTEXTEND
  0
POINT
  5
21
330
1B
100
AcDbEntity
  8
DEFPOINTS
 62
     0
100
AcDbPoint
 10
250.5372064965687
 20
79.25417979001124
 30
0.0
  0
POINT
  5
23
330
1B
100
AcDbEntity
  8
DEFPOINTS
 62
     0
100
AcDbPoint
 10
213.4987371613289
 20
120.3700095489372
 30
0.0
  0
POINT
  5
24
330
1B
100
AcDbEntity
  8
DEFPOINTS
 62
     0
100
AcDbPoint
 10
223.4987371613289
 20
57.87000954893881
 30
0.0
  0
POINT
  5
25
330
1B
100
AcDbEntity
  8
DEFPOINTS
 62
     0
100
AcDbPoint
 10
276.0387371613262
 20
57.87000954893881
 30
0.0
  0
POINT
  5
26
330
1B
100
AcDbEntity
  8
DEFPOINTS
 62
     0
100
AcDbPoint
 10
213.4987371613289
 20
67.87000954893882
 30
0.0
  0
ENDBLK
  5
27
330
1B
100
AcDbEntity
  8
0
100
AcDbBlockEnd
  0
BLOCK
  5
2A
330
29
100
AcDbEntity
  8
0
100
AcDbBlockBegin
  2
*D10
 70
     1
 10
0.0
 20
0.0
 30
0.0
  3
*D10
  1

  0
LINE
  5
2B
330
29
100
AcDbEntity
  8
-TEXT3
 62
     2
370
    -2
100
AcDbLine
 10
213.4987371613289
 20
179.8700095489388
 30
0.0
 11
213.4987371613289
 21
208.3500757268672
 31
0.0
  0
LINE
  5
2C
330
29
100
AcDbEntity
  8
-TEXT3
 62
     2
370
    -2
100
AcDbLine
 10
333.538737161328
 20
101.6411843518567
 30
0.0
 11
333.538737161328
 21
208.3500757268672
 31
0.0
  0
LINE
  5
2D
330
29
100
AcDbEntity
  8
-TEXT3
 62
     2
370
    -2
100
AcDbLine
 10
215.4987371613289
 20
207.3500757268672
 30
0.0
 11
331.538737161328
 21
207.3500757268672
 31
0.0
  0
SOLID
  5
2E
330
29
100
AcDbEntity
  8
-TEXT3
 62
     2
100
AcDbTrace
 10
215.4987371613289
 20
207.6834090602005
 30
0.0
 11
215.4987371613289
 21
207.0167423935338
 31
0.0
 12
213.4987371613289
 22
207.3500757268672
 32
0.0
 13
213.4987371613289
 23
207.3500757268672
 33
0.0
  0
SOLID
  5
2F
330
29
100
AcDbEntity
  8
-TEXT3
 62
     2
100
AcDbTrace
 10
331.538737161328
 20
207.6834090602005
 30
0.0
 11
331.538737161328
 21
207.0167423935338
 31
0.0
 12
333.538737161328
 22
207.3500757268672
 32
0.0
 13
333.538737161328
 23
207.3500757268672
 33
0.0
  0
MTEXT
  5
30
330
29
100
AcDbEntity
  8
-TEXT3
 62
     3
100
AcDbMText
 10
273.5187371613284
 20
210.9029406654757
 30
0.0
 40
5.0
 41
0.0
 71
     5
 72
     1
  1
\A1;120
 73
     1
 44
1.0
1001
ACAD
1000
MTEXTBEGIN
1070
    73
1070
     1
1070
    44
1040
1.0
1070
    74
1070
     0
1000
MTEXTEND
  0
POINT
  5
31
330
29
100
AcDbEntity
  8
DEFPOINTS
 62
     0
100
AcDbPoint
 10
213.4987371613289
 20
177.8700095489388
 30
0.0
  0
POINT
  5
32
330
29
100
AcDbEntity
  8
DEFPOINTS
 62
     0
100
AcDbPoint
 10
333.538737161328
 20
99.64118435185675
 30
0.0
  0
POINT
  5
33
330
29
100
AcDbEntity
  8
DEFPOINTS
 62
     0
100
AcDbPoint
 10
333.538737161328
 20
207.3500757268672
 30
0.0
  0
ENDBLK
  5
34
330
29
100
AcDbEntity
  8
0
100
AcDbBlockEnd
  0
BLOCK
  5
37
330
36
100
AcDbEntity
  8
0
100
AcDbBlockBegin
  2
*D11
 70
     1
 10
0.0
 20
0.0
 30
0.0
  3
*D11
  1

  0
LINE
  5
38
330
36
100
AcDbEntity
  8
-TEXT3
 62
     2
370
    -2
100
AcDbLine
 10
335.538737161328
 20
57.87000954893881
 30
0.0
 11
362.140944152438
 21
57.8700095489388
 31
0.0
  0
LINE
  5
39
330
36
100
AcDbEntity
  8
-TEXT3
 62
     2
370
    -2
100
AcDbLine
 10
215.4987371613289
 20
177.8700095489388
 30
0.0
 11
362.140944152438
 21
177.8700095489388
 31
0.0
  0
LINE
  5
3A
330
36
100
AcDbEntity
  8
-TEXT3
 62
     2
370
    -2
100
AcDbLine
 10
361.140944152438
 20
59.8700095489388
 30
0.0
 11
361.140944152438
 21
175.8700095489388
 31
0.0
  0
SOLID
  5
3B
330
36
100
AcDbEntity
  8
-TEXT3
 62
     2
100
AcDbTrace
 10
360.8076108191046
 20
59.8700095489388
 30
0.0
 11
361.4742774857713
 21
59.8700095489388
 31
0.0
 12
361.140944152438
 22
57.8700095489388
 32
0.0
 13
361.140944152438
 23
57.8700095489388
 33
0.0
  0
SOLID
  5
3C
330
36
100
AcDbEntity
  8
-TEXT3
 62
     2
100
AcDbTrace
 10
360.8076108191047
 20
175.8700095489388
 30
0.0
 11
361.4742774857713
 21
175.8700095489388
 31
0.0
 12
361.140944152438
 22
177.8700095489388
 32
0.0
 13
361.140944152438
 23
177.8700095489388
 33
0.0
  0
MTEXT
  5
3D
330
36
100
AcDbEntity
  8
-TEXT3
 62
     3
100
AcDbMText
 10
357.5880792138295
 20
117.8700095489388
 30
0.0
 40
5.0
 41
0.0
 71
     5
 72
     1
  1
\A1;120
 11
0.0000000000000001
 21
1.0
 31
0.0
 73
     1
 44
1.0
1001
ACAD
1000
MTEXTBEGIN
1070
    73
1070
     1
1070
    44
1040
1.0
1070
    74
1070
     0
1000
MTEXTEND
  0
POINT
  5
3E
330
36
100
AcDbEntity
  8
DEFPOINTS
 62
     0
100
AcDbPoint
 10
333.538737161328
 20
57.87000954893881
 30
0.0
  0
POINT
  5
3F
330
36
100
AcDbEntity
  8
DEFPOINTS
 62
     0
100
AcDbPoint
 10
213.4987371613289
 20
177.8700095489388
 30
0.0
  0
POINT
  5
40
330
36
100
AcDbEntity
  8
DEFPOINTS
 62
     0
100
AcDbPoint
 10
361.140944152438
 20
177.8700095489388
 30
0.0
  0
ENDBLK
  5
41
330
36
100
AcDbEntity
  8
0
100
AcDbBlockEnd
  0
BLOCK
  5
50
330
4F
100
AcDbEntity
  8
0
100
AcDbBlockBegin
  2
*D12
 70
     1
 10
0.0
 20
0.0
 30
0.0
  3
*D12
  1

  0
LINE
  5
51
330
4F
100
AcDbEntity
  8
-SCHRAFFUR
 62
     2
370
    -2
100
AcDbLine
 10
168.6929913380942
 20
155.3700095489372
 30
0.0
 11
152.0622599242516
 21
155.3700095489372
 31
0.0
  0
LINE
  5
52
330
4F
100
AcDbEntity
  8
-SCHRAFFUR
 62
     2
370
    -2
100
AcDbLine
 10
168.6929913380955
 20
120.3700095489372
 30
0.0
 11
152.0622599242516
 21
120.3700095489372
 31
0.0
  0
LINE
  5
53
330
4F
100
AcDbEntity
  8
-SCHRAFFUR
 62
     2
370
    -2
100
AcDbLine
 10
153.0622599242516
 20
153.3700095489372
 30
0.0
 11
153.0622599242516
 21
122.3700095489372
 31
0.0
  0
SOLID
  5
54
330
4F
100
AcDbEntity
  8
-SCHRAFFUR
 62
     2
100
AcDbTrace
 10
152.7289265909183
 20
153.3700095489372
 30
0.0
 11
153.395593257585
 21
153.3700095489372
 31
0.0
 12
153.0622599242516
 22
155.3700095489372
 32
0.0
 13
153.0622599242516
 23
155.3700095489372
 33
0.0
  0
SOLID
  5
55
330
4F
100
AcDbEntity
  8
-SCHRAFFUR
 62
     2
100
AcDbTrace
 10
152.7289265909183
 20
122.3700095489372
 30
0.0
 11
153.395593257585
 21
122.3700095489372
 31
0.0
 12
153.0622599242516
 22
120.3700095489372
 32
0.0
 13
153.0622599242516
 23
120.3700095489372
 33
0.0
  0
MTEXT
  5
56
330
4F
100
AcDbEntity
  8
-SCHRAFFUR
 62
     3
100
AcDbMText
 10
149.3695586964207
 20
137.8700095489372
 30
0.0
 40
5.0
 41
0.0
 71
     5
 72
     1
  1
\A1;%%c35
 11
0.0000000000000001
 21
1.0
 31
0.0
 73
     1
 44
1.0
1001
ACAD
1000
MTEXTBEGIN
1070
    73
1070
     1
1070
    44
1040
1.0
1070
    74
1070
     0
1000
MTEXTEND
  0
POINT
  5
57
330
4F
100
AcDbEntity
  8
DEFPOINTS
 62
     0
100
AcDbPoint
 10
170.6929913380942
 20
155.3700095489372
 30
0.0
  0
POINT
  5
58
330
4F
100
AcDbEntity
  8
DEFPOINTS
 62
     0
100
AcDbPoint
 10
170.6929913380955
 20
120.3700095489372
 30
0.0
  0
POINT
  5
59
330
4F
100
AcDbEntity
  8
DEFPOINTS
 62
     0
100
AcDbPoint
 10
153.0622599242516
 20
120.3700095489372
 30
0.0
  0
ENDBLK
  5
5A
330
4F
100
AcDbEntity
  8
0
100
AcDbBlockEnd
  0
BLOCK
  5
85
330
84
100
AcDbEntity
  8
0
100
AcDbBlockBegin
  2
*D13
 70
     1
 10
0.0
 20
0.0
 30
0.0
  3
*D13
  1

  0
LINE
  5
86
330
84
100
AcDbEntity
  8
-TEXT3
 62
     2
370
    -2
100
AcDbLine
 10
239.6359562295623
 20
137.8700095489388
 30
0.0
 11
253.692474882079
 21
137.8700095489388
 31
0.0
  0
LINE
  5
87
330
84
100
AcDbEntity
  8
-TEXT3
 62
     2
370
    -2
100
AcDbLine
 10
215.4987371613289
 20
177.8700095489388
 30
0.0
 11
253.692474882079
 21
177.8700095489388
 31
0.0
  0
LINE
  5
88
330
84
100
AcDbEntity
  8
-TEXT3
 62
     2
370
    -2
100
AcDbLine
 10
252.6924748820789
 20
139.8700095489388
 30
0.0
 11
252.6924748820789
 21
175.8700095489388
 31
0.0
  0
SOLID
  5
89
330
84
100
AcDbEntity
  8
-TEXT3
 62
     2
100
AcDbTrace
 10
252.3591415487456
 20
139.8700095489388
 30
0.0
 11
253.0258082154123
 21
139.8700095489388
 31
0.0
 12
252.6924748820789
 22
137.8700095489388
 32
0.0
 13
252.6924748820789
 23
137.8700095489388
 33
0.0
  0
SOLID
  5
8A
330
84
100
AcDbEntity
  8
-TEXT3
 62
     2
100
AcDbTrace
 10
252.3591415487456
 20
175.8700095489388
 30
0.0
 11
253.0258082154123
 21
175.8700095489388
 31
0.0
 12
252.6924748820789
 22
177.8700095489388
 32
0.0
 13
252.6924748820789
 23
177.8700095489388
 33
0.0
  0
MTEXT
  5
8B
330
84
100
AcDbEntity
  8
-TEXT3
 62
     3
100
AcDbMText
 10
249.1396099434705
 20
157.8700095489388
 30
0.0
 40
5.0
 41
0.0
 71
     5
 72
     1
  1
\A1;40
 11
0.0000000000000001
 21
1.0
 31
0.0
 73
     1
 44
1.0
1001
ACAD
1000
MTEXTBEGIN
1070
    73
1070
     1
1070
    44
1040
1.0
1070
    74
1070
     0
1000
MTEXTEND
  0
POINT
  5
8C
330
84
100
AcDbEntity
  8
DEFPOINTS
 62
     0
100
AcDbPoint
 10
237.6359562295623
 20
137.8700095489388
 30
0.0
  0
POINT
  5
8D
330
84
100
AcDbEntity
  8
DEFPOINTS
 62
     0
100
AcDbPoint
 10
213.4987371613289
 20
177.8700095489388
 30
0.0
  0
POINT
  5
8E
330
84
100
AcDbEntity
  8
DEFPOINTS
 62
     0
100
AcDbPoint
 10
252.6924748820789
 20
177.8700095489388
 30
0.0
  0
ENDBLK
  5
8F
330
84
100
AcDbEntity
  8
0
100
AcDbBlockEnd
  0
BLOCK
  5
178
330
177
100
AcDbEntity
  8
0
100
AcDbBlockBegin
  2
*D14
 70
     1
 10
0.0
 20
0.0
 30
0.0
  3
*D14
  1

  0
LINE
  5
179
330
177
100
AcDbEntity
  8
-TEXT3
 62
     2
370
    -2
100
AcDbLine
 10
335.538737161328
 20
304.7936899134137
 30
0.0
 11
366.0159904613135
 21
304.7936899134137
 31
0.0
  0
LINE
  5
17A
330
177
100
AcDbEntity
  8
-TEXT3
 62
     2
370
    -2
100
AcDbLine
 10
335.538737161328
 20
312.7936899134137
 30
0.0
 11
366.0159904613135
 21
312.7936899134137
 31
0.0
  0
LINE
  5
17B
330
177
100
AcDbEntity
  8
-TEXT3
 62
     2
370
    -2
100
AcDbLine
 10
365.0159904613135
 20
310.7936899134137
 30
0.0
 11
365.0159904613135
 21
306.7936899134137
 31
0.0
  0
LINE
  5
17C
330
177
100
AcDbEntity
  8
-TEXT3
 62
     2
370
    -2
100
AcDbLine
 10
365.0159904613135
 20
304.7936899134137
 30
0.0
 11
365.0159904613135
 21
292.0658590812172
 31
0.0
  0
SOLID
  5
17D
330
177
100
AcDbEntity
  8
-TEXT3
 62
     2
100
AcDbTrace
 10
364.6826571279802
 20
310.7936899134137
 30
0.0
 11
365.3493237946468
 21
310.7936899134137
 31
0.0
 12
365.0159904613135
 22
312.7936899134137
 32
0.0
 13
365.0159904613135
 23
312.7936899134137
 33
0.0
  0
SOLID
  5
17E
330
177
100
AcDbEntity
  8
-TEXT3
 62
     2
100
AcDbTrace
 10
364.6826571279802
 20
306.7936899134137
 30
0.0
 11
365.3493237946468
 21
306.7936899134137
 31
0.0
 12
365.0159904613135
 22
304.7936899134137
 32
0.0
 13
365.0159904613135
 23
304.7936899134137
 33
0.0
  0
MTEXT
  5
17F
330
177
100
AcDbEntity
  8
-TEXT3
 62
     3
100
AcDbMText
 10
361.3232892334826
 20
297.4297744973155
 30
0.0
 40
5.0
 41
0.0
 71
     5
 72
     1
  1
\A1;%%c8
 11
0.0000000000000001
 21
1.0
 31
0.0
 73
     1
 44
1.0
1001
ACAD
1000
MTEXTBEGIN
1070
    73
1070
     1
1070
    44
1040
1.0
1070
    74
1070
     0
1000
MTEXTEND
  0
POINT
  5
180
330
177
100
AcDbEntity
  8
DEFPOINTS
 62
     0
100
AcDbPoint
 10
333.538737161328
 20
304.7936899134137
 30
0.0
  0
POINT
  5
181
330
177
100
AcDbEntity
  8
DEFPOINTS
 62
     0
100
AcDbPoint
 10
333.538737161328
 20
312.7936899134137
 30
0.0
  0
POINT
  5
182
330
177
100
AcDbEntity
  8
DEFPOINTS
 62
     0
100
AcDbPoint
 10
365.0159904613135
 20
312.7936899134137
 30
0.0
  0
ENDBLK
  5
183
330
177
100
AcDbEntity
  8
0
100
AcDbBlockEnd
  0
BLOCK
  5
16B
330
16A
100
AcDbEntity
  8
0
100
AcDbBlockBegin
  2
*D15
 70
     1
 10
0.0
 20
0.0
 30
0.0
  3
*D15
  1

  0
LINE
  5
16C
330
16A
100
AcDbEntity
  8
-TEXT3
 62
     2
370
    -2
100
AcDbLine
 10
335.538737161328
 20
323.7936899134137
 30
0.0
 11
366.0159904613134
 21
323.7936899134137
 31
0.0
  0
LINE
  5
16D
330
16A
100
AcDbEntity
  8
-TEXT3
 62
     2
370
    -2
100
AcDbLine
 10
335.538737161328
 20
312.7936899134137
 30
0.0
 11
366.0159904613134
 21
312.7936899134137
 31
0.0
  0
LINE
  5
16E
330
16A
100
AcDbEntity
  8
-TEXT3
 62
     2
370
    -2
100
AcDbLine
 10
365.0159904613134
 20
321.7936899134137
 30
0.0
 11
365.0159904613134
 21
314.7936899134137
 31
0.0
  0
SOLID
  5
16F
330
16A
100
AcDbEntity
  8
-TEXT3
 62
     2
100
AcDbTrace
 10
364.6826571279801
 20
321.7936899134137
 30
0.0
 11
365.3493237946467
 21
321.7936899134137
 31
0.0
 12
365.0159904613134
 22
323.7936899134137
 32
0.0
 13
365.0159904613134
 23
323.7936899134137
 33
0.0
  0
SOLID
  5
170
330
16A
100
AcDbEntity
  8
-TEXT3
 62
     2
100
AcDbTrace
 10
364.6826571279801
 20
314.7936899134137
 30
0.0
 11
365.3493237946467
 21
314.7936899134137
 31
0.0
 12
365.0159904613134
 22
312.7936899134137
 32
0.0
 13
365.0159904613134
 23
312.7936899134137
 33
0.0
  0
MTEXT
  5
171
330
16A
100
AcDbEntity
  8
-TEXT3
 62
     3
100
AcDbMText
 10
361.5057585377118
 20
318.2936899134138
 30
0.0
 40
5.0
 41
0.0
 71
     5
 72
     1
  1
\A1;11
 11
0.0000000000000001
 21
1.0
 31
0.0
 73
     1
 44
1.0
1001
ACAD
1000
MTEXTBEGIN
1070
    73
1070
     1
1070
    44
1040
1.0
1070
    74
1070
     0
1000
MTEXTEND
  0
POINT
  5
172
330
16A
100
AcDbEntity
  8
DEFPOINTS
 62
     0
100
AcDbPoint
 10
333.538737161328
 20
323.7936899134137
 30
0.0
  0
POINT
  5
173
330
16A
100
AcDbEntity
  8
DEFPOINTS
 62
     0
100
AcDbPoint
 10
333.538737161328
 20
312.7936899134137
 30
0.0
  0
POINT
  5
174
330
16A
100
AcDbEntity
  8
DEFPOINTS
 62
     0
100
AcDbPoint
 10
365.0159904613134
 20
312.7936899134137
 30
0.0
  0
ENDBLK
  5
175
330
16A
100
AcDbEntity
  8
0
100
AcDbBlockEnd
  0
BLOCK
  5
15D
330
15C
100
AcDbEntity
  8
0
100
AcDbBlockBegin
  2
*D16
 70
     1
 10
0.0
 20
0.0
 30
0.0
  3
*D16
  1

  0
LINE
  5
15E
330
15C
100
AcDbEntity
  8
-TEXT3
 62
     2
370
    -2
100
AcDbLine
 10
335.538737161328
 20
331.7936899134137
 30
0.0
 11
366.0159904613135
 21
331.7936899134137
 31
0.0
  0
LINE
  5
15F
330
15C
100
AcDbEntity
  8
-TEXT3
 62
     2
370
    -2
100
AcDbLine
 10
335.538737161328
 20
323.7936899134137
 30
0.0
 11
366.0159904613135
 21
323.7936899134137
 31
0.0
  0
LINE
  5
160
330
15C
100
AcDbEntity
  8
-TEXT3
 62
     2
370
    -2
100
AcDbLine
 10
365.0159904613135
 20
325.7936899134137
 30
0.0
 11
365.0159904613135
 21
329.7936899134137
 31
0.0
  0
LINE
  5
161
330
15C
100
AcDbEntity
  8
-TEXT3
 62
     2
370
    -2
100
AcDbLine
 10
365.0159904613135
 20
331.7936899134137
 30
0.0
 11
365.0159904613135
 21
344.5215207456103
 31
0.0
  0
SOLID
  5
162
330
15C
100
AcDbEntity
  8
-TEXT3
 62
     2
100
AcDbTrace
 10
364.6826571279802
 20
325.7936899134137
 30
0.0
 11
365.3493237946468
 21
325.7936899134137
 31
0.0
 12
365.0159904613135
 22
323.7936899134137
 32
0.0
 13
365.0159904613135
 23
323.7936899134137
 33
0.0
  0
SOLID
  5
163
330
15C
100
AcDbEntity
  8
-TEXT3
 62
     2
100
AcDbTrace
 10
364.6826571279802
 20
329.7936899134137
 30
0.0
 11
365.3493237946468
 21
329.7936899134137
 31
0.0
 12
365.0159904613135
 22
331.7936899134137
 32
0.0
 13
365.0159904613135
 23
331.7936899134137
 33
0.0
  0
MTEXT
  5
164
330
15C
100
AcDbEntity
  8
-TEXT3
 62
     3
100
AcDbMText
 10
361.3232892334826
 20
339.1576053295122
 30
0.0
 40
5.0
 41
0.0
 71
     5
 72
     1
  1
\A1;%%c8
 11
0.0000000000000001
 21
1.0
 31
0.0
 73
     1
 44
1.0
1001
ACAD
1000
MTEXTBEGIN
1070
    73
1070
     1
1070
    44
1040
1.0
1070
    74
1070
     0
1000
MTEXTEND
  0
POINT
  5
165
330
15C
100
AcDbEntity
  8
DEFPOINTS
 62
     0
100
AcDbPoint
 10
333.538737161328
 20
331.7936899134137
 30
0.0
  0
POINT
  5
166
330
15C
100
AcDbEntity
  8
DEFPOINTS
 62
     0
100
AcDbPoint
 10
333.538737161328
 20
323.7936899134137
 30
0.0
  0
POINT
  5
167
330
15C
100
AcDbEntity
  8
DEFPOINTS
 62
     0
100
AcDbPoint
 10
365.0159904613135
 20
323.7936899134137
 30
0.0
  0
ENDBLK
  5
168
330
15C
100
AcDbEntity
  8
0
100
AcDbBlockEnd
  0
BLOCK
  5
19B
330
19A
100
AcDbEntity
  8
0
100
AcDbBlockBegin
  2
*D17
 70
     1
 10
0.0
 20
0.0
 30
0.0
  3
*D17
  1

  0
LINE
  5
19C
330
19A
100
AcDbEntity
  8
-SCHRAFFUR
 62
     2
370
    -2
100
AcDbLine
 10
168.6929913380942
 20
335.7936899134122
 30
0.0
 11
152.0622599242516
 21
335.7936899134122
 31
0.0
  0
LINE
  5
19D
330
19A
100
AcDbEntity
  8
-SCHRAFFUR
 62
     2
370
    -2
100
AcDbLine
 10
168.6929913380955
 20
300.7936899134122
 30
0.0
 11
152.0622599242516
 21
300.7936899134122
 31
0.0
  0
LINE
  5
19E
330
19A
100
AcDbEntity
  8
-SCHRAFFUR
 62
     2
370
    -2
100
AcDbLine
 10
153.0622599242516
 20
333.7936899134122
 30
0.0
 11
153.0622599242516
 21
302.7936899134122
 31
0.0
  0
SOLID
  5
19F
330
19A
100
AcDbEntity
  8
-SCHRAFFUR
 62
     2
100
AcDbTrace
 10
152.7289265909183
 20
333.7936899134122
 30
0.0
 11
153.395593257585
 21
333.7936899134122
 31
0.0
 12
153.0622599242516
 22
335.7936899134122
 32
0.0
 13
153.0622599242516
 23
335.7936899134122
 33
0.0
  0
SOLID
  5
1A0
330
19A
100
AcDbEntity
  8
-SCHRAFFUR
 62
     2
100
AcDbTrace
 10
152.7289265909183
 20
302.7936899134122
 30
0.0
 11
153.395593257585
 21
302.7936899134122
 31
0.0
 12
153.0622599242516
 22
300.7936899134122
 32
0.0
 13
153.0622599242516
 23
300.7936899134122
 33
0.0
  0
MTEXT
  5
1A1
330
19A
100
AcDbEntity
  8
-SCHRAFFUR
 62
     3
100
AcDbMText
 10
149.3695586964207
 20
318.2936899134123
 30
0.0
 40
5.0
 41
0.0
 71
     5
 72
     1
  1
\A1;%%c35
 11
0.0000000000000001
 21
1.0
 31
0.0
 73
     1
 44
1.0
1001
ACAD
1000
MTEXTBEGIN
1070
    73
1070
     1
1070
    44
1040
1.0
1070
    74
1070
     0
1000
MTEXTEND
  0
POINT
  5
1A2
330
19A
100
AcDbEntity
  8
DEFPOINTS
 62
     0
100
AcDbPoint
 10
170.6929913380942
 20
335.7936899134122
 30
0.0
  0
POINT
  5
1A3
330
19A
100
AcDbEntity
  8
DEFPOINTS
 62
     0
100
AcDbPoint
 10
170.6929913380955
 20
300.7936899134122
 30
0.0
  0
POINT
  5
1A4
330
19A
100
AcDbEntity
  8
DEFPOINTS
 62
     0
100
AcDbPoint
 10
153.0622599242516
 20
300.7936899134122
 30
0.0
  0
ENDBLK
  5
1A5
330
19A
100
AcDbEntity
  8
0
100
AcDbBlockEnd
  0
ENDSEC
  0
SECTION
  2
ENTITIES
  0
LWPOLYLINE
  5
9
330
2
100
AcDbEntity
  8
-VERGLASUNG
100
AcDbPolyline
 90
        2
 70
     0
 43
0.0
 10
174.9987371613284
 20
404.2957216472338
 10
174.998737161328
 20
249.9198569572814
  0
LWPOLYLINE
  5
B
330
2
100
AcDbEntity
  8
-TEXT2
100
AcDbPolyline
 90
        3
 70
     1
 43
0.0
 10
174.9987371613284
 20
384.7213874863455
 10
167.838547613892
 20
388.8553248490066
 10
167.838547613892
 20
380.5874501236845
  0
MTEXT
  5
D
330
2
100
AcDbEntity
  8
-TEXT2
100
AcDbMText
 10
162.7795201947825
 20
376.1180751739325
 30
0.0
 40
3.5
 41
17.9978
 71
     1
 72
     5
  1
{\fArial|b0|i0|c0|p34;Glaskante}
 11
0.0000000000000001
 21
1.0
 31
0.0
 73
     1
 44
1.0
1001
ACAD
1000
MTEXTBEGIN
1070
    73
1070
     1
1070
    44
1040
1.0
1070
    74
1070
     0
1000
MTEXTEND
  0
LWPOLYLINE
  5
10
330
2
100
AcDbEntity
  8
-NORMTEIL_VERDECKT
100
AcDbPolyline
 90
        2
 70
     0
 43
0.0
 10
192.4987371613314
 20
404.2957216472338
 10
192.4987371613312
 20
249.9198569572814
  0
MTEXT
  5
13
330
2
100
AcDbEntity
  8
-TEXT2
100
AcDbMText
 10
0.2831591260331834
 20
132.785843829892
 30
0.0
 40
5.0
 41
115.8862353619997
 71
     1
 72
     5
  1
{\H4x;Draufsicht}\P{\H2x;M1:1}
 73
     1
 44
1.0
1001
ACAD
1000
MTEXTBEGIN
1070
    73
1070
     1
1070
    44
1040
1.0
1070
    74
1070
     0
1000
MTEXTEND
  0
MTEXT
  5
14
330
2
100
AcDbEntity
  8
-TEXT2
100
AcDbMText
 10
0.2831591260331834
 20
336.3609105849299
 30
0.0
 40
5.0
 41
115.8862353619997
 71
     1
 72
     5
  1
{\H4x;Ansicht}\P{\H2x;M1:1}
 73
     1
 44
1.0
1001
ACAD
1000
MTEXTBEGIN
1070
    73
1070
     1
1070
    44
1040
1.0
1070
    74
1070
     0
1000
MTEXTEND
  0
LWPOLYLINE
  5
15
330
2
100
AcDbEntity
  8
-TRENNEN
100
AcDbPolyline
 90
        4
 70
     0
 43
0.0
 10
168.2042495807942
 20
249.9198569572814
 10
348.0812135432012
 20
249.9198569572814
 10
348.0812135432012
 20
404.2957216472338
 10
168.2042495807944
 20
404.2957216472338
  0
DIMENSION
  5
18
330
2
100
AcDbEntity
  8
-TEXT3
100
AcDbDimension
  2
*D9
 10
213.4987371613289
 20
67.87000954893881
 30
0.0
 11
246.2527756270786
 21
90.62404801468852
 31
0.0
 70
     2
  1
<>-180°
 71
     5
 42
1.570796326794893
  3
1-1
100
AcDb2LineAngularDimension
 13
223.4987371613289
 23
57.87000954893881
 33
0.0
 14
276.0387371613262
 24
57.87000954893881
 34
0.0
 15
213.4987371613289
 25
120.3700095489372
 35
0.0
 16
250.5372064965687
 26
79.25417979001124
 36
0.0
  0
DIMENSION
  5
28
330
2
100
AcDbEntity
  8
-TEXT3
100
AcDbDimension
  2
*D10
 10
333.538737161328
 20
207.3500757268672
 30
0.0
 11
273.5187371613284
 21
210.9029406654757
 31
0.0
 71
     5
 42
120.039999999999
  3
1-1
100
AcDbAlignedDimension
 13
213.4987371613289
 23
177.8700095489388
 33
0.0
 14
333.538737161328
 24
99.64118435185675
 34
0.0
100
AcDbRotatedDimension
  0
DIMENSION
  5
35
330
2
100
AcDbEntity
  8
-TEXT3
100
AcDbDimension
  2
*D11
 10
361.140944152438
 20
177.8700095489388
 30
0.0
 11
357.5880792138295
 21
117.8700095489388
 31
0.0
 71
     5
 42
120.0
  3
1-1
100
AcDbAlignedDimension
 13
333.538737161328
 23
57.87000954893881
 33
0.0
 14
213.4987371613289
 24
177.8700095489388
 34
0.0
 50
270.0
100
AcDbRotatedDimension
  0
LINE
  5
42
330
2
100
AcDbEntity
  8
-PROFILAUSSENKANTET
100
AcDbLine
 10
223.4987371613289
 20
57.87000954893881
 30
0.0
 11
276.0387371613262
 21
57.87000954893881
 31
0.0
  0
LINE
  5
45
330
2
100
AcDbEntity
  8
-PROFILAUSSENKANTET
100
AcDbLine
 10
223.4987371613289
 20
49.87000954893892
 30
0.0
 11
276.0387371613262
 21
49.87000954893881
 31
0.0
  0
LWPOLYLINE
  5
46
330
2
100
AcDbEntity
  8
-VERGLASUNG
100
AcDbPolyline
 90
        6
 70
     0
 43
0.0
 10
348.1212135432003
 20
19.37000954893824
 10
175.9987371613284
 20
19.37000954893847
 10
174.9987371613284
 20
20.37000954893847
 10
174.9987371613284
 20
35.87000954893893
 10
175.9987371613284
 20
36.87000954893893
 10
348.1212135432003
 20
36.87000954893893
  0
LWPOLYLINE
  5
47
330
2
100
AcDbEntity
  8
-VERGLASUNG
100
AcDbPolyline
 90
        6
 70
     0
 43
0.0
 10
174.998737161328
 20
192.4524859308111
 10
174.9987371613284
 20
47.87000954893881
 10
175.9987371613284
 20
46.87000954893881
 10
191.4987371613289
 20
46.87000954893881
 10
192.4987371613289
 20
47.87000954893881
 10
192.4987371613289
 20
192.4524859308111
  0
LINE
  5
48
330
2
100
AcDbEntity
  8
-PROFILAUSSENKANTET
100
AcDbLine
 10
205.4987371613289
 20
120.3700095489372
 30
0.0
 11
205.4987371613289
 21
67.87000954893892
 31
0.0
  0
LINE
  5
49
330
2
100
AcDbEntity
  8
-PROFILAUSSENKANTET
100
AcDbLine
 10
213.4987371613289
 20
120.3700095489372
 30
0.0
 11
213.4987371613289
 21
67.87000954893881
 31
0.0
  0
LINE
  5
4A
330
2
100
AcDbEntity
  8
-SYSTEM
100
AcDbLine
 10
158.6064696697182
 20
137.8700095489388
 30
0.0
 11
237.6359562295623
 21
137.8700095489388
 31
0.0
  0
DIMENSION
  5
4D
330
2
100
AcDbEntity
  8
-SCHRAFFUR
100
AcDbDimension
  2
*D12
 10
153.0622599242516
 20
120.3700095489372
 30
0.0
 11
149.3695586964207
 21
137.8700095489372
 31
0.0
  1
%%c<>
 71
     5
 42
34.99999999999999
  3
1-1
100
AcDbAlignedDimension
 13
170.6929913380942
 23
155.3700095489372
 33
0.0
 14
170.6929913380955
 24
120.3700095489372
 34
0.0
 50
90.0
100
AcDbRotatedDimension
  0
LWPOLYLINE
  5
5B
330
2
100
AcDbEntity
  8
-PROFILAUSSENKANTET
100
AcDbPolyline
 90
        4
 70
     0
 43
0.0
 10
205.4987371613289
 20
155.3700095489372
 10
205.4987371613289
 20
177.8700095489388
 10
213.4987371613289
 20
177.8700095489388
 10
213.4987371613289
 20
155.3700095489372
  0
LWPOLYLINE
  5
5C
330
2
100
AcDbEntity
  8
-PROFILAUSSENKANTET
100
AcDbPolyline
 90
        4
 70
     1
 43
0.0
 10
216.4987371613289
 20
155.3700095489372
 10
216.4987371613289
 20
120.3700095489372
 10
205.4987371613289
 20
120.3700095489372
 10
205.4987371613289
 20
155.3700095489372
  0
HATCH
  5
5D
330
2
100
AcDbEntity
  8
-SCHRAFFUR
100
AcDbHatch
 10
0.0
 20
0.0
 30
0.0
210
0.0
220
0.0
230
1.0
  2
SOLID
 70
     1
 71
     1
 91
        1
 92
        1
 93
        4
 72
     1
 10
195.4987371613289
 20
154.8700095489372
 11
195.4987371613289
 21
120.8700095489372
 72
     1
 10
195.4987371613289
 20
120.8700095489372
 11
192.4987371613289
 21
120.8700095489372
 72
     1
 10
192.4987371613289
 20
120.8700095489372
 11
192.4987371613289
 21
154.8700095489372
 72
     1
 10
192.4987371613289
 20
154.8700095489372
 11
195.4987371613289
 21
154.8700095489372
 97
        1
330
5E
 75
     0
 76
     1
 98
        1
 10
280.9961079540896
 20
215.8700095489387
  0
LWPOLYLINE
  5
5E
102
{ACAD_REACTORS
330
5D
102
}
330
2
100
AcDbEntity
  8
-DICHTUNG
100
AcDbPolyline
 90
        4
 70
     1
 43
0.0
 10
195.4987371613289
 20
154.8700095489372
 10
195.4987371613289
 20
120.8700095489372
 10
192.4987371613289
 20
120.8700095489372
 10
192.4987371613289
 20
154.8700095489372
  0
HATCH
  5
60
330
2
100
AcDbEntity
  8
-SCHRAFFUR
100
AcDbHatch
 10
0.0
 20
0.0
 30
0.0
210
0.0
220
0.0
230
1.0
  2
SOLID
 70
     1
 71
     1
 91
        1
 92
        1
 93
        4
 72
     1
 10
174.9987371613282
 20
154.8700095489372
 11
174.9987371613282
 21
120.8700095489372
 72
     1
 10
174.9987371613282
 20
120.8700095489372
 11
171.9987371613282
 21
120.8700095489372
 72
     1
 10
171.9987371613282
 20
120.8700095489372
 11
171.9987371613282
 21
154.8700095489372
 72
     1
 10
171.9987371613282
 20
154.8700095489372
 11
174.9987371613282
 21
154.8700095489372
 97
        1
330
61
 75
     0
 76
     1
 98
        1
 10
275.4961079540895
 20
215.8700095489387
  0
LWPOLYLINE
  5
61
102
{ACAD_REACTORS
330
60
102
}
330
2
100
AcDbEntity
  8
-DICHTUNG
100
AcDbPolyline
 90
        4
 70
     1
 43
0.0
 10
174.9987371613282
 20
154.8700095489372
 10
174.9987371613282
 20
120.8700095489372
 10
171.9987371613282
 20
120.8700095489372
 10
171.9987371613282
 20
154.8700095489372
  0
LWPOLYLINE
  5
62
330
2
100
AcDbEntity
  8
-PROFILAUSSENKANTET
100
AcDbPolyline
 90
        6
 70
     1
 43
0.0
 10
195.4987371613289
 20
155.3700095489372
 10
205.4987371613289
 20
155.3700095489372
 10
205.4987371613289
 20
142.8700095489372
 10
205.4987371613289
 20
120.3700095489372
 10
195.4987371613289
 20
120.3700095489372
 10
195.4987371613289
 20
142.8700095489372
  0
LWPOLYLINE
  5
63
330
2
100
AcDbEntity
  8
-PROFILAUSSENKANTET
100
AcDbPolyline
 90
       11
 70
     0
 43
0.0
 10
171.9987371613282
 20
120.3700095489372
 10
170.6929913380955
 20
120.3700095489372
 42
-0.3759019639771881
 10
168.7105355367304
 20
122.1056821087552
 10
167.042597657915
 20
127.541055824536
 42
-0.033150018187446
 10
166.9987371613282
 20
128.201874424991
 10
166.9987371613282
 20
147.4561968974461
 42
-0.0413106451481675
 10
167.0667675421674
 20
148.2781918339728
 10
168.7202034904299
 20
153.6988075235479
 42
-0.3666293647015966
 10
170.6929913380942
 20
155.3700095489372
 10
171.9987371613282
 20
155.3700095489372
 10
171.9987371613282
 20
120.3700095489372
  0
LINE
  5
64
330
2
100
AcDbEntity
  8
-VERGLASUNG
100
AcDbLine
 10
178.8926122637978
 20
193.8950618082666
 30
0.0
 11
174.9987373734612
 21
190.0011869179296
 31
0.0
  0
LINE
  5
65
330
2
100
AcDbEntity
  8
-VERGLASUNG
100
AcDbLine
 10
178.8926122637978
 20
192.3325618082666
 30
0.0
 11
174.9987373734612
 21
188.4386869179296
 31
0.0
  0
LINE
  5
66
330
2
100
AcDbEntity
  8
-VERGLASUNG
100
AcDbLine
 10
178.8926122637978
 20
195.4575618082666
 30
0.0
 11
174.9987373734612
 21
191.5636869179296
 31
0.0
  0
LINE
  5
67
330
2
100
AcDbEntity
  8
-VERGLASUNG
100
AcDbLine
 10
178.8926121930868
 20
167.3325617795063
 30
0.0
 11
174.9987373027503
 21
163.4386868891696
 31
0.0
  0
LINE
  5
68
330
2
100
AcDbEntity
  8
-VERGLASUNG
100
AcDbLine
 10
178.892611980954
 20
168.8950615673735
 30
0.0
 11
174.998737161328
 21
165.0011867477475
 31
0.0
  0
LINE
  5
69
330
2
100
AcDbEntity
  8
-VERGLASUNG
100
AcDbLine
 10
178.892611980954
 20
170.4575615673735
 30
0.0
 11
174.998737161328
 21
166.5636867477475
 31
0.0
  0
LINE
  5
6A
330
2
100
AcDbEntity
  8
-VERGLASUNG
100
AcDbLine
 10
192.4987374441727
 20
190.6774763722754
 30
0.0
 11
188.6048625538357
 21
186.7836014819389
 31
0.0
  0
LINE
  5
6B
330
2
100
AcDbEntity
  8
-VERGLASUNG
100
AcDbLine
 10
192.4987374441727
 20
192.2399763722754
 30
0.0
 11
188.6048625538357
 21
188.3461014819389
 31
0.0
  0
LINE
  5
6C
330
2
100
AcDbEntity
  8
-VERGLASUNG
100
AcDbLine
 10
192.4987374441727
 20
189.1149763722754
 30
0.0
 11
188.6048625538357
 21
185.2211014819389
 31
0.0
  0
LINE
  5
6D
330
2
100
AcDbEntity
  8
-VERGLASUNG
100
AcDbLine
 10
192.4987373734617
 20
167.2399763435156
 30
0.0
 11
188.6048624831247
 21
163.3461014531789
 31
0.0
  0
LINE
  5
6E
330
2
100
AcDbEntity
  8
-VERGLASUNG
100
AcDbLine
 10
192.4987373734617
 20
164.1149763435156
 30
0.0
 11
188.6048624831247
 21
160.2211014531789
 31
0.0
  0
LINE
  5
6F
330
2
100
AcDbEntity
  8
-VERGLASUNG
100
AcDbLine
 10
192.4987373734617
 20
165.6774763435156
 30
0.0
 11
188.6048624831247
 21
161.7836014531789
 31
0.0
  0
LWPOLYLINE
  5
70
330
2
100
AcDbEntity
  8
-NORMTEIL_VERDECKT
100
AcDbPolyline
 90
        4
 70
     0
 43
0.0
 10
174.9987371613282
 20
132.8700095489372
 10
174.9987371613282
 20
132.8700095489372
 10
174.9987371613282
 20
131.3700095489372
 10
192.4987371613289
 20
131.3700095489372
  0
LWPOLYLINE
  5
71
330
2
100
AcDbEntity
  8
-NORMTEIL_VERDECKT
100
AcDbPolyline
 90
       12
 70
     0
 43
0.0
 10
171.9987371613282
 20
140.4100095489372
 10
173.3867458759872
 20
140.4100095489372
 42
0.2679491924311216
 10
173.9063611182579
 20
140.7100095489371
 10
173.9987371613282
 20
140.8700095489372
 10
186.2987371613282
 20
140.8700095489372
 10
186.7587371613282
 20
140.4100095489372
 10
186.7587371613282
 20
135.3300095489372
 10
186.2987371613282
 20
134.8700095489372
 10
173.9987371613282
 20
134.8700095489372
 10
173.9063611182579
 20
135.030009548937
 42
0.2679491924311217
 10
173.3867458759872
 20
135.3300095489372
 10
171.9987371613282
 20
135.3300095489372
  0
LINE
  5
72
330
2
100
AcDbEntity
  8
-NORMTEIL_VERDECKT
100
AcDbLine
 10
173.3867458759872
 20
140.4100095489372
 30
0.0
 11
186.7587371613282
 21
140.4100095489372
 31
0.0
  0
LWPOLYLINE
  5
73
330
2
100
AcDbEntity
  8
-NORMTEIL_VERDECKT
100
AcDbPolyline
 90
        4
 70
     0
 43
0.0
 10
174.9987371613282
 20
142.8700095489372
 10
174.9987371613282
 20
142.8700095489372
 10
174.9987371613282
 20
144.3700095489372
 10
192.4987371613289
 20
144.3700095489372
  0
LINE
  5
74
330
2
100
AcDbEntity
  8
-NORMTEIL_VERDECKT
100
AcDbLine
 10
173.3867458759872
 20
135.3300095489372
 30
0.0
 11
186.7587371613282
 21
135.3300095489372
 31
0.0
  0
LWPOLYLINE
  5
75
330
2
100
AcDbEntity
  8
-NORMTEIL_VERDECKT
100
AcDbPolyline
 90
        3
 70
     0
 43
0.0
 10
195.4987371613289
 20
132.8700095489372
 10
174.9987371613282
 20
132.8700095489372
 10
174.9987371613282
 20
142.8700095489372
  0
LWPOLYLINE
  5
76
330
2
100
AcDbEntity
  8
-NORMTEIL_VERDECKT
100
AcDbPolyline
 90
        3
 70
     0
 43
0.0
 10
174.9987371613282
 20
142.8700095489372
 10
174.9987371613282
 20
142.8700095489372
 10
195.4987371613289
 20
142.8700095489372
  0
LINE
  5
77
330
2
100
AcDbEntity
  8
-NORMTEIL_VERDECKT
100
AcDbLine
 10
170.9987371613282
 20
142.6241662226244
 30
0.0
 11
170.9987371613282
 21
139.6241662226245
 31
0.0
  0
LWPOLYLINE
  5
78
330
2
100
AcDbEntity
  8
-NORMTEIL_VERDECKT
100
AcDbPolyline
 90
        5
 70
     0
 43
0.0
 10
166.9987371613282
 20
142.6241662226244
 10
170.9987371613282
 20
142.6241662226244
 10
171.9987371613282
 20
141.1241662226244
 10
170.9987371613282
 20
139.6241662226245
 10
166.9987371613273
 20
139.6241662226245
  0
LINE
  5
79
330
2
100
AcDbEntity
  8
-NORMTEIL_VERDECKT
100
AcDbLine
 10
170.9987371613282
 20
132.1241662226251
 30
0.0
 11
170.9987371613282
 21
129.1241662226251
 31
0.0
  0
LWPOLYLINE
  5
7A
330
2
100
AcDbEntity
  8
-NORMTEIL_VERDECKT
100
AcDbPolyline
 90
        5
 70
     0
 43
0.0
 10
166.9987371613282
 20
132.1241662226251
 10
170.9987371613282
 20
132.1241662226251
 10
171.9987371613282
 20
130.6241662226251
 10
170.9987371613282
 20
129.1241662226251
 10
166.9987371613282
 20
129.1241662226251
  0
LINE
  5
7B
330
2
100
AcDbEntity
  8
-NORMTEIL_VERDECKT
100
AcDbLine
 10
186.2987371613282
 20
140.8700095489372
 30
0.0
 11
186.2987371613282
 21
134.8700095489372
 31
0.0
  0
LINE
  5
7C
330
2
100
AcDbEntity
  8
-VERGLASUNG
100
AcDbLine
 10
178.892612051665
 20
118.8950617219862
 30
0.0
 11
174.9987371613284
 21
115.0011868316495
 31
0.0
  0
LINE
  5
7D
330
2
100
AcDbEntity
  8
-VERGLASUNG
100
AcDbLine
 10
178.892612051665
 20
120.4575617219862
 30
0.0
 11
174.9987371613284
 21
116.5636868316495
 31
0.0
  0
LINE
  5
7E
330
2
100
AcDbEntity
  8
-VERGLASUNG
100
AcDbLine
 10
178.892612051665
 20
117.3325617219862
 30
0.0
 11
174.9987371613284
 21
113.4386868316495
 31
0.0
  0
LWPOLYLINE
  5
7F
330
2
100
AcDbEntity
  8
-DICHTUNG
100
AcDbPolyline
 90
        4
 70
     1
 43
0.0
 10
192.4987371613289
 20
142.8700095489372
 10
192.4987371613289
 20
144.3700095489372
 10
192.4987371613289
 20
144.3700095489372
 10
192.4987371613289
 20
142.8700095489372
  0
LINE
  5
80
330
2
100
AcDbEntity
  8
-VERGLASUNG
100
AcDbLine
 10
192.4987372320398
 20
115.6774762859955
 30
0.0
 11
188.6048623417029
 21
111.7836013956588
 31
0.0
  0
LINE
  5
81
330
2
100
AcDbEntity
  8
-VERGLASUNG
100
AcDbLine
 10
192.4987372320398
 20
114.1149762859955
 30
0.0
 11
188.6048623417029
 21
110.2211013956588
 31
0.0
  0
LINE
  5
82
330
2
100
AcDbEntity
  8
-VERGLASUNG
100
AcDbLine
 10
192.4987372320398
 20
117.2399762859955
 30
0.0
 11
188.6048623417029
 21
113.3461013956588
 31
0.0
  0
DIMENSION
  5
83
330
2
100
AcDbEntity
  8
-TEXT3
100
AcDbDimension
  2
*D13
 10
252.6924748820789
 20
177.8700095489388
 30
0.0
 11
249.1396099434705
 21
157.8700095489388
 31
0.0
 71
     5
 42
40.0
  3
1-1
100
AcDbAlignedDimension
 13
237.6359562295623
 23
137.8700095489388
 33
0.0
 14
213.4987371613289
 24
177.8700095489388
 34
0.0
 50
270.0
100
AcDbRotatedDimension
  0
LWPOLYLINE
  5
90
330
2
100
AcDbEntity
  8
-PROFILAUSSENKANTET
100
AcDbPolyline
 90
        6
 70
     1
 43
0.0
 10
233.4987371613289
 20
152.3700095489372
 10
233.4987371613289
 20
123.3700095489372
 42
-0.4142135623730951
 10
230.4987371613289
 20
120.3700095489372
 10
216.4987371613289
 20
120.3700095489372
 10
216.4987371613289
 20
155.3700095489372
 10
230.4987371613289
 20
155.3700095489372
 42
-0.4142135623730951
  0
LWPOLYLINE
  5
91
330
2
100
AcDbEntity
  8
-NORMTEIL_VERDECKT
100
AcDbPolyline
 90
        5
 70
     0
 43
0.0
 10
233.4987371613289
 20
143.1000095489393
 10
229.4987371613289
 20
143.1000095489393
 10
228.4987371613289
 20
141.3500095489393
 10
229.4987371613289
 20
139.6000095489395
 10
233.4987371613289
 20
139.6000095489393
  0
LINE
  5
92
330
2
100
AcDbEntity
  8
-NORMTEIL_VERDECKT
100
AcDbLine
 10
229.4987371613289
 20
143.1000095489393
 30
0.0
 11
229.4987371613289
 21
139.6000095489395
 31
0.0
  0
LWPOLYLINE
  5
93
330
2
100
AcDbEntity
  8
-NORMTEIL_VERDECKT
100
AcDbPolyline
 90
        5
 70
     0
 43
0.0
 10
233.4987371613289
 20
132.6000095489393
 10
229.4987371613289
 20
132.6000095489393
 10
228.4987371613289
 20
130.8500095489393
 10
229.4987371613289
 20
129.1000095489395
 10
233.4987371613289
 20
129.1000095489392
  0
LINE
  5
94
330
2
100
AcDbEntity
  8
-NORMTEIL_VERDECKT
100
AcDbLine
 10
229.4987371613289
 20
132.6000095489393
 30
0.0
 11
229.4987371613289
 21
129.1000095489395
 31
0.0
  0
ARC
  5
95
330
2
100
AcDbEntity
  8
-PROFILAUSSENKANTET
100
AcDbCircle
 10
223.4987371613289
 20
67.87000954893892
 30
0.0
 40
18.0
100
AcDbArc
 50
180.0
 51
270.0
  0
ARC
  5
96
330
2
100
AcDbEntity
  8
-PROFILAUSSENKANTET
100
AcDbCircle
 10
223.4987371613289
 20
67.87000954893881
 30
0.0
 40
10.0
100
AcDbArc
 50
180.0
 51
270.0
  0
LINE
  5
97
330
2
100
AcDbEntity
  8
-VERGLASUNG
100
AcDbLine
 10
178.892611980954
 20
93.89506169322624
 30
0.0
 11
174.998737161328
 21
90.0011868736002
 31
0.0
  0
LINE
  5
98
330
2
100
AcDbEntity
  8
-VERGLASUNG
100
AcDbLine
 10
178.892611980954
 20
95.45756169322624
 30
0.0
 11
174.998737161328
 21
91.5636868736002
 31
0.0
  0
LINE
  5
99
330
2
100
AcDbEntity
  8
-VERGLASUNG
100
AcDbLine
 10
178.892611980954
 20
92.33256169322624
 30
0.0
 11
174.998737161328
 21
88.4386868736002
 31
0.0
  0
LINE
  5
9A
330
2
100
AcDbEntity
  8
-VERGLASUNG
100
AcDbLine
 10
178.892611980954
 20
67.33256173517691
 30
0.0
 11
174.998737161328
 21
63.43868691555087
 31
0.0
  0
LINE
  5
9B
330
2
100
AcDbEntity
  8
-VERGLASUNG
100
AcDbLine
 10
178.892611980954
 20
70.45756173517691
 30
0.0
 11
174.998737161328
 21
66.56368691555087
 31
0.0
  0
LINE
  5
9C
330
2
100
AcDbEntity
  8
-VERGLASUNG
100
AcDbLine
 10
178.892611980954
 20
68.89506173517691
 30
0.0
 11
174.998737161328
 21
65.00118691555087
 31
0.0
  0
LINE
  5
9D
330
2
100
AcDbEntity
  8
-VERGLASUNG
100
AcDbLine
 10
192.4987371613289
 20
90.67747625723553
 30
0.0
 11
188.6048623417029
 21
86.78360143760949
 31
0.0
  0
LINE
  5
9E
330
2
100
AcDbEntity
  8
-VERGLASUNG
100
AcDbLine
 10
192.4987371613289
 20
89.11497625723553
 30
0.0
 11
188.6048623417029
 21
85.22110143760949
 31
0.0
  0
LINE
  5
9F
330
2
100
AcDbEntity
  8
-VERGLASUNG
100
AcDbLine
 10
192.4987371613289
 20
92.23997625723553
 30
0.0
 11
188.6048623417029
 21
88.34610143760949
 31
0.0
  0
LINE
  5
A0
330
2
100
AcDbEntity
  8
-VERGLASUNG
100
AcDbLine
 10
192.4987371613284
 20
67.2399762991862
 30
0.0
 11
188.6048623417024
 21
63.34610147956016
 31
0.0
  0
LINE
  5
A1
330
2
100
AcDbEntity
  8
-VERGLASUNG
100
AcDbLine
 10
192.4987371613284
 20
64.1149762991862
 30
0.0
 11
188.6048623417024
 21
60.22110147956016
 31
0.0
  0
LINE
  5
A2
330
2
100
AcDbEntity
  8
-VERGLASUNG
100
AcDbLine
 10
192.4987371613284
 20
65.6774762991862
 30
0.0
 11
188.6048623417024
 21
61.78360147956016
 31
0.0
  0
LINE
  5
A3
330
2
100
AcDbEntity
  8
-VERGLASUNG
100
AcDbLine
 10
176.1262894314674
 20
23.2638843685636
 30
0.0
 11
174.9987371613284
 21
22.13633209842476
 31
0.0
  0
LINE
  5
A4
330
2
100
AcDbEntity
  8
-VERGLASUNG
100
AcDbLine
 10
196.3462039535258
 20
36.87000954893847
 30
0.0
 11
192.4523291338997
 21
32.97613472931244
 31
0.0
  0
LINE
  5
A5
330
2
100
AcDbEntity
  8
-VERGLASUNG
100
AcDbLine
 10
194.7837039535258
 20
36.87000954893847
 30
0.0
 11
190.8898291338997
 21
32.97613472931244
 31
0.0
  0
LINE
  5
A6
330
2
100
AcDbEntity
  8
-VERGLASUNG
100
AcDbLine
 10
197.9087039535258
 20
36.87000954893847
 30
0.0
 11
194.0148291338997
 21
32.97613472931244
 31
0.0
  0
LINE
  5
A7
330
2
100
AcDbEntity
  8
-VERGLASUNG
100
AcDbLine
 10
199.5637893895165
 20
23.26388436856382
 30
0.0
 11
195.6699145698904
 21
19.37000954893779
 31
0.0
  0
LINE
  5
A8
330
2
100
AcDbEntity
  8
-VERGLASUNG
100
AcDbLine
 10
201.1262893895165
 20
23.26388436856382
 30
0.0
 11
197.2324145698904
 21
19.37000954893779
 31
0.0
  0
LINE
  5
A9
330
2
100
AcDbEntity
  8
-VERGLASUNG
100
AcDbLine
 10
198.0012893895165
 20
23.26388436856382
 30
0.0
 11
194.1074145698904
 21
19.37000954893779
 31
0.0
  0
LINE
  5
AA
330
2
100
AcDbEntity
  8
-VERGLASUNG
100
AcDbLine
 10
219.7837039115754
 20
36.8700095489387
 30
0.0
 11
215.8898290919493
 21
32.97613472931266
 31
0.0
  0
LINE
  5
AB
330
2
100
AcDbEntity
  8
-VERGLASUNG
100
AcDbLine
 10
221.3462039115754
 20
36.8700095489387
 30
0.0
 11
217.4523290919493
 21
32.97613472931266
 31
0.0
  0
LINE
  5
AC
330
2
100
AcDbEntity
  8
-VERGLASUNG
100
AcDbLine
 10
222.9087039115754
 20
36.8700095489387
 30
0.0
 11
219.0148290919493
 21
32.97613472931266
 31
0.0
  0
LINE
  5
AD
330
2
100
AcDbEntity
  8
-VERGLASUNG
100
AcDbLine
 10
226.126289347566
 20
23.26388436856405
 30
0.0
 11
222.23241452794
 21
19.37000954893801
 31
0.0
  0
LINE
  5
AE
330
2
100
AcDbEntity
  8
-VERGLASUNG
100
AcDbLine
 10
224.563789347566
 20
23.26388436856405
 30
0.0
 11
220.66991452794
 21
19.37000954893801
 31
0.0
  0
LINE
  5
AF
330
2
100
AcDbEntity
  8
-VERGLASUNG
100
AcDbLine
 10
223.001289347566
 20
23.26388436856405
 30
0.0
 11
219.10741452794
 21
19.37000954893801
 31
0.0
  0
LINE
  5
B0
330
2
100
AcDbEntity
  8
-VERGLASUNG
100
AcDbLine
 10
247.9087038696245
 20
36.87000954893893
 30
0.0
 11
244.0148290499984
 21
32.97613472931289
 31
0.0
  0
LINE
  5
B1
330
2
100
AcDbEntity
  8
-VERGLASUNG
100
AcDbLine
 10
246.3462038696245
 20
36.87000954893893
 30
0.0
 11
242.4523290499984
 21
32.97613472931289
 31
0.0
  0
LINE
  5
B2
330
2
100
AcDbEntity
  8
-VERGLASUNG
100
AcDbLine
 10
244.7837038696245
 20
36.87000954893893
 30
0.0
 11
240.8898290499984
 21
32.97613472931289
 31
0.0
  0
LINE
  5
B3
330
2
100
AcDbEntity
  8
-VERGLASUNG
100
AcDbLine
 10
248.0012893056152
 20
23.26388436856428
 30
0.0
 11
244.1074144859891
 21
19.37000954893824
 31
0.0
  0
LINE
  5
B4
330
2
100
AcDbEntity
  8
-VERGLASUNG
100
AcDbLine
 10
251.1262893056152
 20
23.26388436856428
 30
0.0
 11
247.2324144859891
 21
19.37000954893824
 31
0.0
  0
LINE
  5
B5
330
2
100
AcDbEntity
  8
-VERGLASUNG
100
AcDbLine
 10
249.5637893056152
 20
23.26388436856428
 30
0.0
 11
245.6699144859891
 21
19.37000954893824
 31
0.0
  0
DIMENSION
  5
B6
330
2
100
AcDbEntity
  8
-SCHRAFFUR
100
AcDbDimension
  2
*D0
 10
276.0387371613262
 20
-2.566467688138345
 30
0.0
 11
293.5387371613261
 21
1.126233539692486
 31
0.0
  1
%%c<>
 71
     5
 42
35.0
  3
1-1
100
AcDbAlignedDimension
 13
311.0387371613261
 23
15.06426372570445
 33
0.0
 14
276.0387371613262
 24
15.06426372570558
 34
0.0
100
AcDbRotatedDimension
  0
LINE
  5
C3
330
2
100
AcDbEntity
  8
-SYSTEM
100
AcDbLine
 10
293.4987371613289
 20
2.977742057328214
 30
0.0
 11
293.4987371613289
 21
82.00722861717247
 31
0.0
  0
DIMENSION
  5
C4
330
2
100
AcDbEntity
  8
-TEXT3
100
AcDbDimension
  2
*D1
 10
325.5287591419206
 20
77.87000954893881
 30
0.0
 11
325.5287591419206
 21
62.68375167287422
 31
0.0
 70
   128
 71
     5
 42
38.0
  3
1-1
100
AcDbAlignedDimension
 13
311.0387371613261
 23
39.87000954893881
 33
0.0
 14
308.0387371613261
 24
77.87000954893881
 34
0.0
 50
270.0
100
AcDbRotatedDimension
  0
DIMENSION
  5
D1
330
2
100
AcDbEntity
  8
-TEXT3
100
AcDbDimension
  2
*D2
 10
333.538737161328
 20
98.14118435185674
 30
0.0
 11
313.5187371613284
 21
101.6940492904652
 31
0.0
 71
     5
 42
40.03999999999905
  3
1-1
100
AcDbAlignedDimension
 13
293.4987371613289
 23
82.00722861717247
 33
0.0
 14
333.538737161328
 24
57.87000954893881
 34
0.0
100
AcDbRotatedDimension
  0
LWPOLYLINE
  5
DE
330
2
100
AcDbEntity
  8
-PROFILAUSSENKANTET
100
AcDbPolyline
 90
        4
 70
     0
 43
0.0
 10
311.0387371613261
 20
49.87000954893881
 10
333.538737161328
 20
49.87000954893881
 10
333.538737161328
 20
57.87000954893881
 10
311.0387371613261
 20
57.87000954893881
  0
DIMENSION
  5
DF
330
2
100
AcDbEntity
  8
-TEXT3
100
AcDbDimension
  2
*D3
 10
361.140944152438
 20
11.37000954893834
 30
0.0
 11
357.5983111374312
 21
4.712437925473185
 31
0.0
 71
     5
 42
4.98000000000059
  3
1-1
100
AcDbAlignedDimension
 13
319.5187371613284
 23
16.35000954893894
 33
0.0
 14
303.1249245098351
 24
11.37000954893835
 34
0.0
 50
270.0
100
AcDbRotatedDimension
  0
LINE
  5
ED
330
2
100
AcDbEntity
  8
-VERGLASUNG
100
AcDbLine
 10
319.7837039559046
 20
36.87000976107174
 30
0.0
 11
315.8898290655681
 21
32.976134870735
 31
0.0
  0
DIMENSION
  5
EE
330
2
100
AcDbEntity
  8
-TEXT3
100
AcDbDimension
  2
*D4
 10
361.140944152438
 20
39.87000954893881
 30
0.0
 11
357.5880792138296
 21
44.87000954893885
 31
0.0
 71
     5
 42
10.0
  3
1-1
100
AcDbAlignedDimension
 13
339.538737161328
 23
49.87000954893881
 33
0.0
 14
311.0387371613261
 24
39.87000954893881
 34
0.0
 50
270.0
100
AcDbRotatedDimension
  0
LWPOLYLINE
  5
FB
330
2
100
AcDbEntity
  8
-PROFILAUSSENKANTET
100
AcDbPolyline
 90
        4
 70
     1
 43
0.0
 10
311.0387371613261
 20
60.87000954893881
 10
276.0387371613262
 20
60.87000954893881
 10
276.0387371613262
 20
49.87000954893881
 10
311.0387371613261
 20
49.87000954893881
  0
LWPOLYLINE
  5
FC
330
2
100
AcDbEntity
  8
-PROFILAUSSENKANTET
100
AcDbPolyline
 90
        6
 70
     1
 43
0.0
 10
308.0387371613261
 20
77.87000954893881
 10
279.0387371613261
 20
77.87000954893881
 42
0.4142135623730951
 10
276.0387371613262
 20
74.87000954893881
 10
276.0387371613262
 20
60.87000954893881
 10
311.0387371613261
 20
60.87000954893881
 10
311.0387371613261
 20
74.87000954893881
 42
0.4142135623730951
  0
LWPOLYLINE
  5
FD
330
2
100
AcDbEntity
  8
-NORMTEIL_VERDECKT
100
AcDbPolyline
 90
        5
 70
     0
 43
0.0
 10
288.2687371613284
 20
77.87000954893881
 10
288.2687371613284
 20
73.87000954893881
 10
286.5187371613284
 20
72.87000954893881
 10
284.7687371613284
 20
73.87000954893881
 10
284.7687371613284
 20
77.87000954893881
  0
LINE
  5
FE
330
2
100
AcDbEntity
  8
-NORMTEIL_VERDECKT
100
AcDbLine
 10
288.2687371613284
 20
73.87000954893881
 30
0.0
 11
284.7687371613284
 21
73.87000954893881
 31
0.0
  0
LWPOLYLINE
  5
FF
330
2
100
AcDbEntity
  8
-NORMTEIL_VERDECKT
100
AcDbPolyline
 90
        5
 70
     0
 43
0.0
 10
298.7687371613284
 20
77.87000954893881
 10
298.7687371613284
 20
73.87000954893881
 10
297.0187371613284
 20
72.87000954893881
 10
295.2687371613284
 20
73.87000954893881
 10
295.2687371613284
 20
77.87000954893881
  0
LINE
  5
100
330
2
100
AcDbEntity
  8
-NORMTEIL_VERDECKT
100
AcDbLine
 10
298.7687371613284
 20
73.87000954893881
 30
0.0
 11
295.2687371613284
 21
73.87000954893881
 31
0.0
  0
LWPOLYLINE
  5
101
330
2
100
AcDbEntity
  8
-NORMTEIL_VERDECKT
100
AcDbPolyline
 90
        3
 70
     0
 43
0.0
 10
288.5387371613262
 20
39.87000954893881
 10
288.5387371613262
 20
19.37000954893835
 10
298.5387371613261
 20
19.37000954893835
  0
LWPOLYLINE
  5
102
102
{ACAD_REACTORS
330
104
102
}
330
2
100
AcDbEntity
  8
-DICHTUNG
100
AcDbPolyline
 90
        4
 70
     1
 43
0.0
 10
310.5387371613261
 20
39.87000954893881
 10
276.5387371613261
 20
39.87000954893881
 10
276.5387371613261
 20
36.87000954893893
 10
310.5387371613261
 20
36.87000954893893
  0
LWPOLYLINE
  5
103
330
2
100
AcDbEntity
  8
-PROFILAUSSENKANTET
100
AcDbPolyline
 90
        6
 70
     1
 43
0.0
 10
311.0387371613261
 20
39.87000954893881
 10
311.0387371613261
 20
49.87000954893881
 10
298.5387371613261
 20
49.87000954893881
 10
276.0387371613262
 20
49.87000954893881
 10
276.0387371613262
 20
39.87000954893881
 10
298.5387371613261
 20
39.87000954893881
  0
HATCH
  5
104
330
2
100
AcDbEntity
  8
-SCHRAFFUR
100
AcDbHatch
 10
0.0
 20
0.0
 30
0.0
210
0.0
220
0.0
230
1.0
  2
SOLID
 70
     1
 71
     1
 91
        1
 92
        1
 93
        4
 72
     1
 10
310.5387371613261
 20
39.87000954893881
 11
276.5387371613261
 21
39.87000954893881
 72
     1
 10
276.5387371613261
 20
39.87000954893881
 11
276.5387371613261
 21
36.87000954893893
 72
     1
 10
276.5387371613261
 20
36.87000954893893
 11
310.5387371613261
 21
36.87000954893893
 72
     1
 10
310.5387371613261
 20
36.87000954893893
 11
310.5387371613261
 21
39.87000954893881
 97
        1
330
102
 75
     0
 76
     1
 98
        1
 10
371.5387371613277
 20
125.3673803416997
  0
HATCH
  5
105
330
2
100
AcDbEntity
  8
-SCHRAFFUR
100
AcDbHatch
 10
0.0
 20
0.0
 30
0.0
210
0.0
220
0.0
230
1.0
  2
SOLID
 70
     1
 71
     1
 91
        1
 92
        1
 93
        4
 72
     1
 10
310.5387371613261
 20
19.37000954893835
 11
276.5387371613261
 21
19.37000954893835
 72
     1
 10
276.5387371613261
 20
19.37000954893835
 11
276.5387371613261
 21
16.37000954893835
 72
     1
 10
276.5387371613261
 20
16.37000954893835
 11
310.5387371613261
 21
16.37000954893835
 72
     1
 10
310.5387371613261
 20
16.37000954893835
 11
310.5387371613261
 21
19.37000954893835
 97
        1
330
106
 75
     0
 76
     1
 98
        1
 10
371.5387371613277
 20
119.8673803416997
  0
LWPOLYLINE
  5
106
102
{ACAD_REACTORS
330
105
102
}
330
2
100
AcDbEntity
  8
-DICHTUNG
100
AcDbPolyline
 90
        4
 70
     1
 43
0.0
 10
310.5387371613261
 20
19.37000954893835
 10
276.5387371613261
 20
19.37000954893835
 10
276.5387371613261
 20
16.37000954893835
 10
310.5387371613261
 20
16.37000954893835
  0
LWPOLYLINE
  5
107
330
2
100
AcDbEntity
  8
-PROFILAUSSENKANTET
100
AcDbPolyline
 90
       11
 70
     0
 43
0.0
 10
276.0387371613262
 20
16.37000954893835
 10
276.0387371613262
 20
15.06426372570558
 42
0.3759019639771881
 10
277.7744097211443
 20
13.08180792434041
 10
283.209783436925
 20
11.41387004552507
 42
0.033150018187446
 10
283.8706020373801
 20
11.37000954893835
 10
303.1249245098351
 20
11.37000954893835
 42
0.0413106451481675
 10
303.9469194463619
 20
11.43803992977757
 10
309.3675351359369
 20
13.09147587804011
 42
0.3666293647015966
 10
311.0387371613261
 20
15.06426372570445
 10
311.0387371613261
 20
16.37000954893835
 10
276.0387371613262
 20
16.37000954893835
  0
LWPOLYLINE
  5
108
330
2
100
AcDbEntity
  8
-NORMTEIL_VERDECKT
100
AcDbPolyline
 90
        4
 70
     0
 43
0.0
 10
288.5387371613262
 20
19.37000954893835
 10
288.5387371613262
 20
19.37000954893835
 10
287.0387371613261
 20
19.37000954893835
 10
287.0387371613261
 20
36.87000954893893
  0
LINE
  5
109
330
2
100
AcDbEntity
  8
-VERGLASUNG
100
AcDbLine
 10
271.3462038983845
 20
36.87000961964987
 30
0.0
 11
267.452329008048
 21
32.97613472931289
 31
0.0
  0
LINE
  5
10A
330
2
100
AcDbEntity
  8
-VERGLASUNG
100
AcDbLine
 10
272.9087038983845
 20
36.87000961964987
 30
0.0
 11
269.014829008048
 21
32.97613472931289
 31
0.0
  0
LINE
  5
10B
330
2
100
AcDbEntity
  8
-VERGLASUNG
100
AcDbLine
 10
269.7837038983845
 20
36.87000961964987
 30
0.0
 11
265.889829008048
 21
32.97613472931312
 31
0.0
  0
LINE
  5
10C
330
2
100
AcDbEntity
  8
-VERGLASUNG
100
AcDbLine
 10
274.5637893343752
 20
23.26388443927499
 30
0.0
 11
270.6699144440387
 21
19.37000954893847
 31
0.0
  0
LINE
  5
10D
330
2
100
AcDbEntity
  8
-VERGLASUNG
100
AcDbLine
 10
273.0012893343752
 20
23.26388443927521
 30
0.0
 11
269.1074144440387
 21
19.37000954893847
 31
0.0
  0
LINE
  5
10E
330
2
100
AcDbEntity
  8
-VERGLASUNG
100
AcDbLine
 10
276.1262893343752
 20
23.26388443927521
 30
0.0
 11
272.2324144440387
 21
19.37000954893847
 31
0.0
  0
LWPOLYLINE
  5
10F
330
2
100
AcDbEntity
  8
-NORMTEIL_VERDECKT
100
AcDbPolyline
 90
        5
 70
     0
 43
0.0
 10
287.7928938350141
 20
11.37000954893835
 10
287.7928938350141
 20
15.37000954893835
 10
286.2928938350141
 20
16.37000954893835
 10
284.7928938350141
 20
15.37000954893835
 10
284.7928938350141
 20
11.37000954893835
  0
LINE
  5
110
330
2
100
AcDbEntity
  8
-NORMTEIL_VERDECKT
100
AcDbLine
 10
287.7928938350141
 20
15.37000954893835
 30
0.0
 11
284.7928938350141
 21
15.37000954893835
 31
0.0
  0
LWPOLYLINE
  5
111
330
2
100
AcDbEntity
  8
-NORMTEIL_VERDECKT
100
AcDbPolyline
 90
        4
 70
     0
 43
0.0
 10
298.5387371613261
 20
19.37000954893835
 10
298.5387371613261
 20
19.37000954893835
 10
300.0387371613261
 20
19.37000954893835
 10
300.0387371613261
 20
36.87000954893893
  0
LINE
  5
112
330
2
100
AcDbEntity
  8
-NORMTEIL_VERDECKT
100
AcDbLine
 10
296.0787371613261
 20
17.75801826359736
 30
0.0
 11
296.0787371613261
 21
31.13000954893835
 31
0.0
  0
LINE
  5
113
330
2
100
AcDbEntity
  8
-NORMTEIL_VERDECKT
100
AcDbLine
 10
290.9987371613262
 20
17.75801826359736
 30
0.0
 11
290.9987371613262
 21
31.13000954893835
 31
0.0
  0
LWPOLYLINE
  5
114
330
2
100
AcDbEntity
  8
-NORMTEIL_VERDECKT
100
AcDbPolyline
 90
       12
 70
     0
 43
0.0
 10
296.0787371613261
 20
16.37000954893835
 10
296.0787371613261
 20
17.75801826359736
 42
-0.2679491924311216
 10
296.3787371613261
 20
18.27763350586804
 10
296.5387371613261
 20
18.37000954893835
 10
296.5387371613261
 20
30.67000954893831
 10
296.0787371613261
 20
31.13000954893835
 10
290.9987371613262
 20
31.13000954893835
 10
290.5387371613262
 20
30.67000954893831
 10
290.5387371613262
 20
18.37000954893835
 10
290.698737161326
 20
18.27763350586804
 42
-0.2679491924311217
 10
290.9987371613262
 20
17.75801826359736
 10
290.9987371613262
 20
16.37000954893835
  0
LWPOLYLINE
  5
115
330
2
100
AcDbEntity
  8
-NORMTEIL_VERDECKT
100
AcDbPolyline
 90
        3
 70
     0
 43
0.0
 10
298.5387371613261
 20
19.37000954893835
 10
298.5387371613261
 20
19.37000954893835
 10
298.5387371613261
 20
39.87000954893881
  0
LINE
  5
116
330
2
100
AcDbEntity
  8
-NORMTEIL_VERDECKT
100
AcDbLine
 10
296.5387371613261
 20
30.67000954893831
 30
0.0
 11
290.5387371613262
 21
30.67000954893831
 31
0.0
  0
LWPOLYLINE
  5
117
330
2
100
AcDbEntity
  8
-DICHTUNG
100
AcDbPolyline
 90
        4
 70
     1
 43
0.0
 10
298.5387371613261
 20
36.87000954893893
 10
300.0387371613261
 20
36.87000954893893
 10
300.0387371613261
 20
36.87000954893893
 10
298.5387371613261
 20
36.87000954893893
  0
LWPOLYLINE
  5
118
330
2
100
AcDbEntity
  8
-NORMTEIL_VERDECKT
100
AcDbPolyline
 90
        5
 70
     0
 43
0.0
 10
298.2928938350134
 20
11.37000954893835
 10
298.2928938350134
 20
15.37000954893835
 10
296.7928938350134
 20
16.37000954893835
 10
295.2928938350134
 20
15.37000954893835
 10
295.2928938350134
 20
11.37000954893744
  0
LINE
  5
119
330
2
100
AcDbEntity
  8
-NORMTEIL_VERDECKT
100
AcDbLine
 10
298.2928938350134
 20
15.37000954893835
 30
0.0
 11
295.2928938350134
 21
15.37000954893835
 31
0.0
  0
DIMENSION
  5
11A
330
2
100
AcDbEntity
  8
-TEXT3
100
AcDbDimension
  2
*D5
 10
361.140944152438
 20
57.8700095489388
 30
0.0
 11
361.140944152438
 21
53.87000954893886
 31
0.0
 70
   128
  1
%%c<>
 71
     5
 42
8.0
  3
1-1
100
AcDbAlignedDimension
 13
333.538737161328
 23
49.87000954893881
 33
0.0
 14
333.538737161328
 24
57.87000954893881
 34
0.0
 50
270.0
100
AcDbRotatedDimension
  0
LINE
  5
127
330
2
100
AcDbEntity
  8
-VERGLASUNG
100
AcDbLine
 10
344.7837039846646
 20
36.87000983178268
 30
0.0
 11
340.8898290943281
 21
32.97613494144594
 31
0.0
  0
LINE
  5
128
330
2
100
AcDbEntity
  8
-VERGLASUNG
100
AcDbLine
 10
322.9087039559046
 20
36.87000976107174
 30
0.0
 11
319.0148290655681
 21
32.97613487073477
 31
0.0
  0
LINE
  5
129
330
2
100
AcDbEntity
  8
-VERGLASUNG
100
AcDbLine
 10
321.3462039559046
 20
36.87000976107174
 30
0.0
 11
317.4523290655681
 21
32.97613487073477
 31
0.0
  0
LINE
  5
12A
330
2
100
AcDbEntity
  8
-VERGLASUNG
100
AcDbLine
 10
326.1262893918953
 20
23.26388458069709
 30
0.0
 11
322.2324145015583
 21
19.37000969036034
 31
0.0
  0
LINE
  5
12B
330
2
100
AcDbEntity
  8
-VERGLASUNG
100
AcDbLine
 10
324.5637893918953
 20
23.26388458069687
 30
0.0
 11
320.6699145015583
 21
19.37000969036034
 31
0.0
  0
LINE
  5
12C
330
2
100
AcDbEntity
  8
-VERGLASUNG
100
AcDbLine
 10
323.0012893918953
 20
23.26388458069709
 30
0.0
 11
319.1074145015587
 21
19.37000969036034
 31
0.0
  0
DIMENSION
  5
12D
330
2
100
AcDbEntity
  8
-TEXT3
100
AcDbDimension
  2
*D6
 10
361.140944152438
 20
19.37000954893824
 30
0.0
 11
357.5556781224244
 21
28.12000954893864
 31
0.0
  1
G
 71
     5
 42
17.50000000000068
  3
1-1
100
AcDbAlignedDimension
 13
348.1212135432003
 23
36.87000954893893
 33
0.0
 14
348.1212135432003
 24
19.37000954893824
 34
0.0
 50
270.0
100
AcDbRotatedDimension
  0
DIMENSION
  5
13A
330
2
100
AcDbEntity
  8
-TEXT2
100
AcDbDimension
  2
*D7
 10
361.1409441524378
 20
39.89000954893811
 30
0.0
 11
361.1409441524378
 21
38.38000954893857
 31
0.0
 70
   128
 71
     5
 42
3.019999999999186
  3
1-1
100
AcDbAlignedDimension
 13
348.1212135432003
 23
36.87000954893893
 33
0.0
 14
348.1212135432003
 24
39.89000954893811
 34
0.0
 50
90.0
100
AcDbRotatedDimension
  0
LINE
  5
148
330
2
100
AcDbEntity
  8
-VERGLASUNG
100
AcDbLine
 10
347.9087039846646
 20
36.87000983178268
 30
0.0
 11
344.0148290943281
 21
32.97613494144571
 31
0.0
  0
LINE
  5
149
330
2
100
AcDbEntity
  8
-VERGLASUNG
100
AcDbLine
 10
346.3462039846646
 20
36.87000983178268
 30
0.0
 11
342.4523290943281
 21
32.97613494144571
 31
0.0
  0
DIMENSION
  5
14A
330
2
100
AcDbEntity
  8
-TEXT2
100
AcDbDimension
  2
*D8
 10
361.1409441524378
 20
16.35000954893905
 30
0.0
 11
361.1409441524378
 21
17.8600095489387
 31
0.0
 70
   128
 71
     5
 42
3.019999999999186
  3
1-1
100
AcDbAlignedDimension
 13
348.1212135432003
 23
19.37000954893824
 33
0.0
 14
348.1212135432003
 24
16.35000954893905
 34
0.0
 50
270.0
100
AcDbRotatedDimension
  0
LINE
  5
158
330
2
100
AcDbEntity
  8
-VERGLASUNG
100
AcDbLine
 10
349.5637894206558
 20
23.26388465140781
 30
0.0
 11
345.6699145303188
 21
19.37000976107128
 31
0.0
  0
LINE
  5
159
330
2
100
AcDbEntity
  8
-VERGLASUNG
100
AcDbLine
 10
351.1262894206558
 20
23.26388465140803
 30
0.0
 11
347.2324145303188
 21
19.37000976107128
 31
0.0
  0
LINE
  5
15A
330
2
100
AcDbEntity
  8
-VERGLASUNG
100
AcDbLine
 10
348.0012894206558
 20
23.26388465140803
 30
0.0
 11
344.1074145303188
 21
19.37000976107128
 31
0.0
  0
DIMENSION
  5
15B
330
2
100
AcDbEntity
  8
-TEXT3
100
AcDbDimension
  2
*D16
 10
365.0159904613135
 20
323.7936899134137
 30
0.0
 11
365.0159904613134
 21
339.1576053295122
 31
0.0
 70
   128
  1
%%c<>
 71
     5
 42
8.0
  3
1-1
100
AcDbAlignedDimension
 13
333.538737161328
 23
331.7936899134137
 33
0.0
 14
333.538737161328
 24
323.7936899134137
 34
0.0
 50
90.0
100
AcDbRotatedDimension
  0
DIMENSION
  5
169
330
2
100
AcDbEntity
  8
-TEXT3
100
AcDbDimension
  2
*D15
 10
365.0159904613134
 20
312.7936899134137
 30
0.0
 11
361.5057585377118
 21
318.2936899134138
 31
0.0
 71
     5
 42
11.0
  3
1-1
100
AcDbAlignedDimension
 13
333.538737161328
 23
323.7936899134137
 33
0.0
 14
333.538737161328
 24
312.7936899134137
 34
0.0
 50
90.0
100
AcDbRotatedDimension
  0
DIMENSION
  5
176
330
2
100
AcDbEntity
  8
-TEXT3
100
AcDbDimension
  2
*D14
 10
365.0159904613135
 20
312.7936899134137
 30
0.0
 11
365.0159904613134
 21
297.4297744973155
 31
0.0
 70
   128
  1
%%c<>
 71
     5
 42
8.0
  3
1-1
100
AcDbAlignedDimension
 13
333.538737161328
 23
304.7936899134137
 33
0.0
 14
333.538737161328
 24
312.7936899134137
 34
0.0
 50
270.0
100
AcDbRotatedDimension
  0
CIRCLE
  5
184
330
2
100
AcDbEntity
  8
-SCHRAFFUR
100
AcDbCircle
 10
300.4987371613289
 20
318.2936899134137
 30
0.0
 40
1.75
  0
CIRCLE
  5
185
330
2
100
AcDbEntity
  8
-SCHRAFFUR
100
AcDbCircle
 10
289.9987371613289
 20
324.3558677399047
 30
0.0
 40
1.75
  0
CIRCLE
  5
186
330
2
100
AcDbEntity
  8
-SCHRAFFUR
100
AcDbCircle
 10
289.9987371613289
 20
312.2315120869227
 30
0.0
 40
1.75
  0
CIRCLE
  5
187
330
2
100
AcDbEntity
  8
-SCHRAFFUR
100
AcDbCircle
 10
293.4987371613289
 20
318.2936899134137
 30
0.0
 40
10.0
  0
LINE
  5
188
330
2
100
AcDbEntity
  8
-SYSTEM
100
AcDbLine
 10
293.4987371613289
 20
347.702535881367
 30
0.0
 11
293.4987371613289
 21
288.8848439454604
 31
0.0
  0
CIRCLE
  5
189
330
2
100
AcDbEntity
  8
-PROFILAUSSENKANTET
100
AcDbCircle
 10
293.4987371613289
 20
318.2936899134137
 30
0.0
 40
17.5
  0
CIRCLE
  5
18A
330
2
100
AcDbEntity
  8
-SCHRAFFUR
100
AcDbCircle
 10
293.4987371613289
 20
318.2936899134137
 30
0.0
 40
16.0
  0
LINE
  5
18B
330
2
100
AcDbEntity
  8
-SYSTEM
100
AcDbLine
 10
322.9075831292822
 20
318.2936899134137
 30
0.0
 11
264.0898911933756
 21
318.2936899134137
 31
0.0
  0
LWPOLYLINE
  5
18C
330
2
100
AcDbEntity
  8
-NORMTEIL_VERDECKT
100
AcDbPolyline
 90
        4
 70
     0
 43
0.0
 10
304.6342658869888
 20
304.7936899134137
 10
333.538737161328
 20
304.7936899134137
 10
333.538737161328
 20
312.7936899134137
 10
310.111984887165
 20
312.7936899134137
  0
LWPOLYLINE
  5
18D
330
2
100
AcDbEntity
  8
-NORMTEIL_VERDECKT
100
AcDbPolyline
 90
        4
 70
     0
 43
0.0
 10
304.6342658869888
 20
331.7936899134137
 10
333.538737161328
 20
331.7936899134137
 10
333.538737161328
 20
323.7936899134137
 10
310.111984887165
 20
323.7936899134137
  0
LINE
  5
18E
330
2
100
AcDbEntity
  8
-NORMTEIL_VERDECKT
100
AcDbLine
 10
282.3632084356688
 20
304.7936899134137
 30
0.0
 11
205.4987371613289
 21
304.7936899134136
 31
0.0
  0
LINE
  5
18F
330
2
100
AcDbEntity
  8
-NORMTEIL_VERDECKT
100
AcDbLine
 10
276.8854894354928
 20
312.7936899134137
 30
0.0
 11
205.4987371613287
 21
312.7936899134137
 31
0.0
  0
LINE
  5
190
330
2
100
AcDbEntity
  8
-NORMTEIL_VERDECKT
100
AcDbLine
 10
282.363208435669
 20
331.7936899134137
 30
0.0
 11
205.4987371613289
 21
331.7936899134137
 31
0.0
  0
LINE
  5
191
330
2
100
AcDbEntity
  8
-NORMTEIL_VERDECKT
100
AcDbLine
 10
276.8854894354928
 20
323.7936899134137
 30
0.0
 11
205.4987371613287
 21
323.7936899134137
 31
0.0
  0
LWPOLYLINE
  5
192
330
2
100
AcDbEntity
  8
-NORMTEIL_VERDECKT
100
AcDbPolyline
 90
        5
 70
     0
 43
0.0
 10
166.9987371613282
 20
312.5478465871001
 10
170.9987371613282
 20
312.5478465871001
 10
171.9987371613282
 20
311.0478465871001
 10
170.9987371613282
 20
309.5478465871001
 10
166.9987371613282
 20
309.5478465871001
  0
LINE
  5
193
330
2
100
AcDbEntity
  8
-NORMTEIL_VERDECKT
100
AcDbLine
 10
170.9987371613282
 20
312.5478465871001
 30
0.0
 11
170.9987371613282
 21
309.5478465871001
 31
0.0
  0
LWPOLYLINE
  5
194
330
2
100
AcDbEntity
  8
-NORMTEIL_VERDECKT
100
AcDbPolyline
 90
        5
 70
     0
 43
0.0
 10
166.9987371613282
 20
323.0478465870995
 10
170.9987371613282
 20
323.0478465870995
 10
171.9987371613282
 20
321.5478465870995
 10
170.9987371613282
 20
320.0478465870995
 10
166.9987371613273
 20
320.0478465870995
  0
LINE
  5
195
330
2
100
AcDbEntity
  8
-NORMTEIL_VERDECKT
100
AcDbLine
 10
170.9987371613282
 20
323.0478465870995
 30
0.0
 11
170.9987371613282
 21
320.0478465870995
 31
0.0
  0
LWPOLYLINE
  5
196
330
2
100
AcDbEntity
  8
-PROFILAUSSENKANTET
100
AcDbPolyline
 90
       11
 70
     0
 43
0.0
 10
171.9987371613282
 20
300.7936899134122
 10
170.6929913380955
 20
300.7936899134122
 42
-0.3759019639771881
 10
168.7105355367304
 20
302.5293624732302
 10
167.042597657915
 20
307.964736189011
 42
-0.033150018187446
 10
166.9987371613282
 20
308.625554789466
 10
166.9987371613282
 20
327.8798772619211
 42
-0.0413106451481675
 10
167.0667675421674
 20
328.7018721984479
 10
168.7202034904299
 20
334.1224878880229
 42
-0.3666293647015966
 10
170.6929913380942
 20
335.7936899134122
 10
171.9987371613282
 20
335.7936899134122
 10
171.9987371613282
 20
300.7936899134122
  0
LWPOLYLINE
  5
197
102
{ACAD_REACTORS
330
198
102
}
330
2
100
AcDbEntity
  8
-DICHTUNG
100
AcDbPolyline
 90
        4
 70
     1
 43
0.0
 10
174.9987371613282
 20
335.2936899134122
 10
174.9987371613282
 20
301.2936899134122
 10
171.9987371613282
 20
301.2936899134122
 10
171.9987371613282
 20
335.2936899134122
  0
HATCH
  5
198
330
2
100
AcDbEntity
  8
-SCHRAFFUR
100
AcDbHatch
 10
0.0
 20
0.0
 30
0.0
210
0.0
220
0.0
230
1.0
  2
SOLID
 70
     1
 71
     1
 91
        1
 92
        1
 93
        4
 72
     1
 10
174.9987371613282
 20
335.2936899134122
 11
174.9987371613282
 21
301.2936899134122
 72
     1
 10
174.9987371613282
 20
301.2936899134122
 11
171.9987371613282
 21
301.2936899134122
 72
     1
 10
171.9987371613282
 20
301.2936899134122
 11
171.9987371613282
 21
335.2936899134122
 72
     1
 10
171.9987371613282
 20
335.2936899134122
 11
174.9987371613282
 21
335.2936899134122
 97
        1
330
197
 75
     0
 76
     1
 98
        1
 10
275.4961079540895
 20
396.2936899134137
  0
DIMENSION
  5
199
330
2
100
AcDbEntity
  8
-SCHRAFFUR
100
AcDbDimension
  2
*D17
 10
153.0622599242516
 20
300.7936899134122
 30
0.0
 11
149.3695586964207
 21
318.2936899134123
 31
0.0
  1
%%c<>
 71
     5
 42
35.0
  3
1-1
100
AcDbAlignedDimension
 13
170.6929913380942
 23
335.7936899134122
 33
0.0
 14
170.6929913380955
 24
300.7936899134122
 34
0.0
 50
90.0
100
AcDbRotatedDimension
  0
LINE
  5
1A6
330
2
100
AcDbEntity
  8
-NORMTEIL_VERDECKT
100
AcDbLine
 10
229.4987371613289
 20
313.0236899134143
 30
0.0
 11
229.4987371613289
 21
309.5236899134145
 31
0.0
  0
LWPOLYLINE
  5
1A7
330
2
100
AcDbEntity
  8
-NORMTEIL_VERDECKT
100
AcDbPolyline
 90
        5
 70
     0
 43
0.0
 10
233.4987371613289
 20
313.0236899134143
 10
229.4987371613289
 20
313.0236899134143
 10
228.4987371613289
 20
311.2736899134143
 10
229.4987371613289
 20
309.5236899134145
 10
233.4987371613289
 20
309.5236899134143
  0
LINE
  5
1A8
330
2
100
AcDbEntity
  8
-NORMTEIL_VERDECKT
100
AcDbLine
 10
229.4987371613289
 20
323.5236899134143
 30
0.0
 11
229.4987371613289
 21
320.0236899134145
 31
0.0
  0
LWPOLYLINE
  5
1A9
330
2
100
AcDbEntity
  8
-NORMTEIL_VERDECKT
100
AcDbPolyline
 90
        5
 70
     0
 43
0.0
 10
233.4987371613289
 20
323.5236899134143
 10
229.4987371613289
 20
323.5236899134143
 10
228.4987371613289
 20
321.7736899134143
 10
229.4987371613289
 20
320.0236899134145
 10
233.4987371613289
 20
320.0236899134143
  0
LWPOLYLINE
  5
1AA
330
2
100
AcDbEntity
  8
-DICHTUNG
100
AcDbPolyline
 90
        4
 70
     1
 43
0.0
 10
192.4987371613289
 20
323.2936899134122
 10
192.4987371613289
 20
324.7936899134122
 10
192.4987371613289
 20
324.7936899134122
 10
192.4987371613289
 20
323.2936899134122
  0
LINE
  5
1AB
330
2
100
AcDbEntity
  8
-NORMTEIL_VERDECKT
100
AcDbLine
 10
186.2987371613282
 20
321.2936899134122
 30
0.0
 11
186.2987371613282
 21
315.2936899134122
 31
0.0
  0
LWPOLYLINE
  5
1AC
330
2
100
AcDbEntity
  8
-NORMTEIL_VERDECKT
100
AcDbPolyline
 90
        3
 70
     0
 43
0.0
 10
174.9987371613282
 20
323.2936899134122
 10
174.9987371613282
 20
323.2936899134122
 10
195.4987371613289
 20
323.2936899134122
  0
LWPOLYLINE
  5
1AD
330
2
100
AcDbEntity
  8
-NORMTEIL_VERDECKT
100
AcDbPolyline
 90
        3
 70
     0
 43
0.0
 10
195.4987371613289
 20
313.2936899134122
 10
174.9987371613282
 20
313.2936899134122
 10
174.9987371613282
 20
323.2936899134122
  0
LINE
  5
1AE
330
2
100
AcDbEntity
  8
-NORMTEIL_VERDECKT
100
AcDbLine
 10
173.3867458759872
 20
315.7536899134123
 30
0.0
 11
186.7587371613282
 21
315.7536899134123
 31
0.0
  0
LWPOLYLINE
  5
1AF
330
2
100
AcDbEntity
  8
-NORMTEIL_VERDECKT
100
AcDbPolyline
 90
        4
 70
     0
 43
0.0
 10
174.9987371613282
 20
323.2936899134122
 10
174.9987371613282
 20
323.2936899134122
 10
174.9987371613282
 20
324.7936899134122
 10
192.4987371613289
 20
324.7936899134122
  0
LINE
  5
1B0
330
2
100
AcDbEntity
  8
-NORMTEIL_VERDECKT
100
AcDbLine
 10
173.3867458759872
 20
320.8336899134122
 30
0.0
 11
186.7587371613282
 21
320.8336899134122
 31
0.0
  0
LWPOLYLINE
  5
1B1
330
2
100
AcDbEntity
  8
-NORMTEIL_VERDECKT
100
AcDbPolyline
 90
       12
 70
     0
 43
0.0
 10
171.9987371613282
 20
320.8336899134122
 10
173.3867458759872
 20
320.8336899134122
 42
0.2679491924311216
 10
173.9063611182579
 20
321.1336899134121
 10
173.9987371613282
 20
321.2936899134122
 10
186.2987371613282
 20
321.2936899134122
 10
186.7587371613282
 20
320.8336899134122
 10
186.7587371613282
 20
315.7536899134123
 10
186.2987371613282
 20
315.2936899134122
 10
173.9987371613282
 20
315.2936899134122
 10
173.9063611182579
 20
315.4536899134121
 42
0.2679491924311217
 10
173.3867458759872
 20
315.7536899134123
 10
171.9987371613282
 20
315.7536899134123
  0
LWPOLYLINE
  5
1B2
330
2
100
AcDbEntity
  8
-NORMTEIL_VERDECKT
100
AcDbPolyline
 90
        4
 70
     0
 43
0.0
 10
174.9987371613282
 20
313.2936899134122
 10
174.9987371613282
 20
313.2936899134122
 10
174.9987371613282
 20
311.7936899134122
 10
192.4987371613289
 20
311.7936899134122
  0
LWPOLYLINE
  5
1B3
330
2
100
AcDbEntity
  8
-NORMTEIL_VERDECKT
100
AcDbPolyline
 90
        6
 70
     1
 43
0.0
 10
233.4987371613289
 20
332.7936899134122
 10
233.4987371613289
 20
303.7936899134122
 42
-0.4142135623730951
 10
230.4987371613289
 20
300.7936899134122
 10
216.4987371613289
 20
300.7936899134122
 10
216.4987371613289
 20
335.7936899134122
 10
230.4987371613289
 20
335.7936899134122
 42
-0.4142135623730951
  0
LWPOLYLINE
  5
1B4
330
2
100
AcDbEntity
  8
-NORMTEIL_VERDECKT
100
AcDbPolyline
 90
        6
 70
     1
 43
0.0
 10
195.4987371613289
 20
335.7936899134122
 10
205.4987371613289
 20
335.7936899134122
 10
205.4987371613289
 20
323.2936899134122
 10
205.4987371613289
 20
300.7936899134122
 10
195.4987371613289
 20
300.7936899134122
 10
195.4987371613289
 20
323.2936899134122
  0
LWPOLYLINE
  5
1B5
330
2
100
AcDbEntity
  8
-NORMTEIL_VERDECKT
100
AcDbPolyline
 90
        4
 70
     1
 43
0.0
 10
216.4987371613289
 20
335.7936899134122
 10
216.4987371613289
 20
300.7936899134122
 10
205.4987371613289
 20
300.7936899134122
 10
205.4987371613289
 20
335.7936899134122
  0
LINE
  5
1B6
330
2
100
AcDbEntity
  8
-SYSTEM
100
AcDbLine
 10
158.6064696697182
 20
318.2936899134138
 30
0.0
 11
237.6359562295623
 21
318.2936899134138
 31
0.0
  0
LINE
  5
1B7
330
2
100
AcDbEntity
  8
-NORMTEIL_VERDECKT
100
AcDbLine
 10
195.4987371613289
 20
335.2936899134122
 30
0.0
 11
195.4987371613289
 21
301.2936899134122
 31
0.0
  0
LINE
  5
1B8
330
2
100
AcDbEntity
  8
-NORMTEIL_VERDECKT
100
AcDbLine
 10
195.4987371613289
 20
301.2936899134122
 30
0.0
 11
192.4987371613289
 21
301.2936899134122
 31
0.0
  0
LINE
  5
1B9
330
2
100
AcDbEntity
  8
-DICHTUNG
100
AcDbLine
 10
192.4987371613289
 20
301.2936899134122
 30
0.0
 11
192.4987371613289
 21
335.2936899134122
 31
0.0
  0
LINE
  5
1BA
330
2
100
AcDbEntity
  8
-DICHTUNG
100
AcDbLine
 10
192.4987371613289
 20
335.2936899134122
 30
0.0
 11
195.4987371613289
 21
335.2936899134122
 31
0.0
  0
CIRCLE
  5
1BB
330
2
100
AcDbEntity
  8
-NORMTEIL_VERDECKT
100
AcDbCircle
 10
209.4987371613289
 20
308.7936899134137
 30
0.0
 40
4.0
  0
CIRCLE
  5
1BC
330
2
100
AcDbEntity
  8
-NORMTEIL_VERDECKT
100
AcDbCircle
 10
209.4987371613289
 20
327.7936899134137
 30
0.0
 40
4.0
  0
ENDSEC
  0
SECTION
  2
OBJECTS
  0
DICTIONARY
  5
7
330
0
100
AcDbDictionary
281
     1
  3
ACAD_COLOR
350
1D7
  3
ACAD_GROUP
350
1D3
  3
ACAD_LAYOUT
350
1BF
  3
ACAD_MATERIAL
350
1D6
  3
ACAD_MLINESTYLE
350
1D4
  3
ACAD_PLOTSETTINGS
350
1D5
  3
ACAD_PLOTSTYLENAME
350
6
  3
ACDBHEADERROUNDTRIPXREC
350
1DD
  3
AcDbVariableDictionary
350
1D9
  0
DICTIONARY
  5
1C5
330
1C4
100
AcDbDictionary
280
     1
281
     1
  3
ACAD_LAYERSTATES
360
1C6
  0
DICTIONARY
  5
1D7
102
{ACAD_REACTORS
330
7
102
}
330
7
100
AcDbDictionary
281
     1
  0
DICTIONARY
  5
1D3
102
{ACAD_REACTORS
330
7
102
}
330
7
100
AcDbDictionary
281
     1
  0
DICTIONARY
  5
1BF
102
{ACAD_REACTORS
330
7
102
}
330
7
100
AcDbDictionary
281
     1
  3
Layout1
350
1C3
  3
Model
350
1BE
  0
DICTIONARY
  5
1D6
102
{ACAD_REACTORS
330
7
102
}
330
7
100
AcDbDictionary
281
     1
  0
DICTIONARY
  5
1D4
102
{ACAD_REACTORS
330
7
102
}
330
7
100
AcDbDictionary
281
     1
  3
STANDARD
350
1D8
  0
DICTIONARY
  5
1D5
102
{ACAD_REACTORS
330
7
102
}
330
7
100
AcDbDictionary
281
     1
  0
ACDBDICTIONARYWDFLT
  5
6
102
{ACAD_REACTORS
330
7
102
}
330
7
100
AcDbDictionary
281
     1
  3
Normal
350
5
100
AcDbDictionaryWithDefault
340
5
  0
DICTIONARY
  5
1DD
102
{ACAD_REACTORS
330
7
102
}
330
7
100
AcDbDictionary
281
     1
  3
COLORDICT
350
1DF
  3
MATERIALDICT
350
1DE
  0
DICTIONARY
  5
1D9
102
{ACAD_REACTORS
330
7
102
}
330
7
100
AcDbDictionary
281
     1
  3
DIMASSOC
350
1DB
  3
HIDETEXT
350
1DA
  3
PROJECTNAME
350
1DC
  0
DICTIONARY
  5
1C6
102
{ACAD_REACTORS
330
1C5
102
}
330
1C5
100
AcDbDictionary
281
     1
  0
LAYOUT
  5
1C3
102
{ACAD_XDICTIONARY
360
1E3
102
}
102
{ACAD_REACTORS
330
1BF
102
}
330
1BF
100
AcDbPlotSettings
  1

  2
\\pc02\HP
  4

  6

 40
0.0
 41
0.0
 42
0.0
 43
0.0
 44
0.0
 45
0.0
 46
0.0
 47
0.0
 48
0.0
 49
0.0
140
0.0
141
0.0
142
1.0
143
1.0
 70
   688
 72
     0
 73
     0
 74
     5
  7
monochrome.ctb
 75
    16
147
1.0
148
0.0
149
0.0
100
AcDbLayout
  1
Layout1
 70
     1
 71
     1
 10
0.0
 20
0.0
 11
420.0
 21
297.0
 12
0.0
 22
0.0
 32
0.0
 14
0.0
 24
0.0
 34
0.0
 15
1189.0
 25
841.0
 35
0.0
146
0.0
 13
0.0
 23
0.0
 33
0.0
 16
1.0
 26
0.0
 36
0.0
 17
0.0
 27
1.0
 37
0.0
 76
     0
330
1C0
  0
LAYOUT
  5
1BE
102
{ACAD_XDICTIONARY
360
1E1
102
}
102
{ACAD_REACTORS
330
1BF
102
}
330
1BF
100
AcDbPlotSettings
  1

  2
HP DeskJet 1220C
  4
A4
  6

 40
4.180416584014892
 41
13.4937515258789
 42
4.180404663085937
 43
3.67242431640625
 44
209.9733276367187
 45
297.0106506347656
 46
0.0
 47
0.0
 48
481.1978817096998
 49
309.4654971710613
140
768.1978817096998
141
509.4654971710613
142
1.0
143
1.025569649759302
 70
 11952
 72
     1
 73
     3
 74
     4
  7
monochrome.ctb
 75
     0
147
0.9750678564197924
148
-481.1978817096998
149
-309.4654971710613
100
AcDbLayout
  1
Model
 70
     1
 71
     0
 10
0.0
 20
0.0
 11
12.0
 21
9.0
 12
0.0
 22
0.0
 32
0.0
 14
0.0
 24
0.0
 34
0.0
 15
0.0
 25
0.0
 35
0.0
146
0.0
 13
0.0
 23
0.0
 33
0.0
 16
1.0
 26
0.0
 36
0.0
 17
0.0
 27
1.0
 37
0.0
 76
     0
330
2
  0
MLINESTYLE
  5
1D8
102
{ACAD_REACTORS
330
1D4
102
}
330
1D4
100
AcDbMlineStyle
  2
STANDARD
 70
     0
  3

 62
     0
 51
90.0
 52
90.0
 71
     2
 49
0.5
 62
   256
  6
BYLAYER
 49
-0.5
 62
   256
  6
BYLAYER
  0
ACDBPLACEHOLDER
  5
5
102
{ACAD_REACTORS
330
6
102
}
330
6
  0
XRECORD
  5
1DF
102
{ACAD_REACTORS
330
1DD
102
}
330
1DD
100
AcDbXrecord
280
     1
340
1D7
  0
XRECORD
  5
1DE
102
{ACAD_REACTORS
330
1DD
102
}
330
1DD
100
AcDbXrecord
280
     1
340
1D6
  0
DICTIONARYVAR
  5
1DB
102
{ACAD_REACTORS
330
1D9
102
}
330
1D9
100
DictionaryVariables
280
     0
  1
1
  0
DICTIONARYVAR
  5
1DA
102
{ACAD_REACTORS
330
1D9
102
}
330
1D9
100
DictionaryVariables
280
     0
  1
1
  0
DICTIONARYVAR
  5
1DC
102
{ACAD_REACTORS
330
1D9
102
}
330
1D9
100
DictionaryVariables
280
     0
  1

  0
DICTIONARY
  5
1E3
330
1C3
100
AcDbDictionary
280
     1
281
     1
  3
ACAD_XREC_ROUNDTRIP
360
1E4
  0
DICTIONARY
  5
1E1
330
1BE
100
AcDbDictionary
280
     1
281
     1
  3
ACAD_XREC_ROUNDTRIP
360
1E2
  0
XRECORD
  5
1E4
102
{ACAD_REACTORS
330
1E3
102
}
330
1E3
100
AcDbXrecord
280
     1
102
SHADEPLOT
 70
     0
102
SHADEPLOTRESLEVEL
 70
     2
102
SHADEPLOTCUSTOMDPI
 70
   300
  0
XRECORD
  5
1E2
102
{ACAD_REACTORS
330
1E1
102
}
330
1E1
100
AcDbXrecord
280
     1
102
SHADEPLOT
 70
     0
102
SHADEPLOTRESLEVEL
 70
     2
102
SHADEPLOTCUSTOMDPI
 70
   300
  0
ENDSEC
  0
EOF
