  0
SECTION
  2
HEADER
  9
$ACADVER
  1
AC1018
  9
$ACADMAINTVER
 70
    76
  9
$DWGCODEPAGE
  3
ANSI_1252
  9
$INSBASE
 10
-388.5910781991461
 20
97.05220288964483
 30
0.0
  9
$EXTMIN
 10
32341.53285457101
 20
-16615.64718410696
 30
-0.0015258207003583
  9
$EXTMAX
 10
34295.86259765594
 20
-13877.00091816493
 30
0.0000000349246037
  9
$LIMMIN
 10
0.0
 20
0.0
  9
$LIMMAX
 10
12.0
 20
9.0
  9
$ORTHOMODE
 70
     1
  9
$REGENMODE
 70
     1
  9
$FILLMODE
 70
     1
  9
$QTEXTMODE
 70
     0
  9
$MIRRTEXT
 70
     1
  9
$LTSCALE
 40
2.5
  9
$ATTMODE
 70
     1
  9
$TEXTSIZE
 40
0.2
  9
$TRACEWID
 40
0.05
  9
$TEXTSTYLE
  7
STANDARD
  9
$CLAYER
  8
-TEXT3
  9
$CELTYPE
  6
BYLAYER
  9
$CECOLOR
 62
   256
  9
$CELTSCALE
 40
1.0
  9
$DISPSILH
 70
     0
  9
$DIMSCALE
 40
0.7
  9
$DIMASZ
 40
30.0
  9
$DIMEXO
 40
10.0
  9
$DIMDLI
 40
3.0
  9
$DIMRND
 40
0.0
  9
$DIMDLE
 40
0.0
  9
$DIMEXE
 40
5.0
  9
$DIMTP
 40
0.0
  9
$DIMTM
 40
0.5
  9
$DIMTXT
 40
30.0
  9
$DIMCEN
 40
0.09
  9
$DIMTSZ
 40
0.0
  9
$DIMTOL
 70
     0
  9
$DIMLIM
 70
     0
  9
$DIMTIH
 70
     0
  9
$DIMTOH
 70
     0
  9
$DIMSE1
 70
     0
  9
$DIMSE2
 70
     0
  9
$DIMTAD
 70
     1
  9
$DIMZIN
 70
     9
  9
$DIMBLK
  1

  9
$DIMASO
 70
     1
  9
$DIMSHO
 70
     1
  9
$DIMPOST
  1

  9
$DIMAPOST
  1

  9
$DIMALT
 70
     0
  9
$DIMALTD
 70
     2
  9
$DIMALTF
 40
25.4
  9
$DIMLFAC
 40
1.0
  9
$DIMTOFL
 70
     1
  9
$DIMTVP
 40
0.0
  9
$DIMTIX
 70
     0
  9
$DIMSOXD
 70
     0
  9
$DIMSAH
 70
     0
  9
$DIMBLK1
  1

  9
$DIMBLK2
  1

  9
$DIMSTYLE
  2
Kopie(3) von 1-1
  9
$DIMCLRD
 70
   256
  9
$DIMCLRE
 70
   256
  9
$DIMCLRT
 70
   256
  9
$DIMTFAC
 40
0.75
  9
$DIMGAP
 40
5.0
  9
$DIMJUST
 70
     0
  9
$DIMSD1
 70
     0
  9
$DIMSD2
 70
     0
  9
$DIMTOLJ
 70
     0
  9
$DIMTZIN
 70
     0
  9
$DIMALTZ
 70
     0
  9
$DIMALTTZ
 70
     0
  9
$DIMUPT
 70
     0
  9
$DIMDEC
 70
     0
  9
$DIMTDEC
 70
     0
  9
$DIMALTU
 70
     2
  9
$DIMALTTD
 70
     2
  9
$DIMTXSTY
  7
STANDARD
  9
$DIMAUNIT
 70
     0
  9
$DIMADEC
 70
     0
  9
$DIMALTRND
 40
0.0
  9
$DIMAZIN
 70
     0
  9
$DIMDSEP
 70
    46
  9
$DIMATFIT
 70
     3
  9
$DIMFRAC
 70
     0
  9
$DIMLDRBLK
  1

  9
$DIMLUNIT
 70
     2
  9
$DIMLWD
 70
    -2
  9
$DIMLWE
 70
    -2
  9
$DIMTMOVE
 70
     0
  9
$LUNITS
 70
     2
  9
$LUPREC
 70
     4
  9
$SKETCHINC
 40
0.1
  9
$FILLETRAD
 40
0.0
  9
$AUNITS
 70
     0
  9
$AUPREC
 70
     2
  9
$MENU
  1
.
  9
$ELEVATION
 40
0.0
  9
$PELEVATION
 40
0.0
  9
$THICKNESS
 40
0.0
  9
$LIMCHECK
 70
     0
  9
$CHAMFERA
 40
2.0
  9
$CHAMFERB
 40
2.0
  9
$CHAMFERC
 40
1.0
  9
$CHAMFERD
 40
0.0
  9
$SKPOLY
 70
     0
  9
$TDCREATE
 40
2450923.364735533
  9
$TDUCREATE
 40
2450923.323068866
  9
$TDUPDATE
 40
2457695.444684178
  9
$TDUUPDATE
 40
2457695.403017511
  9
$TDINDWG
 40
50.8267192245
  9
$TDUSRTIMER
 40
50.8267192245
  9
$USRTIMER
 70
     1
  9
$ANGBASE
 50
0.0
  9
$ANGDIR
 70
     0
  9
$PDMODE
 70
     0
  9
$PDSIZE
 40
0.0
  9
$PLINEWID
 40
0.0
  9
$SPLFRAME
 70
     0
  9
$SPLINETYPE
 70
     6
  9
$SPLINESEGS
 70
     8
  9
$HANDSEED
  5
CD092
  9
$SURFTAB1
 70
     6
  9
$SURFTAB2
 70
     6
  9
$SURFTYPE
 70
     6
  9
$SURFU
 70
     6
  9
$SURFV
 70
     6
  9
$UCSBASE
  2

  9
$UCSNAME
  2

  9
$UCSORG
 10
0.0
 20
0.0
 30
0.0
  9
$UCSXDIR
 10
1.0
 20
0.0
 30
0.0
  9
$UCSYDIR
 10
0.0
 20
1.0
 30
0.0
  9
$UCSORTHOREF
  2

  9
$UCSORTHOVIEW
 70
     0
  9
$UCSORGTOP
 10
0.0
 20
0.0
 30
0.0
  9
$UCSORGBOTTOM
 10
0.0
 20
0.0
 30
0.0
  9
$UCSORGLEFT
 10
0.0
 20
0.0
 30
0.0
  9
$UCSORGRIGHT
 10
0.0
 20
0.0
 30
0.0
  9
$UCSORGFRONT
 10
0.0
 20
0.0
 30
0.0
  9
$UCSORGBACK
 10
0.0
 20
0.0
 30
0.0
  9
$PUCSBASE
  2

  9
$PUCSNAME
  2

  9
$PUCSORG
 10
0.0
 20
0.0
 30
0.0
  9
$PUCSXDIR
 10
1.0
 20
0.0
 30
0.0
  9
$PUCSYDIR
 10
0.0
 20
1.0
 30
0.0
  9
$PUCSORTHOREF
  2

  9
$PUCSORTHOVIEW
 70
     0
  9
$PUCSORGTOP
 10
0.0
 20
0.0
 30
0.0
  9
$PUCSORGBOTTOM
 10
0.0
 20
0.0
 30
0.0
  9
$PUCSORGLEFT
 10
0.0
 20
0.0
 30
0.0
  9
$PUCSORGRIGHT
 10
0.0
 20
0.0
 30
0.0
  9
$PUCSORGFRONT
 10
0.0
 20
0.0
 30
0.0
  9
$PUCSORGBACK
 10
0.0
 20
0.0
 30
0.0
  9
$USERI1
 70
     0
  9
$USERI2
 70
     0
  9
$USERI3
 70
     0
  9
$USERI4
 70
     0
  9
$USERI5
 70
     0
  9
$USERR1
 40
0.0
  9
$USERR2
 40
0.0
  9
$USERR3
 40
0.0
  9
$USERR4
 40
0.0
  9
$USERR5
 40
0.0
  9
$WORLDVIEW
 70
     1
  9
$SHADEDGE
 70
     3
  9
$SHADEDIF
 70
    70
  9
$TILEMODE
 70
     1
  9
$MAXACTVP
 70
    48
  9
$PINSBASE
 10
0.0
 20
0.0
 30
0.0
  9
$PLIMCHECK
 70
     0
  9
$PEXTMIN
 10
1.000000000000000E+20
 20
1.000000000000000E+20
 30
1.000000000000000E+20
  9
$PEXTMAX
 10
-1.000000000000000E+20
 20
-1.000000000000000E+20
 30
-1.000000000000000E+20
  9
$PLIMMIN
 10
0.0
 20
0.0
  9
$PLIMMAX
 10
12.0
 20
9.0
  9
$UNITMODE
 70
     0
  9
$VISRETAIN
 70
     1
  9
$PLINEGEN
 70
     0
  9
$PSLTSCALE
 70
     1
  9
$TREEDEPTH
 70
  3020
  9
$CMLSTYLE
  2
STANDARD
  9
$CMLJUST
 70
     0
  9
$CMLSCALE
 40
1.0
  9
$PROXYGRAPHICS
 70
     1
  9
$MEASUREMENT
 70
     0
  9
$CELWEIGHT
370
    -1
  9
$ENDCAPS
280
     0
  9
$JOINSTYLE
280
     0
  9
$LWDISPLAY
290
     0
  9
$INSUNITS
 70
     4
  9
$HYPERLINKBASE
  1

  9
$STYLESHEET
  1
brüstung.ctb
  9
$XEDIT
290
     1
  9
$CEPSNTYPE
380
     0
  9
$PSTYLEMODE
290
     1
  9
$FINGERPRINTGUID
  2
{820E534A-1A12-4D20-B2B6-087010383843}
  9
$VERSIONGUID
  2
{5C6895FC-217F-4D6C-AE64-09AD6BA2013A}
  9
$EXTNAMES
290
     1
  9
$PSVPSCALE
 40
0.0
  9
$OLESTARTUP
290
     0
  9
$SORTENTS
280
     1
  9
$INDEXCTL
280
     0
  9
$HIDETEXT
280
     1
  9
$XCLIPFRAME
290
     0
  9
$HALOGAP
280
     0
  9
$OBSCOLOR
 70
   257
  9
$OBSLTYPE
280
     0
  9
$INTERSECTIONDISPLAY
280
     0
  9
$INTERSECTIONCOLOR
 70
   257
  9
$DIMASSOC
280
     1
  9
$PROJECTNAME
  1

  0
ENDSEC
  0
SECTION
  2
CLASSES
  0
CLASS
  1
DICTIONARYVAR
  2
AcDbDictionaryVar
  3
ObjectDBX Classes
 90
        0
 91
        5
280
     0
281
     0
  0
CLASS
  1
IMAGE
  2
AcDbRasterImage
  3
ISM
 90
      127
 91
        6
280
     0
281
     1
  0
CLASS
  1
IMAGEDEF_REACTOR
  2
AcDbRasterImageDefReactor
  3
ISM
 90
        1
 91
        6
280
     0
281
     0
  0
CLASS
  1
IMAGEDEF
  2
AcDbRasterImageDef
  3
ISM
 90
        0
 91
       15
280
     0
281
     0
  0
CLASS
  1
RASTERVARIABLES
  2
AcDbRasterVariables
  3
ISM
 90
        0
 91
        1
280
     0
281
     0
  0
CLASS
  1
ACDBDICTIONARYWDFLT
  2
AcDbDictionaryWithDefault
  3
ObjectDBX Classes
 90
        0
 91
        1
280
     0
281
     0
  0
CLASS
  1
AEC_VARS_DWG_SETUP
  2
AecDbVarsDwgSetup
  3
AecBase40|Product Desc: Autodesk Architectural Desktop 2005 |Company: Autodesk,Inc. |WEB Address: www.autodesk.com
 90
      129
 91
        0
280
     0
281
     0
  0
CLASS
  1
AEC_DISP_REP_CONFIG
  2
AecDbDispRepConfig
  3
AecBase40|Product Desc: Autodesk Architectural Desktop 2005 |Company: Autodesk,Inc. |WEB Address: www.autodesk.com
 90
      129
 91
        0
280
     0
281
     0
  0
CLASS
  1
AEC_DISP_REP_SET
  2
AecDbDispRepSet
  3
AecBase40|Product Desc: Autodesk Architectural Desktop 2005 |Company: Autodesk,Inc. |WEB Address: www.autodesk.com
 90
      129
 91
        0
280
     0
281
     0
  0
CLASS
  1
AEC_DISP_REP_2D_SECTION
  2
AecDbDispRep2dSection
  3
AecBase40|Product Desc: Autodesk Architectural Desktop 2005 |Company: Autodesk,Inc. |WEB Address: www.autodesk.com
 90
      129
 91
        0
280
     0
281
     0
  0
CLASS
  1
AEC_DISP_REP_ANCHOR_BUB_TO_GRID
  2
AecDbDispRepAnchorBubToGrid
  3
AecStructureBase40|Product Desc: Autodesk Architectural Desktop 2005 |Company: Autodesk,Inc. |WEB Address: www.autodesk.com
 90
      129
 91
        0
280
     0
281
     0
  0
CLASS
  1
AEC_DISP_REP_ANCHOR_BUB_TO_GRID_MODEL
  2
AecDbDispRepAnchorBubToGridMdl
  3
AecStructureBase40|Product Desc: Autodesk Architectural Desktop 2005 |Company: Autodesk,Inc. |WEB Address: www.autodesk.com
 90
      129
 91
        0
280
     0
281
     0
  0
CLASS
  1
AEC_DISP_REP_ANCHOR_ENT_TO_NODE
  2
AecDbDispRepAnchorEntToNode
  3
AecBase40|Product Desc: Autodesk Architectural Desktop 2005 |Company: Autodesk,Inc. |WEB Address: www.autodesk.com
 90
      129
 91
        0
280
     0
281
     0
  0
CLASS
  1
AEC_DISP_REP_AREA
  2
AecDbDispRepArea
  3
AecAreaCalculationBase40|Product Desc: Autodesk Architectural Desktop 2005 |Company: Autodesk,Inc. |WEB Address: www.autodesk.com
 90
      129
 91
        0
280
     0
281
     0
  0
CLASS
  1
AEC_DISP_REP_AREAGROUP
  2
AecDbDispRepAreaGroup
  3
AecAreaCalculationBase40|Product Desc: Autodesk Architectural Desktop 2005 |Company: Autodesk,Inc. |WEB Address: www.autodesk.com
 90
      129
 91
        0
280
     0
281
     0
  0
CLASS
  1
AEC_DISP_REP_BDG_ELEVLINE_MODEL
  2
AecDbDispRepBdgElevLineModel
  3
AecArchBase40|Product Desc: Autodesk Architectural Desktop 2005 |Company: Autodesk,Inc. |WEB Address: www.autodesk.com
 90
      129
 91
        0
280
     0
281
     0
  0
CLASS
  1
AEC_DISP_REP_BDG_SECTIONLINE_PLAN
  2
AecDbDispRepBdgElevLinePlan
  3
AecArchBase40|Product Desc: Autodesk Architectural Desktop 2005 |Company: Autodesk,Inc. |WEB Address: www.autodesk.com
 90
      129
 91
        0
280
     0
281
     0
  0
CLASS
  1
AEC_DISP_REP_BDG_SECTIONLINE_MODEL
  2
AecDbDispRepBdgSectionLineModel
  3
AecArchBase40|Product Desc: Autodesk Architectural Desktop 2005 |Company: Autodesk,Inc. |WEB Address: www.autodesk.com
 90
      129
 91
        0
280
     0
281
     0
  0
CLASS
  1
AEC_DISP_REP_BDG_SECTIONLINE_PLAN
  2
AecDbDispRepBdgSectionLinePlan
  3
AecArchBase40|Product Desc: Autodesk Architectural Desktop 2005 |Company: Autodesk,Inc. |WEB Address: www.autodesk.com
 90
      129
 91
        0
280
     0
281
     0
  0
CLASS
  1
AEC_DISP_REP_BDG_SECTION_SUBDIV
  2
AecDbDispRepBdgSectionSubDiv
  3
AecArchBase40|Product Desc: Autodesk Architectural Desktop 2005 |Company: Autodesk,Inc. |WEB Address: www.autodesk.com
 90
      129
 91
        0
280
     0
281
     0
  0
CLASS
  1
AEC_DISP_REP_CAMERA
  2
AecDbDispRepCamera
  3
AecBase40|Product Desc: Autodesk Architectural Desktop 2005 |Company: Autodesk,Inc. |WEB Address: www.autodesk.com
 90
      129
 91
        0
280
     0
281
     0
  0
CLASS
  1
AEC_DISP_REP_CEILING_GRID
  2
AecDbDispRepCeilingGrid
  3
AecArchBase40|Product Desc: Autodesk Architectural Desktop 2005 |Company: Autodesk,Inc. |WEB Address: www.autodesk.com
 90
      893
 91
        0
280
     0
281
     0
  0
CLASS
  1
AEC_DISP_REP_CEILING_GRID_MODEL
  2
AecDbDispRepCeilingGridModel
  3
AecArchBase40|Product Desc: Autodesk Architectural Desktop 2005 |Company: Autodesk,Inc. |WEB Address: www.autodesk.com
 90
      129
 91
        0
280
     0
281
     0
  0
CLASS
  1
AEC_DISP_REP_CLIP_VOLUME_MODEL
  2
AecDbDispRepClipVolModel
  3
AecBase40|Product Desc: Autodesk Architectural Desktop 2005 |Company: Autodesk,Inc. |WEB Address: www.autodesk.com
 90
      129
 91
        0
280
     0
281
     0
  0
CLASS
  1
AEC_DISP_REP_CLIP_VOLUME_PLAN
  2
AecDbDispRepClipVolPlan
  3
AecBase40|Product Desc: Autodesk Architectural Desktop 2005 |Company: Autodesk,Inc. |WEB Address: www.autodesk.com
 90
      129
 91
        0
280
     0
281
     0
  0
CLASS
  1
AEC_DISP_REP_CLIP_VOLUME_RESULT_SUBDIV
  2
AecDbDispRepClipVolResSubDiv
  3
AecBase40|Product Desc: Autodesk Architectural Desktop 2005 |Company: Autodesk,Inc. |WEB Address: www.autodesk.com
 90
      129
 91
        0
280
     0
281
     0
  0
CLASS
  1
AEC_DISP_REP_COLUMN_GRID
  2
AecDbDispRepColumnGrid
  3
AecStructureBase40|Product Desc: Autodesk Architectural Desktop 2005 |Company: Autodesk,Inc. |WEB Address: www.autodesk.com
 90
      129
 91
        0
280
     0
281
     0
  0
CLASS
  1
AEC_DISP_REP_COLUMN_GRID_MODEL
  2
AecDbDispRepColumnGridModel
  3
AecStructureBase40|Product Desc: Autodesk Architectural Desktop 2005 |Company: Autodesk,Inc. |WEB Address: www.autodesk.com
 90
      129
 91
        0
280
     0
281
     0
  0
CLASS
  1
AEC_DISP_REP_CURTAIN_WALL_LAYOUT_MODEL
  2
AecDbDispRepCurtainWallLayoutModel
  3
AecArchBase40|Product Desc: Autodesk Architectural Desktop 2005 |Company: Autodesk,Inc. |WEB Address: www.autodesk.com
 90
      129
 91
        0
280
     0
281
     0
  0
CLASS
  1
AEC_DISP_REP_CURTAIN_WALL_LAYOUT_PLAN
  2
AecDbDispRepCurtainWallLayoutPlan
  3
AecArchBase40|Product Desc: Autodesk Architectural Desktop 2005 |Company: Autodesk,Inc. |WEB Address: www.autodesk.com
 90
      129
 91
        0
280
     0
281
     0
  0
CLASS
  1
AEC_DISP_REP_CURTAIN_WALL_UNIT_MODEL
  2
AecDbDispRepCurtainWallUnitModel
  3
AecArchBase40|Product Desc: Autodesk Architectural Desktop 2005 |Company: Autodesk,Inc. |WEB Address: www.autodesk.com
 90
      129
 91
        0
280
     0
281
     0
  0
CLASS
  1
AEC_DISP_REP_CURTAIN_WALL_UNIT_PLAN
  2
AecDbDispRepCurtainWallUnitPlan
  3
AecArchBase40|Product Desc: Autodesk Architectural Desktop 2005 |Company: Autodesk,Inc. |WEB Address: www.autodesk.com
 90
      129
 91
        0
280
     0
281
     0
  0
CLASS
  1
AEC_DB_DISP_REP_DIM_GROUP_PLAN
  2
AecDbDispRepDimGroupPlan
  3
AecArchDACHBase40|Product Desc: Autodesk Architectural Desktop 2005 |Company: Autodesk,Inc. |WEB Address: www.autodesk.com
 90
      129
 91
        0
280
     0
281
     0
  0
CLASS
  1
AEC_DISP_REP_DOOR_MODEL
  2
AecDbDispRepDoorModel
  3
AecArchBase40|Product Desc: Autodesk Architectural Desktop 2005 |Company: Autodesk,Inc. |WEB Address: www.autodesk.com
 90
      129
 91
        0
280
     0
281
     0
  0
CLASS
  1
AEC_DISP_REP_DOOR_PLAN
  2
AecDbDispRepDoorPlan
  3
AecArchBase40|Product Desc: Autodesk Architectural Desktop 2005 |Company: Autodesk,Inc. |WEB Address: www.autodesk.com
 90
      129
 91
        0
280
     0
281
     0
  0
CLASS
  1
AEC_DISP_REP_DOOR_THRESHOLD_PLAN
  2
AecDbDispRepDoorThresholdPlan
  3
AecArchBase40|Product Desc: Autodesk Architectural Desktop 2005 |Company: Autodesk,Inc. |WEB Address: www.autodesk.com
 90
      129
 91
        0
280
     0
281
     0
  0
CLASS
  1
AEC_DISP_REP_EDITINPLACEPROFILE
  2
AecDbDispRepEditInPlaceProfile
  3
AecBase40|Product Desc: Autodesk Architectural Desktop 2005 |Company: Autodesk,Inc. |WEB Address: www.autodesk.com
 90
      129
 91
        0
280
     0
281
     0
  0
CLASS
  1
AEC_DISP_REP_ENT_REF
  2
AecDbDispRepEntRef
  3
AecBase40|Product Desc: Autodesk Architectural Desktop 2005 |Company: Autodesk,Inc. |WEB Address: www.autodesk.com
 90
      129
 91
        0
280
     0
281
     0
  0
CLASS
  1
AEC_DISP_REP_LAYOUT_CURVE
  2
AecDbDispRepLayoutCurve
  3
AecBase40|Product Desc: Autodesk Architectural Desktop 2005 |Company: Autodesk,Inc. |WEB Address: www.autodesk.com
 90
      129
 91
        0
280
     0
281
     0
  0
CLASS
  1
AEC_DISP_REP_LAYOUT_GRID2D
  2
AecDbDispRepLayoutGrid2d
  3
AecBase40|Product Desc: Autodesk Architectural Desktop 2005 |Company: Autodesk,Inc. |WEB Address: www.autodesk.com
 90
      129
 91
        0
280
     0
281
     0
  0
CLASS
  1
AEC_DISP_REP_LAYOUT_GRID3D
  2
AecDbDispRepLayoutGrid3d
  3
AecBase40|Product Desc: Autodesk Architectural Desktop 2005 |Company: Autodesk,Inc. |WEB Address: www.autodesk.com
 90
      129
 91
        0
280
     0
281
     0
  0
CLASS
  1
AEC_DISP_REP_MASKBLOCK_REF
  2
AecDbDispRepMaskBlockRef
  3
AecBase40|Product Desc: Autodesk Architectural Desktop 2005 |Company: Autodesk,Inc. |WEB Address: www.autodesk.com
 90
      129
 91
        0
280
     0
281
     0
  0
CLASS
  1
AEC_DISP_REP_MASS_ELEM_MODEL
  2
AecDbDispRepMassElemModel
  3
AecBase40|Product Desc: Autodesk Architectural Desktop 2005 |Company: Autodesk,Inc. |WEB Address: www.autodesk.com
 90
      129
 91
        0
280
     0
281
     0
  0
CLASS
  1
AEC_DISP_REP_MASS_ELEM_SCHEM
  2
AecDbDispRepMassElemSchem
  3
AecBase40|Product Desc: Autodesk Architectural Desktop 2005 |Company: Autodesk,Inc. |WEB Address: www.autodesk.com
 90
      129
 91
        0
280
     0
281
     0
  0
CLASS
  1
AEC_DISP_REP_MASS_GROUP_MODEL
  2
AecDbDispRepMassGroupModel
  3
AecBase40|Product Desc: Autodesk Architectural Desktop 2005 |Company: Autodesk,Inc. |WEB Address: www.autodesk.com
 90
      129
 91
        0
280
     0
281
     0
  0
CLASS
  1
AEC_DISP_REP_MASS_GROUP_PLAN
  2
AecDbDispRepMassGroupPlan
  3
AecBase40|Product Desc: Autodesk Architectural Desktop 2005 |Company: Autodesk,Inc. |WEB Address: www.autodesk.com
 90
      129
 91
        0
280
     0
281
     0
  0
CLASS
  1
AEC_DISP_REP_MATERIAL
  2
AecDbDispRepMaterial
  3
AecBase40|Product Desc: Autodesk Architectural Desktop 2005 |Company: Autodesk,Inc. |WEB Address: www.autodesk.com
 90
      129
 91
        0
280
     0
281
     0
  0
CLASS
  1
AEC_DISP_REP_MVBLOCK_REF
  2
AecDbDispRepMvBlockRef
  3
AecBase40|Product Desc: Autodesk Architectural Desktop 2005 |Company: Autodesk,Inc. |WEB Address: www.autodesk.com
 90
      129
 91
        0
280
     0
281
     0
  0
CLASS
  1
AEC_DISP_REP_MVBLOCK_REF_MODEL
  2
AecDbDispRepMvBlockRefModel
  3
AecBase40|Product Desc: Autodesk Architectural Desktop 2005 |Company: Autodesk,Inc. |WEB Address: www.autodesk.com
 90
      129
 91
        0
280
     0
281
     0
  0
CLASS
  1
AEC_DISP_REP_OPENING
  2
AecDbDispRepOpening
  3
AecArchBase40|Product Desc: Autodesk Architectural Desktop 2005 |Company: Autodesk,Inc. |WEB Address: www.autodesk.com
 90
      129
 91
        0
280
     0
281
     0
  0
CLASS
  1
AEC_DISP_REP_OPENING_MODEL
  2
AecDbDispRepOpeningModel
  3
AecArchBase40|Product Desc: Autodesk Architectural Desktop 2005 |Company: Autodesk,Inc. |WEB Address: www.autodesk.com
 90
      129
 91
        0
280
     0
281
     0
  0
CLASS
  1
AEC_DISP_REP_POLYGON_MODEL
  2
AecDbDispRepPolygonModel
  3
AecBase40|Product Desc: Autodesk Architectural Desktop 2005 |Company: Autodesk,Inc. |WEB Address: www.autodesk.com
 90
      129
 91
        0
280
     0
281
     0
  0
CLASS
  1
AEC_DISP_REP_RAILING_MODEL
  2
AecDbDispRepRailingModel
  3
AecArchBase40|Product Desc: Autodesk Architectural Desktop 2005 |Company: Autodesk,Inc. |WEB Address: www.autodesk.com
 90
      129
 91
        0
280
     0
281
     0
  0
CLASS
  1
AEC_DISP_REP_RAILING_PLAN
  2
AecDbDispRepRailingPlan
  3
AecArchBase40|Product Desc: Autodesk Architectural Desktop 2005 |Company: Autodesk,Inc. |WEB Address: www.autodesk.com
 90
      129
 91
        0
280
     0
281
     0
  0
CLASS
  1
AEC_DISP_REP_ROOF_MODEL
  2
AecDbDispRepRoofModel
  3
AecArchBase40|Product Desc: Autodesk Architectural Desktop 2005 |Company: Autodesk,Inc. |WEB Address: www.autodesk.com
 90
      129
 91
        0
280
     0
281
     0
  0
CLASS
  1
AEC_DISP_REP_ROOF_PLAN
  2
AecDbDispRepRoofPlan
  3
AecArchBase40|Product Desc: Autodesk Architectural Desktop 2005 |Company: Autodesk,Inc. |WEB Address: www.autodesk.com
 90
      129
 91
        0
280
     0
281
     0
  0
CLASS
  1
AEC_DISP_REP_ROOFSLAB_MODEL
  2
AecDbDispRepRoofSlabModel
  3
AecArchBase40|Product Desc: Autodesk Architectural Desktop 2005 |Company: Autodesk,Inc. |WEB Address: www.autodesk.com
 90
      129
 91
        0
280
     0
281
     0
  0
CLASS
  1
AEC_DISP_REP_ROOFSLAB_PLAN
  2
AecDbDispRepRoofSlabPlan
  3
AecArchBase40|Product Desc: Autodesk Architectural Desktop 2005 |Company: Autodesk,Inc. |WEB Address: www.autodesk.com
 90
      129
 91
        0
280
     0
281
     0
  0
CLASS
  1
AEC_DISP_REP_SCHEDULE_TABLE
  2
AecDbDispRepScheduleTable
  3
AecSchedule40|Product Desc: Autodesk Architectural Desktop 2004 |Company: Autodesk,Inc. |WEB Address: www.autodesk.com
 90
      129
 91
        0
280
     0
281
     0
  0
CLASS
  1
AEC_DISP_REP_SLAB_MODEL
  2
AecDbDispRepSlabModel
  3
AecArchBase40|Product Desc: Autodesk Architectural Desktop 2005 |Company: Autodesk,Inc. |WEB Address: www.autodesk.com
 90
      129
 91
        0
280
     0
281
     0
  0
CLASS
  1
AEC_DISP_REP_SLAB_PLAN
  2
AecDbDispRepSlabPlan
  3
AecArchBase40|Product Desc: Autodesk Architectural Desktop 2005 |Company: Autodesk,Inc. |WEB Address: www.autodesk.com
 90
      129
 91
        0
280
     0
281
     0
  0
CLASS
  1
AEC_DISP_REP_SLICE
  2
AecDbDispRepSlice
  3
AecBase40|Product Desc: Autodesk Architectural Desktop 2005 |Company: Autodesk,Inc. |WEB Address: www.autodesk.com
 90
      129
 91
        0
280
     0
281
     0
  0
CLASS
  1
AEC_DISP_REP_SPACE_BOUNDARY_MODEL
  2
AecDbDispRepSpaceBoundaryModel
  3
AecArchBase40|Product Desc: Autodesk Architectural Desktop 2005 |Company: Autodesk,Inc. |WEB Address: www.autodesk.com
 90
      129
 91
        0
280
     0
281
     0
  0
CLASS
  1
AEC_DISP_REP_SPACE_BOUNDARY_PLAN
  2
AecDbDispRepSpaceBoundaryPlan
  3
AecArchBase40|Product Desc: Autodesk Architectural Desktop 2005 |Company: Autodesk,Inc. |WEB Address: www.autodesk.com
 90
      129
 91
        0
280
     0
281
     0
  0
CLASS
  1
AEC_DISP_REP_SPACE_MODEL
  2
AecDbDispRepSpaceModel
  3
AecArchBase40|Product Desc: Autodesk Architectural Desktop 2005 |Company: Autodesk,Inc. |WEB Address: www.autodesk.com
 90
      129
 91
        0
280
     0
281
     0
  0
CLASS
  1
AEC_DISP_REP_SPACE_PLAN
  2
AecDbDispRepSpacePlan
  3
AecArchBase40|Product Desc: Autodesk Architectural Desktop 2005 |Company: Autodesk,Inc. |WEB Address: www.autodesk.com
 90
      129
 91
        0
280
     0
281
     0
  0
CLASS
  1
AEC_DISP_REP_STAIR_MODEL
  2
AecDbDispRepStairModel
  3
AecArchBase40|Product Desc: Autodesk Architectural Desktop 2005 |Company: Autodesk,Inc. |WEB Address: www.autodesk.com
 90
      129
 91
        0
280
     0
281
     0
  0
CLASS
  1
AEC_DISP_REP_STAIR_PLAN
  2
AecDbDispRepStairPlan
  3
AecArchBase40|Product Desc: Autodesk Architectural Desktop 2005 |Company: Autodesk,Inc. |WEB Address: www.autodesk.com
 90
      129
 91
        0
280
     0
281
     0
  0
CLASS
  1
AEC_DISP_REP_WALL_MODEL
  2
AecDbDispRepWallModel
  3
AecArchBase40|Product Desc: Autodesk Architectural Desktop 2005 |Company: Autodesk,Inc. |WEB Address: www.autodesk.com
 90
      129
 91
        0
280
     0
281
     0
  0
CLASS
  1
AEC_DISP_REP_WALL_PLAN
  2
AecDbDispRepWallPlan
  3
AecArchBase40|Product Desc: Autodesk Architectural Desktop 2005 |Company: Autodesk,Inc. |WEB Address: www.autodesk.com
 90
      129
 91
        0
280
     0
281
     0
  0
CLASS
  1
AEC_DISP_REP_WINDOW_ASSEMBLY_MODEL
  2
AecDbDispRepWindowAssemblyModel
  3
AecArchBase40|Product Desc: Autodesk Architectural Desktop 2005 |Company: Autodesk,Inc. |WEB Address: www.autodesk.com
 90
      129
 91
        0
280
     0
281
     0
  0
CLASS
  1
AEC_DISP_REP_WINDOW_ASSEMBLY_PLAN
  2
AecDbDispRepWindowAssemblyPlan
  3
AecArchBase40|Product Desc: Autodesk Architectural Desktop 2005 |Company: Autodesk,Inc. |WEB Address: www.autodesk.com
 90
      129
 91
        0
280
     0
281
     0
  0
CLASS
  1
AEC_DISP_REP_WINDOW_MODEL
  2
AecDbDispRepWindowModel
  3
AecArchBase40|Product Desc: Autodesk Architectural Desktop 2005 |Company: Autodesk,Inc. |WEB Address: www.autodesk.com
 90
      129
 91
        0
280
     0
281
     0
  0
CLASS
  1
AEC_DISP_REP_WINDOW_PLAN
  2
AecDbDispRepWindowPlan
  3
AecArchBase40|Product Desc: Autodesk Architectural Desktop 2005 |Company: Autodesk,Inc. |WEB Address: www.autodesk.com
 90
      129
 91
        0
280
     0
281
     0
  0
CLASS
  1
AEC_DISP_REP_WINDOW_SILL_PLAN
  2
AecDbDispRepWindowSillPlan
  3
AecArchBase40|Product Desc: Autodesk Architectural Desktop 2005 |Company: Autodesk,Inc. |WEB Address: www.autodesk.com
 90
      129
 91
        0
280
     0
281
     0
  0
CLASS
  1
AECS_DISP_REP_MEMBER_MODEL_DESIGN
  2
AecsDbDispRepMemberModelDesign
  3
AecStructureBase40|Product Desc: Autodesk Architectural Desktop 2005 |Company: Autodesk,Inc. |WEB Address: www.autodesk.com
 90
      129
 91
        0
280
     0
281
     0
  0
CLASS
  1
AECS_DISP_REP_MEMBER_PLAN_DESIGN
  2
AecsDbDispRepMemberPlanDesign
  3
AecStructureBase40|Product Desc: Autodesk Architectural Desktop 2005 |Company: Autodesk,Inc. |WEB Address: www.autodesk.com
 90
      129
 91
        0
280
     0
281
     0
  0
CLASS
  1
AEC_DISP_PROPS_CAMERA
  2
AecDbDispPropsCamera
  3
AecBase40|Product Desc: Autodesk Architectural Desktop 2005 |Company: Autodesk,Inc. |WEB Address: www.autodesk.com
 90
      129
 91
        0
280
     0
281
     0
  0
CLASS
  1
AEC_DISP_PROPS_LAYOUT_GRID2D
  2
AecDbDispPropsLayoutGrid2d
  3
AecBase40|Product Desc: Autodesk Architectural Desktop 2005 |Company: Autodesk,Inc. |WEB Address: www.autodesk.com
 90
      129
 91
        0
280
     0
281
     0
  0
CLASS
  1
AEC_DISP_PROPS_OPENING
  2
AecDbDispPropsOpening
  3
AecArchBase40|Product Desc: Autodesk Architectural Desktop 2005 |Company: Autodesk,Inc. |WEB Address: www.autodesk.com
 90
      129
 91
        0
280
     0
281
     0
  0
CLASS
  1
AEC_DISP_PROPS_MASS_GROUP
  2
AecDbDispPropsMassGroup
  3
AecBase40|Product Desc: Autodesk Architectural Desktop 2005 |Company: Autodesk,Inc. |WEB Address: www.autodesk.com
 90
      129
 91
        0
280
     0
281
     0
  0
CLASS
  1
AEC_DISP_PROPS_ROOFSLAB
  2
AecDbDispPropsRoofSlab
  3
AecArchBase40|Product Desc: Autodesk Architectural Desktop 2005 |Company: Autodesk,Inc. |WEB Address: www.autodesk.com
 90
      129
 91
        0
280
     0
281
     0
  0
CLASS
  1
AEC_DISP_PROPS_STAIR_MODEL
  2
AecDbDispPropsStairModel
  3
AecArchBase40|Product Desc: Autodesk Architectural Desktop 2005 |Company: Autodesk,Inc. |WEB Address: www.autodesk.com
 90
      129
 91
        0
280
     0
281
     0
  0
CLASS
  1
AEC_DISP_PROPS_ENT
  2
AecDbDispPropsEnt
  3
AecBase40|Product Desc: Autodesk Architectural Desktop 2005 |Company: Autodesk,Inc. |WEB Address: www.autodesk.com
 90
      129
 91
        0
280
     0
281
     0
  0
CLASS
  1
AEC_DISP_PROPS_CLIP_VOLUME
  2
AecDbDispPropsClipVol
  3
AecBase40|Product Desc: Autodesk Architectural Desktop 2005 |Company: Autodesk,Inc. |WEB Address: www.autodesk.com
 90
      129
 91
        0
280
     0
281
     0
  0
CLASS
  1
AEC_DISP_PROPS_STAIR_PLAN
  2
AecDbDispPropsStairPlan
  3
AecArchBase40|Product Desc: Autodesk Architectural Desktop 2005 |Company: Autodesk,Inc. |WEB Address: www.autodesk.com
 90
      129
 91
        0
280
     0
281
     0
  0
CLASS
  1
AEC_DISP_PROPS_CLIP_VOLUME_RESULT
  2
AecDbDispPropsClipVolResSubDiv
  3
AecBase40|Product Desc: Autodesk Architectural Desktop 2005 |Company: Autodesk,Inc. |WEB Address: www.autodesk.com
 90
      129
 91
        0
280
     0
281
     0
  0
CLASS
  1
AEC_DISP_PROPS_SPACE_MODEL
  2
AecDbDispPropsSpaceModel
  3
AecArchBase40|Product Desc: Autodesk Architectural Desktop 2005 |Company: Autodesk,Inc. |WEB Address: www.autodesk.com
 90
      129
 91
        0
280
     0
281
     0
  0
CLASS
  1
AEC_DISP_PROPS_2D_SECTION
  2
AecDbDispProps2dSection
  3
AecBase40|Product Desc: Autodesk Architectural Desktop 2005 |Company: Autodesk,Inc. |WEB Address: www.autodesk.com
 90
      129
 91
        0
280
     0
281
     0
  0
CLASS
  1
AEC_DISP_PROPS_DOOR_THRESHOLD_PLAN
  2
AecDbDispPropsDoorThresholdPlan
  3
AecArchBase40|Product Desc: Autodesk Architectural Desktop 2005 |Company: Autodesk,Inc. |WEB Address: www.autodesk.com
 90
      129
 91
        0
280
     0
281
     0
  0
CLASS
  1
AEC_DISP_PROPS_POLYGON_MODEL
  2
AecDbDispPropsPolygonModel
  3
AecBase40|Product Desc: Autodesk Architectural Desktop 2005 |Company: Autodesk,Inc. |WEB Address: www.autodesk.com
 90
      129
 91
        0
280
     0
281
     0
  0
CLASS
  1
AEC_DISP_PROPS_GRID_ASSEMBLY_MODEL
  2
AecDbDispPropsGridAssemblyModel
  3
AecArchBase40|Product Desc: Autodesk Architectural Desktop 2005 |Company: Autodesk,Inc. |WEB Address: www.autodesk.com
 90
      129
 91
        0
280
     0
281
     0
  0
CLASS
  1
AEC_DISP_PROPS_AREA
  2
AecDbDispPropsArea
  3
AecAreaCalculationBase40|Product Desc: Autodesk Architectural Desktop 2005 |Company: Autodesk,Inc. |WEB Address: www.autodesk.com
 90
      129
 91
        0
280
     0
281
     0
  0
CLASS
  1
AEC_DISP_PROPS_SPACE_PLAN
  2
AecDbDispPropsSpacePlan
  3
AecArchBase40|Product Desc: Autodesk Architectural Desktop 2005 |Company: Autodesk,Inc. |WEB Address: www.autodesk.com
 90
      129
 91
        0
280
     0
281
     0
  0
CLASS
  1
AEC_DISP_PROPS_GRID_ASSEMBLY_PLAN
  2
AecDbDispPropsGridAssemblyPlan
  3
AecArchBase40|Product Desc: Autodesk Architectural Desktop 2005 |Company: Autodesk,Inc. |WEB Address: www.autodesk.com
 90
      129
 91
        0
280
     0
281
     0
  0
CLASS
  1
AEC_DISP_PROPS_WINDOW
  2
AecDbDispPropsWindow
  3
AecArchBase40|Product Desc: Autodesk Architectural Desktop 2005 |Company: Autodesk,Inc. |WEB Address: www.autodesk.com
 90
      129
 91
        0
280
     0
281
     0
  0
CLASS
  1
AEC_DISP_PROPS_ROOFSLAB_PLAN
  2
AecDbDispPropsRoofSlabPlan
  3
AecArchBase40|Product Desc: Autodesk Architectural Desktop 2005 |Company: Autodesk,Inc. |WEB Address: www.autodesk.com
 90
      129
 91
        0
280
     0
281
     0
  0
CLASS
  1
AEC_DISP_PROPS_SLAB_PLAN
  2
AecDbDispPropsSlabPlan
  3
AecArchBase40|Product Desc: Autodesk Architectural Desktop 2005 |Company: Autodesk,Inc. |WEB Address: www.autodesk.com
 90
      129
 91
        0
280
     0
281
     0
  0
CLASS
  1
AEC_DISP_PROPS_ROOF
  2
AecDbDispPropsRoof
  3
AecArchBase40|Product Desc: Autodesk Architectural Desktop 2005 |Company: Autodesk,Inc. |WEB Address: www.autodesk.com
 90
      129
 91
        0
280
     0
281
     0
  0
CLASS
  1
AEC_DISP_PROPS_WALL_MODEL
  2
AecDbDispPropsWallModel
  3
AecArchBase40|Product Desc: Autodesk Architectural Desktop 2005 |Company: Autodesk,Inc. |WEB Address: www.autodesk.com
 90
      129
 91
        0
280
     0
281
     0
  0
CLASS
  1
AEC_DISP_PROPS_AREAGROUP
  2
AecDbDispPropsAreaGroup
  3
AecAreaCalculationBase40|Product Desc: Autodesk Architectural Desktop 2005 |Company: Autodesk,Inc. |WEB Address: www.autodesk.com
 90
      129
 91
        0
280
     0
281
     0
  0
CLASS
  1
AEC_DISP_PROPS_WALL_PLAN
  2
AecDbDispPropsWallPlan
  3
AecArchBase40|Product Desc: Autodesk Architectural Desktop 2005 |Company: Autodesk,Inc. |WEB Address: www.autodesk.com
 90
      129
 91
        0
280
     0
281
     0
  0
CLASS
  1
AEC_DISP_PROPS_DOOR
  2
AecDbDispPropsDoor
  3
AecArchBase40|Product Desc: Autodesk Architectural Desktop 2005 |Company: Autodesk,Inc. |WEB Address: www.autodesk.com
 90
      129
 91
        0
280
     0
281
     0
  0
CLASS
  1
AEC_DISP_PROPS_ENT_REF
  2
AecDbDispPropsEntRef
  3
AecBase40|Product Desc: Autodesk Architectural Desktop 2005 |Company: Autodesk,Inc. |WEB Address: www.autodesk.com
 90
      129
 91
        0
280
     0
281
     0
  0
CLASS
  1
AECS_DISP_PROPS_MEMBER
  2
AecsDbDispPropsMember
  3
AecStructureBase40|Product Desc: Autodesk Architectural Desktop 2005 |Company: Autodesk,Inc. |WEB Address: www.autodesk.com
 90
      129
 91
        0
280
     0
281
     0
  0
CLASS
  1
AEC_DISP_PROPS_RAILING_MODEL
  2
AecDbDispPropsRailingModel
  3
AecArchBase40|Product Desc: Autodesk Architectural Desktop 2005 |Company: Autodesk,Inc. |WEB Address: www.autodesk.com
 90
      129
 91
        0
280
     0
281
     0
  0
CLASS
  1
AEC_DISP_PROPS_MASS_ELEM_MODEL
  2
AecDbDispPropsMassElem
  3
AecBase40|Product Desc: Autodesk Architectural Desktop 2005 |Company: Autodesk,Inc. |WEB Address: www.autodesk.com
 90
      129
 91
        0
280
     0
281
     0
  0
CLASS
  1
AECS_DISP_PROPS_MEMBER_PLAN
  2
AecsDbDispPropsMemberPlan
  3
AecStructureBase40|Product Desc: Autodesk Architectural Desktop 2005 |Company: Autodesk,Inc. |WEB Address: www.autodesk.com
 90
      129
 91
        0
280
     0
281
     0
  0
CLASS
  1
AEC_DISP_PROPS_EDITINPLACEPROFILE_MODEL
  2
AecDbDispPropsEditInPlaceProfile
  3
AecBase40|Product Desc: Autodesk Architectural Desktop 2005 |Company: Autodesk,Inc. |WEB Address: www.autodesk.com
 90
      129
 91
        0
280
     0
281
     0
  0
CLASS
  1
AEC_DISP_PROPS_WINDOW_SILL_PLAN
  2
AecDbDispPropsWindowSillPlan
  3
AecArchBase40|Product Desc: Autodesk Architectural Desktop 2005 |Company: Autodesk,Inc. |WEB Address: www.autodesk.com
 90
      129
 91
        0
280
     0
281
     0
  0
CLASS
  1
AEC_DISP_PROPS_MATERIAL
  2
AecDbDispPropsMaterial
  3
AecBase40|Product Desc: Autodesk Architectural Desktop 2005 |Company: Autodesk,Inc. |WEB Address: www.autodesk.com
 90
      129
 91
        0
280
     0
281
     0
  0
CLASS
  1
AEC_DISP_PROPS_MASKBLOCK
  2
AecDbDispPropsMaskBlock
  3
AecBase40|Product Desc: Autodesk Architectural Desktop 2005 |Company: Autodesk,Inc. |WEB Address: www.autodesk.com
 90
      129
 91
        0
280
     0
281
     0
  0
CLASS
  1
AEC_DISP_PROPS_SLAB
  2
AecDbDispPropsSlab
  3
AecArchBase40|Product Desc: Autodesk Architectural Desktop 2005 |Company: Autodesk,Inc. |WEB Address: www.autodesk.com
 90
      129
 91
        0
280
     0
281
     0
  0
CLASS
  1
AEC_DISP_PROPS_SLICE
  2
AecDbDispPropsSlice
  3
AecBase40|Product Desc: Autodesk Architectural Desktop 2005 |Company: Autodesk,Inc. |WEB Address: www.autodesk.com
 90
      129
 91
        0
280
     0
281
     0
  0
CLASS
  1
AEC_DISP_PROPS_SPACE_BOUNDARY
  2
AecDbDispPropsSpaceBoundary
  3
AecArchBase40|Product Desc: Autodesk Architectural Desktop 2005 |Company: Autodesk,Inc. |WEB Address: www.autodesk.com
 90
      129
 91
        0
280
     0
281
     0
  0
CLASS
  1
AEC_DISP_PROPS_SCHEDULE_TABLE
  2
AecDbDispPropsScheduleTable
  3
AecSchedule40|Product Desc: Autodesk Architectural Desktop 2004 |Company: Autodesk,Inc. |WEB Address: www.autodesk.com
 90
      129
 91
        0
280
     0
281
     0
  0
CLASS
  1
AEC_DISP_PROPS_RAILING_PLAN
  2
AecDbDispPropsRailingPlan
  3
AecArchBase40|Product Desc: Autodesk Architectural Desktop 2005 |Company: Autodesk,Inc. |WEB Address: www.autodesk.com
 90
      129
 91
        0
280
     0
281
     0
  0
CLASS
  1
AEC_DISP_PROPS_DIM
  2
AecDbDispPropsDimGroup
  3
AecArchDACHBase40|Product Desc: Autodesk Architectural Desktop 2005 |Company: Autodesk,Inc. |WEB Address: www.autodesk.com
 90
      129
 91
        0
280
     0
281
     0
  0
CLASS
  1
AEC_DISP_PROPS_LAYOUT_CURVE
  2
AecDbDispPropsLayoutCurve
  3
AecBase40|Product Desc: Autodesk Architectural Desktop 2005 |Company: Autodesk,Inc. |WEB Address: www.autodesk.com
 90
      129
 91
        0
280
     0
281
     0
  0
CLASS
  1
AEC_DISP_PROPS_LAYOUT_GRID3D
  2
AecDbDispPropsLayoutGrid3d
  3
AecBase40|Product Desc: Autodesk Architectural Desktop 2005 |Company: Autodesk,Inc. |WEB Address: www.autodesk.com
 90
      129
 91
        0
280
     0
281
     0
  0
CLASS
  1
AEC_LAYERKEY_STYLE
  2
AecDbLayerKeyStyle
  3
AecBase40|Product Desc: Autodesk Architectural Desktop 2005 |Company: Autodesk,Inc. |WEB Address: www.autodesk.com
 90
      129
 91
        0
280
     0
281
     0
  0
CLASS
  1
AEC_VARS_ARCHBASE
  2
AecDbVarsArchBase
  3
AecArchBase40|Product Desc: Autodesk Architectural Desktop 2005 |Company: Autodesk,Inc. |WEB Address: www.autodesk.com
 90
      129
 91
        0
280
     0
281
     0
  0
CLASS
  1
AEC_VARS_MUNICH
  2
AecDbVarsMunich
  3
AecArchDACHBase40|Product Desc: Autodesk Architectural Desktop 2005 |Company: Autodesk,Inc. |WEB Address: www.autodesk.com
 90
      129
 91
        0
280
     0
281
     0
  0
CLASS
  1
AEC_NOTIFICATION_TRACKER
  2
AecDbNotificationTracker
  3
AecBase40|Product Desc: Autodesk Architectural Desktop 2005 |Company: Autodesk,Inc. |WEB Address: www.autodesk.com
 90
      129
 91
        0
280
     0
281
     0
  0
CLASS
  1
AEC_DISP_REP_ANCHOR
  2
AecDbDispRepAnchor
  3
AecBase40|Product Desc: Autodesk Architectural Desktop 2005 |Company: Autodesk,Inc. |WEB Address: www.autodesk.com
 90
      129
 91
        0
280
     0
281
     0
  0
CLASS
  1
AEC_DISP_REP_CLIP_VOLUME_RESULT
  2
AecDbDispRepClipVolResult
  3
AecBase40|Product Desc: Autodesk Architectural Desktop 2005 |Company: Autodesk,Inc. |WEB Address: www.autodesk.com
 90
      129
 91
        0
280
     0
281
     0
  0
CLASS
  1
AEC_DISP_REP_POLYGON_TRUECOLOUR
  2
AecDbDispRepPolygonTrueColour
  3
AecBase40|Product Desc: Autodesk Architectural Desktop 2005 |Company: Autodesk,Inc. |WEB Address: www.autodesk.com
 90
      129
 91
        0
280
     0
281
     0
  0
CLASS
  1
AEC_DISP_PROPS_POLYGON_TRUECOLOUR
  2
AecDbDispPropsPolygonTrueColour
  3
AecBase40|Product Desc: Autodesk Architectural Desktop 2005 |Company: Autodesk,Inc. |WEB Address: www.autodesk.com
 90
      129
 91
        0
280
     0
281
     0
  0
CLASS
  1
AEC_DISP_REP_ANCHOR_TAG_TO_ENT
  2
AecDbDispRepAnchorTagToEnt
  3
AecScheduleData40|Product Desc: Autodesk Architectural Desktop 2005 |Company: Autodesk,Inc. |WEB Address: www.autodesk.com
 90
      129
 91
        0
280
     0
281
     0
  0
CLASS
  1
AEC_DISP_REP_ANCHOR_BUB_TO_GRID_RCP
  2
AecDbDispRepAnchorBubToGridRcp
  3
AecStructureBase40|Product Desc: Autodesk Architectural Desktop 2005 |Company: Autodesk,Inc. |WEB Address: www.autodesk.com
 90
      129
 91
        0
280
     0
281
     0
  0
CLASS
  1
AEC_DISP_REP_COLUMN_GRID_RCP
  2
AecDbDispRepColumnGridRcp
  3
AecStructureBase40|Product Desc: Autodesk Architectural Desktop 2005 |Company: Autodesk,Inc. |WEB Address: www.autodesk.com
 90
      129
 91
        0
280
     0
281
     0
  0
CLASS
  1
AECS_DISP_REP_MEMBER_ELEVATION_DESIGN
  2
AecsDbDispRepMemberElevationDesign
  3
AecStructureBase40|Product Desc: Autodesk Architectural Desktop 2005 |Company: Autodesk,Inc. |WEB Address: www.autodesk.com
 90
      129
 91
        0
280
     0
281
     0
  0
CLASS
  1
AECS_DISP_PROPS_MEMBER_PROJECTED
  2
AecsDbDispPropsMemberProjected
  3
AecStructureBase40|Product Desc: Autodesk Architectural Desktop 2005 |Company: Autodesk,Inc. |WEB Address: www.autodesk.com
 90
      129
 91
        0
280
     0
281
     0
  0
CLASS
  1
AECS_DISP_REP_MEMBER_ELEVATION_DETAIL
  2
AecsDbDispRepMemberElevationDetail
  3
AecStructureBase40|Product Desc: Autodesk Architectural Desktop 2005 |Company: Autodesk,Inc. |WEB Address: www.autodesk.com
 90
      129
 91
        0
280
     0
281
     0
  0
CLASS
  1
AECS_DISP_REP_MEMBER_LOGICAL
  2
AecsDbDispRepMemberLogical
  3
AecStructureBase40|Product Desc: Autodesk Architectural Desktop 2005 |Company: Autodesk,Inc. |WEB Address: www.autodesk.com
 90
      129
 91
        0
280
     0
281
     0
  0
CLASS
  1
AECS_DISP_PROPS_MEMBER_LOGICAL
  2
AecsDbDispPropsMemberLogical
  3
AecStructureBase40|Product Desc: Autodesk Architectural Desktop 2005 |Company: Autodesk,Inc. |WEB Address: www.autodesk.com
 90
      129
 91
        0
280
     0
281
     0
  0
CLASS
  1
AECS_DISP_REP_MEMBER_MODEL_DETAIL
  2
AecsDbDispRepMemberModelDetail
  3
AecStructureBase40|Product Desc: Autodesk Architectural Desktop 2005 |Company: Autodesk,Inc. |WEB Address: www.autodesk.com
 90
      129
 91
        0
280
     0
281
     0
  0
CLASS
  1
AECS_DISP_REP_MEMBER_PLAN_DETAIL
  2
AecsDbDispRepMemberPlanDetail
  3
AecStructureBase40|Product Desc: Autodesk Architectural Desktop 2005 |Company: Autodesk,Inc. |WEB Address: www.autodesk.com
 90
      129
 91
        0
280
     0
281
     0
  0
CLASS
  1
AECS_DISP_REP_MEMBER_PLAN_SKETCH
  2
AecsDbDispRepMemberPlanSketch
  3
AecStructureBase40|Product Desc: Autodesk Architectural Desktop 2005 |Company: Autodesk,Inc. |WEB Address: www.autodesk.com
 90
      129
 91
        0
280
     0
281
     0
  0
CLASS
  1
AECS_DISP_PROPS_MEMBER_PLAN_SKETCH
  2
AecsDbDispPropsMemberPlanSketch
  3
AecStructureBase40|Product Desc: Autodesk Architectural Desktop 2005 |Company: Autodesk,Inc. |WEB Address: www.autodesk.com
 90
      129
 91
        0
280
     0
281
     0
  0
CLASS
  1
AEC_DISP_REP_BDG_ELEVLINE_RCP
  2
AecDbDispRepBdgElevLineRcp
  3
AecArchBase40|Product Desc: Autodesk Architectural Desktop 2005 |Company: Autodesk,Inc. |WEB Address: www.autodesk.com
 90
      129
 91
        0
280
     0
281
     0
  0
CLASS
  1
AEC_DISP_REP_BDG_SECTIONLINE_RCP
  2
AecDbDispRepBdgSectionLineRcp
  3
AecArchBase40|Product Desc: Autodesk Architectural Desktop 2005 |Company: Autodesk,Inc. |WEB Address: www.autodesk.com
 90
      129
 91
        0
280
     0
281
     0
  0
CLASS
  1
AEC_DISP_REP_BDG_SECTION_MODEL
  2
AecDbDispRepBdgSectionModel
  3
AecArchBase40|Product Desc: Autodesk Architectural Desktop 2005 |Company: Autodesk,Inc. |WEB Address: www.autodesk.com
 90
      129
 91
        0
280
     0
281
     0
  0
CLASS
  1
AEC_DISP_REP_CEILING_GRID_RCP
  2
AecDbDispRepCeilingGridRcp
  3
AecArchBase40|Product Desc: Autodesk Architectural Desktop 2005 |Company: Autodesk,Inc. |WEB Address: www.autodesk.com
 90
      129
 91
        0
280
     0
281
     0
  0
CLASS
  1
AEC_DISP_REP_DOOR_ELEV
  2
AecDbDispRepDoorElev
  3
AecArchBase40|Product Desc: Autodesk Architectural Desktop 2005 |Company: Autodesk,Inc. |WEB Address: www.autodesk.com
 90
      129
 91
        0
280
     0
281
     0
  0
CLASS
  1
AEC_DISP_REP_DOOR_NOMINAL
  2
AecDbDispRepDoorNominal
  3
AecArchBase40|Product Desc: Autodesk Architectural Desktop 2005 |Company: Autodesk,Inc. |WEB Address: www.autodesk.com
 90
      129
 91
        0
280
     0
281
     0
  0
CLASS
  1
AEC_DISP_PROPS_DOOR_NOMINAL
  2
AecDbDispPropsDoorNominal
  3
AecArchBase40|Product Desc: Autodesk Architectural Desktop 2005 |Company: Autodesk,Inc. |WEB Address: www.autodesk.com
 90
      129
 91
        0
280
     0
281
     0
  0
CLASS
  1
AEC_DISP_REP_DOOR_RCP
  2
AecDbDispRepDoorRcp
  3
AecArchBase40|Product Desc: Autodesk Architectural Desktop 2005 |Company: Autodesk,Inc. |WEB Address: www.autodesk.com
 90
      129
 91
        0
280
     0
281
     0
  0
CLASS
  1
AEC_DISP_REP_MASKBLOCK_REF_RCP
  2
AecDbDispRepMaskBlockRefRcp
  3
AecArchBase40|Product Desc: Autodesk Architectural Desktop 2005 |Company: Autodesk,Inc. |WEB Address: www.autodesk.com
 90
      129
 91
        0
280
     0
281
     0
  0
CLASS
  1
AEC_DISP_REP_MASS_ELEM_RCP
  2
AecDbDispRepMassElemRcp
  3
AecArchBase40|Product Desc: Autodesk Architectural Desktop 2005 |Company: Autodesk,Inc. |WEB Address: www.autodesk.com
 90
      129
 91
        0
280
     0
281
     0
  0
CLASS
  1
AEC_DISP_REP_MASS_GROUP_RCP
  2
AecDbDispRepMassGroupRcp
  3
AecArchBase40|Product Desc: Autodesk Architectural Desktop 2005 |Company: Autodesk,Inc. |WEB Address: www.autodesk.com
 90
      129
 91
        0
280
     0
281
     0
  0
CLASS
  1
AEC_DISP_REP_MVBLOCK_REF_RCP
  2
AecDbDispRepMvBlockRefRcp
  3
AecArchBase40|Product Desc: Autodesk Architectural Desktop 2005 |Company: Autodesk,Inc. |WEB Address: www.autodesk.com
 90
      129
 91
        0
280
     0
281
     0
  0
CLASS
  1
AEC_DISP_REP_ROOF_RCP
  2
AecDbDispRepRoofRcp
  3
AecArchBase40|Product Desc: Autodesk Architectural Desktop 2005 |Company: Autodesk,Inc. |WEB Address: www.autodesk.com
 90
      129
 91
        0
280
     0
281
     0
  0
CLASS
  1
AEC_DISP_REP_SPACE_BOUNDARY_DIAGRAM
  2
AecDbDispRepSpaceBoundaryDgrm
  3
AecArchBase40|Product Desc: Autodesk Architectural Desktop 2005 |Company: Autodesk,Inc. |WEB Address: www.autodesk.com
 90
      129
 91
        0
280
     0
281
     0
  0
CLASS
  1
AEC_DISP_REP_SPACE_BOUNDARY_SCHEM
  2
AecDbDispRepSpaceBoundarySketch
  3
AecArchBase40|Product Desc: Autodesk Architectural Desktop 2005 |Company: Autodesk,Inc. |WEB Address: www.autodesk.com
 90
      129
 91
        0
280
     0
281
     0
  0
CLASS
  1
AEC_DISP_REP_SPACE_RCP
  2
AecDbDispRepSpaceRcp
  3
AecArchBase40|Product Desc: Autodesk Architectural Desktop 2005 |Company: Autodesk,Inc. |WEB Address: www.autodesk.com
 90
      129
 91
        0
280
     0
281
     0
  0
CLASS
  1
AEC_DISP_REP_SPACE_VOLUME
  2
AecDbDispRepSpaceVolume
  3
AecArchBase40|Product Desc: Autodesk Architectural Desktop 2005 |Company: Autodesk,Inc. |WEB Address: www.autodesk.com
 90
      129
 91
        0
280
     0
281
     0
  0
CLASS
  1
AEC_DISP_REP_STAIR_PLAN_OVERLAPPING
  2
AecDbDispRepStairPlanOverlapping
  3
AecArchBase40|Product Desc: Autodesk Architectural Desktop 2005 |Company: Autodesk,Inc. |WEB Address: www.autodesk.com
 90
      129
 91
        0
280
     0
281
     0
  0
CLASS
  1
AEC_DISP_PROPS_STAIR_PLAN_OVERLAPPING
  2
AecDbDispPropsStairPlanOverlapping
  3
AecArchBase40|Product Desc: Autodesk Architectural Desktop 2005 |Company: Autodesk,Inc. |WEB Address: www.autodesk.com
 90
      129
 91
        0
280
     0
281
     0
  0
CLASS
  1
AEC_DISP_REP_STAIR_RCP
  2
AecDbDispRepStairRcp
  3
AecArchBase40|Product Desc: Autodesk Architectural Desktop 2005 |Company: Autodesk,Inc. |WEB Address: www.autodesk.com
 90
      129
 91
        0
280
     0
281
     0
  0
CLASS
  1
AEC_DISP_REP_WALL_GRAPH
  2
AecDbDispRepWallGraph
  3
AecArchBase40|Product Desc: Autodesk Architectural Desktop 2005 |Company: Autodesk,Inc. |WEB Address: www.autodesk.com
 90
      129
 91
        0
280
     0
281
     0
  0
CLASS
  1
AEC_DISP_PROPS_WALL_GRAPH
  2
AecDbDispPropsWallGraph
  3
AecArchBase40|Product Desc: Autodesk Architectural Desktop 2005 |Company: Autodesk,Inc. |WEB Address: www.autodesk.com
 90
      129
 91
        0
280
     0
281
     0
  0
CLASS
  1
AEC_DISP_REP_WALL_RCP
  2
AecDbDispRepWallRcp
  3
AecArchBase40|Product Desc: Autodesk Architectural Desktop 2005 |Company: Autodesk,Inc. |WEB Address: www.autodesk.com
 90
      129
 91
        0
280
     0
281
     0
  0
CLASS
  1
AEC_DISP_REP_WALL_SCHEM
  2
AecDbDispRepWallSchem
  3
AecArchBase40|Product Desc: Autodesk Architectural Desktop 2005 |Company: Autodesk,Inc. |WEB Address: www.autodesk.com
 90
      129
 91
        0
280
     0
281
     0
  0
CLASS
  1
AEC_DISP_PROPS_WALL_SCHEM
  2
AecDbDispPropsWallSchem
  3
AecArchBase40|Product Desc: Autodesk Architectural Desktop 2005 |Company: Autodesk,Inc. |WEB Address: www.autodesk.com
 90
      129
 91
        0
280
     0
281
     0
  0
CLASS
  1
AEC_DISP_REP_WINDOWASSEMBLY_SILL_PLAN
  2
AecDbDispRepWindowAssemblySillPlan
  3
AecArchBase40|Product Desc: Autodesk Architectural Desktop 2005 |Company: Autodesk,Inc. |WEB Address: www.autodesk.com
 90
      129
 91
        0
280
     0
281
     0
  0
CLASS
  1
AEC_DISP_PROPS_WINDOW_ASSEMBLY_SILL_PLAN
  2
AecDbDispPropsWindowAssemblySillPlan
  3
AecArchBase40|Product Desc: Autodesk Architectural Desktop 2005 |Company: Autodesk,Inc. |WEB Address: www.autodesk.com
 90
      129
 91
        0
280
     0
281
     0
  0
CLASS
  1
AEC_DISP_REP_WINDOW_ELEV
  2
AecDbDispRepWindowElev
  3
AecArchBase40|Product Desc: Autodesk Architectural Desktop 2005 |Company: Autodesk,Inc. |WEB Address: www.autodesk.com
 90
      129
 91
        0
280
     0
281
     0
  0
CLASS
  1
AEC_DISP_REP_WINDOW_NOMINAL
  2
AecDbDispRepWindowNominal
  3
AecArchBase40|Product Desc: Autodesk Architectural Desktop 2005 |Company: Autodesk,Inc. |WEB Address: www.autodesk.com
 90
      129
 91
        0
280
     0
281
     0
  0
CLASS
  1
AEC_DISP_PROPS_WINDOW_NOMINAL
  2
AecDbDispPropsWindowNominal
  3
AecArchBase40|Product Desc: Autodesk Architectural Desktop 2005 |Company: Autodesk,Inc. |WEB Address: www.autodesk.com
 90
      129
 91
        0
280
     0
281
     0
  0
CLASS
  1
AEC_DISP_REP_WINDOW_RCP
  2
AecDbDispRepWindowRcp
  3
AecArchBase40|Product Desc: Autodesk Architectural Desktop 2005 |Company: Autodesk,Inc. |WEB Address: www.autodesk.com
 90
      129
 91
        0
280
     0
281
     0
  0
CLASS
  1
AEC_DISP_REP_AREA_DECOMPOSED
  2
AecDbDispRepAreaDecomposed
  3
AecAreaCalculationBase40|Product Desc: Autodesk Architectural Desktop 2005 |Company: Autodesk,Inc. |WEB Address: www.autodesk.com
 90
      129
 91
        0
280
     0
281
     0
  0
CLASS
  1
AEC_DISP_PROPS_AREA_DECOMPOSED
  2
AecDbDispPropsAreaDecomposed
  3
AecAreaCalculationBase40|Product Desc: Autodesk Architectural Desktop 2005 |Company: Autodesk,Inc. |WEB Address: www.autodesk.com
 90
      129
 91
        0
280
     0
281
     0
  0
CLASS
  1
AEC_AECDBDISPREPAREA100
  2
AecDbDispRepArea100
  3
AecBase40|Product Desc: Autodesk Architectural Desktop 2005 |Company: Autodesk,Inc. |WEB Address: www.autodesk.com
 90
      129
 91
        0
280
     0
281
     0
  0
CLASS
  1
AEC_AECDBDISPREPAREAGROUP100
  2
AecDbDispRepAreaGroup100
  3
AecBase40|Product Desc: Autodesk Architectural Desktop 2005 |Company: Autodesk,Inc. |WEB Address: www.autodesk.com
 90
      129
 91
        0
280
     0
281
     0
  0
CLASS
  1
AEC_AECDBDISPREPBDGELEVLINEPLAN100
  2
AecDbDispRepBdgElevLinePlan100
  3
AecBase40|Product Desc: Autodesk Architectural Desktop 2005 |Company: Autodesk,Inc. |WEB Address: www.autodesk.com
 90
      129
 91
        0
280
     0
281
     0
  0
CLASS
  1
AEC_AECDBDISPREPBDGSECTIONLINEPLAN100
  2
AecDbDispRepBdgSectionLinePlan100
  3
AecBase40|Product Desc: Autodesk Architectural Desktop 2005 |Company: Autodesk,Inc. |WEB Address: www.autodesk.com
 90
      129
 91
        0
280
     0
281
     0
  0
CLASS
  1
AEC_AECDBDISPREPCEILINGGRIDPLAN100
  2
AecDbDispRepCeilingGridPlan100
  3
AecBase40|Product Desc: Autodesk Architectural Desktop 2005 |Company: Autodesk,Inc. |WEB Address: www.autodesk.com
 90
      129
 91
        0
280
     0
281
     0
  0
CLASS
  1
AEC_AECDBDISPREPCOLUMNGRIDPLAN100
  2
AecDbDispRepColumnGridPlan100
  3
AecBase40|Product Desc: Autodesk Architectural Desktop 2005 |Company: Autodesk,Inc. |WEB Address: www.autodesk.com
 90
      129
 91
        0
280
     0
281
     0
  0
CLASS
  1
AEC_AECDBDISPREPCURTAINWALLLAYOUTPLAN100
  2
AecDbDispRepCurtainWallLayoutPlan100
  3
AecBase40|Product Desc: Autodesk Architectural Desktop 2005 |Company: Autodesk,Inc. |WEB Address: www.autodesk.com
 90
      129
 91
        0
280
     0
281
     0
  0
CLASS
  1
AEC_AECDBDISPREPCURTAINWALLUNITPLAN100
  2
AecDbDispRepCurtainWallUnitPlan100
  3
AecBase40|Product Desc: Autodesk Architectural Desktop 2005 |Company: Autodesk,Inc. |WEB Address: www.autodesk.com
 90
      129
 91
        0
280
     0
281
     0
  0
CLASS
  1
AEC_AECDBDISPREPMVBLOCKREFPLAN100
  2
AecDbDispRepMvBlockRefPlan100
  3
AecBase40|Product Desc: Autodesk Architectural Desktop 2005 |Company: Autodesk,Inc. |WEB Address: www.autodesk.com
 90
      129
 91
        0
280
     0
281
     0
  0
CLASS
  1
AEC_AECDBDISPREPROOFPLAN100
  2
AecDbDispRepRoofPlan100
  3
AecBase40|Product Desc: Autodesk Architectural Desktop 2005 |Company: Autodesk,Inc. |WEB Address: www.autodesk.com
 90
      129
 91
        0
280
     0
281
     0
  0
CLASS
  1
AEC_AECDBDISPREPROOFSLABPLAN100
  2
AecDbDispRepRoofSlabPlan100
  3
AecBase40|Product Desc: Autodesk Architectural Desktop 2005 |Company: Autodesk,Inc. |WEB Address: www.autodesk.com
 90
      129
 91
        0
280
     0
281
     0
  0
CLASS
  1
AEC_AECDBDISPREPSLABPLAN100
  2
AecDbDispRepSlabPlan100
  3
AecBase40|Product Desc: Autodesk Architectural Desktop 2005 |Company: Autodesk,Inc. |WEB Address: www.autodesk.com
 90
      129
 91
        0
280
     0
281
     0
  0
CLASS
  1
AEC_AECDBDISPREPSPACEBOUNDARYPLAN100
  2
AecDbDispRepSpaceBoundaryPlan100
  3
AecBase40|Product Desc: Autodesk Architectural Desktop 2005 |Company: Autodesk,Inc. |WEB Address: www.autodesk.com
 90
      129
 91
        0
280
     0
281
     0
  0
CLASS
  1
AEC_AECDBDISPREPSPACEPLAN100
  2
AecDbDispRepSpacePlan100
  3
AecBase40|Product Desc: Autodesk Architectural Desktop 2005 |Company: Autodesk,Inc. |WEB Address: www.autodesk.com
 90
      129
 91
        0
280
     0
281
     0
  0
CLASS
  1
AEC_AECDBDISPREPWALLPLAN100
  2
AecDbDispRepWallPlan100
  3
AecBase40|Product Desc: Autodesk Architectural Desktop 2005 |Company: Autodesk,Inc. |WEB Address: www.autodesk.com
 90
      129
 91
        0
280
     0
281
     0
  0
CLASS
  1
AEC_AECDBDISPREPWINDOWASSEMBLYPLAN100
  2
AecDbDispRepWindowAssemblyPlan100
  3
AecBase40|Product Desc: Autodesk Architectural Desktop 2005 |Company: Autodesk,Inc. |WEB Address: www.autodesk.com
 90
      129
 91
        0
280
     0
281
     0
  0
CLASS
  1
AEC_AECDBDISPREPAREA50
  2
AecDbDispRepArea50
  3
AecBase40|Product Desc: Autodesk Architectural Desktop 2005 |Company: Autodesk,Inc. |WEB Address: www.autodesk.com
 90
      129
 91
        0
280
     0
281
     0
  0
CLASS
  1
AEC_AECDBDISPREPAREAGROUP50
  2
AecDbDispRepAreaGroup50
  3
AecBase40|Product Desc: Autodesk Architectural Desktop 2005 |Company: Autodesk,Inc. |WEB Address: www.autodesk.com
 90
      129
 91
        0
280
     0
281
     0
  0
CLASS
  1
AEC_AECDBDISPREPBDGELEVLINEPLAN50
  2
AecDbDispRepBdgElevLinePlan50
  3
AecBase40|Product Desc: Autodesk Architectural Desktop 2005 |Company: Autodesk,Inc. |WEB Address: www.autodesk.com
 90
      129
 91
        0
280
     0
281
     0
  0
CLASS
  1
AEC_AECDBDISPREPBDGSECTIONLINEPLAN50
  2
AecDbDispRepBdgSectionLinePlan50
  3
AecBase40|Product Desc: Autodesk Architectural Desktop 2005 |Company: Autodesk,Inc. |WEB Address: www.autodesk.com
 90
      129
 91
        0
280
     0
281
     0
  0
CLASS
  1
AEC_AECDBDISPREPCEILINGGRIDPLAN50
  2
AecDbDispRepCeilingGridPlan50
  3
AecBase40|Product Desc: Autodesk Architectural Desktop 2005 |Company: Autodesk,Inc. |WEB Address: www.autodesk.com
 90
      129
 91
        0
280
     0
281
     0
  0
CLASS
  1
AEC_AECDBDISPREPCOLUMNGRIDPLAN50
  2
AecDbDispRepColumnGridPlan50
  3
AecBase40|Product Desc: Autodesk Architectural Desktop 2005 |Company: Autodesk,Inc. |WEB Address: www.autodesk.com
 90
      129
 91
        0
280
     0
281
     0
  0
CLASS
  1
AEC_AECDBDISPREPCURTAINWALLLAYOUTPLAN50
  2
AecDbDispRepCurtainWallLayoutPlan50
  3
AecBase40|Product Desc: Autodesk Architectural Desktop 2005 |Company: Autodesk,Inc. |WEB Address: www.autodesk.com
 90
      129
 91
        0
280
     0
281
     0
  0
CLASS
  1
AEC_AECDBDISPREPCURTAINWALLUNITPLAN50
  2
AecDbDispRepCurtainWallUnitPlan50
  3
AecBase40|Product Desc: Autodesk Architectural Desktop 2005 |Company: Autodesk,Inc. |WEB Address: www.autodesk.com
 90
      129
 91
        0
280
     0
281
     0
  0
CLASS
  1
AEC_AECDBDISPREPMVBLOCKREFPLAN50
  2
AecDbDispRepMvBlockRefPlan50
  3
AecBase40|Product Desc: Autodesk Architectural Desktop 2005 |Company: Autodesk,Inc. |WEB Address: www.autodesk.com
 90
      129
 91
        0
280
     0
281
     0
  0
CLASS
  1
AEC_AECDBDISPREPROOFPLAN50
  2
AecDbDispRepRoofPlan50
  3
AecBase40|Product Desc: Autodesk Architectural Desktop 2005 |Company: Autodesk,Inc. |WEB Address: www.autodesk.com
 90
      129
 91
        0
280
     0
281
     0
  0
CLASS
  1
AEC_AECDBDISPREPROOFSLABPLAN50
  2
AecDbDispRepRoofSlabPlan50
  3
AecBase40|Product Desc: Autodesk Architectural Desktop 2005 |Company: Autodesk,Inc. |WEB Address: www.autodesk.com
 90
      129
 91
        0
280
     0
281
     0
  0
CLASS
  1
AEC_AECDBDISPREPSLABPLAN50
  2
AecDbDispRepSlabPlan50
  3
AecBase40|Product Desc: Autodesk Architectural Desktop 2005 |Company: Autodesk,Inc. |WEB Address: www.autodesk.com
 90
      129
 91
        0
280
     0
281
     0
  0
CLASS
  1
AEC_AECDBDISPREPSPACEBOUNDARYPLAN50
  2
AecDbDispRepSpaceBoundaryPlan50
  3
AecBase40|Product Desc: Autodesk Architectural Desktop 2005 |Company: Autodesk,Inc. |WEB Address: www.autodesk.com
 90
      129
 91
        0
280
     0
281
     0
  0
CLASS
  1
AEC_AECDBDISPREPSPACEPLAN50
  2
AecDbDispRepSpacePlan50
  3
AecBase40|Product Desc: Autodesk Architectural Desktop 2005 |Company: Autodesk,Inc. |WEB Address: www.autodesk.com
 90
      129
 91
        0
280
     0
281
     0
  0
CLASS
  1
AEC_AECDBDISPREPWALLPLAN50
  2
AecDbDispRepWallPlan50
  3
AecBase40|Product Desc: Autodesk Architectural Desktop 2005 |Company: Autodesk,Inc. |WEB Address: www.autodesk.com
 90
      129
 91
        0
280
     0
281
     0
  0
CLASS
  1
AEC_AECDBDISPREPWINDOWASSEMBLYPLAN50
  2
AecDbDispRepWindowAssemblyPlan50
  3
AecBase40|Product Desc: Autodesk Architectural Desktop 2005 |Company: Autodesk,Inc. |WEB Address: www.autodesk.com
 90
      129
 91
        0
280
     0
281
     0
  0
CLASS
  1
AEC_DB_DISP_REP_DIM_GROUP_PLAN100
  2
AecDbDispRepDimGroupPlan100
  3
AecArchDACHBase40|Product Desc: Autodesk Architectural Desktop 2005 |Company: Autodesk,Inc. |WEB Address: www.autodesk.com
 90
      129
 91
        0
280
     0
281
     0
  0
CLASS
  1
AEC_DB_DISP_REP_DIM_GROUP_PLAN50
  2
AecDbDispRepDimGroupPlan50
  3
AecArchDACHBase40|Product Desc: Autodesk Architectural Desktop 2005 |Company: Autodesk,Inc. |WEB Address: www.autodesk.com
 90
      129
 91
        0
280
     0
281
     0
  0
CLASS
  1
AEC_DISP_REP_DOOR_PLAN_50
  2
AecDbDispRepDoorPlan50
  3
AecArchDACHBase40|Product Desc: Autodesk Architectural Desktop 2005 |Company: Autodesk,Inc. |WEB Address: www.autodesk.com
 90
      129
 91
        0
280
     0
281
     0
  0
CLASS
  1
AEC_DISP_PROPS_DOOR_PLAN_50
  2
AecDbDispPropsDoorPlan50
  3
AecArchDACHBase40|Product Desc: Autodesk Architectural Desktop 2005 |Company: Autodesk,Inc. |WEB Address: www.autodesk.com
 90
      129
 91
        0
280
     0
281
     0
  0
CLASS
  1
AEC_DISP_REP_DOOR_PLAN_HEKTO
  2
AecDbDispRepDoorPlanHekto
  3
AecArchDACHBase40|Product Desc: Autodesk Architectural Desktop 2005 |Company: Autodesk,Inc. |WEB Address: www.autodesk.com
 90
      129
 91
        0
280
     0
281
     0
  0
CLASS
  1
AEC_DISP_PROPS_DOOR_PLAN_100
  2
AecDbDispPropsDoorPlan100
  3
AecArchDACHBase40|Product Desc: Autodesk Architectural Desktop 2005 |Company: Autodesk,Inc. |WEB Address: www.autodesk.com
 90
      129
 91
        0
280
     0
281
     0
  0
CLASS
  1
AEC_DISP_REP_DOOR_THRESHOLD_SYMBOL_PLAN
  2
AecDbDispRepDoorThresholdSymbolPlan
  3
AecArchDACHBase40|Product Desc: Autodesk Architectural Desktop 2005 |Company: Autodesk,Inc. |WEB Address: www.autodesk.com
 90
      129
 91
        0
280
     0
281
     0
  0
CLASS
  1
AEC_DISP_PROPS_DOOR_THRESHOLD_SYMBOL_PLAN
  2
AecDbDispPropsDoorThresholdSymbolPlan
  3
AecArchDACHBase40|Product Desc: Autodesk Architectural Desktop 2005 |Company: Autodesk,Inc. |WEB Address: www.autodesk.com
 90
      129
 91
        0
280
     0
281
     0
  0
CLASS
  1
AEC_DISPREPAECDBDISPREPMASSELEMPLAN100
  2
AecDbDispRepMassElemPlan100
  3
AecArchDACHBase40|Product Desc: Autodesk Architectural Desktop 2005 |Company: Autodesk,Inc. |WEB Address: www.autodesk.com
 90
      129
 91
        0
280
     0
281
     0
  0
CLASS
  1
AEC_DISPROPSMASSELEMPLANCOMMON
  2
AecDbDispPropsMassElemPlanCommon
  3
AecArchDACHBase40|Product Desc: Autodesk Architectural Desktop 2005 |Company: Autodesk,Inc. |WEB Address: www.autodesk.com
 90
      129
 91
        0
280
     0
281
     0
  0
CLASS
  1
AEC_DISPREPAECDBDISPREPMASSELEMPLAN50
  2
AecDbDispRepMassElemPlan50
  3
AecArchDACHBase40|Product Desc: Autodesk Architectural Desktop 2005 |Company: Autodesk,Inc. |WEB Address: www.autodesk.com
 90
      129
 91
        0
280
     0
281
     0
  0
CLASS
  1
AEC_DISPREPAECDBDISPREPMASSGROUPPLAN100
  2
AecDbDispRepMassGroupPlan100
  3
AecArchDACHBase40|Product Desc: Autodesk Architectural Desktop 2005 |Company: Autodesk,Inc. |WEB Address: www.autodesk.com
 90
      129
 91
        0
280
     0
281
     0
  0
CLASS
  1
AEC_DISPROPSMASSGROUPPLANCOMMON
  2
AecDbDispPropsMassGroupPlanCommon
  3
AecArchDACHBase40|Product Desc: Autodesk Architectural Desktop 2005 |Company: Autodesk,Inc. |WEB Address: www.autodesk.com
 90
      129
 91
        0
280
     0
281
     0
  0
CLASS
  1
AEC_DISPREPAECDBDISPREPMASSGROUPPLAN50
  2
AecDbDispRepMassGroupPlan50
  3
AecArchDACHBase40|Product Desc: Autodesk Architectural Desktop 2005 |Company: Autodesk,Inc. |WEB Address: www.autodesk.com
 90
      129
 91
        0
280
     0
281
     0
  0
CLASS
  1
AEC_DISPREPAECDBDISPREPOPENINGPLAN100
  2
AecDbDispRepOpeningPlan100
  3
AecArchDACHBase40|Product Desc: Autodesk Architectural Desktop 2005 |Company: Autodesk,Inc. |WEB Address: www.autodesk.com
 90
      129
 91
        0
280
     0
281
     0
  0
CLASS
  1
AEC_DISPROPSOPENINGPLANCOMMONHATCHED
  2
AecDbDispPropsOpeningPlanCommonHatched
  3
AecArchDACHBase40|Product Desc: Autodesk Architectural Desktop 2005 |Company: Autodesk,Inc. |WEB Address: www.autodesk.com
 90
      129
 91
        0
280
     0
281
     0
  0
CLASS
  1
AEC_DISPREPAECDBDISPREPOPENINGPLAN50
  2
AecDbDispRepOpeningPlan50
  3
AecArchDACHBase40|Product Desc: Autodesk Architectural Desktop 2005 |Company: Autodesk,Inc. |WEB Address: www.autodesk.com
 90
      129
 91
        0
280
     0
281
     0
  0
CLASS
  1
AEC_DISPREPAECDBDISPREPOPENINGPLANREFLECTED
  2
AecDbDispRepOpeningPlanReflected
  3
AecArchDACHBase40|Product Desc: Autodesk Architectural Desktop 2005 |Company: Autodesk,Inc. |WEB Address: www.autodesk.com
 90
      129
 91
        0
280
     0
281
     0
  0
CLASS
  1
AEC_DISPROPSOPENINGPLANCOMMON
  2
AecDbDispPropsOpeningPlanCommon
  3
AecArchDACHBase40|Product Desc: Autodesk Architectural Desktop 2005 |Company: Autodesk,Inc. |WEB Address: www.autodesk.com
 90
      129
 91
        0
280
     0
281
     0
  0
CLASS
  1
AEC_DISPREPAECDBDISPREPOPENINGSILLPLAN
  2
AecDbDispRepOpeningSillPlan
  3
AecArchDACHBase40|Product Desc: Autodesk Architectural Desktop 2005 |Company: Autodesk,Inc. |WEB Address: www.autodesk.com
 90
      129
 91
        0
280
     0
281
     0
  0
CLASS
  1
AEC_DISPROPSOPENINGSILLPLAN
  2
AecDbDispPropsOpeningSillPlan
  3
AecArchDACHBase40|Product Desc: Autodesk Architectural Desktop 2005 |Company: Autodesk,Inc. |WEB Address: www.autodesk.com
 90
      129
 91
        0
280
     0
281
     0
  0
CLASS
  1
AEC_DISP_REP_RAILING_PLAN_100
  2
AecDbDispRepRailingPlan100
  3
AecArchDACHBase40|Product Desc: Autodesk Architectural Desktop 2005 |Company: Autodesk,Inc. |WEB Address: www.autodesk.com
 90
      129
 91
        0
280
     0
281
     0
  0
CLASS
  1
AEC_DISP_ROPS_RAILING_PLAN_100
  2
AecDbDispPropsRailingPlan100
  3
AecArchDACHBase40|Product Desc: Autodesk Architectural Desktop 2005 |Company: Autodesk,Inc. |WEB Address: www.autodesk.com
 90
      129
 91
        0
280
     0
281
     0
  0
CLASS
  1
AEC_DISP_REP_RAILING_PLAN_50
  2
AecDbDispRepRailingPlan50
  3
AecArchDACHBase40|Product Desc: Autodesk Architectural Desktop 2005 |Company: Autodesk,Inc. |WEB Address: www.autodesk.com
 90
      129
 91
        0
280
     0
281
     0
  0
CLASS
  1
AEC_DISP_ROPS_RAILING_PLAN_50
  2
AecDbDispPropsRailingPlan50
  3
AecArchDACHBase40|Product Desc: Autodesk Architectural Desktop 2005 |Company: Autodesk,Inc. |WEB Address: www.autodesk.com
 90
      129
 91
        0
280
     0
281
     0
  0
CLASS
  1
AEC_DISP_REP_STAIR_PLAN_100
  2
AecDbDispRepStairPlan100
  3
AecArchDACHBase40|Product Desc: Autodesk Architectural Desktop 2005 |Company: Autodesk,Inc. |WEB Address: www.autodesk.com
 90
      129
 91
        0
280
     0
281
     0
  0
CLASS
  1
AEC_DISP_ROPS_STAIR_PLAN_100
  2
AecDbDispPropsStairPlan100
  3
AecArchDACHBase40|Product Desc: Autodesk Architectural Desktop 2005 |Company: Autodesk,Inc. |WEB Address: www.autodesk.com
 90
      129
 91
        0
280
     0
281
     0
  0
CLASS
  1
AEC_DISP_REP_STAIR_PLAN_50
  2
AecDbDispRepStairPlan50
  3
AecArchDACHBase40|Product Desc: Autodesk Architectural Desktop 2005 |Company: Autodesk,Inc. |WEB Address: www.autodesk.com
 90
      129
 91
        0
280
     0
281
     0
  0
CLASS
  1
AEC_DISP_ROPS_STAIR_PLAN_50
  2
AecDbDispPropsStairPlan50
  3
AecArchDACHBase40|Product Desc: Autodesk Architectural Desktop 2005 |Company: Autodesk,Inc. |WEB Address: www.autodesk.com
 90
      129
 91
        0
280
     0
281
     0
  0
CLASS
  1
AEC_DISP_REP_WINDOW_PLAN_100
  2
AecDbDispRepWindowPlan100
  3
AecArchDACHBase40|Product Desc: Autodesk Architectural Desktop 2005 |Company: Autodesk,Inc. |WEB Address: www.autodesk.com
 90
      129
 91
        0
280
     0
281
     0
  0
CLASS
  1
AEC_DISP_PROPS_WINDOW_PLAN_100
  2
AecDbDispPropsWindowPlan100
  3
AecArchDACHBase40|Product Desc: Autodesk Architectural Desktop 2005 |Company: Autodesk,Inc. |WEB Address: www.autodesk.com
 90
      129
 91
        0
280
     0
281
     0
  0
CLASS
  1
AEC_DISP_REP_WINDOW_PLAN_50
  2
AecDbDispRepWindowPlan50
  3
AecArchDACHBase40|Product Desc: Autodesk Architectural Desktop 2005 |Company: Autodesk,Inc. |WEB Address: www.autodesk.com
 90
      129
 91
        0
280
     0
281
     0
  0
CLASS
  1
AEC_DISP_PROPS_WINDOW_PLAN_50
  2
AecDbDispPropsWindowPlan50
  3
AecArchDACHBase40|Product Desc: Autodesk Architectural Desktop 2005 |Company: Autodesk,Inc. |WEB Address: www.autodesk.com
 90
      129
 91
        0
280
     0
281
     0
  0
CLASS
  1
BINRECORD
  2
AcAecBinRecord
  3
AecBase40|Product Desc: Autodesk Architectural Desktop 2005 |Company: Autodesk,Inc. |WEB Address: www.autodesk.com
 90
      129
 91
        0
280
     0
281
     0
  0
CLASS
  1
TABLESTYLE
  2
AcDbTableStyle
  3
ObjectDBX Classes
 90
     2047
 91
        1
280
     0
281
     0
  0
CLASS
  1
SORTENTSTABLE
  2
AcDbSortentsTable
  3
ObjectDBX Classes
 90
        0
 91
        5
280
     0
281
     0
  0
CLASS
  1
ARC_DIMENSION
  2
AcDbArcDimension
  3
ObjectDBX Classes
 90
     1025
 91
        0
280
     0
281
     1
  0
ENDSEC
  0
SECTION
  2
TABLES
  0
TABLE
  2
VPORT
  5
4B
330
0
100
AcDbSymbolTable
 70
     5
  0
VPORT
  5
CD091
330
4B
100
AcDbSymbolTableRecord
100
AcDbViewportTableRecord
  2
*Active
 70
     0
 10
0.0
 20
0.0
 11
1.0
 21
1.0
 12
33318.69772611347
 22
-15246.32405113594
 13
0.0
 23
0.0
 14
0.5
 24
0.5
 15
0.5
 25
0.5
 16
0.0
 26
0.0
 36
1.0
 17
0.0
 27
0.0
 37
0.0
 40
2758.301621917688
 41
1.893413173652694
 42
50.0
 43
0.0
 44
0.0
 50
0.0
 51
0.0
 71
     0
 72
   100
 73
     1
 74
     1
 75
     0
 76
     0
 77
     0
 78
     0
281
     0
 65
     1
110
0.0
120
0.0
130
0.0
111
1.0
121
0.0
131
0.0
112
0.0
122
1.0
132
0.0
 79
     0
146
0.0
  0
ENDTAB
  0
TABLE
  2
LTYPE
  5
46
330
0
100
AcDbSymbolTable
 70
     4
  0
LTYPE
  5
47
330
46
100
AcDbSymbolTableRecord
100
AcDbLinetypeTableRecord
  2
BYBLOCK
 70
     0
  3

 72
    65
 73
     0
 40
0.0
  0
LTYPE
  5
48
330
46
100
AcDbSymbolTableRecord
100
AcDbLinetypeTableRecord
  2
BYLAYER
 70
     0
  3

 72
    65
 73
     0
 40
0.0
  0
LTYPE
  5
8
330
46
100
AcDbSymbolTableRecord
100
AcDbLinetypeTableRecord
  2
CONTINUOUS
 70
     0
  3
Solid line
 72
    65
 73
     0
 40
0.0
  0
LTYPE
  5
18
330
46
100
AcDbSymbolTableRecord
100
AcDbLinetypeTableRecord
  2
AUSGEZOGEN
 70
     0
  3
AUSGEZOGEN
 72
    65
 73
     2
 40
2.0
 49
1.0
 74
     0
 49
1.0
 74
     0
  0
LTYPE
  5
74
330
46
100
AcDbSymbolTableRecord
100
AcDbLinetypeTableRecord
  2
STRICHLINIEX2
 70
     0
  3
Strichlinie (2x) ____  ____  ____  ____  ____  
 72
    65
 73
     2
 40
1.5
 49
1.0
 74
     0
 49
-0.5
 74
     0
  0
LTYPE
  5
75
330
46
100
AcDbSymbolTableRecord
100
AcDbLinetypeTableRecord
  2
MITTEX2
 70
     0
  3
Mitte (2x) ________  __  ________  __  _____
 72
    65
 73
     4
 40
4.0
 49
2.5
 74
     0
 49
-0.5
 74
     0
 49
0.5
 74
     0
 49
-0.5
 74
     0
  0
ENDTAB
  0
TABLE
  2
LAYER
  5
41
102
{ACAD_XDICTIONARY
360
42
102
}
330
0
100
AcDbSymbolTable
 70
    14
  0
LAYER
  5
4
330
41
100
AcDbSymbolTableRecord
100
AcDbLayerTableRecord
  2
0
 70
     0
 62
     7
  6
CONTINUOUS
370
    -3
390
5
  0
LAYER
  5
A
330
41
100
AcDbSymbolTableRecord
100
AcDbLayerTableRecord
  2
-TEXT3
 70
     0
 62
     2
  6
CONTINUOUS
370
    -3
390
5
  0
LAYER
  5
17
330
41
100
AcDbSymbolTableRecord
100
AcDbLayerTableRecord
  2
-TEXT
 70
     0
 62
     7
  6
AUSGEZOGEN
370
    -3
390
5
  0
LAYER
  5
E
330
41
100
AcDbSymbolTableRecord
100
AcDbLayerTableRecord
  2
-TEXT2
 70
     0
 62
     3
  6
CONTINUOUS
370
    -3
390
5
  0
LAYER
  5
1A
330
41
100
AcDbSymbolTableRecord
100
AcDbLayerTableRecord
  2
-ZEICHNUNGSRAND-INNEN
 70
     0
 62
     7
  6
CONTINUOUS
370
    -3
390
5
  0
LAYER
  5
77
330
41
100
AcDbSymbolTableRecord
100
AcDbLayerTableRecord
  2
-SYSTEM
 70
     0
 62
     2
  6
MITTEX2
370
    -3
390
5
  0
LAYER
  5
78
330
41
100
AcDbSymbolTableRecord
100
AcDbLayerTableRecord
  2
-PROFILAUSSENKANTE
 70
     0
 62
     4
  6
CONTINUOUS
370
    -3
390
5
  0
LAYER
  5
7A
330
41
100
AcDbSymbolTableRecord
100
AcDbLayerTableRecord
  2
-SCHRAFFUR
 70
     0
 62
     9
  6
CONTINUOUS
370
    -3
390
5
  0
LAYER
  5
7B
330
41
100
AcDbSymbolTableRecord
100
AcDbLayerTableRecord
  2
-VERDECKT
 70
     0
 62
     9
  6
STRICHLINIEX2
370
    -3
390
5
  0
LAYER
  5
7C
330
41
100
AcDbSymbolTableRecord
100
AcDbLayerTableRecord
  2
Defpoints
 70
     0
 62
     7
  6
CONTINUOUS
290
     0
370
    -3
390
5
  0
LAYER
  5
12D2F
330
41
100
AcDbSymbolTableRecord
100
AcDbLayerTableRecord
  2
-NORMTEIL_VERDECKT
 70
     0
 62
     9
  6
STRICHLINIEX2
370
    -3
390
5
  0
LAYER
  5
8D765
330
41
100
AcDbSymbolTableRecord
100
AcDbLayerTableRecord
  2
-PROFILAUSSENKANTET
 70
     0
 62
     4
  6
CONTINUOUS
370
    -3
390
5
1001
AVE_FINISH
1002
{
1070
     0
1005
0
1002
}
  0
LAYER
  5
8D766
330
41
100
AcDbSymbolTableRecord
100
AcDbLayerTableRecord
  2
-DICHTUNG
 70
     0
 62
     3
  6
CONTINUOUS
370
    -3
390
5
1001
AVE_FINISH
1002
{
1070
     0
1005
0
1002
}
  0
LAYER
  5
8D768
330
41
100
AcDbSymbolTableRecord
100
AcDbLayerTableRecord
  2
-GLAS
 70
     0
 62
     1
  6
CONTINUOUS
370
    -3
390
5
  0
ENDTAB
  0
TABLE
  2
STYLE
  5
44
330
0
100
AcDbSymbolTable
 70
     3
  0
STYLE
  5
B
330
44
100
AcDbSymbolTableRecord
100
AcDbTextStyleTableRecord
  2
STANDARD
 70
     0
 40
0.0
 41
1.0
 50
0.0
 71
     0
 42
0.2
  3
ARIAL.TTF
  4

1001
ACAD
1000
Arial
1071
       34
  0
STYLE
  5
10
330
44
100
AcDbSymbolTableRecord
100
AcDbTextStyleTableRecord
  2
LOGOCAD
 70
     0
 40
0.0
 41
1.0
 50
0.0
 71
     0
 42
3.5
  3
TXT8
  4

  0
ENDTAB
  0
TABLE
  2
VIEW
  5
49
330
0
100
AcDbSymbolTable
 70
     0
  0
ENDTAB
  0
TABLE
  2
UCS
  5
4A
330
0
100
AcDbSymbolTable
 70
     0
  0
ENDTAB
  0
TABLE
  2
APPID
  5
4D
330
0
100
AcDbSymbolTable
 70
    14
  0
APPID
  5
C
330
4D
100
AcDbSymbolTableRecord
100
AcDbRegAppTableRecord
  2
ACAD
 70
     0
  0
APPID
  5
12DB8
330
4D
100
AcDbSymbolTableRecord
100
AcDbRegAppTableRecord
  2
ACAD_EXEMPT_FROM_CAD_STANDARDS
 70
     0
  0
APPID
  5
1306D
330
4D
100
AcDbSymbolTableRecord
100
AcDbRegAppTableRecord
  2
ACAD_PSEXT
 70
     0
  0
APPID
  5
1BFDE
330
4D
100
AcDbSymbolTableRecord
100
AcDbRegAppTableRecord
  2
ACAD_DSTYLE_DIMTEXT_FILL
 70
     0
  0
APPID
  5
1BFDF
330
4D
100
AcDbSymbolTableRecord
100
AcDbRegAppTableRecord
  2
ACAD_DSTYLE_DIMEXT_LENGTH
 70
     0
  0
APPID
  5
1BFE0
330
4D
100
AcDbSymbolTableRecord
100
AcDbRegAppTableRecord
  2
ACAD_DSTYLE_DIMEXT_ENABLED
 70
     0
  0
APPID
  5
1BFE1
330
4D
100
AcDbSymbolTableRecord
100
AcDbRegAppTableRecord
  2
ACAD_DSTYLE_DIM_LINETYPE
 70
     0
  0
APPID
  5
1BFE2
330
4D
100
AcDbSymbolTableRecord
100
AcDbRegAppTableRecord
  2
ACAD_DSTYLE_DIM_EXT1_LINETYPE
 70
     0
  0
APPID
  5
1BFE3
330
4D
100
AcDbSymbolTableRecord
100
AcDbRegAppTableRecord
  2
ACAD_DSTYLE_DIM_EXT2_LINETYPE
 70
     0
  0
APPID
  5
26FC6
330
4D
100
AcDbSymbolTableRecord
100
AcDbRegAppTableRecord
  2
AVE_FINISH
 70
     0
  0
APPID
  5
26FC7
330
4D
100
AcDbSymbolTableRecord
100
AcDbRegAppTableRecord
  2
ACAD_DSTYLE_DIMJOGGED_JOGANGLE_SYMBOL
 70
     0
  0
APPID
  5
26FC8
330
4D
100
AcDbSymbolTableRecord
100
AcDbRegAppTableRecord
  2
ACAD_DSTYLE_DIMARC_LENGTH_SYMBOL
 70
     0
  0
APPID
  5
7FF5D
330
4D
100
AcDbSymbolTableRecord
100
AcDbRegAppTableRecord
  2
DCO15
 70
     0
  0
APPID
  5
9E99E
330
4D
100
AcDbSymbolTableRecord
100
AcDbRegAppTableRecord
  2
AcAecLayerStandard
 70
     0
  0
ENDTAB
  0
TABLE
  2
DIMSTYLE
  5
4E
330
0
100
AcDbSymbolTable
 70
     2
100
AcDbDimStyleTable
 71
     1
340
BC095
  0
DIMSTYLE
105
BC095
102
{ACAD_REACTORS
330
C88BD
330
CB01D
330
CC0A8
330
CC45A
330
CC5B6
330
CC5D5
330
CC5E2
330
CC692
330
CC693
330
CC8C7
330
CC8C8
330
CC943
330
CC998
330
CCA2E
330
CCD2C
330
CCFA3
330
CCFA4
102
}
330
4E
100
AcDbSymbolTableRecord
100
AcDbDimStyleTableRecord
  2
Kopie(3) von 1-1
 70
     0
 40
0.7
 41
30.0
 42
10.0
 43
3.0
 44
5.0
 48
0.5
 73
     0
 74
     0
 77
     1
 78
     9
140
30.0
146
0.75
147
5.0
172
     1
176
   256
177
   256
178
   256
271
     0
272
     0
283
     0
340
B
1001
ACAD_DSTYLE_DIMEXT_LENGTH
1070
   378
1040
5.0
1001
ACAD_DSTYLE_DIMEXT_ENABLED
1070
   383
1070
     0
1001
ACAD_DSTYLE_DIMARC_LENGTH_SYMBOL
1070
   379
1070
     0
1001
ACAD_DSTYLE_DIMJOGGED_JOGANGLE_SYMBOL
1070
   384
1040
0.7853981633974483
  0
ENDTAB
  0
TABLE
  2
BLOCK_RECORD
  5
1
330
0
100
AcDbSymbolTable
 70
   106
  0
BLOCK_RECORD
  5
2
102
{ACAD_XDICTIONARY
360
12DFF
102
}
330
1
100
AcDbSymbolTableRecord
100
AcDbBlockTableRecord
  2
*MODEL_SPACE
340
3B
  0
BLOCK_RECORD
  5
3D
330
1
100
AcDbSymbolTableRecord
100
AcDbBlockTableRecord
  2
*PAPER_SPACE
340
40
  0
BLOCK_RECORD
  5
8DE5C
330
1
100
AcDbSymbolTableRecord
100
AcDbBlockTableRecord
  2
SA-DICHTUNG
340
0
310
2800000020000000200000000100080000000000000400000000000000000000000000000000000000000000000080000080000000808000800000008000800080800000C0C0C000C0DCC000F0CAA6000020400000206000002080000020A0000020C0000020E00000400000004020000040400000406000004080000040A0
310
000040C0000040E00000600000006020000060400000606000006080000060A0000060C0000060E00000800000008020000080400000806000008080000080A0000080C0000080E00000A0000000A0200000A0400000A0600000A0800000A0A00000A0C00000A0E00000C0000000C0200000C0400000C0600000C0800000C0
310
A00000C0C00000C0E00000E0000000E0200000E0400000E0600000E0800000E0A00000E0C00000E0E00040000000400020004000400040006000400080004000A0004000C0004000E00040200000402020004020400040206000402080004020A0004020C0004020E000404000004040200040404000404060004040800040
310
40A0004040C0004040E00040600000406020004060400040606000406080004060A0004060C0004060E00040800000408020004080400040806000408080004080A0004080C0004080E00040A0000040A0200040A0400040A0600040A0800040A0A00040A0C00040A0E00040C0000040C0200040C0400040C0600040C08000
310
40C0A00040C0C00040C0E00040E0000040E0200040E0400040E0600040E0800040E0A00040E0C00040E0E00080000000800020008000400080006000800080008000A0008000C0008000E00080200000802020008020400080206000802080008020A0008020C0008020E00080400000804020008040400080406000804080
310
008040A0008040C0008040E00080600000806020008060400080606000806080008060A0008060C0008060E00080800000808020008080400080806000808080008080A0008080C0008080E00080A0000080A0200080A0400080A0600080A0800080A0A00080A0C00080A0E00080C0000080C0200080C0400080C0600080C0
310
800080C0A00080C0C00080C0E00080E0000080E0200080E0400080E0600080E0800080E0A00080E0C00080E0E000C0000000C0002000C0004000C0006000C0008000C000A000C000C000C000E000C0200000C0202000C0204000C0206000C0208000C020A000C020C000C020E000C0400000C0402000C0404000C0406000C0
310
408000C040A000C040C000C040E000C0600000C0602000C0604000C0606000C0608000C060A000C060C000C060E000C0800000C0802000C0804000C0806000C0808000C080A000C080C000C080E000C0A00000C0A02000C0A04000C0A06000C0A08000C0A0A000C0A0C000C0A0E000C0C00000C0C02000C0C04000C0C06000
310
C0C08000C0C0A000F0FBFF00A4A0A000808080000000FF0000FF000000FFFF00FF000000FF00FF00FFFF0000FFFFFF0000000000000000000000000000000000000000000000000000000000000000000000000000000000000000000000000000000000000000000000000000000000000000000000000000000000000000
310
00000000000000000000000000000000000000000000000000000000000000000000000000000000000000000000000000000000000000000000000000000000000000000000000000000000000000000000000000000000000000000000000000000000000000000000000000000000000000000000000000000000000000
310
00000000000000000000000000000000000000000000000000000000000000000000000000000000000000000000000000000000000000000000000000000000000000000000000000000000000000000000000000000000000000000000000000000000000000000000000000000000000000000000000000000000000000
310
00000000000000000000000000000000000000000000000000000000000000000000000000000000000000000000000000000000000000000000000000000000000000000000000000000000000000000000000000000000000000000000000000000000000000000000000000000000000000000000000000000000000000
310
000000000000000000000000000000000000000000FAFAFAFAFAFAFAFAFAFAFAFAFAFAFAFAFAFAFAFAFAFAFAFAFAFAFAFAFAFA0000FAFAFAFAFAFAFAFAFAFAFAFAFAFAFAFAFAFAFAFAFAFAFAFAFAFAFAFAFAFA0000000000000000000000000000000000000000000000000000000000000000000000000000000000000000
310
00000000000000000000000000000000000000000000000000000000000000000000000000000000000000000000000000000000000000000000000000000000000000000000000000000000000000000000000000000000000000000000000000000000000000000000000000000000000000000000000000000000000000
310
00000000000000000000000000000000000000000000000000000000000000000000000000000000000000000000000000000000000000000000000000000000000000000000000000000000000000000000000000000000000000000000000000000000000000000000000000000000000000000000000000000000000000
310
00000000000000000000000000000000000000000000000000000000000000000000000000000000000000000000000000000000000000000000000000000000000000000000000000000000000000000000000000000000000000000000000000000000000000000000000000000000000000000000000000000000000000
310
0000000000000000000000000000000000000000000000000000000000000000000000000000000000000000000000000000000000000000
102
{BLKREFS
331
A2CDF
331
A2CD9
331
BBD9D
331
BBD9F
102
}
1001
ACAD
1000
DesignCenter Data
1002
{
1070
     1
1070
     4
1002
}
  0
BLOCK_RECORD
  5
8DE62
330
1
100
AcDbSymbolTableRecord
100
AcDbBlockTableRecord
  2
SA-HALTESCHEIBE35
340
0
310
2800000020000000200000000100080000000000000400000000000000000000000000000000000000000000000080000080000000808000800000008000800080800000C0C0C000C0DCC000F0CAA6000020400000206000002080000020A0000020C0000020E00000400000004020000040400000406000004080000040A0
310
000040C0000040E00000600000006020000060400000606000006080000060A0000060C0000060E00000800000008020000080400000806000008080000080A0000080C0000080E00000A0000000A0200000A0400000A0600000A0800000A0A00000A0C00000A0E00000C0000000C0200000C0400000C0600000C0800000C0
310
A00000C0C00000C0E00000E0000000E0200000E0400000E0600000E0800000E0A00000E0C00000E0E00040000000400020004000400040006000400080004000A0004000C0004000E00040200000402020004020400040206000402080004020A0004020C0004020E000404000004040200040404000404060004040800040
310
40A0004040C0004040E00040600000406020004060400040606000406080004060A0004060C0004060E00040800000408020004080400040806000408080004080A0004080C0004080E00040A0000040A0200040A0400040A0600040A0800040A0A00040A0C00040A0E00040C0000040C0200040C0400040C0600040C08000
310
40C0A00040C0C00040C0E00040E0000040E0200040E0400040E0600040E0800040E0A00040E0C00040E0E00080000000800020008000400080006000800080008000A0008000C0008000E00080200000802020008020400080206000802080008020A0008020C0008020E00080400000804020008040400080406000804080
310
008040A0008040C0008040E00080600000806020008060400080606000806080008060A0008060C0008060E00080800000808020008080400080806000808080008080A0008080C0008080E00080A0000080A0200080A0400080A0600080A0800080A0A00080A0C00080A0E00080C0000080C0200080C0400080C0600080C0
310
800080C0A00080C0C00080C0E00080E0000080E0200080E0400080E0600080E0800080E0A00080E0C00080E0E000C0000000C0002000C0004000C0006000C0008000C000A000C000C000C000E000C0200000C0202000C0204000C0206000C0208000C020A000C020C000C020E000C0400000C0402000C0404000C0406000C0
310
408000C040A000C040C000C040E000C0600000C0602000C0604000C0606000C0608000C060A000C060C000C060E000C0800000C0802000C0804000C0806000C0808000C080A000C080C000C080E000C0A00000C0A02000C0A04000C0A06000C0A08000C0A0A000C0A0C000C0A0E000C0C00000C0C02000C0C04000C0C06000
310
C0C08000C0C0A000F0FBFF00A4A0A000808080000000FF0000FF000000FFFF00FF000000FF00FF00FFFF0000FFFFFF0000000000000000000000000000000000000000000000000000000000000000000000000000000000000000000000000000000000000000000000000000000000000000000000000000000000000000
310
00000000000000000000000000000000000000000000000000000000000000000000000000000000000000000000000000000000000000000000000000000000000000000000000000000000000000000000000000000000000000000000000000000000000000000000000000000000000000000000000000000000000000
310
00000000000000000000000000000000000000000000000000000000000000000000000000000000000000000000000000000000000000000000000000000707070707070707000000000000000000000000000000000000000000000000070700000000070700000000000000000000000000000000000000000000000007
310
07000000000707000000000000000000000000000000000000000000000000070700000000070700000000000000000000000000000000000000000000000007070000000007070000000000000000000000000000000000000000000000000707000000000707000000000000000000000000000000000000000000000000
310
07070000000007070000000000000000000000000000000000000000000000000707000000000707000000000000000000000000000000000000000000000000070700000000070700000000000000000000000000000000000000000000000007070000000007070000000000000000000000000000000000000000000000
310
00070700000000070700000000000000000000000000FEFEFEFEFEFEFEFEFEFEFEFE07FEFEFEFE07FEFE07FEFEFEFEFEFEFEFEFE0000FE00000000000000000000070707000000000007070707000000000000FE000000FE0000000000000000000700070000000000070000070000000000FE00000000FEFEFE0000000000
310
0000070007000000000007000007000000FEFE0000000000000000FEFEFEFEFEFEFE07FE07FEFEFEFEFE07FEFE07FEFEFE000000000000000000000000000000000000000000000000000000000000000000000000000000000000000000000000000000000000000000000000000000000000000000000000000000000000
310
00000000000000000000000000000000000000000000000000000000000000000000000000000000000000000000000000000000000000000000000000000000000000000000000000000000000000000000000000000000000000000000000000000000000000000000000000000000000000000000000000000000000000
310
0000000000000000000000000000000000000000000000000000000000000000000000000000000000000000000000000000000000000000
102
{BLKREFS
331
A2CDE
331
BBD9C
102
}
1001
ACAD
1000
DesignCenter Data
1002
{
1070
     1
1070
     4
1002
}
  0
BLOCK_RECORD
  5
8DE6E
330
1
100
AcDbSymbolTableRecord
100
AcDbBlockTableRecord
  2
SA-SCHAFT607
340
0
310
2800000020000000200000000100080000000000000400000000000000000000000000000000000000000000000080000080000000808000800000008000800080800000C0C0C000C0DCC000F0CAA6000020400000206000002080000020A0000020C0000020E00000400000004020000040400000406000004080000040A0
310
000040C0000040E00000600000006020000060400000606000006080000060A0000060C0000060E00000800000008020000080400000806000008080000080A0000080C0000080E00000A0000000A0200000A0400000A0600000A0800000A0A00000A0C00000A0E00000C0000000C0200000C0400000C0600000C0800000C0
310
A00000C0C00000C0E00000E0000000E0200000E0400000E0600000E0800000E0A00000E0C00000E0E00040000000400020004000400040006000400080004000A0004000C0004000E00040200000402020004020400040206000402080004020A0004020C0004020E000404000004040200040404000404060004040800040
310
40A0004040C0004040E00040600000406020004060400040606000406080004060A0004060C0004060E00040800000408020004080400040806000408080004080A0004080C0004080E00040A0000040A0200040A0400040A0600040A0800040A0A00040A0C00040A0E00040C0000040C0200040C0400040C0600040C08000
310
40C0A00040C0C00040C0E00040E0000040E0200040E0400040E0600040E0800040E0A00040E0C00040E0E00080000000800020008000400080006000800080008000A0008000C0008000E00080200000802020008020400080206000802080008020A0008020C0008020E00080400000804020008040400080406000804080
310
008040A0008040C0008040E00080600000806020008060400080606000806080008060A0008060C0008060E00080800000808020008080400080806000808080008080A0008080C0008080E00080A0000080A0200080A0400080A0600080A0800080A0A00080A0C00080A0E00080C0000080C0200080C0400080C0600080C0
310
800080C0A00080C0C00080C0E00080E0000080E0200080E0400080E0600080E0800080E0A00080E0C00080E0E000C0000000C0002000C0004000C0006000C0008000C000A000C000C000C000E000C0200000C0202000C0204000C0206000C0208000C020A000C020C000C020E000C0400000C0402000C0404000C0406000C0
310
408000C040A000C040C000C040E000C0600000C0602000C0604000C0606000C0608000C060A000C060C000C060E000C0800000C0802000C0804000C0806000C0808000C080A000C080C000C080E000C0A00000C0A02000C0A04000C0A06000C0A08000C0A0A000C0A0C000C0A0E000C0C00000C0C02000C0C04000C0C06000
310
C0C08000C0C0A000F0FBFF00A4A0A000808080000000FF0000FF000000FFFF00FF000000FF00FF00FFFF0000FFFFFF0000000000000000000000000000000000000000000000000000000000000000000000000000000000000000000000000000000000000000000000000000000000000000000000000000000000000000
310
00000000000000000000000000000000000000000000000000000000000000000000000000000000000000000000000000000000000000000000000000000000000000000000000000000000000000000000000000000000000000000000000000000000000000000000000000000000000000000000FEFEFEFEFEFEFEFEFE
310
FEFEFEFEFEFEFEFEFEFEFEFEFE00000000000000000000FE0000000000000000000000000000000000000000FE00000000000000000000FE0000000000000000000000000000000000000000FE00000000000000000000FE0000000000000000000000000000000000000000FE00000000000000000000FE07070707070707
310
07070707070707070707070707FE0000000000000000FEFE00000000000000000000000000000000000000000000FEFE00000000FEFE0707070707070707070707070707070707070707070707070707FEFE0000FE00000000000000000000000000000000000000000000000000000000FE0000FEFEFEFEFEFEFE07000000
310
000000000000000000000007FEFEFEFEFEFEFE000000000000000000070000000000000000000000000000070000000000000000000000000000000007000000000000000000000000000007000000000000000000000000000000000700000000000000000000000000000700000000000000000000000000000000070000
310
00000000000000000000000007000000000000000000000000000000000700000000000000000000000000000700000000000000000000000000000000070000000000000000000000000000070000000000000000000000000000000007000000000000000000000000000007000000000000000000000000000000000700
310
00000000000000000000000000070000000000000000000000000000000007000000000000000000000000000007000000000000000000000000000000000700000000000000000000000000000700000000000000000000000000000000070707070707070707070707070707070000000000000000000000000000000000
310
00000000000000000000000000000000000000000000000000000000000000000000000000000000000000000000000000000000000000000000000000000000000000000000000000000000000000000000000000000000000000000000000000000000000000000000000000000000000000000000000000000000000000
310
0000000000000000000000000000000000000000000000000000000000000000000000000000000000000000000000000000000000000000
102
{BLKREFS
331
BBD9B
102
}
1001
ACAD
1000
DesignCenter Data
1002
{
1070
     1
1070
     4
1002
}
  0
BLOCK_RECORD
  5
8DE7F
330
1
100
AcDbSymbolTableRecord
100
AcDbBlockTableRecord
  2
SA-FLACHSPIDER25
340
0
310
2800000020000000200000000100080000000000000400000000000000000000000000000000000000000000000080000080000000808000800000008000800080800000C0C0C000C0DCC000F0CAA6000020400000206000002080000020A0000020C0000020E00000400000004020000040400000406000004080000040A0
310
000040C0000040E00000600000006020000060400000606000006080000060A0000060C0000060E00000800000008020000080400000806000008080000080A0000080C0000080E00000A0000000A0200000A0400000A0600000A0800000A0A00000A0C00000A0E00000C0000000C0200000C0400000C0600000C0800000C0
310
A00000C0C00000C0E00000E0000000E0200000E0400000E0600000E0800000E0A00000E0C00000E0E00040000000400020004000400040006000400080004000A0004000C0004000E00040200000402020004020400040206000402080004020A0004020C0004020E000404000004040200040404000404060004040800040
310
40A0004040C0004040E00040600000406020004060400040606000406080004060A0004060C0004060E00040800000408020004080400040806000408080004080A0004080C0004080E00040A0000040A0200040A0400040A0600040A0800040A0A00040A0C00040A0E00040C0000040C0200040C0400040C0600040C08000
310
40C0A00040C0C00040C0E00040E0000040E0200040E0400040E0600040E0800040E0A00040E0C00040E0E00080000000800020008000400080006000800080008000A0008000C0008000E00080200000802020008020400080206000802080008020A0008020C0008020E00080400000804020008040400080406000804080
310
008040A0008040C0008040E00080600000806020008060400080606000806080008060A0008060C0008060E00080800000808020008080400080806000808080008080A0008080C0008080E00080A0000080A0200080A0400080A0600080A0800080A0A00080A0C00080A0E00080C0000080C0200080C0400080C0600080C0
310
800080C0A00080C0C00080C0E00080E0000080E0200080E0400080E0600080E0800080E0A00080E0C00080E0E000C0000000C0002000C0004000C0006000C0008000C000A000C000C000C000E000C0200000C0202000C0204000C0206000C0208000C020A000C020C000C020E000C0400000C0402000C0404000C0406000C0
310
408000C040A000C040C000C040E000C0600000C0602000C0604000C0606000C0608000C060A000C060C000C060E000C0800000C0802000C0804000C0806000C0808000C080A000C080C000C080E000C0A00000C0A02000C0A04000C0A06000C0A08000C0A0A000C0A0C000C0A0E000C0C00000C0C02000C0C04000C0C06000
310
C0C08000C0C0A000F0FBFF00A4A0A000808080000000FF0000FF000000FFFF00FF000000FF00FF00FFFF0000FFFFFF000000000000000000000000000000000000000000000000000000000000000000000000000000000000000000FEFEFEFEFEFEFEFE000000000000000000000000000000000000000000000000FE0000
310
00000000FE000000000000000000000000000000000000000000000000FE000000000000FE000000000000000000000000000000000000000000000000FE000000000000FE000000000000000000000000000000000000000000000000FE000000000000FE000000000000000000000000000000000000000000000000FE00
310
0000000000FE000000000000000000000000000000000000000000000000FE000000000000FE000000000000000000000000000000000000000000000000FE000000000000FE000000000000000000000000000000000000000000000000FE000000000000FE000000000000000000000000000000000000000000000000FE
310
000000000000FE000000000000000000000000000000000000000000000000FE000000000000FE000000000000000000000000000000000000000000000000FE000000000000FE000000000000000000000000000000000000000000000000FE000000000000FE000000000000000000000000000000000000000000000000
310
FE000000000000FE000000000000000000000000000000000000000000000000FE000000000000FE000000000000000000000000000000000000000000000000FB000000000000FE000000000000000000000000000000000000000000000000FE000000000000FE0000000000000000000000000000000000000000000000
310
00FE000000000000FE000000000000000000000000000000000000000000000000FE000000000000FE000000000000000000000000000000000000000000000000FE000000000000FE000000000000000000000000000000000000000000000000FE000000000000FE00000000000000000000000000000000000000000000
310
0000FE000000000000FE000000000000000000000000000000000000000000000000FE000000000000FE000000000000000000000000000000000000000000000000FE000000000000FE000000000000000000000000000000000000000000000000FE000000000000FE000000000000000000000000000000000000000000
310
000000FE000000000000FE000000000000000000000000000000000000000000000000FE000000000000FE000000000000000000000000000000000000000000000000FE000000000000FE000000000000000000000000000000000000000000000000FE000000000000FE0000000000000000000000000000000000000000
310
00000000FEFEFEFEFEFEFEFE0000000000000000000000000000000000000000000000000000000000000000000000000000000000000000
102
{BLKREFS
331
BBDA4
102
}
1001
ACAD
1000
DesignCenter Data
1002
{
1070
     1
1070
     4
1002
}
  0
BLOCK_RECORD
  5
BBD7F
330
1
100
AcDbSymbolTableRecord
100
AcDbBlockTableRecord
  2
AS-PH607
340
0
310
2800000020000000200000000100080000000000000400000000000000000000000000000000000000000000000080000080000000808000800000008000800080800000C0C0C000C0DCC000F0CAA6000020400000206000002080000020A0000020C0000020E00000400000004020000040400000406000004080000040A0
310
000040C0000040E00000600000006020000060400000606000006080000060A0000060C0000060E00000800000008020000080400000806000008080000080A0000080C0000080E00000A0000000A0200000A0400000A0600000A0800000A0A00000A0C00000A0E00000C0000000C0200000C0400000C0600000C0800000C0
310
A00000C0C00000C0E00000E0000000E0200000E0400000E0600000E0800000E0A00000E0C00000E0E00040000000400020004000400040006000400080004000A0004000C0004000E00040200000402020004020400040206000402080004020A0004020C0004020E000404000004040200040404000404060004040800040
310
40A0004040C0004040E00040600000406020004060400040606000406080004060A0004060C0004060E00040800000408020004080400040806000408080004080A0004080C0004080E00040A0000040A0200040A0400040A0600040A0800040A0A00040A0C00040A0E00040C0000040C0200040C0400040C0600040C08000
310
40C0A00040C0C00040C0E00040E0000040E0200040E0400040E0600040E0800040E0A00040E0C00040E0E00080000000800020008000400080006000800080008000A0008000C0008000E00080200000802020008020400080206000802080008020A0008020C0008020E00080400000804020008040400080406000804080
310
008040A0008040C0008040E00080600000806020008060400080606000806080008060A0008060C0008060E00080800000808020008080400080806000808080008080A0008080C0008080E00080A0000080A0200080A0400080A0600080A0800080A0A00080A0C00080A0E00080C0000080C0200080C0400080C0600080C0
310
800080C0A00080C0C00080C0E00080E0000080E0200080E0400080E0600080E0800080E0A00080E0C00080E0E000C0000000C0002000C0004000C0006000C0008000C000A000C000C000C000E000C0200000C0202000C0204000C0206000C0208000C020A000C020C000C020E000C0400000C0402000C0404000C0406000C0
310
408000C040A000C040C000C040E000C0600000C0602000C0604000C0606000C0608000C060A000C060C000C060E000C0800000C0802000C0804000C0806000C0808000C080A000C080C000C080E000C0A00000C0A02000C0A04000C0A06000C0A08000C0A0A000C0A0C000C0A0E000C0C00000C0C02000C0C04000C0C06000
310
C0C08000C0C0A000F0FBFF00A4A0A000808080000000FF0000FF000000FFFF00FF000000FF00FF00FFFF0000FFFFFF00000000000000000000000000000000000000000000000000000000000000000000000000000000000000000000000000FB000000000000000000000000000000000000000000000000000000000000
310
00FB00000000000000000000000000000000000000000000000000000000000000FB00000000000000000000000000000000000000000000000000000000000000FB0000000000000000000000000000000000000000000000000000000000FEFEFB000000000000000000000000000000000000000000000000000000FEFE
310
0707FB0707FEFE000000000000000000000000000000000000000000FE0707070000FB00000700FE0000000000000000000000000000000000000007070000000000FB0000000707FEFE000000000000000000000000000000FEFE07000000000000FB00000000000700FE0000000000000000000000000000FE0700000000
310
FEFEFEFBFEFE0000000007FE00000000000000000000000000FE0700000000FEFEFE00FB0000FEFE00000007FE000000000000000000000000FE07000000FEFEFEFE00FB000000FE00000007FE000000000000000000000000FE070000FE0000FEFE00FB00000000FE00000007FE0000000000000000000000FE070000FE00
310
00000000FB0000FEFEFE00000007FE000000000000FBFBFBFBFBFBFBFBFBFEFBFBFBFBFBFB0000FEFEFE00000007FE00000000000000000000FE07000000FE00000000FBFBFBFBFEFEFEFBFBFBFBFBFBFBFBFB00000000000000FE070000FE00000000FB000000FEFEFE00000007FE0000000000000000000000FE070000FE
310
0000FEFEFB0000000000FE00000007FE0000000000000000000000FE07000000FEFEFEFEFB00000000FE00000007FE000000000000000000000000FE0700000000FEFEFEFB000000FEFE00000007FE00000000000000000000000000FE0700000000FEFEFBFEFEFE0000000007FE0000000000000000000000000000FE0007
310
0000000000FB0000000000000700FE000000000000000000000000000000FE070000000000FB00000000000700FE0000000000000000000000000000000000000707070000FB0000000707FEFE0000000000000000000000000000000000000000FEFE0707FB070707FEFE0000000000000000000000000000000000000000
310
00000000FEFEFBFEFE0000000000000000000000000000000000000000000000000000000000FB00000000000000000000000000000000000000000000000000000000000000FB00000000000000000000000000000000000000000000000000000000000000FB000000000000000000000000000000000000000000000000
310
00000000000000FB000000000000000000000000000000000000000000000000000000000000000000000000000000000000000000000000
102
{BLKREFS
331
C88A3
331
C88A4
331
C88AE
331
C88AF
331
CCB58
102
}
1001
ACAD
1000
DesignCenter Data
1002
{
1070
     1
1070
     4
1002
}
  0
BLOCK_RECORD
  5
BBD90
330
1
100
AcDbSymbolTableRecord
100
AcDbBlockTableRecord
  2
SA-ZYLINDERSCH2516
340
0
310
2800000020000000200000000100080000000000000400000000000000000000000000000000000000000000000080000080000000808000800000008000800080800000C0C0C000C0DCC000F0CAA6000020400000206000002080000020A0000020C0000020E00000400000004020000040400000406000004080000040A0
310
000040C0000040E00000600000006020000060400000606000006080000060A0000060C0000060E00000800000008020000080400000806000008080000080A0000080C0000080E00000A0000000A0200000A0400000A0600000A0800000A0A00000A0C00000A0E00000C0000000C0200000C0400000C0600000C0800000C0
310
A00000C0C00000C0E00000E0000000E0200000E0400000E0600000E0800000E0A00000E0C00000E0E00040000000400020004000400040006000400080004000A0004000C0004000E00040200000402020004020400040206000402080004020A0004020C0004020E000404000004040200040404000404060004040800040
310
40A0004040C0004040E00040600000406020004060400040606000406080004060A0004060C0004060E00040800000408020004080400040806000408080004080A0004080C0004080E00040A0000040A0200040A0400040A0600040A0800040A0A00040A0C00040A0E00040C0000040C0200040C0400040C0600040C08000
310
40C0A00040C0C00040C0E00040E0000040E0200040E0400040E0600040E0800040E0A00040E0C00040E0E00080000000800020008000400080006000800080008000A0008000C0008000E00080200000802020008020400080206000802080008020A0008020C0008020E00080400000804020008040400080406000804080
310
008040A0008040C0008040E00080600000806020008060400080606000806080008060A0008060C0008060E00080800000808020008080400080806000808080008080A0008080C0008080E00080A0000080A0200080A0400080A0600080A0800080A0A00080A0C00080A0E00080C0000080C0200080C0400080C0600080C0
310
800080C0A00080C0C00080C0E00080E0000080E0200080E0400080E0600080E0800080E0A00080E0C00080E0E000C0000000C0002000C0004000C0006000C0008000C000A000C000C000C000E000C0200000C0202000C0204000C0206000C0208000C020A000C020C000C020E000C0400000C0402000C0404000C0406000C0
310
408000C040A000C040C000C040E000C0600000C0602000C0604000C0606000C0608000C060A000C060C000C060E000C0800000C0802000C0804000C0806000C0808000C080A000C080C000C080E000C0A00000C0A02000C0A04000C0A06000C0A08000C0A0A000C0A0C000C0A0E000C0C00000C0C02000C0C04000C0C06000
310
C0C08000C0C0A000F0FBFF00A4A0A000808080000000FF0000FF000000FFFF00FF000000FF00FF00FFFF0000FFFFFF0000000000000000000000000000000000000000000000000000000000000000000000000000000000000000000000000000000000000000000000000000000000000000000000000000000000000000
310
00000000000000000000000000000000000000000000000000000000000000000000000000000000000000000000000000000000000000000000000000000000000000000000000000000000000000000000000000000000000000000000000000000000000000000000000000000000000000000000FEFEFEFEFE07FEFEFE
310
07FEFEFEFEFEFEFEFEFEFEFEFE0000000000000000FEFE00000000000700000007000000000000070000000700FEFE0000000000FE0000000000000007000000070000000000000700000007000000FE000000FEFE0000000000000007000000070000000000000700000007000000FEFE0000FE0000000000000000070000
310
0007000000000000070000000700000000FE0000FE00000000000000000707070707000000000000070707070700000000FE0000FE00000000000000000007070700000000000000000707070000000000FE0000FE00000000000000000000000000000000000000000000000000000000FE0000FE00000000000000000000
310
000000000000000000000000000000000000FE0000FE00000000000000000000000000000000000000000000000000000000FE0000FE00000000000000000000000000000000000000000000000000000000FE0000FE00000000000000000000000000000000000000000000000000000000FE0000FE000000000000000000
310
00000000000000000000000000000000000000FE0000FE00000000000000000000000000000000000000000000000000000000FE0000FE00000000000000000000000000000000000000000000000000000000FE0000FE00000000000000000000000000000000000000000000000000000000FE0000FE0000000000000000
310
0000000000000000000000000000000000000000FE0000FE00000000000000000000000000000000000000000000000000000000FE0000FE00000000000000000000000000000000000000000000000000000000FE0000FEFEFEFEFEFEFEFEFEFEFEFEFEFEFEFEFEFEFEFEFEFEFEFEFEFEFEFEFEFE00000000000000000000
310
00000000000000000000000000000000000000000000000000000000000000000000000000000000000000000000000000000000000000000000000000000000000000000000000000000000000000000000000000000000000000000000000000000000000000000000000000000000000000000000000000000000000000
310
0000000000000000000000000000000000000000000000000000000000000000000000000000000000000000000000000000000000000000
102
{BLKREFS
331
BBD9E
102
}
1001
ACAD
1000
DesignCenter Data
1002
{
1070
     1
1070
     4
1002
}
  0
BLOCK_RECORD
  5
BBD98
330
1
100
AcDbSymbolTableRecord
100
AcDbBlockTableRecord
  2
SA-607
340
0
310
2800000020000000200000000100080000000000000400000000000000000000000000000000000000000000000080000080000000808000800000008000800080800000C0C0C000C0DCC000F0CAA6000020400000206000002080000020A0000020C0000020E00000400000004020000040400000406000004080000040A0
310
000040C0000040E00000600000006020000060400000606000006080000060A0000060C0000060E00000800000008020000080400000806000008080000080A0000080C0000080E00000A0000000A0200000A0400000A0600000A0800000A0A00000A0C00000A0E00000C0000000C0200000C0400000C0600000C0800000C0
310
A00000C0C00000C0E00000E0000000E0200000E0400000E0600000E0800000E0A00000E0C00000E0E00040000000400020004000400040006000400080004000A0004000C0004000E00040200000402020004020400040206000402080004020A0004020C0004020E000404000004040200040404000404060004040800040
310
40A0004040C0004040E00040600000406020004060400040606000406080004060A0004060C0004060E00040800000408020004080400040806000408080004080A0004080C0004080E00040A0000040A0200040A0400040A0600040A0800040A0A00040A0C00040A0E00040C0000040C0200040C0400040C0600040C08000
310
40C0A00040C0C00040C0E00040E0000040E0200040E0400040E0600040E0800040E0A00040E0C00040E0E00080000000800020008000400080006000800080008000A0008000C0008000E00080200000802020008020400080206000802080008020A0008020C0008020E00080400000804020008040400080406000804080
310
008040A0008040C0008040E00080600000806020008060400080606000806080008060A0008060C0008060E00080800000808020008080400080806000808080008080A0008080C0008080E00080A0000080A0200080A0400080A0600080A0800080A0A00080A0C00080A0E00080C0000080C0200080C0400080C0600080C0
310
800080C0A00080C0C00080C0E00080E0000080E0200080E0400080E0600080E0800080E0A00080E0C00080E0E000C0000000C0002000C0004000C0006000C0008000C000A000C000C000C000E000C0200000C0202000C0204000C0206000C0208000C020A000C020C000C020E000C0400000C0402000C0404000C0406000C0
310
408000C040A000C040C000C040E000C0600000C0602000C0604000C0606000C0608000C060A000C060C000C060E000C0800000C0802000C0804000C0806000C0808000C080A000C080C000C080E000C0A00000C0A02000C0A04000C0A06000C0A08000C0A0A000C0A0C000C0A0E000C0C00000C0C02000C0C04000C0C06000
310
C0C08000C0C0A000F0FBFF00A4A0A000808080000000FF0000FF000000FFFF00FF000000FF00FF00FFFF0000FFFFFF000000000000000000000000000000000000000000000000000000000000000000000000000000000000000000000000FB00000000000000000000000000000000000000000000000000000000000000
310
FB00000000000000000000000000000000000000000000000000000000000000FB00000000000000000000000000000000000000000000000000000000000000FB000000000000000000000000000000000000000000000000000000FEFE07FE07FEFEFEFEFE00000000000000000000000000000000000000000000FE0007
310
000700000707FE00000000000000000000000000000000000000000000FE0007070700000707FE00000000000000000000000000000000000000000000FE000000FB00000000FE00000000000000000000000000000000000000000000FE000000FB00000000FE00000000000000000000000000000000000000000000FE00
310
0000FB00000000FE00000000000000000000000000000000000000000000FEFEFEFEFEFEFEFEFEFE0000000000000000000000000000000000000000000000000000FB00000000000000000000000000000000000000000000000000000000000000FB000000000000000000000000000000000000000000000000000000FE
310
FEFEFEFEFEFEFEFEFE000000000000000000000000000000000000000000FEFE000000FB00000000FEFE0000000000000000000000000000000000000000FE07070707070707070707FE00000000000000000000000000000000000000FE070707070707070707070707FE0000000000000000000000000000000000000707
310
0707070707070707070707070000000000000000000000000000000000000000000700070707070007000000000000000000000000000000000000000000000000070007FB00070007000000000000000000000000000000000000000000000000070007FB0007000700000000000000000000000000000000000000000000
310
0000070007FB000700070000000000000000000000000000000000000000000000000707070707070707000000000000000000000000000000000000000000FAFAFAFAFAFAFAFAFAFAFAFAFAFA000000000000000000000000000000000000FE000000000707000007070000FE000000000000000000000000000000000000
310
FEFEFEFEFE0707FEFE0707FEFEFE000000000000000000000000000000000000000000000000FB00000000000000000000000000000000000000000000000000000000000000FB00000000000000000000000000000000000000000000000000000000000000FB000000000000000000000000000000000000000000000000
310
00000000000000FB000000000000000000000000000000000000000000000000000000000000000000000000000000000000000000000000
102
{BLKREFS
331
BBDA3
102
}
1001
ACAD
1000
DesignCenter Data
1002
{
1070
     1
1070
     4
1002
}
  0
BLOCK_RECORD
  5
BBDA1
330
1
100
AcDbSymbolTableRecord
100
AcDbBlockTableRecord
  2
SA-FS25
340
0
102
{BLKREFS
331
C889B
331
C88A8
102
}
1001
ACAD
1000
DesignCenter Data
1002
{
1070
     1
1070
     4
1002
}
  0
BLOCK_RECORD
  5
C896E
330
1
100
AcDbSymbolTableRecord
100
AcDbBlockTableRecord
  2
*D21
340
0
  0
BLOCK_RECORD
  5
CB01E
330
1
100
AcDbSymbolTableRecord
100
AcDbBlockTableRecord
  2
*D27
340
0
  0
BLOCK_RECORD
  5
CC0A9
330
1
100
AcDbSymbolTableRecord
100
AcDbBlockTableRecord
  2
*D32
340
0
  0
BLOCK_RECORD
  5
CC45B
330
1
100
AcDbSymbolTableRecord
100
AcDbBlockTableRecord
  2
*D34
340
0
  0
BLOCK_RECORD
  5
CC5B7
330
1
100
AcDbSymbolTableRecord
100
AcDbBlockTableRecord
  2
*D41
340
0
  0
BLOCK_RECORD
  5
CC5D6
330
1
100
AcDbSymbolTableRecord
100
AcDbBlockTableRecord
  2
*D42
340
0
  0
BLOCK_RECORD
  5
CC5E3
330
1
100
AcDbSymbolTableRecord
100
AcDbBlockTableRecord
  2
*D43
340
0
  0
BLOCK_RECORD
  5
CC694
330
1
100
AcDbSymbolTableRecord
100
AcDbBlockTableRecord
  2
*D51
340
0
  0
BLOCK_RECORD
  5
CC6A0
330
1
100
AcDbSymbolTableRecord
100
AcDbBlockTableRecord
  2
*D52
340
0
  0
BLOCK_RECORD
  5
CC8C9
330
1
100
AcDbSymbolTableRecord
100
AcDbBlockTableRecord
  2
*D63
340
0
  0
BLOCK_RECORD
  5
CC8D5
330
1
100
AcDbSymbolTableRecord
100
AcDbBlockTableRecord
  2
*D64
340
0
  0
BLOCK_RECORD
  5
CC944
330
1
100
AcDbSymbolTableRecord
100
AcDbBlockTableRecord
  2
*D69
340
0
  0
BLOCK_RECORD
  5
CC999
330
1
100
AcDbSymbolTableRecord
100
AcDbBlockTableRecord
  2
*D74
340
0
  0
BLOCK_RECORD
  5
CCA2F
330
1
100
AcDbSymbolTableRecord
100
AcDbBlockTableRecord
  2
*D78
340
0
  0
BLOCK_RECORD
  5
CCD2D
330
1
100
AcDbSymbolTableRecord
100
AcDbBlockTableRecord
  2
*D86
340
0
  0
BLOCK_RECORD
  5
CCFA5
330
1
100
AcDbSymbolTableRecord
100
AcDbBlockTableRecord
  2
*D95
340
0
  0
BLOCK_RECORD
  5
CCFB1
330
1
100
AcDbSymbolTableRecord
100
AcDbBlockTableRecord
  2
*D96
340
0
  0
ENDTAB
  0
ENDSEC
  0
SECTION
  2
BLOCKS
  0
BLOCK
  5
3
330
2
100
AcDbEntity
  8
0
100
AcDbBlockBegin
  2
*MODEL_SPACE
 70
     0
 10
0.0
 20
0.0
 30
0.0
  3
*MODEL_SPACE
  1

  0
ENDBLK
  5
3A
330
2
100
AcDbEntity
  8
0
100
AcDbBlockEnd
  0
BLOCK
  5
3E
330
3D
100
AcDbEntity
 67
     1
  8
0
100
AcDbBlockBegin
  2
*PAPER_SPACE
 70
     0
 10
0.0
 20
0.0
 30
0.0
  3
*PAPER_SPACE
  1

  0
ENDBLK
  5
3F
330
3D
100
AcDbEntity
 67
     1
  8
0
100
AcDbBlockEnd
  0
BLOCK
  5
8DE5D
330
8DE5C
100
AcDbEntity
  8
0
100
AcDbBlockBegin
  2
SA-DICHTUNG
 70
     0
 10
0.0
 20
0.0
 30
0.0
  3
SA-DICHTUNG
  1

  0
HATCH
  5
8DE5E
330
8DE5C
100
AcDbEntity
  8
-SCHRAFFUR
100
AcDbHatch
 10
0.0
 20
0.0
 30
0.0
210
0.0
220
0.0
230
1.0
  2
SOLID
 70
     1
 71
     1
 91
        1
 92
        1
 93
        4
 72
     1
 10
-16.99999999999839
 20
0.0
 11
17.00000000000161
 21
0.0
 72
     1
 10
17.00000000000161
 20
0.0
 11
17.00000000000161
 21
2.0
 72
     1
 10
17.00000000000161
 20
2.0
 11
-16.99999999999839
 21
2.0
 72
     1
 10
-16.99999999999839
 20
2.0
 11
-16.99999999999839
 21
0.0
 97
        1
330
8DE5F
 75
     0
 76
     1
 98
        1
 10
-0.0000000000225785
 20
-147.7532823305593
450
        0
451
        0
460
0.0
461
0.0
452
        0
462
0.0
453
        0
470

  0
LWPOLYLINE
  5
8DE5F
102
{ACAD_REACTORS
330
8DE5E
102
}
330
8DE5C
100
AcDbEntity
  8
-DICHTUNG
100
AcDbPolyline
 90
        4
 70
     1
 43
0.0
 10
-16.99999999999839
 20
0.0
 10
17.00000000000161
 20
0.0
 10
17.00000000000161
 20
2.0
 10
-16.99999999999839
 20
2.0
  0
LWPOLYLINE
  5
8DE60
330
8DE5C
100
AcDbEntity
  8
-DICHTUNG
100
AcDbPolyline
 90
        4
 70
     1
 43
0.0
 10
-4.999999999998391
 20
2.0
 10
-6.499999999998391
 20
2.0
 10
-6.499999999998391
 20
2.0
 10
-4.999999999998391
 20
2.0
  0
ENDBLK
  5
8DE61
330
8DE5C
100
AcDbEntity
  8
0
100
AcDbBlockEnd
  0
BLOCK
  5
8DE63
330
8DE62
100
AcDbEntity
  8
0
 62
     2
100
AcDbBlockBegin
  2
SA-HALTESCHEIBE35
 70
     0
 10
0.0
 20
0.0
 30
0.0
  3
SA-HALTESCHEIBE35
  1

  0
LWPOLYLINE
  5
8DE64
330
8DE62
100
AcDbEntity
  8
-PROFILAUSSENKANTET
100
AcDbPolyline
 90
       11
 70
     0
 43
0.0
 10
17.50000000000136
 20
0.0
 10
17.50000000000136
 20
1.305745823232882
 42
0.3759019639771881
 10
15.76432744018348
 20
3.288201624598059
 10
10.32895372440271
 20
4.956139503413396
 42
0.033150018187446
 10
9.668135123947649
 20
5.0
 10
-9.586187348507337
 20
5.0
 42
0.0413106451481675
 10
-10.40818228503394
 20
4.931969619160781
 10
-15.82879797460918
 20
3.278533670898241
 42
0.3666293647015966
 10
-17.49999999999863
 20
1.305745823234019
 10
-17.49999999999863
 20
0.0
 10
17.50000000000136
 20
0.0
  0
LINE
  5
8DE65
330
8DE62
100
AcDbEntity
  8
-NORMTEIL_VERDECKT
100
AcDbLine
 10
5.745843326313661
 20
1.0
 30
0.0
 11
8.745843326313661
 21
1.0
 31
0.0
  0
LWPOLYLINE
  5
8DE66
330
8DE62
100
AcDbEntity
  8
-NORMTEIL_VERDECKT
100
AcDbPolyline
 90
        5
 70
     0
 43
0.0
 10
5.745843326313661
 20
5.0
 10
5.745843326313661
 20
1.0
 10
7.245843326313661
 20
0.0
 10
8.745843326313661
 20
1.0
 10
8.745843326313661
 20
5.0
  0
LWPOLYLINE
  5
8DE67
330
8DE62
100
AcDbEntity
  8
-NORMTEIL_VERDECKT
100
AcDbPolyline
 90
        5
 70
     0
 43
0.0
 10
-4.754156673685884
 20
5.0
 10
-4.754156673685884
 20
1.0
 10
-3.254156673685884
 20
0.0
 10
-1.754156673685884
 20
1.0
 10
-1.754156673685884
 20
5.000000000000909
  0
LINE
  5
8DE68
330
8DE62
100
AcDbEntity
  8
-NORMTEIL_VERDECKT
100
AcDbLine
 10
3.540000000001327
 20
-1.388008714659008
 30
0.0
 11
3.540000000001327
 21
-13.75999999999999
 31
0.0
  0
LWPOLYLINE
  5
8DE69
330
8DE62
100
AcDbEntity
  8
-NORMTEIL_VERDECKT
100
AcDbPolyline
 90
       12
 70
     0
 43
0.0
 10
-3.539999999998599
 20
0.0
 10
-3.539999999998599
 20
-1.388008714659008
 42
-0.2679491924311216
 10
-3.839999999998326
 20
-1.907623956929683
 10
-3.999999999998635
 20
-2.0
 10
-3.999999999998635
 20
-13.29999999999995
 10
-3.539999999998599
 20
-13.75999999999999
 10
3.540000000001327
 20
-13.75999999999999
 10
4.000000000001364
 20
-13.29999999999995
 10
4.000000000001364
 20
-2.0
 10
3.840000000001509
 20
-1.907623956929683
 42
-0.2679491924311217
 10
3.540000000001327
 20
-1.388008714659008
 10
3.540000000001327
 20
0.0
  0
LINE
  5
8DE6A
330
8DE62
100
AcDbEntity
  8
-NORMTEIL_VERDECKT
100
AcDbLine
 10
-2.999999999998635
 20
-13.29999999999995
 30
0.0
 11
4.000000000001364
 21
-13.29999999999995
 31
0.0
  0
LINE
  5
8DE6B
330
8DE62
100
AcDbEntity
  8
-NORMTEIL_VERDECKT
100
AcDbLine
 10
-3.539999999998599
 20
-1.388008714659008
 30
0.0
 11
-3.539999999998599
 21
-13.75999999999999
 31
0.0
  0
LINE
  5
8DE6C
330
8DE62
100
AcDbEntity
  8
-NORMTEIL_VERDECKT
100
AcDbLine
 10
-4.754156673685884
 20
1.0
 30
0.0
 11
-1.754156673685884
 21
1.0
 31
0.0
  0
ENDBLK
  5
8DE6D
330
8DE62
100
AcDbEntity
  8
0
 62
     2
100
AcDbBlockEnd
  0
BLOCK
  5
8DE6F
330
8DE6E
100
AcDbEntity
  8
0
100
AcDbBlockBegin
  2
SA-SCHAFT607
 70
     0
 10
0.0
 20
0.0
 30
0.0
  3
SA-SCHAFT607
  1

  0
LINE
  5
8DE70
330
8DE6E
100
AcDbEntity
  8
-SCHRAFFUR
100
AcDbLine
 10
-17.43509995337535
 20
7.536745781992749
 30
0.0
 11
17.43491725726062
 21
7.526842544013334
 31
0.0
  0
LINE
  5
8DE71
330
8DE6E
100
AcDbEntity
  8
-SCHRAFFUR
100
AcDbLine
 10
-12.98550424457107
 20
4.791302546743509
 30
0.0
 11
12.98677583470862
 21
4.791085095070684
 31
0.0
  0
LWPOLYLINE
  5
8DE72
330
8DE6E
100
AcDbEntity
  8
-PROFILAUSSENKANTET
100
AcDbPolyline
 90
       15
 70
     0
 43
0.0
 10
8.950000000001637
 20
10.0
 10
17.50000000000136
 20
10.0
 10
17.50000000000136
 20
7.773514348924891
 42
-0.2638434610084327
 10
17.25661208264773
 20
7.344387049583701
 10
12.98677583470862
 20
4.791085095070684
 42
0.2638434610084382
 10
12.50000000000136
 20
3.932830496388305
 10
12.50000000000136
 20
0.5
 42
-0.4142135623730951
 10
12.00000000000136
 20
0.0
 10
-11.99999999999863
 20
0.0
 42
-0.4142135623730956
 10
-12.49999999999863
 20
0.5
 10
-12.49999999999863
 20
3.933809621030832
 42
0.2634471391023007
 10
-12.98550424457107
 20
4.791302546743509
 10
-17.25724787771241
 20
7.354348726628359
 42
-0.2634471391022999
 10
-17.49999999999863
 20
7.783095189484583
 10
-17.49999999999863
 20
10.0
  0
LWPOLYLINE
  5
8DE73
330
8DE6E
100
AcDbEntity
  8
-PROFILAUSSENKANTET
100
AcDbPolyline
 90
        2
 70
     0
 43
0.0
 10
-17.49999999999863
 20
10.0
 10
-8.949999999998453
 20
10.0
  0
LWPOLYLINE
  5
8DE74
330
8DE6E
100
AcDbEntity
  8
-NORMTEIL_VERDECKT
100
AcDbPolyline
 90
        4
 70
     0
 43
0.0
 10
-8.949999999998453
 20
10.0
 10
-8.949999999998453
 20
23.0
 10
8.950000000001637
 20
23.0
 10
8.950000000001637
 20
10.0
  0
ENDBLK
  5
8DE75
330
8DE6E
100
AcDbEntity
  8
0
100
AcDbBlockEnd
  0
BLOCK
  5
8DE80
330
8DE7F
100
AcDbEntity
  8
0
100
AcDbBlockBegin
  2
SA-FLACHSPIDER25
 70
     0
 10
0.0
 20
0.0
 30
0.0
  3
SA-FLACHSPIDER25
  1

  0
LWPOLYLINE
  5
8DE81
330
8DE7F
100
AcDbEntity
  8
-PROFILAUSSENKANTET
100
AcDbPolyline
 90
        4
 70
     1
 43
0.0
 10
-6.0
 20
12.5
 10
-5.999999999999971
 20
-12.50000000000003
 10
0.0000000000000284
 20
-12.50000000000003
 10
0.0
 20
12.5
  0
POINT
  5
8DE82
330
8DE7F
100
AcDbEntity
  8
-SYSTEM
100
AcDbPoint
 10
-6.0
 20
-0.0000000000000008
 30
0.0
  0
ENDBLK
  5
8DE83
330
8DE7F
100
AcDbEntity
  8
0
100
AcDbBlockEnd
  0
BLOCK
  5
BBD80
330
BBD7F
100
AcDbEntity
  8
0
 62
     2
100
AcDbBlockBegin
  2
AS-PH607
 70
     0
 10
0.0
 20
0.0
 30
0.0
  3
AS-PH607
  1

  0
CIRCLE
  5
BBD81
330
BBD7F
100
AcDbEntity
  8
-PROFILAUSSENKANTET
100
AcDbCircle
 10
0.0
 20
0.0000000000000142
 30
0.0
 40
17.5
  0
CIRCLE
  5
BBD82
330
BBD7F
100
AcDbEntity
  8
-SCHRAFFUR
100
AcDbCircle
 10
0.0
 20
0.0000000000000142
 30
0.0
 40
15.82879797458653
  0
LINE
  5
BBD83
330
BBD7F
100
AcDbEntity
  8
-SYSTEM
100
AcDbLine
 10
23.99725072776114
 20
0.0000000000001137
 30
0.0
 11
-23.99725072776113
 21
-0.0000000000001137
 31
0.0
  0
CIRCLE
  5
BBD84
330
BBD7F
100
AcDbEntity
  8
-PROFILAUSSENKANTET
100
AcDbCircle
 10
0.0000000000000142
 20
0.0
 30
0.0
 40
10.0
  0
CIRCLE
  5
BBD85
330
BBD7F
100
AcDbEntity
  8
-PROFILAUSSENKANTET
100
AcDbCircle
 10
7.0
 20
0.0000000000000426
 30
0.0
 40
1.75
  0
CIRCLE
  5
BBD86
330
BBD7F
100
AcDbEntity
  8
-PROFILAUSSENKANTET
100
AcDbCircle
 10
-3.500000000000014
 20
6.06217782649108
 30
0.0
 40
1.75
  0
CIRCLE
  5
BBD87
330
BBD7F
100
AcDbEntity
  8
-PROFILAUSSENKANTET
100
AcDbCircle
 10
-3.499999999999971
 20
-6.062177826491051
 30
0.0
 40
1.75
  0
LINE
  5
BBD88
330
BBD7F
100
AcDbEntity
  8
-SYSTEM
100
AcDbLine
 10
-0.0000000000001137
 20
23.99725072776114
 30
0.0
 11
0.0000000000001137
 21
-23.99725072776111
 31
0.0
  0
ENDBLK
  5
BBD89
330
BBD7F
100
AcDbEntity
  8
0
 62
     2
100
AcDbBlockEnd
  0
BLOCK
  5
BBD91
330
BBD90
100
AcDbEntity
  8
0
100
AcDbBlockBegin
  2
SA-ZYLINDERSCH2516
 70
     0
 10
0.0
 20
0.0
 30
0.0
  3
SA-ZYLINDERSCH2516
  1

  0
LINE
  5
BBD92
330
BBD90
100
AcDbEntity
  8
-NORMTEIL_VERDECKT
100
AcDbLine
 10
5.249999999999966
 20
-11.99999999999954
 30
0.0
 11
8.749999999999966
 21
-11.99999999999954
 31
0.0
  0
LWPOLYLINE
  5
BBD93
330
BBD90
100
AcDbEntity
  8
-NORMTEIL_VERDECKT
100
AcDbPolyline
 90
        5
 70
     0
 43
0.0
 10
5.249999999999966
 20
-15.99999999999954
 10
5.249999999999966
 20
-11.99999999999954
 10
6.999999999999966
 20
-10.99999999999954
 10
8.749999999999966
 20
-11.99999999999954
 10
8.749999999999966
 20
-15.99999999999954
  0
LWPOLYLINE
  5
BBD94
330
BBD90
100
AcDbEntity
  8
-PROFILAUSSENKANTET
100
AcDbPolyline
 90
        6
 70
     1
 43
0.0
 10
9.499999999999966
 20
-16.0
 42
0.4142135623730951
 10
12.49999999999996
 20
-13.0
 10
12.49999999999996
 20
0.0
 10
-12.50000000000003
 20
0.0
 10
-12.50000000000003
 20
-13.0
 42
0.4142135623730951
 10
-9.500000000000033
 20
-16.0
  0
LWPOLYLINE
  5
BBD95
330
BBD90
100
AcDbEntity
  8
-NORMTEIL_VERDECKT
100
AcDbPolyline
 90
        5
 70
     0
 43
0.0
 10
-5.250000000000033
 20
-15.99999999999954
 10
-5.250000000000033
 20
-11.99999999999954
 10
-3.500000000000034
 20
-10.99999999999954
 10
-1.750000000000034
 20
-11.99999999999954
 10
-1.750000000000034
 20
-15.99999999999954
  0
LINE
  5
BBD96
330
BBD90
100
AcDbEntity
  8
-NORMTEIL_VERDECKT
100
AcDbLine
 10
-5.250000000000033
 20
-11.99999999999954
 30
0.0
 11
-1.750000000000034
 21
-11.99999999999954
 31
0.0
  0
ENDBLK
  5
BBD97
330
BBD90
100
AcDbEntity
  8
0
100
AcDbBlockEnd
  0
BLOCK
  5
BBD99
330
BBD98
100
AcDbEntity
  8
0
100
AcDbBlockBegin
  2
SA-607
 70
     0
 10
0.0
 20
0.0
 30
0.0
  3
SA-607
  1

  0
LINE
  5
BBD9A
330
BBD98
100
AcDbEntity
  8
-SYSTEM
100
AcDbLine
 10
0.0
 20
40.47656553867819
 30
0.0
 11
0.0
 21
-31.0291738944843
 31
0.0
  0
INSERT
  5
BBD9B
330
BBD98
100
AcDbEntity
  8
0
100
AcDbBlockReference
  2
SA-SCHAFT607
 10
0.0
 20
0.0
 30
0.0
  0
INSERT
  5
BBD9C
330
BBD98
100
AcDbEntity
  8
-SYSTEM
 62
     2
100
AcDbBlockReference
  2
SA-HALTESCHEIBE35
 10
0.0
 20
27.51999999999998
 30
0.0
  0
INSERT
  5
BBD9D
330
BBD98
100
AcDbEntity
  8
-SCHRAFFUR
100
AcDbBlockReference
  2
SA-DICHTUNG
 10
0.0
 20
27.51999999999998
 30
0.0
 50
180.0
  0
INSERT
  5
BBD9E
330
BBD98
100
AcDbEntity
  8
-SCHRAFFUR
100
AcDbBlockReference
  2
SA-ZYLINDERSCH2516
 10
0.0
 20
-6.0
 30
0.0
  0
INSERT
  5
BBD9F
330
BBD98
100
AcDbEntity
  8
-SCHRAFFUR
100
AcDbBlockReference
  2
SA-DICHTUNG
 10
0.0
 20
10.0
 30
0.0
  0
ENDBLK
  5
BBDA0
330
BBD98
100
AcDbEntity
  8
0
100
AcDbBlockEnd
  0
BLOCK
  5
BBDA2
330
BBDA1
100
AcDbEntity
  8
0
 62
     2
100
AcDbBlockBegin
  2
SA-FS25
 70
     0
 10
0.0
 20
0.0
 30
0.0
  3
SA-FS25
  1

  0
INSERT
  5
BBDA3
330
BBDA1
100
AcDbEntity
  8
0
100
AcDbBlockReference
  2
SA-607
 10
-6.0
 20
0.0000000000000017
 30
0.0
 50
89.99999999999998
  0
INSERT
  5
BBDA4
330
BBDA1
100
AcDbEntity
  8
-SYSTEM
100
AcDbBlockReference
  2
SA-FLACHSPIDER25
 10
0.0
 20
0.0
 30
0.0
  0
ENDBLK
  5
BBDA5
330
BBDA1
100
AcDbEntity
  8
0
 62
     2
100
AcDbBlockEnd
  0
BLOCK
  5
C8978
330
C896E
100
AcDbEntity
  8
0
100
AcDbBlockBegin
  2
*D21
 70
     1
 10
0.0
 20
0.0
 30
0.0
  3
*D21
  1

  0
LINE
  5
CCE1B
330
C896E
100
AcDbEntity
  8
-TEXT3
370
    -2
100
AcDbLine
 10
33857.03585186775
 20
-14402.66297545753
 30
0.0
 11
33972.91910237905
 21
-14402.66297545753
 31
0.0
  0
LINE
  5
CCE1C
330
C896E
100
AcDbEntity
  8
-TEXT3
370
    -2
100
AcDbLine
 10
33857.03585186775
 20
-15002.96297545768
 30
0.0
 11
33972.91910237905
 21
-15002.96297545768
 31
0.0
  0
LINE
  5
CCE1D
330
C896E
100
AcDbEntity
  8
-TEXT3
370
    -2
100
AcDbLine
 10
33969.41910237905
 20
-14423.66297545753
 30
0.0
 11
33969.41910237905
 21
-14981.96297545768
 31
0.0
  0
SOLID
  5
CCE1E
330
C896E
100
AcDbEntity
  8
-TEXT3
100
AcDbTrace
 10
33965.91910237905
 20
-14423.66297545753
 30
0.0
 11
33972.91910237905
 21
-14423.66297545753
 31
0.0
 12
33969.41910237905
 22
-14402.66297545753
 32
0.0
 13
33969.41910237905
 23
-14402.66297545753
 33
0.0
  0
SOLID
  5
CCE1F
330
C896E
100
AcDbEntity
  8
-TEXT3
100
AcDbTrace
 10
33965.91910237905
 20
-14981.96297545768
 30
0.0
 11
33972.91910237905
 21
-14981.96297545768
 31
0.0
 12
33969.41910237905
 22
-15002.96297545768
 32
0.0
 13
33969.41910237905
 23
-15002.96297545768
 33
0.0
  0
MTEXT
  5
CCE20
330
C896E
100
AcDbEntity
  8
-TEXT3
100
AcDbMText
 10
33955.19706963689
 20
-14702.8129754576
 30
0.0
 40
21.0
 41
0.0
 71
     5
 72
     1
  1
600
 11
0.0000000000000001
 21
1.0
 31
0.0
 73
     1
 44
1.0
  0
POINT
  5
CCE21
330
C896E
100
AcDbEntity
  8
Defpoints
 62
     0
100
AcDbPoint
 10
33850.03585186776
 20
-14402.66297545753
 30
0.0
  0
POINT
  5
CCE22
330
C896E
100
AcDbEntity
  8
Defpoints
 62
     0
100
AcDbPoint
 10
33850.03585186776
 20
-15002.96297545768
 30
0.0
  0
POINT
  5
CCE23
330
C896E
100
AcDbEntity
  8
Defpoints
 62
     0
100
AcDbPoint
 10
33969.41910237905
 20
-15002.96297545768
 30
0.0
  0
ENDBLK
  5
C8979
330
C896E
100
AcDbEntity
  8
0
100
AcDbBlockEnd
  0
BLOCK
  5
CB02A
330
CB01E
100
AcDbEntity
  8
0
100
AcDbBlockBegin
  2
*D27
 70
     1
 10
0.0
 20
0.0
 30
0.0
  3
*D27
  1

  0
LINE
  5
CCE2D
330
CB01E
100
AcDbEntity
  8
-TEXT3
370
    -2
100
AcDbLine
 10
33803.55928632908
 20
-15183.96297545768
 30
0.0
 11
33803.55928632908
 21
-15142.55395282865
 31
0.0
  0
LINE
  5
CCE2E
330
CB01E
100
AcDbEntity
  8
-TEXT3
370
    -2
100
AcDbLine
 10
33821.55928632907
 20
-15109.96297545768
 30
0.0
 11
33821.55928632907
 21
-15149.55395282864
 31
0.0
  0
LINE
  5
CCE2F
330
CB01E
100
AcDbEntity
  8
-TEXT3
370
    -2
100
AcDbLine
 10
33782.55928632908
 20
-15146.05395282864
 30
0.0
 11
33761.55928632907
 21
-15146.05395282864
 31
0.0
  0
LINE
  5
CCE30
330
CB01E
100
AcDbEntity
  8
-TEXT3
370
    -2
100
AcDbLine
 10
33842.55928632907
 20
-15146.05395282864
 30
0.0
 11
33898.70730815718
 21
-15146.05395282864
 31
0.0
  0
LINE
  5
CCE31
330
CB01E
100
AcDbEntity
  8
-TEXT3
370
    -2
100
AcDbLine
 10
33803.55928632908
 20
-15146.05395282864
 30
0.0
 11
33821.55928632907
 21
-15146.05395282864
 31
0.0
  0
SOLID
  5
CCE32
330
CB01E
100
AcDbEntity
  8
-TEXT3
100
AcDbTrace
 10
33782.55928632908
 20
-15142.55395282865
 30
0.0
 11
33782.55928632908
 21
-15149.55395282864
 31
0.0
 12
33803.55928632908
 22
-15146.05395282864
 32
0.0
 13
33803.55928632908
 23
-15146.05395282864
 33
0.0
  0
SOLID
  5
CCE33
330
CB01E
100
AcDbEntity
  8
-TEXT3
100
AcDbTrace
 10
33842.55928632907
 20
-15142.55395282865
 30
0.0
 11
33842.55928632907
 21
-15149.55395282864
 31
0.0
 12
33821.55928632907
 22
-15146.05395282864
 32
0.0
 13
33821.55928632907
 23
-15146.05395282864
 33
0.0
  0
MTEXT
  5
CCE34
330
CB01E
100
AcDbEntity
  8
-TEXT3
100
AcDbMText
 10
33881.13329724313
 20
-15131.83192008649
 30
0.0
 40
21.0
 41
0.0
 71
     5
 72
     1
  1
18
 73
     1
 44
1.0
  0
POINT
  5
CCE35
330
CB01E
100
AcDbEntity
  8
Defpoints
 62
     0
100
AcDbPoint
 10
33803.55928632908
 20
-15190.96297545768
 30
0.0
  0
POINT
  5
CCE36
330
CB01E
100
AcDbEntity
  8
Defpoints
 62
     0
100
AcDbPoint
 10
33821.55928632907
 20
-15102.96297545768
 30
0.0
  0
POINT
  5
CCE37
330
CB01E
100
AcDbEntity
  8
Defpoints
 62
     0
100
AcDbPoint
 10
33821.55928632907
 20
-15146.05395282864
 30
0.0
  0
ENDBLK
  5
CB02B
330
CB01E
100
AcDbEntity
  8
0
100
AcDbBlockEnd
  0
BLOCK
  5
CC0B3
330
CC0A9
100
AcDbEntity
  8
0
100
AcDbBlockBegin
  2
*D32
 70
     1
 10
0.0
 20
0.0
 30
0.0
  3
*D32
  1

  0
LINE
  5
CCE4E
330
CC0A9
100
AcDbEntity
  8
-TEXT3
370
    -2
100
AcDbLine
 10
33780.55928632907
 20
-14202.66297545753
 30
0.0
 11
34082.8105458657
 21
-14202.66297545753
 31
0.0
  0
LINE
  5
CCE4F
330
CC0A9
100
AcDbEntity
  8
-TEXT3
370
    -2
100
AcDbLine
 10
33810.55928632906
 20
-15452.96297545768
 30
0.0
 11
34082.8105458657
 21
-15452.96297545768
 31
0.0
  0
LINE
  5
CCE50
330
CC0A9
100
AcDbEntity
  8
-TEXT3
370
    -2
100
AcDbLine
 10
34079.3105458657
 20
-14223.66297545753
 30
0.0
 11
34079.3105458657
 21
-15431.96297545768
 31
0.0
  0
SOLID
  5
CCE51
330
CC0A9
100
AcDbEntity
  8
-TEXT3
100
AcDbTrace
 10
34075.8105458657
 20
-14223.66297545753
 30
0.0
 11
34082.8105458657
 21
-14223.66297545753
 31
0.0
 12
34079.3105458657
 22
-14202.66297545753
 32
0.0
 13
34079.3105458657
 23
-14202.66297545753
 33
0.0
  0
SOLID
  5
CCE52
330
CC0A9
100
AcDbEntity
  8
-TEXT3
100
AcDbTrace
 10
34075.8105458657
 20
-15431.96297545768
 30
0.0
 11
34082.8105458657
 21
-15431.96297545768
 31
0.0
 12
34079.3105458657
 22
-15452.96297545768
 32
0.0
 13
34079.3105458657
 23
-15452.96297545768
 33
0.0
  0
MTEXT
  5
CCE53
330
CC0A9
100
AcDbEntity
  8
-TEXT3
100
AcDbMText
 10
34064.95242853964
 20
-14827.8129754576
 30
0.0
 40
21.0
 41
0.0
 71
     5
 72
     1
  1
Pfostenhöhe 1250
 11
0.0000000000000001
 21
1.0
 31
0.0
 73
     1
 44
1.0
  0
POINT
  5
CCE54
330
CC0A9
100
AcDbEntity
  8
Defpoints
 62
     0
100
AcDbPoint
 10
33773.55928632907
 20
-14202.66297545753
 30
0.0
  0
POINT
  5
CCE55
330
CC0A9
100
AcDbEntity
  8
Defpoints
 62
     0
100
AcDbPoint
 10
33803.55928632906
 20
-15452.96297545768
 30
0.0
  0
POINT
  5
CCE56
330
CC0A9
100
AcDbEntity
  8
Defpoints
 62
     0
100
AcDbPoint
 10
34079.3105458657
 20
-15452.96297545768
 30
0.0
  0
ENDBLK
  5
CC0B4
330
CC0A9
100
AcDbEntity
  8
0
100
AcDbBlockEnd
  0
BLOCK
  5
CC467
330
CC45B
100
AcDbEntity
  8
0
100
AcDbBlockBegin
  2
*D34
 70
     1
 10
0.0
 20
0.0
 30
0.0
  3
*D34
  1

  0
LINE
  5
CCE60
330
CC45B
100
AcDbEntity
  8
-TEXT3
370
    -2
100
AcDbLine
 10
33743.55928632907
 20
-15360.96297545768
 30
0.0
 11
33743.55928632907
 21
-15329.79822973464
 31
0.0
  0
LINE
  5
CCE61
330
CC45B
100
AcDbEntity
  8
-TEXT3
370
    -2
100
AcDbLine
 10
33731.55928632907
 20
-15360.96297545768
 30
0.0
 11
33731.55928632907
 21
-15329.79822973464
 31
0.0
  0
LINE
  5
CCE62
330
CC45B
100
AcDbEntity
  8
-TEXT3
370
    -2
100
AcDbLine
 10
33764.55928632906
 20
-15333.29822973464
 30
0.0
 11
33785.55928632906
 21
-15333.29822973464
 31
0.0
  0
LINE
  5
CCE63
330
CC45B
100
AcDbEntity
  8
-TEXT3
370
    -2
100
AcDbLine
 10
33710.55928632907
 20
-15333.29822973464
 30
0.0
 11
33654.66910897572
 21
-15333.29822973464
 31
0.0
  0
LINE
  5
CCE64
330
CC45B
100
AcDbEntity
  8
-TEXT3
370
    -2
100
AcDbLine
 10
33743.55928632907
 20
-15333.29822973464
 30
0.0
 11
33731.55928632907
 21
-15333.29822973464
 31
0.0
  0
SOLID
  5
CCE65
330
CC45B
100
AcDbEntity
  8
-TEXT3
100
AcDbTrace
 10
33764.55928632906
 20
-15329.79822973464
 30
0.0
 11
33764.55928632906
 21
-15336.79822973464
 31
0.0
 12
33743.55928632907
 22
-15333.29822973464
 32
0.0
 13
33743.55928632907
 23
-15333.29822973464
 33
0.0
  0
SOLID
  5
CCE66
330
CC45B
100
AcDbEntity
  8
-TEXT3
100
AcDbTrace
 10
33710.55928632907
 20
-15329.79822973464
 30
0.0
 11
33710.55928632907
 21
-15336.79822973464
 31
0.0
 12
33731.55928632907
 22
-15333.29822973464
 32
0.0
 13
33731.55928632907
 23
-15333.29822973464
 33
0.0
  0
MTEXT
  5
CCE67
330
CC45B
100
AcDbEntity
  8
-TEXT3
100
AcDbMText
 10
33672.1141976524
 20
-15319.25525565552
 30
0.0
 40
21.0
 41
0.0
 71
     5
 72
     1
  1
12
 73
     1
 44
1.0
  0
POINT
  5
CCE68
330
CC45B
100
AcDbEntity
  8
Defpoints
 62
     0
100
AcDbPoint
 10
33743.55928632907
 20
-15367.96297545768
 30
0.0
  0
POINT
  5
CCE69
330
CC45B
100
AcDbEntity
  8
Defpoints
 62
     0
100
AcDbPoint
 10
33731.55928632907
 20
-15367.96297545768
 30
0.0
  0
POINT
  5
CCE6A
330
CC45B
100
AcDbEntity
  8
Defpoints
 62
     0
100
AcDbPoint
 10
33731.55928632907
 20
-15333.29822973464
 30
0.0
  0
ENDBLK
  5
CC468
330
CC45B
100
AcDbEntity
  8
0
100
AcDbBlockEnd
  0
BLOCK
  5
CC5C1
330
CC5B7
100
AcDbEntity
  8
0
100
AcDbBlockBegin
  2
*D41
 70
     1
 10
0.0
 20
0.0
 30
0.0
  3
*D41
  1

  0
LINE
  5
CCE6B
330
CC5B7
100
AcDbEntity
  8
-TEXT3
370
    -2
100
AcDbLine
 10
32826.47292409511
 20
-15464.96297545768
 30
0.0
 11
32826.47292409511
 21
-15515.32390519876
 31
0.0
  0
LINE
  5
CCE6C
330
CC5B7
100
AcDbEntity
  8
-TEXT3
370
    -2
100
AcDbLine
 10
32991.47292409511
 20
-15464.96297545768
 30
0.0
 11
32991.47292409511
 21
-15515.32390519876
 31
0.0
  0
LINE
  5
CCE6D
330
CC5B7
100
AcDbEntity
  8
-TEXT3
370
    -2
100
AcDbLine
 10
32847.47292409511
 20
-15511.82390519876
 30
0.0
 11
32970.47292409511
 21
-15511.82390519876
 31
0.0
  0
SOLID
  5
CCE6E
330
CC5B7
100
AcDbEntity
  8
-TEXT3
100
AcDbTrace
 10
32847.47292409511
 20
-15508.32390519876
 30
0.0
 11
32847.47292409511
 21
-15515.32390519876
 31
0.0
 12
32826.47292409511
 22
-15511.82390519876
 32
0.0
 13
32826.47292409511
 23
-15511.82390519876
 33
0.0
  0
SOLID
  5
CCE6F
330
CC5B7
100
AcDbEntity
  8
-TEXT3
100
AcDbTrace
 10
32970.47292409511
 20
-15508.32390519876
 30
0.0
 11
32970.47292409511
 21
-15515.32390519876
 31
0.0
 12
32991.47292409511
 22
-15511.82390519876
 32
0.0
 13
32991.47292409511
 23
-15511.82390519876
 33
0.0
  0
MTEXT
  5
CCE70
330
CC5B7
100
AcDbEntity
  8
-TEXT3
100
AcDbMText
 10
32908.97292409511
 20
-15497.60187245661
 30
0.0
 40
21.0
 41
0.0
 71
     5
 72
     1
  1
165
 73
     1
 44
1.0
  0
POINT
  5
CCE71
330
CC5B7
100
AcDbEntity
  8
Defpoints
 62
     0
100
AcDbPoint
 10
32826.47292409511
 20
-15457.96297545768
 30
0.0
  0
POINT
  5
CCE72
330
CC5B7
100
AcDbEntity
  8
Defpoints
 62
     0
100
AcDbPoint
 10
32991.47292409511
 20
-15457.96297545768
 30
0.0
  0
POINT
  5
CCE73
330
CC5B7
100
AcDbEntity
  8
Defpoints
 62
     0
100
AcDbPoint
 10
32991.47292409511
 20
-15511.82390519876
 30
0.0
  0
ENDBLK
  5
CC5C2
330
CC5B7
100
AcDbEntity
  8
0
100
AcDbBlockEnd
  0
BLOCK
  5
CC5E0
330
CC5D6
100
AcDbEntity
  8
0
100
AcDbBlockBegin
  2
*D42
 70
     1
 10
0.0
 20
0.0
 30
0.0
  3
*D42
  1

  0
LINE
  5
CCE74
330
CC5D6
100
AcDbEntity
  8
-TEXT3
370
    -2
100
AcDbLine
 10
33724.55928632906
 20
-15367.96297545768
 30
0.0
 11
33683.21761157038
 21
-15367.96297545768
 31
0.0
  0
LINE
  5
CCE75
330
CC5D6
100
AcDbEntity
  8
-TEXT3
370
    -2
100
AcDbLine
 10
33724.55928632906
 20
-15457.96297545768
 30
0.0
 11
33683.21761157038
 21
-15457.96297545768
 31
0.0
  0
LINE
  5
CCE76
330
CC5D6
100
AcDbEntity
  8
-TEXT3
370
    -2
100
AcDbLine
 10
33686.71761157038
 20
-15388.96297545768
 30
0.0
 11
33686.71761157038
 21
-15436.96297545768
 31
0.0
  0
SOLID
  5
CCE77
330
CC5D6
100
AcDbEntity
  8
-TEXT3
100
AcDbTrace
 10
33683.21761157038
 20
-15388.96297545768
 30
0.0
 11
33690.21761157038
 21
-15388.96297545768
 31
0.0
 12
33686.71761157038
 22
-15367.96297545768
 32
0.0
 13
33686.71761157038
 23
-15367.96297545768
 33
0.0
  0
SOLID
  5
CCE78
330
CC5D6
100
AcDbEntity
  8
-TEXT3
100
AcDbTrace
 10
33683.21761157038
 20
-15436.96297545768
 30
0.0
 11
33690.21761157038
 21
-15436.96297545768
 31
0.0
 12
33686.71761157038
 22
-15457.96297545768
 32
0.0
 13
33686.71761157038
 23
-15457.96297545768
 33
0.0
  0
MTEXT
  5
CCE79
330
CC5D6
100
AcDbEntity
  8
-TEXT3
100
AcDbMText
 10
33672.49557882823
 20
-15412.96297545768
 30
0.0
 40
21.0
 41
0.0
 71
     5
 72
     1
  1
90
 11
0.0000000000000001
 21
1.0
 31
0.0
 73
     1
 44
1.0
  0
POINT
  5
CCE7A
330
CC5D6
100
AcDbEntity
  8
Defpoints
 62
     0
100
AcDbPoint
 10
33731.55928632907
 20
-15367.96297545768
 30
0.0
  0
POINT
  5
CCE7B
330
CC5D6
100
AcDbEntity
  8
Defpoints
 62
     0
100
AcDbPoint
 10
33731.55928632907
 20
-15457.96297545768
 30
0.0
  0
POINT
  5
CCE7C
330
CC5D6
100
AcDbEntity
  8
Defpoints
 62
     0
100
AcDbPoint
 10
33686.71761157038
 20
-15457.96297545768
 30
0.0
  0
ENDBLK
  5
CC5E1
330
CC5D6
100
AcDbEntity
  8
0
100
AcDbBlockEnd
  0
BLOCK
  5
CC5EC
330
CC5E3
100
AcDbEntity
  8
0
100
AcDbBlockBegin
  2
*D43
 70
     1
 10
0.0
 20
0.0
 30
0.0
  3
*D43
  1

  0
LINE
  5
CCE7D
330
CC5E3
100
AcDbEntity
  8
-TEXT3
370
    -2
100
AcDbLine
 10
33078.01925928354
 20
-15373.77990507598
 30
0.0
 11
33002.59565756934
 21
-15402.88315423731
 31
0.0
  0
LINE
  5
CCE7E
330
CC5E3
100
AcDbEntity
  8
-TEXT3
370
    -2
100
AcDbLine
 10
32950.35019062089
 20
-15423.04279667805
 30
0.0
 11
32930.75814051522
 21
-15430.60266259333
 31
0.0
  0
MTEXT
  5
CCE7F
330
CC5E3
100
AcDbEntity
  8
-TEXT3
100
AcDbMText
 10
33044.77221378027
 20
-15370.73514753968
 30
0.0
 40
21.0
 41
0.0
 71
     5
 72
     1
  1
\U+220514
 11
0.932954766936616
 21
0.3599936150131616
 31
0.0
 73
     1
 44
1.0
  0
LINE
  5
CCE80
330
CC5E3
100
AcDbEntity
  8
-TEXT3
370
    -2
100
AcDbLine
 10
32969.94224072655
 20
-15415.48293076278
 30
0.0
 11
32983.00360746367
 21
-15410.44302015259
 31
0.0
  0
SOLID
  5
CCE81
330
CC5E3
100
AcDbEntity
  8
-TEXT3
100
AcDbTrace
 10
32949.09021296833
 20
-15419.77745499377
 30
0.0
 11
32951.61016827343
 21
-15426.30813836233
 31
0.0
 12
32969.94224072655
 22
-15415.48293076278
 32
0.0
 13
32969.94224072655
 23
-15415.48293076278
 33
0.0
  0
SOLID
  5
CCE82
330
CC5E3
100
AcDbEntity
  8
-TEXT3
100
AcDbTrace
 10
33001.33567991679
 20
-15399.61781255304
 30
0.0
 11
33003.85563522188
 21
-15406.14849592159
 31
0.0
 12
32983.00360746367
 22
-15410.44302015259
 32
0.0
 13
32983.00360746367
 23
-15410.44302015259
 33
0.0
  0
POINT
  5
CCE83
330
CC5E3
100
AcDbEntity
  8
Defpoints
 62
     0
100
AcDbPoint
 10
32983.00360746367
 20
-15410.44302015259
 30
0.0
  0
POINT
  5
CCE84
330
CC5E3
100
AcDbEntity
  8
Defpoints
 62
     0
100
AcDbPoint
 10
32969.94224072655
 20
-15415.48293076278
 30
0.0
  0
ENDBLK
  5
CC5ED
330
CC5E3
100
AcDbEntity
  8
0
100
AcDbBlockEnd
  0
BLOCK
  5
CC69E
330
CC694
100
AcDbEntity
  8
0
100
AcDbBlockBegin
  2
*D51
 70
     1
 10
0.0
 20
0.0
 30
0.0
  3
*D51
  1

  0
LINE
  5
CCE9F
330
CC694
100
AcDbEntity
  8
-TEXT3
370
    -2
100
AcDbLine
 10
33803.55928632907
 20
-14797.41443616221
 30
0.0
 11
33803.55928632907
 21
-14780.57830108927
 31
0.0
  0
LINE
  5
CCEA0
330
CC694
100
AcDbEntity
  8
-TEXT3
370
    -2
100
AcDbLine
 10
33743.55928632907
 20
-14814.00085428271
 30
0.0
 11
33743.55928632907
 21
-14780.57830108927
 31
0.0
  0
LINE
  5
CCEA1
330
CC694
100
AcDbEntity
  8
-TEXT3
370
    -2
100
AcDbLine
 10
33782.55928632907
 20
-14784.07830108927
 30
0.0
 11
33764.55928632906
 21
-14784.07830108927
 31
0.0
  0
SOLID
  5
CCEA2
330
CC694
100
AcDbEntity
  8
-TEXT3
100
AcDbTrace
 10
33782.55928632907
 20
-14780.57830108927
 30
0.0
 11
33782.55928632907
 21
-14787.57830108927
 31
0.0
 12
33803.55928632907
 22
-14784.07830108927
 32
0.0
 13
33803.55928632907
 23
-14784.07830108927
 33
0.0
  0
SOLID
  5
CCEA3
330
CC694
100
AcDbEntity
  8
-TEXT3
100
AcDbTrace
 10
33764.55928632906
 20
-14780.57830108927
 30
0.0
 11
33764.55928632906
 21
-14787.57830108927
 31
0.0
 12
33743.55928632907
 22
-14784.07830108927
 32
0.0
 13
33743.55928632907
 23
-14784.07830108927
 33
0.0
  0
MTEXT
  5
CCEA4
330
CC694
100
AcDbEntity
  8
-TEXT3
100
AcDbMText
 10
33773.55928632907
 20
-14769.85626834712
 30
0.0
 40
21.0
 41
0.0
 71
     5
 72
     1
  1
60
 73
     1
 44
1.0
  0
POINT
  5
CCEA5
330
CC694
100
AcDbEntity
  8
Defpoints
 62
     0
100
AcDbPoint
 10
33803.55928632907
 20
-14804.41443616221
 30
0.0
  0
POINT
  5
CCEA6
330
CC694
100
AcDbEntity
  8
Defpoints
 62
     0
100
AcDbPoint
 10
33743.55928632907
 20
-14821.00085428271
 30
0.0
  0
POINT
  5
CCEA7
330
CC694
100
AcDbEntity
  8
Defpoints
 62
     0
100
AcDbPoint
 10
33743.55928632907
 20
-14784.07830108927
 30
0.0
  0
ENDBLK
  5
CC69F
330
CC694
100
AcDbEntity
  8
0
100
AcDbBlockEnd
  0
BLOCK
  5
CC6AC
330
CC6A0
100
AcDbEntity
  8
0
100
AcDbBlockBegin
  2
*D52
 70
     1
 10
0.0
 20
0.0
 30
0.0
  3
*D52
  1

  0
LINE
  5
CCEA8
330
CC6A0
100
AcDbEntity
  8
-TEXT3
370
    -2
100
AcDbLine
 10
32902.97292409511
 20
-14762.41443616228
 30
0.0
 11
32902.97292409511
 21
-14787.57830108927
 31
0.0
  0
LINE
  5
CCEA9
330
CC6A0
100
AcDbEntity
  8
-TEXT3
370
    -2
100
AcDbLine
 10
32914.97292409511
 20
-14762.41443616228
 30
0.0
 11
32914.97292409511
 21
-14787.57830108927
 31
0.0
  0
LINE
  5
CCEAA
330
CC6A0
100
AcDbEntity
  8
-TEXT3
370
    -2
100
AcDbLine
 10
32881.97292409511
 20
-14784.07830108927
 30
0.0
 11
32860.97292409511
 21
-14784.07830108927
 31
0.0
  0
LINE
  5
CCEAB
330
CC6A0
100
AcDbEntity
  8
-TEXT3
370
    -2
100
AcDbLine
 10
32935.97292409511
 20
-14784.07830108927
 30
0.0
 11
32991.86310144846
 21
-14784.07830108927
 31
0.0
  0
LINE
  5
CCEAC
330
CC6A0
100
AcDbEntity
  8
-TEXT3
370
    -2
100
AcDbLine
 10
32902.97292409511
 20
-14784.07830108927
 30
0.0
 11
32914.97292409511
 21
-14784.07830108927
 31
0.0
  0
SOLID
  5
CCEAD
330
CC6A0
100
AcDbEntity
  8
-TEXT3
100
AcDbTrace
 10
32881.97292409511
 20
-14780.57830108927
 30
0.0
 11
32881.97292409511
 21
-14787.57830108927
 31
0.0
 12
32902.97292409511
 22
-14784.07830108927
 32
0.0
 13
32902.97292409511
 23
-14784.07830108927
 33
0.0
  0
SOLID
  5
CCEAE
330
CC6A0
100
AcDbEntity
  8
-TEXT3
100
AcDbTrace
 10
32935.97292409511
 20
-14780.57830108927
 30
0.0
 11
32935.97292409511
 21
-14787.57830108927
 31
0.0
 12
32914.97292409511
 22
-14784.07830108927
 32
0.0
 13
32914.97292409511
 23
-14784.07830108927
 33
0.0
  0
MTEXT
  5
CCEAF
330
CC6A0
100
AcDbEntity
  8
-TEXT3
100
AcDbMText
 10
32974.41801277178
 20
-14770.03532701015
 30
0.0
 40
21.0
 41
0.0
 71
     5
 72
     1
  1
12
 73
     1
 44
1.0
  0
POINT
  5
CCEB0
330
CC6A0
100
AcDbEntity
  8
Defpoints
 62
     0
100
AcDbPoint
 10
32902.97292409511
 20
-14755.41443616228
 30
0.0
  0
POINT
  5
CCEB1
330
CC6A0
100
AcDbEntity
  8
Defpoints
 62
     0
100
AcDbPoint
 10
32914.97292409511
 20
-14755.41443616228
 30
0.0
  0
POINT
  5
CCEB2
330
CC6A0
100
AcDbEntity
  8
Defpoints
 62
     0
100
AcDbPoint
 10
32914.97292409511
 20
-14784.07830108927
 30
0.0
  0
ENDBLK
  5
CC6AD
330
CC6A0
100
AcDbEntity
  8
0
100
AcDbBlockEnd
  0
BLOCK
  5
CC8D3
330
CC8C9
100
AcDbEntity
  8
0
100
AcDbBlockBegin
  2
*D63
 70
     1
 10
0.0
 20
0.0
 30
0.0
  3
*D63
  1

  0
LINE
  5
CCEC7
330
CC8C9
100
AcDbEntity
  8
-TEXT3
370
    -2
100
AcDbLine
 10
32913.97292409512
 20
-14422.16297545753
 30
0.0
 11
32913.97292409512
 21
-14464.06861255172
 31
0.0
  0
LINE
  5
CCEC8
330
CC8C9
100
AcDbEntity
  8
-TEXT3
370
    -2
100
AcDbLine
 10
32993.97292409512
 20
-14433.66022618529
 30
0.0
 11
32993.97292409512
 21
-14464.06861255172
 31
0.0
  0
LINE
  5
CCEC9
330
CC8C9
100
AcDbEntity
  8
-TEXT3
370
    -2
100
AcDbLine
 10
32934.97292409512
 20
-14460.56861255172
 30
0.0
 11
32972.97292409512
 21
-14460.56861255172
 31
0.0
  0
SOLID
  5
CCECA
330
CC8C9
100
AcDbEntity
  8
-TEXT3
100
AcDbTrace
 10
32934.97292409512
 20
-14457.06861255172
 30
0.0
 11
32934.97292409512
 21
-14464.06861255172
 31
0.0
 12
32913.97292409512
 22
-14460.56861255172
 32
0.0
 13
32913.97292409512
 23
-14460.56861255172
 33
0.0
  0
SOLID
  5
CCECB
330
CC8C9
100
AcDbEntity
  8
-TEXT3
100
AcDbTrace
 10
32972.97292409512
 20
-14457.06861255172
 30
0.0
 11
32972.97292409512
 21
-14464.06861255172
 31
0.0
 12
32993.97292409512
 22
-14460.56861255172
 32
0.0
 13
32993.97292409512
 23
-14460.56861255172
 33
0.0
  0
MTEXT
  5
CCECC
330
CC8C9
100
AcDbEntity
  8
-TEXT3
100
AcDbMText
 10
32953.97292409512
 20
-14446.34657980957
 30
0.0
 40
21.0
 41
0.0
 71
     5
 72
     1
  1
80
 73
     1
 44
1.0
  0
POINT
  5
CCECD
330
CC8C9
100
AcDbEntity
  8
Defpoints
 62
     0
100
AcDbPoint
 10
32913.97292409512
 20
-14415.16297545753
 30
0.0
  0
POINT
  5
CCECE
330
CC8C9
100
AcDbEntity
  8
Defpoints
 62
     0
100
AcDbPoint
 10
32993.97292409512
 20
-14426.66022618529
 30
0.0
  0
POINT
  5
CCECF
330
CC8C9
100
AcDbEntity
  8
Defpoints
 62
     0
100
AcDbPoint
 10
32993.97292409512
 20
-14460.56861255172
 30
0.0
  0
ENDBLK
  5
CC8D4
330
CC8C9
100
AcDbEntity
  8
0
100
AcDbBlockEnd
  0
BLOCK
  5
CC8DF
330
CC8D5
100
AcDbEntity
  8
0
100
AcDbBlockBegin
  2
*D64
 70
     1
 10
0.0
 20
0.0
 30
0.0
  3
*D64
  1

  0
LINE
  5
CCED0
330
CC8D5
100
AcDbEntity
  8
-TEXT3
370
    -2
100
AcDbLine
 10
32903.97292409511
 20
-14422.16297545753
 30
0.0
 11
32903.97292409511
 21
-14464.06861255172
 31
0.0
  0
LINE
  5
CCED1
330
CC8D5
100
AcDbEntity
  8
-TEXT3
370
    -2
100
AcDbLine
 10
32823.97292409511
 20
-14433.66022618529
 30
0.0
 11
32823.97292409511
 21
-14464.06861255172
 31
0.0
  0
LINE
  5
CCED2
330
CC8D5
100
AcDbEntity
  8
-TEXT3
370
    -2
100
AcDbLine
 10
32882.97292409511
 20
-14460.56861255172
 30
0.0
 11
32844.97292409511
 21
-14460.56861255172
 31
0.0
  0
SOLID
  5
CCED3
330
CC8D5
100
AcDbEntity
  8
-TEXT3
100
AcDbTrace
 10
32882.97292409511
 20
-14457.06861255172
 30
0.0
 11
32882.97292409511
 21
-14464.06861255172
 31
0.0
 12
32903.97292409511
 22
-14460.56861255172
 32
0.0
 13
32903.97292409511
 23
-14460.56861255172
 33
0.0
  0
SOLID
  5
CCED4
330
CC8D5
100
AcDbEntity
  8
-TEXT3
100
AcDbTrace
 10
32844.97292409511
 20
-14457.06861255172
 30
0.0
 11
32844.97292409511
 21
-14464.06861255172
 31
0.0
 12
32823.97292409511
 22
-14460.56861255172
 32
0.0
 13
32823.97292409511
 23
-14460.56861255172
 33
0.0
  0
MTEXT
  5
CCED5
330
CC8D5
100
AcDbEntity
  8
-TEXT3
100
AcDbMText
 10
32863.97292409511
 20
-14446.34657980957
 30
0.0
 40
21.0
 41
0.0
 71
     5
 72
     1
  1
80
 73
     1
 44
1.0
  0
POINT
  5
CCED6
330
CC8D5
100
AcDbEntity
  8
Defpoints
 62
     0
100
AcDbPoint
 10
32903.97292409511
 20
-14415.16297545753
 30
0.0
  0
POINT
  5
CCED7
330
CC8D5
100
AcDbEntity
  8
Defpoints
 62
     0
100
AcDbPoint
 10
32823.97292409511
 20
-14426.66022618529
 30
0.0
  0
POINT
  5
CCED8
330
CC8D5
100
AcDbEntity
  8
Defpoints
 62
     0
100
AcDbPoint
 10
32823.97292409511
 20
-14460.56861255172
 30
0.0
  0
ENDBLK
  5
CC8E0
330
CC8D5
100
AcDbEntity
  8
0
100
AcDbBlockEnd
  0
BLOCK
  5
CC94E
330
CC944
100
AcDbEntity
  8
0
100
AcDbBlockBegin
  2
*D69
 70
     1
 10
0.0
 20
0.0
 30
0.0
  3
*D69
  1

  0
LINE
  5
CCED9
330
CC944
100
AcDbEntity
  8
-TEXT3
370
    -2
100
AcDbLine
 10
33857.03585186775
 20
-14402.66297545753
 30
0.0
 11
33972.91910237905
 21
-14402.66297545753
 31
0.0
  0
LINE
  5
CCEDA
330
CC944
100
AcDbEntity
  8
-TEXT3
370
    -2
100
AcDbLine
 10
33787.55928632906
 20
-14202.66297545753
 30
0.0
 11
33972.91910237905
 21
-14202.66297545753
 31
0.0
  0
LINE
  5
CCEDB
330
CC944
100
AcDbEntity
  8
-TEXT3
370
    -2
100
AcDbLine
 10
33969.41910237905
 20
-14381.66297545753
 30
0.0
 11
33969.41910237905
 21
-14223.66297545753
 31
0.0
  0
SOLID
  5
CCEDC
330
CC944
100
AcDbEntity
  8
-TEXT3
100
AcDbTrace
 10
33965.91910237905
 20
-14381.66297545753
 30
0.0
 11
33972.91910237905
 21
-14381.66297545753
 31
0.0
 12
33969.41910237905
 22
-14402.66297545753
 32
0.0
 13
33969.41910237905
 23
-14402.66297545753
 33
0.0
  0
SOLID
  5
CCEDD
330
CC944
100
AcDbEntity
  8
-TEXT3
100
AcDbTrace
 10
33965.91910237905
 20
-14223.66297545753
 30
0.0
 11
33972.91910237905
 21
-14223.66297545753
 31
0.0
 12
33969.41910237905
 22
-14202.66297545753
 32
0.0
 13
33969.41910237905
 23
-14202.66297545753
 33
0.0
  0
MTEXT
  5
CCEDE
330
CC944
100
AcDbEntity
  8
-TEXT3
100
AcDbMText
 10
33955.19706963689
 20
-14302.66297545753
 30
0.0
 40
21.0
 41
0.0
 71
     5
 72
     1
  1
200
 11
0.0000000000000001
 21
1.0
 31
0.0
 73
     1
 44
1.0
  0
POINT
  5
CCEDF
330
CC944
100
AcDbEntity
  8
Defpoints
 62
     0
100
AcDbPoint
 10
33850.03585186776
 20
-14402.66297545753
 30
0.0
  0
POINT
  5
CCEE0
330
CC944
100
AcDbEntity
  8
Defpoints
 62
     0
100
AcDbPoint
 10
33780.55928632907
 20
-14202.66297545753
 30
0.0
  0
POINT
  5
CCEE1
330
CC944
100
AcDbEntity
  8
Defpoints
 62
     0
100
AcDbPoint
 10
33969.41910237905
 20
-14202.66297545753
 30
0.0
  0
ENDBLK
  5
CC94F
330
CC944
100
AcDbEntity
  8
0
100
AcDbBlockEnd
  0
BLOCK
  5
CC9A5
330
CC999
100
AcDbEntity
  8
0
100
AcDbBlockBegin
  2
*D74
 70
     1
 10
0.0
 20
0.0
 30
0.0
  3
*D74
  1

  0
LINE
  5
CCEEB
330
CC999
100
AcDbEntity
  8
-TEXT3
370
    -2
100
AcDbLine
 10
32903.97292409511
 20
-14745.81297545761
 30
0.0
 11
32903.97292409511
 21
-14616.31394548984
 31
0.0
  0
LINE
  5
CCEEC
330
CC999
100
AcDbEntity
  8
-TEXT3
370
    -2
100
AcDbLine
 10
32913.97292409512
 20
-14745.81297545761
 30
0.0
 11
32913.97292409512
 21
-14616.31394548984
 31
0.0
  0
LINE
  5
CCEED
330
CC999
100
AcDbEntity
  8
-TEXT3
370
    -2
100
AcDbLine
 10
32882.97292409511
 20
-14619.81394548984
 30
0.0
 11
32861.97292409511
 21
-14619.81394548984
 31
0.0
  0
LINE
  5
CCEEE
330
CC999
100
AcDbEntity
  8
-TEXT3
370
    -2
100
AcDbLine
 10
32934.97292409512
 20
-14619.81394548984
 30
0.0
 11
33144.91468944301
 21
-14619.81394548984
 31
0.0
  0
LINE
  5
CCEEF
330
CC999
100
AcDbEntity
  8
-TEXT3
370
    -2
100
AcDbLine
 10
32903.97292409511
 20
-14619.81394548984
 30
0.0
 11
32913.97292409512
 21
-14619.81394548984
 31
0.0
  0
SOLID
  5
CCEF0
330
CC999
100
AcDbEntity
  8
-TEXT3
100
AcDbTrace
 10
32882.97292409511
 20
-14616.31394548984
 30
0.0
 11
32882.97292409511
 21
-14623.31394548983
 31
0.0
 12
32903.97292409511
 22
-14619.81394548984
 32
0.0
 13
32903.97292409511
 23
-14619.81394548984
 33
0.0
  0
SOLID
  5
CCEF1
330
CC999
100
AcDbEntity
  8
-TEXT3
100
AcDbTrace
 10
32934.97292409512
 20
-14616.31394548984
 30
0.0
 11
32934.97292409512
 21
-14623.31394548983
 31
0.0
 12
32913.97292409512
 22
-14619.81394548984
 32
0.0
 13
32913.97292409512
 23
-14619.81394548984
 33
0.0
  0
MTEXT
  5
CCEF2
330
CC999
100
AcDbEntity
  8
-TEXT3
100
AcDbMText
 10
33050.44380676906
 20
-14601.85547413922
 30
0.0
 40
21.0
 41
0.0
 71
     5
 72
     1
  1
Glasfuge {\H1.083x;~} 10
 73
     1
 44
1.0
  0
POINT
  5
CCEF3
330
CC999
100
AcDbEntity
  8
Defpoints
 62
     0
100
AcDbPoint
 10
32903.97292409511
 20
-14752.81297545761
 30
0.0
  0
POINT
  5
CCEF4
330
CC999
100
AcDbEntity
  8
Defpoints
 62
     0
100
AcDbPoint
 10
32913.97292409512
 20
-14752.81297545761
 30
0.0
  0
POINT
  5
CCEF5
330
CC999
100
AcDbEntity
  8
Defpoints
 62
     0
100
AcDbPoint
 10
32913.97292409512
 20
-14619.81394548984
 30
0.0
  0
ENDBLK
  5
CC9A6
330
CC999
100
AcDbEntity
  8
0
100
AcDbBlockEnd
  0
BLOCK
  5
CCA39
330
CCA2F
100
AcDbEntity
  8
0
100
AcDbBlockBegin
  2
*D78
 70
     1
 10
0.0
 20
0.0
 30
0.0
  3
*D78
  1

  0
LINE
  5
CCEF6
330
CCA2F
100
AcDbEntity
  8
-TEXT3
370
    -2
100
AcDbLine
 10
33864.03585186775
 20
-15002.96297545768
 30
0.0
 11
33972.91910237905
 21
-15002.96297545768
 31
0.0
  0
LINE
  5
CCEF7
330
CCA2F
100
AcDbEntity
  8
-TEXT3
370
    -2
100
AcDbLine
 10
33817.55928632906
 20
-15452.96297545768
 30
0.0
 11
33972.91910237905
 21
-15452.96297545768
 31
0.0
  0
LINE
  5
CCEF8
330
CCA2F
100
AcDbEntity
  8
-TEXT3
370
    -2
100
AcDbLine
 10
33969.41910237905
 20
-15023.96297545768
 30
0.0
 11
33969.41910237905
 21
-15431.96297545768
 31
0.0
  0
SOLID
  5
CCEF9
330
CCA2F
100
AcDbEntity
  8
-TEXT3
100
AcDbTrace
 10
33965.91910237905
 20
-15023.96297545768
 30
0.0
 11
33972.91910237905
 21
-15023.96297545768
 31
0.0
 12
33969.41910237905
 22
-15002.96297545768
 32
0.0
 13
33969.41910237905
 23
-15002.96297545768
 33
0.0
  0
SOLID
  5
CCEFA
330
CCA2F
100
AcDbEntity
  8
-TEXT3
100
AcDbTrace
 10
33965.91910237905
 20
-15431.96297545768
 30
0.0
 11
33972.91910237905
 21
-15431.96297545768
 31
0.0
 12
33969.41910237905
 22
-15452.96297545768
 32
0.0
 13
33969.41910237905
 23
-15452.96297545768
 33
0.0
  0
MTEXT
  5
CCEFB
330
CCA2F
100
AcDbEntity
  8
-TEXT3
100
AcDbMText
 10
33955.19706963689
 20
-15227.96297545768
 30
0.0
 40
21.0
 41
0.0
 71
     5
 72
     1
  1
450
 11
0.0000000000000001
 21
1.0
 31
0.0
 73
     1
 44
1.0
  0
POINT
  5
CCEFC
330
CCA2F
100
AcDbEntity
  8
Defpoints
 62
     0
100
AcDbPoint
 10
33857.03585186775
 20
-15002.96297545768
 30
0.0
  0
POINT
  5
CCEFD
330
CCA2F
100
AcDbEntity
  8
Defpoints
 62
     0
100
AcDbPoint
 10
33810.55928632906
 20
-15452.96297545768
 30
0.0
  0
POINT
  5
CCEFE
330
CCA2F
100
AcDbEntity
  8
Defpoints
 62
     0
100
AcDbPoint
 10
33969.41910237905
 20
-15452.96297545768
 30
0.0
  0
ENDBLK
  5
CCA3A
330
CCA2F
100
AcDbEntity
  8
0
100
AcDbBlockEnd
  0
BLOCK
  5
CCD36
330
CCD2D
100
AcDbEntity
  8
0
100
AcDbBlockBegin
  2
*D86
 70
     1
 10
0.0
 20
0.0
 30
0.0
  3
*D86
  1

  0
LINE
  5
CCF08
330
CCD2D
100
AcDbEntity
  8
-TEXT3
370
    -2
100
AcDbLine
 10
33109.74319935274
 20
-14372.69017683355
 30
0.0
 11
33031.24406521718
 21
-14393.0135174697
 31
0.0
  0
LINE
  5
CCF09
330
CCD2D
100
AcDbEntity
  8
-TEXT3
370
    -2
100
AcDbLine
 10
32956.70178297305
 20
-14412.31243344536
 30
0.0
 11
32936.37206963373
 21
-14417.57577416599
 31
0.0
  0
MTEXT
  5
CCF0A
330
CCD2D
100
AcDbEntity
  8
-TEXT3
100
AcDbMText
 10
33076.94674469699
 20
-14365.88352242072
 30
0.0
 40
21.0
 41
0.0
 71
     5
 72
     1
  1
\U+220535
 11
0.9680815875861931
 21
0.2506352724111187
 31
0.0
 73
     1
 44
1.0
  0
LINE
  5
CCF0B
330
CCD2D
100
AcDbEntity
  8
-TEXT3
370
    -2
100
AcDbLine
 10
32977.03149631235
 20
-14407.04909272473
 30
0.0
 11
33010.91435187788
 21
-14398.27685819034
 31
0.0
  0
SOLID
  5
CCF0C
330
CCD2D
100
AcDbEntity
  8
-TEXT3
100
AcDbTrace
 10
32955.82455951961
 20
-14408.92414788881
 30
0.0
 11
32957.57900642649
 21
-14415.70071900191
 31
0.0
 12
32977.03149631235
 22
-14407.04909272473
 32
0.0
 13
32977.03149631235
 23
-14407.04909272473
 33
0.0
  0
SOLID
  5
CCF0D
330
CCD2D
100
AcDbEntity
  8
-TEXT3
100
AcDbTrace
 10
33030.36684176374
 20
-14389.62523191315
 30
0.0
 11
33032.12128867062
 21
-14396.40180302625
 31
0.0
 12
33010.91435187788
 22
-14398.27685819034
 32
0.0
 13
33010.91435187788
 23
-14398.27685819034
 33
0.0
  0
POINT
  5
CCF0E
330
CCD2D
100
AcDbEntity
  8
Defpoints
 62
     0
100
AcDbPoint
 10
33010.91435187788
 20
-14398.27685819034
 30
0.0
  0
POINT
  5
CCF0F
330
CCD2D
100
AcDbEntity
  8
Defpoints
 62
     0
100
AcDbPoint
 10
32977.03149631235
 20
-14407.04909272473
 30
0.0
  0
ENDBLK
  5
CCD37
330
CCD2D
100
AcDbEntity
  8
0
100
AcDbBlockEnd
  0
BLOCK
  5
CCFAF
330
CCFA5
100
AcDbEntity
  8
0
100
AcDbBlockBegin
  2
*D95
 70
     1
 10
0.0
 20
0.0
 30
0.0
  3
*D95
  1

  0
LINE
  5
CCFBD
330
CCFA5
100
AcDbEntity
  8
-TEXT3
370
    -2
100
AcDbLine
 10
33857.03585186775
 20
-14402.66297545753
 30
0.0
 11
33902.95972656984
 21
-14402.66297545753
 31
0.0
  0
LINE
  5
CCFBE
330
CCFA5
100
AcDbEntity
  8
-TEXT3
370
    -2
100
AcDbLine
 10
33842.07928632908
 20
-14302.66297545753
 30
0.0
 11
33902.95972656984
 21
-14302.66297545753
 31
0.0
  0
LINE
  5
CCFBF
330
CCFA5
100
AcDbEntity
  8
-TEXT3
370
    -2
100
AcDbLine
 10
33899.45972656984
 20
-14381.66297545753
 30
0.0
 11
33899.45972656984
 21
-14323.66297545753
 31
0.0
  0
SOLID
  5
CCFC0
330
CCFA5
100
AcDbEntity
  8
-TEXT3
100
AcDbTrace
 10
33895.95972656984
 20
-14381.66297545753
 30
0.0
 11
33902.95972656984
 21
-14381.66297545753
 31
0.0
 12
33899.45972656984
 22
-14402.66297545753
 32
0.0
 13
33899.45972656984
 23
-14402.66297545753
 33
0.0
  0
SOLID
  5
CCFC1
330
CCFA5
100
AcDbEntity
  8
-TEXT3
100
AcDbTrace
 10
33895.95972656984
 20
-14323.66297545753
 30
0.0
 11
33902.95972656984
 21
-14323.66297545753
 31
0.0
 12
33899.45972656984
 22
-14302.66297545753
 32
0.0
 13
33899.45972656984
 23
-14302.66297545753
 33
0.0
  0
MTEXT
  5
CCFC2
330
CCFA5
100
AcDbEntity
  8
-TEXT3
100
AcDbMText
 10
33885.23769382769
 20
-14352.66297545752
 30
0.0
 40
21.0
 41
0.0
 71
     5
 72
     1
  1
80-250
 11
0.0000000000000001
 21
1.0
 31
0.0
 73
     1
 44
1.0
  0
POINT
  5
CCFC3
330
CCFA5
100
AcDbEntity
  8
Defpoints
 62
     0
100
AcDbPoint
 10
33850.03585186776
 20
-14402.66297545753
 30
0.0
  0
POINT
  5
CCFC4
330
CCFA5
100
AcDbEntity
  8
Defpoints
 62
     0
100
AcDbPoint
 10
33835.07928632908
 20
-14302.66297545753
 30
0.0
  0
POINT
  5
CCFC5
330
CCFA5
100
AcDbEntity
  8
Defpoints
 62
     0
100
AcDbPoint
 10
33899.45972656984
 20
-14302.66297545753
 30
0.0
  0
ENDBLK
  5
CCFB0
330
CCFA5
100
AcDbEntity
  8
0
100
AcDbBlockEnd
  0
BLOCK
  5
CCFBB
330
CCFB1
100
AcDbEntity
  8
0
100
AcDbBlockBegin
  2
*D96
 70
     1
 10
0.0
 20
0.0
 30
0.0
  3
*D96
  1

  0
LINE
  5
CCFC6
330
CCFB1
100
AcDbEntity
  8
-TEXT3
370
    -2
100
AcDbLine
 10
33842.07928632908
 20
-15102.96297545768
 30
0.0
 11
33902.95972656984
 21
-15102.96297545768
 31
0.0
  0
LINE
  5
CCFC7
330
CCFB1
100
AcDbEntity
  8
-TEXT3
370
    -2
100
AcDbLine
 10
33857.03585186775
 20
-15002.96297545768
 30
0.0
 11
33902.95972656984
 21
-15002.96297545768
 31
0.0
  0
LINE
  5
CCFC8
330
CCFB1
100
AcDbEntity
  8
-TEXT3
370
    -2
100
AcDbLine
 10
33899.45972656984
 20
-15081.96297545768
 30
0.0
 11
33899.45972656984
 21
-15023.96297545768
 31
0.0
  0
SOLID
  5
CCFC9
330
CCFB1
100
AcDbEntity
  8
-TEXT3
100
AcDbTrace
 10
33895.95972656984
 20
-15081.96297545768
 30
0.0
 11
33902.95972656984
 21
-15081.96297545768
 31
0.0
 12
33899.45972656984
 22
-15102.96297545768
 32
0.0
 13
33899.45972656984
 23
-15102.96297545768
 33
0.0
  0
SOLID
  5
CCFCA
330
CCFB1
100
AcDbEntity
  8
-TEXT3
100
AcDbTrace
 10
33895.95972656984
 20
-15023.96297545768
 30
0.0
 11
33902.95972656984
 21
-15023.96297545768
 31
0.0
 12
33899.45972656984
 22
-15002.96297545768
 32
0.0
 13
33899.45972656984
 23
-15002.96297545768
 33
0.0
  0
MTEXT
  5
CCFCB
330
CCFB1
100
AcDbEntity
  8
-TEXT3
100
AcDbMText
 10
33885.23769382769
 20
-15052.96297545768
 30
0.0
 40
21.0
 41
0.0
 71
     5
 72
     1
  1
80-500
 11
0.0000000000000001
 21
1.0
 31
0.0
 73
     1
 44
1.0
  0
POINT
  5
CCFCC
330
CCFB1
100
AcDbEntity
  8
Defpoints
 62
     0
100
AcDbPoint
 10
33835.07928632908
 20
-15102.96297545768
 30
0.0
  0
POINT
  5
CCFCD
330
CCFB1
100
AcDbEntity
  8
Defpoints
 62
     0
100
AcDbPoint
 10
33850.03585186776
 20
-15002.96297545768
 30
0.0
  0
POINT
  5
CCFCE
330
CCFB1
100
AcDbEntity
  8
Defpoints
 62
     0
100
AcDbPoint
 10
33899.45972656984
 20
-15002.96297545768
 30
0.0
  0
ENDBLK
  5
CCFBC
330
CCFB1
100
AcDbEntity
  8
0
100
AcDbBlockEnd
  0
ENDSEC
  0
SECTION
  2
ENTITIES
  0
LINE
  5
C8897
330
2
100
AcDbEntity
  8
-TEXT3
 62
    40
100
AcDbLine
 10
33208.86916317797
 20
-14160.26297545768
 30
0.0
 11
32609.07668501225
 21
-14160.26297545768
 31
0.0
  0
LINE
  5
C8898
330
2
100
AcDbEntity
  8
-TEXT3
 62
    40
100
AcDbLine
 10
33208.86916317797
 20
-14202.66297545768
 30
0.0
 11
32609.07668501225
 21
-14202.66297545768
 31
0.0
  0
INSERT
  5
C889B
330
2
100
AcDbEntity
  8
-TEXT3
100
AcDbBlockReference
  2
SA-FS25
 10
33803.55928632908
 20
-15002.96297545768
 30
0.0
 41
-1.0
  0
LINE
  5
C889E
330
2
100
AcDbEntity
  8
-PROFILAUSSENKANTE
 62
     4
100
AcDbLine
 10
32836.22037280903
 20
-15015.46297545768
 30
0.0
 11
32981.72547538119
 21
-15015.46297545768
 31
0.0
  0
LINE
  5
C889F
330
2
100
AcDbEntity
  8
-PROFILAUSSENKANTE
 62
     4
100
AcDbLine
 10
32836.22037280903
 20
-14990.46297545768
 30
0.0
 11
32981.72547538119
 21
-14990.46297545768
 31
0.0
  0
POINT
  5
C88A0
330
2
100
AcDbEntity
  8
-SYSTEM
 62
     2
100
AcDbPoint
 10
32823.97292409511
 20
-15002.96297545768
 30
0.0
  0
POINT
  5
C88A1
330
2
100
AcDbEntity
  8
-SYSTEM
 62
     2
100
AcDbPoint
 10
32993.97292409512
 20
-15002.96297545768
 30
0.0
  0
POINT
  5
C88A2
330
2
100
AcDbEntity
  8
-SYSTEM
 62
     2
100
AcDbPoint
 10
32993.97292409512
 20
-15002.96297545768
 30
0.0
  0
INSERT
  5
C88A3
330
2
100
AcDbEntity
  8
-SYSTEM
 62
     2
100
AcDbBlockReference
  2
AS-PH607
 10
32823.97292409511
 20
-15002.96297545768
 30
0.0
  0
INSERT
  5
C88A4
330
2
100
AcDbEntity
  8
-SYSTEM
 62
     2
100
AcDbBlockReference
  2
AS-PH607
 10
32993.97292409512
 20
-15002.96297545768
 30
0.0
  0
LINE
  5
C88A7
330
2
100
AcDbEntity
  8
-TEXT3
 62
    40
100
AcDbLine
 10
33208.86916317797
 20
-14202.66297545768
 30
0.0
 11
32609.07668501225
 21
-14202.66297545768
 31
0.0
  0
INSERT
  5
C88A8
330
2
100
AcDbEntity
  8
-TEXT3
100
AcDbBlockReference
  2
SA-FS25
 10
33803.55928632908
 20
-14402.66297545753
 30
0.0
 41
-1.0
  0
LINE
  5
C88A9
330
2
100
AcDbEntity
  8
-PROFILAUSSENKANTE
 62
     4
100
AcDbLine
 10
32836.22037280903
 20
-14415.16297545753
 30
0.0
 11
32981.72547538119
 21
-14415.16297545753
 31
0.0
  0
LINE
  5
C88AA
330
2
100
AcDbEntity
  8
-PROFILAUSSENKANTE
 62
     4
100
AcDbLine
 10
32836.22037280903
 20
-14390.16297545753
 30
0.0
 11
32981.72547538119
 21
-14390.16297545753
 31
0.0
  0
POINT
  5
C88AB
330
2
100
AcDbEntity
  8
-SYSTEM
 62
     2
100
AcDbPoint
 10
32823.97292409511
 20
-14402.66297545753
 30
0.0
  0
POINT
  5
C88AC
330
2
100
AcDbEntity
  8
-SYSTEM
 62
     2
100
AcDbPoint
 10
32993.97292409512
 20
-14402.66297545753
 30
0.0
  0
POINT
  5
C88AD
330
2
100
AcDbEntity
  8
-SYSTEM
 62
     2
100
AcDbPoint
 10
32993.97292409512
 20
-14402.66297545753
 30
0.0
  0
INSERT
  5
C88AE
330
2
100
AcDbEntity
  8
-SYSTEM
 62
     2
100
AcDbBlockReference
  2
AS-PH607
 10
32823.97292409511
 20
-14402.66297545753
 30
0.0
  0
INSERT
  5
C88AF
330
2
100
AcDbEntity
  8
-SYSTEM
 62
     2
100
AcDbBlockReference
  2
AS-PH607
 10
32993.97292409512
 20
-14402.66297545753
 30
0.0
  0
LWPOLYLINE
  5
C88B0
330
2
100
AcDbEntity
  8
-GLAS
 62
     1
100
AcDbPolyline
 90
        4
 70
     0
 43
0.0
 10
32609.07668501225
 20
-14302.66297545753
 10
32903.97292409511
 20
-14302.66297545753
 10
32903.97292409511
 20
-15102.96297545768
 10
32609.07668501225
 20
-15102.96297545768
  0
LINE
  5
C88B4
330
2
100
AcDbEntity
  8
-PROFILAUSSENKANTE
  6
Continuous
 62
     4
100
AcDbLine
 10
32902.97292409511
 20
-14249.66297545753
 30
0.0
 11
32902.97292409511
 21
-14390.16297545753
 31
0.0
  0
LINE
  5
C88B5
330
2
100
AcDbEntity
  8
-PROFILAUSSENKANTE
  6
Continuous
 62
     4
100
AcDbLine
 10
32914.97292409511
 20
-14990.46297545768
 30
0.0
 11
32914.9729240951
 21
-14415.16297545753
 31
0.0
  0
LWPOLYLINE
  5
C88B6
330
2
100
AcDbEntity
  8
-GLAS
 62
     1
100
AcDbPolyline
 90
        4
 70
     1
 43
0.0
 10
33821.55928632907
 20
-15102.96297545768
 10
33835.07928632908
 20
-15102.96297545768
 10
33835.07928632908
 20
-14302.66297545753
 10
33821.55928632907
 20
-14302.66297545753
  0
LINE
  5
C88B8
330
2
100
AcDbEntity
  8
-PROFILAUSSENKANTE
  6
Continuous
 62
     4
100
AcDbLine
 10
32914.97292409511
 20
-14302.66297545753
 30
0.0
 11
32902.97292409511
 21
-14302.66297545753
 31
0.0
  0
LINE
  5
C88B9
330
2
100
AcDbEntity
  8
-PROFILAUSSENKANTE
  6
Continuous
 62
     4
100
AcDbLine
 10
32902.97292409511
 20
-14255.46280301146
 30
0.0
 11
32914.97292409511
 21
-14255.46280301146
 31
0.0
  0
LWPOLYLINE
  5
C88BA
330
2
100
AcDbEntity
  8
-PROFILAUSSENKANTE
  6
Continuous
 62
     4
100
AcDbPolyline
 90
        4
 70
     0
 43
0.0
 10
32914.97292409511
 20
-14350.61107228843
 10
32914.97292409511
 20
-14204.66297545768
 10
32902.97292409511
 20
-14204.66297545768
 10
32902.97292409511
 20
-14350.61107228843
  0
DIMENSION
  5
C88BD
330
2
100
AcDbEntity
  8
-TEXT3
100
AcDbDimension
  2
*D21
 10
33969.41910237905
 20
-15002.96297545768
 30
0.0
 11
33955.19706963689
 21
-14702.8129754576
 31
0.0
 70
    32
 71
     5
 42
600.3000000001539
  3
Kopie(3) von 1-1
100
AcDbAlignedDimension
 13
33850.03585186776
 23
-14402.66297545753
 33
0.0
 14
33850.03585186776
 24
-15002.96297545768
 34
0.0
 50
90.0
100
AcDbRotatedDimension
  0
LWPOLYLINE
  5
C88C4
330
2
100
AcDbEntity
  8
-TEXT
100
AcDbPolyline
 90
        5
 70
     0
 43
0.0
 10
32344.41182423288
 20
-16615.27149675687
 10
34295.49161557264
 20
-16615.27149675687
 10
34295.49161557264
 20
-16035.22074798019
 10
32344.41182423288
 20
-16035.22074798019
 10
32344.41182423288
 20
-16615.27149675687
  0
LINE
  5
C88C5
330
2
100
AcDbEntity
  8
-ZEICHNUNGSRAND-INNEN
100
AcDbLine
 10
32344.41182423288
 20
-16377.97800862095
 30
0.0
 11
34295.49161557264
 21
-16377.97800862095
 31
0.0
  0
LINE
  5
C88C6
330
2
100
AcDbEntity
  8
-ZEICHNUNGSRAND-INNEN
100
AcDbLine
 10
32344.41182423288
 20
-16457.0758379996
 30
0.0
 11
34295.49161557264
 21
-16457.0758379996
 31
0.0
  0
TEXT
  5
C88C8
330
2
100
AcDbEntity
  8
-TEXT3
100
AcDbText
 10
32350.42325926565
 20
-16487.13301316347
 30
0.0
 40
18.78573447742676
  1
(Benennung)
 41
0.8
  7
LOGOCAD
100
AcDbText
  0
LINE
  5
C88C9
330
2
100
AcDbEntity
  8
-TEXT3
100
AcDbLine
 10
32344.41182423288
 20
-16417.15615223506
 30
0.0
 11
32783.99801100468
 21
-16417.15615223506
 31
0.0
  0
TEXT
  5
C88CB
330
2
100
AcDbEntity
  8
-TEXT3
100
AcDbText
 10
32350.42325926567
 20
-16447.21332739894
 30
0.0
 40
18.78573447742676
  1
Bearb.
 41
0.8
  7
LOGOCAD
100
AcDbText
  0
TEXT
  5
C88CE
330
2
100
AcDbEntity
  8
-TEXT3
100
AcDbText
 10
32448.10907854827
 20
-16407.29364163441
 30
0.0
 40
18.78573447742676
  1
Datum
 41
0.8
  7
LOGOCAD
100
AcDbText
  0
LINE
  5
C88CF
330
2
100
AcDbEntity
  8
-TEXT3
100
AcDbLine
 10
32442.09764351549
 20
-16377.23646647053
 30
0.0
 11
32442.09764351549
 21
-16457.0758379996
 31
0.0
  0
LINE
  5
C88D0
330
2
100
AcDbEntity
  8
-TEXT3
100
AcDbLine
 10
32588.62637243943
 20
-16377.23646647053
 30
0.0
 11
32588.62637243943
 21
-16457.0758379996
 31
0.0
  0
TEXT
  5
C88D1
330
2
100
AcDbEntity
  8
-TEXT3
100
AcDbText
 10
32594.63780747222
 20
-16407.29364163441
 30
0.0
 40
18.78573447742676
  1
Name
 41
0.8
  7
LOGOCAD
100
AcDbText
  0
LINE
  5
C88D2
330
2
100
AcDbEntity
  8
-TEXT
100
AcDbLine
 10
32783.99801100468
 20
-16457.0758379996
 30
0.0
 11
32783.99801100468
 21
-16377.97800862095
 31
0.0
  0
LINE
  5
C88D6
330
2
100
AcDbEntity
  8
-ZEICHNUNGSRAND-INNEN
100
AcDbLine
 10
33286.08789859063
 20
-16035.22074798019
 30
0.0
 11
33286.08789859063
 21
-16377.97800862095
 31
0.0
  0
LINE
  5
C88D7
330
2
100
AcDbEntity
  8
-TEXT2
100
AcDbLine
 10
33465.16215167038
 20
-16457.0758379996
 30
0.0
 11
33465.16215167038
 21
-16615.27149675687
 31
0.0
  0
MTEXT
  5
C88D9
330
2
100
AcDbEntity
  8
-TEXT2
100
AcDbMText
 10
33907.93312952964
 20
-16541.74842424062
 30
0.0
 40
31.6391317514556
 41
331.4365599988132
 71
     5
 72
     5
  1
Mittelpfosten
 73
     1
 44
1.0
1001
ACAD
1000
ACAD_MTEXT_DEFINED_HEIGHT_BEGIN
1070
    46
1040
0.0
1000
ACAD_MTEXT_DEFINED_HEIGHT_END
  0
LWPOLYLINE
  5
C88DD
330
2
100
AcDbEntity
  8
-ZEICHNUNGSRAND-INNEN
100
AcDbPolyline
 90
        4
 70
     1
 43
0.0
 10
32344.41182423288
 20
-16615.27149675687
 10
34295.49161557264
 20
-16615.27149675687
 10
34295.49161557264
 20
-13878.02229675687
 10
32344.41182423288
 20
-13878.02229675687
  0
CIRCLE
  5
C88E1
330
2
100
AcDbEntity
  8
-TEXT3
 62
    40
100
AcDbCircle
 10
33773.55928632907
 20
-14181.46297545753
 30
0.0
 40
21.2
  0
LWPOLYLINE
  5
C88E4
330
2
100
AcDbEntity
  8
-PROFILAUSSENKANTE
  6
Continuous
 62
     4
100
AcDbPolyline
 90
        4
 70
     1
 43
0.0
 10
32876.47292409511
 20
-14204.66297545768
 10
32941.47292409511
 20
-14204.66297545768
 10
32941.47292409511
 20
-14198.58576728613
 10
32876.47292409511
 20
-14198.58576728613
  0
LINE
  5
C88E5
330
2
100
AcDbEntity
  8
-PROFILAUSSENKANTE
  6
Continuous
 62
     4
100
AcDbLine
 10
32876.47292409511
 20
-14200.2011250058
 30
0.0
 11
32941.47292409511
 21
-14200.2011250058
 31
0.0
  0
LINE
  5
C88E6
330
2
100
AcDbEntity
  8
-VERDECKT
  6
STRICHLINIEX2
 62
     9
100
AcDbLine
 10
32876.47292409511
 20
-14202.6629754577
 30
0.0
 11
32941.47292409511
 21
-14202.6629754577
 31
0.0
  0
LWPOLYLINE
  5
C88E8
330
2
100
AcDbEntity
  8
-GLAS
 62
     1
100
AcDbPolyline
 90
        4
 70
     0
 43
0.0
 10
33208.86916317799
 20
-14302.66297545753
 10
32913.97292409512
 20
-14302.66297545753
 10
32913.97292409512
 20
-15102.96297545768
 10
33208.86916317799
 20
-15102.96297545768
  0
LWPOLYLINE
  5
C88ED
330
2
100
AcDbEntity
  8
-PROFILAUSSENKANTE
  6
Continuous
 62
     4
100
AcDbPolyline
 90
        4
 70
     1
 43
0.0
 10
33759.88004104608
 20
-14200.20112500563
 10
33761.0592863291
 20
-14198.58576728597
 42
0.3261766537242983
 10
33786.05928632905
 20
-14198.585767286
 10
33787.23853161212
 20
-14200.20112500563
 42
-0.3261766537242983
  0
LWPOLYLINE
  5
C8CC8
330
2
100
AcDbEntity
  8
-PROFILAUSSENKANTE
  6
Continuous
 62
     4
100
AcDbPolyline
 90
        4
 70
     1
 43
0.0
 10
32826.47292409512
 20
-15457.96297545768
 10
32991.47292409511
 20
-15457.96297545768
 10
32991.47292409511
 20
-15367.96297545768
 10
32826.47292409512
 20
-15367.96297545768
  0
CIRCLE
  5
C8CC9
330
2
100
AcDbEntity
  8
-PROFILAUSSENKANTE
  6
Continuous
 62
     4
100
AcDbCircle
 10
32841.47292409512
 20
-15412.96297545768
 30
0.0
 40
7.0
  0
CIRCLE
  5
C8CCA
330
2
100
AcDbEntity
  8
-PROFILAUSSENKANTE
  6
Continuous
 62
     4
100
AcDbCircle
 10
32976.47292409511
 20
-15412.96297545768
 30
0.0
 40
7.0
  0
LWPOLYLINE
  5
C8DBC
330
2
100
AcDbEntity
  8
-PROFILAUSSENKANTE
  6
Continuous
 62
     4
100
AcDbPolyline
 90
        4
 70
     1
 43
0.0
 10
33731.55928632907
 20
-15457.96297545768
 10
33743.55928632907
 20
-15457.96297545768
 10
33743.55928632907
 20
-15367.96297545768
 10
33731.55928632907
 20
-15367.96297545768
  0
LINE
  5
C8DBD
330
2
100
AcDbEntity
  8
-VERDECKT
  6
STRICHLINIEX2
 62
     9
100
AcDbLine
 10
33731.55928632907
 20
-15405.96297545768
 30
0.0
 11
33743.55928632907
 21
-15405.96297545768
 31
0.0
  0
LINE
  5
C8DBE
330
2
100
AcDbEntity
  8
-VERDECKT
  6
STRICHLINIEX2
 62
     9
100
AcDbLine
 10
33731.55928632907
 20
-15419.96297545768
 30
0.0
 11
33743.55928632907
 21
-15419.96297545768
 31
0.0
  0
DIMENSION
  5
CB01D
330
2
100
AcDbEntity
  8
-TEXT3
100
AcDbDimension
  2
*D27
 10
33821.55928632907
 20
-15146.05395282864
 30
0.0
 11
33881.13329724313
 21
-15131.83192008649
 31
0.0
 70
    32
 71
     5
 42
18.0
  3
Kopie(3) von 1-1
100
AcDbAlignedDimension
 13
33803.55928632908
 23
-15190.96297545768
 33
0.0
 14
33821.55928632907
 24
-15102.96297545768
 34
0.0
100
AcDbRotatedDimension
  0
DIMENSION
  5
CC0A8
330
2
100
AcDbEntity
  8
-TEXT3
100
AcDbDimension
  2
*D32
 10
34079.3105458657
 20
-15452.96297545768
 30
0.0
 11
34064.95242853964
 21
-14827.8129754576
 31
0.0
 70
    32
  1
Pfostenhöhe <>
 71
     5
 42
1250.300000000152
  3
Kopie(3) von 1-1
100
AcDbAlignedDimension
 13
33773.55928632907
 23
-14202.66297545753
 33
0.0
 14
33803.55928632906
 24
-15452.96297545768
 34
0.0
 50
90.0
100
AcDbRotatedDimension
  0
DIMENSION
  5
CC45A
330
2
100
AcDbEntity
  8
-TEXT3
100
AcDbDimension
  2
*D34
 10
33731.55928632907
 20
-15333.29822973464
 30
0.0
 11
33672.1141976524
 21
-15319.25525565552
 31
0.0
 70
    32
 71
     5
 42
12.0
  3
Kopie(3) von 1-1
100
AcDbAlignedDimension
 13
33743.55928632907
 23
-15367.96297545768
 33
0.0
 14
33731.55928632907
 24
-15367.96297545768
 34
0.0
100
AcDbRotatedDimension
  0
MTEXT
  5
CC4E7
330
2
100
AcDbEntity
  8
-TEXT2
100
AcDbMText
 10
32965.33358845041
 20
-16541.4894408975
 30
0.0
 40
31.6391317514556
 41
1139.138175864111
 71
     5
 72
     5
  1
Mittelpfosten zur Seitenmontage
 73
     1
 44
1.0
1001
ACAD
1000
ACAD_MTEXT_DEFINED_HEIGHT_BEGIN
1070
    46
1040
0.0
1000
ACAD_MTEXT_DEFINED_HEIGHT_END
  0
DIMENSION
  5
CC5B6
330
2
100
AcDbEntity
  8
-TEXT3
100
AcDbDimension
  2
*D41
 10
32991.47292409511
 20
-15511.82390519876
 30
0.0
 11
32908.97292409511
 21
-15497.60187245661
 31
0.0
 70
    32
 71
     5
 42
165.0000000000073
  3
Kopie(3) von 1-1
100
AcDbAlignedDimension
 13
32826.47292409511
 23
-15457.96297545768
 33
0.0
 14
32991.47292409511
 24
-15457.96297545768
 34
0.0
100
AcDbRotatedDimension
  0
DIMENSION
  5
CC5D5
330
2
100
AcDbEntity
  8
-TEXT3
100
AcDbDimension
  2
*D42
 10
33686.71761157038
 20
-15457.96297545768
 30
0.0
 11
33672.49557882823
 21
-15412.96297545768
 31
0.0
 70
    32
 71
     5
 42
90.0
  3
Kopie(3) von 1-1
100
AcDbAlignedDimension
 13
33731.55928632907
 23
-15367.96297545768
 33
0.0
 14
33731.55928632907
 24
-15457.96297545768
 34
0.0
 50
90.0
100
AcDbRotatedDimension
  0
DIMENSION
  5
CC5E2
330
2
100
AcDbEntity
  8
-TEXT3
100
AcDbDimension
  2
*D43
 10
32969.94224072655
 20
-15415.48293076278
 30
0.0
 11
33044.77221378027
 21
-15370.73514753968
 31
0.0
 70
    35
 71
     5
 42
14.00000000000364
  3
Kopie(3) von 1-1
100
AcDbDiametricDimension
 15
32983.00360746367
 25
-15410.44302015259
 35
0.0
 40
0.0
1001
ACAD
1000
DSTYLE
1002
{
1070
   288
1070
     1
1002
}
  0
DIMENSION
  5
CC692
330
2
100
AcDbEntity
  8
-TEXT3
100
AcDbDimension
  2
*D51
 10
33743.55928632907
 20
-14784.07830108927
 30
0.0
 11
33773.55928632907
 21
-14769.85626834712
 31
0.0
 70
    32
 71
     5
 42
60.0
  3
Kopie(3) von 1-1
100
AcDbAlignedDimension
 13
33803.55928632907
 23
-14804.41443616221
 33
0.0
 14
33743.55928632907
 24
-14821.00085428271
 34
0.0
100
AcDbRotatedDimension
  0
DIMENSION
  5
CC693
330
2
100
AcDbEntity
  8
-TEXT3
100
AcDbDimension
  2
*D52
 10
32914.97292409511
 20
-14784.07830108927
 30
0.0
 11
32974.41801277178
 21
-14784.07830108927
 31
0.0
 70
   160
 71
     5
 42
12.0
  3
Kopie(3) von 1-1
100
AcDbAlignedDimension
 13
32902.97292409511
 23
-14755.41443616228
 33
0.0
 14
32914.97292409511
 24
-14755.41443616228
 34
0.0
100
AcDbRotatedDimension
  0
DIMENSION
  5
CC8C7
330
2
100
AcDbEntity
  8
-TEXT3
100
AcDbDimension
  2
*D63
 10
32993.97292409512
 20
-14460.56861255172
 30
0.0
 11
32953.97292409512
 21
-14446.34657980957
 31
0.0
 70
    32
 71
     5
 42
79.99999999999272
  3
Kopie(3) von 1-1
100
AcDbAlignedDimension
 13
32913.97292409512
 23
-14415.16297545753
 33
0.0
 14
32993.97292409512
 24
-14426.66022618529
 34
0.0
100
AcDbRotatedDimension
  0
DIMENSION
  5
CC8C8
330
2
100
AcDbEntity
  8
-TEXT3
100
AcDbDimension
  2
*D64
 10
32823.97292409511
 20
-14460.56861255172
 30
0.0
 11
32863.97292409511
 21
-14446.34657980957
 31
0.0
 70
    32
 71
     5
 42
80.0
  3
Kopie(3) von 1-1
100
AcDbAlignedDimension
 13
32903.97292409511
 23
-14415.16297545753
 33
0.0
 14
32823.97292409511
 24
-14426.66022618529
 34
0.0
100
AcDbRotatedDimension
  0
MTEXT
  5
CC920
330
2
100
AcDbEntity
  8
-TEXT3
100
AcDbMText
 10
32453.10985508103
 20
-16434.95876893818
 30
0.0
 40
23.7293488135917
 41
324.0414358610254
 71
     4
 72
     5
  1
02.11.16     Mall
 73
     1
 44
1.0
1001
ACAD
1000
ACAD_MTEXT_DEFINED_HEIGHT_BEGIN
1070
    46
1040
0.0
1000
ACAD_MTEXT_DEFINED_HEIGHT_END
  0
MTEXT
  5
CC925
330
2
100
AcDbEntity
  8
-TEXT2
100
AcDbMText
 10
33540.46964790778
 20
-16420.81778672889
 30
0.0
 40
28.35
 41
1497.554942463246
 71
     5
 72
     5
  1
Geländersystem BALUGA FIX
 73
     1
 44
1.0
1001
ACAD
1000
ACAD_MTEXT_DEFINED_HEIGHT_BEGIN
1070
    46
1040
0.0
1000
ACAD_MTEXT_DEFINED_HEIGHT_END
  0
DIMENSION
  5
CC943
330
2
100
AcDbEntity
  8
-TEXT3
100
AcDbDimension
  2
*D69
 10
33969.41910237905
 20
-14202.66297545753
 30
0.0
 11
33955.19706963689
 21
-14302.66297545753
 31
0.0
 70
    32
 71
     5
 42
199.9999999999982
  3
Kopie(3) von 1-1
100
AcDbAlignedDimension
 13
33850.03585186776
 23
-14402.66297545753
 33
0.0
 14
33780.55928632907
 24
-14202.66297545753
 34
0.0
 50
90.0
100
AcDbRotatedDimension
  0
DIMENSION
  5
CC998
330
2
100
AcDbEntity
  8
-TEXT3
100
AcDbDimension
  2
*D74
 10
32913.97292409512
 20
-14619.81394548984
 30
0.0
 11
33050.44380676906
 21
-14601.85547413922
 31
0.0
 70
    32
  1
Glasfuge {\H1.083x;~} <>
 71
     5
 42
10.00000000000727
  3
Kopie(3) von 1-1
100
AcDbAlignedDimension
 13
32903.97292409511
 23
-14752.81297545761
 33
0.0
 14
32913.97292409512
 24
-14752.81297545761
 34
0.0
100
AcDbRotatedDimension
  0
DIMENSION
  5
CCA2E
330
2
100
AcDbEntity
  8
-TEXT3
100
AcDbDimension
  2
*D78
 10
33969.41910237905
 20
-15452.96297545768
 30
0.0
 11
33955.19706963689
 21
-15227.96297545768
 31
0.0
 70
    32
 71
     5
 42
450.0
  3
Kopie(3) von 1-1
100
AcDbAlignedDimension
 13
33857.03585186775
 23
-15002.96297545768
 33
0.0
 14
33810.55928632906
 24
-15452.96297545768
 34
0.0
 50
90.0
100
AcDbRotatedDimension
  0
MTEXT
  5
CCB04
330
2
100
AcDbEntity
  8
-TEXT2
100
AcDbMText
 10
33555.22157386203
 20
-16046.38961864844
 30
0.0
 40
58.1580886400464
 41
1096.061878032474
 71
     1
 72
     5
  1
{\fCentury Gothic|b0|i0|c0|p34;\P\fArial|b0|i0|c0|p34;\H0.625x;Industriestraße 7-8\P74740 Adelsheim\P\H0.8x;\C2;Tel.: 06291-6259-0\PFax: 06291-6259-11}
 73
     1
 44
1.0
1001
ACAD
1000
ACAD_MTEXT_DEFINED_HEIGHT_BEGIN
1070
    46
1040
0.0
1000
ACAD_MTEXT_DEFINED_HEIGHT_END
  0
IMAGE
  5
CCB05
330
2
100
AcDbEntity
  8
-TEXT3
 92
      140
310
8C0000000100000084000000060000000500000075114FB1275FE0401C8E16103F88CFC0000000000000000075114FB1275FE040B3213CBFBB52CFC000000000000000003E4EF9B2929EE040B3213CBFBB52CFC000000000000000003E4EF9B2929EE0401C8E16103F88CFC0000000000000000075114FB1275FE0401C8E16
310
103F88CFC00000000000000000
100
AcDbRasterImage
 90
        0
 10
33529.24039414796
 20
-16144.49267847003
 30
0.0
 11
1.0290952398496
 21
0.0
 31
0.0
 12
0.0000000000000001
 22
1.0290952398496
 32
0.0
 13
493.0
 23
104.0
340
CCAFC
 70
     7
280
     0
281
    50
282
    50
283
     0
360
CCB06
 71
     1
 91
        2
 14
-0.5
 24
-0.5
 14
492.4999999999999
 24
103.5
  0
LINE
  5
CCB21
330
2
100
AcDbEntity
  8
-PROFILAUSSENKANTE
  6
Continuous
 62
     4
100
AcDbLine
 10
32914.9729240951
 20
-14390.16297545753
 30
0.0
 11
32914.97292409511
 21
-14249.66297545753
 31
0.0
  0
LINE
  5
CCB22
330
2
100
AcDbEntity
  8
-PROFILAUSSENKANTE
  6
Continuous
 62
     4
100
AcDbLine
 10
32902.97292409511
 20
-14415.16297545753
 30
0.0
 11
32902.97292409511
 21
-14990.46297545768
 31
0.0
  0
LINE
  5
CCB2A
330
2
100
AcDbEntity
  8
-VERDECKT
  6
STRICHLINIEX2
 62
     9
100
AcDbLine
 10
32902.97292409511
 20
-14990.46297545768
 30
0.0
 11
32902.97292409511
 21
-15015.46297545768
 31
0.0
  0
LINE
  5
CCB2B
330
2
100
AcDbEntity
  8
-VERDECKT
  6
STRICHLINIEX2
 62
     9
100
AcDbLine
 10
32914.97292409511
 20
-14990.46297545768
 30
0.0
 11
32914.97292409511
 21
-15015.46297545768
 31
0.0
  0
LINE
  5
CCB2C
330
2
100
AcDbEntity
  8
-VERDECKT
  6
STRICHLINIEX2
 62
     9
100
AcDbLine
 10
32902.97292409511
 20
-14390.16297545753
 30
0.0
 11
32902.97292409511
 21
-14415.16297545753
 31
0.0
  0
LINE
  5
CCB2D
330
2
100
AcDbEntity
  8
-VERDECKT
  6
STRICHLINIEX2
 62
     9
100
AcDbLine
 10
32914.9729240951
 20
-14390.16297545753
 30
0.0
 11
32914.9729240951
 21
-14415.16297545753
 31
0.0
  0
LWPOLYLINE
  5
CCB35
330
2
100
AcDbEntity
  8
-PROFILAUSSENKANTE
  6
Continuous
 62
     4
100
AcDbPolyline
 90
        2
 70
     0
 43
0.0
 10
32902.97292409511
 20
-15452.96297545768
 10
32914.97292409511
 20
-15452.96297545768
  0
LWPOLYLINE
  5
CCB36
330
2
100
AcDbEntity
  8
-PROFILAUSSENKANTE
  6
Continuous
 62
     4
100
AcDbPolyline
 90
        4
 70
     0
 43
0.0
 10
32914.97292409511
 20
-15015.46297545768
 10
32914.97292409511
 20
-15452.96297545768
 10
32902.97292409511
 20
-15452.96297545768
 10
32902.97292409511
 20
-15015.46297545768
  0
LWPOLYLINE
  5
CCB3C
330
2
100
AcDbEntity
  8
-PROFILAUSSENKANTE
  6
Continuous
 62
     4
100
AcDbPolyline
 90
       11
 70
     1
 43
0.0
 10
33743.55928632907
 20
-15452.96297545768
 10
33743.55928632907
 20
-14335.83581169854
 10
33743.55928632907
 20
-14302.66297545753
 10
33765.18451747722
 20
-14256.28751760268
 42
0.1095178116837408
 10
33765.55928632908
 20
-14254.59704455571
 10
33765.55928632909
 20
-14204.66297545752
 10
33781.5592863291
 20
-14204.66297545752
 10
33781.55928632906
 20
-14254.59704455571
 42
0.1095178116836484
 10
33781.93405518091
 20
-14256.28751760267
 10
33803.55928632906
 20
-14302.66297545753
 10
33803.55928632906
 20
-15452.96297545768
  0
LINE
  5
CCBBF
330
2
100
AcDbEntity
  8
-TEXT2
100
AcDbLine
 10
34145.50346301423
 20
-16457.0758379996
 30
0.0
 11
34145.50346301423
 21
-16615.27149675687
 31
0.0
  0
MTEXT
  5
CCBC0
330
2
100
AcDbEntity
  8
-TEXT2
100
AcDbMText
 10
34231.48743079899
 20
-16541.74842424062
 30
0.0
 40
31.6391317514556
 41
331.4365599988132
 71
     5
 72
     5
  1
03
 73
     1
 44
1.0
1001
ACAD
1000
ACAD_MTEXT_DEFINED_HEIGHT_BEGIN
1070
    46
1040
0.0
1000
ACAD_MTEXT_DEFINED_HEIGHT_END
  0
MTEXT
  5
CCBC1
330
2
100
AcDbEntity
  8
-TEXT2
100
AcDbMText
 10
34176.73419548272
 20
-16482.34860762527
 30
0.0
 40
20.0
 41
331.4365599988132
 71
     5
 72
     5
  1
Blatt
 73
     1
 44
1.0
1001
ACAD
1000
ACAD_MTEXT_DEFINED_HEIGHT_BEGIN
1070
    46
1040
0.0
1000
ACAD_MTEXT_DEFINED_HEIGHT_END
  0
MTEXT
  5
CCC68
330
2
100
AcDbEntity
  8
-TEXT2
100
AcDbMText
 10
32370.28994374248
 20
-16205.54676133566
 30
0.0
 40
31.6391317514556
 41
1018.170453773077
 71
     4
 72
     5
  1
Alle Rechte vorbehalten, einschließlich des\PVervielfälltigens, Einlesens auf elektronischen\PDatenträgern und die Weitergabe an dritte\PPersonen nur nach ausdrücklicher\PGenehmigung der Firma Glassline GmbH
 73
     1
 44
1.0
1001
ACAD
1000
ACAD_MTEXT_DEFINED_HEIGHT_BEGIN
1070
    46
1040
0.0
1000
ACAD_MTEXT_DEFINED_HEIGHT_END
  0
DIMENSION
  5
CCD2C
330
2
100
AcDbEntity
  8
-TEXT3
100
AcDbDimension
  2
*D86
 10
32977.03149631235
 20
-14407.04909272473
 30
0.0
 11
33076.94674469699
 21
-14365.88352242072
 31
0.0
 70
    35
 71
     5
 42
35.0
  3
Kopie(3) von 1-1
100
AcDbDiametricDimension
 15
33010.91435187788
 25
-14398.27685819034
 35
0.0
 40
0.0
1001
ACAD
1000
DSTYLE
1002
{
1070
   288
1070
     1
1002
}
  0
MTEXT
  5
CCE17
330
2
100
AcDbEntity
  8
-TEXT2
100
AcDbMText
 10
32428.93268656473
 20
-15855.9410146485
 30
0.0
 40
25.0
 41
1018.170453773077
 71
     4
 72
     5
  1
Pfosten:^IFlach 60 x 12 mm\PFußplatte:^IFlach 165 x 90 x 12 mm\PMaterial:^IEdelstahl 1.4301, geschliffen\P^I^Ioder\P^I^IStahl, feuerverzinkt\PPunkthalter:^I%%C35 mm, Edelstahl 1.4301\PGlas:^I^IVSG-ESG 2 x 6 mm bzw. 2 x 8 mm
 73
     1
 44
1.0
1001
ACAD
1000
ACAD_MTEXT_DEFINED_HEIGHT_BEGIN
1070
    46
1040
0.0
1000
ACAD_MTEXT_DEFINED_HEIGHT_END
  0
DIMENSION
  5
CCFA3
330
2
100
AcDbEntity
  8
-TEXT3
100
AcDbDimension
  2
*D95
 10
33899.45972656984
 20
-14302.66297545753
 30
0.0
 11
33885.23769382769
 21
-14352.66297545752
 31
0.0
 70
    32
  1
80-250
 71
     5
 42
100.0
  3
Kopie(3) von 1-1
100
AcDbAlignedDimension
 13
33850.03585186776
 23
-14402.66297545753
 33
0.0
 14
33835.07928632908
 24
-14302.66297545753
 34
0.0
 50
90.0
100
AcDbRotatedDimension
  0
DIMENSION
  5
CCFA4
330
2
100
AcDbEntity
  8
-TEXT3
100
AcDbDimension
  2
*D96
 10
33899.45972656984
 20
-15002.96297545768
 30
0.0
 11
33885.23769382769
 21
-15052.96297545768
 31
0.0
 70
    32
  1
80-500
 71
     5
 42
100.0
  3
Kopie(3) von 1-1
100
AcDbAlignedDimension
 13
33835.07928632908
 23
-15102.96297545768
 33
0.0
 14
33850.03585186776
 24
-15002.96297545768
 34
0.0
 50
90.0
100
AcDbRotatedDimension
  0
ENDSEC
  0
SECTION
  2
OBJECTS
  0
DICTIONARY
  5
7
330
0
100
AcDbDictionary
281
     1
  3
ACAD_COLOR
350
54
  3
ACAD_GROUP
350
50
  3
ACAD_IMAGE_DICT
350
8DFE0
  3
ACAD_IMAGE_VARS
350
8DFE4
  3
ACAD_LAYOUT
350
3C
  3
ACAD_MATERIAL
350
53
  3
ACAD_MLINESTYLE
350
51
  3
ACAD_PLOTSETTINGS
350
52
  3
ACAD_PLOTSTYLENAME
350
6
  3
ACAD_TABLESTYLE
350
11C5F
  3
AcDbVariableDictionary
350
5E
  3
AEC_CLASSIFICATION_SYSTEM_DEFS
350
12D34
  3
AEC_PROPERTY_SET_DEFS
350
12D35
  3
ASE_INDEX_DICTIONARY
350
88576
  0
DICTIONARY
  5
42
330
41
100
AcDbDictionary
280
     1
281
     1
  3
ACAD_LAYERFILTERS
360
A6
  3
ACAD_LAYERSTATES
360
43
  0
DICTIONARY
  5
12DFF
330
2
100
AcDbDictionary
280
     1
281
     1
  3
ACAD_SORTENTS
360
12E00
  0
IMAGEDEF_REACTOR
  5
CCB06
330
CCB05
100
AcDbRasterImageDefReactor
 90
        2
330
CCB05
  0
DICTIONARY
  5
54
102
{ACAD_REACTORS
330
7
102
}
330
7
100
AcDbDictionary
281
     1
  0
DICTIONARY
  5
50
102
{ACAD_REACTORS
330
7
102
}
330
7
100
AcDbDictionary
281
     1
  0
DICTIONARY
  5
8DFE0
102
{ACAD_REACTORS
330
7
102
}
330
7
100
AcDbDictionary
281
     1
  3
Baluga_Logo_RGB_72dpi_neg
350
A1DE7
  3
DF D3-FS auf-FO
350
8DFE1
  3
DF FS auf
350
8DFE2
  3
EF E1-FS auf-FO
350
8E91F
  3
EF FS auf
350
8E7B0
  3
FE
350
9778E
  3
FM
350
97A70
  3
FT
350
AE06B
  3
G
350
97A71
  3
Glassline_Logo_RGB_72dpi
350
CCAFC
  3
Glassline_Logo_RGB_72dpi_neg
350
A1DE8
  3
O
350
B5B94
  3
S
350
A1DE9
  3
S1
350
BA4D8
  3
S3
350
97A72
  0
RASTERVARIABLES
  5
8DFE4
102
{ACAD_REACTORS
330
7
102
}
330
7
100
AcDbRasterVariables
 90
        0
 70
     0
 71
     1
 72
     1
  0
DICTIONARY
  5
3C
102
{ACAD_REACTORS
330
7
102
}
330
7
100
AcDbDictionary
281
     1
  3
Layout1
350
40
  3
Model
350
3B
  0
DICTIONARY
  5
53
102
{ACAD_REACTORS
330
7
102
}
330
7
100
AcDbDictionary
281
     1
  0
DICTIONARY
  5
51
102
{ACAD_REACTORS
330
7
102
}
330
7
100
AcDbDictionary
281
     1
  3
STANDARD
350
55
  0
DICTIONARY
  5
52
102
{ACAD_REACTORS
330
7
102
}
330
7
100
AcDbDictionary
281
     1
  0
ACDBDICTIONARYWDFLT
  5
6
102
{ACAD_REACTORS
330
7
102
}
330
7
100
AcDbDictionary
281
     1
  3
Normal
350
5
100
AcDbDictionaryWithDefault
340
5
  0
DICTIONARY
  5
11C5F
102
{ACAD_REACTORS
330
7
102
}
330
7
100
AcDbDictionary
281
     1
  3
Standard
350
11C60
  0
DICTIONARY
  5
5E
102
{ACAD_REACTORS
330
7
102
}
330
7
100
AcDbDictionary
281
     1
  3
CTABLESTYLE
350
12DB6
  3
DIMASSOC
350
60
  3
HIDETEXT
350
5F
  3
PROJECTNAME
350
61
  3
SORTENTS
350
2714
  0
DICTIONARY
  5
12D34
102
{ACAD_REACTORS
330
7
102
}
330
7
100
AcDbDictionary
281
     1
  0
DICTIONARY
  5
12D35
102
{ACAD_REACTORS
330
7
102
}
330
7
100
AcDbDictionary
281
     1
  0
DICTIONARY
  5
88576
102
{ACAD_REACTORS
330
7
102
}
330
7
100
AcDbDictionary
281
     1
  3
ASEBlockHierarchyIndexRecord
350
88577
1001
DCO15
1040
1587384448.274
  0
DICTIONARY
  5
A6
102
{ACAD_REACTORS
330
42
102
}
330
42
100
AcDbDictionary
280
     1
281
     1
  0
DICTIONARY
  5
43
102
{ACAD_REACTORS
330
42
102
}
330
42
100
AcDbDictionary
281
     1
  0
SORTENTSTABLE
  5
12E00
102
{ACAD_REACTORS
330
12DFF
102
}
330
12DFF
100
AcDbSortentsTable
330
2
331
C88DD
  5
C88FE
331
C889E
  5
C88B0
331
C88E5
  5
C890E
331
CCB22
  5
C88D0
331
C88AE
  5
C88C7
331
CCB2A
  5
CCB38
331
C88B6
  5
C88D3
331
C88ED
  5
C8914
331
C88C6
  5
C88E5
331
C88CE
  5
C88ED
331
CC925
  5
CCB01
331
C8897
  5
C88AC
331
C88D6
  5
C88F3
331
C889F
  5
C88B3
331
C88A7
  5
C88BB
331
C88E6
  5
C8911
331
C88AF
  5
C88CA
331
CC8C7
  5
CC998
331
CCB2B
  5
CCB39
331
CCA2E
  5
CCB1D
331
C8DBC
  5
CC4E6
331
C88CF
  5
C88EE
331
CCB04
  5
CCB2C
331
C8898
  5
C88AD
331
C88D7
  5
C88F4
331
C88A0
  5
C88B4
331
C88A8
  5
C88BE
331
CC5E2
  5
CC7C0
331
C88B0
  5
C88CB
331
CCB2C
  5
CCB3C
331
C88B8
  5
C88D4
331
C8DBD
  5
CC4E7
331
CCB3C
  5
CCB7B
331
CC8C8
  5
CC9B2
331
C88C8
  5
C88E6
331
C88D0
  5
C88EF
331
CCB05
  5
CCB2D
331
C88A1
  5
C88B5
331
C88A9
  5
C88C2
331
C88E8
  5
C8913
331
CCB2D
  5
CCB3D
331
C8DBE
  5
CC4EF
331
C88B9
  5
C88D7
331
CCB35
  5
C88B9
331
C88C9
  5
C88E7
331
CC920
  5
CCA5F
331
C88D1
  5
C88F0
331
C88D9
  5
C88F6
331
C88A2
  5
C88B6
331
C88E1
  5
C88FF
331
CB01D
  5
CC5EF
331
C88AA
  5
C88C3
331
CC692
  5
CC8C8
331
CC0A8
  5
CC663
331
CC4E7
  5
CC6EB
331
CCB36
  5
C88BA
331
C88BA
  5
C88D8
331
C88D2
  5
C88F1
331
C889B
  5
C88AF
331
C88A3
  5
C88B7
331
C8CC8
  5
CC073
331
C88AB
  5
C88C4
331
CC998
  5
CCB19
331
CC693
  5
CC8F3
331
CC5D5
  5
CC7B4
331
C88CB
  5
C88EA
331
CC5B6
  5
CC794
331
C88A4
  5
C88B8
331
C8CC9
  5
CC0A8
331
C88AC
  5
C88C5
331
C88B4
  5
C88CF
331
C88C4
  5
C88DE
331
C88E4
  5
C890C
331
C8CCA
  5
CC45A
331
CCB21
  5
C88D2
331
C88AD
  5
C88C6
331
CC943
  5
CCB0A
331
CC45A
  5
CC693
331
C88B5
  5
C88D1
331
C88BD
  5
C88D9
331
C88C5
  5
C88E2
  0
IMAGEDEF
  5
A1DE7
102
{ACAD_REACTORS
330
8DFE0
102
}
330
8DFE0
100
AcDbRasterImageDef
 90
        0
  1
S:\Marketing\Logos\Baluga\Schwarz\Baluga_Logo_RGB_72dpi_neg.tif
 10
560.0
 20
99.0
 11
0.3527777777777778
 21
0.3527777777777778
280
     1
281
     5
  0
IMAGEDEF
  5
8DFE1
102
{ACAD_REACTORS
330
8DFE0
102
}
330
8DFE0
100
AcDbRasterImageDef
 90
        0
  1
S:\Geländerfotos\Technische Dokumentation\Doppelpfosten_Übersicht\DF D3-FS auf-FO.jpg
 10
1181.0
 20
2362.0
 11
0.0846666666666667
 21
0.0846666666666667
280
     1
281
     5
  0
IMAGEDEF
  5
8DFE2
102
{ACAD_REACTORS
330
8DFE0
102
}
330
8DFE0
100
AcDbRasterImageDef
 90
        0
  1
S:\Geländerfotos\Technische Dokumentation\Doppelpfosten_Glasverbindung\DF FS auf.jpg
 10
711.0
 20
473.0
 11
0.0014064697609001
 21
0.0014064697609001
280
     1
281
     0
  0
IMAGEDEF
  5
8E91F
102
{ACAD_REACTORS
330
8DFE0
102
}
330
8DFE0
100
AcDbRasterImageDef
 90
        0
  1
S:\Geländerfotos\Technische Dokumentation\Einfachpfosten_Übersicht\EF E1-FS auf-FO.jpg
 10
1181.0
 20
2362.0
 11
0.0846666666666667
 21
0.0846666666666667
280
     1
281
     5
  0
IMAGEDEF
  5
8E7B0
102
{ACAD_REACTORS
330
8DFE0
102
}
330
8DFE0
100
AcDbRasterImageDef
 90
        0
  1
S:\Geländerfotos\Technische Dokumentation\Einfachpfosten_Glasverbindung\EF FS auf.jpg
 10
711.0
 20
473.0
 11
0.0014064697609001
 21
0.0014064697609001
280
     1
281
     0
  0
IMAGEDEF
  5
9778E
102
{ACAD_REACTORS
330
8DFE0
102
}
330
8DFE0
100
AcDbRasterImageDef
 90
        0
  1
S:\CAD-Arbeitsordner\ASV 4\Technische Doku\Bilder Prospekt\Single\Glasverbindung\Flach-Spider-System\FE.jpg
 10
709.0
 20
474.0
 11
0.0846666666666667
 21
0.0846666666666667
280
     1
281
     5
  0
IMAGEDEF
  5
97A70
102
{ACAD_REACTORS
330
8DFE0
102
}
330
8DFE0
100
AcDbRasterImageDef
 90
        0
  1
S:\CAD-Arbeitsordner\ASV 4\Technische Doku\Bilder Prospekt\Single\Glasverbindung\FM.jpg
 10
711.0
 20
473.0
 11
0.0846666666666667
 21
0.0846666666666667
280
     1
281
     5
  0
IMAGEDEF
  5
AE06B
102
{ACAD_REACTORS
330
8DFE0
102
}
330
8DFE0
100
AcDbRasterImageDef
 90
        0
  1
S:\CAD-Arbeitsordner\ASV 4\Technische Doku\Bilder Prospekt\Single\Glasverbindung\Flach-Spider-System\FT.jpg
 10
709.0
 20
490.0
 11
0.0846666666666667
 21
0.0846666666666667
280
     1
281
     5
  0
IMAGEDEF
  5
97A71
102
{ACAD_REACTORS
330
8DFE0
102
}
330
8DFE0
100
AcDbRasterImageDef
 90
        0
  1
S:\CAD-Arbeitsordner\ASV 4\Technische Doku\Bilder Prospekt\Single\Anschluß an den Baukörper\G.jpg
 10
711.0
 20
473.0
 11
0.0846666666666667
 21
0.0846666666666667
280
     1
281
     5
  0
IMAGEDEF
  5
CCAFC
102
{ACAD_REACTORS
330
8DFE0
330
CCB00
330
CCB03
330
CCB06
330
CCB09
330
CCB0C
330
CCB0F
102
}
330
8DFE0
100
AcDbRasterImageDef
 90
        0
  1
T:\Marketing\Öffentlich\Logo\Glassline_Logo_RGB_72dpi.jpg
 10
493.0
 20
104.0
 11
0.3527777777777778
 21
0.3527777777777778
280
     1
281
     5
  0
IMAGEDEF
  5
A1DE8
102
{ACAD_REACTORS
330
8DFE0
102
}
330
8DFE0
100
AcDbRasterImageDef
 90
        0
  1
S:\Marketing\Logos\Glassline\Neu\Schwarz\Glassline_Logo_RGB_72dpi_neg.tif
 10
560.0
 20
99.0
 11
0.3527777777777778
 21
0.3527777777777778
280
     1
281
     5
  0
IMAGEDEF
  5
B5B94
102
{ACAD_REACTORS
330
8DFE0
102
}
330
8DFE0
100
AcDbRasterImageDef
 90
        0
  1
S:\CAD-Arbeitsordner\ASV 4\Technische Doku\Bilder Prospekt\Single\Anschluß an den Baukörper\O.jpg
 10
711.0
 20
473.0
 11
0.0846666666666667
 21
0.0846666666666667
280
     1
281
     5
  0
IMAGEDEF
  5
A1DE9
102
{ACAD_REACTORS
330
8DFE0
102
}
330
8DFE0
100
AcDbRasterImageDef
 90
        0
  1
S:\CAD-Arbeitsordner\ASV 4\Technische Doku\Bilder Prospekt\Single\Anschluß an den Baukörper\S.jpg
 10
711.0
 20
473.0
 11
0.0846666666666667
 21
0.0846666666666667
280
     1
281
     5
  0
IMAGEDEF
  5
BA4D8
102
{ACAD_REACTORS
330
8DFE0
102
}
330
8DFE0
100
AcDbRasterImageDef
 90
        0
  1
S:\CAD-Arbeitsordner\ASV 4\Technische Doku\Bilder Prospekt\Single\Designvariante\S1.jpg
 10
711.0
 20
473.0
 11
0.0846666666666667
 21
0.0846666666666667
280
     1
281
     5
  0
IMAGEDEF
  5
97A72
102
{ACAD_REACTORS
330
8DFE0
102
}
330
8DFE0
100
AcDbRasterImageDef
 90
        0
  1
S:\CAD-Arbeitsordner\ASV 4\Technische Doku\Bilder Prospekt\Single\Designvariante\S3.jpg
 10
711.0
 20
473.0
 11
0.0846666666666667
 21
0.0846666666666667
280
     1
281
     5
  0
LAYOUT
  5
40
102
{ACAD_REACTORS
330
3C
102
}
330
3C
100
AcDbPlotSettings
  1

  2
\\weckesser\hp deskjet 840c series
  4

  6

 40
0.0
 41
0.0
 42
0.0
 43
0.0
 44
0.0
 45
0.0
 46
0.0
 47
0.0
 48
0.0
 49
0.0
140
0.0
141
0.0
142
1.0
143
1.0
 70
   688
 72
     0
 73
     0
 74
     5
  7
brüstung.ctb
 75
    16
147
1.0
 76
     0
 77
     2
 78
   300
148
0.0
149
0.0
100
AcDbLayout
  1
Layout1
 70
     1
 71
     1
 10
0.0
 20
0.0
 11
12.0
 21
9.0
 12
0.0
 22
0.0
 32
0.0
 14
1.000000000000000E+20
 24
1.000000000000000E+20
 34
1.000000000000000E+20
 15
-1.000000000000000E+20
 25
-1.000000000000000E+20
 35
-1.000000000000000E+20
146
0.0
 13
0.0
 23
0.0
 33
0.0
 16
1.0
 26
0.0
 36
0.0
 17
0.0
 27
1.0
 37
0.0
 76
     0
330
3D
  0
LAYOUT
  5
3B
102
{ACAD_REACTORS
330
3C
102
}
330
3C
100
AcDbPlotSettings
  1

  2
Adobe PDF
  4
A4
  6

 40
3.174999952316284
 41
3.174999952316284
 42
3.175003051757812
 43
3.17498779296875
 44
209.9098358154297
 45
297.0318298339844
 46
0.0
 47
73.61681887927471
 48
6351.934222492825
 49
396.6156545732088
140
11044.98577421282
141
3703.79963397321
142
1.0
143
23.05489981448933
 70
 28340
 72
     1
 73
     0
 74
     4
  7
brüstung.ctb
 75
     0
147
0.0433747276304159
 76
     0
 77
     2
 78
   150
148
-6351.934222492825
149
-396.6156545732088
100
AcDbLayout
  1
Model
 70
     1
 71
     0
 10
0.0
 20
0.0
 11
12.0
 21
9.0
 12
0.0
 22
0.0
 32
0.0
 14
0.0
 24
0.0
 34
0.0
 15
0.0
 25
0.0
 35
0.0
146
0.0
 13
0.0
 23
0.0
 33
0.0
 16
1.0
 26
0.0
 36
0.0
 17
0.0
 27
1.0
 37
0.0
 76
     0
330
2
1001
ACAD_PSEXT
1000
Adobe PDF
1000
Adobe PDF Converter
1000
Eigene Dateien
1000

1070
     0
  0
MLINESTYLE
  5
55
102
{ACAD_REACTORS
330
51
102
}
330
51
100
AcDbMlineStyle
  2
STANDARD
 70
     0
  3

 62
     0
 51
90.0
 52
90.0
 71
     2
 49
0.5
 62
   256
  6
BYLAYER
 49
-0.5
 62
   256
  6
BYLAYER
  0
ACDBPLACEHOLDER
  5
5
102
{ACAD_REACTORS
330
6
102
}
330
6
  0
TABLESTYLE
  5
11C60
102
{ACAD_REACTORS
330
11C5F
102
}
330
11C5F
100
AcDbTableStyle
  3
Standard
 70
     0
 71
     0
 40
0.06
 41
0.06
280
     0
281
     0
  7
STANDARD
140
0.18
170
     2
 62
     0
 63
     7
283
     0
274
    -2
284
     1
 64
     0
275
    -2
285
     1
 65
     0
276
    -2
286
     1
 66
     0
277
    -2
287
     1
 67
     0
278
    -2
288
     1
 68
     0
279
    -2
289
     1
 69
     0
  7
STANDARD
140
0.25
170
     5
 62
     0
 63
     7
283
     0
274
    -2
284
     1
 64
     0
275
    -2
285
     1
 65
     0
276
    -2
286
     1
 66
     0
277
    -2
287
     1
 67
     0
278
    -2
288
     1
 68
     0
279
    -2
289
     1
 69
     0
  7
STANDARD
140
0.18
170
     5
 62
     0
 63
     7
283
     0
274
    -2
284
     1
 64
     0
275
    -2
285
     1
 65
     0
276
    -2
286
     1
 66
     0
277
    -2
287
     1
 67
     0
278
    -2
288
     1
 68
     0
279
    -2
289
     1
 69
     0
  0
DICTIONARYVAR
  5
12DB6
102
{ACAD_REACTORS
330
5E
102
}
330
5E
100
DictionaryVariables
280
     0
  1
STANDARD
  0
DICTIONARYVAR
  5
60
102
{ACAD_REACTORS
330
5E
102
}
330
5E
100
DictionaryVariables
280
     0
  1
1
  0
DICTIONARYVAR
  5
5F
102
{ACAD_REACTORS
330
5E
102
}
330
5E
100
DictionaryVariables
280
     0
  1
1
  0
DICTIONARYVAR
  5
61
102
{ACAD_REACTORS
330
5E
102
}
330
5E
100
DictionaryVariables
280
     0
  1

  0
DICTIONARYVAR
  5
2714
102
{ACAD_REACTORS
330
5E
102
}
330
5E
100
DictionaryVariables
280
     0
  1
96
  0
XRECORD
  5
88577
102
{ACAD_REACTORS
330
88576
102
}
330
88576
100
AcDbXrecord
280
     1
330
0
330
0
330
0
330
0
330
0
330
0
330
0
330
0
330
0
330
0
330
0
330
0
330
0
330
0
330
0
330
0
330
0
330
0
330
0
330
0
330
0
330
0
330
0
330
0
330
0
330
0
330
0
330
0
330
0
330
0
330
0
330
0
330
0
330
0
  0
ENDSEC
  0
EOF
