  0
SECTION
  2
HEADER
  9
$ACADVER
  1
AC1018
  9
$ACADMAINTVER
 70
    76
  9
$DWGCODEPAGE
  3
ANSI_1252
  9
$INSBASE
 10
-388.5910781991461
 20
97.05220288964483
 30
0.0
  9
$EXTMIN
 10
32342.52017868913
 20
-13592.60851111467
 30
-0.000000000000013
  9
$EXTMAX
 10
34296.90958366141
 20
-10853.87871614558
 30
0.0000000000000023
  9
$LIMMIN
 10
0.0
 20
0.0
  9
$LIMMAX
 10
12.0
 20
9.0
  9
$ORTHOMODE
 70
     1
  9
$REGENMODE
 70
     1
  9
$FILLMODE
 70
     1
  9
$QTEXTMODE
 70
     0
  9
$MIRRTEXT
 70
     1
  9
$LTSCALE
 40
2.5
  9
$ATTMODE
 70
     1
  9
$TEXTSIZE
 40
0.2
  9
$TRACEWID
 40
0.05
  9
$TEXTSTYLE
  7
STANDARD
  9
$CLAYER
  8
-TEXT3
  9
$CELTYPE
  6
BYLAYER
  9
$CECOLOR
 62
   256
  9
$CELTSCALE
 40
1.0
  9
$DISPSILH
 70
     0
  9
$DIMSCALE
 40
0.7
  9
$DIMASZ
 40
30.0
  9
$DIMEXO
 40
10.0
  9
$DIMDLI
 40
3.0
  9
$DIMRND
 40
0.0
  9
$DIMDLE
 40
0.0
  9
$DIMEXE
 40
5.0
  9
$DIMTP
 40
0.0
  9
$DIMTM
 40
0.5
  9
$DIMTXT
 40
30.0
  9
$DIMCEN
 40
0.09
  9
$DIMTSZ
 40
0.0
  9
$DIMTOL
 70
     0
  9
$DIMLIM
 70
     0
  9
$DIMTIH
 70
     0
  9
$DIMTOH
 70
     0
  9
$DIMSE1
 70
     0
  9
$DIMSE2
 70
     0
  9
$DIMTAD
 70
     1
  9
$DIMZIN
 70
     9
  9
$DIMBLK
  1

  9
$DIMASO
 70
     1
  9
$DIMSHO
 70
     1
  9
$DIMPOST
  1

  9
$DIMAPOST
  1

  9
$DIMALT
 70
     0
  9
$DIMALTD
 70
     2
  9
$DIMALTF
 40
25.4
  9
$DIMLFAC
 40
1.0
  9
$DIMTOFL
 70
     1
  9
$DIMTVP
 40
0.0
  9
$DIMTIX
 70
     0
  9
$DIMSOXD
 70
     0
  9
$DIMSAH
 70
     0
  9
$DIMBLK1
  1

  9
$DIMBLK2
  1

  9
$DIMSTYLE
  2
Kopie(3) von 1-1
  9
$DIMCLRD
 70
   256
  9
$DIMCLRE
 70
   256
  9
$DIMCLRT
 70
   256
  9
$DIMTFAC
 40
0.75
  9
$DIMGAP
 40
5.0
  9
$DIMJUST
 70
     0
  9
$DIMSD1
 70
     0
  9
$DIMSD2
 70
     0
  9
$DIMTOLJ
 70
     0
  9
$DIMTZIN
 70
     0
  9
$DIMALTZ
 70
     0
  9
$DIMALTTZ
 70
     0
  9
$DIMUPT
 70
     0
  9
$DIMDEC
 70
     0
  9
$DIMTDEC
 70
     0
  9
$DIMALTU
 70
     2
  9
$DIMALTTD
 70
     2
  9
$DIMTXSTY
  7
STANDARD
  9
$DIMAUNIT
 70
     0
  9
$DIMADEC
 70
     0
  9
$DIMALTRND
 40
0.0
  9
$DIMAZIN
 70
     0
  9
$DIMDSEP
 70
    46
  9
$DIMATFIT
 70
     3
  9
$DIMFRAC
 70
     0
  9
$DIMLDRBLK
  1

  9
$DIMLUNIT
 70
     2
  9
$DIMLWD
 70
    -2
  9
$DIMLWE
 70
    -2
  9
$DIMTMOVE
 70
     0
  9
$LUNITS
 70
     2
  9
$LUPREC
 70
     4
  9
$SKETCHINC
 40
0.1
  9
$FILLETRAD
 40
0.0
  9
$AUNITS
 70
     0
  9
$AUPREC
 70
     2
  9
$MENU
  1
.
  9
$ELEVATION
 40
0.0
  9
$PELEVATION
 40
0.0
  9
$THICKNESS
 40
0.0
  9
$LIMCHECK
 70
     0
  9
$CHAMFERA
 40
2.0
  9
$CHAMFERB
 40
2.0
  9
$CHAMFERC
 40
1.0
  9
$CHAMFERD
 40
0.0
  9
$SKPOLY
 70
     0
  9
$TDCREATE
 40
2450923.364735533
  9
$TDUCREATE
 40
2450923.323068866
  9
$TDUPDATE
 40
2457695.441822304
  9
$TDUUPDATE
 40
2457695.400155636
  9
$TDINDWG
 40
50.8270919444
  9
$TDUSRTIMER
 40
50.8270919444
  9
$USRTIMER
 70
     1
  9
$ANGBASE
 50
0.0
  9
$ANGDIR
 70
     0
  9
$PDMODE
 70
     0
  9
$PDSIZE
 40
0.0
  9
$PLINEWID
 40
0.0
  9
$SPLFRAME
 70
     0
  9
$SPLINETYPE
 70
     6
  9
$SPLINESEGS
 70
     8
  9
$HANDSEED
  5
CD08D
  9
$SURFTAB1
 70
     6
  9
$SURFTAB2
 70
     6
  9
$SURFTYPE
 70
     6
  9
$SURFU
 70
     6
  9
$SURFV
 70
     6
  9
$UCSBASE
  2

  9
$UCSNAME
  2

  9
$UCSORG
 10
0.0
 20
0.0
 30
0.0
  9
$UCSXDIR
 10
1.0
 20
0.0
 30
0.0
  9
$UCSYDIR
 10
0.0
 20
1.0
 30
0.0
  9
$UCSORTHOREF
  2

  9
$UCSORTHOVIEW
 70
     0
  9
$UCSORGTOP
 10
0.0
 20
0.0
 30
0.0
  9
$UCSORGBOTTOM
 10
0.0
 20
0.0
 30
0.0
  9
$UCSORGLEFT
 10
0.0
 20
0.0
 30
0.0
  9
$UCSORGRIGHT
 10
0.0
 20
0.0
 30
0.0
  9
$UCSORGFRONT
 10
0.0
 20
0.0
 30
0.0
  9
$UCSORGBACK
 10
0.0
 20
0.0
 30
0.0
  9
$PUCSBASE
  2

  9
$PUCSNAME
  2

  9
$PUCSORG
 10
0.0
 20
0.0
 30
0.0
  9
$PUCSXDIR
 10
1.0
 20
0.0
 30
0.0
  9
$PUCSYDIR
 10
0.0
 20
1.0
 30
0.0
  9
$PUCSORTHOREF
  2

  9
$PUCSORTHOVIEW
 70
     0
  9
$PUCSORGTOP
 10
0.0
 20
0.0
 30
0.0
  9
$PUCSORGBOTTOM
 10
0.0
 20
0.0
 30
0.0
  9
$PUCSORGLEFT
 10
0.0
 20
0.0
 30
0.0
  9
$PUCSORGRIGHT
 10
0.0
 20
0.0
 30
0.0
  9
$PUCSORGFRONT
 10
0.0
 20
0.0
 30
0.0
  9
$PUCSORGBACK
 10
0.0
 20
0.0
 30
0.0
  9
$USERI1
 70
     0
  9
$USERI2
 70
     0
  9
$USERI3
 70
     0
  9
$USERI4
 70
     0
  9
$USERI5
 70
     0
  9
$USERR1
 40
0.0
  9
$USERR2
 40
0.0
  9
$USERR3
 40
0.0
  9
$USERR4
 40
0.0
  9
$USERR5
 40
0.0
  9
$WORLDVIEW
 70
     1
  9
$SHADEDGE
 70
     3
  9
$SHADEDIF
 70
    70
  9
$TILEMODE
 70
     1
  9
$MAXACTVP
 70
    48
  9
$PINSBASE
 10
0.0
 20
0.0
 30
0.0
  9
$PLIMCHECK
 70
     0
  9
$PEXTMIN
 10
1.000000000000000E+20
 20
1.000000000000000E+20
 30
1.000000000000000E+20
  9
$PEXTMAX
 10
-1.000000000000000E+20
 20
-1.000000000000000E+20
 30
-1.000000000000000E+20
  9
$PLIMMIN
 10
0.0
 20
0.0
  9
$PLIMMAX
 10
12.0
 20
9.0
  9
$UNITMODE
 70
     0
  9
$VISRETAIN
 70
     1
  9
$PLINEGEN
 70
     0
  9
$PSLTSCALE
 70
     1
  9
$TREEDEPTH
 70
  3020
  9
$CMLSTYLE
  2
STANDARD
  9
$CMLJUST
 70
     0
  9
$CMLSCALE
 40
1.0
  9
$PROXYGRAPHICS
 70
     1
  9
$MEASUREMENT
 70
     0
  9
$CELWEIGHT
370
    -1
  9
$ENDCAPS
280
     0
  9
$JOINSTYLE
280
     0
  9
$LWDISPLAY
290
     0
  9
$INSUNITS
 70
     4
  9
$HYPERLINKBASE
  1

  9
$STYLESHEET
  1
brüstung.ctb
  9
$XEDIT
290
     1
  9
$CEPSNTYPE
380
     0
  9
$PSTYLEMODE
290
     1
  9
$FINGERPRINTGUID
  2
{820E534A-1A12-4D20-B2B6-087010383843}
  9
$VERSIONGUID
  2
{BF94A35C-6126-4AB2-B8DE-F5EEDAD9BC29}
  9
$EXTNAMES
290
     1
  9
$PSVPSCALE
 40
0.0
  9
$OLESTARTUP
290
     0
  9
$SORTENTS
280
     1
  9
$INDEXCTL
280
     0
  9
$HIDETEXT
280
     1
  9
$XCLIPFRAME
290
     0
  9
$HALOGAP
280
     0
  9
$OBSCOLOR
 70
   257
  9
$OBSLTYPE
280
     0
  9
$INTERSECTIONDISPLAY
280
     0
  9
$INTERSECTIONCOLOR
 70
   257
  9
$DIMASSOC
280
     1
  9
$PROJECTNAME
  1

  0
ENDSEC
  0
SECTION
  2
CLASSES
  0
CLASS
  1
DICTIONARYVAR
  2
AcDbDictionaryVar
  3
ObjectDBX Classes
 90
        0
 91
        5
280
     0
281
     0
  0
CLASS
  1
IMAGE
  2
AcDbRasterImage
  3
ISM
 90
      127
 91
        6
280
     0
281
     1
  0
CLASS
  1
IMAGEDEF_REACTOR
  2
AcDbRasterImageDefReactor
  3
ISM
 90
        1
 91
        6
280
     0
281
     0
  0
CLASS
  1
IMAGEDEF
  2
AcDbRasterImageDef
  3
ISM
 90
        0
 91
       15
280
     0
281
     0
  0
CLASS
  1
RASTERVARIABLES
  2
AcDbRasterVariables
  3
ISM
 90
        0
 91
        1
280
     0
281
     0
  0
CLASS
  1
ACDBDICTIONARYWDFLT
  2
AcDbDictionaryWithDefault
  3
ObjectDBX Classes
 90
        0
 91
        1
280
     0
281
     0
  0
CLASS
  1
AEC_VARS_DWG_SETUP
  2
AecDbVarsDwgSetup
  3
AecBase40|Product Desc: Autodesk Architectural Desktop 2005 |Company: Autodesk,Inc. |WEB Address: www.autodesk.com
 90
      129
 91
        0
280
     0
281
     0
  0
CLASS
  1
AEC_DISP_REP_CONFIG
  2
AecDbDispRepConfig
  3
AecBase40|Product Desc: Autodesk Architectural Desktop 2005 |Company: Autodesk,Inc. |WEB Address: www.autodesk.com
 90
      129
 91
        0
280
     0
281
     0
  0
CLASS
  1
AEC_DISP_REP_SET
  2
AecDbDispRepSet
  3
AecBase40|Product Desc: Autodesk Architectural Desktop 2005 |Company: Autodesk,Inc. |WEB Address: www.autodesk.com
 90
      129
 91
        0
280
     0
281
     0
  0
CLASS
  1
AEC_DISP_REP_2D_SECTION
  2
AecDbDispRep2dSection
  3
AecBase40|Product Desc: Autodesk Architectural Desktop 2005 |Company: Autodesk,Inc. |WEB Address: www.autodesk.com
 90
      129
 91
        0
280
     0
281
     0
  0
CLASS
  1
AEC_DISP_REP_ANCHOR_BUB_TO_GRID
  2
AecDbDispRepAnchorBubToGrid
  3
AecStructureBase40|Product Desc: Autodesk Architectural Desktop 2005 |Company: Autodesk,Inc. |WEB Address: www.autodesk.com
 90
      129
 91
        0
280
     0
281
     0
  0
CLASS
  1
AEC_DISP_REP_ANCHOR_BUB_TO_GRID_MODEL
  2
AecDbDispRepAnchorBubToGridMdl
  3
AecStructureBase40|Product Desc: Autodesk Architectural Desktop 2005 |Company: Autodesk,Inc. |WEB Address: www.autodesk.com
 90
      129
 91
        0
280
     0
281
     0
  0
CLASS
  1
AEC_DISP_REP_ANCHOR_ENT_TO_NODE
  2
AecDbDispRepAnchorEntToNode
  3
AecBase40|Product Desc: Autodesk Architectural Desktop 2005 |Company: Autodesk,Inc. |WEB Address: www.autodesk.com
 90
      129
 91
        0
280
     0
281
     0
  0
CLASS
  1
AEC_DISP_REP_AREA
  2
AecDbDispRepArea
  3
AecAreaCalculationBase40|Product Desc: Autodesk Architectural Desktop 2005 |Company: Autodesk,Inc. |WEB Address: www.autodesk.com
 90
      129
 91
        0
280
     0
281
     0
  0
CLASS
  1
AEC_DISP_REP_AREAGROUP
  2
AecDbDispRepAreaGroup
  3
AecAreaCalculationBase40|Product Desc: Autodesk Architectural Desktop 2005 |Company: Autodesk,Inc. |WEB Address: www.autodesk.com
 90
      129
 91
        0
280
     0
281
     0
  0
CLASS
  1
AEC_DISP_REP_BDG_ELEVLINE_MODEL
  2
AecDbDispRepBdgElevLineModel
  3
AecArchBase40|Product Desc: Autodesk Architectural Desktop 2005 |Company: Autodesk,Inc. |WEB Address: www.autodesk.com
 90
      129
 91
        0
280
     0
281
     0
  0
CLASS
  1
AEC_DISP_REP_BDG_SECTIONLINE_PLAN
  2
AecDbDispRepBdgElevLinePlan
  3
AecArchBase40|Product Desc: Autodesk Architectural Desktop 2005 |Company: Autodesk,Inc. |WEB Address: www.autodesk.com
 90
      129
 91
        0
280
     0
281
     0
  0
CLASS
  1
AEC_DISP_REP_BDG_SECTIONLINE_MODEL
  2
AecDbDispRepBdgSectionLineModel
  3
AecArchBase40|Product Desc: Autodesk Architectural Desktop 2005 |Company: Autodesk,Inc. |WEB Address: www.autodesk.com
 90
      129
 91
        0
280
     0
281
     0
  0
CLASS
  1
AEC_DISP_REP_BDG_SECTIONLINE_PLAN
  2
AecDbDispRepBdgSectionLinePlan
  3
AecArchBase40|Product Desc: Autodesk Architectural Desktop 2005 |Company: Autodesk,Inc. |WEB Address: www.autodesk.com
 90
      129
 91
        0
280
     0
281
     0
  0
CLASS
  1
AEC_DISP_REP_BDG_SECTION_SUBDIV
  2
AecDbDispRepBdgSectionSubDiv
  3
AecArchBase40|Product Desc: Autodesk Architectural Desktop 2005 |Company: Autodesk,Inc. |WEB Address: www.autodesk.com
 90
      129
 91
        0
280
     0
281
     0
  0
CLASS
  1
AEC_DISP_REP_CAMERA
  2
AecDbDispRepCamera
  3
AecBase40|Product Desc: Autodesk Architectural Desktop 2005 |Company: Autodesk,Inc. |WEB Address: www.autodesk.com
 90
      129
 91
        0
280
     0
281
     0
  0
CLASS
  1
AEC_DISP_REP_CEILING_GRID
  2
AecDbDispRepCeilingGrid
  3
AecArchBase40|Product Desc: Autodesk Architectural Desktop 2005 |Company: Autodesk,Inc. |WEB Address: www.autodesk.com
 90
      893
 91
        0
280
     0
281
     0
  0
CLASS
  1
AEC_DISP_REP_CEILING_GRID_MODEL
  2
AecDbDispRepCeilingGridModel
  3
AecArchBase40|Product Desc: Autodesk Architectural Desktop 2005 |Company: Autodesk,Inc. |WEB Address: www.autodesk.com
 90
      129
 91
        0
280
     0
281
     0
  0
CLASS
  1
AEC_DISP_REP_CLIP_VOLUME_MODEL
  2
AecDbDispRepClipVolModel
  3
AecBase40|Product Desc: Autodesk Architectural Desktop 2005 |Company: Autodesk,Inc. |WEB Address: www.autodesk.com
 90
      129
 91
        0
280
     0
281
     0
  0
CLASS
  1
AEC_DISP_REP_CLIP_VOLUME_PLAN
  2
AecDbDispRepClipVolPlan
  3
AecBase40|Product Desc: Autodesk Architectural Desktop 2005 |Company: Autodesk,Inc. |WEB Address: www.autodesk.com
 90
      129
 91
        0
280
     0
281
     0
  0
CLASS
  1
AEC_DISP_REP_CLIP_VOLUME_RESULT_SUBDIV
  2
AecDbDispRepClipVolResSubDiv
  3
AecBase40|Product Desc: Autodesk Architectural Desktop 2005 |Company: Autodesk,Inc. |WEB Address: www.autodesk.com
 90
      129
 91
        0
280
     0
281
     0
  0
CLASS
  1
AEC_DISP_REP_COLUMN_GRID
  2
AecDbDispRepColumnGrid
  3
AecStructureBase40|Product Desc: Autodesk Architectural Desktop 2005 |Company: Autodesk,Inc. |WEB Address: www.autodesk.com
 90
      129
 91
        0
280
     0
281
     0
  0
CLASS
  1
AEC_DISP_REP_COLUMN_GRID_MODEL
  2
AecDbDispRepColumnGridModel
  3
AecStructureBase40|Product Desc: Autodesk Architectural Desktop 2005 |Company: Autodesk,Inc. |WEB Address: www.autodesk.com
 90
      129
 91
        0
280
     0
281
     0
  0
CLASS
  1
AEC_DISP_REP_CURTAIN_WALL_LAYOUT_MODEL
  2
AecDbDispRepCurtainWallLayoutModel
  3
AecArchBase40|Product Desc: Autodesk Architectural Desktop 2005 |Company: Autodesk,Inc. |WEB Address: www.autodesk.com
 90
      129
 91
        0
280
     0
281
     0
  0
CLASS
  1
AEC_DISP_REP_CURTAIN_WALL_LAYOUT_PLAN
  2
AecDbDispRepCurtainWallLayoutPlan
  3
AecArchBase40|Product Desc: Autodesk Architectural Desktop 2005 |Company: Autodesk,Inc. |WEB Address: www.autodesk.com
 90
      129
 91
        0
280
     0
281
     0
  0
CLASS
  1
AEC_DISP_REP_CURTAIN_WALL_UNIT_MODEL
  2
AecDbDispRepCurtainWallUnitModel
  3
AecArchBase40|Product Desc: Autodesk Architectural Desktop 2005 |Company: Autodesk,Inc. |WEB Address: www.autodesk.com
 90
      129
 91
        0
280
     0
281
     0
  0
CLASS
  1
AEC_DISP_REP_CURTAIN_WALL_UNIT_PLAN
  2
AecDbDispRepCurtainWallUnitPlan
  3
AecArchBase40|Product Desc: Autodesk Architectural Desktop 2005 |Company: Autodesk,Inc. |WEB Address: www.autodesk.com
 90
      129
 91
        0
280
     0
281
     0
  0
CLASS
  1
AEC_DB_DISP_REP_DIM_GROUP_PLAN
  2
AecDbDispRepDimGroupPlan
  3
AecArchDACHBase40|Product Desc: Autodesk Architectural Desktop 2005 |Company: Autodesk,Inc. |WEB Address: www.autodesk.com
 90
      129
 91
        0
280
     0
281
     0
  0
CLASS
  1
AEC_DISP_REP_DOOR_MODEL
  2
AecDbDispRepDoorModel
  3
AecArchBase40|Product Desc: Autodesk Architectural Desktop 2005 |Company: Autodesk,Inc. |WEB Address: www.autodesk.com
 90
      129
 91
        0
280
     0
281
     0
  0
CLASS
  1
AEC_DISP_REP_DOOR_PLAN
  2
AecDbDispRepDoorPlan
  3
AecArchBase40|Product Desc: Autodesk Architectural Desktop 2005 |Company: Autodesk,Inc. |WEB Address: www.autodesk.com
 90
      129
 91
        0
280
     0
281
     0
  0
CLASS
  1
AEC_DISP_REP_DOOR_THRESHOLD_PLAN
  2
AecDbDispRepDoorThresholdPlan
  3
AecArchBase40|Product Desc: Autodesk Architectural Desktop 2005 |Company: Autodesk,Inc. |WEB Address: www.autodesk.com
 90
      129
 91
        0
280
     0
281
     0
  0
CLASS
  1
AEC_DISP_REP_EDITINPLACEPROFILE
  2
AecDbDispRepEditInPlaceProfile
  3
AecBase40|Product Desc: Autodesk Architectural Desktop 2005 |Company: Autodesk,Inc. |WEB Address: www.autodesk.com
 90
      129
 91
        0
280
     0
281
     0
  0
CLASS
  1
AEC_DISP_REP_ENT_REF
  2
AecDbDispRepEntRef
  3
AecBase40|Product Desc: Autodesk Architectural Desktop 2005 |Company: Autodesk,Inc. |WEB Address: www.autodesk.com
 90
      129
 91
        0
280
     0
281
     0
  0
CLASS
  1
AEC_DISP_REP_LAYOUT_CURVE
  2
AecDbDispRepLayoutCurve
  3
AecBase40|Product Desc: Autodesk Architectural Desktop 2005 |Company: Autodesk,Inc. |WEB Address: www.autodesk.com
 90
      129
 91
        0
280
     0
281
     0
  0
CLASS
  1
AEC_DISP_REP_LAYOUT_GRID2D
  2
AecDbDispRepLayoutGrid2d
  3
AecBase40|Product Desc: Autodesk Architectural Desktop 2005 |Company: Autodesk,Inc. |WEB Address: www.autodesk.com
 90
      129
 91
        0
280
     0
281
     0
  0
CLASS
  1
AEC_DISP_REP_LAYOUT_GRID3D
  2
AecDbDispRepLayoutGrid3d
  3
AecBase40|Product Desc: Autodesk Architectural Desktop 2005 |Company: Autodesk,Inc. |WEB Address: www.autodesk.com
 90
      129
 91
        0
280
     0
281
     0
  0
CLASS
  1
AEC_DISP_REP_MASKBLOCK_REF
  2
AecDbDispRepMaskBlockRef
  3
AecBase40|Product Desc: Autodesk Architectural Desktop 2005 |Company: Autodesk,Inc. |WEB Address: www.autodesk.com
 90
      129
 91
        0
280
     0
281
     0
  0
CLASS
  1
AEC_DISP_REP_MASS_ELEM_MODEL
  2
AecDbDispRepMassElemModel
  3
AecBase40|Product Desc: Autodesk Architectural Desktop 2005 |Company: Autodesk,Inc. |WEB Address: www.autodesk.com
 90
      129
 91
        0
280
     0
281
     0
  0
CLASS
  1
AEC_DISP_REP_MASS_ELEM_SCHEM
  2
AecDbDispRepMassElemSchem
  3
AecBase40|Product Desc: Autodesk Architectural Desktop 2005 |Company: Autodesk,Inc. |WEB Address: www.autodesk.com
 90
      129
 91
        0
280
     0
281
     0
  0
CLASS
  1
AEC_DISP_REP_MASS_GROUP_MODEL
  2
AecDbDispRepMassGroupModel
  3
AecBase40|Product Desc: Autodesk Architectural Desktop 2005 |Company: Autodesk,Inc. |WEB Address: www.autodesk.com
 90
      129
 91
        0
280
     0
281
     0
  0
CLASS
  1
AEC_DISP_REP_MASS_GROUP_PLAN
  2
AecDbDispRepMassGroupPlan
  3
AecBase40|Product Desc: Autodesk Architectural Desktop 2005 |Company: Autodesk,Inc. |WEB Address: www.autodesk.com
 90
      129
 91
        0
280
     0
281
     0
  0
CLASS
  1
AEC_DISP_REP_MATERIAL
  2
AecDbDispRepMaterial
  3
AecBase40|Product Desc: Autodesk Architectural Desktop 2005 |Company: Autodesk,Inc. |WEB Address: www.autodesk.com
 90
      129
 91
        0
280
     0
281
     0
  0
CLASS
  1
AEC_DISP_REP_MVBLOCK_REF
  2
AecDbDispRepMvBlockRef
  3
AecBase40|Product Desc: Autodesk Architectural Desktop 2005 |Company: Autodesk,Inc. |WEB Address: www.autodesk.com
 90
      129
 91
        0
280
     0
281
     0
  0
CLASS
  1
AEC_DISP_REP_MVBLOCK_REF_MODEL
  2
AecDbDispRepMvBlockRefModel
  3
AecBase40|Product Desc: Autodesk Architectural Desktop 2005 |Company: Autodesk,Inc. |WEB Address: www.autodesk.com
 90
      129
 91
        0
280
     0
281
     0
  0
CLASS
  1
AEC_DISP_REP_OPENING
  2
AecDbDispRepOpening
  3
AecArchBase40|Product Desc: Autodesk Architectural Desktop 2005 |Company: Autodesk,Inc. |WEB Address: www.autodesk.com
 90
      129
 91
        0
280
     0
281
     0
  0
CLASS
  1
AEC_DISP_REP_OPENING_MODEL
  2
AecDbDispRepOpeningModel
  3
AecArchBase40|Product Desc: Autodesk Architectural Desktop 2005 |Company: Autodesk,Inc. |WEB Address: www.autodesk.com
 90
      129
 91
        0
280
     0
281
     0
  0
CLASS
  1
AEC_DISP_REP_POLYGON_MODEL
  2
AecDbDispRepPolygonModel
  3
AecBase40|Product Desc: Autodesk Architectural Desktop 2005 |Company: Autodesk,Inc. |WEB Address: www.autodesk.com
 90
      129
 91
        0
280
     0
281
     0
  0
CLASS
  1
AEC_DISP_REP_RAILING_MODEL
  2
AecDbDispRepRailingModel
  3
AecArchBase40|Product Desc: Autodesk Architectural Desktop 2005 |Company: Autodesk,Inc. |WEB Address: www.autodesk.com
 90
      129
 91
        0
280
     0
281
     0
  0
CLASS
  1
AEC_DISP_REP_RAILING_PLAN
  2
AecDbDispRepRailingPlan
  3
AecArchBase40|Product Desc: Autodesk Architectural Desktop 2005 |Company: Autodesk,Inc. |WEB Address: www.autodesk.com
 90
      129
 91
        0
280
     0
281
     0
  0
CLASS
  1
AEC_DISP_REP_ROOF_MODEL
  2
AecDbDispRepRoofModel
  3
AecArchBase40|Product Desc: Autodesk Architectural Desktop 2005 |Company: Autodesk,Inc. |WEB Address: www.autodesk.com
 90
      129
 91
        0
280
     0
281
     0
  0
CLASS
  1
AEC_DISP_REP_ROOF_PLAN
  2
AecDbDispRepRoofPlan
  3
AecArchBase40|Product Desc: Autodesk Architectural Desktop 2005 |Company: Autodesk,Inc. |WEB Address: www.autodesk.com
 90
      129
 91
        0
280
     0
281
     0
  0
CLASS
  1
AEC_DISP_REP_ROOFSLAB_MODEL
  2
AecDbDispRepRoofSlabModel
  3
AecArchBase40|Product Desc: Autodesk Architectural Desktop 2005 |Company: Autodesk,Inc. |WEB Address: www.autodesk.com
 90
      129
 91
        0
280
     0
281
     0
  0
CLASS
  1
AEC_DISP_REP_ROOFSLAB_PLAN
  2
AecDbDispRepRoofSlabPlan
  3
AecArchBase40|Product Desc: Autodesk Architectural Desktop 2005 |Company: Autodesk,Inc. |WEB Address: www.autodesk.com
 90
      129
 91
        0
280
     0
281
     0
  0
CLASS
  1
AEC_DISP_REP_SCHEDULE_TABLE
  2
AecDbDispRepScheduleTable
  3
AecSchedule40|Product Desc: Autodesk Architectural Desktop 2004 |Company: Autodesk,Inc. |WEB Address: www.autodesk.com
 90
      129
 91
        0
280
     0
281
     0
  0
CLASS
  1
AEC_DISP_REP_SLAB_MODEL
  2
AecDbDispRepSlabModel
  3
AecArchBase40|Product Desc: Autodesk Architectural Desktop 2005 |Company: Autodesk,Inc. |WEB Address: www.autodesk.com
 90
      129
 91
        0
280
     0
281
     0
  0
CLASS
  1
AEC_DISP_REP_SLAB_PLAN
  2
AecDbDispRepSlabPlan
  3
AecArchBase40|Product Desc: Autodesk Architectural Desktop 2005 |Company: Autodesk,Inc. |WEB Address: www.autodesk.com
 90
      129
 91
        0
280
     0
281
     0
  0
CLASS
  1
AEC_DISP_REP_SLICE
  2
AecDbDispRepSlice
  3
AecBase40|Product Desc: Autodesk Architectural Desktop 2005 |Company: Autodesk,Inc. |WEB Address: www.autodesk.com
 90
      129
 91
        0
280
     0
281
     0
  0
CLASS
  1
AEC_DISP_REP_SPACE_BOUNDARY_MODEL
  2
AecDbDispRepSpaceBoundaryModel
  3
AecArchBase40|Product Desc: Autodesk Architectural Desktop 2005 |Company: Autodesk,Inc. |WEB Address: www.autodesk.com
 90
      129
 91
        0
280
     0
281
     0
  0
CLASS
  1
AEC_DISP_REP_SPACE_BOUNDARY_PLAN
  2
AecDbDispRepSpaceBoundaryPlan
  3
AecArchBase40|Product Desc: Autodesk Architectural Desktop 2005 |Company: Autodesk,Inc. |WEB Address: www.autodesk.com
 90
      129
 91
        0
280
     0
281
     0
  0
CLASS
  1
AEC_DISP_REP_SPACE_MODEL
  2
AecDbDispRepSpaceModel
  3
AecArchBase40|Product Desc: Autodesk Architectural Desktop 2005 |Company: Autodesk,Inc. |WEB Address: www.autodesk.com
 90
      129
 91
        0
280
     0
281
     0
  0
CLASS
  1
AEC_DISP_REP_SPACE_PLAN
  2
AecDbDispRepSpacePlan
  3
AecArchBase40|Product Desc: Autodesk Architectural Desktop 2005 |Company: Autodesk,Inc. |WEB Address: www.autodesk.com
 90
      129
 91
        0
280
     0
281
     0
  0
CLASS
  1
AEC_DISP_REP_STAIR_MODEL
  2
AecDbDispRepStairModel
  3
AecArchBase40|Product Desc: Autodesk Architectural Desktop 2005 |Company: Autodesk,Inc. |WEB Address: www.autodesk.com
 90
      129
 91
        0
280
     0
281
     0
  0
CLASS
  1
AEC_DISP_REP_STAIR_PLAN
  2
AecDbDispRepStairPlan
  3
AecArchBase40|Product Desc: Autodesk Architectural Desktop 2005 |Company: Autodesk,Inc. |WEB Address: www.autodesk.com
 90
      129
 91
        0
280
     0
281
     0
  0
CLASS
  1
AEC_DISP_REP_WALL_MODEL
  2
AecDbDispRepWallModel
  3
AecArchBase40|Product Desc: Autodesk Architectural Desktop 2005 |Company: Autodesk,Inc. |WEB Address: www.autodesk.com
 90
      129
 91
        0
280
     0
281
     0
  0
CLASS
  1
AEC_DISP_REP_WALL_PLAN
  2
AecDbDispRepWallPlan
  3
AecArchBase40|Product Desc: Autodesk Architectural Desktop 2005 |Company: Autodesk,Inc. |WEB Address: www.autodesk.com
 90
      129
 91
        0
280
     0
281
     0
  0
CLASS
  1
AEC_DISP_REP_WINDOW_ASSEMBLY_MODEL
  2
AecDbDispRepWindowAssemblyModel
  3
AecArchBase40|Product Desc: Autodesk Architectural Desktop 2005 |Company: Autodesk,Inc. |WEB Address: www.autodesk.com
 90
      129
 91
        0
280
     0
281
     0
  0
CLASS
  1
AEC_DISP_REP_WINDOW_ASSEMBLY_PLAN
  2
AecDbDispRepWindowAssemblyPlan
  3
AecArchBase40|Product Desc: Autodesk Architectural Desktop 2005 |Company: Autodesk,Inc. |WEB Address: www.autodesk.com
 90
      129
 91
        0
280
     0
281
     0
  0
CLASS
  1
AEC_DISP_REP_WINDOW_MODEL
  2
AecDbDispRepWindowModel
  3
AecArchBase40|Product Desc: Autodesk Architectural Desktop 2005 |Company: Autodesk,Inc. |WEB Address: www.autodesk.com
 90
      129
 91
        0
280
     0
281
     0
  0
CLASS
  1
AEC_DISP_REP_WINDOW_PLAN
  2
AecDbDispRepWindowPlan
  3
AecArchBase40|Product Desc: Autodesk Architectural Desktop 2005 |Company: Autodesk,Inc. |WEB Address: www.autodesk.com
 90
      129
 91
        0
280
     0
281
     0
  0
CLASS
  1
AEC_DISP_REP_WINDOW_SILL_PLAN
  2
AecDbDispRepWindowSillPlan
  3
AecArchBase40|Product Desc: Autodesk Architectural Desktop 2005 |Company: Autodesk,Inc. |WEB Address: www.autodesk.com
 90
      129
 91
        0
280
     0
281
     0
  0
CLASS
  1
AECS_DISP_REP_MEMBER_MODEL_DESIGN
  2
AecsDbDispRepMemberModelDesign
  3
AecStructureBase40|Product Desc: Autodesk Architectural Desktop 2005 |Company: Autodesk,Inc. |WEB Address: www.autodesk.com
 90
      129
 91
        0
280
     0
281
     0
  0
CLASS
  1
AECS_DISP_REP_MEMBER_PLAN_DESIGN
  2
AecsDbDispRepMemberPlanDesign
  3
AecStructureBase40|Product Desc: Autodesk Architectural Desktop 2005 |Company: Autodesk,Inc. |WEB Address: www.autodesk.com
 90
      129
 91
        0
280
     0
281
     0
  0
CLASS
  1
AEC_DISP_PROPS_CAMERA
  2
AecDbDispPropsCamera
  3
AecBase40|Product Desc: Autodesk Architectural Desktop 2005 |Company: Autodesk,Inc. |WEB Address: www.autodesk.com
 90
      129
 91
        0
280
     0
281
     0
  0
CLASS
  1
AEC_DISP_PROPS_LAYOUT_GRID2D
  2
AecDbDispPropsLayoutGrid2d
  3
AecBase40|Product Desc: Autodesk Architectural Desktop 2005 |Company: Autodesk,Inc. |WEB Address: www.autodesk.com
 90
      129
 91
        0
280
     0
281
     0
  0
CLASS
  1
AEC_DISP_PROPS_OPENING
  2
AecDbDispPropsOpening
  3
AecArchBase40|Product Desc: Autodesk Architectural Desktop 2005 |Company: Autodesk,Inc. |WEB Address: www.autodesk.com
 90
      129
 91
        0
280
     0
281
     0
  0
CLASS
  1
AEC_DISP_PROPS_MASS_GROUP
  2
AecDbDispPropsMassGroup
  3
AecBase40|Product Desc: Autodesk Architectural Desktop 2005 |Company: Autodesk,Inc. |WEB Address: www.autodesk.com
 90
      129
 91
        0
280
     0
281
     0
  0
CLASS
  1
AEC_DISP_PROPS_ROOFSLAB
  2
AecDbDispPropsRoofSlab
  3
AecArchBase40|Product Desc: Autodesk Architectural Desktop 2005 |Company: Autodesk,Inc. |WEB Address: www.autodesk.com
 90
      129
 91
        0
280
     0
281
     0
  0
CLASS
  1
AEC_DISP_PROPS_STAIR_MODEL
  2
AecDbDispPropsStairModel
  3
AecArchBase40|Product Desc: Autodesk Architectural Desktop 2005 |Company: Autodesk,Inc. |WEB Address: www.autodesk.com
 90
      129
 91
        0
280
     0
281
     0
  0
CLASS
  1
AEC_DISP_PROPS_ENT
  2
AecDbDispPropsEnt
  3
AecBase40|Product Desc: Autodesk Architectural Desktop 2005 |Company: Autodesk,Inc. |WEB Address: www.autodesk.com
 90
      129
 91
        0
280
     0
281
     0
  0
CLASS
  1
AEC_DISP_PROPS_CLIP_VOLUME
  2
AecDbDispPropsClipVol
  3
AecBase40|Product Desc: Autodesk Architectural Desktop 2005 |Company: Autodesk,Inc. |WEB Address: www.autodesk.com
 90
      129
 91
        0
280
     0
281
     0
  0
CLASS
  1
AEC_DISP_PROPS_STAIR_PLAN
  2
AecDbDispPropsStairPlan
  3
AecArchBase40|Product Desc: Autodesk Architectural Desktop 2005 |Company: Autodesk,Inc. |WEB Address: www.autodesk.com
 90
      129
 91
        0
280
     0
281
     0
  0
CLASS
  1
AEC_DISP_PROPS_CLIP_VOLUME_RESULT
  2
AecDbDispPropsClipVolResSubDiv
  3
AecBase40|Product Desc: Autodesk Architectural Desktop 2005 |Company: Autodesk,Inc. |WEB Address: www.autodesk.com
 90
      129
 91
        0
280
     0
281
     0
  0
CLASS
  1
AEC_DISP_PROPS_SPACE_MODEL
  2
AecDbDispPropsSpaceModel
  3
AecArchBase40|Product Desc: Autodesk Architectural Desktop 2005 |Company: Autodesk,Inc. |WEB Address: www.autodesk.com
 90
      129
 91
        0
280
     0
281
     0
  0
CLASS
  1
AEC_DISP_PROPS_2D_SECTION
  2
AecDbDispProps2dSection
  3
AecBase40|Product Desc: Autodesk Architectural Desktop 2005 |Company: Autodesk,Inc. |WEB Address: www.autodesk.com
 90
      129
 91
        0
280
     0
281
     0
  0
CLASS
  1
AEC_DISP_PROPS_DOOR_THRESHOLD_PLAN
  2
AecDbDispPropsDoorThresholdPlan
  3
AecArchBase40|Product Desc: Autodesk Architectural Desktop 2005 |Company: Autodesk,Inc. |WEB Address: www.autodesk.com
 90
      129
 91
        0
280
     0
281
     0
  0
CLASS
  1
AEC_DISP_PROPS_POLYGON_MODEL
  2
AecDbDispPropsPolygonModel
  3
AecBase40|Product Desc: Autodesk Architectural Desktop 2005 |Company: Autodesk,Inc. |WEB Address: www.autodesk.com
 90
      129
 91
        0
280
     0
281
     0
  0
CLASS
  1
AEC_DISP_PROPS_GRID_ASSEMBLY_MODEL
  2
AecDbDispPropsGridAssemblyModel
  3
AecArchBase40|Product Desc: Autodesk Architectural Desktop 2005 |Company: Autodesk,Inc. |WEB Address: www.autodesk.com
 90
      129
 91
        0
280
     0
281
     0
  0
CLASS
  1
AEC_DISP_PROPS_AREA
  2
AecDbDispPropsArea
  3
AecAreaCalculationBase40|Product Desc: Autodesk Architectural Desktop 2005 |Company: Autodesk,Inc. |WEB Address: www.autodesk.com
 90
      129
 91
        0
280
     0
281
     0
  0
CLASS
  1
AEC_DISP_PROPS_SPACE_PLAN
  2
AecDbDispPropsSpacePlan
  3
AecArchBase40|Product Desc: Autodesk Architectural Desktop 2005 |Company: Autodesk,Inc. |WEB Address: www.autodesk.com
 90
      129
 91
        0
280
     0
281
     0
  0
CLASS
  1
AEC_DISP_PROPS_GRID_ASSEMBLY_PLAN
  2
AecDbDispPropsGridAssemblyPlan
  3
AecArchBase40|Product Desc: Autodesk Architectural Desktop 2005 |Company: Autodesk,Inc. |WEB Address: www.autodesk.com
 90
      129
 91
        0
280
     0
281
     0
  0
CLASS
  1
AEC_DISP_PROPS_WINDOW
  2
AecDbDispPropsWindow
  3
AecArchBase40|Product Desc: Autodesk Architectural Desktop 2005 |Company: Autodesk,Inc. |WEB Address: www.autodesk.com
 90
      129
 91
        0
280
     0
281
     0
  0
CLASS
  1
AEC_DISP_PROPS_ROOFSLAB_PLAN
  2
AecDbDispPropsRoofSlabPlan
  3
AecArchBase40|Product Desc: Autodesk Architectural Desktop 2005 |Company: Autodesk,Inc. |WEB Address: www.autodesk.com
 90
      129
 91
        0
280
     0
281
     0
  0
CLASS
  1
AEC_DISP_PROPS_SLAB_PLAN
  2
AecDbDispPropsSlabPlan
  3
AecArchBase40|Product Desc: Autodesk Architectural Desktop 2005 |Company: Autodesk,Inc. |WEB Address: www.autodesk.com
 90
      129
 91
        0
280
     0
281
     0
  0
CLASS
  1
AEC_DISP_PROPS_ROOF
  2
AecDbDispPropsRoof
  3
AecArchBase40|Product Desc: Autodesk Architectural Desktop 2005 |Company: Autodesk,Inc. |WEB Address: www.autodesk.com
 90
      129
 91
        0
280
     0
281
     0
  0
CLASS
  1
AEC_DISP_PROPS_WALL_MODEL
  2
AecDbDispPropsWallModel
  3
AecArchBase40|Product Desc: Autodesk Architectural Desktop 2005 |Company: Autodesk,Inc. |WEB Address: www.autodesk.com
 90
      129
 91
        0
280
     0
281
     0
  0
CLASS
  1
AEC_DISP_PROPS_AREAGROUP
  2
AecDbDispPropsAreaGroup
  3
AecAreaCalculationBase40|Product Desc: Autodesk Architectural Desktop 2005 |Company: Autodesk,Inc. |WEB Address: www.autodesk.com
 90
      129
 91
        0
280
     0
281
     0
  0
CLASS
  1
AEC_DISP_PROPS_WALL_PLAN
  2
AecDbDispPropsWallPlan
  3
AecArchBase40|Product Desc: Autodesk Architectural Desktop 2005 |Company: Autodesk,Inc. |WEB Address: www.autodesk.com
 90
      129
 91
        0
280
     0
281
     0
  0
CLASS
  1
AEC_DISP_PROPS_DOOR
  2
AecDbDispPropsDoor
  3
AecArchBase40|Product Desc: Autodesk Architectural Desktop 2005 |Company: Autodesk,Inc. |WEB Address: www.autodesk.com
 90
      129
 91
        0
280
     0
281
     0
  0
CLASS
  1
AEC_DISP_PROPS_ENT_REF
  2
AecDbDispPropsEntRef
  3
AecBase40|Product Desc: Autodesk Architectural Desktop 2005 |Company: Autodesk,Inc. |WEB Address: www.autodesk.com
 90
      129
 91
        0
280
     0
281
     0
  0
CLASS
  1
AECS_DISP_PROPS_MEMBER
  2
AecsDbDispPropsMember
  3
AecStructureBase40|Product Desc: Autodesk Architectural Desktop 2005 |Company: Autodesk,Inc. |WEB Address: www.autodesk.com
 90
      129
 91
        0
280
     0
281
     0
  0
CLASS
  1
AEC_DISP_PROPS_RAILING_MODEL
  2
AecDbDispPropsRailingModel
  3
AecArchBase40|Product Desc: Autodesk Architectural Desktop 2005 |Company: Autodesk,Inc. |WEB Address: www.autodesk.com
 90
      129
 91
        0
280
     0
281
     0
  0
CLASS
  1
AEC_DISP_PROPS_MASS_ELEM_MODEL
  2
AecDbDispPropsMassElem
  3
AecBase40|Product Desc: Autodesk Architectural Desktop 2005 |Company: Autodesk,Inc. |WEB Address: www.autodesk.com
 90
      129
 91
        0
280
     0
281
     0
  0
CLASS
  1
AECS_DISP_PROPS_MEMBER_PLAN
  2
AecsDbDispPropsMemberPlan
  3
AecStructureBase40|Product Desc: Autodesk Architectural Desktop 2005 |Company: Autodesk,Inc. |WEB Address: www.autodesk.com
 90
      129
 91
        0
280
     0
281
     0
  0
CLASS
  1
AEC_DISP_PROPS_EDITINPLACEPROFILE_MODEL
  2
AecDbDispPropsEditInPlaceProfile
  3
AecBase40|Product Desc: Autodesk Architectural Desktop 2005 |Company: Autodesk,Inc. |WEB Address: www.autodesk.com
 90
      129
 91
        0
280
     0
281
     0
  0
CLASS
  1
AEC_DISP_PROPS_WINDOW_SILL_PLAN
  2
AecDbDispPropsWindowSillPlan
  3
AecArchBase40|Product Desc: Autodesk Architectural Desktop 2005 |Company: Autodesk,Inc. |WEB Address: www.autodesk.com
 90
      129
 91
        0
280
     0
281
     0
  0
CLASS
  1
AEC_DISP_PROPS_MATERIAL
  2
AecDbDispPropsMaterial
  3
AecBase40|Product Desc: Autodesk Architectural Desktop 2005 |Company: Autodesk,Inc. |WEB Address: www.autodesk.com
 90
      129
 91
        0
280
     0
281
     0
  0
CLASS
  1
AEC_DISP_PROPS_MASKBLOCK
  2
AecDbDispPropsMaskBlock
  3
AecBase40|Product Desc: Autodesk Architectural Desktop 2005 |Company: Autodesk,Inc. |WEB Address: www.autodesk.com
 90
      129
 91
        0
280
     0
281
     0
  0
CLASS
  1
AEC_DISP_PROPS_SLAB
  2
AecDbDispPropsSlab
  3
AecArchBase40|Product Desc: Autodesk Architectural Desktop 2005 |Company: Autodesk,Inc. |WEB Address: www.autodesk.com
 90
      129
 91
        0
280
     0
281
     0
  0
CLASS
  1
AEC_DISP_PROPS_SLICE
  2
AecDbDispPropsSlice
  3
AecBase40|Product Desc: Autodesk Architectural Desktop 2005 |Company: Autodesk,Inc. |WEB Address: www.autodesk.com
 90
      129
 91
        0
280
     0
281
     0
  0
CLASS
  1
AEC_DISP_PROPS_SPACE_BOUNDARY
  2
AecDbDispPropsSpaceBoundary
  3
AecArchBase40|Product Desc: Autodesk Architectural Desktop 2005 |Company: Autodesk,Inc. |WEB Address: www.autodesk.com
 90
      129
 91
        0
280
     0
281
     0
  0
CLASS
  1
AEC_DISP_PROPS_SCHEDULE_TABLE
  2
AecDbDispPropsScheduleTable
  3
AecSchedule40|Product Desc: Autodesk Architectural Desktop 2004 |Company: Autodesk,Inc. |WEB Address: www.autodesk.com
 90
      129
 91
        0
280
     0
281
     0
  0
CLASS
  1
AEC_DISP_PROPS_RAILING_PLAN
  2
AecDbDispPropsRailingPlan
  3
AecArchBase40|Product Desc: Autodesk Architectural Desktop 2005 |Company: Autodesk,Inc. |WEB Address: www.autodesk.com
 90
      129
 91
        0
280
     0
281
     0
  0
CLASS
  1
AEC_DISP_PROPS_DIM
  2
AecDbDispPropsDimGroup
  3
AecArchDACHBase40|Product Desc: Autodesk Architectural Desktop 2005 |Company: Autodesk,Inc. |WEB Address: www.autodesk.com
 90
      129
 91
        0
280
     0
281
     0
  0
CLASS
  1
AEC_DISP_PROPS_LAYOUT_CURVE
  2
AecDbDispPropsLayoutCurve
  3
AecBase40|Product Desc: Autodesk Architectural Desktop 2005 |Company: Autodesk,Inc. |WEB Address: www.autodesk.com
 90
      129
 91
        0
280
     0
281
     0
  0
CLASS
  1
AEC_DISP_PROPS_LAYOUT_GRID3D
  2
AecDbDispPropsLayoutGrid3d
  3
AecBase40|Product Desc: Autodesk Architectural Desktop 2005 |Company: Autodesk,Inc. |WEB Address: www.autodesk.com
 90
      129
 91
        0
280
     0
281
     0
  0
CLASS
  1
AEC_LAYERKEY_STYLE
  2
AecDbLayerKeyStyle
  3
AecBase40|Product Desc: Autodesk Architectural Desktop 2005 |Company: Autodesk,Inc. |WEB Address: www.autodesk.com
 90
      129
 91
        0
280
     0
281
     0
  0
CLASS
  1
AEC_VARS_ARCHBASE
  2
AecDbVarsArchBase
  3
AecArchBase40|Product Desc: Autodesk Architectural Desktop 2005 |Company: Autodesk,Inc. |WEB Address: www.autodesk.com
 90
      129
 91
        0
280
     0
281
     0
  0
CLASS
  1
AEC_VARS_MUNICH
  2
AecDbVarsMunich
  3
AecArchDACHBase40|Product Desc: Autodesk Architectural Desktop 2005 |Company: Autodesk,Inc. |WEB Address: www.autodesk.com
 90
      129
 91
        0
280
     0
281
     0
  0
CLASS
  1
AEC_NOTIFICATION_TRACKER
  2
AecDbNotificationTracker
  3
AecBase40|Product Desc: Autodesk Architectural Desktop 2005 |Company: Autodesk,Inc. |WEB Address: www.autodesk.com
 90
      129
 91
        0
280
     0
281
     0
  0
CLASS
  1
AEC_DISP_REP_ANCHOR
  2
AecDbDispRepAnchor
  3
AecBase40|Product Desc: Autodesk Architectural Desktop 2005 |Company: Autodesk,Inc. |WEB Address: www.autodesk.com
 90
      129
 91
        0
280
     0
281
     0
  0
CLASS
  1
AEC_DISP_REP_CLIP_VOLUME_RESULT
  2
AecDbDispRepClipVolResult
  3
AecBase40|Product Desc: Autodesk Architectural Desktop 2005 |Company: Autodesk,Inc. |WEB Address: www.autodesk.com
 90
      129
 91
        0
280
     0
281
     0
  0
CLASS
  1
AEC_DISP_REP_POLYGON_TRUECOLOUR
  2
AecDbDispRepPolygonTrueColour
  3
AecBase40|Product Desc: Autodesk Architectural Desktop 2005 |Company: Autodesk,Inc. |WEB Address: www.autodesk.com
 90
      129
 91
        0
280
     0
281
     0
  0
CLASS
  1
AEC_DISP_PROPS_POLYGON_TRUECOLOUR
  2
AecDbDispPropsPolygonTrueColour
  3
AecBase40|Product Desc: Autodesk Architectural Desktop 2005 |Company: Autodesk,Inc. |WEB Address: www.autodesk.com
 90
      129
 91
        0
280
     0
281
     0
  0
CLASS
  1
AEC_DISP_REP_ANCHOR_TAG_TO_ENT
  2
AecDbDispRepAnchorTagToEnt
  3
AecScheduleData40|Product Desc: Autodesk Architectural Desktop 2005 |Company: Autodesk,Inc. |WEB Address: www.autodesk.com
 90
      129
 91
        0
280
     0
281
     0
  0
CLASS
  1
AEC_DISP_REP_ANCHOR_BUB_TO_GRID_RCP
  2
AecDbDispRepAnchorBubToGridRcp
  3
AecStructureBase40|Product Desc: Autodesk Architectural Desktop 2005 |Company: Autodesk,Inc. |WEB Address: www.autodesk.com
 90
      129
 91
        0
280
     0
281
     0
  0
CLASS
  1
AEC_DISP_REP_COLUMN_GRID_RCP
  2
AecDbDispRepColumnGridRcp
  3
AecStructureBase40|Product Desc: Autodesk Architectural Desktop 2005 |Company: Autodesk,Inc. |WEB Address: www.autodesk.com
 90
      129
 91
        0
280
     0
281
     0
  0
CLASS
  1
AECS_DISP_REP_MEMBER_ELEVATION_DESIGN
  2
AecsDbDispRepMemberElevationDesign
  3
AecStructureBase40|Product Desc: Autodesk Architectural Desktop 2005 |Company: Autodesk,Inc. |WEB Address: www.autodesk.com
 90
      129
 91
        0
280
     0
281
     0
  0
CLASS
  1
AECS_DISP_PROPS_MEMBER_PROJECTED
  2
AecsDbDispPropsMemberProjected
  3
AecStructureBase40|Product Desc: Autodesk Architectural Desktop 2005 |Company: Autodesk,Inc. |WEB Address: www.autodesk.com
 90
      129
 91
        0
280
     0
281
     0
  0
CLASS
  1
AECS_DISP_REP_MEMBER_ELEVATION_DETAIL
  2
AecsDbDispRepMemberElevationDetail
  3
AecStructureBase40|Product Desc: Autodesk Architectural Desktop 2005 |Company: Autodesk,Inc. |WEB Address: www.autodesk.com
 90
      129
 91
        0
280
     0
281
     0
  0
CLASS
  1
AECS_DISP_REP_MEMBER_LOGICAL
  2
AecsDbDispRepMemberLogical
  3
AecStructureBase40|Product Desc: Autodesk Architectural Desktop 2005 |Company: Autodesk,Inc. |WEB Address: www.autodesk.com
 90
      129
 91
        0
280
     0
281
     0
  0
CLASS
  1
AECS_DISP_PROPS_MEMBER_LOGICAL
  2
AecsDbDispPropsMemberLogical
  3
AecStructureBase40|Product Desc: Autodesk Architectural Desktop 2005 |Company: Autodesk,Inc. |WEB Address: www.autodesk.com
 90
      129
 91
        0
280
     0
281
     0
  0
CLASS
  1
AECS_DISP_REP_MEMBER_MODEL_DETAIL
  2
AecsDbDispRepMemberModelDetail
  3
AecStructureBase40|Product Desc: Autodesk Architectural Desktop 2005 |Company: Autodesk,Inc. |WEB Address: www.autodesk.com
 90
      129
 91
        0
280
     0
281
     0
  0
CLASS
  1
AECS_DISP_REP_MEMBER_PLAN_DETAIL
  2
AecsDbDispRepMemberPlanDetail
  3
AecStructureBase40|Product Desc: Autodesk Architectural Desktop 2005 |Company: Autodesk,Inc. |WEB Address: www.autodesk.com
 90
      129
 91
        0
280
     0
281
     0
  0
CLASS
  1
AECS_DISP_REP_MEMBER_PLAN_SKETCH
  2
AecsDbDispRepMemberPlanSketch
  3
AecStructureBase40|Product Desc: Autodesk Architectural Desktop 2005 |Company: Autodesk,Inc. |WEB Address: www.autodesk.com
 90
      129
 91
        0
280
     0
281
     0
  0
CLASS
  1
AECS_DISP_PROPS_MEMBER_PLAN_SKETCH
  2
AecsDbDispPropsMemberPlanSketch
  3
AecStructureBase40|Product Desc: Autodesk Architectural Desktop 2005 |Company: Autodesk,Inc. |WEB Address: www.autodesk.com
 90
      129
 91
        0
280
     0
281
     0
  0
CLASS
  1
AEC_DISP_REP_BDG_ELEVLINE_RCP
  2
AecDbDispRepBdgElevLineRcp
  3
AecArchBase40|Product Desc: Autodesk Architectural Desktop 2005 |Company: Autodesk,Inc. |WEB Address: www.autodesk.com
 90
      129
 91
        0
280
     0
281
     0
  0
CLASS
  1
AEC_DISP_REP_BDG_SECTIONLINE_RCP
  2
AecDbDispRepBdgSectionLineRcp
  3
AecArchBase40|Product Desc: Autodesk Architectural Desktop 2005 |Company: Autodesk,Inc. |WEB Address: www.autodesk.com
 90
      129
 91
        0
280
     0
281
     0
  0
CLASS
  1
AEC_DISP_REP_BDG_SECTION_MODEL
  2
AecDbDispRepBdgSectionModel
  3
AecArchBase40|Product Desc: Autodesk Architectural Desktop 2005 |Company: Autodesk,Inc. |WEB Address: www.autodesk.com
 90
      129
 91
        0
280
     0
281
     0
  0
CLASS
  1
AEC_DISP_REP_CEILING_GRID_RCP
  2
AecDbDispRepCeilingGridRcp
  3
AecArchBase40|Product Desc: Autodesk Architectural Desktop 2005 |Company: Autodesk,Inc. |WEB Address: www.autodesk.com
 90
      129
 91
        0
280
     0
281
     0
  0
CLASS
  1
AEC_DISP_REP_DOOR_ELEV
  2
AecDbDispRepDoorElev
  3
AecArchBase40|Product Desc: Autodesk Architectural Desktop 2005 |Company: Autodesk,Inc. |WEB Address: www.autodesk.com
 90
      129
 91
        0
280
     0
281
     0
  0
CLASS
  1
AEC_DISP_REP_DOOR_NOMINAL
  2
AecDbDispRepDoorNominal
  3
AecArchBase40|Product Desc: Autodesk Architectural Desktop 2005 |Company: Autodesk,Inc. |WEB Address: www.autodesk.com
 90
      129
 91
        0
280
     0
281
     0
  0
CLASS
  1
AEC_DISP_PROPS_DOOR_NOMINAL
  2
AecDbDispPropsDoorNominal
  3
AecArchBase40|Product Desc: Autodesk Architectural Desktop 2005 |Company: Autodesk,Inc. |WEB Address: www.autodesk.com
 90
      129
 91
        0
280
     0
281
     0
  0
CLASS
  1
AEC_DISP_REP_DOOR_RCP
  2
AecDbDispRepDoorRcp
  3
AecArchBase40|Product Desc: Autodesk Architectural Desktop 2005 |Company: Autodesk,Inc. |WEB Address: www.autodesk.com
 90
      129
 91
        0
280
     0
281
     0
  0
CLASS
  1
AEC_DISP_REP_MASKBLOCK_REF_RCP
  2
AecDbDispRepMaskBlockRefRcp
  3
AecArchBase40|Product Desc: Autodesk Architectural Desktop 2005 |Company: Autodesk,Inc. |WEB Address: www.autodesk.com
 90
      129
 91
        0
280
     0
281
     0
  0
CLASS
  1
AEC_DISP_REP_MASS_ELEM_RCP
  2
AecDbDispRepMassElemRcp
  3
AecArchBase40|Product Desc: Autodesk Architectural Desktop 2005 |Company: Autodesk,Inc. |WEB Address: www.autodesk.com
 90
      129
 91
        0
280
     0
281
     0
  0
CLASS
  1
AEC_DISP_REP_MASS_GROUP_RCP
  2
AecDbDispRepMassGroupRcp
  3
AecArchBase40|Product Desc: Autodesk Architectural Desktop 2005 |Company: Autodesk,Inc. |WEB Address: www.autodesk.com
 90
      129
 91
        0
280
     0
281
     0
  0
CLASS
  1
AEC_DISP_REP_MVBLOCK_REF_RCP
  2
AecDbDispRepMvBlockRefRcp
  3
AecArchBase40|Product Desc: Autodesk Architectural Desktop 2005 |Company: Autodesk,Inc. |WEB Address: www.autodesk.com
 90
      129
 91
        0
280
     0
281
     0
  0
CLASS
  1
AEC_DISP_REP_ROOF_RCP
  2
AecDbDispRepRoofRcp
  3
AecArchBase40|Product Desc: Autodesk Architectural Desktop 2005 |Company: Autodesk,Inc. |WEB Address: www.autodesk.com
 90
      129
 91
        0
280
     0
281
     0
  0
CLASS
  1
AEC_DISP_REP_SPACE_BOUNDARY_DIAGRAM
  2
AecDbDispRepSpaceBoundaryDgrm
  3
AecArchBase40|Product Desc: Autodesk Architectural Desktop 2005 |Company: Autodesk,Inc. |WEB Address: www.autodesk.com
 90
      129
 91
        0
280
     0
281
     0
  0
CLASS
  1
AEC_DISP_REP_SPACE_BOUNDARY_SCHEM
  2
AecDbDispRepSpaceBoundarySketch
  3
AecArchBase40|Product Desc: Autodesk Architectural Desktop 2005 |Company: Autodesk,Inc. |WEB Address: www.autodesk.com
 90
      129
 91
        0
280
     0
281
     0
  0
CLASS
  1
AEC_DISP_REP_SPACE_RCP
  2
AecDbDispRepSpaceRcp
  3
AecArchBase40|Product Desc: Autodesk Architectural Desktop 2005 |Company: Autodesk,Inc. |WEB Address: www.autodesk.com
 90
      129
 91
        0
280
     0
281
     0
  0
CLASS
  1
AEC_DISP_REP_SPACE_VOLUME
  2
AecDbDispRepSpaceVolume
  3
AecArchBase40|Product Desc: Autodesk Architectural Desktop 2005 |Company: Autodesk,Inc. |WEB Address: www.autodesk.com
 90
      129
 91
        0
280
     0
281
     0
  0
CLASS
  1
AEC_DISP_REP_STAIR_PLAN_OVERLAPPING
  2
AecDbDispRepStairPlanOverlapping
  3
AecArchBase40|Product Desc: Autodesk Architectural Desktop 2005 |Company: Autodesk,Inc. |WEB Address: www.autodesk.com
 90
      129
 91
        0
280
     0
281
     0
  0
CLASS
  1
AEC_DISP_PROPS_STAIR_PLAN_OVERLAPPING
  2
AecDbDispPropsStairPlanOverlapping
  3
AecArchBase40|Product Desc: Autodesk Architectural Desktop 2005 |Company: Autodesk,Inc. |WEB Address: www.autodesk.com
 90
      129
 91
        0
280
     0
281
     0
  0
CLASS
  1
AEC_DISP_REP_STAIR_RCP
  2
AecDbDispRepStairRcp
  3
AecArchBase40|Product Desc: Autodesk Architectural Desktop 2005 |Company: Autodesk,Inc. |WEB Address: www.autodesk.com
 90
      129
 91
        0
280
     0
281
     0
  0
CLASS
  1
AEC_DISP_REP_WALL_GRAPH
  2
AecDbDispRepWallGraph
  3
AecArchBase40|Product Desc: Autodesk Architectural Desktop 2005 |Company: Autodesk,Inc. |WEB Address: www.autodesk.com
 90
      129
 91
        0
280
     0
281
     0
  0
CLASS
  1
AEC_DISP_PROPS_WALL_GRAPH
  2
AecDbDispPropsWallGraph
  3
AecArchBase40|Product Desc: Autodesk Architectural Desktop 2005 |Company: Autodesk,Inc. |WEB Address: www.autodesk.com
 90
      129
 91
        0
280
     0
281
     0
  0
CLASS
  1
AEC_DISP_REP_WALL_RCP
  2
AecDbDispRepWallRcp
  3
AecArchBase40|Product Desc: Autodesk Architectural Desktop 2005 |Company: Autodesk,Inc. |WEB Address: www.autodesk.com
 90
      129
 91
        0
280
     0
281
     0
  0
CLASS
  1
AEC_DISP_REP_WALL_SCHEM
  2
AecDbDispRepWallSchem
  3
AecArchBase40|Product Desc: Autodesk Architectural Desktop 2005 |Company: Autodesk,Inc. |WEB Address: www.autodesk.com
 90
      129
 91
        0
280
     0
281
     0
  0
CLASS
  1
AEC_DISP_PROPS_WALL_SCHEM
  2
AecDbDispPropsWallSchem
  3
AecArchBase40|Product Desc: Autodesk Architectural Desktop 2005 |Company: Autodesk,Inc. |WEB Address: www.autodesk.com
 90
      129
 91
        0
280
     0
281
     0
  0
CLASS
  1
AEC_DISP_REP_WINDOWASSEMBLY_SILL_PLAN
  2
AecDbDispRepWindowAssemblySillPlan
  3
AecArchBase40|Product Desc: Autodesk Architectural Desktop 2005 |Company: Autodesk,Inc. |WEB Address: www.autodesk.com
 90
      129
 91
        0
280
     0
281
     0
  0
CLASS
  1
AEC_DISP_PROPS_WINDOW_ASSEMBLY_SILL_PLAN
  2
AecDbDispPropsWindowAssemblySillPlan
  3
AecArchBase40|Product Desc: Autodesk Architectural Desktop 2005 |Company: Autodesk,Inc. |WEB Address: www.autodesk.com
 90
      129
 91
        0
280
     0
281
     0
  0
CLASS
  1
AEC_DISP_REP_WINDOW_ELEV
  2
AecDbDispRepWindowElev
  3
AecArchBase40|Product Desc: Autodesk Architectural Desktop 2005 |Company: Autodesk,Inc. |WEB Address: www.autodesk.com
 90
      129
 91
        0
280
     0
281
     0
  0
CLASS
  1
AEC_DISP_REP_WINDOW_NOMINAL
  2
AecDbDispRepWindowNominal
  3
AecArchBase40|Product Desc: Autodesk Architectural Desktop 2005 |Company: Autodesk,Inc. |WEB Address: www.autodesk.com
 90
      129
 91
        0
280
     0
281
     0
  0
CLASS
  1
AEC_DISP_PROPS_WINDOW_NOMINAL
  2
AecDbDispPropsWindowNominal
  3
AecArchBase40|Product Desc: Autodesk Architectural Desktop 2005 |Company: Autodesk,Inc. |WEB Address: www.autodesk.com
 90
      129
 91
        0
280
     0
281
     0
  0
CLASS
  1
AEC_DISP_REP_WINDOW_RCP
  2
AecDbDispRepWindowRcp
  3
AecArchBase40|Product Desc: Autodesk Architectural Desktop 2005 |Company: Autodesk,Inc. |WEB Address: www.autodesk.com
 90
      129
 91
        0
280
     0
281
     0
  0
CLASS
  1
AEC_DISP_REP_AREA_DECOMPOSED
  2
AecDbDispRepAreaDecomposed
  3
AecAreaCalculationBase40|Product Desc: Autodesk Architectural Desktop 2005 |Company: Autodesk,Inc. |WEB Address: www.autodesk.com
 90
      129
 91
        0
280
     0
281
     0
  0
CLASS
  1
AEC_DISP_PROPS_AREA_DECOMPOSED
  2
AecDbDispPropsAreaDecomposed
  3
AecAreaCalculationBase40|Product Desc: Autodesk Architectural Desktop 2005 |Company: Autodesk,Inc. |WEB Address: www.autodesk.com
 90
      129
 91
        0
280
     0
281
     0
  0
CLASS
  1
AEC_AECDBDISPREPAREA100
  2
AecDbDispRepArea100
  3
AecBase40|Product Desc: Autodesk Architectural Desktop 2005 |Company: Autodesk,Inc. |WEB Address: www.autodesk.com
 90
      129
 91
        0
280
     0
281
     0
  0
CLASS
  1
AEC_AECDBDISPREPAREAGROUP100
  2
AecDbDispRepAreaGroup100
  3
AecBase40|Product Desc: Autodesk Architectural Desktop 2005 |Company: Autodesk,Inc. |WEB Address: www.autodesk.com
 90
      129
 91
        0
280
     0
281
     0
  0
CLASS
  1
AEC_AECDBDISPREPBDGELEVLINEPLAN100
  2
AecDbDispRepBdgElevLinePlan100
  3
AecBase40|Product Desc: Autodesk Architectural Desktop 2005 |Company: Autodesk,Inc. |WEB Address: www.autodesk.com
 90
      129
 91
        0
280
     0
281
     0
  0
CLASS
  1
AEC_AECDBDISPREPBDGSECTIONLINEPLAN100
  2
AecDbDispRepBdgSectionLinePlan100
  3
AecBase40|Product Desc: Autodesk Architectural Desktop 2005 |Company: Autodesk,Inc. |WEB Address: www.autodesk.com
 90
      129
 91
        0
280
     0
281
     0
  0
CLASS
  1
AEC_AECDBDISPREPCEILINGGRIDPLAN100
  2
AecDbDispRepCeilingGridPlan100
  3
AecBase40|Product Desc: Autodesk Architectural Desktop 2005 |Company: Autodesk,Inc. |WEB Address: www.autodesk.com
 90
      129
 91
        0
280
     0
281
     0
  0
CLASS
  1
AEC_AECDBDISPREPCOLUMNGRIDPLAN100
  2
AecDbDispRepColumnGridPlan100
  3
AecBase40|Product Desc: Autodesk Architectural Desktop 2005 |Company: Autodesk,Inc. |WEB Address: www.autodesk.com
 90
      129
 91
        0
280
     0
281
     0
  0
CLASS
  1
AEC_AECDBDISPREPCURTAINWALLLAYOUTPLAN100
  2
AecDbDispRepCurtainWallLayoutPlan100
  3
AecBase40|Product Desc: Autodesk Architectural Desktop 2005 |Company: Autodesk,Inc. |WEB Address: www.autodesk.com
 90
      129
 91
        0
280
     0
281
     0
  0
CLASS
  1
AEC_AECDBDISPREPCURTAINWALLUNITPLAN100
  2
AecDbDispRepCurtainWallUnitPlan100
  3
AecBase40|Product Desc: Autodesk Architectural Desktop 2005 |Company: Autodesk,Inc. |WEB Address: www.autodesk.com
 90
      129
 91
        0
280
     0
281
     0
  0
CLASS
  1
AEC_AECDBDISPREPMVBLOCKREFPLAN100
  2
AecDbDispRepMvBlockRefPlan100
  3
AecBase40|Product Desc: Autodesk Architectural Desktop 2005 |Company: Autodesk,Inc. |WEB Address: www.autodesk.com
 90
      129
 91
        0
280
     0
281
     0
  0
CLASS
  1
AEC_AECDBDISPREPROOFPLAN100
  2
AecDbDispRepRoofPlan100
  3
AecBase40|Product Desc: Autodesk Architectural Desktop 2005 |Company: Autodesk,Inc. |WEB Address: www.autodesk.com
 90
      129
 91
        0
280
     0
281
     0
  0
CLASS
  1
AEC_AECDBDISPREPROOFSLABPLAN100
  2
AecDbDispRepRoofSlabPlan100
  3
AecBase40|Product Desc: Autodesk Architectural Desktop 2005 |Company: Autodesk,Inc. |WEB Address: www.autodesk.com
 90
      129
 91
        0
280
     0
281
     0
  0
CLASS
  1
AEC_AECDBDISPREPSLABPLAN100
  2
AecDbDispRepSlabPlan100
  3
AecBase40|Product Desc: Autodesk Architectural Desktop 2005 |Company: Autodesk,Inc. |WEB Address: www.autodesk.com
 90
      129
 91
        0
280
     0
281
     0
  0
CLASS
  1
AEC_AECDBDISPREPSPACEBOUNDARYPLAN100
  2
AecDbDispRepSpaceBoundaryPlan100
  3
AecBase40|Product Desc: Autodesk Architectural Desktop 2005 |Company: Autodesk,Inc. |WEB Address: www.autodesk.com
 90
      129
 91
        0
280
     0
281
     0
  0
CLASS
  1
AEC_AECDBDISPREPSPACEPLAN100
  2
AecDbDispRepSpacePlan100
  3
AecBase40|Product Desc: Autodesk Architectural Desktop 2005 |Company: Autodesk,Inc. |WEB Address: www.autodesk.com
 90
      129
 91
        0
280
     0
281
     0
  0
CLASS
  1
AEC_AECDBDISPREPWALLPLAN100
  2
AecDbDispRepWallPlan100
  3
AecBase40|Product Desc: Autodesk Architectural Desktop 2005 |Company: Autodesk,Inc. |WEB Address: www.autodesk.com
 90
      129
 91
        0
280
     0
281
     0
  0
CLASS
  1
AEC_AECDBDISPREPWINDOWASSEMBLYPLAN100
  2
AecDbDispRepWindowAssemblyPlan100
  3
AecBase40|Product Desc: Autodesk Architectural Desktop 2005 |Company: Autodesk,Inc. |WEB Address: www.autodesk.com
 90
      129
 91
        0
280
     0
281
     0
  0
CLASS
  1
AEC_AECDBDISPREPAREA50
  2
AecDbDispRepArea50
  3
AecBase40|Product Desc: Autodesk Architectural Desktop 2005 |Company: Autodesk,Inc. |WEB Address: www.autodesk.com
 90
      129
 91
        0
280
     0
281
     0
  0
CLASS
  1
AEC_AECDBDISPREPAREAGROUP50
  2
AecDbDispRepAreaGroup50
  3
AecBase40|Product Desc: Autodesk Architectural Desktop 2005 |Company: Autodesk,Inc. |WEB Address: www.autodesk.com
 90
      129
 91
        0
280
     0
281
     0
  0
CLASS
  1
AEC_AECDBDISPREPBDGELEVLINEPLAN50
  2
AecDbDispRepBdgElevLinePlan50
  3
AecBase40|Product Desc: Autodesk Architectural Desktop 2005 |Company: Autodesk,Inc. |WEB Address: www.autodesk.com
 90
      129
 91
        0
280
     0
281
     0
  0
CLASS
  1
AEC_AECDBDISPREPBDGSECTIONLINEPLAN50
  2
AecDbDispRepBdgSectionLinePlan50
  3
AecBase40|Product Desc: Autodesk Architectural Desktop 2005 |Company: Autodesk,Inc. |WEB Address: www.autodesk.com
 90
      129
 91
        0
280
     0
281
     0
  0
CLASS
  1
AEC_AECDBDISPREPCEILINGGRIDPLAN50
  2
AecDbDispRepCeilingGridPlan50
  3
AecBase40|Product Desc: Autodesk Architectural Desktop 2005 |Company: Autodesk,Inc. |WEB Address: www.autodesk.com
 90
      129
 91
        0
280
     0
281
     0
  0
CLASS
  1
AEC_AECDBDISPREPCOLUMNGRIDPLAN50
  2
AecDbDispRepColumnGridPlan50
  3
AecBase40|Product Desc: Autodesk Architectural Desktop 2005 |Company: Autodesk,Inc. |WEB Address: www.autodesk.com
 90
      129
 91
        0
280
     0
281
     0
  0
CLASS
  1
AEC_AECDBDISPREPCURTAINWALLLAYOUTPLAN50
  2
AecDbDispRepCurtainWallLayoutPlan50
  3
AecBase40|Product Desc: Autodesk Architectural Desktop 2005 |Company: Autodesk,Inc. |WEB Address: www.autodesk.com
 90
      129
 91
        0
280
     0
281
     0
  0
CLASS
  1
AEC_AECDBDISPREPCURTAINWALLUNITPLAN50
  2
AecDbDispRepCurtainWallUnitPlan50
  3
AecBase40|Product Desc: Autodesk Architectural Desktop 2005 |Company: Autodesk,Inc. |WEB Address: www.autodesk.com
 90
      129
 91
        0
280
     0
281
     0
  0
CLASS
  1
AEC_AECDBDISPREPMVBLOCKREFPLAN50
  2
AecDbDispRepMvBlockRefPlan50
  3
AecBase40|Product Desc: Autodesk Architectural Desktop 2005 |Company: Autodesk,Inc. |WEB Address: www.autodesk.com
 90
      129
 91
        0
280
     0
281
     0
  0
CLASS
  1
AEC_AECDBDISPREPROOFPLAN50
  2
AecDbDispRepRoofPlan50
  3
AecBase40|Product Desc: Autodesk Architectural Desktop 2005 |Company: Autodesk,Inc. |WEB Address: www.autodesk.com
 90
      129
 91
        0
280
     0
281
     0
  0
CLASS
  1
AEC_AECDBDISPREPROOFSLABPLAN50
  2
AecDbDispRepRoofSlabPlan50
  3
AecBase40|Product Desc: Autodesk Architectural Desktop 2005 |Company: Autodesk,Inc. |WEB Address: www.autodesk.com
 90
      129
 91
        0
280
     0
281
     0
  0
CLASS
  1
AEC_AECDBDISPREPSLABPLAN50
  2
AecDbDispRepSlabPlan50
  3
AecBase40|Product Desc: Autodesk Architectural Desktop 2005 |Company: Autodesk,Inc. |WEB Address: www.autodesk.com
 90
      129
 91
        0
280
     0
281
     0
  0
CLASS
  1
AEC_AECDBDISPREPSPACEBOUNDARYPLAN50
  2
AecDbDispRepSpaceBoundaryPlan50
  3
AecBase40|Product Desc: Autodesk Architectural Desktop 2005 |Company: Autodesk,Inc. |WEB Address: www.autodesk.com
 90
      129
 91
        0
280
     0
281
     0
  0
CLASS
  1
AEC_AECDBDISPREPSPACEPLAN50
  2
AecDbDispRepSpacePlan50
  3
AecBase40|Product Desc: Autodesk Architectural Desktop 2005 |Company: Autodesk,Inc. |WEB Address: www.autodesk.com
 90
      129
 91
        0
280
     0
281
     0
  0
CLASS
  1
AEC_AECDBDISPREPWALLPLAN50
  2
AecDbDispRepWallPlan50
  3
AecBase40|Product Desc: Autodesk Architectural Desktop 2005 |Company: Autodesk,Inc. |WEB Address: www.autodesk.com
 90
      129
 91
        0
280
     0
281
     0
  0
CLASS
  1
AEC_AECDBDISPREPWINDOWASSEMBLYPLAN50
  2
AecDbDispRepWindowAssemblyPlan50
  3
AecBase40|Product Desc: Autodesk Architectural Desktop 2005 |Company: Autodesk,Inc. |WEB Address: www.autodesk.com
 90
      129
 91
        0
280
     0
281
     0
  0
CLASS
  1
AEC_DB_DISP_REP_DIM_GROUP_PLAN100
  2
AecDbDispRepDimGroupPlan100
  3
AecArchDACHBase40|Product Desc: Autodesk Architectural Desktop 2005 |Company: Autodesk,Inc. |WEB Address: www.autodesk.com
 90
      129
 91
        0
280
     0
281
     0
  0
CLASS
  1
AEC_DB_DISP_REP_DIM_GROUP_PLAN50
  2
AecDbDispRepDimGroupPlan50
  3
AecArchDACHBase40|Product Desc: Autodesk Architectural Desktop 2005 |Company: Autodesk,Inc. |WEB Address: www.autodesk.com
 90
      129
 91
        0
280
     0
281
     0
  0
CLASS
  1
AEC_DISP_REP_DOOR_PLAN_50
  2
AecDbDispRepDoorPlan50
  3
AecArchDACHBase40|Product Desc: Autodesk Architectural Desktop 2005 |Company: Autodesk,Inc. |WEB Address: www.autodesk.com
 90
      129
 91
        0
280
     0
281
     0
  0
CLASS
  1
AEC_DISP_PROPS_DOOR_PLAN_50
  2
AecDbDispPropsDoorPlan50
  3
AecArchDACHBase40|Product Desc: Autodesk Architectural Desktop 2005 |Company: Autodesk,Inc. |WEB Address: www.autodesk.com
 90
      129
 91
        0
280
     0
281
     0
  0
CLASS
  1
AEC_DISP_REP_DOOR_PLAN_HEKTO
  2
AecDbDispRepDoorPlanHekto
  3
AecArchDACHBase40|Product Desc: Autodesk Architectural Desktop 2005 |Company: Autodesk,Inc. |WEB Address: www.autodesk.com
 90
      129
 91
        0
280
     0
281
     0
  0
CLASS
  1
AEC_DISP_PROPS_DOOR_PLAN_100
  2
AecDbDispPropsDoorPlan100
  3
AecArchDACHBase40|Product Desc: Autodesk Architectural Desktop 2005 |Company: Autodesk,Inc. |WEB Address: www.autodesk.com
 90
      129
 91
        0
280
     0
281
     0
  0
CLASS
  1
AEC_DISP_REP_DOOR_THRESHOLD_SYMBOL_PLAN
  2
AecDbDispRepDoorThresholdSymbolPlan
  3
AecArchDACHBase40|Product Desc: Autodesk Architectural Desktop 2005 |Company: Autodesk,Inc. |WEB Address: www.autodesk.com
 90
      129
 91
        0
280
     0
281
     0
  0
CLASS
  1
AEC_DISP_PROPS_DOOR_THRESHOLD_SYMBOL_PLAN
  2
AecDbDispPropsDoorThresholdSymbolPlan
  3
AecArchDACHBase40|Product Desc: Autodesk Architectural Desktop 2005 |Company: Autodesk,Inc. |WEB Address: www.autodesk.com
 90
      129
 91
        0
280
     0
281
     0
  0
CLASS
  1
AEC_DISPREPAECDBDISPREPMASSELEMPLAN100
  2
AecDbDispRepMassElemPlan100
  3
AecArchDACHBase40|Product Desc: Autodesk Architectural Desktop 2005 |Company: Autodesk,Inc. |WEB Address: www.autodesk.com
 90
      129
 91
        0
280
     0
281
     0
  0
CLASS
  1
AEC_DISPROPSMASSELEMPLANCOMMON
  2
AecDbDispPropsMassElemPlanCommon
  3
AecArchDACHBase40|Product Desc: Autodesk Architectural Desktop 2005 |Company: Autodesk,Inc. |WEB Address: www.autodesk.com
 90
      129
 91
        0
280
     0
281
     0
  0
CLASS
  1
AEC_DISPREPAECDBDISPREPMASSELEMPLAN50
  2
AecDbDispRepMassElemPlan50
  3
AecArchDACHBase40|Product Desc: Autodesk Architectural Desktop 2005 |Company: Autodesk,Inc. |WEB Address: www.autodesk.com
 90
      129
 91
        0
280
     0
281
     0
  0
CLASS
  1
AEC_DISPREPAECDBDISPREPMASSGROUPPLAN100
  2
AecDbDispRepMassGroupPlan100
  3
AecArchDACHBase40|Product Desc: Autodesk Architectural Desktop 2005 |Company: Autodesk,Inc. |WEB Address: www.autodesk.com
 90
      129
 91
        0
280
     0
281
     0
  0
CLASS
  1
AEC_DISPROPSMASSGROUPPLANCOMMON
  2
AecDbDispPropsMassGroupPlanCommon
  3
AecArchDACHBase40|Product Desc: Autodesk Architectural Desktop 2005 |Company: Autodesk,Inc. |WEB Address: www.autodesk.com
 90
      129
 91
        0
280
     0
281
     0
  0
CLASS
  1
AEC_DISPREPAECDBDISPREPMASSGROUPPLAN50
  2
AecDbDispRepMassGroupPlan50
  3
AecArchDACHBase40|Product Desc: Autodesk Architectural Desktop 2005 |Company: Autodesk,Inc. |WEB Address: www.autodesk.com
 90
      129
 91
        0
280
     0
281
     0
  0
CLASS
  1
AEC_DISPREPAECDBDISPREPOPENINGPLAN100
  2
AecDbDispRepOpeningPlan100
  3
AecArchDACHBase40|Product Desc: Autodesk Architectural Desktop 2005 |Company: Autodesk,Inc. |WEB Address: www.autodesk.com
 90
      129
 91
        0
280
     0
281
     0
  0
CLASS
  1
AEC_DISPROPSOPENINGPLANCOMMONHATCHED
  2
AecDbDispPropsOpeningPlanCommonHatched
  3
AecArchDACHBase40|Product Desc: Autodesk Architectural Desktop 2005 |Company: Autodesk,Inc. |WEB Address: www.autodesk.com
 90
      129
 91
        0
280
     0
281
     0
  0
CLASS
  1
AEC_DISPREPAECDBDISPREPOPENINGPLAN50
  2
AecDbDispRepOpeningPlan50
  3
AecArchDACHBase40|Product Desc: Autodesk Architectural Desktop 2005 |Company: Autodesk,Inc. |WEB Address: www.autodesk.com
 90
      129
 91
        0
280
     0
281
     0
  0
CLASS
  1
AEC_DISPREPAECDBDISPREPOPENINGPLANREFLECTED
  2
AecDbDispRepOpeningPlanReflected
  3
AecArchDACHBase40|Product Desc: Autodesk Architectural Desktop 2005 |Company: Autodesk,Inc. |WEB Address: www.autodesk.com
 90
      129
 91
        0
280
     0
281
     0
  0
CLASS
  1
AEC_DISPROPSOPENINGPLANCOMMON
  2
AecDbDispPropsOpeningPlanCommon
  3
AecArchDACHBase40|Product Desc: Autodesk Architectural Desktop 2005 |Company: Autodesk,Inc. |WEB Address: www.autodesk.com
 90
      129
 91
        0
280
     0
281
     0
  0
CLASS
  1
AEC_DISPREPAECDBDISPREPOPENINGSILLPLAN
  2
AecDbDispRepOpeningSillPlan
  3
AecArchDACHBase40|Product Desc: Autodesk Architectural Desktop 2005 |Company: Autodesk,Inc. |WEB Address: www.autodesk.com
 90
      129
 91
        0
280
     0
281
     0
  0
CLASS
  1
AEC_DISPROPSOPENINGSILLPLAN
  2
AecDbDispPropsOpeningSillPlan
  3
AecArchDACHBase40|Product Desc: Autodesk Architectural Desktop 2005 |Company: Autodesk,Inc. |WEB Address: www.autodesk.com
 90
      129
 91
        0
280
     0
281
     0
  0
CLASS
  1
AEC_DISP_REP_RAILING_PLAN_100
  2
AecDbDispRepRailingPlan100
  3
AecArchDACHBase40|Product Desc: Autodesk Architectural Desktop 2005 |Company: Autodesk,Inc. |WEB Address: www.autodesk.com
 90
      129
 91
        0
280
     0
281
     0
  0
CLASS
  1
AEC_DISP_ROPS_RAILING_PLAN_100
  2
AecDbDispPropsRailingPlan100
  3
AecArchDACHBase40|Product Desc: Autodesk Architectural Desktop 2005 |Company: Autodesk,Inc. |WEB Address: www.autodesk.com
 90
      129
 91
        0
280
     0
281
     0
  0
CLASS
  1
AEC_DISP_REP_RAILING_PLAN_50
  2
AecDbDispRepRailingPlan50
  3
AecArchDACHBase40|Product Desc: Autodesk Architectural Desktop 2005 |Company: Autodesk,Inc. |WEB Address: www.autodesk.com
 90
      129
 91
        0
280
     0
281
     0
  0
CLASS
  1
AEC_DISP_ROPS_RAILING_PLAN_50
  2
AecDbDispPropsRailingPlan50
  3
AecArchDACHBase40|Product Desc: Autodesk Architectural Desktop 2005 |Company: Autodesk,Inc. |WEB Address: www.autodesk.com
 90
      129
 91
        0
280
     0
281
     0
  0
CLASS
  1
AEC_DISP_REP_STAIR_PLAN_100
  2
AecDbDispRepStairPlan100
  3
AecArchDACHBase40|Product Desc: Autodesk Architectural Desktop 2005 |Company: Autodesk,Inc. |WEB Address: www.autodesk.com
 90
      129
 91
        0
280
     0
281
     0
  0
CLASS
  1
AEC_DISP_ROPS_STAIR_PLAN_100
  2
AecDbDispPropsStairPlan100
  3
AecArchDACHBase40|Product Desc: Autodesk Architectural Desktop 2005 |Company: Autodesk,Inc. |WEB Address: www.autodesk.com
 90
      129
 91
        0
280
     0
281
     0
  0
CLASS
  1
AEC_DISP_REP_STAIR_PLAN_50
  2
AecDbDispRepStairPlan50
  3
AecArchDACHBase40|Product Desc: Autodesk Architectural Desktop 2005 |Company: Autodesk,Inc. |WEB Address: www.autodesk.com
 90
      129
 91
        0
280
     0
281
     0
  0
CLASS
  1
AEC_DISP_ROPS_STAIR_PLAN_50
  2
AecDbDispPropsStairPlan50
  3
AecArchDACHBase40|Product Desc: Autodesk Architectural Desktop 2005 |Company: Autodesk,Inc. |WEB Address: www.autodesk.com
 90
      129
 91
        0
280
     0
281
     0
  0
CLASS
  1
AEC_DISP_REP_WINDOW_PLAN_100
  2
AecDbDispRepWindowPlan100
  3
AecArchDACHBase40|Product Desc: Autodesk Architectural Desktop 2005 |Company: Autodesk,Inc. |WEB Address: www.autodesk.com
 90
      129
 91
        0
280
     0
281
     0
  0
CLASS
  1
AEC_DISP_PROPS_WINDOW_PLAN_100
  2
AecDbDispPropsWindowPlan100
  3
AecArchDACHBase40|Product Desc: Autodesk Architectural Desktop 2005 |Company: Autodesk,Inc. |WEB Address: www.autodesk.com
 90
      129
 91
        0
280
     0
281
     0
  0
CLASS
  1
AEC_DISP_REP_WINDOW_PLAN_50
  2
AecDbDispRepWindowPlan50
  3
AecArchDACHBase40|Product Desc: Autodesk Architectural Desktop 2005 |Company: Autodesk,Inc. |WEB Address: www.autodesk.com
 90
      129
 91
        0
280
     0
281
     0
  0
CLASS
  1
AEC_DISP_PROPS_WINDOW_PLAN_50
  2
AecDbDispPropsWindowPlan50
  3
AecArchDACHBase40|Product Desc: Autodesk Architectural Desktop 2005 |Company: Autodesk,Inc. |WEB Address: www.autodesk.com
 90
      129
 91
        0
280
     0
281
     0
  0
CLASS
  1
BINRECORD
  2
AcAecBinRecord
  3
AecBase40|Product Desc: Autodesk Architectural Desktop 2005 |Company: Autodesk,Inc. |WEB Address: www.autodesk.com
 90
      129
 91
        0
280
     0
281
     0
  0
CLASS
  1
TABLESTYLE
  2
AcDbTableStyle
  3
ObjectDBX Classes
 90
     2047
 91
        1
280
     0
281
     0
  0
CLASS
  1
SORTENTSTABLE
  2
AcDbSortentsTable
  3
ObjectDBX Classes
 90
        0
 91
        5
280
     0
281
     0
  0
CLASS
  1
ARC_DIMENSION
  2
AcDbArcDimension
  3
ObjectDBX Classes
 90
     1025
 91
        0
280
     0
281
     1
  0
ENDSEC
  0
SECTION
  2
TABLES
  0
TABLE
  2
VPORT
  5
4B
330
0
100
AcDbSymbolTable
 70
     6
  0
VPORT
  5
CD08C
330
4B
100
AcDbSymbolTableRecord
100
AcDbViewportTableRecord
  2
*Active
 70
     0
 10
0.0
 20
0.0
 11
1.0
 21
1.0
 12
33478.28076303769
 22
-11957.83882785936
 13
0.0
 23
0.0
 14
0.5
 24
0.5
 15
0.5
 25
0.5
 16
0.0
 26
0.0
 36
1.0
 17
0.0
 27
0.0
 37
0.0
 40
4412.370350319139
 41
1.893413173652694
 42
50.0
 43
0.0
 44
0.0
 50
0.0
 51
0.0
 71
     0
 72
   100
 73
     1
 74
     1
 75
     0
 76
     0
 77
     0
 78
     0
281
     0
 65
     1
110
0.0
120
0.0
130
0.0
111
1.0
121
0.0
131
0.0
112
0.0
122
1.0
132
0.0
 79
     0
146
0.0
  0
ENDTAB
  0
TABLE
  2
LTYPE
  5
46
330
0
100
AcDbSymbolTable
 70
     4
  0
LTYPE
  5
47
330
46
100
AcDbSymbolTableRecord
100
AcDbLinetypeTableRecord
  2
BYBLOCK
 70
     0
  3

 72
    65
 73
     0
 40
0.0
  0
LTYPE
  5
48
330
46
100
AcDbSymbolTableRecord
100
AcDbLinetypeTableRecord
  2
BYLAYER
 70
     0
  3

 72
    65
 73
     0
 40
0.0
  0
LTYPE
  5
8
330
46
100
AcDbSymbolTableRecord
100
AcDbLinetypeTableRecord
  2
CONTINUOUS
 70
     0
  3
Solid line
 72
    65
 73
     0
 40
0.0
  0
LTYPE
  5
18
330
46
100
AcDbSymbolTableRecord
100
AcDbLinetypeTableRecord
  2
AUSGEZOGEN
 70
     0
  3
AUSGEZOGEN
 72
    65
 73
     2
 40
2.0
 49
1.0
 74
     0
 49
1.0
 74
     0
  0
LTYPE
  5
74
330
46
100
AcDbSymbolTableRecord
100
AcDbLinetypeTableRecord
  2
STRICHLINIEX2
 70
     0
  3
Strichlinie (2x) ____  ____  ____  ____  ____  
 72
    65
 73
     2
 40
1.5
 49
1.0
 74
     0
 49
-0.5
 74
     0
  0
LTYPE
  5
75
330
46
100
AcDbSymbolTableRecord
100
AcDbLinetypeTableRecord
  2
MITTEX2
 70
     0
  3
Mitte (2x) ________  __  ________  __  _____
 72
    65
 73
     4
 40
4.0
 49
2.5
 74
     0
 49
-0.5
 74
     0
 49
0.5
 74
     0
 49
-0.5
 74
     0
  0
ENDTAB
  0
TABLE
  2
LAYER
  5
41
102
{ACAD_XDICTIONARY
360
42
102
}
330
0
100
AcDbSymbolTable
 70
    14
  0
LAYER
  5
4
330
41
100
AcDbSymbolTableRecord
100
AcDbLayerTableRecord
  2
0
 70
     0
 62
     7
  6
CONTINUOUS
370
    -3
390
5
  0
LAYER
  5
A
330
41
100
AcDbSymbolTableRecord
100
AcDbLayerTableRecord
  2
-TEXT3
 70
     0
 62
     2
  6
CONTINUOUS
370
    -3
390
5
  0
LAYER
  5
17
330
41
100
AcDbSymbolTableRecord
100
AcDbLayerTableRecord
  2
-TEXT
 70
     0
 62
     7
  6
AUSGEZOGEN
370
    -3
390
5
  0
LAYER
  5
E
330
41
100
AcDbSymbolTableRecord
100
AcDbLayerTableRecord
  2
-TEXT2
 70
     0
 62
     3
  6
CONTINUOUS
370
    -3
390
5
  0
LAYER
  5
1A
330
41
100
AcDbSymbolTableRecord
100
AcDbLayerTableRecord
  2
-ZEICHNUNGSRAND-INNEN
 70
     0
 62
     7
  6
CONTINUOUS
370
    -3
390
5
  0
LAYER
  5
77
330
41
100
AcDbSymbolTableRecord
100
AcDbLayerTableRecord
  2
-SYSTEM
 70
     0
 62
     2
  6
MITTEX2
370
    -3
390
5
  0
LAYER
  5
78
330
41
100
AcDbSymbolTableRecord
100
AcDbLayerTableRecord
  2
-PROFILAUSSENKANTE
 70
     0
 62
     4
  6
CONTINUOUS
370
    -3
390
5
  0
LAYER
  5
7A
330
41
100
AcDbSymbolTableRecord
100
AcDbLayerTableRecord
  2
-SCHRAFFUR
 70
     0
 62
     9
  6
CONTINUOUS
370
    -3
390
5
  0
LAYER
  5
7B
330
41
100
AcDbSymbolTableRecord
100
AcDbLayerTableRecord
  2
-VERDECKT
 70
     0
 62
     9
  6
STRICHLINIEX2
370
    -3
390
5
  0
LAYER
  5
7C
330
41
100
AcDbSymbolTableRecord
100
AcDbLayerTableRecord
  2
Defpoints
 70
     0
 62
     7
  6
CONTINUOUS
290
     0
370
    -3
390
5
  0
LAYER
  5
12D2F
330
41
100
AcDbSymbolTableRecord
100
AcDbLayerTableRecord
  2
-NORMTEIL_VERDECKT
 70
     0
 62
     9
  6
STRICHLINIEX2
370
    -3
390
5
  0
LAYER
  5
8D765
330
41
100
AcDbSymbolTableRecord
100
AcDbLayerTableRecord
  2
-PROFILAUSSENKANTET
 70
     0
 62
     4
  6
CONTINUOUS
370
    -3
390
5
1001
AVE_FINISH
1002
{
1070
     0
1005
0
1002
}
  0
LAYER
  5
8D766
330
41
100
AcDbSymbolTableRecord
100
AcDbLayerTableRecord
  2
-DICHTUNG
 70
     0
 62
     3
  6
CONTINUOUS
370
    -3
390
5
1001
AVE_FINISH
1002
{
1070
     0
1005
0
1002
}
  0
LAYER
  5
8D768
330
41
100
AcDbSymbolTableRecord
100
AcDbLayerTableRecord
  2
-GLAS
 70
     0
 62
     1
  6
CONTINUOUS
370
    -3
390
5
  0
ENDTAB
  0
TABLE
  2
STYLE
  5
44
330
0
100
AcDbSymbolTable
 70
     3
  0
STYLE
  5
B
330
44
100
AcDbSymbolTableRecord
100
AcDbTextStyleTableRecord
  2
STANDARD
 70
     0
 40
0.0
 41
1.0
 50
0.0
 71
     0
 42
0.2
  3
ARIAL.TTF
  4

1001
ACAD
1000
Arial
1071
       34
  0
STYLE
  5
10
330
44
100
AcDbSymbolTableRecord
100
AcDbTextStyleTableRecord
  2
LOGOCAD
 70
     0
 40
0.0
 41
1.0
 50
0.0
 71
     0
 42
3.5
  3
TXT8
  4

  0
ENDTAB
  0
TABLE
  2
VIEW
  5
49
330
0
100
AcDbSymbolTable
 70
     0
  0
ENDTAB
  0
TABLE
  2
UCS
  5
4A
330
0
100
AcDbSymbolTable
 70
     0
  0
ENDTAB
  0
TABLE
  2
APPID
  5
4D
330
0
100
AcDbSymbolTable
 70
    14
  0
APPID
  5
C
330
4D
100
AcDbSymbolTableRecord
100
AcDbRegAppTableRecord
  2
ACAD
 70
     0
  0
APPID
  5
12DB8
330
4D
100
AcDbSymbolTableRecord
100
AcDbRegAppTableRecord
  2
ACAD_EXEMPT_FROM_CAD_STANDARDS
 70
     0
  0
APPID
  5
1306D
330
4D
100
AcDbSymbolTableRecord
100
AcDbRegAppTableRecord
  2
ACAD_PSEXT
 70
     0
  0
APPID
  5
1BFDE
330
4D
100
AcDbSymbolTableRecord
100
AcDbRegAppTableRecord
  2
ACAD_DSTYLE_DIMTEXT_FILL
 70
     0
  0
APPID
  5
1BFDF
330
4D
100
AcDbSymbolTableRecord
100
AcDbRegAppTableRecord
  2
ACAD_DSTYLE_DIMEXT_LENGTH
 70
     0
  0
APPID
  5
1BFE0
330
4D
100
AcDbSymbolTableRecord
100
AcDbRegAppTableRecord
  2
ACAD_DSTYLE_DIMEXT_ENABLED
 70
     0
  0
APPID
  5
1BFE1
330
4D
100
AcDbSymbolTableRecord
100
AcDbRegAppTableRecord
  2
ACAD_DSTYLE_DIM_LINETYPE
 70
     0
  0
APPID
  5
1BFE2
330
4D
100
AcDbSymbolTableRecord
100
AcDbRegAppTableRecord
  2
ACAD_DSTYLE_DIM_EXT1_LINETYPE
 70
     0
  0
APPID
  5
1BFE3
330
4D
100
AcDbSymbolTableRecord
100
AcDbRegAppTableRecord
  2
ACAD_DSTYLE_DIM_EXT2_LINETYPE
 70
     0
  0
APPID
  5
26FC6
330
4D
100
AcDbSymbolTableRecord
100
AcDbRegAppTableRecord
  2
AVE_FINISH
 70
     0
  0
APPID
  5
26FC7
330
4D
100
AcDbSymbolTableRecord
100
AcDbRegAppTableRecord
  2
ACAD_DSTYLE_DIMJOGGED_JOGANGLE_SYMBOL
 70
     0
  0
APPID
  5
26FC8
330
4D
100
AcDbSymbolTableRecord
100
AcDbRegAppTableRecord
  2
ACAD_DSTYLE_DIMARC_LENGTH_SYMBOL
 70
     0
  0
APPID
  5
7FF5D
330
4D
100
AcDbSymbolTableRecord
100
AcDbRegAppTableRecord
  2
DCO15
 70
     0
  0
APPID
  5
9E99E
330
4D
100
AcDbSymbolTableRecord
100
AcDbRegAppTableRecord
  2
AcAecLayerStandard
 70
     0
  0
ENDTAB
  0
TABLE
  2
DIMSTYLE
  5
4E
330
0
100
AcDbSymbolTable
 70
     2
100
AcDbDimStyleTable
 71
     1
340
BC095
  0
DIMSTYLE
105
BC095
102
{ACAD_REACTORS
330
C7D4B
330
C7D79
330
CAFAC
330
CC53C
330
CC549
330
CC556
330
CC62E
330
CC63B
330
CC794
330
CC8F3
330
CC8F4
330
CC929
330
CC97E
330
CC9CC
330
CCD0C
330
CCF35
330
CCF4B
102
}
330
4E
100
AcDbSymbolTableRecord
100
AcDbDimStyleTableRecord
  2
Kopie(3) von 1-1
 70
     0
 40
0.7
 41
30.0
 42
10.0
 43
3.0
 44
5.0
 48
0.5
 73
     0
 74
     0
 77
     1
 78
     9
140
30.0
146
0.75
147
5.0
172
     1
176
   256
177
   256
178
   256
271
     0
272
     0
283
     0
340
B
1001
ACAD_DSTYLE_DIMEXT_LENGTH
1070
   378
1040
5.0
1001
ACAD_DSTYLE_DIMEXT_ENABLED
1070
   383
1070
     0
1001
ACAD_DSTYLE_DIMARC_LENGTH_SYMBOL
1070
   379
1070
     0
1001
ACAD_DSTYLE_DIMJOGGED_JOGANGLE_SYMBOL
1070
   384
1040
0.7853981633974483
  0
ENDTAB
  0
TABLE
  2
BLOCK_RECORD
  5
1
330
0
100
AcDbSymbolTable
 70
   106
  0
BLOCK_RECORD
  5
2
102
{ACAD_XDICTIONARY
360
12DFF
102
}
330
1
100
AcDbSymbolTableRecord
100
AcDbBlockTableRecord
  2
*MODEL_SPACE
340
3B
  0
BLOCK_RECORD
  5
3D
330
1
100
AcDbSymbolTableRecord
100
AcDbBlockTableRecord
  2
*PAPER_SPACE
340
40
  0
BLOCK_RECORD
  5
8DE5C
330
1
100
AcDbSymbolTableRecord
100
AcDbBlockTableRecord
  2
SA-DICHTUNG
340
0
310
2800000020000000200000000100080000000000000400000000000000000000000000000000000000000000000080000080000000808000800000008000800080800000C0C0C000C0DCC000F0CAA6000020400000206000002080000020A0000020C0000020E00000400000004020000040400000406000004080000040A0
310
000040C0000040E00000600000006020000060400000606000006080000060A0000060C0000060E00000800000008020000080400000806000008080000080A0000080C0000080E00000A0000000A0200000A0400000A0600000A0800000A0A00000A0C00000A0E00000C0000000C0200000C0400000C0600000C0800000C0
310
A00000C0C00000C0E00000E0000000E0200000E0400000E0600000E0800000E0A00000E0C00000E0E00040000000400020004000400040006000400080004000A0004000C0004000E00040200000402020004020400040206000402080004020A0004020C0004020E000404000004040200040404000404060004040800040
310
40A0004040C0004040E00040600000406020004060400040606000406080004060A0004060C0004060E00040800000408020004080400040806000408080004080A0004080C0004080E00040A0000040A0200040A0400040A0600040A0800040A0A00040A0C00040A0E00040C0000040C0200040C0400040C0600040C08000
310
40C0A00040C0C00040C0E00040E0000040E0200040E0400040E0600040E0800040E0A00040E0C00040E0E00080000000800020008000400080006000800080008000A0008000C0008000E00080200000802020008020400080206000802080008020A0008020C0008020E00080400000804020008040400080406000804080
310
008040A0008040C0008040E00080600000806020008060400080606000806080008060A0008060C0008060E00080800000808020008080400080806000808080008080A0008080C0008080E00080A0000080A0200080A0400080A0600080A0800080A0A00080A0C00080A0E00080C0000080C0200080C0400080C0600080C0
310
800080C0A00080C0C00080C0E00080E0000080E0200080E0400080E0600080E0800080E0A00080E0C00080E0E000C0000000C0002000C0004000C0006000C0008000C000A000C000C000C000E000C0200000C0202000C0204000C0206000C0208000C020A000C020C000C020E000C0400000C0402000C0404000C0406000C0
310
408000C040A000C040C000C040E000C0600000C0602000C0604000C0606000C0608000C060A000C060C000C060E000C0800000C0802000C0804000C0806000C0808000C080A000C080C000C080E000C0A00000C0A02000C0A04000C0A06000C0A08000C0A0A000C0A0C000C0A0E000C0C00000C0C02000C0C04000C0C06000
310
C0C08000C0C0A000F0FBFF00A4A0A000808080000000FF0000FF000000FFFF00FF000000FF00FF00FFFF0000FFFFFF0000000000000000000000000000000000000000000000000000000000000000000000000000000000000000000000000000000000000000000000000000000000000000000000000000000000000000
310
00000000000000000000000000000000000000000000000000000000000000000000000000000000000000000000000000000000000000000000000000000000000000000000000000000000000000000000000000000000000000000000000000000000000000000000000000000000000000000000000000000000000000
310
00000000000000000000000000000000000000000000000000000000000000000000000000000000000000000000000000000000000000000000000000000000000000000000000000000000000000000000000000000000000000000000000000000000000000000000000000000000000000000000000000000000000000
310
00000000000000000000000000000000000000000000000000000000000000000000000000000000000000000000000000000000000000000000000000000000000000000000000000000000000000000000000000000000000000000000000000000000000000000000000000000000000000000000000000000000000000
310
000000000000000000000000000000000000000000FAFAFAFAFAFAFAFAFAFAFAFAFAFAFAFAFAFAFAFAFAFAFAFAFAFAFAFAFAFA0000FAFAFAFAFAFAFAFAFAFAFAFAFAFAFAFAFAFAFAFAFAFAFAFAFAFAFAFAFAFA0000000000000000000000000000000000000000000000000000000000000000000000000000000000000000
310
00000000000000000000000000000000000000000000000000000000000000000000000000000000000000000000000000000000000000000000000000000000000000000000000000000000000000000000000000000000000000000000000000000000000000000000000000000000000000000000000000000000000000
310
00000000000000000000000000000000000000000000000000000000000000000000000000000000000000000000000000000000000000000000000000000000000000000000000000000000000000000000000000000000000000000000000000000000000000000000000000000000000000000000000000000000000000
310
00000000000000000000000000000000000000000000000000000000000000000000000000000000000000000000000000000000000000000000000000000000000000000000000000000000000000000000000000000000000000000000000000000000000000000000000000000000000000000000000000000000000000
310
0000000000000000000000000000000000000000000000000000000000000000000000000000000000000000000000000000000000000000
102
{BLKREFS
331
A2CDF
331
A2CD9
331
BBD9D
331
BBD9F
102
}
1001
ACAD
1000
DesignCenter Data
1002
{
1070
     1
1070
     4
1002
}
  0
BLOCK_RECORD
  5
8DE62
330
1
100
AcDbSymbolTableRecord
100
AcDbBlockTableRecord
  2
SA-HALTESCHEIBE35
340
0
310
2800000020000000200000000100080000000000000400000000000000000000000000000000000000000000000080000080000000808000800000008000800080800000C0C0C000C0DCC000F0CAA6000020400000206000002080000020A0000020C0000020E00000400000004020000040400000406000004080000040A0
310
000040C0000040E00000600000006020000060400000606000006080000060A0000060C0000060E00000800000008020000080400000806000008080000080A0000080C0000080E00000A0000000A0200000A0400000A0600000A0800000A0A00000A0C00000A0E00000C0000000C0200000C0400000C0600000C0800000C0
310
A00000C0C00000C0E00000E0000000E0200000E0400000E0600000E0800000E0A00000E0C00000E0E00040000000400020004000400040006000400080004000A0004000C0004000E00040200000402020004020400040206000402080004020A0004020C0004020E000404000004040200040404000404060004040800040
310
40A0004040C0004040E00040600000406020004060400040606000406080004060A0004060C0004060E00040800000408020004080400040806000408080004080A0004080C0004080E00040A0000040A0200040A0400040A0600040A0800040A0A00040A0C00040A0E00040C0000040C0200040C0400040C0600040C08000
310
40C0A00040C0C00040C0E00040E0000040E0200040E0400040E0600040E0800040E0A00040E0C00040E0E00080000000800020008000400080006000800080008000A0008000C0008000E00080200000802020008020400080206000802080008020A0008020C0008020E00080400000804020008040400080406000804080
310
008040A0008040C0008040E00080600000806020008060400080606000806080008060A0008060C0008060E00080800000808020008080400080806000808080008080A0008080C0008080E00080A0000080A0200080A0400080A0600080A0800080A0A00080A0C00080A0E00080C0000080C0200080C0400080C0600080C0
310
800080C0A00080C0C00080C0E00080E0000080E0200080E0400080E0600080E0800080E0A00080E0C00080E0E000C0000000C0002000C0004000C0006000C0008000C000A000C000C000C000E000C0200000C0202000C0204000C0206000C0208000C020A000C020C000C020E000C0400000C0402000C0404000C0406000C0
310
408000C040A000C040C000C040E000C0600000C0602000C0604000C0606000C0608000C060A000C060C000C060E000C0800000C0802000C0804000C0806000C0808000C080A000C080C000C080E000C0A00000C0A02000C0A04000C0A06000C0A08000C0A0A000C0A0C000C0A0E000C0C00000C0C02000C0C04000C0C06000
310
C0C08000C0C0A000F0FBFF00A4A0A000808080000000FF0000FF000000FFFF00FF000000FF00FF00FFFF0000FFFFFF0000000000000000000000000000000000000000000000000000000000000000000000000000000000000000000000000000000000000000000000000000000000000000000000000000000000000000
310
00000000000000000000000000000000000000000000000000000000000000000000000000000000000000000000000000000000000000000000000000000000000000000000000000000000000000000000000000000000000000000000000000000000000000000000000000000000000000000000000000000000000000
310
00000000000000000000000000000000000000000000000000000000000000000000000000000000000000000000000000000000000000000000000000000707070707070707000000000000000000000000000000000000000000000000070700000000070700000000000000000000000000000000000000000000000007
310
07000000000707000000000000000000000000000000000000000000000000070700000000070700000000000000000000000000000000000000000000000007070000000007070000000000000000000000000000000000000000000000000707000000000707000000000000000000000000000000000000000000000000
310
07070000000007070000000000000000000000000000000000000000000000000707000000000707000000000000000000000000000000000000000000000000070700000000070700000000000000000000000000000000000000000000000007070000000007070000000000000000000000000000000000000000000000
310
00070700000000070700000000000000000000000000FEFEFEFEFEFEFEFEFEFEFEFE07FEFEFEFE07FEFE07FEFEFEFEFEFEFEFEFE0000FE00000000000000000000070707000000000007070707000000000000FE000000FE0000000000000000000700070000000000070000070000000000FE00000000FEFEFE0000000000
310
0000070007000000000007000007000000FEFE0000000000000000FEFEFEFEFEFEFE07FE07FEFEFEFEFE07FEFE07FEFEFE000000000000000000000000000000000000000000000000000000000000000000000000000000000000000000000000000000000000000000000000000000000000000000000000000000000000
310
00000000000000000000000000000000000000000000000000000000000000000000000000000000000000000000000000000000000000000000000000000000000000000000000000000000000000000000000000000000000000000000000000000000000000000000000000000000000000000000000000000000000000
310
0000000000000000000000000000000000000000000000000000000000000000000000000000000000000000000000000000000000000000
102
{BLKREFS
331
A2CDE
331
BBD9C
102
}
1001
ACAD
1000
DesignCenter Data
1002
{
1070
     1
1070
     4
1002
}
  0
BLOCK_RECORD
  5
8DE6E
330
1
100
AcDbSymbolTableRecord
100
AcDbBlockTableRecord
  2
SA-SCHAFT607
340
0
310
2800000020000000200000000100080000000000000400000000000000000000000000000000000000000000000080000080000000808000800000008000800080800000C0C0C000C0DCC000F0CAA6000020400000206000002080000020A0000020C0000020E00000400000004020000040400000406000004080000040A0
310
000040C0000040E00000600000006020000060400000606000006080000060A0000060C0000060E00000800000008020000080400000806000008080000080A0000080C0000080E00000A0000000A0200000A0400000A0600000A0800000A0A00000A0C00000A0E00000C0000000C0200000C0400000C0600000C0800000C0
310
A00000C0C00000C0E00000E0000000E0200000E0400000E0600000E0800000E0A00000E0C00000E0E00040000000400020004000400040006000400080004000A0004000C0004000E00040200000402020004020400040206000402080004020A0004020C0004020E000404000004040200040404000404060004040800040
310
40A0004040C0004040E00040600000406020004060400040606000406080004060A0004060C0004060E00040800000408020004080400040806000408080004080A0004080C0004080E00040A0000040A0200040A0400040A0600040A0800040A0A00040A0C00040A0E00040C0000040C0200040C0400040C0600040C08000
310
40C0A00040C0C00040C0E00040E0000040E0200040E0400040E0600040E0800040E0A00040E0C00040E0E00080000000800020008000400080006000800080008000A0008000C0008000E00080200000802020008020400080206000802080008020A0008020C0008020E00080400000804020008040400080406000804080
310
008040A0008040C0008040E00080600000806020008060400080606000806080008060A0008060C0008060E00080800000808020008080400080806000808080008080A0008080C0008080E00080A0000080A0200080A0400080A0600080A0800080A0A00080A0C00080A0E00080C0000080C0200080C0400080C0600080C0
310
800080C0A00080C0C00080C0E00080E0000080E0200080E0400080E0600080E0800080E0A00080E0C00080E0E000C0000000C0002000C0004000C0006000C0008000C000A000C000C000C000E000C0200000C0202000C0204000C0206000C0208000C020A000C020C000C020E000C0400000C0402000C0404000C0406000C0
310
408000C040A000C040C000C040E000C0600000C0602000C0604000C0606000C0608000C060A000C060C000C060E000C0800000C0802000C0804000C0806000C0808000C080A000C080C000C080E000C0A00000C0A02000C0A04000C0A06000C0A08000C0A0A000C0A0C000C0A0E000C0C00000C0C02000C0C04000C0C06000
310
C0C08000C0C0A000F0FBFF00A4A0A000808080000000FF0000FF000000FFFF00FF000000FF00FF00FFFF0000FFFFFF0000000000000000000000000000000000000000000000000000000000000000000000000000000000000000000000000000000000000000000000000000000000000000000000000000000000000000
310
00000000000000000000000000000000000000000000000000000000000000000000000000000000000000000000000000000000000000000000000000000000000000000000000000000000000000000000000000000000000000000000000000000000000000000000000000000000000000000000FEFEFEFEFEFEFEFEFE
310
FEFEFEFEFEFEFEFEFEFEFEFEFE00000000000000000000FE0000000000000000000000000000000000000000FE00000000000000000000FE0000000000000000000000000000000000000000FE00000000000000000000FE0000000000000000000000000000000000000000FE00000000000000000000FE07070707070707
310
07070707070707070707070707FE0000000000000000FEFE00000000000000000000000000000000000000000000FEFE00000000FEFE0707070707070707070707070707070707070707070707070707FEFE0000FE00000000000000000000000000000000000000000000000000000000FE0000FEFEFEFEFEFEFE07000000
310
000000000000000000000007FEFEFEFEFEFEFE000000000000000000070000000000000000000000000000070000000000000000000000000000000007000000000000000000000000000007000000000000000000000000000000000700000000000000000000000000000700000000000000000000000000000000070000
310
00000000000000000000000007000000000000000000000000000000000700000000000000000000000000000700000000000000000000000000000000070000000000000000000000000000070000000000000000000000000000000007000000000000000000000000000007000000000000000000000000000000000700
310
00000000000000000000000000070000000000000000000000000000000007000000000000000000000000000007000000000000000000000000000000000700000000000000000000000000000700000000000000000000000000000000070707070707070707070707070707070000000000000000000000000000000000
310
00000000000000000000000000000000000000000000000000000000000000000000000000000000000000000000000000000000000000000000000000000000000000000000000000000000000000000000000000000000000000000000000000000000000000000000000000000000000000000000000000000000000000
310
0000000000000000000000000000000000000000000000000000000000000000000000000000000000000000000000000000000000000000
102
{BLKREFS
331
BBD9B
102
}
1001
ACAD
1000
DesignCenter Data
1002
{
1070
     1
1070
     4
1002
}
  0
BLOCK_RECORD
  5
8DE7F
330
1
100
AcDbSymbolTableRecord
100
AcDbBlockTableRecord
  2
SA-FLACHSPIDER25
340
0
310
2800000020000000200000000100080000000000000400000000000000000000000000000000000000000000000080000080000000808000800000008000800080800000C0C0C000C0DCC000F0CAA6000020400000206000002080000020A0000020C0000020E00000400000004020000040400000406000004080000040A0
310
000040C0000040E00000600000006020000060400000606000006080000060A0000060C0000060E00000800000008020000080400000806000008080000080A0000080C0000080E00000A0000000A0200000A0400000A0600000A0800000A0A00000A0C00000A0E00000C0000000C0200000C0400000C0600000C0800000C0
310
A00000C0C00000C0E00000E0000000E0200000E0400000E0600000E0800000E0A00000E0C00000E0E00040000000400020004000400040006000400080004000A0004000C0004000E00040200000402020004020400040206000402080004020A0004020C0004020E000404000004040200040404000404060004040800040
310
40A0004040C0004040E00040600000406020004060400040606000406080004060A0004060C0004060E00040800000408020004080400040806000408080004080A0004080C0004080E00040A0000040A0200040A0400040A0600040A0800040A0A00040A0C00040A0E00040C0000040C0200040C0400040C0600040C08000
310
40C0A00040C0C00040C0E00040E0000040E0200040E0400040E0600040E0800040E0A00040E0C00040E0E00080000000800020008000400080006000800080008000A0008000C0008000E00080200000802020008020400080206000802080008020A0008020C0008020E00080400000804020008040400080406000804080
310
008040A0008040C0008040E00080600000806020008060400080606000806080008060A0008060C0008060E00080800000808020008080400080806000808080008080A0008080C0008080E00080A0000080A0200080A0400080A0600080A0800080A0A00080A0C00080A0E00080C0000080C0200080C0400080C0600080C0
310
800080C0A00080C0C00080C0E00080E0000080E0200080E0400080E0600080E0800080E0A00080E0C00080E0E000C0000000C0002000C0004000C0006000C0008000C000A000C000C000C000E000C0200000C0202000C0204000C0206000C0208000C020A000C020C000C020E000C0400000C0402000C0404000C0406000C0
310
408000C040A000C040C000C040E000C0600000C0602000C0604000C0606000C0608000C060A000C060C000C060E000C0800000C0802000C0804000C0806000C0808000C080A000C080C000C080E000C0A00000C0A02000C0A04000C0A06000C0A08000C0A0A000C0A0C000C0A0E000C0C00000C0C02000C0C04000C0C06000
310
C0C08000C0C0A000F0FBFF00A4A0A000808080000000FF0000FF000000FFFF00FF000000FF00FF00FFFF0000FFFFFF000000000000000000000000000000000000000000000000000000000000000000000000000000000000000000FEFEFEFEFEFEFEFE000000000000000000000000000000000000000000000000FE0000
310
00000000FE000000000000000000000000000000000000000000000000FE000000000000FE000000000000000000000000000000000000000000000000FE000000000000FE000000000000000000000000000000000000000000000000FE000000000000FE000000000000000000000000000000000000000000000000FE00
310
0000000000FE000000000000000000000000000000000000000000000000FE000000000000FE000000000000000000000000000000000000000000000000FE000000000000FE000000000000000000000000000000000000000000000000FE000000000000FE000000000000000000000000000000000000000000000000FE
310
000000000000FE000000000000000000000000000000000000000000000000FE000000000000FE000000000000000000000000000000000000000000000000FE000000000000FE000000000000000000000000000000000000000000000000FE000000000000FE000000000000000000000000000000000000000000000000
310
FE000000000000FE000000000000000000000000000000000000000000000000FE000000000000FE000000000000000000000000000000000000000000000000FB000000000000FE000000000000000000000000000000000000000000000000FE000000000000FE0000000000000000000000000000000000000000000000
310
00FE000000000000FE000000000000000000000000000000000000000000000000FE000000000000FE000000000000000000000000000000000000000000000000FE000000000000FE000000000000000000000000000000000000000000000000FE000000000000FE00000000000000000000000000000000000000000000
310
0000FE000000000000FE000000000000000000000000000000000000000000000000FE000000000000FE000000000000000000000000000000000000000000000000FE000000000000FE000000000000000000000000000000000000000000000000FE000000000000FE000000000000000000000000000000000000000000
310
000000FE000000000000FE000000000000000000000000000000000000000000000000FE000000000000FE000000000000000000000000000000000000000000000000FE000000000000FE000000000000000000000000000000000000000000000000FE000000000000FE0000000000000000000000000000000000000000
310
00000000FEFEFEFEFEFEFEFE0000000000000000000000000000000000000000000000000000000000000000000000000000000000000000
102
{BLKREFS
331
BBDA4
102
}
1001
ACAD
1000
DesignCenter Data
1002
{
1070
     1
1070
     4
1002
}
  0
BLOCK_RECORD
  5
B5951
330
1
100
AcDbSymbolTableRecord
100
AcDbBlockTableRecord
  2
SA-FUSSPLATTE 7012
340
0
310
2800000020000000200000000100080000000000000400000000000000000000000000000000000000000000000080000080000000808000800000008000800080800000C0C0C000C0DCC000F0CAA6000020400000206000002080000020A0000020C0000020E00000400000004020000040400000406000004080000040A0
310
000040C0000040E00000600000006020000060400000606000006080000060A0000060C0000060E00000800000008020000080400000806000008080000080A0000080C0000080E00000A0000000A0200000A0400000A0600000A0800000A0A00000A0C00000A0E00000C0000000C0200000C0400000C0600000C0800000C0
310
A00000C0C00000C0E00000E0000000E0200000E0400000E0600000E0800000E0A00000E0C00000E0E00040000000400020004000400040006000400080004000A0004000C0004000E00040200000402020004020400040206000402080004020A0004020C0004020E000404000004040200040404000404060004040800040
310
40A0004040C0004040E00040600000406020004060400040606000406080004060A0004060C0004060E00040800000408020004080400040806000408080004080A0004080C0004080E00040A0000040A0200040A0400040A0600040A0800040A0A00040A0C00040A0E00040C0000040C0200040C0400040C0600040C08000
310
40C0A00040C0C00040C0E00040E0000040E0200040E0400040E0600040E0800040E0A00040E0C00040E0E00080000000800020008000400080006000800080008000A0008000C0008000E00080200000802020008020400080206000802080008020A0008020C0008020E00080400000804020008040400080406000804080
310
008040A0008040C0008040E00080600000806020008060400080606000806080008060A0008060C0008060E00080800000808020008080400080806000808080008080A0008080C0008080E00080A0000080A0200080A0400080A0600080A0800080A0A00080A0C00080A0E00080C0000080C0200080C0400080C0600080C0
310
800080C0A00080C0C00080C0E00080E0000080E0200080E0400080E0600080E0800080E0A00080E0C00080E0E000C0000000C0002000C0004000C0006000C0008000C000A000C000C000C000E000C0200000C0202000C0204000C0206000C0208000C020A000C020C000C020E000C0400000C0402000C0404000C0406000C0
310
408000C040A000C040C000C040E000C0600000C0602000C0604000C0606000C0608000C060A000C060C000C060E000C0800000C0802000C0804000C0806000C0808000C080A000C080C000C080E000C0A00000C0A02000C0A04000C0A06000C0A08000C0A0A000C0A0C000C0A0E000C0C00000C0C02000C0C04000C0C06000
310
C0C08000C0C0A000F0FBFF00A4A0A000808080000000FF0000FF000000FFFF00FF000000FF00FF00FFFF0000FFFFFF0000000000000000000000000000000000000000000000000000000000000000000000000000000000000000000000000000000000000000000000000000000000000000000000000000000000000000
310
00000000000000000000000000000000000000000000000000000000000000000000000000000000000000000000000000000000000000000000000000000000000000000000000000000000000000000000000000000000000000000000000000000000000000000000000000000000000000000000000000000000000000
310
00000000000000000000000000000000000000000000000000000000000000000000000000000000000000000000000000000000000000000000000000000000000000000000000000000000000000000000000000000000000000000000000000000000000000000000000000000000000000000000000000000000000000
310
0000000000000000000000000000000000000000000000000000000000000000000000FB00000000000000000000000000000000000000000000000000000000000000FB00000000000000000000000000000000FEFEFEFEFEFEFEFEFEFEFEFE07FEFEFBFE07FEFEFEFEFEFEFEFEFEFEFEFE0000FE00000000000000000000
310
00070000FB00070000000000000000000000FE0000FE0000000000000000000000070000FB00070000000000000000000000FE0000FE0000000000000000000000070000FB00070000000000000000000000FE0000FE0000000000000000000000070000FB00070000000000000000000000FE0000FEFEFEFEFEFEFEFEFEFE
310
FEFE07FEFEFBFE07FEFEFEFEFEFEFEFEFEFEFEFE0000000000000000000000000000000000FB00000000000000000000000000000000000000000000000000000000000000FB000000000000000000000000000000000000000000000000000000000000000000000000000000000000000000000000000000000000000000
310
00000000000000000000000000000000000000000000000000000000000000000000000000000000000000000000000000000000000000000000000000000000000000000000000000000000000000000000000000000000000000000000000000000000000000000000000000000000000000000000000000000000000000
310
00000000000000000000000000000000000000000000000000000000000000000000000000000000000000000000000000000000000000000000000000000000000000000000000000000000000000000000000000000000000000000000000000000000000000000000000000000000000000000000000000000000000000
310
0000000000000000000000000000000000000000000000000000000000000000000000000000000000000000000000000000000000000000
102
{BLKREFS
331
B5A6E
102
}
1001
ACAD
1000
DesignCenter Data
1002
{
1070
     1
1070
     4
1002
}
  0
BLOCK_RECORD
  5
B5A5A
330
1
100
AcDbSymbolTableRecord
100
AcDbBlockTableRecord
  2
AS-FUSSPLATTE15512
340
0
310
2800000020000000200000000100080000000000000400000000000000000000000000000000000000000000000080000080000000808000800000008000800080800000C0C0C000C0DCC000F0CAA6000020400000206000002080000020A0000020C0000020E00000400000004020000040400000406000004080000040A0
310
000040C0000040E00000600000006020000060400000606000006080000060A0000060C0000060E00000800000008020000080400000806000008080000080A0000080C0000080E00000A0000000A0200000A0400000A0600000A0800000A0A00000A0C00000A0E00000C0000000C0200000C0400000C0600000C0800000C0
310
A00000C0C00000C0E00000E0000000E0200000E0400000E0600000E0800000E0A00000E0C00000E0E00040000000400020004000400040006000400080004000A0004000C0004000E00040200000402020004020400040206000402080004020A0004020C0004020E000404000004040200040404000404060004040800040
310
40A0004040C0004040E00040600000406020004060400040606000406080004060A0004060C0004060E00040800000408020004080400040806000408080004080A0004080C0004080E00040A0000040A0200040A0400040A0600040A0800040A0A00040A0C00040A0E00040C0000040C0200040C0400040C0600040C08000
310
40C0A00040C0C00040C0E00040E0000040E0200040E0400040E0600040E0800040E0A00040E0C00040E0E00080000000800020008000400080006000800080008000A0008000C0008000E00080200000802020008020400080206000802080008020A0008020C0008020E00080400000804020008040400080406000804080
310
008040A0008040C0008040E00080600000806020008060400080606000806080008060A0008060C0008060E00080800000808020008080400080806000808080008080A0008080C0008080E00080A0000080A0200080A0400080A0600080A0800080A0A00080A0C00080A0E00080C0000080C0200080C0400080C0600080C0
310
800080C0A00080C0C00080C0E00080E0000080E0200080E0400080E0600080E0800080E0A00080E0C00080E0E000C0000000C0002000C0004000C0006000C0008000C000A000C000C000C000E000C0200000C0202000C0204000C0206000C0208000C020A000C020C000C020E000C0400000C0402000C0404000C0406000C0
310
408000C040A000C040C000C040E000C0600000C0602000C0604000C0606000C0608000C060A000C060C000C060E000C0800000C0802000C0804000C0806000C0808000C080A000C080C000C080E000C0A00000C0A02000C0A04000C0A06000C0A08000C0A0A000C0A0C000C0A0E000C0C00000C0C02000C0C04000C0C06000
310
C0C08000C0C0A000F0FBFF00A4A0A000808080000000FF0000FF000000FFFF00FF000000FF00FF00FFFF0000FFFFFF0000000000000000000000000000000000000000000000000000000000000000000000000000000000000000000000000000000000000000000000000000000000000000000000000000000000000000
310
00000000000000000000000000000000000000000000000000000000000000000000000000000000000000000000000000000000000000000000000000000000000000000000000000000000000000000000000000000000000000000000000000000000000000000000000000000000000000000000000000000000000000
310
00000000000000000000000000000000000000000000000000000000000000000000000000000000000000000000000000000000000000000000000000000000000000000000000000000000000000000000000000000000000000000000000000000000000000000000000000000000000000000000000000000000000000
310
0000000000000000000000000000000000000000000000000000000000000000000000000000000000000000000000000000000000000000000000000000000000000000000000000000000000000000000000000000000000000000000000000000000000000000000000000000000000000000FEFE07FB07FEFEFEFEFEFE
310
FEFEFEFEFEFEFEFEFEFEFEFEFEFE07FB07FEFE0000FE0007FB07000000000000000000000000000000000000000007FB0700FE0000FE0007FB07000000000000000000000000000000000000000007FB0700FE0000FEFE07FB07FEFEFEFEFEFEFEFEFEFEFEFEFEFEFEFEFEFEFEFE07FB07FEFE000000000000000000000000
310
00000000000000000000000000000000000000000000000000000000000000000000000000000000000000000000000000000000000000000000000000000000000000000000000000000000000000000000000000000000000000000000000000000000000000000000000000000000000000000000000000000000000000
310
00000000000000000000000000000000000000000000000000000000000000000000000000000000000000000000000000000000000000000000000000000000000000000000000000000000000000000000000000000000000000000000000000000000000000000000000000000000000000000000000000000000000000
310
00000000000000000000000000000000000000000000000000000000000000000000000000000000000000000000000000000000000000000000000000000000000000000000000000000000000000000000000000000000000000000000000000000000000000000000000000000000000000000000000000000000000000
310
0000000000000000000000000000000000000000000000000000000000000000000000000000000000000000000000000000000000000000
102
{BLKREFS
331
B5A68
102
}
1001
ACAD
1000
DesignCenter Data
1002
{
1070
     1
1070
     4
1002
}
  0
BLOCK_RECORD
  5
B5A64
102
{ACAD_XDICTIONARY
360
B5A65
102
}
330
1
100
AcDbSymbolTableRecord
100
AcDbBlockTableRecord
  2
S-AS-OOI
340
0
102
{BLKREFS
331
C7D85
102
}
1001
ACAD
1000
DesignCenter Data
1002
{
1070
     1
1070
     4
1002
}
  0
BLOCK_RECORD
  5
B5A6A
102
{ACAD_XDICTIONARY
360
B5A6B
102
}
330
1
100
AcDbSymbolTableRecord
100
AcDbBlockTableRecord
  2
S-SA-OOI
340
0
102
{BLKREFS
331
C7D81
102
}
1001
ACAD
1000
DesignCenter Data
1002
{
1070
     1
1070
     4
1002
}
  0
BLOCK_RECORD
  5
BBD7F
330
1
100
AcDbSymbolTableRecord
100
AcDbBlockTableRecord
  2
AS-PH607
340
0
310
2800000020000000200000000100080000000000000400000000000000000000000000000000000000000000000080000080000000808000800000008000800080800000C0C0C000C0DCC000F0CAA6000020400000206000002080000020A0000020C0000020E00000400000004020000040400000406000004080000040A0
310
000040C0000040E00000600000006020000060400000606000006080000060A0000060C0000060E00000800000008020000080400000806000008080000080A0000080C0000080E00000A0000000A0200000A0400000A0600000A0800000A0A00000A0C00000A0E00000C0000000C0200000C0400000C0600000C0800000C0
310
A00000C0C00000C0E00000E0000000E0200000E0400000E0600000E0800000E0A00000E0C00000E0E00040000000400020004000400040006000400080004000A0004000C0004000E00040200000402020004020400040206000402080004020A0004020C0004020E000404000004040200040404000404060004040800040
310
40A0004040C0004040E00040600000406020004060400040606000406080004060A0004060C0004060E00040800000408020004080400040806000408080004080A0004080C0004080E00040A0000040A0200040A0400040A0600040A0800040A0A00040A0C00040A0E00040C0000040C0200040C0400040C0600040C08000
310
40C0A00040C0C00040C0E00040E0000040E0200040E0400040E0600040E0800040E0A00040E0C00040E0E00080000000800020008000400080006000800080008000A0008000C0008000E00080200000802020008020400080206000802080008020A0008020C0008020E00080400000804020008040400080406000804080
310
008040A0008040C0008040E00080600000806020008060400080606000806080008060A0008060C0008060E00080800000808020008080400080806000808080008080A0008080C0008080E00080A0000080A0200080A0400080A0600080A0800080A0A00080A0C00080A0E00080C0000080C0200080C0400080C0600080C0
310
800080C0A00080C0C00080C0E00080E0000080E0200080E0400080E0600080E0800080E0A00080E0C00080E0E000C0000000C0002000C0004000C0006000C0008000C000A000C000C000C000E000C0200000C0202000C0204000C0206000C0208000C020A000C020C000C020E000C0400000C0402000C0404000C0406000C0
310
408000C040A000C040C000C040E000C0600000C0602000C0604000C0606000C0608000C060A000C060C000C060E000C0800000C0802000C0804000C0806000C0808000C080A000C080C000C080E000C0A00000C0A02000C0A04000C0A06000C0A08000C0A0A000C0A0C000C0A0E000C0C00000C0C02000C0C04000C0C06000
310
C0C08000C0C0A000F0FBFF00A4A0A000808080000000FF0000FF000000FFFF00FF000000FF00FF00FFFF0000FFFFFF00000000000000000000000000000000000000000000000000000000000000000000000000000000000000000000000000FB000000000000000000000000000000000000000000000000000000000000
310
00FB00000000000000000000000000000000000000000000000000000000000000FB00000000000000000000000000000000000000000000000000000000000000FB0000000000000000000000000000000000000000000000000000000000FEFEFB000000000000000000000000000000000000000000000000000000FEFE
310
0707FB0707FEFE000000000000000000000000000000000000000000FE0707070000FB00000700FE0000000000000000000000000000000000000007070000000000FB0000000707FEFE000000000000000000000000000000FEFE07000000000000FB00000000000700FE0000000000000000000000000000FE0700000000
310
FEFEFEFBFEFE0000000007FE00000000000000000000000000FE0700000000FEFEFE00FB0000FEFE00000007FE000000000000000000000000FE07000000FEFEFEFE00FB000000FE00000007FE000000000000000000000000FE070000FE0000FEFE00FB00000000FE00000007FE0000000000000000000000FE070000FE00
310
00000000FB0000FEFEFE00000007FE000000000000FBFBFBFBFBFBFBFBFBFEFBFBFBFBFBFB0000FEFEFE00000007FE00000000000000000000FE07000000FE00000000FBFBFBFBFEFEFEFBFBFBFBFBFBFBFBFB00000000000000FE070000FE00000000FB000000FEFEFE00000007FE0000000000000000000000FE070000FE
310
0000FEFEFB0000000000FE00000007FE0000000000000000000000FE07000000FEFEFEFEFB00000000FE00000007FE000000000000000000000000FE0700000000FEFEFEFB000000FEFE00000007FE00000000000000000000000000FE0700000000FEFEFBFEFEFE0000000007FE0000000000000000000000000000FE0007
310
0000000000FB0000000000000700FE000000000000000000000000000000FE070000000000FB00000000000700FE0000000000000000000000000000000000000707070000FB0000000707FEFE0000000000000000000000000000000000000000FEFE0707FB070707FEFE0000000000000000000000000000000000000000
310
00000000FEFEFBFEFE0000000000000000000000000000000000000000000000000000000000FB00000000000000000000000000000000000000000000000000000000000000FB00000000000000000000000000000000000000000000000000000000000000FB000000000000000000000000000000000000000000000000
310
00000000000000FB000000000000000000000000000000000000000000000000000000000000000000000000000000000000000000000000
102
{BLKREFS
331
C7D2C
331
C7D2D
331
C7D37
331
C7D38
331
CCB58
102
}
1001
ACAD
1000
DesignCenter Data
1002
{
1070
     1
1070
     4
1002
}
  0
BLOCK_RECORD
  5
BBD90
330
1
100
AcDbSymbolTableRecord
100
AcDbBlockTableRecord
  2
SA-ZYLINDERSCH2516
340
0
310
2800000020000000200000000100080000000000000400000000000000000000000000000000000000000000000080000080000000808000800000008000800080800000C0C0C000C0DCC000F0CAA6000020400000206000002080000020A0000020C0000020E00000400000004020000040400000406000004080000040A0
310
000040C0000040E00000600000006020000060400000606000006080000060A0000060C0000060E00000800000008020000080400000806000008080000080A0000080C0000080E00000A0000000A0200000A0400000A0600000A0800000A0A00000A0C00000A0E00000C0000000C0200000C0400000C0600000C0800000C0
310
A00000C0C00000C0E00000E0000000E0200000E0400000E0600000E0800000E0A00000E0C00000E0E00040000000400020004000400040006000400080004000A0004000C0004000E00040200000402020004020400040206000402080004020A0004020C0004020E000404000004040200040404000404060004040800040
310
40A0004040C0004040E00040600000406020004060400040606000406080004060A0004060C0004060E00040800000408020004080400040806000408080004080A0004080C0004080E00040A0000040A0200040A0400040A0600040A0800040A0A00040A0C00040A0E00040C0000040C0200040C0400040C0600040C08000
310
40C0A00040C0C00040C0E00040E0000040E0200040E0400040E0600040E0800040E0A00040E0C00040E0E00080000000800020008000400080006000800080008000A0008000C0008000E00080200000802020008020400080206000802080008020A0008020C0008020E00080400000804020008040400080406000804080
310
008040A0008040C0008040E00080600000806020008060400080606000806080008060A0008060C0008060E00080800000808020008080400080806000808080008080A0008080C0008080E00080A0000080A0200080A0400080A0600080A0800080A0A00080A0C00080A0E00080C0000080C0200080C0400080C0600080C0
310
800080C0A00080C0C00080C0E00080E0000080E0200080E0400080E0600080E0800080E0A00080E0C00080E0E000C0000000C0002000C0004000C0006000C0008000C000A000C000C000C000E000C0200000C0202000C0204000C0206000C0208000C020A000C020C000C020E000C0400000C0402000C0404000C0406000C0
310
408000C040A000C040C000C040E000C0600000C0602000C0604000C0606000C0608000C060A000C060C000C060E000C0800000C0802000C0804000C0806000C0808000C080A000C080C000C080E000C0A00000C0A02000C0A04000C0A06000C0A08000C0A0A000C0A0C000C0A0E000C0C00000C0C02000C0C04000C0C06000
310
C0C08000C0C0A000F0FBFF00A4A0A000808080000000FF0000FF000000FFFF00FF000000FF00FF00FFFF0000FFFFFF0000000000000000000000000000000000000000000000000000000000000000000000000000000000000000000000000000000000000000000000000000000000000000000000000000000000000000
310
00000000000000000000000000000000000000000000000000000000000000000000000000000000000000000000000000000000000000000000000000000000000000000000000000000000000000000000000000000000000000000000000000000000000000000000000000000000000000000000FEFEFEFEFE07FEFEFE
310
07FEFEFEFEFEFEFEFEFEFEFEFE0000000000000000FEFE00000000000700000007000000000000070000000700FEFE0000000000FE0000000000000007000000070000000000000700000007000000FE000000FEFE0000000000000007000000070000000000000700000007000000FEFE0000FE0000000000000000070000
310
0007000000000000070000000700000000FE0000FE00000000000000000707070707000000000000070707070700000000FE0000FE00000000000000000007070700000000000000000707070000000000FE0000FE00000000000000000000000000000000000000000000000000000000FE0000FE00000000000000000000
310
000000000000000000000000000000000000FE0000FE00000000000000000000000000000000000000000000000000000000FE0000FE00000000000000000000000000000000000000000000000000000000FE0000FE00000000000000000000000000000000000000000000000000000000FE0000FE000000000000000000
310
00000000000000000000000000000000000000FE0000FE00000000000000000000000000000000000000000000000000000000FE0000FE00000000000000000000000000000000000000000000000000000000FE0000FE00000000000000000000000000000000000000000000000000000000FE0000FE0000000000000000
310
0000000000000000000000000000000000000000FE0000FE00000000000000000000000000000000000000000000000000000000FE0000FE00000000000000000000000000000000000000000000000000000000FE0000FEFEFEFEFEFEFEFEFEFEFEFEFEFEFEFEFEFEFEFEFEFEFEFEFEFEFEFEFEFE00000000000000000000
310
00000000000000000000000000000000000000000000000000000000000000000000000000000000000000000000000000000000000000000000000000000000000000000000000000000000000000000000000000000000000000000000000000000000000000000000000000000000000000000000000000000000000000
310
0000000000000000000000000000000000000000000000000000000000000000000000000000000000000000000000000000000000000000
102
{BLKREFS
331
BBD9E
102
}
1001
ACAD
1000
DesignCenter Data
1002
{
1070
     1
1070
     4
1002
}
  0
BLOCK_RECORD
  5
BBD98
330
1
100
AcDbSymbolTableRecord
100
AcDbBlockTableRecord
  2
SA-607
340
0
310
2800000020000000200000000100080000000000000400000000000000000000000000000000000000000000000080000080000000808000800000008000800080800000C0C0C000C0DCC000F0CAA6000020400000206000002080000020A0000020C0000020E00000400000004020000040400000406000004080000040A0
310
000040C0000040E00000600000006020000060400000606000006080000060A0000060C0000060E00000800000008020000080400000806000008080000080A0000080C0000080E00000A0000000A0200000A0400000A0600000A0800000A0A00000A0C00000A0E00000C0000000C0200000C0400000C0600000C0800000C0
310
A00000C0C00000C0E00000E0000000E0200000E0400000E0600000E0800000E0A00000E0C00000E0E00040000000400020004000400040006000400080004000A0004000C0004000E00040200000402020004020400040206000402080004020A0004020C0004020E000404000004040200040404000404060004040800040
310
40A0004040C0004040E00040600000406020004060400040606000406080004060A0004060C0004060E00040800000408020004080400040806000408080004080A0004080C0004080E00040A0000040A0200040A0400040A0600040A0800040A0A00040A0C00040A0E00040C0000040C0200040C0400040C0600040C08000
310
40C0A00040C0C00040C0E00040E0000040E0200040E0400040E0600040E0800040E0A00040E0C00040E0E00080000000800020008000400080006000800080008000A0008000C0008000E00080200000802020008020400080206000802080008020A0008020C0008020E00080400000804020008040400080406000804080
310
008040A0008040C0008040E00080600000806020008060400080606000806080008060A0008060C0008060E00080800000808020008080400080806000808080008080A0008080C0008080E00080A0000080A0200080A0400080A0600080A0800080A0A00080A0C00080A0E00080C0000080C0200080C0400080C0600080C0
310
800080C0A00080C0C00080C0E00080E0000080E0200080E0400080E0600080E0800080E0A00080E0C00080E0E000C0000000C0002000C0004000C0006000C0008000C000A000C000C000C000E000C0200000C0202000C0204000C0206000C0208000C020A000C020C000C020E000C0400000C0402000C0404000C0406000C0
310
408000C040A000C040C000C040E000C0600000C0602000C0604000C0606000C0608000C060A000C060C000C060E000C0800000C0802000C0804000C0806000C0808000C080A000C080C000C080E000C0A00000C0A02000C0A04000C0A06000C0A08000C0A0A000C0A0C000C0A0E000C0C00000C0C02000C0C04000C0C06000
310
C0C08000C0C0A000F0FBFF00A4A0A000808080000000FF0000FF000000FFFF00FF000000FF00FF00FFFF0000FFFFFF000000000000000000000000000000000000000000000000000000000000000000000000000000000000000000000000FB00000000000000000000000000000000000000000000000000000000000000
310
FB00000000000000000000000000000000000000000000000000000000000000FB00000000000000000000000000000000000000000000000000000000000000FB000000000000000000000000000000000000000000000000000000FEFE07FE07FEFEFEFEFE00000000000000000000000000000000000000000000FE0007
310
000700000707FE00000000000000000000000000000000000000000000FE0007070700000707FE00000000000000000000000000000000000000000000FE000000FB00000000FE00000000000000000000000000000000000000000000FE000000FB00000000FE00000000000000000000000000000000000000000000FE00
310
0000FB00000000FE00000000000000000000000000000000000000000000FEFEFEFEFEFEFEFEFEFE0000000000000000000000000000000000000000000000000000FB00000000000000000000000000000000000000000000000000000000000000FB000000000000000000000000000000000000000000000000000000FE
310
FEFEFEFEFEFEFEFEFE000000000000000000000000000000000000000000FEFE000000FB00000000FEFE0000000000000000000000000000000000000000FE07070707070707070707FE00000000000000000000000000000000000000FE070707070707070707070707FE0000000000000000000000000000000000000707
310
0707070707070707070707070000000000000000000000000000000000000000000700070707070007000000000000000000000000000000000000000000000000070007FB00070007000000000000000000000000000000000000000000000000070007FB0007000700000000000000000000000000000000000000000000
310
0000070007FB000700070000000000000000000000000000000000000000000000000707070707070707000000000000000000000000000000000000000000FAFAFAFAFAFAFAFAFAFAFAFAFAFA000000000000000000000000000000000000FE000000000707000007070000FE000000000000000000000000000000000000
310
FEFEFEFEFE0707FEFE0707FEFEFE000000000000000000000000000000000000000000000000FB00000000000000000000000000000000000000000000000000000000000000FB00000000000000000000000000000000000000000000000000000000000000FB000000000000000000000000000000000000000000000000
310
00000000000000FB000000000000000000000000000000000000000000000000000000000000000000000000000000000000000000000000
102
{BLKREFS
331
BBDA3
102
}
1001
ACAD
1000
DesignCenter Data
1002
{
1070
     1
1070
     4
1002
}
  0
BLOCK_RECORD
  5
BBDA1
330
1
100
AcDbSymbolTableRecord
100
AcDbBlockTableRecord
  2
SA-FS25
340
0
102
{BLKREFS
331
C7D23
331
C7D31
102
}
1001
ACAD
1000
DesignCenter Data
1002
{
1070
     1
1070
     4
1002
}
  0
BLOCK_RECORD
  5
C7D9E
330
1
100
AcDbSymbolTableRecord
100
AcDbBlockTableRecord
  2
*D15
340
0
  0
BLOCK_RECORD
  5
C7E08
330
1
100
AcDbSymbolTableRecord
100
AcDbBlockTableRecord
  2
*D16
340
0
  0
BLOCK_RECORD
  5
CAFAD
330
1
100
AcDbSymbolTableRecord
100
AcDbBlockTableRecord
  2
*D23
340
0
  0
BLOCK_RECORD
  5
CC53D
330
1
100
AcDbSymbolTableRecord
100
AcDbBlockTableRecord
  2
*D35
340
0
  0
BLOCK_RECORD
  5
CC54A
330
1
100
AcDbSymbolTableRecord
100
AcDbBlockTableRecord
  2
*D36
340
0
  0
BLOCK_RECORD
  5
CC557
330
1
100
AcDbSymbolTableRecord
100
AcDbBlockTableRecord
  2
*D37
340
0
  0
BLOCK_RECORD
  5
CC62F
330
1
100
AcDbSymbolTableRecord
100
AcDbBlockTableRecord
  2
*D47
340
0
  0
BLOCK_RECORD
  5
CC63C
330
1
100
AcDbSymbolTableRecord
100
AcDbBlockTableRecord
  2
*D48
340
0
  0
BLOCK_RECORD
  5
CC795
330
1
100
AcDbSymbolTableRecord
100
AcDbBlockTableRecord
  2
*D59
340
0
  0
BLOCK_RECORD
  5
CC8F5
330
1
100
AcDbSymbolTableRecord
100
AcDbBlockTableRecord
  2
*D65
340
0
  0
BLOCK_RECORD
  5
CC901
330
1
100
AcDbSymbolTableRecord
100
AcDbBlockTableRecord
  2
*D66
340
0
  0
BLOCK_RECORD
  5
CC92A
330
1
100
AcDbSymbolTableRecord
100
AcDbBlockTableRecord
  2
*D67
340
0
  0
BLOCK_RECORD
  5
CC97F
330
1
100
AcDbSymbolTableRecord
100
AcDbBlockTableRecord
  2
*D73
340
0
  0
BLOCK_RECORD
  5
CC9CD
330
1
100
AcDbSymbolTableRecord
100
AcDbBlockTableRecord
  2
*D76
340
0
  0
BLOCK_RECORD
  5
CCD0D
330
1
100
AcDbSymbolTableRecord
100
AcDbBlockTableRecord
  2
*D84
340
0
  0
BLOCK_RECORD
  5
CCF36
330
1
100
AcDbSymbolTableRecord
100
AcDbBlockTableRecord
  2
*D90
340
0
  0
BLOCK_RECORD
  5
CCF4C
330
1
100
AcDbSymbolTableRecord
100
AcDbBlockTableRecord
  2
*D91
340
0
  0
ENDTAB
  0
ENDSEC
  0
SECTION
  2
BLOCKS
  0
BLOCK
  5
3
330
2
100
AcDbEntity
  8
0
100
AcDbBlockBegin
  2
*MODEL_SPACE
 70
     0
 10
0.0
 20
0.0
 30
0.0
  3
*MODEL_SPACE
  1

  0
ENDBLK
  5
3A
330
2
100
AcDbEntity
  8
0
100
AcDbBlockEnd
  0
BLOCK
  5
3E
330
3D
100
AcDbEntity
 67
     1
  8
0
100
AcDbBlockBegin
  2
*PAPER_SPACE
 70
     0
 10
0.0
 20
0.0
 30
0.0
  3
*PAPER_SPACE
  1

  0
ENDBLK
  5
3F
330
3D
100
AcDbEntity
 67
     1
  8
0
100
AcDbBlockEnd
  0
BLOCK
  5
8DE5D
330
8DE5C
100
AcDbEntity
  8
0
100
AcDbBlockBegin
  2
SA-DICHTUNG
 70
     0
 10
0.0
 20
0.0
 30
0.0
  3
SA-DICHTUNG
  1

  0
HATCH
  5
8DE5E
330
8DE5C
100
AcDbEntity
  8
-SCHRAFFUR
100
AcDbHatch
 10
0.0
 20
0.0
 30
0.0
210
0.0
220
0.0
230
1.0
  2
SOLID
 70
     1
 71
     1
 91
        1
 92
        1
 93
        4
 72
     1
 10
-16.99999999999839
 20
0.0
 11
17.00000000000161
 21
0.0
 72
     1
 10
17.00000000000161
 20
0.0
 11
17.00000000000161
 21
2.0
 72
     1
 10
17.00000000000161
 20
2.0
 11
-16.99999999999839
 21
2.0
 72
     1
 10
-16.99999999999839
 20
2.0
 11
-16.99999999999839
 21
0.0
 97
        1
330
8DE5F
 75
     0
 76
     1
 98
        1
 10
-0.0000000000225785
 20
-147.7532823305593
450
        0
451
        0
460
0.0
461
0.0
452
        0
462
0.0
453
        0
470

  0
LWPOLYLINE
  5
8DE5F
102
{ACAD_REACTORS
330
8DE5E
102
}
330
8DE5C
100
AcDbEntity
  8
-DICHTUNG
100
AcDbPolyline
 90
        4
 70
     1
 43
0.0
 10
-16.99999999999839
 20
0.0
 10
17.00000000000161
 20
0.0
 10
17.00000000000161
 20
2.0
 10
-16.99999999999839
 20
2.0
  0
LWPOLYLINE
  5
8DE60
330
8DE5C
100
AcDbEntity
  8
-DICHTUNG
100
AcDbPolyline
 90
        4
 70
     1
 43
0.0
 10
-4.999999999998391
 20
2.0
 10
-6.499999999998391
 20
2.0
 10
-6.499999999998391
 20
2.0
 10
-4.999999999998391
 20
2.0
  0
ENDBLK
  5
8DE61
330
8DE5C
100
AcDbEntity
  8
0
100
AcDbBlockEnd
  0
BLOCK
  5
8DE63
330
8DE62
100
AcDbEntity
  8
0
 62
     2
100
AcDbBlockBegin
  2
SA-HALTESCHEIBE35
 70
     0
 10
0.0
 20
0.0
 30
0.0
  3
SA-HALTESCHEIBE35
  1

  0
LWPOLYLINE
  5
8DE64
330
8DE62
100
AcDbEntity
  8
-PROFILAUSSENKANTET
100
AcDbPolyline
 90
       11
 70
     0
 43
0.0
 10
17.50000000000136
 20
0.0
 10
17.50000000000136
 20
1.305745823232882
 42
0.3759019639771881
 10
15.76432744018348
 20
3.288201624598059
 10
10.32895372440271
 20
4.956139503413396
 42
0.033150018187446
 10
9.668135123947649
 20
5.0
 10
-9.586187348507337
 20
5.0
 42
0.0413106451481675
 10
-10.40818228503394
 20
4.931969619160781
 10
-15.82879797460918
 20
3.278533670898241
 42
0.3666293647015966
 10
-17.49999999999863
 20
1.305745823234019
 10
-17.49999999999863
 20
0.0
 10
17.50000000000136
 20
0.0
  0
LINE
  5
8DE65
330
8DE62
100
AcDbEntity
  8
-NORMTEIL_VERDECKT
100
AcDbLine
 10
5.745843326313661
 20
1.0
 30
0.0
 11
8.745843326313661
 21
1.0
 31
0.0
  0
LWPOLYLINE
  5
8DE66
330
8DE62
100
AcDbEntity
  8
-NORMTEIL_VERDECKT
100
AcDbPolyline
 90
        5
 70
     0
 43
0.0
 10
5.745843326313661
 20
5.0
 10
5.745843326313661
 20
1.0
 10
7.245843326313661
 20
0.0
 10
8.745843326313661
 20
1.0
 10
8.745843326313661
 20
5.0
  0
LWPOLYLINE
  5
8DE67
330
8DE62
100
AcDbEntity
  8
-NORMTEIL_VERDECKT
100
AcDbPolyline
 90
        5
 70
     0
 43
0.0
 10
-4.754156673685884
 20
5.0
 10
-4.754156673685884
 20
1.0
 10
-3.254156673685884
 20
0.0
 10
-1.754156673685884
 20
1.0
 10
-1.754156673685884
 20
5.000000000000909
  0
LINE
  5
8DE68
330
8DE62
100
AcDbEntity
  8
-NORMTEIL_VERDECKT
100
AcDbLine
 10
3.540000000001327
 20
-1.388008714659008
 30
0.0
 11
3.540000000001327
 21
-13.75999999999999
 31
0.0
  0
LWPOLYLINE
  5
8DE69
330
8DE62
100
AcDbEntity
  8
-NORMTEIL_VERDECKT
100
AcDbPolyline
 90
       12
 70
     0
 43
0.0
 10
-3.539999999998599
 20
0.0
 10
-3.539999999998599
 20
-1.388008714659008
 42
-0.2679491924311216
 10
-3.839999999998326
 20
-1.907623956929683
 10
-3.999999999998635
 20
-2.0
 10
-3.999999999998635
 20
-13.29999999999995
 10
-3.539999999998599
 20
-13.75999999999999
 10
3.540000000001327
 20
-13.75999999999999
 10
4.000000000001364
 20
-13.29999999999995
 10
4.000000000001364
 20
-2.0
 10
3.840000000001509
 20
-1.907623956929683
 42
-0.2679491924311217
 10
3.540000000001327
 20
-1.388008714659008
 10
3.540000000001327
 20
0.0
  0
LINE
  5
8DE6A
330
8DE62
100
AcDbEntity
  8
-NORMTEIL_VERDECKT
100
AcDbLine
 10
-2.999999999998635
 20
-13.29999999999995
 30
0.0
 11
4.000000000001364
 21
-13.29999999999995
 31
0.0
  0
LINE
  5
8DE6B
330
8DE62
100
AcDbEntity
  8
-NORMTEIL_VERDECKT
100
AcDbLine
 10
-3.539999999998599
 20
-1.388008714659008
 30
0.0
 11
-3.539999999998599
 21
-13.75999999999999
 31
0.0
  0
LINE
  5
8DE6C
330
8DE62
100
AcDbEntity
  8
-NORMTEIL_VERDECKT
100
AcDbLine
 10
-4.754156673685884
 20
1.0
 30
0.0
 11
-1.754156673685884
 21
1.0
 31
0.0
  0
ENDBLK
  5
8DE6D
330
8DE62
100
AcDbEntity
  8
0
 62
     2
100
AcDbBlockEnd
  0
BLOCK
  5
8DE6F
330
8DE6E
100
AcDbEntity
  8
0
100
AcDbBlockBegin
  2
SA-SCHAFT607
 70
     0
 10
0.0
 20
0.0
 30
0.0
  3
SA-SCHAFT607
  1

  0
LINE
  5
8DE70
330
8DE6E
100
AcDbEntity
  8
-SCHRAFFUR
100
AcDbLine
 10
-17.43509995337535
 20
7.536745781992749
 30
0.0
 11
17.43491725726062
 21
7.526842544013334
 31
0.0
  0
LINE
  5
8DE71
330
8DE6E
100
AcDbEntity
  8
-SCHRAFFUR
100
AcDbLine
 10
-12.98550424457107
 20
4.791302546743509
 30
0.0
 11
12.98677583470862
 21
4.791085095070684
 31
0.0
  0
LWPOLYLINE
  5
8DE72
330
8DE6E
100
AcDbEntity
  8
-PROFILAUSSENKANTET
100
AcDbPolyline
 90
       15
 70
     0
 43
0.0
 10
8.950000000001637
 20
10.0
 10
17.50000000000136
 20
10.0
 10
17.50000000000136
 20
7.773514348924891
 42
-0.2638434610084327
 10
17.25661208264773
 20
7.344387049583701
 10
12.98677583470862
 20
4.791085095070684
 42
0.2638434610084382
 10
12.50000000000136
 20
3.932830496388305
 10
12.50000000000136
 20
0.5
 42
-0.4142135623730951
 10
12.00000000000136
 20
0.0
 10
-11.99999999999863
 20
0.0
 42
-0.4142135623730956
 10
-12.49999999999863
 20
0.5
 10
-12.49999999999863
 20
3.933809621030832
 42
0.2634471391023007
 10
-12.98550424457107
 20
4.791302546743509
 10
-17.25724787771241
 20
7.354348726628359
 42
-0.2634471391022999
 10
-17.49999999999863
 20
7.783095189484583
 10
-17.49999999999863
 20
10.0
  0
LWPOLYLINE
  5
8DE73
330
8DE6E
100
AcDbEntity
  8
-PROFILAUSSENKANTET
100
AcDbPolyline
 90
        2
 70
     0
 43
0.0
 10
-17.49999999999863
 20
10.0
 10
-8.949999999998453
 20
10.0
  0
LWPOLYLINE
  5
8DE74
330
8DE6E
100
AcDbEntity
  8
-NORMTEIL_VERDECKT
100
AcDbPolyline
 90
        4
 70
     0
 43
0.0
 10
-8.949999999998453
 20
10.0
 10
-8.949999999998453
 20
23.0
 10
8.950000000001637
 20
23.0
 10
8.950000000001637
 20
10.0
  0
ENDBLK
  5
8DE75
330
8DE6E
100
AcDbEntity
  8
0
100
AcDbBlockEnd
  0
BLOCK
  5
8DE80
330
8DE7F
100
AcDbEntity
  8
0
100
AcDbBlockBegin
  2
SA-FLACHSPIDER25
 70
     0
 10
0.0
 20
0.0
 30
0.0
  3
SA-FLACHSPIDER25
  1

  0
LWPOLYLINE
  5
8DE81
330
8DE7F
100
AcDbEntity
  8
-PROFILAUSSENKANTET
100
AcDbPolyline
 90
        4
 70
     1
 43
0.0
 10
-6.0
 20
12.5
 10
-5.999999999999971
 20
-12.50000000000003
 10
0.0000000000000284
 20
-12.50000000000003
 10
0.0
 20
12.5
  0
POINT
  5
8DE82
330
8DE7F
100
AcDbEntity
  8
-SYSTEM
100
AcDbPoint
 10
-6.0
 20
-0.0000000000000008
 30
0.0
  0
ENDBLK
  5
8DE83
330
8DE7F
100
AcDbEntity
  8
0
100
AcDbBlockEnd
  0
BLOCK
  5
B5952
330
B5951
100
AcDbEntity
  8
0
 62
     2
100
AcDbBlockBegin
  2
SA-FUSSPLATTE 7012
 70
     0
 10
0.0
 20
0.0
 30
0.0
  3
SA-FUSSPLATTE 7012
  1

  0
LWPOLYLINE
  5
B5953
330
B5951
100
AcDbEntity
  8
-PROFILAUSSENKANTE
  6
Continuous
 62
     4
100
AcDbPolyline
 90
        4
 70
     1
 43
0.0
 10
-35.0
 20
0.0
 10
35.0
 20
0.0
 10
35.0
 20
12.0
 10
-35.0
 20
12.0
  0
LINE
  5
B5954
330
B5951
100
AcDbEntity
  8
-NORMTEIL_VERDECKT
  6
STRICHLINIEX2
 62
     9
100
AcDbLine
 10
7.0
 20
12.0
 30
0.0
 11
7.0
 21
0.0
 31
0.0
  0
LINE
  5
B5955
330
B5951
100
AcDbEntity
  8
-NORMTEIL_VERDECKT
  6
STRICHLINIEX2
 62
     9
100
AcDbLine
 10
-7.0
 20
12.0
 30
0.0
 11
-7.0
 21
0.0
 31
0.0
  0
LINE
  5
B5956
330
B5951
100
AcDbEntity
  8
-SYSTEM
 62
     2
100
AcDbLine
 10
0.0
 20
16.7328629537061
 30
0.0
 11
0.0
 21
-4.732862953706103
 31
0.0
  0
ENDBLK
  5
B5957
330
B5951
100
AcDbEntity
  8
0
 62
     2
100
AcDbBlockEnd
  0
BLOCK
  5
B5A5B
330
B5A5A
100
AcDbEntity
  8
0
 62
     2
100
AcDbBlockBegin
  2
AS-FUSSPLATTE15512
 70
     0
 10
0.0
 20
0.0
 30
0.0
  3
AS-FUSSPLATTE15512
  1

  0
LWPOLYLINE
  5
B5A5C
330
B5A5A
100
AcDbEntity
  8
-PROFILAUSSENKANTE
  6
Continuous
 62
     4
100
AcDbPolyline
 90
        4
 70
     1
 43
0.0
 10
-77.5
 20
0.0
 10
77.5
 20
0.0
 10
77.5
 20
12.0
 10
-77.5
 20
12.0
  0
LINE
  5
B5A5D
330
B5A5A
100
AcDbEntity
  8
-NORMTEIL_VERDECKT
  6
STRICHLINIEX2
 62
     9
100
AcDbLine
 10
-55.5
 20
12.0
 30
0.0
 11
-55.5
 21
0.0
 31
0.0
  0
LINE
  5
B5A5E
330
B5A5A
100
AcDbEntity
  8
-NORMTEIL_VERDECKT
  6
STRICHLINIEX2
 62
     9
100
AcDbLine
 10
-69.5
 20
12.0
 30
0.0
 11
-69.5
 21
0.0
 31
0.0
  0
LINE
  5
B5A5F
330
B5A5A
100
AcDbEntity
  8
-SYSTEM
 62
     2
100
AcDbLine
 10
-62.5
 20
16.7328629537061
 30
0.0
 11
-62.5
 21
-4.732862953706103
 31
0.0
  0
LINE
  5
B5A60
330
B5A5A
100
AcDbEntity
  8
-NORMTEIL_VERDECKT
  6
STRICHLINIEX2
 62
     9
100
AcDbLine
 10
55.5
 20
12.0
 30
0.0
 11
55.5
 21
0.0
 31
0.0
  0
LINE
  5
B5A61
330
B5A5A
100
AcDbEntity
  8
-NORMTEIL_VERDECKT
  6
STRICHLINIEX2
 62
     9
100
AcDbLine
 10
69.5
 20
12.0
 30
0.0
 11
69.5
 21
0.0
 31
0.0
  0
LINE
  5
B5A62
330
B5A5A
100
AcDbEntity
  8
-SYSTEM
 62
     2
100
AcDbLine
 10
62.5
 20
16.7328629537061
 30
0.0
 11
62.5
 21
-4.732862953706103
 31
0.0
  0
ENDBLK
  5
B5A63
330
B5A5A
100
AcDbEntity
  8
0
 62
     2
100
AcDbBlockEnd
  0
BLOCK
  5
B5A67
330
B5A64
100
AcDbEntity
  8
0
100
AcDbBlockBegin
  2
S-AS-OOI
 70
     0
 10
0.0
 20
0.0
 30
0.0
  3
S-AS-OOI
  1

  0
INSERT
  5
B5A68
330
B5A64
100
AcDbEntity
  8
-SYSTEM
  6
ByBlock
 62
     2
100
AcDbBlockReference
  2
AS-FUSSPLATTE15512
 10
0.0
 20
0.0
 30
0.0
  0
ENDBLK
  5
B5A69
330
B5A64
100
AcDbEntity
  8
0
100
AcDbBlockEnd
  0
BLOCK
  5
B5A6D
330
B5A6A
100
AcDbEntity
  8
0
100
AcDbBlockBegin
  2
S-SA-OOI
 70
     0
 10
0.0
 20
0.0
 30
0.0
  3
S-SA-OOI
  1

  0
INSERT
  5
B5A6E
330
B5A6A
100
AcDbEntity
  8
-SYSTEM
  6
ByBlock
 62
     2
100
AcDbBlockReference
  2
SA-FUSSPLATTE 7012
 10
0.0
 20
0.0
 30
0.0
  0
ENDBLK
  5
B5A6F
330
B5A6A
100
AcDbEntity
  8
0
100
AcDbBlockEnd
  0
BLOCK
  5
BBD80
330
BBD7F
100
AcDbEntity
  8
0
 62
     2
100
AcDbBlockBegin
  2
AS-PH607
 70
     0
 10
0.0
 20
0.0
 30
0.0
  3
AS-PH607
  1

  0
CIRCLE
  5
BBD81
330
BBD7F
100
AcDbEntity
  8
-PROFILAUSSENKANTET
100
AcDbCircle
 10
0.0
 20
0.0000000000000142
 30
0.0
 40
17.5
  0
CIRCLE
  5
BBD82
330
BBD7F
100
AcDbEntity
  8
-SCHRAFFUR
100
AcDbCircle
 10
0.0
 20
0.0000000000000142
 30
0.0
 40
15.82879797458653
  0
LINE
  5
BBD83
330
BBD7F
100
AcDbEntity
  8
-SYSTEM
100
AcDbLine
 10
23.99725072776114
 20
0.0000000000001137
 30
0.0
 11
-23.99725072776113
 21
-0.0000000000001137
 31
0.0
  0
CIRCLE
  5
BBD84
330
BBD7F
100
AcDbEntity
  8
-PROFILAUSSENKANTET
100
AcDbCircle
 10
0.0000000000000142
 20
0.0
 30
0.0
 40
10.0
  0
CIRCLE
  5
BBD85
330
BBD7F
100
AcDbEntity
  8
-PROFILAUSSENKANTET
100
AcDbCircle
 10
7.0
 20
0.0000000000000426
 30
0.0
 40
1.75
  0
CIRCLE
  5
BBD86
330
BBD7F
100
AcDbEntity
  8
-PROFILAUSSENKANTET
100
AcDbCircle
 10
-3.500000000000014
 20
6.06217782649108
 30
0.0
 40
1.75
  0
CIRCLE
  5
BBD87
330
BBD7F
100
AcDbEntity
  8
-PROFILAUSSENKANTET
100
AcDbCircle
 10
-3.499999999999971
 20
-6.062177826491051
 30
0.0
 40
1.75
  0
LINE
  5
BBD88
330
BBD7F
100
AcDbEntity
  8
-SYSTEM
100
AcDbLine
 10
-0.0000000000001137
 20
23.99725072776114
 30
0.0
 11
0.0000000000001137
 21
-23.99725072776111
 31
0.0
  0
ENDBLK
  5
BBD89
330
BBD7F
100
AcDbEntity
  8
0
 62
     2
100
AcDbBlockEnd
  0
BLOCK
  5
BBD91
330
BBD90
100
AcDbEntity
  8
0
100
AcDbBlockBegin
  2
SA-ZYLINDERSCH2516
 70
     0
 10
0.0
 20
0.0
 30
0.0
  3
SA-ZYLINDERSCH2516
  1

  0
LINE
  5
BBD92
330
BBD90
100
AcDbEntity
  8
-NORMTEIL_VERDECKT
100
AcDbLine
 10
5.249999999999966
 20
-11.99999999999954
 30
0.0
 11
8.749999999999966
 21
-11.99999999999954
 31
0.0
  0
LWPOLYLINE
  5
BBD93
330
BBD90
100
AcDbEntity
  8
-NORMTEIL_VERDECKT
100
AcDbPolyline
 90
        5
 70
     0
 43
0.0
 10
5.249999999999966
 20
-15.99999999999954
 10
5.249999999999966
 20
-11.99999999999954
 10
6.999999999999966
 20
-10.99999999999954
 10
8.749999999999966
 20
-11.99999999999954
 10
8.749999999999966
 20
-15.99999999999954
  0
LWPOLYLINE
  5
BBD94
330
BBD90
100
AcDbEntity
  8
-PROFILAUSSENKANTET
100
AcDbPolyline
 90
        6
 70
     1
 43
0.0
 10
9.499999999999966
 20
-16.0
 42
0.4142135623730951
 10
12.49999999999996
 20
-13.0
 10
12.49999999999996
 20
0.0
 10
-12.50000000000003
 20
0.0
 10
-12.50000000000003
 20
-13.0
 42
0.4142135623730951
 10
-9.500000000000033
 20
-16.0
  0
LWPOLYLINE
  5
BBD95
330
BBD90
100
AcDbEntity
  8
-NORMTEIL_VERDECKT
100
AcDbPolyline
 90
        5
 70
     0
 43
0.0
 10
-5.250000000000033
 20
-15.99999999999954
 10
-5.250000000000033
 20
-11.99999999999954
 10
-3.500000000000034
 20
-10.99999999999954
 10
-1.750000000000034
 20
-11.99999999999954
 10
-1.750000000000034
 20
-15.99999999999954
  0
LINE
  5
BBD96
330
BBD90
100
AcDbEntity
  8
-NORMTEIL_VERDECKT
100
AcDbLine
 10
-5.250000000000033
 20
-11.99999999999954
 30
0.0
 11
-1.750000000000034
 21
-11.99999999999954
 31
0.0
  0
ENDBLK
  5
BBD97
330
BBD90
100
AcDbEntity
  8
0
100
AcDbBlockEnd
  0
BLOCK
  5
BBD99
330
BBD98
100
AcDbEntity
  8
0
100
AcDbBlockBegin
  2
SA-607
 70
     0
 10
0.0
 20
0.0
 30
0.0
  3
SA-607
  1

  0
LINE
  5
BBD9A
330
BBD98
100
AcDbEntity
  8
-SYSTEM
100
AcDbLine
 10
0.0
 20
40.47656553867819
 30
0.0
 11
0.0
 21
-31.0291738944843
 31
0.0
  0
INSERT
  5
BBD9B
330
BBD98
100
AcDbEntity
  8
0
100
AcDbBlockReference
  2
SA-SCHAFT607
 10
0.0
 20
0.0
 30
0.0
  0
INSERT
  5
BBD9C
330
BBD98
100
AcDbEntity
  8
-SYSTEM
 62
     2
100
AcDbBlockReference
  2
SA-HALTESCHEIBE35
 10
0.0
 20
27.51999999999998
 30
0.0
  0
INSERT
  5
BBD9D
330
BBD98
100
AcDbEntity
  8
-SCHRAFFUR
100
AcDbBlockReference
  2
SA-DICHTUNG
 10
0.0
 20
27.51999999999998
 30
0.0
 50
180.0
  0
INSERT
  5
BBD9E
330
BBD98
100
AcDbEntity
  8
-SCHRAFFUR
100
AcDbBlockReference
  2
SA-ZYLINDERSCH2516
 10
0.0
 20
-6.0
 30
0.0
  0
INSERT
  5
BBD9F
330
BBD98
100
AcDbEntity
  8
-SCHRAFFUR
100
AcDbBlockReference
  2
SA-DICHTUNG
 10
0.0
 20
10.0
 30
0.0
  0
ENDBLK
  5
BBDA0
330
BBD98
100
AcDbEntity
  8
0
100
AcDbBlockEnd
  0
BLOCK
  5
BBDA2
330
BBDA1
100
AcDbEntity
  8
0
 62
     2
100
AcDbBlockBegin
  2
SA-FS25
 70
     0
 10
0.0
 20
0.0
 30
0.0
  3
SA-FS25
  1

  0
INSERT
  5
BBDA3
330
BBDA1
100
AcDbEntity
  8
0
100
AcDbBlockReference
  2
SA-607
 10
-6.0
 20
0.0000000000000017
 30
0.0
 50
89.99999999999998
  0
INSERT
  5
BBDA4
330
BBDA1
100
AcDbEntity
  8
-SYSTEM
100
AcDbBlockReference
  2
SA-FLACHSPIDER25
 10
0.0
 20
0.0
 30
0.0
  0
ENDBLK
  5
BBDA5
330
BBDA1
100
AcDbEntity
  8
0
 62
     2
100
AcDbBlockEnd
  0
BLOCK
  5
C7DA8
330
C7D9E
100
AcDbEntity
  8
0
100
AcDbBlockBegin
  2
*D15
 70
     1
 10
0.0
 20
0.0
 30
0.0
  3
*D15
  1

  0
LINE
  5
CC9F4
330
C7D9E
100
AcDbEntity
  8
-TEXT3
370
    -2
100
AcDbLine
 10
33857.03585186775
 20
-11533.25054453051
 30
0.0
 11
33972.91910237905
 21
-11533.25054453051
 31
0.0
  0
LINE
  5
CC9F5
330
C7D9E
100
AcDbEntity
  8
-TEXT3
370
    -2
100
AcDbLine
 10
33857.03585186775
 20
-12133.55054453067
 30
0.0
 11
33972.91910237905
 21
-12133.55054453067
 31
0.0
  0
LINE
  5
CC9F6
330
C7D9E
100
AcDbEntity
  8
-TEXT3
370
    -2
100
AcDbLine
 10
33969.41910237905
 20
-11554.25054453051
 30
0.0
 11
33969.41910237905
 21
-12112.55054453067
 31
0.0
  0
SOLID
  5
CC9F7
330
C7D9E
100
AcDbEntity
  8
-TEXT3
100
AcDbTrace
 10
33965.91910237905
 20
-11554.25054453051
 30
0.0
 11
33972.91910237905
 21
-11554.25054453051
 31
0.0
 12
33969.41910237905
 22
-11533.25054453051
 32
0.0
 13
33969.41910237905
 23
-11533.25054453051
 33
0.0
  0
SOLID
  5
CC9F8
330
C7D9E
100
AcDbEntity
  8
-TEXT3
100
AcDbTrace
 10
33965.91910237905
 20
-12112.55054453067
 30
0.0
 11
33972.91910237905
 21
-12112.55054453067
 31
0.0
 12
33969.41910237905
 22
-12133.55054453067
 32
0.0
 13
33969.41910237905
 23
-12133.55054453067
 33
0.0
  0
MTEXT
  5
CC9F9
330
C7D9E
100
AcDbEntity
  8
-TEXT3
100
AcDbMText
 10
33955.19706963689
 20
-11833.40054453059
 30
0.0
 40
21.0
 41
0.0
 71
     5
 72
     1
  1
600
 11
0.0000000000000001
 21
1.0
 31
0.0
 73
     1
 44
1.0
  0
POINT
  5
CC9FA
330
C7D9E
100
AcDbEntity
  8
Defpoints
 62
     0
100
AcDbPoint
 10
33850.03585186776
 20
-11533.25054453051
 30
0.0
  0
POINT
  5
CC9FB
330
C7D9E
100
AcDbEntity
  8
Defpoints
 62
     0
100
AcDbPoint
 10
33850.03585186776
 20
-12133.55054453067
 30
0.0
  0
POINT
  5
CC9FC
330
C7D9E
100
AcDbEntity
  8
Defpoints
 62
     0
100
AcDbPoint
 10
33969.41910237905
 20
-12133.55054453067
 30
0.0
  0
ENDBLK
  5
C7DA9
330
C7D9E
100
AcDbEntity
  8
0
100
AcDbBlockEnd
  0
BLOCK
  5
C7E12
330
C7E08
100
AcDbEntity
  8
0
100
AcDbBlockBegin
  2
*D16
 70
     1
 10
0.0
 20
0.0
 30
0.0
  3
*D16
  1

  0
LINE
  5
CC9EB
330
C7E08
100
AcDbEntity
  8
-TEXT3
370
    -2
100
AcDbLine
 10
33780.55928632907
 20
-11333.25054453051
 30
0.0
 11
34082.8105458657
 21
-11333.25054453051
 31
0.0
  0
LINE
  5
CC9EC
330
C7E08
100
AcDbEntity
  8
-TEXT3
370
    -2
100
AcDbLine
 10
33815.55928632906
 20
-12333.55054453067
 30
0.0
 11
34082.8105458657
 21
-12333.55054453067
 31
0.0
  0
LINE
  5
CC9ED
330
C7E08
100
AcDbEntity
  8
-TEXT3
370
    -2
100
AcDbLine
 10
34079.3105458657
 20
-11354.25054453051
 30
0.0
 11
34079.3105458657
 21
-12312.55054453067
 31
0.0
  0
SOLID
  5
CC9EE
330
C7E08
100
AcDbEntity
  8
-TEXT3
100
AcDbTrace
 10
34075.8105458657
 20
-11354.25054453051
 30
0.0
 11
34082.8105458657
 21
-11354.25054453051
 31
0.0
 12
34079.3105458657
 22
-11333.25054453051
 32
0.0
 13
34079.3105458657
 23
-11333.25054453051
 33
0.0
  0
SOLID
  5
CC9EF
330
C7E08
100
AcDbEntity
  8
-TEXT3
100
AcDbTrace
 10
34075.8105458657
 20
-12312.55054453067
 30
0.0
 11
34082.8105458657
 21
-12312.55054453067
 31
0.0
 12
34079.3105458657
 22
-12333.55054453067
 32
0.0
 13
34079.3105458657
 23
-12333.55054453067
 33
0.0
  0
MTEXT
  5
CC9F0
330
C7E08
100
AcDbEntity
  8
-TEXT3
100
AcDbMText
 10
34064.95242853964
 20
-11833.40054453059
 30
0.0
 40
21.0
 41
0.0
 71
     5
 72
     1
  1
Pfostenhöhe 1000
 11
0.0000000000000001
 21
1.0
 31
0.0
 73
     1
 44
1.0
  0
POINT
  5
CC9F1
330
C7E08
100
AcDbEntity
  8
Defpoints
 62
     0
100
AcDbPoint
 10
33773.55928632907
 20
-11333.25054453051
 30
0.0
  0
POINT
  5
CC9F2
330
C7E08
100
AcDbEntity
  8
Defpoints
 62
     0
100
AcDbPoint
 10
33808.55928632906
 20
-12333.55054453067
 30
0.0
  0
POINT
  5
CC9F3
330
C7E08
100
AcDbEntity
  8
Defpoints
 62
     0
100
AcDbPoint
 10
34079.3105458657
 20
-12333.55054453067
 30
0.0
  0
ENDBLK
  5
C7E13
330
C7E08
100
AcDbEntity
  8
0
100
AcDbBlockEnd
  0
BLOCK
  5
CAFB7
330
CAFAD
100
AcDbEntity
  8
0
100
AcDbBlockBegin
  2
*D23
 70
     1
 10
0.0
 20
0.0
 30
0.0
  3
*D23
  1

  0
LINE
  5
CBF3E
330
CAFAD
100
AcDbEntity
  8
-TEXT3
370
    -2
100
AcDbLine
 10
33803.55928632908
 20
-12314.55054453067
 30
0.0
 11
33803.55928632908
 21
-12273.14152190163
 31
0.0
  0
LINE
  5
CBF3F
330
CAFAD
100
AcDbEntity
  8
-TEXT3
370
    -2
100
AcDbLine
 10
33821.55928632907
 20
-12240.55054453067
 30
0.0
 11
33821.55928632907
 21
-12280.14152190163
 31
0.0
  0
LINE
  5
CBF40
330
CAFAD
100
AcDbEntity
  8
-TEXT3
370
    -2
100
AcDbLine
 10
33782.55928632908
 20
-12276.64152190163
 30
0.0
 11
33761.55928632907
 21
-12276.64152190163
 31
0.0
  0
LINE
  5
CBF41
330
CAFAD
100
AcDbEntity
  8
-TEXT3
370
    -2
100
AcDbLine
 10
33842.55928632907
 20
-12276.64152190163
 30
0.0
 11
33898.70730815718
 21
-12276.64152190163
 31
0.0
  0
LINE
  5
CBF42
330
CAFAD
100
AcDbEntity
  8
-TEXT3
370
    -2
100
AcDbLine
 10
33803.55928632908
 20
-12276.64152190163
 30
0.0
 11
33821.55928632907
 21
-12276.64152190163
 31
0.0
  0
SOLID
  5
CBF43
330
CAFAD
100
AcDbEntity
  8
-TEXT3
100
AcDbTrace
 10
33782.55928632908
 20
-12273.14152190163
 30
0.0
 11
33782.55928632908
 21
-12280.14152190163
 31
0.0
 12
33803.55928632908
 22
-12276.64152190163
 32
0.0
 13
33803.55928632908
 23
-12276.64152190163
 33
0.0
  0
SOLID
  5
CBF44
330
CAFAD
100
AcDbEntity
  8
-TEXT3
100
AcDbTrace
 10
33842.55928632907
 20
-12273.14152190163
 30
0.0
 11
33842.55928632907
 21
-12280.14152190163
 31
0.0
 12
33821.55928632907
 22
-12276.64152190163
 32
0.0
 13
33821.55928632907
 23
-12276.64152190163
 33
0.0
  0
MTEXT
  5
CBF45
330
CAFAD
100
AcDbEntity
  8
-TEXT3
100
AcDbMText
 10
33881.13329724313
 20
-12262.41948915947
 30
0.0
 40
21.0
 41
0.0
 71
     5
 72
     1
  1
18
 73
     1
 44
1.0
  0
POINT
  5
CBF46
330
CAFAD
100
AcDbEntity
  8
Defpoints
 62
     0
100
AcDbPoint
 10
33803.55928632908
 20
-12321.55054453067
 30
0.0
  0
POINT
  5
CBF47
330
CAFAD
100
AcDbEntity
  8
Defpoints
 62
     0
100
AcDbPoint
 10
33821.55928632907
 20
-12233.55054453067
 30
0.0
  0
POINT
  5
CBF48
330
CAFAD
100
AcDbEntity
  8
Defpoints
 62
     0
100
AcDbPoint
 10
33821.55928632907
 20
-12276.64152190163
 30
0.0
  0
ENDBLK
  5
CAFB8
330
CAFAD
100
AcDbEntity
  8
0
100
AcDbBlockEnd
  0
BLOCK
  5
CC547
330
CC53D
100
AcDbEntity
  8
0
100
AcDbBlockBegin
  2
*D35
 70
     1
 10
0.0
 20
0.0
 30
0.0
  3
*D35
  1

  0
LINE
  5
CC53E
330
CC53D
100
AcDbEntity
  8
-TEXT3
370
    -2
100
AcDbLine
 10
32831.47292409511
 20
-12340.55054453067
 30
0.0
 11
32831.47292409511
 21
-12390.91147427174
 31
0.0
  0
LINE
  5
CC53F
330
CC53D
100
AcDbEntity
  8
-TEXT3
370
    -2
100
AcDbLine
 10
32986.47292409511
 20
-12340.55054453067
 30
0.0
 11
32986.47292409511
 21
-12390.91147427174
 31
0.0
  0
LINE
  5
CC540
330
CC53D
100
AcDbEntity
  8
-TEXT3
370
    -2
100
AcDbLine
 10
32852.47292409511
 20
-12387.41147427175
 30
0.0
 11
32965.47292409511
 21
-12387.41147427175
 31
0.0
  0
SOLID
  5
CC541
330
CC53D
100
AcDbEntity
  8
-TEXT3
100
AcDbTrace
 10
32852.47292409511
 20
-12383.91147427174
 30
0.0
 11
32852.47292409511
 21
-12390.91147427174
 31
0.0
 12
32831.47292409511
 22
-12387.41147427175
 32
0.0
 13
32831.47292409511
 23
-12387.41147427175
 33
0.0
  0
SOLID
  5
CC542
330
CC53D
100
AcDbEntity
  8
-TEXT3
100
AcDbTrace
 10
32965.47292409511
 20
-12383.91147427174
 30
0.0
 11
32965.47292409511
 21
-12390.91147427174
 31
0.0
 12
32986.47292409511
 22
-12387.41147427175
 32
0.0
 13
32986.47292409511
 23
-12387.41147427175
 33
0.0
  0
MTEXT
  5
CC543
330
CC53D
100
AcDbEntity
  8
-TEXT3
100
AcDbMText
 10
32908.97292409511
 20
-12373.18944152959
 30
0.0
 40
21.0
 41
0.0
 71
     5
 72
     1
  1
155
 73
     1
 44
1.0
  0
POINT
  5
CC544
330
CC53D
100
AcDbEntity
  8
Defpoints
 62
     0
100
AcDbPoint
 10
32831.47292409511
 20
-12333.55054453067
 30
0.0
  0
POINT
  5
CC545
330
CC53D
100
AcDbEntity
  8
Defpoints
 62
     0
100
AcDbPoint
 10
32986.47292409511
 20
-12333.55054453067
 30
0.0
  0
POINT
  5
CC546
330
CC53D
100
AcDbEntity
  8
Defpoints
 62
     0
100
AcDbPoint
 10
32986.47292409511
 20
-12387.41147427175
 30
0.0
  0
ENDBLK
  5
CC548
330
CC53D
100
AcDbEntity
  8
0
100
AcDbBlockEnd
  0
BLOCK
  5
CC554
330
CC54A
100
AcDbEntity
  8
0
100
AcDbBlockBegin
  2
*D36
 70
     1
 10
0.0
 20
0.0
 30
0.0
  3
*D36
  1

  0
LINE
  5
CC54B
330
CC54A
100
AcDbEntity
  8
-TEXT3
370
    -2
100
AcDbLine
 10
33738.55928632906
 20
-12340.55054453067
 30
0.0
 11
33738.55928632906
 21
-12390.91147427174
 31
0.0
  0
LINE
  5
CC54C
330
CC54A
100
AcDbEntity
  8
-TEXT3
370
    -2
100
AcDbLine
 10
33808.55928632906
 20
-12340.55054453067
 30
0.0
 11
33808.55928632906
 21
-12390.91147427174
 31
0.0
  0
LINE
  5
CC54D
330
CC54A
100
AcDbEntity
  8
-TEXT3
370
    -2
100
AcDbLine
 10
33759.55928632906
 20
-12387.41147427175
 30
0.0
 11
33787.55928632906
 21
-12387.41147427175
 31
0.0
  0
SOLID
  5
CC54E
330
CC54A
100
AcDbEntity
  8
-TEXT3
100
AcDbTrace
 10
33759.55928632906
 20
-12383.91147427174
 30
0.0
 11
33759.55928632906
 21
-12390.91147427174
 31
0.0
 12
33738.55928632906
 22
-12387.41147427175
 32
0.0
 13
33738.55928632906
 23
-12387.41147427175
 33
0.0
  0
SOLID
  5
CC54F
330
CC54A
100
AcDbEntity
  8
-TEXT3
100
AcDbTrace
 10
33787.55928632906
 20
-12383.91147427174
 30
0.0
 11
33787.55928632906
 21
-12390.91147427174
 31
0.0
 12
33808.55928632906
 22
-12387.41147427175
 32
0.0
 13
33808.55928632906
 23
-12387.41147427175
 33
0.0
  0
MTEXT
  5
CC550
330
CC54A
100
AcDbEntity
  8
-TEXT3
100
AcDbMText
 10
33773.55928632906
 20
-12373.18944152959
 30
0.0
 40
21.0
 41
0.0
 71
     5
 72
     1
  1
70
 73
     1
 44
1.0
  0
POINT
  5
CC551
330
CC54A
100
AcDbEntity
  8
Defpoints
 62
     0
100
AcDbPoint
 10
33738.55928632906
 20
-12333.55054453067
 30
0.0
  0
POINT
  5
CC552
330
CC54A
100
AcDbEntity
  8
Defpoints
 62
     0
100
AcDbPoint
 10
33808.55928632906
 20
-12333.55054453067
 30
0.0
  0
POINT
  5
CC553
330
CC54A
100
AcDbEntity
  8
Defpoints
 62
     0
100
AcDbPoint
 10
33808.55928632906
 20
-12387.41147427175
 30
0.0
  0
ENDBLK
  5
CC555
330
CC54A
100
AcDbEntity
  8
0
100
AcDbBlockEnd
  0
BLOCK
  5
CC563
330
CC557
100
AcDbEntity
  8
0
100
AcDbBlockBegin
  2
*D37
 70
     1
 10
0.0
 20
0.0
 30
0.0
  3
*D37
  1

  0
LINE
  5
CC565
330
CC557
100
AcDbEntity
  8
-TEXT3
370
    -2
100
AcDbLine
 10
32964.47292409511
 20
-12314.55054453067
 30
0.0
 11
32964.47292409511
 21
-12297.6477087472
 31
0.0
  0
LINE
  5
CC566
330
CC557
100
AcDbEntity
  8
-TEXT3
370
    -2
100
AcDbLine
 10
32978.47292409511
 20
-12314.55054453067
 30
0.0
 11
32978.47292409511
 21
-12297.6477087472
 31
0.0
  0
LINE
  5
CC567
330
CC557
100
AcDbEntity
  8
-TEXT3
370
    -2
100
AcDbLine
 10
32943.47292409511
 20
-12301.1477087472
 30
0.0
 11
32922.47292409511
 21
-12301.1477087472
 31
0.0
  0
LINE
  5
CC568
330
CC557
100
AcDbEntity
  8
-TEXT3
370
    -2
100
AcDbLine
 10
32999.47292409511
 20
-12301.1477087472
 30
0.0
 11
33080.31671672813
 21
-12301.1477087472
 31
0.0
  0
LINE
  5
CC569
330
CC557
100
AcDbEntity
  8
-TEXT3
370
    -2
100
AcDbLine
 10
32964.47292409511
 20
-12301.1477087472
 30
0.0
 11
32978.47292409511
 21
-12301.1477087472
 31
0.0
  0
SOLID
  5
CC56A
330
CC557
100
AcDbEntity
  8
-TEXT3
100
AcDbTrace
 10
32943.47292409511
 20
-12297.6477087472
 30
0.0
 11
32943.47292409511
 21
-12304.6477087472
 31
0.0
 12
32964.47292409511
 22
-12301.1477087472
 32
0.0
 13
32964.47292409511
 23
-12301.1477087472
 33
0.0
  0
SOLID
  5
CC56B
330
CC557
100
AcDbEntity
  8
-TEXT3
100
AcDbTrace
 10
32999.47292409511
 20
-12297.6477087472
 30
0.0
 11
32999.47292409511
 21
-12304.6477087472
 31
0.0
 12
32978.47292409511
 22
-12301.1477087472
 32
0.0
 13
32978.47292409511
 23
-12301.1477087472
 33
0.0
  0
MTEXT
  5
CC56C
330
CC557
100
AcDbEntity
  8
-TEXT3
100
AcDbMText
 10
33050.39482041162
 20
-12286.33836359031
 30
0.0
 40
21.0
 41
0.0
 71
     5
 72
     1
  1
%%C14
 73
     1
 44
1.0
  0
POINT
  5
CC56D
330
CC557
100
AcDbEntity
  8
Defpoints
 62
     0
100
AcDbPoint
 10
32964.47292409511
 20
-12321.55054453067
 30
0.0
  0
POINT
  5
CC56E
330
CC557
100
AcDbEntity
  8
Defpoints
 62
     0
100
AcDbPoint
 10
32978.47292409511
 20
-12321.55054453067
 30
0.0
  0
POINT
  5
CC56F
330
CC557
100
AcDbEntity
  8
Defpoints
 62
     0
100
AcDbPoint
 10
32978.47292409511
 20
-12301.1477087472
 30
0.0
  0
ENDBLK
  5
CC564
330
CC557
100
AcDbEntity
  8
0
100
AcDbBlockEnd
  0
BLOCK
  5
CC639
330
CC62F
100
AcDbEntity
  8
0
100
AcDbBlockBegin
  2
*D47
 70
     1
 10
0.0
 20
0.0
 30
0.0
  3
*D47
  1

  0
LINE
  5
CCC73
330
CC62F
100
AcDbEntity
  8
-TEXT3
370
    -2
100
AcDbLine
 10
33803.55928632907
 20
-11920.40054453059
 30
0.0
 11
33803.55928632907
 21
-11903.56440945765
 31
0.0
  0
LINE
  5
CCC74
330
CC62F
100
AcDbEntity
  8
-TEXT3
370
    -2
100
AcDbLine
 10
33743.55928632907
 20
-11936.9869626511
 30
0.0
 11
33743.55928632907
 21
-11903.56440945765
 31
0.0
  0
LINE
  5
CCC75
330
CC62F
100
AcDbEntity
  8
-TEXT3
370
    -2
100
AcDbLine
 10
33782.55928632907
 20
-11907.06440945765
 30
0.0
 11
33764.55928632906
 21
-11907.06440945765
 31
0.0
  0
SOLID
  5
CCC76
330
CC62F
100
AcDbEntity
  8
-TEXT3
100
AcDbTrace
 10
33782.55928632907
 20
-11903.56440945765
 30
0.0
 11
33782.55928632907
 21
-11910.56440945766
 31
0.0
 12
33803.55928632907
 22
-11907.06440945765
 32
0.0
 13
33803.55928632907
 23
-11907.06440945765
 33
0.0
  0
SOLID
  5
CCC77
330
CC62F
100
AcDbEntity
  8
-TEXT3
100
AcDbTrace
 10
33764.55928632906
 20
-11903.56440945765
 30
0.0
 11
33764.55928632906
 21
-11910.56440945766
 31
0.0
 12
33743.55928632907
 22
-11907.06440945765
 32
0.0
 13
33743.55928632907
 23
-11907.06440945765
 33
0.0
  0
MTEXT
  5
CCC78
330
CC62F
100
AcDbEntity
  8
-TEXT3
100
AcDbMText
 10
33773.55928632907
 20
-11892.8423767155
 30
0.0
 40
21.0
 41
0.0
 71
     5
 72
     1
  1
60
 73
     1
 44
1.0
  0
POINT
  5
CCC79
330
CC62F
100
AcDbEntity
  8
Defpoints
 62
     0
100
AcDbPoint
 10
33803.55928632907
 20
-11927.40054453059
 30
0.0
  0
POINT
  5
CCC7A
330
CC62F
100
AcDbEntity
  8
Defpoints
 62
     0
100
AcDbPoint
 10
33743.55928632907
 20
-11943.9869626511
 30
0.0
  0
POINT
  5
CCC7B
330
CC62F
100
AcDbEntity
  8
Defpoints
 62
     0
100
AcDbPoint
 10
33743.55928632907
 20
-11907.06440945765
 30
0.0
  0
ENDBLK
  5
CC63A
330
CC62F
100
AcDbEntity
  8
0
100
AcDbBlockEnd
  0
BLOCK
  5
CC648
330
CC63C
100
AcDbEntity
  8
0
100
AcDbBlockBegin
  2
*D48
 70
     1
 10
0.0
 20
0.0
 30
0.0
  3
*D48
  1

  0
LINE
  5
CCC7C
330
CC63C
100
AcDbEntity
  8
-TEXT3
370
    -2
100
AcDbLine
 10
32902.97292409511
 20
-11885.40054453067
 30
0.0
 11
32902.97292409511
 21
-11910.56440945766
 31
0.0
  0
LINE
  5
CCC7D
330
CC63C
100
AcDbEntity
  8
-TEXT3
370
    -2
100
AcDbLine
 10
32914.97292409511
 20
-11885.40054453067
 30
0.0
 11
32914.97292409511
 21
-11910.56440945766
 31
0.0
  0
LINE
  5
CCC7E
330
CC63C
100
AcDbEntity
  8
-TEXT3
370
    -2
100
AcDbLine
 10
32881.97292409511
 20
-11907.06440945765
 30
0.0
 11
32860.97292409511
 21
-11907.06440945765
 31
0.0
  0
LINE
  5
CCC7F
330
CC63C
100
AcDbEntity
  8
-TEXT3
370
    -2
100
AcDbLine
 10
32935.97292409511
 20
-11907.06440945765
 30
0.0
 11
32991.86310144846
 21
-11907.06440945765
 31
0.0
  0
LINE
  5
CCC80
330
CC63C
100
AcDbEntity
  8
-TEXT3
370
    -2
100
AcDbLine
 10
32902.97292409511
 20
-11907.06440945765
 30
0.0
 11
32914.97292409511
 21
-11907.06440945765
 31
0.0
  0
SOLID
  5
CCC81
330
CC63C
100
AcDbEntity
  8
-TEXT3
100
AcDbTrace
 10
32881.97292409511
 20
-11903.56440945765
 30
0.0
 11
32881.97292409511
 21
-11910.56440945766
 31
0.0
 12
32902.97292409511
 22
-11907.06440945765
 32
0.0
 13
32902.97292409511
 23
-11907.06440945765
 33
0.0
  0
SOLID
  5
CCC82
330
CC63C
100
AcDbEntity
  8
-TEXT3
100
AcDbTrace
 10
32935.97292409511
 20
-11903.56440945765
 30
0.0
 11
32935.97292409511
 21
-11910.56440945766
 31
0.0
 12
32914.97292409511
 22
-11907.06440945765
 32
0.0
 13
32914.97292409511
 23
-11907.06440945765
 33
0.0
  0
MTEXT
  5
CCC83
330
CC63C
100
AcDbEntity
  8
-TEXT3
100
AcDbMText
 10
32974.41801277178
 20
-11893.02143537853
 30
0.0
 40
21.0
 41
0.0
 71
     5
 72
     1
  1
12
 73
     1
 44
1.0
  0
POINT
  5
CCC84
330
CC63C
100
AcDbEntity
  8
Defpoints
 62
     0
100
AcDbPoint
 10
32902.97292409511
 20
-11878.40054453067
 30
0.0
  0
POINT
  5
CCC85
330
CC63C
100
AcDbEntity
  8
Defpoints
 62
     0
100
AcDbPoint
 10
32914.97292409511
 20
-11878.40054453067
 30
0.0
  0
POINT
  5
CCC86
330
CC63C
100
AcDbEntity
  8
Defpoints
 62
     0
100
AcDbPoint
 10
32914.97292409511
 20
-11907.06440945765
 30
0.0
  0
ENDBLK
  5
CC649
330
CC63C
100
AcDbEntity
  8
0
100
AcDbBlockEnd
  0
BLOCK
  5
CC7A1
330
CC795
100
AcDbEntity
  8
0
100
AcDbBlockBegin
  2
*D59
 70
     1
 10
0.0
 20
0.0
 30
0.0
  3
*D59
  1

  0
LINE
  5
CC7A3
330
CC795
100
AcDbEntity
  8
-TEXT3
370
    -2
100
AcDbLine
 10
33731.55928632907
 20
-12321.55054453067
 30
0.0
 11
33699.1692701135
 21
-12321.55054453067
 31
0.0
  0
LINE
  5
CC7A4
330
CC795
100
AcDbEntity
  8
-TEXT3
370
    -2
100
AcDbLine
 10
33731.55928632907
 20
-12333.55054453067
 30
0.0
 11
33699.1692701135
 21
-12333.55054453067
 31
0.0
  0
LINE
  5
CC7A5
330
CC795
100
AcDbEntity
  8
-TEXT3
370
    -2
100
AcDbLine
 10
33702.6692701135
 20
-12300.55054453067
 30
0.0
 11
33702.6692701135
 21
-12279.55054453067
 31
0.0
  0
LINE
  5
CC7A6
330
CC795
100
AcDbEntity
  8
-TEXT3
370
    -2
100
AcDbLine
 10
33702.6692701135
 20
-12354.55054453067
 30
0.0
 11
33702.6692701135
 21
-12410.44072188401
 31
0.0
  0
LINE
  5
CC7A7
330
CC795
100
AcDbEntity
  8
-TEXT3
370
    -2
100
AcDbLine
 10
33702.6692701135
 20
-12321.55054453067
 30
0.0
 11
33702.6692701135
 21
-12333.55054453067
 31
0.0
  0
SOLID
  5
CC7A8
330
CC795
100
AcDbEntity
  8
-TEXT3
100
AcDbTrace
 10
33699.1692701135
 20
-12300.55054453067
 30
0.0
 11
33706.1692701135
 21
-12300.55054453067
 31
0.0
 12
33702.6692701135
 22
-12321.55054453067
 32
0.0
 13
33702.6692701135
 23
-12321.55054453067
 33
0.0
  0
SOLID
  5
CC7A9
330
CC795
100
AcDbEntity
  8
-TEXT3
100
AcDbTrace
 10
33699.1692701135
 20
-12354.55054453067
 30
0.0
 11
33706.1692701135
 21
-12354.55054453067
 31
0.0
 12
33702.6692701135
 22
-12333.55054453067
 32
0.0
 13
33702.6692701135
 23
-12333.55054453067
 33
0.0
  0
MTEXT
  5
CC7AA
330
CC795
100
AcDbEntity
  8
-TEXT3
100
AcDbMText
 10
33688.62629603437
 20
-12392.99563320733
 30
0.0
 40
21.0
 41
0.0
 71
     5
 72
     1
  1
12
 11
0.0000000000000001
 21
1.0
 31
0.0
 73
     1
 44
1.0
  0
POINT
  5
CC7AB
330
CC795
100
AcDbEntity
  8
Defpoints
 62
     0
100
AcDbPoint
 10
33738.55928632907
 20
-12321.55054453067
 30
0.0
  0
POINT
  5
CC7AC
330
CC795
100
AcDbEntity
  8
Defpoints
 62
     0
100
AcDbPoint
 10
33738.55928632907
 20
-12333.55054453067
 30
0.0
  0
POINT
  5
CC7AD
330
CC795
100
AcDbEntity
  8
Defpoints
 62
     0
100
AcDbPoint
 10
33702.6692701135
 20
-12333.55054453067
 30
0.0
  0
ENDBLK
  5
CC7A2
330
CC795
100
AcDbEntity
  8
0
100
AcDbBlockEnd
  0
BLOCK
  5
CC8FF
330
CC8F5
100
AcDbEntity
  8
0
100
AcDbBlockBegin
  2
*D65
 70
     1
 10
0.0
 20
0.0
 30
0.0
  3
*D65
  1

  0
LINE
  5
CC90D
330
CC8F5
100
AcDbEntity
  8
-TEXT3
370
    -2
100
AcDbLine
 10
32913.97292409512
 20
-11552.75054453051
 30
0.0
 11
32913.97292409512
 21
-11594.65618162471
 31
0.0
  0
LINE
  5
CC90E
330
CC8F5
100
AcDbEntity
  8
-TEXT3
370
    -2
100
AcDbLine
 10
32993.97292409512
 20
-11564.24779525827
 30
0.0
 11
32993.97292409512
 21
-11594.65618162471
 31
0.0
  0
LINE
  5
CC90F
330
CC8F5
100
AcDbEntity
  8
-TEXT3
370
    -2
100
AcDbLine
 10
32934.97292409512
 20
-11591.15618162471
 30
0.0
 11
32972.97292409512
 21
-11591.15618162471
 31
0.0
  0
SOLID
  5
CC910
330
CC8F5
100
AcDbEntity
  8
-TEXT3
100
AcDbTrace
 10
32934.97292409512
 20
-11587.65618162471
 30
0.0
 11
32934.97292409512
 21
-11594.65618162471
 31
0.0
 12
32913.97292409512
 22
-11591.15618162471
 32
0.0
 13
32913.97292409512
 23
-11591.15618162471
 33
0.0
  0
SOLID
  5
CC911
330
CC8F5
100
AcDbEntity
  8
-TEXT3
100
AcDbTrace
 10
32972.97292409512
 20
-11587.65618162471
 30
0.0
 11
32972.97292409512
 21
-11594.65618162471
 31
0.0
 12
32993.97292409512
 22
-11591.15618162471
 32
0.0
 13
32993.97292409512
 23
-11591.15618162471
 33
0.0
  0
MTEXT
  5
CC912
330
CC8F5
100
AcDbEntity
  8
-TEXT3
100
AcDbMText
 10
32953.97292409512
 20
-11576.93414888255
 30
0.0
 40
21.0
 41
0.0
 71
     5
 72
     1
  1
80
 73
     1
 44
1.0
  0
POINT
  5
CC913
330
CC8F5
100
AcDbEntity
  8
Defpoints
 62
     0
100
AcDbPoint
 10
32913.97292409512
 20
-11545.75054453051
 30
0.0
  0
POINT
  5
CC914
330
CC8F5
100
AcDbEntity
  8
Defpoints
 62
     0
100
AcDbPoint
 10
32993.97292409512
 20
-11557.24779525827
 30
0.0
  0
POINT
  5
CC915
330
CC8F5
100
AcDbEntity
  8
Defpoints
 62
     0
100
AcDbPoint
 10
32993.97292409512
 20
-11591.15618162471
 30
0.0
  0
ENDBLK
  5
CC900
330
CC8F5
100
AcDbEntity
  8
0
100
AcDbBlockEnd
  0
BLOCK
  5
CC90B
330
CC901
100
AcDbEntity
  8
0
100
AcDbBlockBegin
  2
*D66
 70
     1
 10
0.0
 20
0.0
 30
0.0
  3
*D66
  1

  0
LINE
  5
CC916
330
CC901
100
AcDbEntity
  8
-TEXT3
370
    -2
100
AcDbLine
 10
32903.97292409511
 20
-11552.75054453051
 30
0.0
 11
32903.97292409511
 21
-11594.65618162471
 31
0.0
  0
LINE
  5
CC917
330
CC901
100
AcDbEntity
  8
-TEXT3
370
    -2
100
AcDbLine
 10
32823.97292409511
 20
-11564.24779525827
 30
0.0
 11
32823.97292409511
 21
-11594.65618162471
 31
0.0
  0
LINE
  5
CC918
330
CC901
100
AcDbEntity
  8
-TEXT3
370
    -2
100
AcDbLine
 10
32882.97292409511
 20
-11591.15618162471
 30
0.0
 11
32844.97292409511
 21
-11591.15618162471
 31
0.0
  0
SOLID
  5
CC919
330
CC901
100
AcDbEntity
  8
-TEXT3
100
AcDbTrace
 10
32882.97292409511
 20
-11587.65618162471
 30
0.0
 11
32882.97292409511
 21
-11594.65618162471
 31
0.0
 12
32903.97292409511
 22
-11591.15618162471
 32
0.0
 13
32903.97292409511
 23
-11591.15618162471
 33
0.0
  0
SOLID
  5
CC91A
330
CC901
100
AcDbEntity
  8
-TEXT3
100
AcDbTrace
 10
32844.97292409511
 20
-11587.65618162471
 30
0.0
 11
32844.97292409511
 21
-11594.65618162471
 31
0.0
 12
32823.97292409511
 22
-11591.15618162471
 32
0.0
 13
32823.97292409511
 23
-11591.15618162471
 33
0.0
  0
MTEXT
  5
CC91B
330
CC901
100
AcDbEntity
  8
-TEXT3
100
AcDbMText
 10
32863.97292409511
 20
-11576.93414888255
 30
0.0
 40
21.0
 41
0.0
 71
     5
 72
     1
  1
80
 73
     1
 44
1.0
  0
POINT
  5
CC91C
330
CC901
100
AcDbEntity
  8
Defpoints
 62
     0
100
AcDbPoint
 10
32903.97292409511
 20
-11545.75054453051
 30
0.0
  0
POINT
  5
CC91D
330
CC901
100
AcDbEntity
  8
Defpoints
 62
     0
100
AcDbPoint
 10
32823.97292409511
 20
-11557.24779525827
 30
0.0
  0
POINT
  5
CC91E
330
CC901
100
AcDbEntity
  8
Defpoints
 62
     0
100
AcDbPoint
 10
32823.97292409511
 20
-11591.15618162471
 30
0.0
  0
ENDBLK
  5
CC90C
330
CC901
100
AcDbEntity
  8
0
100
AcDbBlockEnd
  0
BLOCK
  5
CC934
330
CC92A
100
AcDbEntity
  8
0
100
AcDbBlockBegin
  2
*D67
 70
     1
 10
0.0
 20
0.0
 30
0.0
  3
*D67
  1

  0
LINE
  5
CC9E2
330
CC92A
100
AcDbEntity
  8
-TEXT3
370
    -2
100
AcDbLine
 10
33857.03585186775
 20
-11533.25054453051
 30
0.0
 11
33972.91910237905
 21
-11533.25054453051
 31
0.0
  0
LINE
  5
CC9E3
330
CC92A
100
AcDbEntity
  8
-TEXT3
370
    -2
100
AcDbLine
 10
33787.55928632906
 20
-11333.25054453051
 30
0.0
 11
33972.91910237905
 21
-11333.25054453051
 31
0.0
  0
LINE
  5
CC9E4
330
CC92A
100
AcDbEntity
  8
-TEXT3
370
    -2
100
AcDbLine
 10
33969.41910237905
 20
-11512.25054453051
 30
0.0
 11
33969.41910237905
 21
-11354.25054453051
 31
0.0
  0
SOLID
  5
CC9E5
330
CC92A
100
AcDbEntity
  8
-TEXT3
100
AcDbTrace
 10
33965.91910237905
 20
-11512.25054453051
 30
0.0
 11
33972.91910237905
 21
-11512.25054453051
 31
0.0
 12
33969.41910237905
 22
-11533.25054453051
 32
0.0
 13
33969.41910237905
 23
-11533.25054453051
 33
0.0
  0
SOLID
  5
CC9E6
330
CC92A
100
AcDbEntity
  8
-TEXT3
100
AcDbTrace
 10
33965.91910237905
 20
-11354.25054453051
 30
0.0
 11
33972.91910237905
 21
-11354.25054453051
 31
0.0
 12
33969.41910237905
 22
-11333.25054453051
 32
0.0
 13
33969.41910237905
 23
-11333.25054453051
 33
0.0
  0
MTEXT
  5
CC9E7
330
CC92A
100
AcDbEntity
  8
-TEXT3
100
AcDbMText
 10
33955.19706963689
 20
-11433.25054453051
 30
0.0
 40
21.0
 41
0.0
 71
     5
 72
     1
  1
200
 11
0.0000000000000001
 21
1.0
 31
0.0
 73
     1
 44
1.0
  0
POINT
  5
CC9E8
330
CC92A
100
AcDbEntity
  8
Defpoints
 62
     0
100
AcDbPoint
 10
33850.03585186776
 20
-11533.25054453051
 30
0.0
  0
POINT
  5
CC9E9
330
CC92A
100
AcDbEntity
  8
Defpoints
 62
     0
100
AcDbPoint
 10
33780.55928632907
 20
-11333.25054453051
 30
0.0
  0
POINT
  5
CC9EA
330
CC92A
100
AcDbEntity
  8
Defpoints
 62
     0
100
AcDbPoint
 10
33969.41910237905
 20
-11333.25054453051
 30
0.0
  0
ENDBLK
  5
CC935
330
CC92A
100
AcDbEntity
  8
0
100
AcDbBlockEnd
  0
BLOCK
  5
CC98B
330
CC97F
100
AcDbEntity
  8
0
100
AcDbBlockBegin
  2
*D73
 70
     1
 10
0.0
 20
0.0
 30
0.0
  3
*D73
  1

  0
LINE
  5
CCC9B
330
CC97F
100
AcDbEntity
  8
-TEXT3
370
    -2
100
AcDbLine
 10
32903.97292409511
 20
-11876.40054453059
 30
0.0
 11
32903.97292409511
 21
-11746.90151456282
 31
0.0
  0
LINE
  5
CCC9C
330
CC97F
100
AcDbEntity
  8
-TEXT3
370
    -2
100
AcDbLine
 10
32913.97292409512
 20
-11876.40054453059
 30
0.0
 11
32913.97292409512
 21
-11746.90151456282
 31
0.0
  0
LINE
  5
CCC9D
330
CC97F
100
AcDbEntity
  8
-TEXT3
370
    -2
100
AcDbLine
 10
32882.97292409511
 20
-11750.40151456282
 30
0.0
 11
32861.97292409511
 21
-11750.40151456282
 31
0.0
  0
LINE
  5
CCC9E
330
CC97F
100
AcDbEntity
  8
-TEXT3
370
    -2
100
AcDbLine
 10
32934.97292409512
 20
-11750.40151456282
 30
0.0
 11
33144.91468944301
 21
-11750.40151456282
 31
0.0
  0
LINE
  5
CCC9F
330
CC97F
100
AcDbEntity
  8
-TEXT3
370
    -2
100
AcDbLine
 10
32903.97292409511
 20
-11750.40151456282
 30
0.0
 11
32913.97292409512
 21
-11750.40151456282
 31
0.0
  0
SOLID
  5
CCCA0
330
CC97F
100
AcDbEntity
  8
-TEXT3
100
AcDbTrace
 10
32882.97292409511
 20
-11746.90151456282
 30
0.0
 11
32882.97292409511
 21
-11753.90151456282
 31
0.0
 12
32903.97292409511
 22
-11750.40151456282
 32
0.0
 13
32903.97292409511
 23
-11750.40151456282
 33
0.0
  0
SOLID
  5
CCCA1
330
CC97F
100
AcDbEntity
  8
-TEXT3
100
AcDbTrace
 10
32934.97292409512
 20
-11746.90151456282
 30
0.0
 11
32934.97292409512
 21
-11753.90151456282
 31
0.0
 12
32913.97292409512
 22
-11750.40151456282
 32
0.0
 13
32913.97292409512
 23
-11750.40151456282
 33
0.0
  0
MTEXT
  5
CCCA2
330
CC97F
100
AcDbEntity
  8
-TEXT3
100
AcDbMText
 10
33050.44380676906
 20
-11732.44304321221
 30
0.0
 40
21.0
 41
0.0
 71
     5
 72
     1
  1
Glasfuge {\H1.083x;~} 10
 73
     1
 44
1.0
  0
POINT
  5
CCCA3
330
CC97F
100
AcDbEntity
  8
Defpoints
 62
     0
100
AcDbPoint
 10
32903.97292409511
 20
-11883.40054453059
 30
0.0
  0
POINT
  5
CCCA4
330
CC97F
100
AcDbEntity
  8
Defpoints
 62
     0
100
AcDbPoint
 10
32913.97292409512
 20
-11883.40054453059
 30
0.0
  0
POINT
  5
CCCA5
330
CC97F
100
AcDbEntity
  8
Defpoints
 62
     0
100
AcDbPoint
 10
32913.97292409512
 20
-11750.40151456282
 30
0.0
  0
ENDBLK
  5
CC98C
330
CC97F
100
AcDbEntity
  8
0
100
AcDbBlockEnd
  0
BLOCK
  5
CC9D7
330
CC9CD
100
AcDbEntity
  8
0
100
AcDbBlockBegin
  2
*D76
 70
     1
 10
0.0
 20
0.0
 30
0.0
  3
*D76
  1

  0
LINE
  5
CC9D9
330
CC9CD
100
AcDbEntity
  8
-TEXT3
370
    -2
100
AcDbLine
 10
33864.03585186775
 20
-12133.55054453067
 30
0.0
 11
33972.91910237905
 21
-12133.55054453067
 31
0.0
  0
LINE
  5
CC9DA
330
CC9CD
100
AcDbEntity
  8
-TEXT3
370
    -2
100
AcDbLine
 10
33822.55928632906
 20
-12333.55054453067
 30
0.0
 11
33972.91910237905
 21
-12333.55054453067
 31
0.0
  0
LINE
  5
CC9DB
330
CC9CD
100
AcDbEntity
  8
-TEXT3
370
    -2
100
AcDbLine
 10
33969.41910237905
 20
-12154.55054453067
 30
0.0
 11
33969.41910237905
 21
-12312.55054453067
 31
0.0
  0
SOLID
  5
CC9DC
330
CC9CD
100
AcDbEntity
  8
-TEXT3
100
AcDbTrace
 10
33965.91910237905
 20
-12154.55054453067
 30
0.0
 11
33972.91910237905
 21
-12154.55054453067
 31
0.0
 12
33969.41910237905
 22
-12133.55054453067
 32
0.0
 13
33969.41910237905
 23
-12133.55054453067
 33
0.0
  0
SOLID
  5
CC9DD
330
CC9CD
100
AcDbEntity
  8
-TEXT3
100
AcDbTrace
 10
33965.91910237905
 20
-12312.55054453067
 30
0.0
 11
33972.91910237905
 21
-12312.55054453067
 31
0.0
 12
33969.41910237905
 22
-12333.55054453067
 32
0.0
 13
33969.41910237905
 23
-12333.55054453067
 33
0.0
  0
MTEXT
  5
CC9DE
330
CC9CD
100
AcDbEntity
  8
-TEXT3
100
AcDbMText
 10
33955.19706963689
 20
-12233.55054453066
 30
0.0
 40
21.0
 41
0.0
 71
     5
 72
     1
  1
200
 11
0.0000000000000001
 21
1.0
 31
0.0
 73
     1
 44
1.0
  0
POINT
  5
CC9DF
330
CC9CD
100
AcDbEntity
  8
Defpoints
 62
     0
100
AcDbPoint
 10
33857.03585186775
 20
-12133.55054453067
 30
0.0
  0
POINT
  5
CC9E0
330
CC9CD
100
AcDbEntity
  8
Defpoints
 62
     0
100
AcDbPoint
 10
33815.55928632906
 20
-12333.55054453067
 30
0.0
  0
POINT
  5
CC9E1
330
CC9CD
100
AcDbEntity
  8
Defpoints
 62
     0
100
AcDbPoint
 10
33969.41910237905
 20
-12333.55054453067
 30
0.0
  0
ENDBLK
  5
CC9D8
330
CC9CD
100
AcDbEntity
  8
0
100
AcDbBlockEnd
  0
BLOCK
  5
CCD16
330
CCD0D
100
AcDbEntity
  8
0
100
AcDbBlockBegin
  2
*D84
 70
     1
 10
0.0
 20
0.0
 30
0.0
  3
*D84
  1

  0
LINE
  5
CCD0E
330
CCD0D
100
AcDbEntity
  8
-TEXT3
370
    -2
100
AcDbLine
 10
33109.74319935274
 20
-11503.27774590654
 30
0.0
 11
33031.24406521719
 21
-11523.60108654269
 31
0.0
  0
LINE
  5
CCD0F
330
CCD0D
100
AcDbEntity
  8
-TEXT3
370
    -2
100
AcDbLine
 10
32956.70178297305
 20
-11542.90000251835
 30
0.0
 11
32936.37206963373
 21
-11548.16334323898
 31
0.0
  0
MTEXT
  5
CCD10
330
CCD0D
100
AcDbEntity
  8
-TEXT3
100
AcDbMText
 10
33076.94674469699
 20
-11496.4710914937
 30
0.0
 40
21.0
 41
0.0
 71
     5
 72
     1
  1
\U+220535
 11
0.9680815875861931
 21
0.2506352724111187
 31
0.0
 73
     1
 44
1.0
  0
LINE
  5
CCD11
330
CCD0D
100
AcDbEntity
  8
-TEXT3
370
    -2
100
AcDbLine
 10
32977.03149631235
 20
-11537.63666179771
 30
0.0
 11
33010.91435187788
 21
-11528.86442726332
 31
0.0
  0
SOLID
  5
CCD12
330
CCD0D
100
AcDbEntity
  8
-TEXT3
100
AcDbTrace
 10
32955.82455951961
 20
-11539.51171696179
 30
0.0
 11
32957.57900642648
 21
-11546.28828807489
 31
0.0
 12
32977.03149631235
 22
-11537.63666179771
 32
0.0
 13
32977.03149631235
 23
-11537.63666179771
 33
0.0
  0
SOLID
  5
CCD13
330
CCD0D
100
AcDbEntity
  8
-TEXT3
100
AcDbTrace
 10
33030.36684176375
 20
-11520.21280098614
 30
0.0
 11
33032.12128867062
 21
-11526.98937209924
 31
0.0
 12
33010.91435187788
 22
-11528.86442726332
 32
0.0
 13
33010.91435187788
 23
-11528.86442726332
 33
0.0
  0
POINT
  5
CCD14
330
CCD0D
100
AcDbEntity
  8
Defpoints
 62
     0
100
AcDbPoint
 10
33010.91435187788
 20
-11528.86442726332
 30
0.0
  0
POINT
  5
CCD15
330
CCD0D
100
AcDbEntity
  8
Defpoints
 62
     0
100
AcDbPoint
 10
32977.03149631235
 20
-11537.63666179771
 30
0.0
  0
ENDBLK
  5
CCD17
330
CCD0D
100
AcDbEntity
  8
0
100
AcDbBlockEnd
  0
BLOCK
  5
CCF40
330
CCF36
100
AcDbEntity
  8
0
100
AcDbBlockBegin
  2
*D90
 70
     1
 10
0.0
 20
0.0
 30
0.0
  3
*D90
  1

  0
LINE
  5
CCF42
330
CCF36
100
AcDbEntity
  8
-TEXT3
370
    -2
100
AcDbLine
 10
33857.03585186775
 20
-11533.25054453051
 30
0.0
 11
33902.95972656984
 21
-11533.25054453051
 31
0.0
  0
LINE
  5
CCF43
330
CCF36
100
AcDbEntity
  8
-TEXT3
370
    -2
100
AcDbLine
 10
33842.07928632908
 20
-11433.25054453051
 30
0.0
 11
33902.95972656984
 21
-11433.25054453051
 31
0.0
  0
LINE
  5
CCF44
330
CCF36
100
AcDbEntity
  8
-TEXT3
370
    -2
100
AcDbLine
 10
33899.45972656984
 20
-11512.25054453051
 30
0.0
 11
33899.45972656984
 21
-11454.25054453051
 31
0.0
  0
SOLID
  5
CCF45
330
CCF36
100
AcDbEntity
  8
-TEXT3
100
AcDbTrace
 10
33895.95972656984
 20
-11512.25054453051
 30
0.0
 11
33902.95972656984
 21
-11512.25054453051
 31
0.0
 12
33899.45972656984
 22
-11533.25054453051
 32
0.0
 13
33899.45972656984
 23
-11533.25054453051
 33
0.0
  0
SOLID
  5
CCF46
330
CCF36
100
AcDbEntity
  8
-TEXT3
100
AcDbTrace
 10
33895.95972656984
 20
-11454.25054453051
 30
0.0
 11
33902.95972656984
 21
-11454.25054453051
 31
0.0
 12
33899.45972656984
 22
-11433.25054453051
 32
0.0
 13
33899.45972656984
 23
-11433.25054453051
 33
0.0
  0
MTEXT
  5
CCF47
330
CCF36
100
AcDbEntity
  8
-TEXT3
100
AcDbMText
 10
33885.23769382769
 20
-11483.25054453051
 30
0.0
 40
21.0
 41
0.0
 71
     5
 72
     1
  1
80-250
 11
0.0000000000000001
 21
1.0
 31
0.0
 73
     1
 44
1.0
  0
POINT
  5
CCF48
330
CCF36
100
AcDbEntity
  8
Defpoints
 62
     0
100
AcDbPoint
 10
33850.03585186776
 20
-11533.25054453051
 30
0.0
  0
POINT
  5
CCF49
330
CCF36
100
AcDbEntity
  8
Defpoints
 62
     0
100
AcDbPoint
 10
33835.07928632908
 20
-11433.25054453051
 30
0.0
  0
POINT
  5
CCF4A
330
CCF36
100
AcDbEntity
  8
Defpoints
 62
     0
100
AcDbPoint
 10
33899.45972656984
 20
-11433.25054453051
 30
0.0
  0
ENDBLK
  5
CCF41
330
CCF36
100
AcDbEntity
  8
0
100
AcDbBlockEnd
  0
BLOCK
  5
CCF56
330
CCF4C
100
AcDbEntity
  8
0
100
AcDbBlockBegin
  2
*D91
 70
     1
 10
0.0
 20
0.0
 30
0.0
  3
*D91
  1

  0
LINE
  5
CCF58
330
CCF4C
100
AcDbEntity
  8
-TEXT3
370
    -2
100
AcDbLine
 10
33842.07928632908
 20
-12233.55054453067
 30
0.0
 11
33902.95972656984
 21
-12233.55054453067
 31
0.0
  0
LINE
  5
CCF59
330
CCF4C
100
AcDbEntity
  8
-TEXT3
370
    -2
100
AcDbLine
 10
33857.03585186775
 20
-12133.55054453067
 30
0.0
 11
33902.95972656984
 21
-12133.55054453067
 31
0.0
  0
LINE
  5
CCF5A
330
CCF4C
100
AcDbEntity
  8
-TEXT3
370
    -2
100
AcDbLine
 10
33899.45972656984
 20
-12212.55054453067
 30
0.0
 11
33899.45972656984
 21
-12154.55054453067
 31
0.0
  0
SOLID
  5
CCF5B
330
CCF4C
100
AcDbEntity
  8
-TEXT3
100
AcDbTrace
 10
33895.95972656984
 20
-12212.55054453067
 30
0.0
 11
33902.95972656984
 21
-12212.55054453067
 31
0.0
 12
33899.45972656984
 22
-12233.55054453067
 32
0.0
 13
33899.45972656984
 23
-12233.55054453067
 33
0.0
  0
SOLID
  5
CCF5C
330
CCF4C
100
AcDbEntity
  8
-TEXT3
100
AcDbTrace
 10
33895.95972656984
 20
-12154.55054453067
 30
0.0
 11
33902.95972656984
 21
-12154.55054453067
 31
0.0
 12
33899.45972656984
 22
-12133.55054453067
 32
0.0
 13
33899.45972656984
 23
-12133.55054453067
 33
0.0
  0
MTEXT
  5
CCF5D
330
CCF4C
100
AcDbEntity
  8
-TEXT3
100
AcDbMText
 10
33885.23769382769
 20
-12183.55054453066
 30
0.0
 40
21.0
 41
0.0
 71
     5
 72
     1
  1
80-500
 11
0.0000000000000001
 21
1.0
 31
0.0
 73
     1
 44
1.0
  0
POINT
  5
CCF5E
330
CCF4C
100
AcDbEntity
  8
Defpoints
 62
     0
100
AcDbPoint
 10
33835.07928632908
 20
-12233.55054453067
 30
0.0
  0
POINT
  5
CCF5F
330
CCF4C
100
AcDbEntity
  8
Defpoints
 62
     0
100
AcDbPoint
 10
33850.03585186776
 20
-12133.55054453067
 30
0.0
  0
POINT
  5
CCF60
330
CCF4C
100
AcDbEntity
  8
Defpoints
 62
     0
100
AcDbPoint
 10
33899.45972656984
 20
-12133.55054453067
 30
0.0
  0
ENDBLK
  5
CCF57
330
CCF4C
100
AcDbEntity
  8
0
100
AcDbBlockEnd
  0
ENDSEC
  0
SECTION
  2
ENTITIES
  0
LINE
  5
C7D1F
330
2
100
AcDbEntity
  8
-TEXT3
 62
    40
100
AcDbLine
 10
33208.86916317797
 20
-11290.85054453067
 30
0.0
 11
32609.07668501225
 21
-11290.85054453067
 31
0.0
  0
LINE
  5
C7D20
330
2
100
AcDbEntity
  8
-TEXT3
 62
    40
100
AcDbLine
 10
33208.86916317797
 20
-11333.25054453067
 30
0.0
 11
32609.07668501225
 21
-11333.25054453067
 31
0.0
  0
INSERT
  5
C7D23
330
2
100
AcDbEntity
  8
-TEXT3
100
AcDbBlockReference
  2
SA-FS25
 10
33803.55928632908
 20
-12133.55054453067
 30
0.0
 41
-1.0
  0
LINE
  5
C7D27
330
2
100
AcDbEntity
  8
-PROFILAUSSENKANTE
 62
     4
100
AcDbLine
 10
32836.22037280903
 20
-12146.05054453067
 30
0.0
 11
32981.72547538119
 21
-12146.05054453067
 31
0.0
  0
LINE
  5
C7D28
330
2
100
AcDbEntity
  8
-PROFILAUSSENKANTE
 62
     4
100
AcDbLine
 10
32836.22037280903
 20
-12121.05054453067
 30
0.0
 11
32981.72547538119
 21
-12121.05054453067
 31
0.0
  0
POINT
  5
C7D29
330
2
100
AcDbEntity
  8
-SYSTEM
 62
     2
100
AcDbPoint
 10
32823.97292409511
 20
-12133.55054453067
 30
0.0
  0
POINT
  5
C7D2A
330
2
100
AcDbEntity
  8
-SYSTEM
 62
     2
100
AcDbPoint
 10
32993.97292409512
 20
-12133.55054453067
 30
0.0
  0
POINT
  5
C7D2B
330
2
100
AcDbEntity
  8
-SYSTEM
 62
     2
100
AcDbPoint
 10
32993.97292409512
 20
-12133.55054453067
 30
0.0
  0
INSERT
  5
C7D2C
330
2
100
AcDbEntity
  8
-SYSTEM
 62
     2
100
AcDbBlockReference
  2
AS-PH607
 10
32823.97292409511
 20
-12133.55054453067
 30
0.0
  0
INSERT
  5
C7D2D
330
2
100
AcDbEntity
  8
-SYSTEM
 62
     2
100
AcDbBlockReference
  2
AS-PH607
 10
32993.97292409512
 20
-12133.55054453067
 30
0.0
  0
LINE
  5
C7D30
330
2
100
AcDbEntity
  8
-TEXT3
 62
    40
100
AcDbLine
 10
33208.86916317797
 20
-11333.25054453067
 30
0.0
 11
32609.07668501225
 21
-11333.25054453067
 31
0.0
  0
INSERT
  5
C7D31
330
2
100
AcDbEntity
  8
-TEXT3
100
AcDbBlockReference
  2
SA-FS25
 10
33803.55928632908
 20
-11533.25054453051
 30
0.0
 41
-1.0
  0
LINE
  5
C7D32
330
2
100
AcDbEntity
  8
-PROFILAUSSENKANTE
 62
     4
100
AcDbLine
 10
32836.22037280903
 20
-11545.75054453051
 30
0.0
 11
32981.72547538119
 21
-11545.75054453051
 31
0.0
  0
LINE
  5
C7D33
330
2
100
AcDbEntity
  8
-PROFILAUSSENKANTE
 62
     4
100
AcDbLine
 10
32836.22037280903
 20
-11520.75054453051
 30
0.0
 11
32981.72547538119
 21
-11520.75054453051
 31
0.0
  0
POINT
  5
C7D34
330
2
100
AcDbEntity
  8
-SYSTEM
 62
     2
100
AcDbPoint
 10
32823.97292409511
 20
-11533.25054453051
 30
0.0
  0
POINT
  5
C7D35
330
2
100
AcDbEntity
  8
-SYSTEM
 62
     2
100
AcDbPoint
 10
32993.97292409512
 20
-11533.25054453051
 30
0.0
  0
POINT
  5
C7D36
330
2
100
AcDbEntity
  8
-SYSTEM
 62
     2
100
AcDbPoint
 10
32993.97292409512
 20
-11533.25054453051
 30
0.0
  0
INSERT
  5
C7D37
330
2
100
AcDbEntity
  8
-SYSTEM
 62
     2
100
AcDbBlockReference
  2
AS-PH607
 10
32823.97292409511
 20
-11533.25054453051
 30
0.0
  0
INSERT
  5
C7D38
330
2
100
AcDbEntity
  8
-SYSTEM
 62
     2
100
AcDbBlockReference
  2
AS-PH607
 10
32993.97292409512
 20
-11533.25054453051
 30
0.0
  0
LWPOLYLINE
  5
C7D39
330
2
100
AcDbEntity
  8
-GLAS
 62
     1
100
AcDbPolyline
 90
        4
 70
     0
 43
0.0
 10
32609.07668501225
 20
-11433.25054453051
 10
32903.97292409511
 20
-11433.25054453051
 10
32903.97292409511
 20
-12233.55054453067
 10
32609.07668501225
 20
-12233.55054453067
  0
LINE
  5
C7D3E
330
2
100
AcDbEntity
  8
-PROFILAUSSENKANTE
  6
Continuous
 62
     4
100
AcDbLine
 10
32914.97292409511
 20
-11613.25054453051
 30
0.0
 11
32914.9729240951
 21
-11545.75054453051
 31
0.0
  0
LWPOLYLINE
  5
C7D3F
330
2
100
AcDbEntity
  8
-GLAS
 62
     1
100
AcDbPolyline
 90
        4
 70
     1
 43
0.0
 10
33821.55928632907
 20
-12233.55054453067
 10
33835.07928632908
 20
-12233.55054453067
 10
33835.07928632908
 20
-11433.25054453051
 10
33821.55928632907
 20
-11433.25054453051
  0
LINE
  5
C7D45
330
2
100
AcDbEntity
  8
-PROFILAUSSENKANTE
  6
Continuous
 62
     4
100
AcDbLine
 10
32914.97292409511
 20
-11433.25054453051
 30
0.0
 11
32902.97292409511
 21
-11433.25054453051
 31
0.0
  0
LINE
  5
C7D46
330
2
100
AcDbEntity
  8
-PROFILAUSSENKANTE
  6
Continuous
 62
     4
100
AcDbLine
 10
32902.97292409511
 20
-11386.05037208445
 30
0.0
 11
32914.97292409511
 21
-11386.05037208445
 31
0.0
  0
LWPOLYLINE
  5
C7D47
330
2
100
AcDbEntity
  8
-PROFILAUSSENKANTE
  6
Continuous
 62
     4
100
AcDbPolyline
 90
        2
 70
     0
 43
0.0
 10
32914.97292409511
 20
-12321.55054453067
 10
32914.97292409511
 20
-12146.05054453067
  0
DIMENSION
  5
C7D4B
330
2
100
AcDbEntity
  8
-TEXT3
100
AcDbDimension
  2
*D15
 10
33969.41910237905
 20
-12133.55054453067
 30
0.0
 11
33955.19706963689
 21
-11833.40054453059
 31
0.0
 70
    32
 71
     5
 42
600.3000000001539
  3
Kopie(3) von 1-1
100
AcDbAlignedDimension
 13
33850.03585186776
 23
-11533.25054453051
 33
0.0
 14
33850.03585186776
 24
-12133.55054453067
 34
0.0
 50
90.0
100
AcDbRotatedDimension
  0
LINE
  5
C7D4D
330
2
100
AcDbEntity
  8
-PROFILAUSSENKANTE
  6
Continuous
 62
     4
100
AcDbLine
 10
32902.97292409511
 20
-12321.55054453067
 30
0.0
 11
32914.97292409511
 21
-12321.55054453067
 31
0.0
  0
LWPOLYLINE
  5
C7D52
330
2
100
AcDbEntity
  8
-TEXT
100
AcDbPolyline
 90
        5
 70
     0
 43
0.0
 10
32344.41182423288
 20
-13592.04184684486
 10
34295.49161557264
 20
-13592.04184684486
 10
34295.49161557264
 20
-13011.99109806817
 10
32344.41182423288
 20
-13011.99109806817
 10
32344.41182423288
 20
-13592.04184684486
  0
LINE
  5
C7D53
330
2
100
AcDbEntity
  8
-ZEICHNUNGSRAND-INNEN
100
AcDbLine
 10
32344.41182423288
 20
-13354.74835870894
 30
0.0
 11
34295.49161557264
 21
-13354.74835870894
 31
0.0
  0
LINE
  5
C7D54
330
2
100
AcDbEntity
  8
-ZEICHNUNGSRAND-INNEN
100
AcDbLine
 10
32344.41182423288
 20
-13433.84618808758
 30
0.0
 11
34295.49161557264
 21
-13433.84618808758
 31
0.0
  0
MTEXT
  5
C7D55
330
2
100
AcDbEntity
  8
-TEXT2
100
AcDbMText
 10
33540.46964790778
 20
-13397.58813681687
 30
0.0
 40
28.35
 41
1497.554942463246
 71
     5
 72
     5
  1
Geländersystem BALUGA FIX
 73
     1
 44
1.0
1001
ACAD
1000
ACAD_MTEXT_DEFINED_HEIGHT_BEGIN
1070
    46
1040
0.0
1000
ACAD_MTEXT_DEFINED_HEIGHT_END
  0
TEXT
  5
C7D56
330
2
100
AcDbEntity
  8
-TEXT3
100
AcDbText
 10
32350.42325926565
 20
-13463.90336325146
 30
0.0
 40
18.78573447742676
  1
(Benennung)
 41
0.8
  7
LOGOCAD
100
AcDbText
  0
LINE
  5
C7D57
330
2
100
AcDbEntity
  8
-TEXT3
100
AcDbLine
 10
32344.41182423288
 20
-13393.92650232305
 30
0.0
 11
32783.99801100468
 21
-13393.92650232305
 31
0.0
  0
TEXT
  5
C7D59
330
2
100
AcDbEntity
  8
-TEXT3
100
AcDbText
 10
32350.42325926567
 20
-13423.98367748693
 30
0.0
 40
18.78573447742676
  1
Bearb.
 41
0.8
  7
LOGOCAD
100
AcDbText
  0
MTEXT
  5
C7D5A
330
2
100
AcDbEntity
  8
-TEXT2
100
AcDbMText
 10
32965.33358845041
 20
-13518.25979098549
 30
0.0
 40
31.6391317514556
 41
1139.138175864111
 71
     5
 72
     5
  1
Mittelpfosten zur Bodenmontage
 73
     1
 44
1.0
1001
ACAD
1000
ACAD_MTEXT_DEFINED_HEIGHT_BEGIN
1070
    46
1040
0.0
1000
ACAD_MTEXT_DEFINED_HEIGHT_END
  0
MTEXT
  5
C7D5B
330
2
100
AcDbEntity
  8
-TEXT3
100
AcDbMText
 10
32453.10985508103
 20
-13411.72911902617
 30
0.0
 40
23.7293488135917
 41
324.0414358610254
 71
     4
 72
     5
  1
02.11.16     Mall
 73
     1
 44
1.0
1001
ACAD
1000
ACAD_MTEXT_DEFINED_HEIGHT_BEGIN
1070
    46
1040
0.0
1000
ACAD_MTEXT_DEFINED_HEIGHT_END
  0
TEXT
  5
C7D5C
330
2
100
AcDbEntity
  8
-TEXT3
100
AcDbText
 10
32448.10907854827
 20
-13384.0639917224
 30
0.0
 40
18.78573447742676
  1
Datum
 41
0.8
  7
LOGOCAD
100
AcDbText
  0
LINE
  5
C7D5D
330
2
100
AcDbEntity
  8
-TEXT3
100
AcDbLine
 10
32442.09764351549
 20
-13354.00681655852
 30
0.0
 11
32442.09764351549
 21
-13433.84618808758
 31
0.0
  0
LINE
  5
C7D5E
330
2
100
AcDbEntity
  8
-TEXT3
100
AcDbLine
 10
32588.62637243943
 20
-13354.00681655852
 30
0.0
 11
32588.62637243943
 21
-13433.84618808758
 31
0.0
  0
TEXT
  5
C7D5F
330
2
100
AcDbEntity
  8
-TEXT3
100
AcDbText
 10
32594.63780747222
 20
-13384.0639917224
 30
0.0
 40
18.78573447742676
  1
Name
 41
0.8
  7
LOGOCAD
100
AcDbText
  0
LINE
  5
C7D60
330
2
100
AcDbEntity
  8
-TEXT
100
AcDbLine
 10
32783.99801100468
 20
-13433.84618808758
 30
0.0
 11
32783.99801100468
 21
-13354.74835870894
 31
0.0
  0
LINE
  5
C7D64
330
2
100
AcDbEntity
  8
-ZEICHNUNGSRAND-INNEN
100
AcDbLine
 10
33286.08789859063
 20
-13011.99109806817
 30
0.0
 11
33286.08789859063
 21
-13354.74835870894
 31
0.0
  0
LINE
  5
C7D65
330
2
100
AcDbEntity
  8
-TEXT2
100
AcDbLine
 10
33465.16215167038
 20
-13433.84618808758
 30
0.0
 11
33465.16215167038
 21
-13592.04184684486
 31
0.0
  0
MTEXT
  5
C7D67
330
2
100
AcDbEntity
  8
-TEXT2
100
AcDbMText
 10
33907.93312952964
 20
-13518.51877432861
 30
0.0
 40
31.6391317514556
 41
331.4365599988132
 71
     5
 72
     5
  1
Mittelpfosten
 73
     1
 44
1.0
1001
ACAD
1000
ACAD_MTEXT_DEFINED_HEIGHT_BEGIN
1070
    46
1040
0.0
1000
ACAD_MTEXT_DEFINED_HEIGHT_END
  0
LINE
  5
C7D69
330
2
100
AcDbEntity
  8
-TEXT2
100
AcDbLine
 10
34145.50346301423
 20
-13433.84618808758
 30
0.0
 11
34145.50346301423
 21
-13592.04184684486
 31
0.0
  0
MTEXT
  5
C7D6A
330
2
100
AcDbEntity
  8
-TEXT2
100
AcDbMText
 10
34231.48743079899
 20
-13518.51877432861
 30
0.0
 40
31.6391317514556
 41
331.4365599988132
 71
     5
 72
     5
  1
01
 73
     1
 44
1.0
1001
ACAD
1000
ACAD_MTEXT_DEFINED_HEIGHT_BEGIN
1070
    46
1040
0.0
1000
ACAD_MTEXT_DEFINED_HEIGHT_END
  0
LWPOLYLINE
  5
C7D6B
330
2
100
AcDbEntity
  8
-ZEICHNUNGSRAND-INNEN
100
AcDbPolyline
 90
        4
 70
     1
 43
0.0
 10
32344.41182423288
 20
-13592.04184684486
 10
34295.49161557264
 20
-13592.04184684486
 10
34295.49161557264
 20
-10854.79264684486
 10
32344.41182423288
 20
-10854.79264684486
  0
CIRCLE
  5
C7D6F
330
2
100
AcDbEntity
  8
-TEXT3
 62
    40
100
AcDbCircle
 10
33773.55928632907
 20
-11312.05054453051
 30
0.0
 40
21.2
  0
LWPOLYLINE
  5
C7D76
330
2
100
AcDbEntity
  8
-PROFILAUSSENKANTE
  6
Continuous
 62
     4
100
AcDbPolyline
 90
        4
 70
     1
 43
0.0
 10
32876.47292409511
 20
-11335.25054453067
 10
32941.47292409511
 20
-11335.25054453067
 10
32941.47292409511
 20
-11329.17333635912
 10
32876.47292409511
 20
-11329.17333635912
  0
LINE
  5
C7D77
330
2
100
AcDbEntity
  8
-PROFILAUSSENKANTE
  6
Continuous
 62
     4
100
AcDbLine
 10
32876.47292409511
 20
-11330.78869407878
 30
0.0
 11
32941.47292409511
 21
-11330.78869407878
 31
0.0
  0
LINE
  5
C7D78
330
2
100
AcDbEntity
  8
-VERDECKT
  6
STRICHLINIEX2
 62
     9
100
AcDbLine
 10
32876.47292409511
 20
-11333.25054453068
 30
0.0
 11
32941.47292409511
 21
-11333.25054453068
 31
0.0
  0
DIMENSION
  5
C7D79
330
2
100
AcDbEntity
  8
-TEXT3
100
AcDbDimension
  2
*D16
 10
34079.3105458657
 20
-12333.55054453067
 30
0.0
 11
34064.95242853964
 21
-11833.40054453059
 31
0.0
 70
    32
  1
Pfostenhöhe <>
 71
     5
 42
1000.300000000152
  3
Kopie(3) von 1-1
100
AcDbAlignedDimension
 13
33773.55928632907
 23
-11333.25054453051
 33
0.0
 14
33808.55928632906
 24
-12333.55054453067
 34
0.0
 50
90.0
100
AcDbRotatedDimension
  0
LWPOLYLINE
  5
C7D7A
330
2
100
AcDbEntity
  8
-PROFILAUSSENKANTE
  6
Continuous
 62
     4
100
AcDbPolyline
 90
        4
 70
     1
 43
0.0
 10
32831.47292409511
 20
-12333.55054453067
 10
32986.47292409511
 20
-12333.55054453067
 10
32986.47292409511
 20
-12321.55054453067
 10
32831.47292409511
 20
-12321.55054453067
  0
LWPOLYLINE
  5
C7D7B
330
2
100
AcDbEntity
  8
-GLAS
 62
     1
100
AcDbPolyline
 90
        4
 70
     0
 43
0.0
 10
33208.86916317799
 20
-11433.25054453051
 10
32913.97292409512
 20
-11433.25054453051
 10
32913.97292409512
 20
-12233.55054453067
 10
33208.86916317799
 20
-12233.55054453067
  0
LINE
  5
C7D80
330
2
100
AcDbEntity
  8
-PROFILAUSSENKANTE
  6
Continuous
 62
     4
100
AcDbLine
 10
33803.50928639419
 20
-12321.55054453067
 30
0.0
 11
33743.50928639419
 21
-12321.55054453067
 31
0.0
  0
INSERT
  5
C7D81
330
2
100
AcDbEntity
  8
-PROFILAUSSENKANTE
100
AcDbBlockReference
  2
S-SA-OOI
 10
33773.55928632906
 20
-12333.55054453067
 30
0.0
  0
INSERT
  5
C7D85
330
2
100
AcDbEntity
  8
-PROFILAUSSENKANTE
100
AcDbBlockReference
  2
S-AS-OOI
 10
32908.97292409511
 20
-12333.55054453067
 30
0.0
  0
LWPOLYLINE
  5
C7EC6
330
2
100
AcDbEntity
  8
-PROFILAUSSENKANTE
  6
Continuous
 62
     4
100
AcDbPolyline
 90
        4
 70
     1
 43
0.0
 10
33759.88004104608
 20
-11330.78869407861
 10
33761.0592863291
 20
-11329.17333635895
 42
0.3261766537242983
 10
33786.05928632905
 20
-11329.17333635898
 10
33787.23853161212
 20
-11330.78869407861
 42
-0.3261766537242983
  0
LWPOLYLINE
  5
C9287
330
2
100
AcDbEntity
  8
-PROFILAUSSENKANTE
  6
Continuous
 62
     4
100
AcDbPolyline
 90
       11
 70
     0
 43
0.0
 10
33803.55928632908
 20
-12321.55054453067
 10
33803.55928632906
 20
-11433.25054453051
 10
33781.93405518091
 20
-11386.87508667566
 42
-0.1095178116836484
 10
33781.55928632906
 20
-11385.18461362869
 10
33781.5592863291
 20
-11335.2505445305
 10
33765.55928632909
 20
-11335.2505445305
 10
33765.55928632908
 20
-11385.18461362869
 42
-0.1095178116837408
 10
33765.18451747722
 20
-11386.87508667566
 10
33743.55928632907
 20
-11433.25054453051
 10
33743.55928632907
 20
-11466.42338077153
 10
33743.55928632907
 20
-12321.55054453067
  0
DIMENSION
  5
CAFAC
330
2
100
AcDbEntity
  8
-TEXT3
100
AcDbDimension
  2
*D23
 10
33821.55928632907
 20
-12276.64152190163
 30
0.0
 11
33881.13329724313
 21
-12262.41948915947
 31
0.0
 70
    32
 71
     5
 42
18.0
  3
Kopie(3) von 1-1
100
AcDbAlignedDimension
 13
33803.55928632908
 23
-12321.55054453067
 33
0.0
 14
33821.55928632907
 24
-12233.55054453067
 34
0.0
100
AcDbRotatedDimension
  0
DIMENSION
  5
CC53C
330
2
100
AcDbEntity
  8
-TEXT3
100
AcDbDimension
  2
*D35
 10
32986.47292409511
 20
-12387.41147427175
 30
0.0
 11
32908.97292409511
 21
-12373.18944152959
 31
0.0
 70
    32
 71
     5
 42
155.0
  3
Kopie(3) von 1-1
100
AcDbAlignedDimension
 13
32831.47292409511
 23
-12333.55054453067
 33
0.0
 14
32986.47292409511
 24
-12333.55054453067
 34
0.0
100
AcDbRotatedDimension
  0
DIMENSION
  5
CC549
330
2
100
AcDbEntity
  8
-TEXT3
100
AcDbDimension
  2
*D36
 10
33808.55928632906
 20
-12387.41147427175
 30
0.0
 11
33773.55928632906
 21
-12373.18944152959
 31
0.0
 70
    32
 71
     5
 42
70.0
  3
Kopie(3) von 1-1
100
AcDbAlignedDimension
 13
33738.55928632906
 23
-12333.55054453067
 33
0.0
 14
33808.55928632906
 24
-12333.55054453067
 34
0.0
100
AcDbRotatedDimension
  0
DIMENSION
  5
CC556
330
2
100
AcDbEntity
  8
-TEXT3
100
AcDbDimension
  2
*D37
 10
32978.47292409511
 20
-12301.1477087472
 30
0.0
 11
33050.39482041162
 21
-12286.33836359031
 31
0.0
 70
    32
  1
%%C<>
 71
     5
 42
14.0
  3
Kopie(3) von 1-1
100
AcDbAlignedDimension
 13
32964.47292409511
 23
-12321.55054453067
 33
0.0
 14
32978.47292409511
 24
-12321.55054453067
 34
0.0
100
AcDbRotatedDimension
  0
DIMENSION
  5
CC62E
330
2
100
AcDbEntity
  8
-TEXT3
100
AcDbDimension
  2
*D47
 10
33743.55928632907
 20
-11907.06440945765
 30
0.0
 11
33773.55928632907
 21
-11892.8423767155
 31
0.0
 70
    32
 71
     5
 42
60.0
  3
Kopie(3) von 1-1
100
AcDbAlignedDimension
 13
33803.55928632907
 23
-11927.40054453059
 33
0.0
 14
33743.55928632907
 24
-11943.9869626511
 34
0.0
100
AcDbRotatedDimension
  0
DIMENSION
  5
CC63B
330
2
100
AcDbEntity
  8
-TEXT3
100
AcDbDimension
  2
*D48
 10
32914.97292409511
 20
-11907.06440945765
 30
0.0
 11
32974.41801277178
 21
-11907.06440945765
 31
0.0
 70
   160
 71
     5
 42
12.0
  3
Kopie(3) von 1-1
100
AcDbAlignedDimension
 13
32902.97292409511
 23
-11878.40054453067
 33
0.0
 14
32914.97292409511
 24
-11878.40054453067
 34
0.0
100
AcDbRotatedDimension
  0
DIMENSION
  5
CC794
330
2
100
AcDbEntity
  8
-TEXT3
100
AcDbDimension
  2
*D59
 10
33702.6692701135
 20
-12333.55054453067
 30
0.0
 11
33688.62629603437
 21
-12392.99563320733
 31
0.0
 70
    32
 71
     5
 42
12.0
  3
Kopie(3) von 1-1
100
AcDbAlignedDimension
 13
33738.55928632907
 23
-12321.55054453067
 33
0.0
 14
33738.55928632907
 24
-12333.55054453067
 34
0.0
 50
90.0
100
AcDbRotatedDimension
  0
DIMENSION
  5
CC8F3
330
2
100
AcDbEntity
  8
-TEXT3
100
AcDbDimension
  2
*D65
 10
32993.97292409512
 20
-11591.15618162471
 30
0.0
 11
32953.97292409512
 21
-11576.93414888255
 31
0.0
 70
    32
 71
     5
 42
79.99999999999272
  3
Kopie(3) von 1-1
100
AcDbAlignedDimension
 13
32913.97292409512
 23
-11545.75054453051
 33
0.0
 14
32993.97292409512
 24
-11557.24779525827
 34
0.0
100
AcDbRotatedDimension
  0
DIMENSION
  5
CC8F4
330
2
100
AcDbEntity
  8
-TEXT3
100
AcDbDimension
  2
*D66
 10
32823.97292409511
 20
-11591.15618162471
 30
0.0
 11
32863.97292409511
 21
-11576.93414888255
 31
0.0
 70
    32
 71
     5
 42
80.0
  3
Kopie(3) von 1-1
100
AcDbAlignedDimension
 13
32903.97292409511
 23
-11545.75054453051
 33
0.0
 14
32823.97292409511
 24
-11557.24779525827
 34
0.0
100
AcDbRotatedDimension
  0
DIMENSION
  5
CC929
330
2
100
AcDbEntity
  8
-TEXT3
100
AcDbDimension
  2
*D67
 10
33969.41910237905
 20
-11333.25054453051
 30
0.0
 11
33955.19706963689
 21
-11433.25054453051
 31
0.0
 70
    32
 71
     5
 42
199.9999999999982
  3
Kopie(3) von 1-1
100
AcDbAlignedDimension
 13
33850.03585186776
 23
-11533.25054453051
 33
0.0
 14
33780.55928632907
 24
-11333.25054453051
 34
0.0
 50
90.0
100
AcDbRotatedDimension
  0
DIMENSION
  5
CC97E
330
2
100
AcDbEntity
  8
-TEXT3
100
AcDbDimension
  2
*D73
 10
32913.97292409512
 20
-11750.40151456282
 30
0.0
 11
33050.44380676906
 21
-11732.44304321221
 31
0.0
 70
    32
  1
Glasfuge {\H1.083x;~} <>
 71
     5
 42
10.00000000000727
  3
Kopie(3) von 1-1
100
AcDbAlignedDimension
 13
32903.97292409511
 23
-11883.40054453059
 33
0.0
 14
32913.97292409512
 24
-11883.40054453059
 34
0.0
100
AcDbRotatedDimension
  0
DIMENSION
  5
CC9CC
330
2
100
AcDbEntity
  8
-TEXT3
100
AcDbDimension
  2
*D76
 10
33969.41910237905
 20
-12333.55054453067
 30
0.0
 11
33955.19706963689
 21
-12233.55054453066
 31
0.0
 70
    32
 71
     5
 42
200.0
  3
Kopie(3) von 1-1
100
AcDbAlignedDimension
 13
33857.03585186775
 23
-12133.55054453067
 33
0.0
 14
33815.55928632906
 24
-12333.55054453067
 34
0.0
 50
90.0
100
AcDbRotatedDimension
  0
MTEXT
  5
CCB01
330
2
100
AcDbEntity
  8
-TEXT2
100
AcDbMText
 10
33555.22157386203
 20
-13023.15996873643
 30
0.0
 40
58.1580886400464
 41
1096.061878032474
 71
     1
 72
     5
  1
{\fCentury Gothic|b0|i0|c0|p34;\P\fArial|b0|i0|c0|p34;\H0.625x;Industriestraße 7-8\P74740 Adelsheim\P\H0.8x;\C2;Tel.: 06291-6259-0\PFax: 06291-6259-11}
 73
     1
 44
1.0
1001
ACAD
1000
ACAD_MTEXT_DEFINED_HEIGHT_BEGIN
1070
    46
1040
0.0
1000
ACAD_MTEXT_DEFINED_HEIGHT_END
  0
IMAGE
  5
CCB02
330
2
100
AcDbEntity
  8
-TEXT3
 92
      140
310
8C0000000100000084000000060000000500000075114FB1275FE0404B77EBAAA1A0C9C0000000000000000075114FB1275FE040E20A115A1E6BC9C000000000000000003E4EF9B2929EE040E20A115A1E6BC9C000000000000000003E4EF9B2929EE0404B77EBAAA1A0C9C0000000000000000075114FB1275FE0404B77EB
310
AAA1A0C9C00000000000000000
100
AcDbRasterImage
 90
        0
 10
33529.24039414796
 20
-13121.26302855801
 30
0.0
 11
1.0290952398496
 21
0.0
 31
0.0
 12
0.0000000000000001
 22
1.0290952398496
 32
0.0
 13
493.0
 23
104.0
340
CCAFC
 70
     7
280
     0
281
    50
282
    50
283
     0
360
CCB03
 71
     1
 91
        2
 14
-0.5
 24
-0.5
 14
492.4999999999999
 24
103.5
  0
LWPOLYLINE
  5
CCB18
330
2
100
AcDbEntity
  8
-PROFILAUSSENKANTE
  6
Continuous
 62
     4
100
AcDbPolyline
 90
        2
 70
     0
 43
0.0
 10
32914.97292409511
 20
-12121.05054453067
 10
32914.97292409511
 20
-11545.75054453051
  0
LWPOLYLINE
  5
CCB19
330
2
100
AcDbEntity
  8
-PROFILAUSSENKANTE
  6
Continuous
 62
     4
100
AcDbPolyline
 90
        2
 70
     0
 43
0.0
 10
32902.97292409511
 20
-12146.05054453067
 10
32902.97292409511
 20
-12321.55054453067
  0
LINE
  5
CCB1A
330
2
100
AcDbEntity
  8
-VERDECKT
  6
STRICHLINIEX2
 62
     9
100
AcDbLine
 10
32902.97292409511
 20
-12121.05054453067
 30
0.0
 11
32902.97292409511
 21
-12146.05054453067
 31
0.0
  0
LINE
  5
CCB1B
330
2
100
AcDbEntity
  8
-VERDECKT
  6
STRICHLINIEX2
 62
     9
100
AcDbLine
 10
32914.97292409511
 20
-12121.05054453067
 30
0.0
 11
32914.97292409511
 21
-12146.05054453067
 31
0.0
  0
LWPOLYLINE
  5
CCB1C
330
2
100
AcDbEntity
  8
-PROFILAUSSENKANTE
  6
Continuous
 62
     4
100
AcDbPolyline
 90
        4
 70
     0
 43
0.0
 10
32914.97292409511
 20
-11520.75054453051
 10
32914.97292409511
 20
-11335.25054453067
 10
32902.97292409511
 20
-11335.25054453067
 10
32902.97292409511
 20
-11520.75054453051
  0
LINE
  5
CCB1D
330
2
100
AcDbEntity
  8
-PROFILAUSSENKANTE
  6
Continuous
 62
     4
100
AcDbLine
 10
32914.9729240951
 20
-11520.75054453051
 30
0.0
 11
32914.97292409511
 21
-11380.25054453051
 31
0.0
  0
LWPOLYLINE
  5
CCB1E
330
2
100
AcDbEntity
  8
-PROFILAUSSENKANTE
  6
Continuous
 62
     4
100
AcDbPolyline
 90
        2
 70
     0
 43
0.0
 10
32902.97292409511
 20
-11545.75054453051
 10
32902.97292409511
 20
-12121.05054453067
  0
LINE
  5
CCB1F
330
2
100
AcDbEntity
  8
-VERDECKT
  6
STRICHLINIEX2
 62
     9
100
AcDbLine
 10
32902.97292409511
 20
-11520.75054453051
 30
0.0
 11
32902.97292409511
 21
-11545.75054453051
 31
0.0
  0
LINE
  5
CCB20
330
2
100
AcDbEntity
  8
-VERDECKT
  6
STRICHLINIEX2
 62
     9
100
AcDbLine
 10
32914.97292409511
 20
-11520.75054453051
 30
0.0
 11
32914.97292409511
 21
-11545.75054453051
 31
0.0
  0
MTEXT
  5
CCBB4
330
2
100
AcDbEntity
  8
-TEXT2
100
AcDbMText
 10
34176.73419548272
 20
-13459.11895771325
 30
0.0
 40
20.0
 41
331.4365599988132
 71
     5
 72
     5
  1
Blatt
 73
     1
 44
1.0
1001
ACAD
1000
ACAD_MTEXT_DEFINED_HEIGHT_BEGIN
1070
    46
1040
0.0
1000
ACAD_MTEXT_DEFINED_HEIGHT_END
  0
MTEXT
  5
CCC66
330
2
100
AcDbEntity
  8
-TEXT2
100
AcDbMText
 10
32370.28994374248
 20
-13182.31711142364
 30
0.0
 40
31.6391317514556
 41
1018.170453773077
 71
     4
 72
     5
  1
Alle Rechte vorbehalten, einschließlich des\PVervielfälltigens, Einlesens auf elektronischen\PDatenträgern und die Weitergabe an dritte\PPersonen nur nach ausdrücklicher\PGenehmigung der Firma Glassline GmbH
 73
     1
 44
1.0
1001
ACAD
1000
ACAD_MTEXT_DEFINED_HEIGHT_BEGIN
1070
    46
1040
0.0
1000
ACAD_MTEXT_DEFINED_HEIGHT_END
  0
DIMENSION
  5
CCD0C
330
2
100
AcDbEntity
  8
-TEXT3
100
AcDbDimension
  2
*D84
 10
32977.03149631235
 20
-11537.63666179771
 30
0.0
 11
33080.65848895461
 21
-11510.8077458643
 31
0.0
 70
    35
 71
     5
 42
35.00000000000364
  3
Kopie(3) von 1-1
100
AcDbDiametricDimension
 15
33010.91435187788
 25
-11528.86442726332
 35
0.0
 40
0.0
1001
ACAD
1000
DSTYLE
1002
{
1070
   288
1070
     1
1002
}
  0
MTEXT
  5
CCE12
330
2
100
AcDbEntity
  8
-TEXT2
100
AcDbMText
 10
32428.93268656473
 20
-12832.71136473649
 30
0.0
 40
25.0
 41
1018.170453773077
 71
     4
 72
     5
  1
Pfosten:^IFlach 60 x 12 mm\PFußplatte:^IFlach 155 x 70 x 12 mm\PMaterial:^IEdelstahl 1.4301, geschliffen\P^I^Ioder\P^I^IStahl, feuerverzinkt\PPunkthalter:^I%%C35 mm, Edelstahl 1.4301\PGlas:^I^IVSG-ESG 2 x 6 mm bzw. 2 x 8 mm
 73
     1
 44
1.0
1001
ACAD
1000
ACAD_MTEXT_DEFINED_HEIGHT_BEGIN
1070
    46
1040
0.0
1000
ACAD_MTEXT_DEFINED_HEIGHT_END
  0
DIMENSION
  5
CCF35
330
2
100
AcDbEntity
  8
-TEXT3
100
AcDbDimension
  2
*D90
 10
33899.45972656984
 20
-11433.25054453051
 30
0.0
 11
33885.23769382769
 21
-11483.25054453051
 31
0.0
 70
    32
  1
80-250
 71
     5
 42
100.0
  3
Kopie(3) von 1-1
100
AcDbAlignedDimension
 13
33850.03585186776
 23
-11533.25054453051
 33
0.0
 14
33835.07928632908
 24
-11433.25054453051
 34
0.0
 50
90.0
100
AcDbRotatedDimension
  0
DIMENSION
  5
CCF4B
330
2
100
AcDbEntity
  8
-TEXT3
100
AcDbDimension
  2
*D91
 10
33899.45972656984
 20
-12133.55054453067
 30
0.0
 11
33885.23769382769
 21
-12183.55054453066
 31
0.0
 70
    32
  1
80-500
 71
     5
 42
100.0
  3
Kopie(3) von 1-1
100
AcDbAlignedDimension
 13
33835.07928632908
 23
-12233.55054453067
 33
0.0
 14
33850.03585186776
 24
-12133.55054453067
 34
0.0
 50
90.0
100
AcDbRotatedDimension
  0
ENDSEC
  0
SECTION
  2
OBJECTS
  0
DICTIONARY
  5
7
330
0
100
AcDbDictionary
281
     1
  3
ACAD_COLOR
350
54
  3
ACAD_GROUP
350
50
  3
ACAD_IMAGE_DICT
350
8DFE0
  3
ACAD_IMAGE_VARS
350
8DFE4
  3
ACAD_LAYOUT
350
3C
  3
ACAD_MATERIAL
350
53
  3
ACAD_MLINESTYLE
350
51
  3
ACAD_PLOTSETTINGS
350
52
  3
ACAD_PLOTSTYLENAME
350
6
  3
ACAD_TABLESTYLE
350
11C5F
  3
AcDbVariableDictionary
350
5E
  3
AEC_CLASSIFICATION_SYSTEM_DEFS
350
12D34
  3
AEC_PROPERTY_SET_DEFS
350
12D35
  3
ASE_INDEX_DICTIONARY
350
88576
  0
DICTIONARY
  5
42
330
41
100
AcDbDictionary
280
     1
281
     1
  3
ACAD_LAYERFILTERS
360
A6
  3
ACAD_LAYERSTATES
360
43
  0
DICTIONARY
  5
12DFF
330
2
100
AcDbDictionary
280
     1
281
     1
  3
ACAD_SORTENTS
360
12E00
  0
DICTIONARY
  5
B5A65
330
B5A64
100
AcDbDictionary
280
     1
281
     1
  3
ACAD_SORTENTS
360
C1E76
  0
DICTIONARY
  5
B5A6B
330
B5A6A
100
AcDbDictionary
280
     1
281
     1
  3
ACAD_SORTENTS
360
C1E77
  0
IMAGEDEF_REACTOR
  5
CCB03
330
CCB02
100
AcDbRasterImageDefReactor
 90
        2
330
CCB02
  0
DICTIONARY
  5
54
102
{ACAD_REACTORS
330
7
102
}
330
7
100
AcDbDictionary
281
     1
  0
DICTIONARY
  5
50
102
{ACAD_REACTORS
330
7
102
}
330
7
100
AcDbDictionary
281
     1
  0
DICTIONARY
  5
8DFE0
102
{ACAD_REACTORS
330
7
102
}
330
7
100
AcDbDictionary
281
     1
  3
Baluga_Logo_RGB_72dpi_neg
350
A1DE7
  3
DF D3-FS auf-FO
350
8DFE1
  3
DF FS auf
350
8DFE2
  3
EF E1-FS auf-FO
350
8E91F
  3
EF FS auf
350
8E7B0
  3
FE
350
9778E
  3
FM
350
97A70
  3
FT
350
AE06B
  3
G
350
97A71
  3
Glassline_Logo_RGB_72dpi
350
CCAFC
  3
Glassline_Logo_RGB_72dpi_neg
350
A1DE8
  3
O
350
B5B94
  3
S
350
A1DE9
  3
S1
350
BA4D8
  3
S3
350
97A72
  0
RASTERVARIABLES
  5
8DFE4
102
{ACAD_REACTORS
330
7
102
}
330
7
100
AcDbRasterVariables
 90
        0
 70
     0
 71
     1
 72
     1
  0
DICTIONARY
  5
3C
102
{ACAD_REACTORS
330
7
102
}
330
7
100
AcDbDictionary
281
     1
  3
Layout1
350
40
  3
Model
350
3B
  0
DICTIONARY
  5
53
102
{ACAD_REACTORS
330
7
102
}
330
7
100
AcDbDictionary
281
     1
  0
DICTIONARY
  5
51
102
{ACAD_REACTORS
330
7
102
}
330
7
100
AcDbDictionary
281
     1
  3
STANDARD
350
55
  0
DICTIONARY
  5
52
102
{ACAD_REACTORS
330
7
102
}
330
7
100
AcDbDictionary
281
     1
  0
ACDBDICTIONARYWDFLT
  5
6
102
{ACAD_REACTORS
330
7
102
}
330
7
100
AcDbDictionary
281
     1
  3
Normal
350
5
100
AcDbDictionaryWithDefault
340
5
  0
DICTIONARY
  5
11C5F
102
{ACAD_REACTORS
330
7
102
}
330
7
100
AcDbDictionary
281
     1
  3
Standard
350
11C60
  0
DICTIONARY
  5
5E
102
{ACAD_REACTORS
330
7
102
}
330
7
100
AcDbDictionary
281
     1
  3
CTABLESTYLE
350
12DB6
  3
DIMASSOC
350
60
  3
HIDETEXT
350
5F
  3
PROJECTNAME
350
61
  3
SORTENTS
350
2714
  0
DICTIONARY
  5
12D34
102
{ACAD_REACTORS
330
7
102
}
330
7
100
AcDbDictionary
281
     1
  0
DICTIONARY
  5
12D35
102
{ACAD_REACTORS
330
7
102
}
330
7
100
AcDbDictionary
281
     1
  0
DICTIONARY
  5
88576
102
{ACAD_REACTORS
330
7
102
}
330
7
100
AcDbDictionary
281
     1
  3
ASEBlockHierarchyIndexRecord
350
88577
1001
DCO15
1040
1587384448.274
  0
DICTIONARY
  5
A6
102
{ACAD_REACTORS
330
42
102
}
330
42
100
AcDbDictionary
280
     1
281
     1
  0
DICTIONARY
  5
43
102
{ACAD_REACTORS
330
42
102
}
330
42
100
AcDbDictionary
281
     1
  0
SORTENTSTABLE
  5
12E00
102
{ACAD_REACTORS
330
12DFF
102
}
330
12DFF
100
AcDbSortentsTable
330
2
331
C7D54
  5
C7D5A
331
C7D5C
  5
C7D62
331
C7D64
  5
C7D6A
331
C7D2D
  5
C7D2E
331
CC9CC
  5
CCB1B
331
CCB18
  5
C7D4E
331
CCB20
  5
CCB37
331
C7D35
  5
C7D36
331
C7D45
  5
C7D47
331
CC53C
  5
CC724
331
C7D4D
  5
C7D53
331
C7D55
  5
C7D5B
331
C7D5D
  5
C7D65
331
C7D65
  5
C7D6B
331
CCB01
  5
CCB2A
331
CC97E
  5
CCB18
331
CCB19
  5
C7D51
331
C7D36
  5
C7D37
331
C7D3E
  5
C7D3F
331
C7D85
  5
C7F41
331
C7D46
  5
C7D49
331
C7D56
  5
C7D5C
331
C7D1F
  5
C7D1F
331
C7D5E
  5
C7D66
331
C7D27
  5
C7D28
331
CCB02
  5
CCB2B
331
CCB1A
  5
CCB34
331
C7D37
  5
C7D38
331
C7D76
  5
C7D7F
331
C7D3F
  5
C7D46
331
C7D47
  5
C7D4C
331
CC63B
  5
CC844
331
C7D57
  5
C7D5D
331
C7D20
  5
C7D20
331
C7D5F
  5
C7D67
331
C7D28
  5
C7D29
331
C7D67
  5
C7D70
331
C7D6F
  5
C7D7B
331
CC556
  5
CC754
331
CC929
  5
CCB07
331
CC794
  5
CC926
331
CCB1B
  5
CCB35
331
C7D30
  5
C7D31
331
C7D38
  5
C7D39
331
C7D77
  5
C7D81
331
C7EC6
  5
C7F42
331
CAFAC
  5
CC5B6
331
C7D60
  5
C7D68
331
C7D29
  5
C7D2A
331
CC8F3
  5
CC9CC
331
CCB1C
  5
C7D4F
331
C7D31
  5
C7D32
331
C7D39
  5
C7D3A
331
C7D78
  5
C7D82
331
C7D80
  5
C7F3F
331
C7D59
  5
C7D5F
331
C7D2A
  5
C7D2B
331
C7D69
  5
C7D78
331
CC8F4
  5
CC9FD
331
CCB1D
  5
C7D40
331
C7D32
  5
C7D33
331
C7D79
  5
C7EC5
331
C7D81
  5
C7F40
331
CC62E
  5
CC810
331
C7D52
  5
C7D58
331
C7D5A
  5
C7D60
331
CC549
  5
CC753
331
C7D23
  5
C7D23
331
C7D2B
  5
C7D2C
331
C7D6A
  5
C7D79
331
CCB1E
  5
C7D50
331
C9287
  5
C7D26
331
C7D33
  5
C7D34
331
C7D7A
  5
C7F3D
331
C7D4B
  5
C7D52
331
C7D53
  5
C7D59
331
C7D5B
  5
C7D61
331
C7D2C
  5
C7D2D
331
C7D6B
  5
C7D7A
331
CCB1F
  5
CCB36
331
C7D34
  5
C7D35
331
C7D7B
  5
C7F3E
  0
SORTENTSTABLE
  5
C1E76
102
{ACAD_REACTORS
330
B5A65
102
}
330
B5A65
100
AcDbSortentsTable
330
B5A64
  0
SORTENTSTABLE
  5
C1E77
102
{ACAD_REACTORS
330
B5A6B
102
}
330
B5A6B
100
AcDbSortentsTable
330
B5A6A
  0
IMAGEDEF
  5
A1DE7
102
{ACAD_REACTORS
330
8DFE0
102
}
330
8DFE0
100
AcDbRasterImageDef
 90
        0
  1
S:\Marketing\Logos\Baluga\Schwarz\Baluga_Logo_RGB_72dpi_neg.tif
 10
560.0
 20
99.0
 11
0.3527777777777778
 21
0.3527777777777778
280
     1
281
     5
  0
IMAGEDEF
  5
8DFE1
102
{ACAD_REACTORS
330
8DFE0
102
}
330
8DFE0
100
AcDbRasterImageDef
 90
        0
  1
S:\Geländerfotos\Technische Dokumentation\Doppelpfosten_Übersicht\DF D3-FS auf-FO.jpg
 10
1181.0
 20
2362.0
 11
0.0846666666666667
 21
0.0846666666666667
280
     1
281
     5
  0
IMAGEDEF
  5
8DFE2
102
{ACAD_REACTORS
330
8DFE0
102
}
330
8DFE0
100
AcDbRasterImageDef
 90
        0
  1
S:\Geländerfotos\Technische Dokumentation\Doppelpfosten_Glasverbindung\DF FS auf.jpg
 10
711.0
 20
473.0
 11
0.0014064697609001
 21
0.0014064697609001
280
     1
281
     0
  0
IMAGEDEF
  5
8E91F
102
{ACAD_REACTORS
330
8DFE0
102
}
330
8DFE0
100
AcDbRasterImageDef
 90
        0
  1
S:\Geländerfotos\Technische Dokumentation\Einfachpfosten_Übersicht\EF E1-FS auf-FO.jpg
 10
1181.0
 20
2362.0
 11
0.0846666666666667
 21
0.0846666666666667
280
     1
281
     5
  0
IMAGEDEF
  5
8E7B0
102
{ACAD_REACTORS
330
8DFE0
102
}
330
8DFE0
100
AcDbRasterImageDef
 90
        0
  1
S:\Geländerfotos\Technische Dokumentation\Einfachpfosten_Glasverbindung\EF FS auf.jpg
 10
711.0
 20
473.0
 11
0.0014064697609001
 21
0.0014064697609001
280
     1
281
     0
  0
IMAGEDEF
  5
9778E
102
{ACAD_REACTORS
330
8DFE0
102
}
330
8DFE0
100
AcDbRasterImageDef
 90
        0
  1
S:\CAD-Arbeitsordner\ASV 4\Technische Doku\Bilder Prospekt\Single\Glasverbindung\Flach-Spider-System\FE.jpg
 10
709.0
 20
474.0
 11
0.0846666666666667
 21
0.0846666666666667
280
     1
281
     5
  0
IMAGEDEF
  5
97A70
102
{ACAD_REACTORS
330
8DFE0
102
}
330
8DFE0
100
AcDbRasterImageDef
 90
        0
  1
S:\CAD-Arbeitsordner\ASV 4\Technische Doku\Bilder Prospekt\Single\Glasverbindung\FM.jpg
 10
711.0
 20
473.0
 11
0.0846666666666667
 21
0.0846666666666667
280
     1
281
     5
  0
IMAGEDEF
  5
AE06B
102
{ACAD_REACTORS
330
8DFE0
102
}
330
8DFE0
100
AcDbRasterImageDef
 90
        0
  1
S:\CAD-Arbeitsordner\ASV 4\Technische Doku\Bilder Prospekt\Single\Glasverbindung\Flach-Spider-System\FT.jpg
 10
709.0
 20
490.0
 11
0.0846666666666667
 21
0.0846666666666667
280
     1
281
     5
  0
IMAGEDEF
  5
97A71
102
{ACAD_REACTORS
330
8DFE0
102
}
330
8DFE0
100
AcDbRasterImageDef
 90
        0
  1
S:\CAD-Arbeitsordner\ASV 4\Technische Doku\Bilder Prospekt\Single\Anschluß an den Baukörper\G.jpg
 10
711.0
 20
473.0
 11
0.0846666666666667
 21
0.0846666666666667
280
     1
281
     5
  0
IMAGEDEF
  5
CCAFC
102
{ACAD_REACTORS
330
8DFE0
330
CCB00
330
CCB03
330
CCB06
330
CCB09
330
CCB0C
330
CCB0F
102
}
330
8DFE0
100
AcDbRasterImageDef
 90
        0
  1
T:\Marketing\Öffentlich\Logo\Glassline_Logo_RGB_72dpi.jpg
 10
493.0
 20
104.0
 11
0.3527777777777778
 21
0.3527777777777778
280
     1
281
     5
  0
IMAGEDEF
  5
A1DE8
102
{ACAD_REACTORS
330
8DFE0
102
}
330
8DFE0
100
AcDbRasterImageDef
 90
        0
  1
S:\Marketing\Logos\Glassline\Neu\Schwarz\Glassline_Logo_RGB_72dpi_neg.tif
 10
560.0
 20
99.0
 11
0.3527777777777778
 21
0.3527777777777778
280
     1
281
     5
  0
IMAGEDEF
  5
B5B94
102
{ACAD_REACTORS
330
8DFE0
102
}
330
8DFE0
100
AcDbRasterImageDef
 90
        0
  1
S:\CAD-Arbeitsordner\ASV 4\Technische Doku\Bilder Prospekt\Single\Anschluß an den Baukörper\O.jpg
 10
711.0
 20
473.0
 11
0.0846666666666667
 21
0.0846666666666667
280
     1
281
     5
  0
IMAGEDEF
  5
A1DE9
102
{ACAD_REACTORS
330
8DFE0
102
}
330
8DFE0
100
AcDbRasterImageDef
 90
        0
  1
S:\CAD-Arbeitsordner\ASV 4\Technische Doku\Bilder Prospekt\Single\Anschluß an den Baukörper\S.jpg
 10
711.0
 20
473.0
 11
0.0846666666666667
 21
0.0846666666666667
280
     1
281
     5
  0
IMAGEDEF
  5
BA4D8
102
{ACAD_REACTORS
330
8DFE0
102
}
330
8DFE0
100
AcDbRasterImageDef
 90
        0
  1
S:\CAD-Arbeitsordner\ASV 4\Technische Doku\Bilder Prospekt\Single\Designvariante\S1.jpg
 10
711.0
 20
473.0
 11
0.0846666666666667
 21
0.0846666666666667
280
     1
281
     5
  0
IMAGEDEF
  5
97A72
102
{ACAD_REACTORS
330
8DFE0
102
}
330
8DFE0
100
AcDbRasterImageDef
 90
        0
  1
S:\CAD-Arbeitsordner\ASV 4\Technische Doku\Bilder Prospekt\Single\Designvariante\S3.jpg
 10
711.0
 20
473.0
 11
0.0846666666666667
 21
0.0846666666666667
280
     1
281
     5
  0
LAYOUT
  5
40
102
{ACAD_REACTORS
330
3C
102
}
330
3C
100
AcDbPlotSettings
  1

  2
\\weckesser\hp deskjet 840c series
  4

  6

 40
0.0
 41
0.0
 42
0.0
 43
0.0
 44
0.0
 45
0.0
 46
0.0
 47
0.0
 48
0.0
 49
0.0
140
0.0
141
0.0
142
1.0
143
1.0
 70
   688
 72
     0
 73
     0
 74
     5
  7
brüstung.ctb
 75
    16
147
1.0
 76
     0
 77
     2
 78
   300
148
0.0
149
0.0
100
AcDbLayout
  1
Layout1
 70
     1
 71
     1
 10
0.0
 20
0.0
 11
12.0
 21
9.0
 12
0.0
 22
0.0
 32
0.0
 14
1.000000000000000E+20
 24
1.000000000000000E+20
 34
1.000000000000000E+20
 15
-1.000000000000000E+20
 25
-1.000000000000000E+20
 35
-1.000000000000000E+20
146
0.0
 13
0.0
 23
0.0
 33
0.0
 16
1.0
 26
0.0
 36
0.0
 17
0.0
 27
1.0
 37
0.0
 76
     0
330
3D
  0
LAYOUT
  5
3B
102
{ACAD_REACTORS
330
3C
102
}
330
3C
100
AcDbPlotSettings
  1

  2
Adobe PDF
  4
A4
  6

 40
3.174999952316284
 41
3.174999952316284
 42
3.175003051757812
 43
3.17498779296875
 44
209.9098358154297
 45
297.0318298339844
 46
0.0
 47
73.61681887927471
 48
6351.934222492825
 49
396.6156545732088
140
11044.98577421282
141
3703.79963397321
142
1.0
143
23.05489981448933
 70
 28340
 72
     1
 73
     0
 74
     4
  7
brüstung.ctb
 75
     0
147
0.0433747276304159
 76
     0
 77
     2
 78
   150
148
-6351.934222492825
149
-396.6156545732088
100
AcDbLayout
  1
Model
 70
     1
 71
     0
 10
0.0
 20
0.0
 11
12.0
 21
9.0
 12
0.0
 22
0.0
 32
0.0
 14
0.0
 24
0.0
 34
0.0
 15
0.0
 25
0.0
 35
0.0
146
0.0
 13
0.0
 23
0.0
 33
0.0
 16
1.0
 26
0.0
 36
0.0
 17
0.0
 27
1.0
 37
0.0
 76
     0
330
2
1001
ACAD_PSEXT
1000
Adobe PDF
1000
Adobe PDF Converter
1000
Eigene Dateien
1000

1070
     0
  0
MLINESTYLE
  5
55
102
{ACAD_REACTORS
330
51
102
}
330
51
100
AcDbMlineStyle
  2
STANDARD
 70
     0
  3

 62
     0
 51
90.0
 52
90.0
 71
     2
 49
0.5
 62
   256
  6
BYLAYER
 49
-0.5
 62
   256
  6
BYLAYER
  0
ACDBPLACEHOLDER
  5
5
102
{ACAD_REACTORS
330
6
102
}
330
6
  0
TABLESTYLE
  5
11C60
102
{ACAD_REACTORS
330
11C5F
102
}
330
11C5F
100
AcDbTableStyle
  3
Standard
 70
     0
 71
     0
 40
0.06
 41
0.06
280
     0
281
     0
  7
STANDARD
140
0.18
170
     2
 62
     0
 63
     7
283
     0
274
    -2
284
     1
 64
     0
275
    -2
285
     1
 65
     0
276
    -2
286
     1
 66
     0
277
    -2
287
     1
 67
     0
278
    -2
288
     1
 68
     0
279
    -2
289
     1
 69
     0
  7
STANDARD
140
0.25
170
     5
 62
     0
 63
     7
283
     0
274
    -2
284
     1
 64
     0
275
    -2
285
     1
 65
     0
276
    -2
286
     1
 66
     0
277
    -2
287
     1
 67
     0
278
    -2
288
     1
 68
     0
279
    -2
289
     1
 69
     0
  7
STANDARD
140
0.18
170
     5
 62
     0
 63
     7
283
     0
274
    -2
284
     1
 64
     0
275
    -2
285
     1
 65
     0
276
    -2
286
     1
 66
     0
277
    -2
287
     1
 67
     0
278
    -2
288
     1
 68
     0
279
    -2
289
     1
 69
     0
  0
DICTIONARYVAR
  5
12DB6
102
{ACAD_REACTORS
330
5E
102
}
330
5E
100
DictionaryVariables
280
     0
  1
STANDARD
  0
DICTIONARYVAR
  5
60
102
{ACAD_REACTORS
330
5E
102
}
330
5E
100
DictionaryVariables
280
     0
  1
1
  0
DICTIONARYVAR
  5
5F
102
{ACAD_REACTORS
330
5E
102
}
330
5E
100
DictionaryVariables
280
     0
  1
1
  0
DICTIONARYVAR
  5
61
102
{ACAD_REACTORS
330
5E
102
}
330
5E
100
DictionaryVariables
280
     0
  1

  0
DICTIONARYVAR
  5
2714
102
{ACAD_REACTORS
330
5E
102
}
330
5E
100
DictionaryVariables
280
     0
  1
96
  0
XRECORD
  5
88577
102
{ACAD_REACTORS
330
88576
102
}
330
88576
100
AcDbXrecord
280
     1
330
0
330
0
330
0
330
0
330
0
330
0
330
0
330
0
330
0
330
0
330
0
330
0
330
0
330
0
330
0
330
0
330
0
330
0
330
0
330
0
330
0
330
0
330
0
330
0
330
0
330
0
330
0
330
0
330
0
330
0
330
0
330
0
330
0
330
0
  0
ENDSEC
  0
EOF
