  0
SECTION
  2
HEADER
  9
$ACADVER
  1
AC1015
  9
$ACADMAINTVER
 70
    18
  9
$DWGCODEPAGE
  3
ANSI_1252
  9
$INSBASE
 10
-7041.742961063206
 20
3143.965539815083
 30
0.0
  9
$EXTMIN
 10
-7061.742961063206
 20
123.9655398150823
 30
0.0
  9
$EXTMAX
 10
17884.37403655774
 20
8478.174147914165
 30
0.0
  9
$LIMMIN
 10
0.0
 20
0.0
  9
$LIMMAX
 10
420.0
 20
297.0
  9
$ORTHOMODE
 70
     1
  9
$REGENMODE
 70
     1
  9
$FILLMODE
 70
     1
  9
$QTEXTMODE
 70
     0
  9
$MIRRTEXT
 70
     0
  9
$LTSCALE
 40
1.0
  9
$ATTMODE
 70
     1
  9
$TEXTSIZE
 40
2.5
  9
$TRACEWID
 40
1.0
  9
$TEXTSTYLE
  7
Standard
  9
$CLAYER
  8
-PROFILAUSSENKANTET
  9
$CELTYPE
  6
ByLayer
  9
$CECOLOR
 62
   256
  9
$CELTSCALE
 40
1.0
  9
$DISPSILH
 70
     0
  9
$DIMSCALE
 40
1.0
  9
$DIMASZ
 40
3.5
  9
$DIMEXO
 40
1.0
  9
$DIMDLI
 40
10.0
  9
$DIMRND
 40
0.0
  9
$DIMDLE
 40
0.0
  9
$DIMEXE
 40
1.0
  9
$DIMTP
 40
0.1
  9
$DIMTM
 40
0.1
  9
$DIMTXT
 40
3.5
  9
$DIMCEN
 40
0.0
  9
$DIMTSZ
 40
0.0
  9
$DIMTOL
 70
     0
  9
$DIMLIM
 70
     0
  9
$DIMTIH
 70
     0
  9
$DIMTOH
 70
     0
  9
$DIMSE1
 70
     0
  9
$DIMSE2
 70
     0
  9
$DIMTAD
 70
     1
  9
$DIMZIN
 70
     8
  9
$DIMBLK
  1

  9
$DIMASO
 70
     1
  9
$DIMSHO
 70
     1
  9
$DIMPOST
  1

  9
$DIMAPOST
  1
"
  9
$DIMALT
 70
     0
  9
$DIMALTD
 70
     2
  9
$DIMALTF
 40
0.0393701
  9
$DIMLFAC
 40
1.0
  9
$DIMTOFL
 70
     1
  9
$DIMTVP
 40
0.0
  9
$DIMTIX
 70
     0
  9
$DIMSOXD
 70
     0
  9
$DIMSAH
 70
     0
  9
$DIMBLK1
  1

  9
$DIMBLK2
  1

  9
$DIMSTYLE
  2
AM_DIN
  9
$DIMCLRD
 70
   256
  9
$DIMCLRE
 70
   256
  9
$DIMCLRT
 70
     2
  9
$DIMTFAC
 40
0.71
  9
$DIMGAP
 40
1.5
  9
$DIMJUST
 70
     0
  9
$DIMSD1
 70
     0
  9
$DIMSD2
 70
     0
  9
$DIMTOLJ
 70
     0
  9
$DIMTZIN
 70
     8
  9
$DIMALTZ
 70
     0
  9
$DIMALTTZ
 70
     0
  9
$DIMUPT
 70
     0
  9
$DIMDEC
 70
     2
  9
$DIMTDEC
 70
     3
  9
$DIMALTU
 70
     2
  9
$DIMALTTD
 70
     4
  9
$DIMTXSTY
  7
Standard
  9
$DIMAUNIT
 70
     0
  9
$DIMADEC
 70
     0
  9
$DIMALTRND
 40
0.0
  9
$DIMAZIN
 70
     2
  9
$DIMDSEP
 70
    46
  9
$DIMATFIT
 70
     3
  9
$DIMFRAC
 70
     0
  9
$DIMLDRBLK
  1

  9
$DIMLUNIT
 70
     2
  9
$DIMLWD
 70
    -1
  9
$DIMLWE
 70
    -1
  9
$DIMTMOVE
 70
     0
  9
$LUNITS
 70
     2
  9
$LUPREC
 70
     4
  9
$SKETCHINC
 40
1.0
  9
$FILLETRAD
 40
6.0
  9
$AUNITS
 70
     0
  9
$AUPREC
 70
     0
  9
$MENU
  1
.
  9
$ELEVATION
 40
0.0
  9
$PELEVATION
 40
0.0
  9
$THICKNESS
 40
0.0
  9
$LIMCHECK
 70
     0
  9
$CHAMFERA
 40
2.0
  9
$CHAMFERB
 40
2.0
  9
$CHAMFERC
 40
0.0
  9
$CHAMFERD
 40
0.0
  9
$SKPOLY
 70
     0
  9
$TDCREATE
 40
2458738.314460429
  9
$TDUCREATE
 40
2458738.231127095
  9
$TDUPDATE
 40
2458744.548181910
  9
$TDUUPDATE
 40
2458744.464848577
  9
$TDINDWG
 40
1.1845080093
  9
$TDUSRTIMER
 40
1.1845076852
  9
$USRTIMER
 70
     1
  9
$ANGBASE
 50
0.0
  9
$ANGDIR
 70
     0
  9
$PDMODE
 70
     0
  9
$PDSIZE
 40
0.0
  9
$PLINEWID
 40
0.0
  9
$SPLFRAME
 70
     0
  9
$SPLINETYPE
 70
     6
  9
$SPLINESEGS
 70
     8
  9
$HANDSEED
  5
304
  9
$SURFTAB1
 70
     6
  9
$SURFTAB2
 70
     6
  9
$SURFTYPE
 70
     6
  9
$SURFU
 70
     6
  9
$SURFV
 70
     6
  9
$UCSBASE
  2

  9
$UCSNAME
  2

  9
$UCSORG
 10
0.0
 20
0.0
 30
0.0
  9
$UCSXDIR
 10
1.0
 20
0.0
 30
0.0
  9
$UCSYDIR
 10
0.0
 20
1.0
 30
0.0
  9
$UCSORTHOREF
  2

  9
$UCSORTHOVIEW
 70
     0
  9
$UCSORGTOP
 10
0.0
 20
0.0
 30
0.0
  9
$UCSORGBOTTOM
 10
0.0
 20
0.0
 30
0.0
  9
$UCSORGLEFT
 10
0.0
 20
0.0
 30
0.0
  9
$UCSORGRIGHT
 10
0.0
 20
0.0
 30
0.0
  9
$UCSORGFRONT
 10
0.0
 20
0.0
 30
0.0
  9
$UCSORGBACK
 10
0.0
 20
0.0
 30
0.0
  9
$PUCSBASE
  2

  9
$PUCSNAME
  2

  9
$PUCSORG
 10
0.0
 20
0.0
 30
0.0
  9
$PUCSXDIR
 10
1.0
 20
0.0
 30
0.0
  9
$PUCSYDIR
 10
0.0
 20
1.0
 30
0.0
  9
$PUCSORTHOREF
  2

  9
$PUCSORTHOVIEW
 70
     0
  9
$PUCSORGTOP
 10
0.0
 20
0.0
 30
0.0
  9
$PUCSORGBOTTOM
 10
0.0
 20
0.0
 30
0.0
  9
$PUCSORGLEFT
 10
0.0
 20
0.0
 30
0.0
  9
$PUCSORGRIGHT
 10
0.0
 20
0.0
 30
0.0
  9
$PUCSORGFRONT
 10
0.0
 20
0.0
 30
0.0
  9
$PUCSORGBACK
 10
0.0
 20
0.0
 30
0.0
  9
$USERI1
 70
     0
  9
$USERI2
 70
     0
  9
$USERI3
 70
     0
  9
$USERI4
 70
     0
  9
$USERI5
 70
     0
  9
$USERR1
 40
0.0
  9
$USERR2
 40
0.0
  9
$USERR3
 40
0.0
  9
$USERR4
 40
0.0
  9
$USERR5
 40
0.0
  9
$WORLDVIEW
 70
     1
  9
$SHADEDGE
 70
     3
  9
$SHADEDIF
 70
    70
  9
$TILEMODE
 70
     1
  9
$MAXACTVP
 70
    64
  9
$PINSBASE
 10
0.0
 20
0.0
 30
0.0
  9
$PLIMCHECK
 70
     0
  9
$PEXTMIN
 10
-322.0620289577801
 20
-275.077753814461
 30
-0.0000000000000153
  9
$PEXTMAX
 10
3242.046709135701
 20
435.7678748132378
 30
0.0000000000000153
  9
$PLIMMIN
 10
0.0
 20
0.0
  9
$PLIMMAX
 10
12.0
 20
9.0
  9
$UNITMODE
 70
     0
  9
$VISRETAIN
 70
     1
  9
$PLINEGEN
 70
     0
  9
$PSLTSCALE
 70
     1
  9
$TREEDEPTH
 70
  3020
  9
$CMLSTYLE
  2
Standard
  9
$CMLJUST
 70
     0
  9
$CMLSCALE
 40
20.0
  9
$PROXYGRAPHICS
 70
     1
  9
$MEASUREMENT
 70
     1
  9
$CELWEIGHT
370
    -1
  9
$ENDCAPS
280
     0
  9
$JOINSTYLE
280
     0
  9
$LWDISPLAY
290
     0
  9
$INSUNITS
 70
     4
  9
$HYPERLINKBASE
  1

  9
$STYLESHEET
  1

  9
$XEDIT
290
     1
  9
$CEPSNTYPE
380
     0
  9
$PSTYLEMODE
290
     1
  9
$FINGERPRINTGUID
  2
{154C0FBE-0A43-492A-8348-E601A0649AC4}
  9
$VERSIONGUID
  2
{EA430841-A6DB-4160-BFD8-49CAF2047969}
  9
$EXTNAMES
290
     1
  9
$PSVPSCALE
 40
0.0
  9
$OLESTARTUP
290
     0
  0
ENDSEC
  0
SECTION
  2
CLASSES
  0
CLASS
  1
ACDBDICTIONARYWDFLT
  2
AcDbDictionaryWithDefault
  3
ObjectDBX Classes
 90
        0
280
     0
281
     0
  0
CLASS
  1
ACDBPLACEHOLDER
  2
AcDbPlaceHolder
  3
ObjectDBX Classes
 90
        0
280
     0
281
     0
  0
CLASS
  1
LAYOUT
  2
AcDbLayout
  3
ObjectDBX Classes
 90
        0
280
     0
281
     0
  0
CLASS
  1
DICTIONARYVAR
  2
AcDbDictionaryVar
  3
ObjectDBX Classes
 90
        0
280
     0
281
     0
  0
CLASS
  1
TABLESTYLE
  2
AcDbTableStyle
  3
ObjectDBX Classes
 90
     4095
280
     0
281
     0
  0
CLASS
  1
MATERIAL
  2
AcDbMaterial
  3
ObjectDBX Classes
 90
     1153
280
     0
281
     0
  0
CLASS
  1
VISUALSTYLE
  2
AcDbVisualStyle
  3
ObjectDBX Classes
 90
     4095
280
     0
281
     0
  0
CLASS
  1
SCALE
  2
AcDbScale
  3
ObjectDBX Classes
 90
     1153
280
     0
281
     0
  0
CLASS
  1
MLEADERSTYLE
  2
AcDbMLeaderStyle
  3
ACDB_MLEADERSTYLE_CLASS
 90
    36863
280
     0
281
     0
  0
CLASS
  1
CELLSTYLEMAP
  2
AcDbCellStyleMap
  3
ObjectDBX Classes
 90
     1152
280
     0
281
     0
  0
CLASS
  1
EXACXREFPANELOBJECT
  2
ExAcXREFPanelObject
  3
EXAC_ESW
 90
    33793
280
     1
281
     0
  0
CLASS
  1
NPOCOLLECTION
  2
AcDbImpNonPersistentObjectsCollection
  3
ObjectDBX Classes
 90
    33921
280
     0
281
     0
  0
CLASS
  1
LAYER_INDEX
  2
AcDbLayerIndex
  3
ObjectDBX Classes
 90
    32768
280
     0
281
     0
  0
CLASS
  1
SPATIAL_INDEX
  2
AcDbSpatialIndex
  3
ObjectDBX Classes
 90
    32768
280
     0
281
     0
  0
CLASS
  1
IDBUFFER
  2
AcDbIdBuffer
  3
ObjectDBX Classes
 90
    32768
280
     0
281
     0
  0
CLASS
  1
ACDBSECTIONVIEWSTYLE
  2
AcDbSectionViewStyle
  3
ObjectDBX Classes
 90
     1025
280
     0
281
     0
  0
CLASS
  1
ACDBDETAILVIEWSTYLE
  2
AcDbDetailViewStyle
  3
ObjectDBX Classes
 90
     1025
280
     0
281
     0
  0
CLASS
  1
ACME_DOCUMENT
  2
AcMeDbDoc
  3
AcMeServices
 90
    33792
280
     0
281
     0
  0
CLASS
  1
AMGSETTINGSOBJ
  2
AmgSettingsObj
  3
"AcadM|Product Description: AutoCAD Mechanical|Company: Autodesk, Inc."
 90
     1024
280
     0
281
     0
  0
CLASS
  1
ACMESCOPE
  2
AcMeScope
  3
AcMeServices
 90
     1024
280
     0
281
     0
  0
CLASS
  1
ACMECOMMANDHISTORY
  2
AcMeCommandHistory
  3
AcMeServices
 90
    33792
280
     0
281
     0
  0
CLASS
  1
ACIMSYSVARMAN
  2
AcImSysVarManager
  3
AcMeServices
 90
     1024
280
     0
281
     0
  0
CLASS
  1
ACIMINTSYSVAR
  2
AcImIntSysVar
  3
AcMeServices
 90
     1024
280
     0
281
     0
  0
CLASS
  1
ACMESTATEMGR
  2
AcMeStateMgr
  3
AcMeServices
 90
     1024
280
     0
281
     0
  0
CLASS
  1
ACDBENTITYCACHE
  2
AcMeEntityCache
  3
AcMeServices
 90
    33792
280
     0
281
     0
  0
CLASS
  1
ACGREFMASTER
  2
AcGrefMaster
  3
AcAttribServices
 90
     1024
280
     0
281
     0
  0
CLASS
  1
ACME_DATABASE
  2
AcMeDbDatabase
  3
AcMeServices
 90
    33792
280
     0
281
     0
  0
CLASS
  1
ACRFINSADJUSTERMGR
  2
AcRfInsAdjusterMgr
  3
AcMeServices
 90
    33792
280
     0
281
     0
  0
CLASS
  1
ACGREFACADMASTER
  2
AcGrefacadMaster
  3
AcGrefServices
 90
    33792
280
     0
281
     0
  0
CLASS
  1
AMDTMENUSTATEMGR
  2
AmdtMenuStateMgr
  3
McadcomServices
 90
    33792
280
     0
281
     0
  0
CLASS
  1
AMDTMCOMMENUSTATE
  2
AmdtMcomMenuState
  3
McadcomServices
 90
    33792
280
     0
281
     0
  0
CLASS
  1
AMIMASTER
  2
AmiMaster
  3
AmiServices
 90
    33792
280
     0
281
     0
  0
CLASS
  1
MAPIAMMOUDLE
  2
MApiAmModule
  3
MApiAmServices
 90
    33792
280
     0
281
     0
  0
CLASS
  1
ACIMSTRSYSVAR
  2
AcImStrSysVar
  3
AcMeServices
 90
     1024
280
     0
281
     0
  0
CLASS
  1
AMDTAMMENUSTATE
  2
AmdtAmMenuState
  3
DesignerAssemblies
 90
    33792
280
     0
281
     0
  0
CLASS
  1
ACAMPROJECT
  2
AcAmProject
  3
DesignerAssemblies
 90
    33792
280
     0
281
     0
  0
CLASS
  1
ACAMGRCOMPDEF
  2
AcAmGrCompDef
  3
DesignerAssemblies
 90
    33792
280
     0
281
     0
  0
CLASS
  1
ACAMCOMPDEF
  2
AcAmCompDef
  3
DesignerAssemblies
 90
    33792
280
     0
281
     0
  0
CLASS
  1
ACAMCOMPDEFMGR
  2
AcAmCompDefMgr
  3
DesignerAssemblies
 90
    33792
280
     0
281
     0
  0
CLASS
  1
AMCONTEXTMGR
  2
AcAmContextMgr
  3
DesignerAssemblies
 90
    33792
280
     0
281
     0
  0
CLASS
  1
ACAMCONTEXTMODELER
  2
AcAmContextModeler
  3
DesignerAssemblies
 90
    33792
280
     0
281
     0
  0
CLASS
  1
ACMDATADICTIONARY
  2
AcmDataDictionary
  3
"AcmSymBB|Product Description: AutoCAD Mechanical|Company: Autodesk, Inc."
 90
    33792
280
     0
281
     0
  0
CLASS
  1
ACAMGRCOMPDEFSET
  2
AcAmGrCompDefSet
  3
DesignerAssemblies
 90
    33792
280
     0
281
     0
  0
CLASS
  1
AMDTBROWSERDBTAB
  2
AmdtBrowserDbTab
  3
McadcomServices
 90
    33792
280
     0
281
     0
  0
CLASS
  1
CBROWSERAPPOBJECT
  2
CBrowserAppObject
  3
McadcomServices
 90
    33792
280
     0
281
     0
  0
CLASS
  1
DM_PLACEHOLDER
  2
AcDmSelsetPlaceholder
  3
McadcomServices
 90
    33792
280
     0
281
     0
  0
CLASS
  1
ACMSTANDARDDIN
  2
AcmStandardDIN
  3
"Amdt_StdImp|Product Description: AutoCAD Mechanical|Company: Autodesk, Inc."
 90
     1024
280
     0
281
     0
  0
CLASS
  1
AMDTEDGESTANDARDDIN13715
  2
AmdtEdgeStdDIN13715
  3
"Amdt_StdImp|Product Description: AutoCAD Mechanical|Company: Autodesk, Inc."
 90
     1024
280
     0
281
     0
  0
CLASS
  1
ACMSURFSTANDARDDIN2002
  2
AcmSurfTextStdDIN2002
  3
"Amdt_StdImp|Product Description: AutoCAD Mechanical|Company: Autodesk, Inc."
 90
     1024
280
     0
281
     0
  0
CLASS
  1
ACMFCFSTANDARDDIN2008
  2
AcmFCFStdDIN2008
  3
"Amdt_StdImp|Product Description: AutoCAD Mechanical|Company: Autodesk, Inc."
 90
     1024
280
     0
281
     0
  0
CLASS
  1
ACMWELDSTANDARDDIN
  2
AcmWeldingStdDIN
  3
"Amdt_StdImp|Product Description: AutoCAD Mechanical|Company: Autodesk, Inc."
 90
     1024
280
     0
281
     0
  0
CLASS
  1
ACMIDSTANDARDDIN2012
  2
AcmIdStdDIN2012
  3
"Amdt_StdImp|Product Description: AutoCAD Mechanical|Company: Autodesk, Inc."
 90
     1024
280
     0
281
     0
  0
CLASS
  1
ACMDATUMSTANDARDDIN2008
  2
AcmDatumStdDIN2008
  3
"Amdt_StdImp|Product Description: AutoCAD Mechanical|Company: Autodesk, Inc."
 90
     1024
280
     0
281
     0
  0
CLASS
  1
ACMBOMSTANDARDDIN
  2
AcmBOMStdDIN
  3
"Amdt_StdImp|Product Description: AutoCAD Mechanical|Company: Autodesk, Inc."
 90
     1024
280
     0
281
     0
  0
CLASS
  1
ACMDETAILSTANDARDDIN
  2
AmdtDetailSymStdDIN
  3
"Amdt_StdImp|Product Description: AutoCAD Mechanical|Company: Autodesk, Inc."
 90
     1024
280
     0
281
     0
  0
CLASS
  1
ACMSECTIONSTANDARDDIN
  2
AmdtSectionSymStdDIN
  3
"Amdt_StdImp|Product Description: AutoCAD Mechanical|Company: Autodesk, Inc."
 90
     1024
280
     0
281
     0
  0
CLASS
  1
ACMCENTERLINESTANDARDDIN
  2
AmdtCenterLineStdDIN
  3
"Amdt_StdImp|Product Description: AutoCAD Mechanical|Company: Autodesk, Inc."
 90
     1024
280
     0
281
     0
  0
CLASS
  1
ACMTHREADLINESTANDARDDIN
  2
AmdtThreadLineStdDIN
  3
"Amdt_StdImp|Product Description: AutoCAD Mechanical|Company: Autodesk, Inc."
 90
     1024
280
     0
281
     0
  0
CLASS
  1
ACMNOTESTANDARDDIN
  2
AmdtNoteStdDIN
  3
"Amdt_StdImp|Product Description: AutoCAD Mechanical|Company: Autodesk, Inc."
 90
     1024
280
     0
281
     0
  0
CLASS
  1
ACMTAPERSTANDARDDIN
  2
AcmTaperStdDIN
  3
"Amdt_StdImp|Product Description: AutoCAD Mechanical|Company: Autodesk, Inc."
 90
     1024
280
     0
281
     0
  0
CLASS
  1
ACMANOOTATIONVIEWSTANDARDDIN
  2
AmdtAnViewStdDIN
  3
"Amdt_StdImp|Product Description: AutoCAD Mechanical|Company: Autodesk, Inc."
 90
     1024
280
     0
281
     0
  0
CLASS
  1
ACAMGLAYSTD
  2
AcAmgLayStd
  3
"AmgLay|Product Description: AutoCAD Mechanical|Company: Autodesk, Inc."
 90
     1024
280
     0
281
     0
  0
CLASS
  1
ACAMGDIMSTD
  2
AcAmgDimStd
  3
"AmgDim|Product Description: AutoCAD Mechanical|Company: Autodesk, Inc."
 90
     1024
280
     0
281
     0
  0
CLASS
  1
AMGOBJPROPCFG
  2
AmgObjPropCfg
  3
"AmgLay|Product Description: AutoCAD Mechanical|Company: Autodesk, Inc."
 90
     1024
280
     0
281
     0
  0
CLASS
  1
ACAMGHOLECHARTSTDDIN
  2
AcAmgHoleChartStdDIN
  3
AmgDim|Product Description: AutoCAD Mechanical|Company: Autodesk, Inc.
 90
     1024
280
     0
281
     0
  0
CLASS
  1
ACAMGTITLESTD
  2
AcAmgTitleStd
  3
"AmgTitle|Product Description: AutoCAD Mechanical|Company: Autodesk, Inc."
 90
     1024
280
     0
281
     0
  0
CLASS
  1
ACMSECTIONSTANDARDCUSTOM
  2
AmdtSectionSymStdCustom
  3
"Amdt_StdImp|Product Description: AutoCAD Mechanical|Company: Autodesk, Inc."
 90
     1024
280
     0
281
     0
  0
CLASS
  1
ACMDETAILTANDARDCUSTOM
  2
AmdtDetailSymStdCustom
  3
"Amdt_StdImp|Product Description: AutoCAD Mechanical|Company: Autodesk, Inc."
 90
     1024
280
     0
281
     0
  0
CLASS
  1
FIELD
  2
AcDbField
  3
ObjectDBX Classes
 90
     1152
280
     0
281
     0
  0
CLASS
  1
FIELDLIST
  2
AcDbFieldList
  3
ObjectDBX Classes
 90
     1152
280
     0
281
     0
  0
CLASS
  1
AMDTNOTETEMPLATEDB
  2
AmdtNoteTemplateDB
  3
AcmSymBB|Product Description: AutoCAD Mechanical|Company: Autodesk, Inc.
 90
     1024
280
     0
281
     0
  0
CLASS
  1
CAMSSTRUCTBTNSTATE
  2
StructBtnState
  3
DesignerAssemblies
 90
    33792
280
     0
281
     0
  0
CLASS
  1
RAPIDRTRENDERSETTINGS
  2
AcDbRapidRTRenderSettings
  3
ObjectDBX Classes
 90
    33792
280
     0
281
     0
  0
CLASS
  1
SORTENTSTABLE
  2
AcDbSortentsTable
  3
ObjectDBX Classes
 90
        0
280
     0
281
     0
  0
CLASS
  1
ACAMGFILTERDAT
  2
AcAmgFilterDat
  3
"AcadM|Product Description: AutoCAD Mechanical|Company: Autodesk, Inc."
 90
    33792
280
     0
281
     0
  0
CLASS
  1
ACDBASSOCNETWORK
  2
AcDbAssocNetwork
  3
ObjectDBX Classes
 90
    33793
280
     0
281
     0
  0
CLASS
  1
ACDBASSOC2DCONSTRAINTGROUP
  2
AcDbAssoc2dConstraintGroup
  3
ObjectDBX Classes
 90
    33793
280
     0
281
     0
  0
CLASS
  1
ACDBASSOCGEOMDEPENDENCY
  2
AcDbAssocGeomDependency
  3
ObjectDBX Classes
 90
    33793
280
     0
281
     0
  0
CLASS
  1
ACAD_EVALUATION_GRAPH
  2
AcDbEvalGraph
  3
ObjectDBX Classes
 90
    33921
280
     0
281
     0
  0
CLASS
  1
BLOCKBASEPOINTPARAMETER
  2
AcDbBlockBasepointParameter
  3
ObjectDBX Classes
 90
    33921
280
     0
281
     0
  0
CLASS
  1
ACDB_DYNAMICBLOCKPROXYNODE
  2
AcDbDynamicBlockProxyNode
  3
ObjectDBX Classes
 90
    33921
280
     0
281
     0
  0
CLASS
  1
BLOCKVISIBILITYPARAMETER
  2
AcDbBlockVisibilityParameter
  3
ObjectDBX Classes
 90
    33921
280
     0
281
     0
  0
CLASS
  1
BLOCKVISIBILITYGRIP
  2
AcDbBlockVisibilityGrip
  3
ObjectDBX Classes
 90
    33921
280
     0
281
     0
  0
CLASS
  1
BLOCKGRIPLOCATIONCOMPONENT
  2
AcDbBlockGripExpr
  3
ObjectDBX Classes
 90
    33921
280
     0
281
     0
  0
CLASS
  1
BLOCKPOINTPARAMETER
  2
AcDbBlockPointParameter
  3
ObjectDBX Classes
 90
    33921
280
     0
281
     0
  0
CLASS
  1
BLOCKXYGRIP
  2
AcDbBlockXYGrip
  3
ObjectDBX Classes
 90
    33921
280
     0
281
     0
  0
CLASS
  1
BLOCKMOVEACTION
  2
AcDbBlockMoveAction
  3
ObjectDBX Classes
 90
    33921
280
     0
281
     0
  0
CLASS
  1
ACDB_DYNAMICBLOCKPURGEPREVENTER_VERSION
  2
AcDbDynamicBlockPurgePreventer
  3
ObjectDBX Classes
 90
    33921
280
     0
281
     0
  0
CLASS
  1
IMAGE
  2
AcDbRasterImage
  3
ISM
 90
    34943
280
     0
281
     1
  0
CLASS
  1
IMAGEDEF_REACTOR
  2
AcDbRasterImageDefReactor
  3
ISM
 90
    32769
280
     0
281
     0
  0
CLASS
  1
ACDB_BLOCKREPRESENTATION_DATA
  2
AcDbBlockRepresentationData
  3
ObjectDBX Classes
 90
    33921
280
     0
281
     0
  0
CLASS
  1
IMAGEDEF
  2
AcDbRasterImageDef
  3
ISM
 90
    32768
280
     0
281
     0
  0
CLASS
  1
ACMDATAENTRYBLOCK
  2
AcmDataEntryBlock
  3
AcmSymBB|Product Description: AutoCAD Mechanical|Company: Autodesk, Inc.
 90
    33792
280
     0
281
     0
  0
CLASS
  1
RASTERVARIABLES
  2
AcDbRasterVariables
  3
ISM
 90
    32768
280
     0
281
     0
  0
CLASS
  1
ACAECUSTOBJ
  2
AcAeEditorObj
  3
AcAeEditorObj
 90
    33792
280
     1
281
     0
  0
CLASS
  1
ACDBASSOCVARIABLE
  2
AcDbAssocVariable
  3
ObjectDBX Classes
 90
    33793
280
     0
281
     0
  0
CLASS
  1
ACDBASSOCVALUEDEPENDENCY
  2
AcDbAssocValueDependency
  3
ObjectDBX Classes
 90
    33793
280
     0
281
     0
  0
CLASS
  1
ACDBASSOCDEPENDENCY
  2
AcDbAssocDependency
  3
ObjectDBX Classes
 90
    33793
280
     0
281
     0
  0
CLASS
  1
BLOCKPARAMDEPENDENCYBODY
  2
AcDbBlockParameterDependencyBody
  3
ObjectDBX Classes
 90
    32769
280
     0
281
     0
  0
CLASS
  1
BLOCKHORIZONTALCONSTRAINTPARAMETER
  2
AcDbBlockHorizontalConstraintParameter
  3
ObjectDBX Classes
 90
    33921
280
     0
281
     0
  0
CLASS
  1
BLOCKLINEARGRIP
  2
AcDbBlockLinearGrip
  3
ObjectDBX Classes
 90
    33921
280
     0
281
     0
  0
CLASS
  1
BLOCKVERTICALCONSTRAINTPARAMETER
  2
AcDbBlockVerticalConstraintParameter
  3
ObjectDBX Classes
 90
    33921
280
     0
281
     0
  0
CLASS
  1
DIMASSOC
  2
AcDbDimAssoc
  3
"AcDbDimAssoc|Product Desc:     AcDim ARX App For Dimension|Company:          Autodesk, Inc.|WEB Address:      www.autodesk.com"
 90
        0
280
     0
281
     0
  0
CLASS
  1
ACAD_TABLE
  2
AcDbTable
  3
ObjectDBX Classes
 90
    33793
280
     0
281
     1
  0
CLASS
  1
TABLECONTENT
  2
AcDbTableContent
  3
ObjectDBX Classes
 90
    33920
280
     0
281
     0
  0
CLASS
  1
TABLEGEOMETRY
  2
AcDbTableGeometry
  3
ObjectDBX Classes
 90
    33920
280
     0
281
     0
  0
CLASS
  1
BLOCKLINEARPARAMETER
  2
AcDbBlockLinearParameter
  3
ObjectDBX Classes
 90
    33921
280
     0
281
     0
  0
CLASS
  1
BLOCKSCALEACTION
  2
AcDbBlockScaleAction
  3
ObjectDBX Classes
 90
    33921
280
     0
281
     0
  0
CLASS
  1
POINTPARAMETERENTITY
  2
AcDbBlockPointParameterEntity
  3
ObjectDBX Classes
 90
    33793
280
     0
281
     1
  0
CLASS
  1
ACAEEEMGROBJ
  2
AcAeEEMgrObj
  3
AcAeEEMgrObj
 90
    33792
280
     0
281
     0
  0
CLASS
  1
XYGRIPENTITY
  2
AcDbBlockXYGripEntity
  3
ObjectDBX Classes
 90
    33793
280
     0
281
     1
  0
CLASS
  1
VISIBILITYPARAMETERENTITY
  2
AcDbBlockVisibilityParameterEntity
  3
ObjectDBX Classes
 90
    33793
280
     0
281
     1
  0
CLASS
  1
VISIBILITYGRIPENTITY
  2
AcDbBlockVisibilityGripEntity
  3
ObjectDBX Classes
 90
    33793
280
     0
281
     1
  0
CLASS
  1
STDPART2D
  2
AmgStdPart
  3
AmgStdPart|Product Description: AutoCAD Mechanical|Company: Autodesk, Inc.
 90
    33792
280
     0
281
     1
  0
CLASS
  1
ACMDATAENTRYPART
  2
AcmDataEntryPart
  3
AcmSymBB|Product Description: AutoCAD Mechanical|Company: Autodesk, Inc.
 90
    33792
280
     0
281
     0
  0
CLASS
  1
ACMPARTREF
  2
AcmPartRef
  3
"AcmSymBB|Product Description: AutoCAD Mechanical|Company: Autodesk, Inc."
 90
    33792
280
     0
281
     1
  0
CLASS
  1
ACDBSTDPARTRES_LINE
  2
AcDbStdPartRes_Line
  3
AmgStdPart|Product Description: AutoCAD Mechanical|Company: Autodesk, Inc.
 90
    33792
280
     0
281
     0
  0
CLASS
  1
AMDTINTERNALREACTOR
  2
AmdtInternalReactor
  3
AcMeServices
 90
    33792
280
     0
281
     0
  0
CLASS
  1
ACMSTANDARDANSI
  2
AcmStandardANSI
  3
"Amdt_StdImp|Product Description: AutoCAD Mechanical|Company: Autodesk, Inc."
 90
    33792
280
     0
281
     0
  0
CLASS
  1
ACMSURFSTANDARDANSI
  2
AcmSurfTextStdANSI
  3
"Amdt_StdImp|Product Description: AutoCAD Mechanical|Company: Autodesk, Inc."
 90
    33792
280
     0
281
     0
  0
CLASS
  1
ACMFCFSTANDARDANSI
  2
AcmFCFStdANSI
  3
"Amdt_StdImp|Product Description: AutoCAD Mechanical|Company: Autodesk, Inc."
 90
    33792
280
     0
281
     0
  0
CLASS
  1
ACMWELDSTANDARDANSI
  2
AcmWeldingStdANSI
  3
"Amdt_StdImp|Product Description: AutoCAD Mechanical|Company: Autodesk, Inc."
 90
    33792
280
     0
281
     0
  0
CLASS
  1
ACMIDSTANDARDANSI
  2
AcmIdStdANSI
  3
"Amdt_StdImp|Product Description: AutoCAD Mechanical|Company: Autodesk, Inc."
 90
    33792
280
     0
281
     0
  0
CLASS
  1
ACMDATUMSTANDARDANSI
  2
AcmDatumStdANSI
  3
"Amdt_StdImp|Product Description: AutoCAD Mechanical|Company: Autodesk, Inc."
 90
    33792
280
     0
281
     0
  0
CLASS
  1
ACMBOMSTANDARDANSI
  2
AcmBOMStdANSI
  3
"Amdt_StdImp|Product Description: AutoCAD Mechanical|Company: Autodesk, Inc."
 90
    33792
280
     0
281
     0
  0
CLASS
  1
ACMDETAILSTANDARDANSI
  2
AmdtDetailSymStdANSI
  3
"Amdt_StdImp|Product Description: AutoCAD Mechanical|Company: Autodesk, Inc."
 90
    33792
280
     0
281
     0
  0
CLASS
  1
ACMSECTIONSTANDARDANSI
  2
AmdtSectionSymStdANSI
  3
"Amdt_StdImp|Product Description: AutoCAD Mechanical|Company: Autodesk, Inc."
 90
    33792
280
     0
281
     0
  0
CLASS
  1
ACMCENTERLINESTANDARDANSI
  2
AmdtCenterLineStdANSI
  3
"Amdt_StdImp|Product Description: AutoCAD Mechanical|Company: Autodesk, Inc."
 90
    33792
280
     0
281
     0
  0
CLASS
  1
ACMTHREADLINESTANDARDANSI
  2
AmdtThreadLineStdANSI
  3
"Amdt_StdImp|Product Description: AutoCAD Mechanical|Company: Autodesk, Inc."
 90
    33792
280
     0
281
     0
  0
CLASS
  1
ACMNOTESTANDARDANSI
  2
AmdtNoteStdANSI
  3
"Amdt_StdImp|Product Description: AutoCAD Mechanical|Company: Autodesk, Inc."
 90
    33792
280
     0
281
     0
  0
CLASS
  1
ACMTAPERSTANDARDANSI
  2
AcmTaperStdANSI
  3
"Amdt_StdImp|Product Description: AutoCAD Mechanical|Company: Autodesk, Inc."
 90
    33792
280
     0
281
     0
  0
CLASS
  1
ACMANOOTATIONVIEWSTANDARDANSI
  2
AmdtAnViewStdANSI
  3
"Amdt_StdImp|Product Description: AutoCAD Mechanical|Company: Autodesk, Inc."
 90
    33792
280
     0
281
     0
  0
CLASS
  1
ACAMGHOLECHARTSTDANSI
  2
AcAmgHoleChartStdANSI
  3
AmgDim|Product Description: AutoCAD Mechanical|Company: Autodesk, Inc.
 90
    33792
280
     0
281
     0
  0
CLASS
  1
AEC_REFEDIT_STATUS_TRACKER
  2
AecDbRefEditStatusTracker
  3
AecArchBase70|Product Desc: Autodesk Architectural Desktop 2007 |Company: Autodesk,Inc. |WEB Address: www.autodesk.com
 90
    32897
280
     0
281
     0
  0
CLASS
  1
SOLID_BACKGROUND
  2
AcDbSolidBackground
  3
SCENEOE
 90
    36863
280
     0
281
     0
  0
CLASS
  1
AMDTNOTE
  2
AmdtNote
  3
"AcmSymBB|Product Description: AutoCAD Mechanical|Company: Autodesk, Inc."
 90
    33792
280
     0
281
     1
  0
ENDSEC
  0
SECTION
  2
TABLES
  0
TABLE
  2
VPORT
  5
2B
330
0
100
AcDbSymbolTable
 70
     1
  0
VPORT
  5
2C
330
2B
100
AcDbSymbolTableRecord
100
AcDbViewportTableRecord
  2
*Active
 70
     0
 10
0.0
 20
0.0
 11
1.0
 21
1.0
 12
-7507.86595244218
 22
2656.057450343657
 13
0.0
 23
0.0
 14
10.0
 24
10.0
 15
10.0
 25
10.0
 16
0.0
 26
0.0
 36
1.0
 17
0.0
 27
0.0
 37
0.0
 40
8126.745407260624
 41
2.591280653950953
 42
50.0
 43
0.0
 44
0.0
 50
0.0
 51
0.0
 71
     0
 72
  1000
 73
     1
 74
     3
 75
     0
 76
     0
 77
     0
 78
     0
281
     0
 65
     1
110
0.0
120
0.0
130
0.0
111
1.0
121
0.0
131
0.0
112
0.0
122
1.0
132
0.0
 79
     0
146
0.0
1001
ACAD_NAV_VCDISPLAY
1070
     3
  0
ENDTAB
  0
TABLE
  2
LTYPE
  5
26
330
0
100
AcDbSymbolTable
 70
    14
  0
LTYPE
  5
27
330
26
100
AcDbSymbolTableRecord
100
AcDbLinetypeTableRecord
  2
ByBlock
 70
     0
  3

 72
    65
 73
     0
 40
0.0
  0
LTYPE
  5
28
330
26
100
AcDbSymbolTableRecord
100
AcDbLinetypeTableRecord
  2
ByLayer
 70
     0
  3

 72
    65
 73
     0
 40
0.0
  0
LTYPE
  5
20
330
26
100
AcDbSymbolTableRecord
100
AcDbLinetypeTableRecord
  2
Continuous
 70
     0
  3
Solid line
 72
    65
 73
     0
 40
0.0
  0
LTYPE
  5
263
330
26
100
AcDbSymbolTableRecord
100
AcDbLinetypeTableRecord
  2
Amconstr
 70
     0
  3
_______________________
 72
    65
 73
     2
 40
9999.0
 49
9999.0
 74
     0
 49
0.0
 74
     0
  0
LTYPE
  5
265
330
26
100
AcDbSymbolTableRecord
100
AcDbLinetypeTableRecord
  2
Amzigzag
 70
     0
  3
/\/-/\/-/\/-/\/-/\/-/\/
 72
    65
 73
     2
 40
11.0001
 49
0.0001
 74
     4
 75
   136
340
266
 46
0.04
 50
0.0
 44
0.0
 45
0.0
 49
-11.0
 74
     0
  0
LTYPE
  5
260
330
26
100
AcDbSymbolTableRecord
100
AcDbLinetypeTableRecord
  2
AM_DIN_F_W050
 70
     0
  3
__ __ __ __ __ __ __ __ __ __ __ __ __ __ __
 72
    65
 73
     2
 40
6.25
 49
4.75
 74
     0
 49
-1.5
 74
     0
  0
LTYPE
  5
261
330
26
100
AcDbSymbolTableRecord
100
AcDbLinetypeTableRecord
  2
AM_DIN_G_W050
 70
     0
  3
____ . ____ . ____ . ____ . ____ . ____ . ____
 72
    65
 73
     4
 40
13.75
 49
9.75
 74
     0
 49
-1.5
 74
     0
 49
1.0
 74
     0
 49
-1.5
 74
     0
  0
LTYPE
  5
262
330
26
100
AcDbSymbolTableRecord
100
AcDbLinetypeTableRecord
  2
AM_DIN_K_W050
 70
     0
  3
_____ . . _____ . . _____ . . ____ .. ____
 72
    65
 73
     6
 40
16.25
 49
9.75
 74
     0
 49
-1.5
 74
     0
 49
1.0
 74
     0
 49
-1.5
 74
     0
 49
1.0
 74
     0
 49
-1.5
 74
     0
  0
LTYPE
  5
B1
330
26
100
AcDbSymbolTableRecord
100
AcDbLinetypeTableRecord
  2
AM_DIN_G_W050x2
 70
     0
  3
__ . __ . __ . __ . __ . __
 72
    65
 73
     4
 40
6.875
 49
4.75
 74
     0
 49
-0.875
 74
     0
 49
0.375
 74
     0
 49
-0.875
 74
     0
  0
LTYPE
  5
264
330
26
100
AcDbSymbolTableRecord
100
AcDbLinetypeTableRecord
  2
AM_DIN_F_W050x2
 70
     0
  3
 _ _ _ _ _ _ _ _ _ _ _ _
 72
    65
 73
     2
 40
3.125
 49
2.25
 74
     0
 49
-0.875
 74
     0
  0
LTYPE
  5
278
330
26
100
AcDbSymbolTableRecord
100
AcDbLinetypeTableRecord
  2
ACDINWELD
 70
     0
  3
_ _ _ _ _
 72
    65
 73
     2
 40
2.0
 49
2.0
 74
     0
 49
-1.0
 74
     0
  0
LTYPE
  5
2B5
330
26
100
AcDbSymbolTableRecord
100
AcDbLinetypeTableRecord
  2
ACDINTGL
 70
     0
  3
_ _ _ _ _
 72
    65
 73
     2
 40
3.0
 49
2.0
 74
     0
 49
-1.0
 74
     0
  0
LTYPE
  5
2B7
330
26
100
AcDbSymbolTableRecord
100
AcDbLinetypeTableRecord
  2
ACDINTGB
 70
     0
  3
__ . . __ . .
 72
    65
 73
     6
 40
9.0
 49
4.0
 74
     0
 49
-1.0
 74
     0
 49
1.0
 74
     0
 49
-1.0
 74
     0
 49
1.0
 74
     0
 49
-1.0
 74
     0
  0
LTYPE
  5
B0
330
26
100
AcDbSymbolTableRecord
100
AcDbLinetypeTableRecord
  2
MITTE
 70
     0
  3
____ _ ____ _ ____ _ ____ _ ____ _ ____ _ ____
 72
    65
 73
     4
 40
2.0
 49
1.25
 74
     0
 49
-0.25
 74
     0
 49
0.25
 74
     0
 49
-0.25
 74
     0
  0
LTYPE
  5
217
330
26
100
AcDbSymbolTableRecord
100
AcDbLinetypeTableRecord
  2
VERDECKT
 70
     0
  3
_ _ _ _ _ _ _ _ _ _ _ _ _ _ _ _ _ _ _ _ _ _ _
 72
    65
 73
     2
 40
0.375
 49
0.25
 74
     0
 49
-0.125
 74
     0
  0
LTYPE
  5
6A
330
26
100
AcDbSymbolTableRecord
100
AcDbLinetypeTableRecord
  2
AUSGEZOGEN
 70
     0
  3
____________________________________________
 72
    65
 73
     2
 40
2000.1
 49
2000.0
 74
     0
 49
-0.1
 74
     0
  0
ENDTAB
  0
TABLE
  2
LAYER
  5
12
102
{ACAD_XDICTIONARY
360
21
102
}
330
0
100
AcDbSymbolTable
 70
     8
  0
LAYER
  5
13
102
{ACAD_XDICTIONARY
360
14
102
}
330
12
100
AcDbSymbolTableRecord
100
AcDbLayerTableRecord
  2
0
 70
     0
 62
     7
  6
Continuous
370
    -3
390
15
  0
LAYER
  5
AE
102
{ACAD_XDICTIONARY
360
AF
102
}
330
12
100
AcDbSymbolTableRecord
100
AcDbLayerTableRecord
  2
-ACHSE
 70
     0
 62
     3
  6
MITTE
370
    -3
390
15
  0
LAYER
  5
68
102
{ACAD_XDICTIONARY
360
69
102
}
330
12
100
AcDbSymbolTableRecord
100
AcDbLayerTableRecord
  2
DEFPOINTS
 70
     0
 62
     5
  6
AUSGEZOGEN
290
     0
370
    -3
390
15
  0
LAYER
  5
8E
102
{ACAD_XDICTIONARY
360
8F
102
}
330
12
100
AcDbSymbolTableRecord
100
AcDbLayerTableRecord
  2
-GUMMI
 70
     0
 62
    30
  6
AUSGEZOGEN
370
    -3
390
15
  0
LAYER
  5
85
102
{ACAD_XDICTIONARY
360
86
102
}
330
12
100
AcDbSymbolTableRecord
100
AcDbLayerTableRecord
  2
-GLAS
 70
     0
 62
     1
  6
AUSGEZOGEN
370
    25
390
15
  0
LAYER
  5
43
330
12
100
AcDbSymbolTableRecord
100
AcDbLayerTableRecord
  2
-PROFILAUSSENKANTET
 70
     0
 62
     4
  6
Continuous
370
    -3
390
15
  0
LAYER
  5
5B
330
12
100
AcDbSymbolTableRecord
100
AcDbLayerTableRecord
  2
AM_5
 70
     0
 62
     3
  6
Continuous
370
    25
390
15
1001
AcAecLayerStandard
1000

1000

  0
LAYER
  5
98
330
12
100
AcDbSymbolTableRecord
100
AcDbLayerTableRecord
  2
-POM Stab
 70
     0
 62
    72
  6
AUSGEZOGEN
370
    -3
390
15
1001
AcAecLayerStandard
1000

1000

  0
ENDTAB
  0
TABLE
  2
STYLE
  5
23
330
0
100
AcDbSymbolTable
 70
     3
  0
STYLE
  5
24
330
23
100
AcDbSymbolTableRecord
100
AcDbTextStyleTableRecord
  2
Standard
 70
     0
 40
0.0
 41
1.0
 50
0.0
 71
     0
 42
2.5
  3
arial.ttf
  4

1001
ACAD
1000
Arial
1071
       34
  0
STYLE
  5
266
330
23
100
AcDbSymbolTableRecord
100
AcDbTextStyleTableRecord
  2

 70
     1
 40
0.0
 41
1.0
 50
0.0
 71
     0
 42
2.5
  3
genltshp.shx
  4

  0
STYLE
  5
276
330
23
100
AcDbSymbolTableRecord
100
AcDbTextStyleTableRecord
  2
ACDINGDT
 70
     0
 40
0.0
 41
1.0
 50
0.0
 71
     0
 42
2.5
  3
amgdt.shx
  4

  0
ENDTAB
  0
TABLE
  2
VIEW
  5
29
330
0
100
AcDbSymbolTable
 70
     0
  0
ENDTAB
  0
TABLE
  2
UCS
  5
2A
330
0
100
AcDbSymbolTable
 70
     0
  0
ENDTAB
  0
TABLE
  2
APPID
  5
30
330
0
100
AcDbSymbolTable
 70
    27
  0
APPID
  5
1F
330
30
100
AcDbSymbolTableRecord
100
AcDbRegAppTableRecord
  2
ACAD
 70
     0
  0
APPID
  5
B
330
30
100
AcDbSymbolTableRecord
100
AcDbRegAppTableRecord
  2
ACAD_PSEXT
 70
     0
  0
APPID
  5
33
330
30
100
AcDbSymbolTableRecord
100
AcDbRegAppTableRecord
  2
ACAD_DSTYLE_DIMJAG
 70
     0
  0
APPID
  5
2F
330
30
100
AcDbSymbolTableRecord
100
AcDbRegAppTableRecord
  2
ACAD_NAV_VCDISPLAY
 70
     0
  0
APPID
  5
34
330
30
100
AcDbSymbolTableRecord
100
AcDbRegAppTableRecord
  2
ACAD_DSTYLE_DIMBREAK
 70
     0
  0
APPID
  5
5C
330
30
100
AcDbSymbolTableRecord
100
AcDbRegAppTableRecord
  2
AcAecLayerStandard
 70
     0
  0
APPID
  5
71
330
30
100
AcDbSymbolTableRecord
100
AcDbRegAppTableRecord
  2
GENIUS_GENREC_14
 70
     0
  0
APPID
  5
72
330
30
100
AcDbSymbolTableRecord
100
AcDbRegAppTableRecord
  2
GENIUS_GENODEF_13
 70
     0
  0
APPID
  5
73
330
30
100
AcDbSymbolTableRecord
100
AcDbRegAppTableRecord
  2
GENIUS_GENOBJ-N-REC_13
 70
     0
  0
APPID
  5
90
330
30
100
AcDbSymbolTableRecord
100
AcDbRegAppTableRecord
  2
GradientColor1ACI
 70
     0
  0
APPID
  5
91
330
30
100
AcDbSymbolTableRecord
100
AcDbRegAppTableRecord
  2
GradientColor2ACI
 70
     0
  0
APPID
  5
157
330
30
100
AcDbSymbolTableRecord
100
AcDbRegAppTableRecord
  2
GENIUS_GENDTOL_13
 70
     0
  0
APPID
  5
6F
330
30
100
AcDbSymbolTableRecord
100
AcDbRegAppTableRecord
  2
ACAD_DSTYLE_DIMINSPECT
 70
     0
  0
APPID
  5
B8
330
30
100
AcDbSymbolTableRecord
100
AcDbRegAppTableRecord
  2
GENIUS_GENOBJ-N-HTC_13
 70
     0
  0
APPID
  5
B9
330
30
100
AcDbSymbolTableRecord
100
AcDbRegAppTableRecord
  2
GENIUS_GENHATCH_13
 70
     0
  0
APPID
  5
B2
330
30
100
AcDbSymbolTableRecord
100
AcDbRegAppTableRecord
  2
GENIUS_GENOBJ-N-CEN_13
 70
     0
  0
APPID
  5
B3
330
30
100
AcDbSymbolTableRecord
100
AcDbRegAppTableRecord
  2
GENIUS_GENCEN_19
 70
     0
  0
APPID
  5
2BA
330
30
100
AcDbSymbolTableRecord
100
AcDbRegAppTableRecord
  2
GENIUS_GENOENT_13
 70
     0
  0
APPID
  5
2BB
330
30
100
AcDbSymbolTableRecord
100
AcDbRegAppTableRecord
  2
GENIUS_GENOBJ-N-CRS_13
 70
     0
  0
APPID
  5
2B9
330
30
100
AcDbSymbolTableRecord
100
AcDbRegAppTableRecord
  2
GENIUS_GENOLIS_13
 70
     0
  0
APPID
  5
22D
330
30
100
AcDbSymbolTableRecord
100
AcDbRegAppTableRecord
  2
GENIUS_GENOREF_13
 70
     0
  0
APPID
  5
2BC
330
30
100
AcDbSymbolTableRecord
100
AcDbRegAppTableRecord
  2
GENIUS_GENCRS_20
 70
     0
  0
APPID
  5
2C9
330
30
100
AcDbSymbolTableRecord
100
AcDbRegAppTableRecord
  2
ACATTRIBSERVICES
 70
     0
  0
APPID
  5
2F3
330
30
100
AcDbSymbolTableRecord
100
AcDbRegAppTableRecord
  2
ACAD_DSTYLE_DIMJOGGED_JOGANGLE_SYMBOL
 70
     0
  0
APPID
  5
2F4
330
30
100
AcDbSymbolTableRecord
100
AcDbRegAppTableRecord
  2
ACAD_DSTYLE_DIM_LINETYPE
 70
     0
  0
APPID
  5
2F5
330
30
100
AcDbSymbolTableRecord
100
AcDbRegAppTableRecord
  2
ACAD_DSTYLE_DIM_EXT1_LINETYPE
 70
     0
  0
APPID
  5
2F6
330
30
100
AcDbSymbolTableRecord
100
AcDbRegAppTableRecord
  2
ACAD_DSTYLE_DIM_EXT2_LINETYPE
 70
     0
  0
ENDTAB
  0
TABLE
  2
DIMSTYLE
  5
31
330
0
100
AcDbSymbolTable
 70
     9
100
AcDbDimStyleTable
 71
     1
340
32
  0
DIMSTYLE
105
32
102
{ACAD_REACTORS
330
272
102
}
330
31
100
AcDbSymbolTableRecord
100
AcDbDimStyleTableRecord
  2
AM_DIN
 70
     0
  4
"
 41
3.5
 42
1.0
 43
10.0
 44
1.0
 47
0.1
 48
0.1
 73
     0
 74
     0
 77
     1
 78
     8
 79
     2
140
3.5
141
0.0
143
0.0393701
146
0.71
147
1.5
172
     1
176
   256
177
   256
178
     2
271
     2
272
     3
274
     4
283
     0
284
     8
340
24
371
    -1
372
    -1
1001
ACAD_DSTYLE_DIMJAG
1070
   388
1040
1.5
1001
ACAD_DSTYLE_DIMBREAK
1070
   391
1040
3.75
1001
ACAD_DSTYLE_DIMJOGGED_JOGANGLE_SYMBOL
1070
   384
1040
1.570796326794896
1001
ACAD_DSTYLE_DIM_LINETYPE
1070
   380
1005
27
1001
ACAD_DSTYLE_DIM_EXT1_LINETYPE
1070
   381
1005
27
1001
ACAD_DSTYLE_DIM_EXT2_LINETYPE
1070
   382
1005
27
  0
DIMSTYLE
105
2A8
330
31
100
AcDbSymbolTableRecord
100
AcDbDimStyleTableRecord
  2
AM_DIN$3
 70
     0
  4
"
 41
3.5
 42
1.0
 43
10.0
 44
1.0
 47
0.1
 48
0.1
 73
     0
 77
     1
 78
     8
 79
     2
140
3.5
141
0.0
143
0.0393701
146
0.71
147
1.5
176
   256
177
   256
178
     2
271
     2
272
     3
274
     4
283
     0
284
     8
288
     1
289
     0
340
24
371
    -1
372
    -1
1001
ACAD_DSTYLE_DIMBREAK
1070
   391
1040
3.75
1001
ACAD_DSTYLE_DIMJAG
1070
   388
1040
1.5
1001
ACAD_DSTYLE_DIMJOGGED_JOGANGLE_SYMBOL
1070
   384
1040
1.570796326794896
1001
ACAD_DSTYLE_DIM_LINETYPE
1070
   380
1005
27
1001
ACAD_DSTYLE_DIM_EXT1_LINETYPE
1070
   381
1005
27
1001
ACAD_DSTYLE_DIM_EXT2_LINETYPE
1070
   382
1005
27
  0
DIMSTYLE
105
2A9
330
31
100
AcDbSymbolTableRecord
100
AcDbDimStyleTableRecord
  2
AM_DIN$4
 70
     0
  4
"
 41
3.5
 42
1.0
 43
10.0
 44
1.0
 47
0.1
 48
0.1
 73
     0
 74
     0
 77
     1
 78
     8
 79
     2
140
3.5
141
0.0
143
0.0393701
146
0.71
147
1.5
172
     1
176
   256
177
   256
178
     2
271
     2
272
     3
274
     4
283
     0
284
     8
340
24
371
    -1
372
    -1
1001
ACAD_DSTYLE_DIMBREAK
1070
   391
1040
3.75
1001
ACAD_DSTYLE_DIMJAG
1070
   388
1040
1.5
1001
ACAD_DSTYLE_DIMJOGGED_JOGANGLE_SYMBOL
1070
   384
1040
1.570796326794896
1001
ACAD_DSTYLE_DIM_LINETYPE
1070
   380
1005
27
1001
ACAD_DSTYLE_DIM_EXT1_LINETYPE
1070
   381
1005
27
1001
ACAD_DSTYLE_DIM_EXT2_LINETYPE
1070
   382
1005
27
  0
DIMSTYLE
105
2AA
330
31
100
AcDbSymbolTableRecord
100
AcDbDimStyleTableRecord
  2
AM_DIN$6
 70
     0
  4
"
 41
3.5
 42
1.0
 43
10.0
 44
1.0
 47
0.1
 48
0.1
 73
     0
 74
     0
 78
     8
 79
     2
140
3.5
141
0.0
143
0.0393701
146
0.71
147
1.5
172
     1
176
   256
177
   256
178
     2
271
     2
272
     3
274
     4
283
     0
284
     8
340
24
371
    -1
372
    -1
1001
ACAD_DSTYLE_DIMBREAK
1070
   391
1040
3.75
1001
ACAD_DSTYLE_DIMJAG
1070
   388
1040
1.5
1001
ACAD_DSTYLE_DIMJOGGED_JOGANGLE_SYMBOL
1070
   384
1040
1.570796326794896
1001
ACAD_DSTYLE_DIM_LINETYPE
1070
   380
1005
27
1001
ACAD_DSTYLE_DIM_EXT1_LINETYPE
1070
   381
1005
27
1001
ACAD_DSTYLE_DIM_EXT2_LINETYPE
1070
   382
1005
27
  0
DIMSTYLE
105
2AB
330
31
100
AcDbSymbolTableRecord
100
AcDbDimStyleTableRecord
  2
AM_DIN$7
 70
     0
  4
"
 41
3.5
 42
1.0
 43
10.0
 44
1.0
 47
0.1
 48
0.1
 73
     0
 74
     0
 77
     1
 78
     8
 79
     2
140
3.5
141
0.0
143
0.0393701
146
0.71
147
1.5
172
     1
176
   256
177
   256
178
     2
271
     2
272
     3
274
     4
283
     0
284
     8
340
24
371
    -1
372
    -1
1001
ACAD_DSTYLE_DIMBREAK
1070
   391
1040
3.75
1001
ACAD_DSTYLE_DIMJAG
1070
   388
1040
1.5
1001
ACAD_DSTYLE_DIMJOGGED_JOGANGLE_SYMBOL
1070
   384
1040
1.570796326794896
1001
ACAD_DSTYLE_DIM_LINETYPE
1070
   380
1005
27
1001
ACAD_DSTYLE_DIM_EXT1_LINETYPE
1070
   381
1005
27
1001
ACAD_DSTYLE_DIM_EXT2_LINETYPE
1070
   382
1005
27
  0
DIMSTYLE
105
2AC
330
31
100
AcDbSymbolTableRecord
100
AcDbDimStyleTableRecord
  2
AM_DIN$SF
 70
     0
  4
"
 41
3.5
 42
1.0
 43
10.0
 44
1.0
 47
0.1
 48
0.1
 73
     0
 74
     0
 75
     1
 76
     1
 77
     1
 78
     8
 79
     2
140
3.5
141
0.0
143
0.0393701
146
0.71
147
1.5
172
     1
176
   256
177
   256
178
     2
271
     2
272
     3
274
     4
283
     0
284
     8
340
24
371
    -1
372
    -1
1001
ACAD_DSTYLE_DIMBREAK
1070
   391
1040
3.75
1001
ACAD_DSTYLE_DIMJAG
1070
   388
1040
1.5
1001
ACAD_DSTYLE_DIMJOGGED_JOGANGLE_SYMBOL
1070
   384
1040
1.570796326794896
1001
ACAD_DSTYLE_DIM_LINETYPE
1070
   380
1005
27
1001
ACAD_DSTYLE_DIM_EXT1_LINETYPE
1070
   381
1005
27
1001
ACAD_DSTYLE_DIM_EXT2_LINETYPE
1070
   382
1005
27
  0
DIMSTYLE
105
2AD
330
31
100
AcDbSymbolTableRecord
100
AcDbDimStyleTableRecord
  2
AM_DIN$SH
 70
     0
  4
"
 41
3.5
 42
1.0
 43
10.0
 44
1.0
 47
0.1
 48
0.1
 73
     0
 74
     0
 75
     1
 76
     1
 77
     1
 78
     8
 79
     2
140
3.5
141
0.0
143
0.0393701
144
2.0
146
0.71
147
1.5
172
     1
173
     1
176
   256
177
   256
178
     2
271
     2
272
     3
274
     4
283
     0
284
     8
340
24
343
2AE
371
    -1
372
    -1
1001
ACAD_DSTYLE_DIMBREAK
1070
   391
1040
3.75
1001
ACAD_DSTYLE_DIMJAG
1070
   388
1040
1.5
1001
ACAD_DSTYLE_DIMJOGGED_JOGANGLE_SYMBOL
1070
   384
1040
1.570796326794896
1001
ACAD_DSTYLE_DIM_LINETYPE
1070
   380
1005
27
1001
ACAD_DSTYLE_DIM_EXT1_LINETYPE
1070
   381
1005
27
1001
ACAD_DSTYLE_DIM_EXT2_LINETYPE
1070
   382
1005
27
  0
DIMSTYLE
105
6E
102
{ACAD_REACTORS
330
74
330
5A
330
CA
330
D7
330
E4
330
F1
330
FE
330
10B
330
11A
330
13D
330
14A
330
158
330
169
330
178
330
185
330
192
330
19F
330
1AC
330
1B9
330
1C6
330
1D3
330
1E0
330
1ED
330
1FA
330
207
102
}
330
31
100
AcDbSymbolTableRecord
100
AcDbDimStyleTableRecord
  2
AM_DIN$0
 70
     0
  4
"
 41
3.5
 42
1.0
 43
10.0
 44
1.0
 47
0.1
 48
0.1
 73
     0
 74
     0
 77
     1
 78
     8
 79
     2
140
3.5
141
0.0
143
0.0393701
146
0.71
147
1.5
172
     1
176
   256
177
   256
178
     2
271
     2
272
     3
274
     4
283
     0
284
     8
340
24
371
    -1
372
    -1
1001
ACAD_DSTYLE_DIMBREAK
1070
   391
1040
3.75
1001
ACAD_DSTYLE_DIMJAG
1070
   388
1040
1.5
1001
ACAD_DSTYLE_DIMJOGGED_JOGANGLE_SYMBOL
1070
   384
1040
1.570796326794896
1001
ACAD_DSTYLE_DIM_LINETYPE
1070
   380
1005
27
1001
ACAD_DSTYLE_DIM_EXT1_LINETYPE
1070
   381
1005
27
1001
ACAD_DSTYLE_DIM_EXT2_LINETYPE
1070
   382
1005
27
  0
DIMSTYLE
105
136
102
{ACAD_REACTORS
330
127
102
}
330
31
100
AcDbSymbolTableRecord
100
AcDbDimStyleTableRecord
  2
AM_DIN$2
 70
     0
  4
"
 41
3.5
 42
1.0
 43
10.0
 44
1.0
 47
0.1
 48
0.1
 73
     0
 74
     0
 77
     1
 78
     8
 79
     2
140
3.5
141
0.0
143
0.0393701
146
0.71
147
1.5
172
     1
176
   256
177
   256
178
     2
271
     2
272
     3
274
     4
283
     0
284
     8
340
24
371
    -1
372
    -1
1001
ACAD_DSTYLE_DIMBREAK
1070
   391
1040
3.75
1001
ACAD_DSTYLE_DIMJAG
1070
   388
1040
1.5
1001
ACAD_DSTYLE_DIMJOGGED_JOGANGLE_SYMBOL
1070
   384
1040
1.570796326794896
1001
ACAD_DSTYLE_DIM_LINETYPE
1070
   380
1005
27
1001
ACAD_DSTYLE_DIM_EXT1_LINETYPE
1070
   381
1005
27
1001
ACAD_DSTYLE_DIM_EXT2_LINETYPE
1070
   382
1005
27
  0
ENDTAB
  0
TABLE
  2
BLOCK_RECORD
  5
1
330
0
100
AcDbSymbolTable
 70
    33
  0
BLOCK_RECORD
  5
2
102
{ACAD_XDICTIONARY
360
3
102
}
330
1
100
AcDbSymbolTableRecord
100
AcDbBlockTableRecord
  2
*Model_Space
340
7
  0
BLOCK_RECORD
  5
C
102
{ACAD_XDICTIONARY
360
D
102
}
330
1
100
AcDbSymbolTableRecord
100
AcDbBlockTableRecord
  2
*Paper_Space
340
11
  0
BLOCK_RECORD
  5
2AE
330
1
100
AcDbSymbolTableRecord
100
AcDbBlockTableRecord
  2
GENAXEH
340
0
  0
BLOCK_RECORD
  5
290
330
1
100
AcDbSymbolTableRecord
100
AcDbBlockTableRecord
  2
_ACMFILLED30
340
0
  0
BLOCK_RECORD
  5
5D
330
1
100
AcDbSymbolTableRecord
100
AcDbBlockTableRecord
  2
*D2
340
0
  0
BLOCK_RECORD
  5
75
330
1
100
AcDbSymbolTableRecord
100
AcDbBlockTableRecord
  2
*D3
340
0
  0
BLOCK_RECORD
  5
95
330
1
100
AcDbSymbolTableRecord
100
AcDbBlockTableRecord
  2
BA-Z30550877-10
340
0
310
28000000200000002000000001002000000000000010000001000000010000000000000000000000000000FF000000FF000000FF000000FF000000FF000000FF000000FF000000FF000000FF000000FF000000FF000000FF000000FF000000FF000000FF000000FF000000FF000000FF000000FF000000FF000000FF000000
310
FF000000FF000000FF000000FF000000FF000000FF000000FF000000FF000000FF000000FF000000FF000000FF000000FF000000FF000000FF000000FF000000FF000000FF000000FF000000FF000000FF000000FF000000FF000000FF000000FF000000FF00CC66FF00CC66FF00CC66FF000000FF000000FF000000FF0000
310
00FF000000FF000000FF000000FF000000FF000000FF000000FF000000FF000000FF000000FF000000FF000000FF000000FF000000FF000000FF000000FF000000FF000000FF000000FF000000FF000000FF00CC66FF00CC66FF00CC66FF00CC66FF00CC66FF00CC66FF000000FF000000FF00CC66FF00CC66FF00CC66FF00
310
0000FF000000FF000000FF000000FF000000FF000000FF000000FF000000FF000000FF000000FF000000FF000000FF000000FF000000FF000000FF000000FF000000FF000000FF000000FF00CC66FF00CC66FF000000FF000000FF000000FF000000FF000000FF00CC66FF000000FF000000FF000000FF000000FF00CC66FF
310
00CC66FF00CC66FF000000FF000000FF000000FF000000FF000000FF000000FF000000FF000000FF000000FF000000FF000000FF000000FF000000FF000000FF000000FF000000FF00CC66FF000000FF00CC66FF000000FF000000FF000000FF000000FF000000FF00CC66FF000000FF000000FF000000FF000000FF00CC66
310
FF000000FF000000FF00CC66FF00CC66FF000000FF000000FF000000FF000000FF000000FF000000FF000000FF000000FF000000FF000000FF000000FF000000FF000000FF00CC66FF000000FF000000FF00CC66FF000000FF000000FF000000FF000000FF000000FF00CC66FF000000FF000000FF000000FF000000FF00CC
310
66FF000000FF000000FF000000FF000000FF00CC66FF000000FF000000FF000000FF000000FF000000FF000000FF000000FF000000FF000000FF000000FF000000FF00CC66FF000000FF000000FF000000FF00CC66FF000000FF000000FF000000FF000000FF000000FF00CC66FF000000FF000000FF000000FF000000FF00
310
CC66FF000000FF000000FF000000FF000000FF00CC66FF00CC66FF000000FF000000FF000000FF000000FF000000FF000000FF000000FF000000FF000000FF00CC66FF00CC66FF00CC66FF00CC66FF00CC66FF00CC66FF00CC66FF00CC66FF00CC66FF00CC66FF00CC66FF00CC66FF00CC66FF00CC66FF00CC66FF00CC66FF
310
00CC66FF00CC66FF00CC66FF00CC66FF00CC66FF00CC66FF00CC66FF00CC66FF000000FF000000FF000000FF000000FF000000FF000000FF000000FF000000FF00CC66FF000000FF000000FF000000FF000000FF00CC66FF000000FF000000FF000000FF000000FF000000FF00CC66FF000000FF000000FF000000FF000000
310
FF00CC66FF000000FF000000FF000000FF000000FF00CC66FF000000FF00CC66FF000000FF000000FF000000FF000000FF000000FF000000FF000000FF00CC66FF00CC66FF000000FF000000FF000000FF000000FF00CC66FF000000FF000000FF000000FF000000FF000000FF00CC66FF000000FF000000FF000000FF0000
310
00FF00CC66FF000000FF000000FF000000FF000000FF00CC66FF000000FF000000FF00CC66FF000000FF000000FF000000FF000000FF000000FF000000FF00CC66FF00CC66FF000000FF000000FF000000FF000000FF00CC66FF000000FF000000FF000000FF000000FF000000FF00CC66FF000000FF000000FF000000FF00
310
0000FF00CC66FF000000FF000000FF000000FF000000FF00CC66FF000000FF000000FF000000FF00CC66FF000000FF000000FF000000FF000000FF00CC66FF000000FF00CC66FF000000FF000000FF000000FF000000FF00CC66FF000000FF000000FF000000FF000000FF000000FF00CC66FF000000FF000000FF000000FF
310
000000FF00CC66FF000000FF000000FF000000FF000000FF00CC66FF000000FF000000FF000000FF00CC66FF000000FF000000FF000000FF000000FF00CC66FF00CC66FF00CC66FF00CC66FF00CC66FF00CC66FF00CC66FF00CC66FF00CC66FF00CC66FF00CC66FF00CC66FF00CC66FF00CC66FF00CC66FF00CC66FF00CC66
310
FF00CC66FF00CC66FF00CC66FF00CC66FF00CC66FF00CC66FF00CC66FF00CC66FF00CC66FF00CC66FF00CC66FF000000FF000000FF000000FF000000FF00CC66FF000000FF00CC66FF000000FF000000FF000000FF000000FF00CC66FF000000FF000000FF000000FF000000FF000000FF00CC66FF000000FF000000FF0000
310
00FF000000FF00CC66FF000000FF000000FF000000FF000000FF00CC66FF000000FF000000FF000000FF00CC66FF000000FF000000FF000000FF00CC66FF000000FF000000FF00CC66FF000000FF000000FF000000FF000000FF00CC66FF000000FF000000FF000000FF000000FF000000FF00CC66FF000000FF000000FF00
310
0000FF000000FF00CC66FF000000FF000000FF000000FF000000FF00CC66FF000000FF000000FF000000FF000000FF00CC66FF000000FF000000FF00CC66FF000000FF000000FF00CC66FF000000FF000000FF000000FF000000FF00CC66FF000000FF000000FF000000FF000000FF000000FF00CC66FF000000FF000000FF
310
000000FF000000FF00CC66FF000000FF000000FF000000FF000000FF00CC66FF000000FF000000FF000000FF000000FF00CC66FF000000FF000000FF00CC66FF000000FF000000FF00CC66FF000000FF000000FF000000FF000000FF00CC66FF000000FF000000FF000000FF000000FF000000FF00CC66FF000000FF000000
310
FF000000FF000000FF00CC66FF000000FF000000FF000000FF000000FF00CC66FF000000FF000000FF000000FF000000FF00CC66FF000000FF000000FF00CC66FF00CC66FF00CC66FF00CC66FF00CC66FF00CC66FF00CC66FF00CC66FF00CC66FF00CC66FF00CC66FF00CC66FF00CC66FF00CC66FF00CC66FF00CC66FF00CC
310
66FF00CC66FF00CC66FF00CC66FF00CC66FF00CC66FF00CC66FF00CC66FF00CC66FF00CC66FF00CC66FF00CC66FF00CC66FF000000FF000000FF000000FF000000FF00CC66FF000000FF00CC66FF000000FF000000FF000000FF000000FF00CC66FF000000FF000000FF000000FF000000FF000000FF00CC66FF000000FF00
310
0000FF000000FF000000FF00CC66FF000000FF000000FF000000FF000000FF00CC66FF000000FF000000FF000000FF00CC66FF000000FF000000FF000000FF000000FF00CC66FF000000FF00CC66FF000000FF000000FF000000FF000000FF00CC66FF000000FF000000FF000000FF000000FF000000FF00CC66FF000000FF
310
000000FF000000FF000000FF00CC66FF000000FF000000FF000000FF000000FF00CC66FF000000FF000000FF000000FF00CC66FF000000FF000000FF000000FF000000FF00CC66FF000000FF00CC66FF000000FF000000FF000000FF000000FF00CC66FF000000FF000000FF000000FF000000FF000000FF00CC66FF000000
310
FF000000FF000000FF000000FF00CC66FF000000FF000000FF000000FF000000FF00CC66FF000000FF000000FF000000FF00CC66FF000000FF000000FF000000FF000000FF000000FF00CC66FF00CC66FF000000FF000000FF000000FF000000FF00CC66FF000000FF000000FF000000FF000000FF000000FF00CC66FF0000
310
00FF000000FF000000FF000000FF00CC66FF000000FF000000FF000000FF000000FF00CC66FF000000FF000000FF000000FF00CC66FF000000FF000000FF000000FF000000FF000000FF00CC66FF00CC66FF000000FF000000FF000000FF000000FF00CC66FF000000FF000000FF000000FF000000FF000000FF00CC66FF00
310
0000FF000000FF000000FF000000FF00CC66FF000000FF000000FF000000FF000000FF00CC66FF000000FF000000FF00CC66FF000000FF000000FF000000FF000000FF000000FF000000FF00CC66FF00CC66FF00CC66FF00CC66FF00CC66FF00CC66FF00CC66FF00CC66FF00CC66FF00CC66FF00CC66FF00CC66FF00CC66FF
310
00CC66FF00CC66FF00CC66FF00CC66FF00CC66FF00CC66FF00CC66FF00CC66FF00CC66FF00CC66FF00CC66FF00CC66FF00CC66FF000000FF000000FF000000FF000000FF000000FF000000FF000000FF00CC66FF000000FF000000FF000000FF000000FF00CC66FF000000FF000000FF000000FF000000FF000000FF00CC66
310
FF000000FF000000FF000000FF000000FF00CC66FF000000FF000000FF000000FF000000FF00CC66FF000000FF00CC66FF000000FF000000FF000000FF000000FF000000FF000000FF000000FF000000FF000000FF00CC66FF000000FF000000FF000000FF00CC66FF000000FF000000FF000000FF000000FF000000FF00CC
310
66FF000000FF000000FF000000FF000000FF00CC66FF000000FF000000FF000000FF000000FF00CC66FF00CC66FF000000FF000000FF000000FF000000FF000000FF000000FF000000FF000000FF000000FF000000FF000000FF00CC66FF000000FF000000FF00CC66FF000000FF000000FF000000FF000000FF000000FF00
310
CC66FF000000FF000000FF000000FF000000FF00CC66FF000000FF000000FF000000FF000000FF00CC66FF000000FF000000FF000000FF000000FF000000FF000000FF000000FF000000FF000000FF000000FF000000FF000000FF000000FF00CC66FF000000FF00CC66FF000000FF000000FF000000FF000000FF000000FF
310
00CC66FF000000FF000000FF000000FF000000FF00CC66FF000000FF000000FF00CC66FF00CC66FF000000FF000000FF000000FF000000FF000000FF000000FF000000FF000000FF000000FF000000FF000000FF000000FF000000FF000000FF000000FF00CC66FF00CC66FF00CC66FF00CC66FF00CC66FF00CC66FF00CC66
310
FF00CC66FF00CC66FF00CC66FF00CC66FF00CC66FF00CC66FF00CC66FF00CC66FF000000FF000000FF000000FF000000FF000000FF000000FF000000FF000000FF000000FF000000FF000000FF000000FF000000FF000000FF000000FF000000FF000000FF000000FF000000FF00CC66FF00CC66FF00CC66FF00CC66FF00CC
310
66FF00CC66FF000000FF000000FF00CC66FF00CC66FF00CC66FF000000FF000000FF000000FF000000FF000000FF000000FF000000FF000000FF000000FF000000FF000000FF000000FF000000FF000000FF000000FF000000FF000000FF000000FF000000FF000000FF000000FF000000FF000000FF000000FF000000FF00
310
0000FF00CC66FF00CC66FF00CC66FF000000FF000000FF000000FF000000FF000000FF000000FF000000FF000000FF000000FF000000FF000000FF000000FF000000FF000000FF000000FF000000FF000000FF000000FF000000FF000000FF000000FF000000FF000000FF000000FF000000FF000000FF000000FF000000FF
310
000000FF000000FF000000FF000000FF000000FF000000FF000000FF000000FF000000FF000000FF000000FF000000FF000000FF000000FF000000FF000000FF000000FF000000FF
102
{BLKREFS
331
94
102
}
1001
ACAD
1000
DesignCenter Data
1002
{
1070
     1
1070
     4
1002
}
  0
BLOCK_RECORD
  5
9C
330
1
100
AcDbSymbolTableRecord
100
AcDbBlockTableRecord
  2
BA-Z-P9732-A
340
0
310
28000000200000002000000001002000000000000010000001000000010000000000000000000000000000FF000000FF000000FF000000FF000000FF000000FF000000FF000000FF000000FF000000FF000000FF000000FF000000FF000000FF000000FF000000FF000000FF000000FF000000FF000000FF000000FF000000
310
FF000000FF000000FF000000FF000000FF000000FF000000FF000000FF000000FF000000FF000000FF000000FF000000FF000000FF000000FF000000FF000000FF000000FF000000FF000000FF000000FF000000FF000000FF000000FF007FFFFF007FFFFF007FFFFF007FFFFF007FFFFF007FFFFF007FFFFF007FFFFF007F
310
FFFF007FFFFF007FFFFF007FFFFF000000FF000000FF000000FF000000FF000000FF000000FF000000FF000000FF000000FF000000FF000000FF000000FF000000FF000000FF000000FF000000FF000000FF000000FF000000FF000000FF007FFFFF007FFFFF007FFFFF000000FF007FFFFF007FFFFF000000FF007FFFFF00
310
7FFFFF000000FF007FFFFF007FFFFF000000FF000000FF000000FF000000FF000000FF000000FF000000FF000000FF000000FF000000FF000000FF000000FF000000FF000000FF000000FF000000FF000000FF000000FF000000FF000000FF007FFFFF000000FF007FFFFF000000FF007FFFFF007FFFFF000000FF007FFFFF
310
007FFFFF000000FF007FFFFF007FFFFF000000FF000000FF000000FF000000FF000000FF000000FF000000FF000000FF000000FF000000FF000000FF000000FF000000FF000000FF000000FF000000FF000000FF000000FF000000FF000000FF007FFFFF007FFFFF000000FF007FFFFF000000FF000000FF007FFFFF000000
310
FF000000FF007FFFFF000000FF007FFFFF000000FF000000FF000000FF000000FF000000FF000000FF000000FF000000FF000000FF000000FF000000FF000000FF000000FF000000FF000000FF000000FF000000FF000000FF000000FF000000FF007FFFFF007FFFFF000000FF007FFFFF007FFFFF007FFFFF000000FF007F
310
FFFF007FFFFF000000FF007FFFFF007FFFFF000000FF000000FF000000FF000000FF000000FF000000FF000000FF000000FF000000FF000000FF000000FF000000FF000000FF000000FF000000FF000000FF000000FF000000FF000000FF000000FF007FFFFF000000FF007FFFFF000000FF007FFFFF007FFFFF000000FF00
310
7FFFFF007FFFFF000000FF007FFFFF007FFFFF000000FF000000FF000000FF000000FF000000FF000000FF000000FF000000FF000000FF000000FF000000FF000000FF000000FF000000FF000000FF000000FF000000FF000000FF000000FF000000FF007FFFFF007FFFFF000000FF007FFFFF000000FF000000FF007FFFFF
310
000000FF000000FF007FFFFF000000FF007FFFFF000000FF000000FF000000FF000000FF000000FF000000FF000000FF000000FF000000FF000000FF000000FF000000FF000000FF000000FF000000FF000000FF000000FF000000FF000000FF007FFFFF007FFFFF007FFFFF007FFFFF000000FF007FFFFF007FFFFF000000
310
FF007FFFFF007FFFFF000000FF007FFFFF007FFFFF000000FF000000FF000000FF000000FF000000FF000000FF000000FF000000FF000000FF000000FF000000FF000000FF000000FF000000FF000000FF000000FF000000FF000000FF000000FF007FFFFF000000FF007FFFFF007FFFFF000000FF007FFFFF007FFFFF0000
310
00FF007FFFFF007FFFFF000000FF007FFFFF007FFFFF000000FF000000FF000000FF000000FF000000FF000000FF000000FF000000FF000000FF000000FF000000FF000000FF000000FF000000FF000000FF000000FF000000FF000000FF000000FF007FFFFF007FFFFF000000FF000000FF007FFFFF000000FF000000FF00
310
7FFFFF000000FF000000FF007FFFFF000000FF007FFFFF000000FF000000FF000000FF000000FF000000FF000000FF000000FF000000FF000000FF000000FF000000FF000000FF000000FF000000FF000000FF000000FF000000FF000000FF000000FF007FFFFF000000FF007FFFFF007FFFFF000000FF007FFFFF007FFFFF
310
000000FF007FFFFF007FFFFF000000FF007FFFFF007FFFFF000000FF000000FF000000FF000000FF000000FF000000FF000000FF000000FF000000FF000000FF000000FF000000FF000000FF000000FF000000FF000000FF000000FF000000FF000000FF007FFFFF000000FF007FFFFF007FFFFF000000FF007FFFFF007FFF
310
FF000000FF007FFFFF007FFFFF000000FF007FFFFF007FFFFF000000FF000000FF000000FF000000FF000000FF000000FF000000FF000000FF000000FF000000FF000000FF000000FF000000FF000000FF000000FF007FFFFF007FFFFF007FFFFF007FFFFF007FFFFF007FFFFF000000FF000000FF007FFFFF000000FF0000
310
00FF007FFFFF000000FF000000FF007FFFFF000000FF007FFFFF000000FF000000FF000000FF000000FF000000FF000000FF000000FF000000FF000000FF000000FF000000FF000000FF000000FF000000FF000000FF007FFFFF000000FF007FFFFF007FFFFF007FFFFF000000FF007FFFFF007FFFFF007FFFFF000000FF00
310
7FFFFF000000FF007FFFFF007FFFFF000000FF007FFFFF007FFFFF000000FF000000FF000000FF000000FF000000FF000000FF000000FF000000FF000000FF000000FF000000FF000000FF000000FF000000FF007FFFFF007FFFFF007FFFFF007FFFFF007FFFFF007FFFFF000000FF007FFFFF007FFFFF000000FF007FFFFF
310
000000FF000000FF007FFFFF007FFFFF000000FF007FFFFF007FFFFF000000FF000000FF000000FF000000FF000000FF000000FF000000FF000000FF000000FF000000FF000000FF000000FF000000FF000000FF007FFFFF000000FF000000FF007FFFFF000000FF000000FF007FFFFF000000FF000000FF007FFFFF000000
310
FF007FFFFF007FFFFF007FFFFF007FFFFF007FFFFF007FFFFF007FFFFF000000FF000000FF000000FF000000FF000000FF000000FF000000FF000000FF000000FF000000FF000000FF000000FF000000FF000000FF007FFFFF007FFFFF007FFFFF007FFFFF007FFFFF007FFFFF000000FF007FFFFF007FFFFF000000FF007F
310
FFFF007FFFFF007FFFFF007FFFFF000000FF000000FF000000FF000000FF000000FF000000FF000000FF000000FF000000FF000000FF000000FF000000FF000000FF000000FF000000FF000000FF000000FF000000FF000000FF007FFFFF007FFFFF007FFFFF007FFFFF007FFFFF000000FF007FFFFF007FFFFF000000FF00
310
7FFFFF007FFFFF000000FF007FFFFF007FFFFF000000FF000000FF000000FF000000FF000000FF000000FF000000FF000000FF000000FF000000FF000000FF000000FF000000FF000000FF000000FF000000FF000000FF000000FF000000FF000000FF000000FF007FFFFF000000FF007FFFFF000000FF000000FF007FFFFF
310
000000FF000000FF007FFFFF000000FF007FFFFF000000FF000000FF000000FF000000FF000000FF000000FF000000FF000000FF000000FF000000FF000000FF000000FF000000FF000000FF000000FF000000FF000000FF000000FF000000FF000000FF000000FF007FFFFF007FFFFF000000FF007FFFFF007FFFFF000000
310
FF007FFFFF007FFFFF000000FF007FFFFF007FFFFF007FFFFF000000FF000000FF000000FF000000FF000000FF000000FF000000FF000000FF000000FF000000FF000000FF000000FF000000FF000000FF000000FF000000FF000000FF007FFFFF007FFFFF007FFFFF007FFFFF007FFFFF000000FF007FFFFF007FFFFF0000
310
00FF007FFFFF007FFFFF000000FF007FFFFF007FFFFF007FFFFF000000FF000000FF000000FF000000FF000000FF000000FF000000FF000000FF000000FF000000FF000000FF000000FF000000FF000000FF000000FF000000FF000000FF007FFFFF007FFFFF007FFFFF007FFFFF000000FF007FFFFF000000FF000000FF00
310
7FFFFF000000FF000000FF007FFFFF000000FF000000FF007FFFFF007FFFFF000000FF000000FF000000FF000000FF000000FF000000FF000000FF000000FF000000FF000000FF000000FF000000FF000000FF000000FF000000FF000000FF000000FF007FFFFF007FFFFF007FFFFF007FFFFF000000FF007FFFFF007FFFFF
310
000000FF007FFFFF007FFFFF000000FF007FFFFF007FFFFF000000FF007FFFFF000000FF000000FF000000FF000000FF000000FF000000FF000000FF000000FF000000FF000000FF000000FF000000FF000000FF000000FF000000FF000000FF000000FF000000FF000000FF007FFFFF007FFFFF007FFFFF007FFFFF007FFF
310
FF000000FF007FFFFF007FFFFF000000FF007FFFFF007FFFFF007FFFFF007FFFFF007FFFFF000000FF000000FF000000FF000000FF000000FF000000FF000000FF000000FF000000FF000000FF000000FF000000FF000000FF000000FF000000FF000000FF000000FF000000FF000000FF000000FF007FFFFF007FFFFF0000
310
00FF007FFFFF000000FF000000FF007FFFFF007FFFFF000000FF007FFFFF007FFFFF007FFFFF000000FF000000FF000000FF000000FF000000FF000000FF000000FF000000FF000000FF000000FF000000FF000000FF000000FF000000FF000000FF000000FF000000FF000000FF000000FF000000FF000000FF000000FF00
310
7FFFFF007FFFFF007FFFFF007FFFFF000000FF007FFFFF007FFFFF000000FF000000FF000000FF000000FF000000FF000000FF000000FF000000FF000000FF000000FF000000FF000000FF000000FF000000FF000000FF000000FF000000FF000000FF000000FF000000FF000000FF000000FF000000FF000000FF000000FF
310
000000FF000000FF007FFFFF007FFFFF000000FF007FFFFF007FFFFF007FFFFF000000FF000000FF000000FF000000FF000000FF000000FF000000FF000000FF000000FF000000FF000000FF000000FF000000FF000000FF000000FF000000FF000000FF000000FF000000FF000000FF000000FF000000FF000000FF000000
310
FF000000FF000000FF000000FF000000FF007FFFFF007FFFFF007FFFFF007FFFFF007FFFFF000000FF000000FF000000FF000000FF000000FF000000FF000000FF000000FF000000FF000000FF000000FF000000FF000000FF000000FF000000FF000000FF000000FF000000FF000000FF000000FF000000FF000000FF0000
310
00FF000000FF000000FF000000FF000000FF000000FF000000FF007FFFFF007FFFFF007FFFFF007FFFFF000000FF000000FF000000FF000000FF000000FF000000FF000000FF000000FF000000FF000000FF000000FF000000FF000000FF000000FF000000FF000000FF000000FF000000FF000000FF000000FF000000FF00
310
0000FF000000FF000000FF000000FF000000FF000000FF000000FF000000FF000000FF007FFFFF007FFFFF000000FF000000FF000000FF000000FF000000FF000000FF000000FF000000FF000000FF000000FF000000FF000000FF000000FF000000FF000000FF000000FF000000FF000000FF000000FF000000FF000000FF
310
000000FF000000FF000000FF000000FF000000FF000000FF000000FF000000FF000000FF000000FF000000FF000000FF000000FF000000FF000000FF000000FF000000FF000000FF
102
{BLKREFS
331
9B
102
}
1001
ACAD
1000
DesignCenter Data
1002
{
1070
     1
1070
     4
1002
}
  0
BLOCK_RECORD
  5
A2
102
{ACAD_XDICTIONARY
360
A3
102
}
330
1
100
AcDbSymbolTableRecord
100
AcDbBlockTableRecord
  2
BA-Z-P9771-I
340
0
310
28000000200000002000000001002000000000000010000001000000010000000000000000000000000000FF000000FF000000FF000000FF000000FF000000FF000000FF000000FF000000FF000000FF000000FF000000FF000000FF000000FF000000FF000000FF000000FF000000FF000000FF000000FF000000FF000000
310
FF000000FF000000FF000000FF000000FF000000FF000000FF000000FF000000FF000000FF000000FF000000FF000000FF000000FF000000FF000000FF000000FF000000FF000000FF000000FF000000FF000000FF000000FF000000FF000000FF000000FF000000FF000000FF000000FF000000FF000000FF000000FF0000
310
00FF000000FF000000FF000000FF000000FF000000FF000000FF000000FF000000FF000000FF000000FF000000FF000000FF000000FF000000FF000000FF000000FF000000FF000000FF000000FF000000FF000000FF000000FF000000FF000000FF000000FF000000FF000000FF000000FF000000FF000000FF000000FF00
310
0000FF000000FF000000FF000000FF000000FF000000FF000000FF000000FF000000FF000000FF000000FF000000FF000000FF000000FF000000FF000000FF000000FF000000FF000000FF000000FF000000FF000000FF000000FF000000FF000000FF000000FF000000FF000000FF000000FF000000FF000000FF000000FF
310
000000FF000000FF000000FF000000FF000000FF000000FF000000FF000000FF000000FF000000FF000000FF000000FF000000FF000000FF000000FF000000FF000000FF000000FF000000FF000000FF000000FF000000FF000000FF000000FF000000FF000000FF000000FF000000FF000000FF000000FF000000FF000000
310
FF000000FF000000FF000000FF000000FF000000FF000000FF000000FF000000FF000000FF000000FF000000FF000000FF000000FF000000FF000000FF000000FF007FFFFF007FFFFF007FFFFF000000FF000000FF000000FF000000FF000000FF000000FF000000FF000000FF000000FF000000FF000000FF000000FF0000
310
00FF000000FF000000FF000000FF000000FF000000FF000000FF000000FF000000FF000000FF000000FF000000FF000000FF000000FF000000FF000000FF000000FF007FFFFF000000FF000000FF007FFFFF007FFFFF000000FF000000FF000000FF000000FF000000FF000000FF000000FF000000FF000000FF000000FF00
310
0000FF000000FF000000FF000000FF000000FF007FFFFF007FFFFF007FFFFF000000FF000000FF000000FF000000FF000000FF000000FF000000FF000000FF000000FF000000FF007FFFFF000000FF000000FF000000FF007FFFFF007FFFFF000000FF000000FF000000FF000000FF000000FF000000FF000000FF000000FF
310
000000FF000000FF000000FF007FFFFF007FFFFF000000FF000000FF000000FF007FFFFF000000FF000000FF000000FF000000FF000000FF000000FF000000FF000000FF000000FF000000FF007FFFFF000000FF000000FF000000FF000000FF007FFFFF007FFFFF000000FF000000FF000000FF000000FF000000FF007FFF
310
FF007FFFFF007FFFFF007FFFFF000000FF000000FF000000FF000000FF000000FF000000FF007FFFFF000000FF000000FF000000FF000000FF000000FF000000FF000000FF000000FF000000FF000000FF007FFFFF000000FF000000FF000000FF000000FF000000FF007FFFFF007FFFFF007FFFFF007FFFFF007FFFFF0000
310
00FF000000FF000000FF000000FF000000FF000000FF000000FF007FFFFF007FFFFF007FFFFF007FFFFF000000FF000000FF000000FF000000FF000000FF000000FF000000FF000000FF000000FF000000FF007FFFFF000000FF000000FF000000FF000000FF000000FF000000FF000000FF000000FF000000FF000000FF00
310
0000FF000000FF000000FF000000FF000000FF000000FF000000FF007FFFFF000000FF000000FF000000FF000000FF000000FF000000FF000000FF000000FF000000FF000000FF000000FF000000FF000000FF007FFFFF007FFFFF000000FF000000FF000000FF000000FF000000FF000000FF000000FF000000FF000000FF
310
000000FF000000FF000000FF000000FF000000FF000000FF000000FF007FFFFF000000FF000000FF000000FF000000FF000000FF000000FF000000FF000000FF000000FF000000FF000000FF000000FF000000FF007FFFFF000000FF000000FF000000FF000000FF000000FF000000FF000000FF000000FF000000FF000000
310
FF000000FF000000FF000000FF000000FF000000FF000000FF000000FF007FFFFF007FFFFF000000FF000000FF000000FF000000FF000000FF000000FF000000FF000000FF000000FF000000FF000000FF000000FF007FFFFF000000FF000000FF000000FF000000FF000000FF000000FF007FFFFF007FFFFF007FFFFF007F
310
FFFF000000FF000000FF000000FF000000FF000000FF000000FF000000FF000000FF000000FF007FFFFF000000FF000000FF000000FF000000FF000000FF000000FF000000FF000000FF000000FF007FFFFF007FFFFF000000FF000000FF000000FF000000FF000000FF000000FF007FFFFF000000FF000000FF000000FF00
310
0000FF007FFFFF000000FF000000FF000000FF000000FF000000FF000000FF000000FF000000FF007FFFFF000000FF000000FF000000FF000000FF000000FF000000FF000000FF000000FF007FFFFF000000FF000000FF000000FF000000FF000000FF000000FF000000FF007FFFFF000000FF000000FF000000FF000000FF
310
000000FF000000FF007FFFFF000000FF000000FF000000FF000000FF000000FF000000FF000000FF000000FF007FFFFF007FFFFF000000FF000000FF000000FF000000FF000000FF000000FF007FFFFF007FFFFF007FFFFF007FFFFF000000FF000000FF000000FF000000FF007FFFFF000000FF000000FF000000FF000000
310
FF000000FF000000FF007FFFFF000000FF000000FF000000FF000000FF000000FF000000FF007FFFFF007FFFFF007FFFFF007FFFFF000000FF000000FF000000FF000000FF000000FF000000FF007FFFFF000000FF000000FF007FFFFF000000FF000000FF000000FF000000FF007FFFFF000000FF000000FF000000FF0000
310
00FF000000FF000000FF007FFFFF000000FF000000FF000000FF000000FF000000FF000000FF007FFFFF000000FF000000FF000000FF000000FF000000FF000000FF000000FF000000FF000000FF000000FF000000FF000000FF007FFFFF000000FF000000FF000000FF000000FF007FFFFF000000FF000000FF000000FF00
310
0000FF000000FF000000FF007FFFFF000000FF000000FF000000FF000000FF000000FF000000FF007FFFFF000000FF000000FF000000FF000000FF000000FF000000FF000000FF000000FF000000FF000000FF000000FF000000FF007FFFFF000000FF000000FF000000FF000000FF000000FF007FFFFF000000FF000000FF
310
000000FF000000FF007FFFFF000000FF000000FF000000FF000000FF000000FF000000FF000000FF007FFFFF000000FF000000FF000000FF000000FF000000FF000000FF000000FF000000FF000000FF000000FF000000FF000000FF007FFFFF000000FF000000FF000000FF000000FF000000FF000000FF007FFFFF007FFF
310
FF007FFFFF007FFFFF000000FF000000FF000000FF000000FF000000FF000000FF000000FF000000FF007FFFFF007FFFFF007FFFFF000000FF000000FF000000FF000000FF000000FF000000FF000000FF000000FF000000FF000000FF007FFFFF000000FF000000FF000000FF000000FF000000FF000000FF000000FF0000
310
00FF000000FF000000FF000000FF000000FF000000FF000000FF000000FF000000FF000000FF000000FF000000FF000000FF007FFFFF000000FF000000FF000000FF000000FF000000FF000000FF000000FF000000FF007FFFFF007FFFFF000000FF000000FF000000FF000000FF000000FF000000FF000000FF000000FF00
310
0000FF000000FF000000FF000000FF000000FF000000FF000000FF000000FF000000FF000000FF000000FF000000FF000000FF007FFFFF000000FF000000FF000000FF000000FF000000FF000000FF000000FF007FFFFF000000FF000000FF000000FF000000FF000000FF000000FF000000FF000000FF000000FF000000FF
310
000000FF000000FF000000FF000000FF000000FF000000FF000000FF000000FF000000FF000000FF000000FF007FFFFF007FFFFF000000FF000000FF000000FF000000FF000000FF000000FF007FFFFF007FFFFF000000FF000000FF000000FF000000FF007FFFFF007FFFFF007FFFFF007FFFFF007FFFFF007FFFFF007FFF
310
FF007FFFFF007FFFFF007FFFFF007FFFFF007FFFFF007FFFFF007FFFFF007FFFFF007FFFFF007FFFFF007FFFFF000000FF000000FF000000FF000000FF000000FF000000FF007FFFFF007FFFFF000000FF007FFFFF007FFFFF007FFFFF007FFFFF007FFFFF000000FF000000FF000000FF000000FF000000FF000000FF0000
310
00FF000000FF000000FF000000FF000000FF000000FF000000FF000000FF000000FF000000FF000000FF000000FF000000FF000000FF000000FF000000FF000000FF000000FF000000FF007FFFFF007FFFFF000000FF000000FF000000FF000000FF000000FF000000FF000000FF000000FF000000FF000000FF000000FF00
310
0000FF000000FF000000FF000000FF000000FF000000FF000000FF000000FF000000FF000000FF000000FF000000FF000000FF000000FF000000FF000000FF000000FF000000FF000000FF000000FF000000FF000000FF000000FF000000FF000000FF000000FF000000FF000000FF000000FF000000FF000000FF000000FF
310
000000FF000000FF000000FF000000FF000000FF000000FF000000FF000000FF000000FF000000FF000000FF000000FF000000FF000000FF000000FF000000FF000000FF000000FF000000FF000000FF000000FF000000FF000000FF000000FF000000FF000000FF000000FF000000FF000000FF000000FF000000FF000000
310
FF000000FF000000FF000000FF000000FF000000FF000000FF000000FF000000FF000000FF000000FF000000FF000000FF000000FF000000FF000000FF000000FF000000FF000000FF000000FF000000FF000000FF000000FF000000FF000000FF000000FF000000FF000000FF000000FF000000FF000000FF000000FF0000
310
00FF000000FF000000FF000000FF000000FF000000FF000000FF000000FF000000FF000000FF000000FF000000FF000000FF000000FF000000FF000000FF000000FF000000FF000000FF000000FF000000FF000000FF000000FF000000FF000000FF000000FF000000FF000000FF000000FF000000FF000000FF000000FF00
310
0000FF000000FF000000FF000000FF000000FF000000FF000000FF000000FF000000FF000000FF000000FF000000FF000000FF000000FF000000FF000000FF000000FF000000FF000000FF000000FF000000FF000000FF000000FF000000FF000000FF000000FF000000FF000000FF000000FF000000FF000000FF000000FF
310
000000FF000000FF000000FF000000FF000000FF000000FF000000FF000000FF000000FF000000FF000000FF000000FF000000FF000000FF000000FF000000FF000000FF000000FF
102
{BLKREFS
331
A1
102
}
1001
ACAD
1000
DesignCenter Data
1002
{
1070
     1
1070
     4
1002
}
  0
BLOCK_RECORD
  5
89
102
{ACAD_XDICTIONARY
360
8A
102
}
330
1
100
AcDbSymbolTableRecord
100
AcDbBlockTableRecord
  2
BA-Z-P9717-16
340
0
310
28000000200000002000000001002000000000000010000001000000010000000000000000000000000000FF000000FF000000FF000000FF000000FF000000FF000000FF000000FF000000FF000000FF000000FF000000FF000000FF000000FF000000FF000000FF000000FF000000FF000000FF000000FF000000FF000000
310
FF000000FF000000FF000000FF000000FF000000FF000000FF000000FF000000FF000000FF000000FF000000FF000000FF000000FF000000FF000000FF000000FF000000FF000000FF000000FF000000FF000000FF000000FF000000FF000000FF000000FF000000FF000000FF000000FF000000FF000000FF000000FF0000
310
00FF000000FF000000FF000000FF000000FF000000FF000000FF000000FF000000FF000000FF000000FF000000FF000000FF000000FF000000FF000000FF000000FF000000FF000000FF000000FF000000FF000000FF000000FF000000FF000000FF000000FF000000FF000000FF000000FF000000FF000000FF000000FF00
310
0000FF000000FF000000FF000000FF000000FF000000FF000000FF000000FF000000FF000000FF000000FF000000FF000000FF000000FF000000FF000000FF000000FF000000FF000000FF000000FF000000FF000000FF000000FF000000FF000000FF000000FF000000FF000000FF000000FF000000FF000000FF000000FF
310
000000FF000000FF000000FF000000FF000000FF000000FF000000FF000000FF000000FF000000FF000000FF000000FF000000FF000000FF000000FF000000FF000000FF000000FF007FFFFF007FFFFF000000FF000000FF000000FF000000FF000000FF000000FF000000FF000000FF000000FF000000FF000000FF000000
310
FF000000FF000000FF007FFFFF007FFFFF000000FF000000FF000000FF000000FF000000FF000000FF000000FF000000FF000000FF000000FF000000FF000000FF007FFFFF007FFFFF000000FF007FFFFF007FFFFF007FFFFF000000FF000000FF000000FF000000FF000000FF000000FF000000FF000000FF000000FF0000
310
00FF007FFFFF007FFFFF007FFFFF007FFFFF007FFFFF007FFFFF000000FF000000FF000000FF000000FF000000FF000000FF000000FF000000FF000000FF007FFFFF007FFFFF000000FF007FFFFF007FFFFF007FFFFF007FFFFF007FFFFF007FFFFF007FFFFF007FFFFF000000FF000000FF007FFFFF007FFFFF007FFFFF00
310
7FFFFF007FFFFF007FFFFF007FFFFF000000FF007FFFFF000000FF007FFFFF000000FF000000FF000000FF000000FF000000FF000000FF000000FF007FFFFF007FFFFF007FFFFF007FFFFF007FFFFF007FFFFF007FFFFF007FFFFF007FFFFF007FFFFF007FFFFF007FFFFF007FFFFF007FFFFF007FFFFF007FFFFF007FFFFF
310
007FFFFF007FFFFF007FFFFF007FFFFF007FFFFF007FFFFF007FFFFF007FFFFF000000FF000000FF000000FF000000FF000000FF000000FF000000FF007FFFFF000000FF007FFFFF007FFFFF007FFFFF007FFFFF000000FF000000FF000000FF000000FF007FFFFF007FFFFF007FFFFF007FFFFF007FFFFF007FFFFF007FFF
310
FF000000FF000000FF000000FF007FFFFF007FFFFF007FFFFF007FFFFF000000FF007FFFFF000000FF000000FF000000FF000000FF000000FF000000FF007FFFFF007FFFFF000000FF007FFFFF007FFFFF007FFFFF000000FF000000FF000000FF000000FF000000FF000000FF000000FF000000FF000000FF000000FF0000
310
00FF000000FF000000FF000000FF007FFFFF000000FF007FFFFF000000FF007FFFFF007FFFFF000000FF000000FF000000FF000000FF000000FF000000FF007FFFFF000000FF007FFFFF000000FF000000FF007FFFFF000000FF000000FF000000FF000000FF000000FF000000FF000000FF000000FF000000FF000000FF00
310
0000FF000000FF000000FF000000FF007FFFFF007FFFFF000000FF007FFFFF000000FF007FFFFF000000FF000000FF000000FF000000FF000000FF000000FF007FFFFF007FFFFF000000FF007FFFFF007FFFFF007FFFFF000000FF000000FF000000FF000000FF000000FF000000FF000000FF000000FF000000FF000000FF
310
000000FF000000FF000000FF000000FF007FFFFF000000FF007FFFFF000000FF007FFFFF007FFFFF000000FF000000FF000000FF000000FF000000FF007FFFFF007FFFFF000000FF007FFFFF007FFFFF007FFFFF007FFFFF000000FF000000FF000000FF000000FF000000FF000000FF000000FF000000FF000000FF000000
310
FF000000FF000000FF000000FF000000FF007FFFFF007FFFFF000000FF007FFFFF000000FF007FFFFF000000FF000000FF000000FF000000FF000000FF007FFFFF007FFFFF000000FF007FFFFF007FFFFF007FFFFF007FFFFF000000FF000000FF000000FF000000FF000000FF000000FF000000FF000000FF000000FF0000
310
00FF000000FF000000FF000000FF000000FF007FFFFF007FFFFF007FFFFF000000FF007FFFFF007FFFFF007FFFFF000000FF000000FF000000FF000000FF007FFFFF007FFFFF007FFFFF000000FF007FFFFF007FFFFF007FFFFF000000FF000000FF000000FF000000FF000000FF000000FF000000FF000000FF000000FF00
310
0000FF000000FF000000FF000000FF000000FF007FFFFF000000FF007FFFFF000000FF000000FF007FFFFF007FFFFF000000FF000000FF000000FF000000FF007FFFFF007FFFFF000000FF007FFFFF000000FF000000FF007FFFFF000000FF000000FF000000FF000000FF000000FF000000FF000000FF000000FF000000FF
310
000000FF000000FF000000FF000000FF000000FF007FFFFF007FFFFF000000FF007FFFFF007FFFFF000000FF007FFFFF000000FF000000FF000000FF000000FF007FFFFF000000FF007FFFFF007FFFFF007FFFFF007FFFFF007FFFFF000000FF000000FF000000FF000000FF000000FF000000FF000000FF000000FF000000
310
FF000000FF000000FF000000FF000000FF000000FF007FFFFF000000FF007FFFFF007FFFFF007FFFFF007FFFFF007FFFFF000000FF000000FF000000FF000000FF007FFFFF000000FF007FFFFF007FFFFF007FFFFF007FFFFF007FFFFF000000FF000000FF000000FF000000FF000000FF000000FF000000FF000000FF0000
310
00FF000000FF000000FF000000FF000000FF000000FF007FFFFF007FFFFF000000FF007FFFFF007FFFFF007FFFFF007FFFFF000000FF000000FF000000FF000000FF007FFFFF007FFFFF000000FF007FFFFF007FFFFF000000FF007FFFFF000000FF000000FF000000FF000000FF000000FF000000FF000000FF000000FF00
310
0000FF000000FF000000FF000000FF000000FF000000FF007FFFFF007FFFFF000000FF007FFFFF000000FF007FFFFF007FFFFF000000FF000000FF000000FF000000FF007FFFFF000000FF007FFFFF007FFFFF000000FF007FFFFF007FFFFF000000FF000000FF000000FF000000FF000000FF000000FF000000FF000000FF
310
000000FF000000FF000000FF000000FF000000FF000000FF007FFFFF000000FF007FFFFF000000FF007FFFFF000000FF007FFFFF000000FF000000FF000000FF000000FF007FFFFF007FFFFF007FFFFF007FFFFF007FFFFF000000FF007FFFFF000000FF000000FF000000FF000000FF000000FF000000FF000000FF000000
310
FF000000FF000000FF000000FF000000FF000000FF000000FF000000FF007FFFFF000000FF007FFFFF000000FF007FFFFF007FFFFF000000FF000000FF000000FF000000FF007FFFFF007FFFFF007FFFFF007FFFFF007FFFFF007FFFFF000000FF000000FF000000FF000000FF000000FF000000FF000000FF000000FF0000
310
00FF000000FF000000FF000000FF000000FF000000FF000000FF000000FF007FFFFF007FFFFF007FFFFF000000FF007FFFFF007FFFFF000000FF000000FF000000FF000000FF007FFFFF000000FF007FFFFF007FFFFF000000FF007FFFFF000000FF000000FF000000FF000000FF000000FF000000FF000000FF000000FF00
310
0000FF000000FF000000FF000000FF000000FF000000FF000000FF000000FF007FFFFF007FFFFF007FFFFF007FFFFF000000FF007FFFFF007FFFFF000000FF000000FF007FFFFF000000FF007FFFFF000000FF000000FF007FFFFF000000FF000000FF000000FF000000FF000000FF000000FF000000FF000000FF000000FF
310
000000FF000000FF000000FF000000FF000000FF000000FF000000FF000000FF000000FF007FFFFF007FFFFF007FFFFF007FFFFF000000FF007FFFFF000000FF000000FF007FFFFF007FFFFF000000FF007FFFFF007FFFFF000000FF000000FF000000FF000000FF000000FF000000FF000000FF000000FF000000FF000000
310
FF000000FF000000FF000000FF000000FF000000FF000000FF000000FF000000FF000000FF007FFFFF007FFFFF000000FF007FFFFF007FFFFF007FFFFF000000FF000000FF007FFFFF000000FF007FFFFF007FFFFF007FFFFF000000FF000000FF000000FF000000FF000000FF000000FF000000FF000000FF000000FF0000
310
00FF000000FF000000FF000000FF000000FF000000FF000000FF000000FF000000FF000000FF000000FF000000FF007FFFFF000000FF007FFFFF007FFFFF000000FF000000FF007FFFFF000000FF007FFFFF000000FF000000FF000000FF000000FF000000FF000000FF000000FF000000FF000000FF000000FF000000FF00
310
0000FF000000FF000000FF000000FF000000FF000000FF000000FF000000FF000000FF000000FF000000FF000000FF000000FF007FFFFF000000FF007FFFFF000000FF000000FF000000FF007FFFFF000000FF000000FF000000FF000000FF000000FF000000FF000000FF000000FF000000FF000000FF000000FF000000FF
310
000000FF000000FF000000FF000000FF000000FF000000FF000000FF000000FF000000FF000000FF000000FF000000FF000000FF000000FF007FFFFF000000FF000000FF000000FF000000FF000000FF000000FF000000FF000000FF000000FF000000FF000000FF000000FF000000FF000000FF000000FF000000FF000000
310
FF000000FF000000FF000000FF000000FF000000FF000000FF000000FF000000FF000000FF000000FF000000FF000000FF000000FF000000FF000000FF000000FF000000FF000000FF000000FF000000FF000000FF000000FF000000FF000000FF000000FF000000FF000000FF000000FF000000FF000000FF000000FF0000
310
00FF000000FF000000FF000000FF000000FF000000FF000000FF000000FF000000FF000000FF000000FF000000FF000000FF000000FF000000FF000000FF000000FF000000FF000000FF000000FF000000FF000000FF000000FF000000FF000000FF000000FF000000FF000000FF000000FF000000FF000000FF000000FF00
310
0000FF000000FF000000FF000000FF000000FF000000FF000000FF000000FF000000FF000000FF000000FF000000FF000000FF000000FF000000FF000000FF000000FF000000FF000000FF000000FF000000FF000000FF000000FF000000FF000000FF000000FF000000FF000000FF000000FF000000FF000000FF000000FF
310
000000FF000000FF000000FF000000FF000000FF000000FF000000FF000000FF000000FF000000FF000000FF000000FF000000FF000000FF000000FF000000FF000000FF000000FF
102
{BLKREFS
331
88
102
}
1001
ACAD
1000
DesignCenter Data
1002
{
1070
     1
1070
     4
1002
}
  0
BLOCK_RECORD
  5
B5
330
1
100
AcDbSymbolTableRecord
100
AcDbBlockTableRecord
  2
core Top 4
340
0
310
28000000200000002000000001002000000000000010000001000000010000000000000000000000000000FF000000FF000000FF000000FF000000FF000000FF000000FF000000FF000000FF000000FF000000FF000000FF000000FF000000FF000000FF000000FF000000FF000000FF000000FF000000FF000000FF000000
310
FF000000FF000000FF000000FF000000FF000000FF000000FF000000FF000000FF000000FF000000FF000000FF000000FF000000FF000000FF000000FF000000FF000000FF000000FF000000FF000000FF000000FF000000FF000000FF000000FF000000FF00FF00FF000000FF000000FF000000FF000000FF000000FF0000
310
00FF000000FF000000FF000000FF000000FF000000FF000000FF000000FF000000FF000000FF000000FF000000FF000000FF000000FF000000FF000000FF000000FF000000FF000000FF000000FFFFFF00FFFFFF00FFFFFF00FFFFFF00FFFFFF00FFFFFF00FFFFFF00FFFFFF00FFFFFF00FFFFFF00FFFFFF00FFFFFF00FFFF
310
FF00FFFFFF00FF000000FF000000FF000000FF000000FF000000FF000000FF000000FF000000FF000000FF000000FF000000FF000000FF000000FF000000FF000000FF000000FF000000FF000000FFFFFF00FF000000FFFFFF00FF000000FFFFFF00FFFFFF00FF00FF00FF000000FFFFFF00FFFFFF00FFFFFF00FFFFFF00FF
310
FFFF00FFFFFF00FF000000FF000000FF000000FF000000FF000000FF000000FF000000FF000000FF000000FF000000FF000000FF000000FF000000FF000000FF000000FF000000FF000000FF000000FFFFFF00FFFFFF00FF000000FFFFFF00FFFFFF00FFFFFF00FFFFFF00FFFFFF00FFFFFF00FF000000FFFFFF00FFFFFF00
310
FF000000FFFFFF00FF000000FF000000FF000000FF000000FF000000FF000000FF000000FF000000FF000000FF000000FF000000FF000000FF000000FF000000FF000000FF000000FF000000FF000000FFFFFF00FFFFFF00FFFFFF00FFFFFF00FFFFFF00FFFFFF00FF00FF00FFFFFF00FFFFFF00FFFFFF00FFFFFF00FF0000
310
00FFFFFF00FFFFFF00FF000000FF000000FF000000FF000000FF000000FF000000FF000000FF000000FF000000FF000000FF000000FF000000FF000000FF000000FF000000FF000000FF000000FF000000FFFFFF00FFFFFF00FFFFFF00FFFFFF00FF000000FF000000FF000000FF000000FF000000FF000000FFFFFF00FFFF
310
FF00FF000000FFFFFF00FF000000FF000000FF000000FF000000FF000000FF000000FF000000FF000000FF000000FF000000FF000000FF000000FF000000FF000000FF000000FF000000FF000000FF000000FFFFFF00FFFFFF00FFFFFF00FF000000FF000000FF000000FF000000FF000000FF000000FF000000FFFFFF00FF
310
FFFF00FFFFFF00FFFFFF00FF000000FF000000FF000000FF000000FF000000FF000000FF000000FF000000FF000000FF000000FF000000FF000000FF000000FF000000FF000000FF000000FF000000FF000000FFFFFF00FF000000FFFFFF00FF000000FF000000FF000000FF000000FF000000FF000000FF000000FFFFFF00
310
FF000000FFFFFF00FFFFFF00FF000000FF000000FF000000FF000000FF000000FF000000FF000000FF000000FF000000FF000000FF000000FF000000FF000000FF000000FF000000FF000000FF000000FF000000FFFFFF00FFFFFF00FFFFFF00FF000000FF000000FF000000FF000000FF000000FF000000FF000000FFFFFF
310
00FFFFFF00FF000000FFFFFF00FF000000FF000000FF000000FF000000FF000000FF000000FF000000FF000000FF000000FF000000FF000000FF000000FF000000FF000000FF000000FF000000FF000000FF000000FFFFFF00FFFFFF00FFFFFF00FF000000FF000000FF000000FF000000FF000000FF000000FF000000FFFF
310
FF00FF000000FFFFFF00FFFFFF00FF000000FF000000FF000000FF000000FF000000FF000000FF000000FF000000FF000000FF000000FF000000FF000000FF000000FF000000FF000000FF000000FF000000FF000000FFFFFF00FFFFFF00FFFFFF00FF000000FF000000FF000000FF000000FF000000FF000000FF000000FF
310
FFFF00FFFFFF00FF000000FFFFFF00FF000000FF000000FF000000FF000000FF000000FF000000FF000000FF000000FF000000FF000000FF000000FF000000FF000000FF000000FF000000FF000000FF000000FF000000FFFFFF00FFFFFF00FFFFFF00FF000000FF000000FF000000FF000000FF000000FF000000FF000000
310
FFFFFF00FFFFFF00FFFFFF00FFFFFF00FF000000FF000000FF000000FF000000FF000000FF000000FF000000FF000000FF000000FF000000FF000000FF000000FF000000FF000000FF000000FF000000FF000000FF000000FFFFFF00FF000000FFFFFF00FF000000FF000000FF000000FF000000FF000000FF000000FF0000
310
00FF000000FF000000FFFFFF00FFFFFF00FF000000FF000000FF000000FF000000FF000000FF000000FF000000FF000000FF000000FF000000FF000000FF000000FF000000FF000000FF000000FF000000FF000000FF000000FFFFFF00FFFFFF00FFFFFF00FF000000FF000000FF000000FF000000FF000000FF000000FF00
310
0000FF000000FF000000FFFFFF00FFFFFF00FF000000FF000000FF000000FF000000FF000000FF000000FF000000FF000000FF000000FF000000FF000000FF000000FF000000FF000000FF000000FF000000FF000000FF000000FFFFFF00FFFFFF00FFFFFF00FF000000FF000000FF000000FF000000FF000000FF000000FF
310
000000FF000000FF000000FFFFFF00FFFFFF00FF000000FF000000FF000000FF000000FF000000FF000000FF000000FF000000FF000000FF000000FF000000FF000000FF000000FF000000FF000000FF000000FF000000FF000000FFFFFF00FF000000FFFFFF00FF000000FF000000FF000000FF000000FF000000FF000000
310
FF000000FF000000FF000000FFFFFF00FFFFFF00FF000000FF000000FF000000FF000000FF000000FF000000FF000000FF000000FF000000FF000000FF000000FF000000FF000000FF000000FF000000FF000000FF000000FF000000FFFFFF00FFFFFF00FF000000FF000000FF000000FF000000FF000000FF000000FF0000
310
00FF000000FF000000FF000000FFFFFF00FFFFFF00FF000000FF000000FF000000FF000000FF000000FF000000FF000000FF000000FF000000FF000000FF000000FF000000FF000000FF000000FF000000FF000000FF000000FF000000FFFFFF00FFFFFF00FFFFFF00FF000000FF000000FF000000FF000000FF000000FF00
310
0000FF000000FF000000FF000000FFFFFF00FFFFFF00FF000000FF000000FF000000FF000000FF000000FF000000FF000000FF000000FF000000FF000000FF000000FF000000FF000000FF000000FF000000FF000000FF000000FF000000FFFFFF00FFFFFF00FF000000FF000000FF000000FF000000FF000000FF000000FF
310
000000FF000000FF000000FF000000FFFFFF00FFFFFF00FF000000FF000000FF000000FF000000FF000000FF000000FF000000FF000000FF000000FF000000FF000000FF000000FF000000FF000000FF000000FF000000FF000000FF000000FFFFFF00FFFFFF00FF000000FF000000FF000000FF000000FF000000FF000000
310
FF000000FF000000FF000000FF000000FFFFFF00FFFFFF00FF000000FF000000FF000000FF000000FF000000FF000000FF000000FF000000FF000000FF000000FF000000FF000000FF000000FF000000FF000000FF000000FF000000FF000000FFFFFF00FFFFFF00FF000000FF000000FF000000FF000000FF000000FF0000
310
00FF000000FF000000FF000000FF000000FFFFFF00FFFFFF00FF000000FF000000FF000000FF000000FF000000FF000000FF000000FF000000FF000000FF000000FF000000FF000000FF000000FF000000FF000000FF000000FF000000FF000000FFFFFF00FFFFFF00FF000000FF000000FF000000FF000000FF000000FF00
310
0000FF000000FF000000FF000000FF000000FFFFFF00FFFFFF00FF000000FF000000FF000000FF000000FF000000FF000000FF000000FF000000FF000000FF000000FF000000FF000000FF000000FF000000FF000000FF000000FF000000FF000000FFFFFF00FFFFFF00FF000000FF000000FF000000FF000000FF000000FF
310
000000FF000000FF000000FF000000FF000000FFFFFF00FFFFFF00FF000000FF000000FF000000FF000000FF000000FF000000FF000000FF000000FF000000FF000000FF000000FF000000FF000000FF000000FF000000FF000000FF000000FF000000FFFFFF00FFFFFF00FFFFFF00FF000000FF000000FF000000FF000000
310
FF000000FF000000FF000000FFFFFF00FFFFFF00FFFFFF00FFFFFF00FF000000FF000000FF000000FF000000FF000000FF000000FF000000FF000000FF000000FF000000FF000000FF000000FF000000FF000000FF000000FF000000FF000000FF000000FFFFFF00FFFFFF00FFFFFF00FF000000FF000000FF000000FF0000
310
00FF000000FF000000FF000000FFFFFF00FFFFFF00FFFFFF00FFFFFF00FF000000FF000000FF000000FF000000FF000000FF000000FF000000FF000000FF000000FF000000FF000000FF000000FF000000FF000000FF000000FF000000FF000000FF000000FFFFFF00FFFFFF00FFFFFF00FF000000FF000000FF000000FF00
310
0000FF000000FF000000FF000000FFFFFF00FFFFFF00FFFFFF00FFFFFF00FF000000FF000000FF000000FF000000FF000000FF000000FF000000FF000000FF000000FF000000FF000000FF000000FF000000FF000000FF000000FF000000FF000000FF000000FFFFFF00FFFFFF00FFFFFF00FF000000FF000000FF000000FF
310
000000FF000000FF000000FF000000FF000000FFFFFF00FFFFFF00FFFFFF00FF000000FF000000FF000000FF000000FF000000FF000000FF000000FF000000FF000000FF000000FF000000FF000000FF000000FF000000FF000000FF000000FF000000FF000000FFFFFF00FFFFFF00FFFFFF00FF000000FF000000FF000000
310
FF000000FF000000FF000000FF000000FF000000FFFFFF00FFFFFF00FFFFFF00FF000000FF000000FF000000FF000000FF000000FF000000FF000000FF000000FF000000FF000000FF000000FF000000FF000000FF000000FF000000FF000000FF000000FF000000FFFFFF00FFFFFF00FFFFFF00FF000000FF000000FF0000
310
00FF000000FF000000FF000000FF000000FF000000FFFFFF00FF000000FFFFFF00FF000000FF000000FF000000FF000000FF000000FF000000FF000000FF000000FF000000FF000000FF000000FF000000FF000000FF000000FF000000FF000000FF000000FF000000FFFFFF00FFFFFF00FFFFFF00FF000000FF000000FF00
310
0000FF000000FF000000FF000000FF000000FF000000FFFFFF00FFFFFF00FFFFFF00FF000000FF000000FF000000FF000000FF000000FF000000FF000000FF000000FF000000FF000000FF000000FF000000FF000000FF000000FF000000FF000000FF000000FF000000FF000000FF000000FF000000FF000000FF000000FF
310
000000FF000000FF000000FF000000FF000000FF000000FF000000FF000000FF000000FF000000FF000000FF000000FF000000FF000000FF000000FF000000FF000000FF000000FF
102
{BLKREFS
331
B4
102
}
1001
ACAD
1000
DesignCenter Data
1002
{
1070
     1
1070
     4
1002
}
  0
BLOCK_RECORD
  5
CB
330
1
100
AcDbSymbolTableRecord
100
AcDbBlockTableRecord
  2
*D9
340
0
  0
BLOCK_RECORD
  5
D8
330
1
100
AcDbSymbolTableRecord
100
AcDbBlockTableRecord
  2
*D10
340
0
  0
BLOCK_RECORD
  5
E5
330
1
100
AcDbSymbolTableRecord
100
AcDbBlockTableRecord
  2
*D11
340
0
  0
BLOCK_RECORD
  5
F2
330
1
100
AcDbSymbolTableRecord
100
AcDbBlockTableRecord
  2
*D12
340
0
  0
BLOCK_RECORD
  5
FF
330
1
100
AcDbSymbolTableRecord
100
AcDbBlockTableRecord
  2
*D13
340
0
  0
BLOCK_RECORD
  5
10C
330
1
100
AcDbSymbolTableRecord
100
AcDbBlockTableRecord
  2
*D14
340
0
  0
BLOCK_RECORD
  5
11B
330
1
100
AcDbSymbolTableRecord
100
AcDbBlockTableRecord
  2
*D15
340
0
  0
BLOCK_RECORD
  5
128
330
1
100
AcDbSymbolTableRecord
100
AcDbBlockTableRecord
  2
*D16
340
0
  0
BLOCK_RECORD
  5
13E
330
1
100
AcDbSymbolTableRecord
100
AcDbBlockTableRecord
  2
*D17
340
0
  0
BLOCK_RECORD
  5
14B
330
1
100
AcDbSymbolTableRecord
100
AcDbBlockTableRecord
  2
*D18
340
0
  0
BLOCK_RECORD
  5
179
330
1
100
AcDbSymbolTableRecord
100
AcDbBlockTableRecord
  2
*D19
340
0
  0
BLOCK_RECORD
  5
186
330
1
100
AcDbSymbolTableRecord
100
AcDbBlockTableRecord
  2
*D20
340
0
  0
BLOCK_RECORD
  5
193
330
1
100
AcDbSymbolTableRecord
100
AcDbBlockTableRecord
  2
*D21
340
0
  0
BLOCK_RECORD
  5
1A0
330
1
100
AcDbSymbolTableRecord
100
AcDbBlockTableRecord
  2
*D22
340
0
  0
BLOCK_RECORD
  5
1AD
330
1
100
AcDbSymbolTableRecord
100
AcDbBlockTableRecord
  2
*D23
340
0
  0
BLOCK_RECORD
  5
1BA
330
1
100
AcDbSymbolTableRecord
100
AcDbBlockTableRecord
  2
*D24
340
0
  0
BLOCK_RECORD
  5
1C7
330
1
100
AcDbSymbolTableRecord
100
AcDbBlockTableRecord
  2
*D25
340
0
  0
BLOCK_RECORD
  5
1D4
330
1
100
AcDbSymbolTableRecord
100
AcDbBlockTableRecord
  2
*D26
340
0
  0
BLOCK_RECORD
  5
1E1
330
1
100
AcDbSymbolTableRecord
100
AcDbBlockTableRecord
  2
*D27
340
0
  0
BLOCK_RECORD
  5
1EE
330
1
100
AcDbSymbolTableRecord
100
AcDbBlockTableRecord
  2
*D28
340
0
  0
BLOCK_RECORD
  5
1FB
330
1
100
AcDbSymbolTableRecord
100
AcDbBlockTableRecord
  2
*D29
340
0
  0
BLOCK_RECORD
  5
208
330
1
100
AcDbSymbolTableRecord
100
AcDbBlockTableRecord
  2
*D30
340
0
  0
BLOCK_RECORD
  5
15B
330
1
100
AcDbSymbolTableRecord
100
AcDbBlockTableRecord
  2
*D31
340
0
  0
BLOCK_RECORD
  5
16A
330
1
100
AcDbSymbolTableRecord
100
AcDbBlockTableRecord
  2
*D32
340
0
  0
ENDTAB
  0
ENDSEC
  0
SECTION
  2
BLOCKS
  0
BLOCK
  5
5
330
2
100
AcDbEntity
  8
0
100
AcDbBlockBegin
  2
*Model_Space
 70
     0
 10
0.0
 20
0.0
 30
0.0
  3
*Model_Space
  1

  0
ENDBLK
  5
6
330
2
100
AcDbEntity
  8
0
100
AcDbBlockEnd
  0
BLOCK
  5
F
330
C
100
AcDbEntity
 67
     1
  8
0
100
AcDbBlockBegin
  2
*Paper_Space
 70
     0
 10
0.0
 20
0.0
 30
0.0
  3
*Paper_Space
  1

  0
ENDBLK
  5
10
330
C
100
AcDbEntity
 67
     1
  8
0
100
AcDbBlockEnd
  0
BLOCK
  5
2AF
330
2AE
100
AcDbEntity
  8
0
100
AcDbBlockBegin
  2
GENAXEH
 70
     0
 10
0.0
 20
0.0
 30
0.0
  3
GENAXEH
  1

  0
LINE
  5
2B0
330
2AE
100
AcDbEntity
  8
0
100
AcDbLine
 10
-1.0
 20
0.0
 30
0.0
 11
1.0
 21
0.0
 31
0.0
  0
ENDBLK
  5
2B1
330
2AE
100
AcDbEntity
  8
0
100
AcDbBlockEnd
  0
BLOCK
  5
291
330
290
100
AcDbEntity
  8
0
100
AcDbBlockBegin
  2
_ACMFILLED30
 70
     0
 10
0.0
 20
0.0
 30
0.0
  3
_ACMFILLED30
  1

  0
TRACE
  5
292
330
290
100
AcDbEntity
  8
0
 62
     0
100
AcDbTrace
 10
-1.0
 20
-0.26794919
 30
0.0
 11
-1.0
 21
0.26794919
 31
0.0
 12
0.0
 22
0.0
 32
0.0
 13
0.0
 23
0.0
 33
0.0
  0
ENDBLK
  5
293
330
290
100
AcDbEntity
  8
0
100
AcDbBlockEnd
  0
BLOCK
  5
5E
330
5D
100
AcDbEntity
  8
0
100
AcDbBlockBegin
  2
*D2
 70
     1
 10
0.0
 20
0.0
 30
0.0
  3
*D2
  1

  0
LINE
  5
5F
330
5D
100
AcDbEntity
  8
AM_5
  6
ByBlock
100
AcDbLine
 10
-663.1352616610061
 20
3713.989979733866
 30
0.0
 11
-513.3642841240792
 21
3713.989979733866
 31
0.0
  0
LINE
  5
60
330
5D
100
AcDbEntity
  8
AM_5
  6
ByBlock
100
AcDbLine
 10
-663.1352616610051
 20
3699.989979733867
 30
0.0
 11
-513.3642841240792
 21
3699.989979733867
 31
0.0
  0
LINE
  5
61
330
5D
100
AcDbEntity
  8
AM_5
  6
ByBlock
100
AcDbLine
 10
-523.3642841240793
 20
3664.989979733867
 30
0.0
 11
-523.3642841240793
 21
3629.989979733867
 31
0.0
  0
LINE
  5
62
330
5D
100
AcDbEntity
  8
AM_5
  6
ByBlock
100
AcDbLine
 10
-523.3642841240793
 20
3748.989979733866
 30
0.0
 11
-523.3642841240792
 21
3902.26590060699
 31
0.0
  0
LINE
  5
63
330
5D
100
AcDbEntity
  8
AM_5
  6
ByBlock
100
AcDbLine
 10
-523.3642841240793
 20
3699.989979733867
 30
0.0
 11
-523.3642841240793
 21
3713.989979733866
 31
0.0
  0
SOLID
  5
64
330
5D
100
AcDbEntity
  8
AM_5
100
AcDbTrace
 10
-529.1976174574126
 20
3664.989979733867
 30
0.0
 11
-517.5309507907459
 21
3664.989979733867
 31
0.0
 12
-523.3642841240793
 22
3699.989979733867
 32
0.0
 13
-523.3642841240793
 23
3699.989979733867
 33
0.0
  0
SOLID
  5
65
330
5D
100
AcDbEntity
  8
AM_5
100
AcDbTrace
 10
-529.1976174574126
 20
3748.989979733866
 30
0.0
 11
-517.5309507907459
 21
3748.989979733866
 31
0.0
 12
-523.3642841240793
 22
3713.989979733866
 32
0.0
 13
-523.3642841240793
 23
3713.989979733866
 33
0.0
  0
MTEXT
  5
66
330
5D
100
AcDbEntity
  8
AM_5
 62
     2
100
AcDbMText
 10
-557.2131927188957
 20
3843.229406746144
 30
0.0
 40
35.0
 41
0.0
 71
     5
 72
     1
  1
%%C14
 11
0.0000000000000001
 21
1.0
 31
0.0
 73
     1
 44
1.0
1001
ACAD
1000
MTEXTBEGIN
1070
    73
1070
     1
1070
    44
1040
1.0
1070
    74
1070
     0
1000
MTEXTEND
  0
POINT
  5
67
330
5D
100
AcDbEntity
  8
DEFPOINTS
 62
     0
100
AcDbPoint
 10
-673.1352616610061
 20
3713.989979733866
 30
0.0
  0
POINT
  5
6B
330
5D
100
AcDbEntity
  8
DEFPOINTS
 62
     0
100
AcDbPoint
 10
-673.1352616610052
 20
3699.989979733867
 30
0.0
  0
POINT
  5
6C
330
5D
100
AcDbEntity
  8
DEFPOINTS
 62
     0
100
AcDbPoint
 10
-523.3642841240793
 20
3699.989979733867
 30
0.0
  0
ENDBLK
  5
6D
330
5D
100
AcDbEntity
  8
0
100
AcDbBlockEnd
  0
BLOCK
  5
76
330
75
100
AcDbEntity
  8
0
100
AcDbBlockBegin
  2
*D3
 70
     1
 10
0.0
 20
0.0
 30
0.0
  3
*D3
  1

  0
LINE
  5
77
330
75
100
AcDbEntity
  8
AM_5
  6
ByBlock
100
AcDbLine
 10
-688.6266115851431
 20
3733.989979733866
 30
0.0
 11
-749.9171104760092
 21
3733.989979733866
 31
0.0
  0
LINE
  5
78
330
75
100
AcDbEntity
  8
AM_5
  6
ByBlock
100
AcDbLine
 10
-692.1351855336506
 20
3706.989979733866
 30
0.0
 11
-749.9171104760092
 21
3706.989979733866
 31
0.0
  0
LINE
  5
79
330
75
100
AcDbEntity
  8
AM_5
  6
ByBlock
100
AcDbLine
 10
-739.9171104760092
 20
3768.989979733866
 30
0.0
 11
-739.9171104760092
 21
3803.989979733866
 31
0.0
  0
LINE
  5
7A
330
75
100
AcDbEntity
  8
AM_5
  6
ByBlock
100
AcDbLine
 10
-739.9171104760092
 20
3671.989979733865
 30
0.0
 11
-739.9171104760092
 21
3555.220880143143
 31
0.0
  0
LINE
  5
7B
330
75
100
AcDbEntity
  8
AM_5
  6
ByBlock
100
AcDbLine
 10
-739.9171104760092
 20
3733.989979733866
 30
0.0
 11
-739.9171104760092
 21
3706.989979733866
 31
0.0
  0
SOLID
  5
7C
330
75
100
AcDbEntity
  8
AM_5
100
AcDbTrace
 10
-745.7504438093426
 20
3768.989979733866
 30
0.0
 11
-734.0837771426759
 21
3768.989979733866
 31
0.0
 12
-739.9171104760092
 22
3733.989979733866
 32
0.0
 13
-739.9171104760092
 23
3733.989979733866
 33
0.0
  0
SOLID
  5
7D
330
75
100
AcDbEntity
  8
AM_5
100
AcDbTrace
 10
-745.7504438093426
 20
3671.989979733865
 30
0.0
 11
-734.0837771426759
 21
3671.989979733865
 31
0.0
 12
-739.9171104760092
 22
3706.989979733866
 32
0.0
 13
-739.9171104760092
 23
3706.989979733866
 33
0.0
  0
MTEXT
  5
7E
330
75
100
AcDbEntity
  8
AM_5
 62
     2
100
AcDbMText
 10
-772.4887339412213
 20
3595.587524072202
 30
0.0
 40
35.0
 41
0.0
 71
     5
 72
     1
  1
27
 11
0.0000000000000001
 21
1.0
 31
0.0
 73
     1
 44
1.0
1001
ACAD
1000
MTEXTBEGIN
1070
    73
1070
     1
1070
    44
1040
1.0
1070
    74
1070
     0
1000
MTEXTEND
  0
POINT
  5
7F
330
75
100
AcDbEntity
  8
DEFPOINTS
 62
     0
100
AcDbPoint
 10
-678.6266115851431
 20
3733.989979733866
 30
0.0
  0
POINT
  5
80
330
75
100
AcDbEntity
  8
DEFPOINTS
 62
     0
100
AcDbPoint
 10
-682.1351855336506
 20
3706.989979733866
 30
0.0
  0
POINT
  5
81
330
75
100
AcDbEntity
  8
DEFPOINTS
 62
     0
100
AcDbPoint
 10
-739.9171104760092
 20
3706.989979733866
 30
0.0
  0
ENDBLK
  5
82
330
75
100
AcDbEntity
  8
0
100
AcDbBlockEnd
  0
BLOCK
  5
96
330
95
100
AcDbEntity
  8
0
100
AcDbBlockBegin
  2
BA-Z30550877-10
 70
     0
 10
0.0
 20
0.0
 30
0.0
  3
BA-Z30550877-10
  1

  0
HATCH
  5
97
330
95
100
AcDbEntity
  8
-POM Stab
100
AcDbHatch
 10
0.0
 20
0.0
 30
0.0
210
0.0
220
0.0
230
1.0
  2
ANSI37
 70
     0
 71
     1
 91
        1
 92
        1
 93
        1
 72
     2
 10
0.0
 20
0.0
 40
5.0
 50
0.0
 51
360.0
 73
     1
 97
        1
330
99
 75
     1
 76
     1
 52
45.0
 41
0.6
 77
     0
 78
     2
 53
90.0
 43
-125.9940108713508
 44
-201.2544121082752
 45
-1.904999999999999
 46
0.0000000000000003
 79
     0
 53
180.0
 43
-125.9940108713508
 44
-201.2544121082752
 45
-0.0000000000000003
 46
-1.904999999999999
 79
     0
 98
        1
 10
-125.9940108713508
 20
-201.2544121082752
1001
GradientColor1ACI
1070
     5
1001
GradientColor2ACI
1070
     2
1001
ACAD
1010
0.0
1020
0.0
1030
0.0
  0
CIRCLE
  5
99
102
{ACAD_REACTORS
330
97
102
}
330
95
100
AcDbEntity
  8
-POM Stab
100
AcDbCircle
 10
0.0
 20
0.0
 30
0.0
 40
5.0
  0
ENDBLK
  5
9A
330
95
100
AcDbEntity
  8
0
100
AcDbBlockEnd
  0
BLOCK
  5
9D
330
9C
100
AcDbEntity
  8
0
100
AcDbBlockBegin
  2
BA-Z-P9732-A
 70
     0
 10
0.0
 20
0.0
 30
0.0
  3
BA-Z-P9732-A
  1

  0
LWPOLYLINE
  5
9E
330
9C
100
AcDbEntity
  8
-GUMMI
100
AcDbPolyline
 90
       32
 70
     1
 43
0.0
 10
11.28796994730328
 20
-15.44922005344068
 10
3.206337201746464
 20
-15.44922005344074
 42
-0.404253128789892
 10
3.006453651561969
 20
-15.25604400871299
 10
2.713597351253156
 20
-6.677858093949282
 42
0.3072185196004725
 10
2.581241264257187
 20
-6.496426792415149
 10
1.867279092202352
 20
-6.240327413785962
 42
-0.1657024214315883
 10
1.362772286318886
 20
-5.838303647662428
 10
1.087806375162017
 20
-5.408892716616605
 42
0.8358399843347207
 10
0.723889706880982
 20
-5.558986596971919
 42
-0.7942321963915147
 10
-0.6365716383816107
 20
-6.201440735740902
 42
-0.2843480137046063
 10
-1.00033634708734
 20
-3.065541943961136
 42
-0.6763877254848247
 10
0.7647880135577907
 20
-3.166611253671362
 42
0.4834328118778848
 10
1.059694172430226
 20
-3.272921851533396
 10
1.844767524444705
 20
-2.786580791747212
 42
0.3257935955011907
 10
1.933536834183541
 20
-2.568316559185973
 10
1.560174783686306
 20
0.1297054046891048
 42
0.4770302557874213
 10
1.278504117110514
 20
0.261267269921575
 10
0.9685263472383667
 20
0.1102891265310859
 42
0.0943887691269676
 10
0.3688586587227292
 20
-0.3375548694440908
 42
-0.9485185643391902
 10
-0.4024009198619752
 20
0.296771797336703
 42
-0.0456530734745997
 10
0.6641728249669541
 20
1.115107472109002
 10
11.03322669524095
 20
6.175861642324377
 42
-0.8366732845940511
 10
11.42320471930816
 20
5.732343865104382
 10
8.812452816709082
 20
2.451589552107066
 42
0.8663308656491327
 10
9.168602168955658
 20
1.97635677573578
 10
11.04451685695176
 20
2.997707740221926
 42
-0.7401513932141515
 10
11.45416481042184
 20
2.595880900452982
 10
8.240186160627672
 20
-3.588155730485084
 42
0.6540664669825524
 10
8.52300595412862
 20
-4.101799398878199
 10
10.39711945798399
 20
-3.930828226130358
 42
-0.4411178976152918
 10
11.4879699473031
 20
-4.926692769424505
 10
11.4879699473031
 20
-15.24922005344069
 42
-0.4142135623730935
  0
HATCH
  5
9F
330
9C
100
AcDbEntity
  8
-GUMMI
100
AcDbHatch
 10
0.0
 20
0.0
 30
0.0
210
0.0
220
0.0
230
1.0
  2
ANSI37
 70
     0
 71
     0
 91
        1
 92
        1
 93
       32
 72
     2
 10
11.18796946403881
 20
2.734228425056755
 40
0.2999999999999538
 50
332.5381167793105
 51
478.5662993649837
 73
     1
 72
     1
 10
11.04451685695176
 20
2.997707740221926
 11
9.168602168955658
 21
1.97635677573578
 72
     2
 10
9.024739801445321
 20
2.239612581396784
 40
0.2999999999998391
 50
61.34455701346986
 51
224.9581333934034
 73
     0
 72
     1
 10
8.812452816709082
 20
2.451589552107066
 11
11.42320471930816
 21
5.732343865104382
 72
     2
 10
11.18846139214747
 20
5.919147425974074
 40
0.300000000000109
 50
321.4879996939366
 51
481.1612898055295
 73
     1
 72
     1
 10
11.03322669524095
 20
6.175861642324434
 11
0.6641728249669541
 21
1.115107472109002
 72
     2
 10
4.60281979432375
 20
-5.122533168411905
 40
7.377065860455737
 50
122.2696322391686
 51
132.7252860974096
 73
     1
 72
     2
 10
0.0
 20
0.0
 40
0.5000000000002208
 50
143.5911222396689
 51
317.5373273614666
 73
     1
 72
     2
 10
1.844293293611826
 20
-1.687774347217157
 40
1.999999999997024
 50
222.4626726384989
 51
244.0310838110485
 73
     0
 72
     1
 10
0.9685263472383667
 20
0.1102891265310859
 11
1.278504117110514
 21
0.261267269921575
 72
     2
 10
1.366080811747906
 20
0.0814609225465688
 40
0.1999999999998808
 50
244.0310838110596
 51
346.0413007427754
 73
     0
 72
     1
 10
1.560174783686306
 20
0.1297054046891048
 11
1.933536834183541
 21
-2.568316559185973
 72
     2
 10
1.739442862243777
 20
-2.616561041327656
 40
0.2000000000011835
 50
346.0413007431067
 51
418.2224118281722
 73
     0
 72
     1
 10
1.844767524444705
 20
-2.786580791747212
 11
1.059694172430226
 21
-3.272921851533396
 72
     2
 10
0.9543695102302081
 20
-3.102902101114523
 40
0.2000000000001104
 50
58.22241182829087
 51
161.4249984394473
 73
     0
 72
     2
 10
-0.1380399339250289
 20
-3.47000796932366
 40
0.9524431058203118
 50
18.57500156058194
 51
154.8707535157014
 73
     1
 72
     2
 10
1.715720101512488
 20
-4.339526782187476
 40
3.000000000001837
 50
154.8707535156908
 51
218.3627384645035
 73
     1
 72
     2
 10
-0.0310014356464308
 20
-5.722112601730714
 40
0.7723151756209129
 50
218.3627384645557
 51
372.1936742771821
 73
     1
 72
     2
 10
0.9193775507960708
 20
-5.516743220197781
 40
0.1999999999996298
 50
167.8063257226451
 51
327.367231012409
 73
     0
 72
     1
 10
1.087806375162017
 20
-5.408892716616605
 11
1.362772286318886
 21
-5.838303647662428
 72
     2
 10
2.204916408148164
 20
-5.299051129751262
 40
1.000000000002569
 50
212.63276898786
 51
250.2670081957681
 73
     1
 72
     1
 10
1.867279092202352
 20
-6.240327413785905
 11
2.581241264257187
 21
-6.496426792415149
 72
     2
 10
2.513713801067297
 20
-6.684682049222487
 40
0.2000000000011468
 50
289.7329918043885
 51
358.0447013112902
 73
     0
 72
     1
 10
2.713597351253156
 20
-6.677858093949282
 11
3.006453651561969
 21
-15.25604400871299
 72
     2
 10
3.206337201746464
 20
-15.24922005344103
 40
0.199999999999778
 50
181.9552986883651
 51
270.0
 73
     1
 72
     1
 10
3.206337201746464
 20
-15.44922005344079
 11
11.28796994730328
 21
-15.44922005344068
 72
     2
 10
11.28796994730237
 20
-15.24922005344012
 40
0.2000000000005571
 50
270.0000000002606
 51
359.9999999998372
 73
     1
 72
     1
 10
11.4879699473031
 20
-15.24922005344069
 11
11.4879699473031
 21
-4.926692769424505
 72
     2
 10
10.48796994730264
 20
-4.926692769425073
 40
1.000000000000454
 50
0.0000000000325689
 51
95.21253699462798
 73
     1
 72
     1
 10
10.39711945798399
 20
-3.930828226130643
 11
8.52300595412862
 21
-4.101799398878029
 72
     2
 10
8.493933797546105
 20
-3.783122745024058
 40
0.319999999999877
 50
84.78746300527069
 51
217.5368766715217
 73
     0
 72
     1
 10
8.240186160627672
 20
-3.588155730485084
 11
11.45416481042184
 21
2.595880900452982
 97
        0
 75
     1
 76
     1
 52
0.0
 41
0.5
 77
     0
 78
     2
 53
45.0
 43
3137.353636055042
 44
-464.4234302945408
 45
-1.122532015133643
 46
1.122532015133644
 79
     0
 53
135.0
 43
3137.353636055042
 44
-464.4234302945408
 45
-1.122532015133644
 46
-1.122532015133643
 79
     0
 98
        1
 10
3137.353636055042
 20
-464.4234302945408
1001
ACAD
1010
0.0
1020
0.0
1030
0.0
  0
ENDBLK
  5
A0
330
9C
100
AcDbEntity
  8
0
100
AcDbBlockEnd
  0
BLOCK
  5
A5
330
A2
100
AcDbEntity
  8
0
100
AcDbBlockBegin
  2
BA-Z-P9771-I
 70
     0
 10
0.0
 20
0.0
 30
0.0
  3
BA-Z-P9771-I
  1

  0
LWPOLYLINE
  5
A6
330
A2
100
AcDbEntity
  8
-GUMMI
100
AcDbPolyline
 90
        2
 70
     1
 43
0.0
 10
-2.0
 20
0.0000000000000568
 42
-1.0
 10
2.0
 20
-0.0000000000002274
 42
-1.0
  0
LWPOLYLINE
  5
A7
330
A2
100
AcDbEntity
  8
-GUMMI
100
AcDbPolyline
 90
       33
 70
     1
 43
0.0
 10
5.638006894001136
 20
-4.671451405534355
 10
6.71593907050601
 20
-4.003797945511223
 42
0.4252122128243584
 10
6.806926086322164
 20
-3.581361290270535
 42
0.3619862325071687
 10
6.438275031278863
 20
-3.473669612583307
 10
5.766809110155008
 20
-3.76583738332755
 42
-0.3483649646131899
 10
5.52663305789747
 20
-3.701939079839803
 10
5.174771296721701
 20
-3.229684252826416
 42
-0.3787483523006605
 10
5.272278784381342
 20
-2.068401030454481
 10
7.209097407467652
 20
-0.4570407746283536
 42
0.7288547710536787
 10
7.056194160082213
 20
-0.108292853151795
 10
5.90013815315342
 20
-0.2273856871273665
 42
-0.2682682699947097
 10
5.71740926192615
 20
-0.1455769097481152
 42
-0.0661800380565999
 10
5.300136048606873
 20
1.671455838362646
 42
-0.4120651636336638
 10
5.378216448256807
 20
1.788744539080255
 10
7.148908381231649
 20
2.150867560314054
 42
0.279387332648114
 10
7.224996834864214
 20
2.221270819095707
 42
0.324937459934638
 10
7.0641718799925
 20
2.663163855373227
 42
0.1313929371806072
 10
5.110491520400955
 20
3.3369629134869
 42
-0.0695505818109697
 10
-8.27668607871692
 20
4.84142559630311
 42
0.7970935161922136
 10
-8.593052085036106
 20
4.303700437612974
 42
0.0885477013448139
 10
-5.124367623924172
 20
2.030968254612616
 42
-0.2728163528243628
 10
-5.003917397188615
 20
1.867398112713715
 10
-4.726455464819082
 20
-0.8417981588095813
 42
-0.5259060550474044
 10
-4.977559693680177
 20
-1.055257187034158
 10
-6.080768380305471
 20
-0.7573187567106175
 42
0.9259038899883661
 10
-6.384040718465712
 20
-1.495050252277565
 10
-5.166791593798279
 20
-2.10868800908355
 42
-0.5248262112012345
 10
-4.716437151535046
 20
-5.369621168204844
 10
-5.587668486511574
 20
-6.167393220039173
 42
0.9066134578268497
 10
-5.229377753385961
 20
-6.645085174536347
 10
-1.809144418396954
 20
-4.568548650843581
 42
-0.2256010157757109
 10
3.316341600867417
 20
-4.044575801621533
 10
5.20708851489735
 20
-4.717442781801821
 42
0.227941086876516
  0
LINE
  5
A8
330
A2
100
AcDbEntity
  8
-GUMMI
100
AcDbLine
 10
-6.314840632345749
 20
4.381902893274343
 30
0.0
 11
-5.803969651237821
 21
2.346901721452809
 31
0.0
  0
LINE
  5
A9
330
A2
100
AcDbEntity
  8
-GUMMI
100
AcDbLine
 10
-4.948483059558384
 20
-1.06083972583832
 30
0.0
 11
-4.570019499891259
 21
-2.568409769735126
 31
0.0
  0
LINE
  5
AA
330
A2
100
AcDbEntity
  8
-GUMMI
100
AcDbLine
 10
-4.121151810876654
 20
-4.356427306288367
 30
0.0
 11
-3.769162421278906
 21
-5.758540260025085
 31
0.0
  0
HATCH
  5
AB
330
A2
100
AcDbEntity
  8
-GUMMI
100
AcDbHatch
 10
0.0
 20
0.0
 30
0.0
210
0.0
220
0.0
230
1.0
  2
ANSI37
 70
     0
 71
     0
 91
        2
 92
        1
 93
       37
 72
     2
 10
-4.925414764307333
 20
-0.8621745458137297
 40
0.2000000000000707
 50
-5.847550990307468
 51
96.62332126173819
 73
     0
 72
     1
 10
-4.948483059559293
 20
-1.06083972583815
 11
-4.570019499891728
 21
-2.568409769734452
 72
     2
 10
-6.067098084018198
 20
-3.894590644634547
 40
2.000000000000291
 50
318.4640047990385
 51
373.3511437401218
 73
     0
 72
     1
 10
-4.121151810876654
 20
-4.356427306288139
 11
-3.769162421278649
 21
-5.758540260025101
 72
     1
 10
-3.769162421278906
 20
-5.758540260025085
 11
-1.809144418396926
 21
-4.568548650843537
 72
     2
 10
1.304687446680418
 20
-9.697296170078175
 40
6.000000000002102
 50
238.7366809857507
 51
289.5893035217628
 73
     0
 72
     1
 10
3.316341600867417
 20
-4.044575801621533
 11
5.207088514897192
 21
-4.717442781801858
 72
     2
 10
5.37472636108032
 20
-4.246382751096177
 40
0.5000000000011631
 50
250.4106964782396
 51
301.7733930072763
 73
     1
 72
     1
 10
5.638006894001136
 20
-4.671451405534583
 11
6.028290579235648
 21
-4.429716110385954
 72
     2
 10
6.426414347832633
 20
-4.732201589176497
 40
0.5000000000009611
 50
217.2267520335657
 51
255.9075742695281
 73
     0
 72
     1
 10
6.304670949575665
 20
-4.247249483312714
 11
6.335297890443355
 21
-4.239560831558559
 72
     1
 10
6.335297890443143
 20
-4.239560831558549
 11
6.715939070505925
 21
-4.003797945511196
 72
     2
 10
6.557970750754066
 20
-3.748756752848692
 40
0.2999999999999321
 50
301.7733930072491
 51
473.5147869619679
 73
     1
 72
     1
 10
6.438275031279317
 20
-3.473669612583421
 11
5.766809110154743
 21
-3.765837383327537
 72
     2
 10
5.687011963838358
 20
-3.582445956482843
 40
0.20000000000099
 50
66.48521303821643
 51
143.3113993599406
 73
     0
 72
     1
 10
5.52663305789747
 20
-3.701939079839746
 11
5.174771296721832
 21
-3.229684252826445
 72
     2
 10
5.880093427586871
 20
-2.704171599557923
 40
0.8795696999291482
 50
143.3113993601294
 51
226.2877982253337
 73
     0
 72
     1
 10
5.272278784381342
 20
-2.068401030454595
 11
7.209097407468064
 21
-0.4570407746282621
 72
     2
 10
7.076570547086248
 20
-0.3072521526393075
 40
0.1999999999997365
 50
311.501090429294
 51
455.8475509903417
 73
     1
 72
     1
 10
7.056194160082213
 20
-0.1082928531519087
 11
5.900138153152971
 21
-0.2273856871274428
 72
     2
 10
5.879524876099367
 20
-0.0284507912216441
 40
0.1999999999997512
 50
84.0842258559355
 51
144.1524490097225
 73
     0
 72
     2
 10
12.34268574244879
 20
2.332316172787955
 40
7.073488712922965
 50
159.4939021675184
 51
169.8244937995371
 73
     0
 72
     1
 10
5.380454368067148
 20
1.082685482774934
 11
5.354781340975872
 21
1.184951303592512
 72
     2
 10
5.83973344683909
 20
1.306694701849494
 40
0.5000000000004548
 50
165.9075742695085
 51
182.8482590626702
 73
     0
 72
     2
 10
12.34268574244925
 20
2.33231617278443
 40
7.073488712923052
 50
171.8663498570021
 51
174.6391643474364
 73
     0
 72
     2
 10
5.398252674808645
 20
1.69077235105999
 40
0.099999999999886
 50
168.8624446887548
 51
258.4418558720453
 73
     0
 72
     1
 10
5.378216448256807
 20
1.788744539080482
 11
7.148908381231685
 21
2.150867560314054
 72
     1
 10
7.148908381231649
 20
2.150867560314054
 11
7.157485658674627
 21
2.153020818111533
 72
     2
 10
7.128872154678447
 20
2.248839748335058
 40
0.1000000000005369
 50
286.6267073237401
 51
343.9969043086589
 73
     1
 72
     2
 10
6.840498114122055
 20
2.331546536063513
 40
0.400000000006139
 50
343.9969043072039
 51
416.0005866693234
 73
     1
 72
     2
 10
4.827434221404018
 20
-0.6530093377367621
 40
4.000000000006121
 50
56.00058667080112
 51
85.94211132737026
 73
     1
 72
     2
 10
3.798544151529767
 20
51.97671611255043
 40
48.65744338911063
 50
88.45495050903217
 51
101.9963083977722
 73
     0
 72
     1
 10
-6.314840632345749
 20
4.381902893274343
 11
-6.156156473082365
 21
3.74980112591853
 72
     1
 10
-6.156156473082319
 20
3.749801125918565
 11
-5.803969651237052
 21
2.346901721452659
 72
     2
 10
-0.4923323315415474
 20
12.88381345991428
 40
11.80000000000492
 50
243.2474132669827
 51
246.8870276357749
 73
     1
 72
     2
 10
-5.202876696676412
 20
1.847021725709396
 40
0.1999999999998765
 50
293.1129723642119
 51
354.1524490096281
 73
     0
 72
     1
 10
-5.003917397188615
 20
1.867398112713715
 11
-4.726455464819543
 21
-0.8417981588095813
 97
        0
 92
       16
 93
        2
 72
     2
 10
-0.0000000000004547
 20
-0.0000000000003411
 40
2.000000000000192
 50
-0.0000000000193012
 51
207.5607962373457
 73
     0
 72
     2
 10
-0.0000000000004547
 20
0.0000000000001137
 40
1.999999999999532
 50
207.560796237336
 51
359.9999999999934
 73
     0
 97
        0
 75
     1
 76
     1
 52
14.09242573041982
 41
0.5
 77
     0
 78
     2
 53
59.09242573041982
 43
3030.789901658352
 44
282.8931290429063
 45
-1.362070253623105
 46
0.8154268049280005
 79
     0
 53
149.0924257304198
 43
3030.789901658352
 44
282.8931290429063
 45
-0.8154268049280005
 46
-1.362070253623105
 79
     0
 98
        1
 10
3030.789901658352
 20
282.8931290429063
1001
ACAD
1010
0.0
1020
0.0
1030
0.0
  0
ENDBLK
  5
AC
330
A2
100
AcDbEntity
  8
0
100
AcDbBlockEnd
  0
BLOCK
  5
8C
330
89
100
AcDbEntity
  8
0
100
AcDbBlockBegin
  2
BA-Z-P9717-16
 70
     0
 10
0.0
 20
0.0
 30
0.0
  3
BA-Z-P9717-16
  1

  0
HATCH
  5
8D
330
89
100
AcDbEntity
  8
-GUMMI
100
AcDbHatch
 10
0.0
 20
0.0
 30
0.0
210
0.0
220
0.0
230
1.0
  2
ANSI37
 70
     0
 71
     1
 91
        1
 92
        1
 93
       22
 72
     1
 10
0.000000000001819
 20
-1.497633412080176
 11
0.5
 21
-1.937727921821874
 72
     1
 10
0.5
 20
-1.937727921821874
 11
8.764210984670171
 21
-4.377932074137447
 72
     2
 10
8.194355108050331
 20
-6.228155349039013
 40
1.935991189831617
 50
287.1184676982083
 51
319.0628820034157
 73
     0
 72
     2
 10
8.906207460989207
 20
1.999999999992553
 40
6.99999999999761
 50
276.1560059974838
 51
356.19342914318
 73
     1
 72
     1
 10
15.89076448963169
 20
1.535281683582752
 11
17.25052678736938
 21
21.97204300453558
 72
     2
 10
16.65185047062823
 20
22.01187600308395
 40
0.6000000000000855
 50
356.1934291432809
 51
482.1452297567524
 73
     1
 72
     2
 10
25.02816846552923
 20
8.682267612011628
 40
16.34297186083513
 50
122.1452297567591
 51
174.5159859460864
 73
     1
 72
     1
 10
8.760000000001127
 20
10.24413317000432
 11
8.760000000001127
 21
-1.89132390945673
 72
     2
 10
8.760000000001127
 20
-2.291323909456991
 40
0.4000000000002615
 50
270.0
 51
556.4504845332108
 73
     0
 72
     1
 10
8.376374069960547
 20
-2.178049261803494
 11
1.0
 21
0.0
 72
     1
 10
1.0
 20
0.0
 11
0.0
 21
-0.7082984386912017
 72
     1
 10
0.0
 20
-0.7082984386912017
 11
-1.0
 21
0.0
 72
     1
 10
-1.0
 20
0.0
 11
-8.376374069960547
 21
-2.178049261803494
 72
     2
 10
-8.760000000001127
 20
-2.291323909456991
 40
0.4000000000006551
 50
343.549515466789
 51
630.0
 73
     0
 72
     1
 10
-8.760000000001127
 20
-1.89132390945673
 11
-8.760000000001127
 21
10.24413317000432
 72
     2
 10
-25.02816846552923
 20
8.682267612011628
 40
16.34297186083507
 50
5.48401405391357
 51
57.85477024324085
 73
     1
 72
     2
 10
-16.65185047062823
 20
22.01187600308395
 40
0.5999999999999578
 50
57.85477024324766
 51
183.806570856719
 73
     1
 72
     1
 10
-17.25052678736938
 20
21.97204300453558
 11
-15.89076448963169
 21
1.535281683582752
 72
     2
 10
-8.906207460989207
 20
1.999999999992553
 40
6.999999999997563
 50
183.8065708568199
 51
263.8439940025163
 73
     1
 72
     2
 10
-8.194355108050331
 20
-6.228155349039013
 40
1.935991189831564
 50
220.9371179965843
 51
252.8815323017916
 73
     0
 72
     1
 10
-8.764210984670171
 20
-4.377932074137447
 11
-0.5
 21
-1.937727921821874
 72
     1
 10
-0.5
 20
-1.937727921821874
 11
0.000000000001819
 21
-1.497633412080176
 97
        1
330
92
 75
     1
 76
     1
 52
0.0
 41
0.7
 77
     0
 78
     2
 53
45.0
 43
6759.091662868421
 44
-368.9235574352756
 45
-1.571544821187101
 46
1.571544821187101
 79
     0
 53
135.0
 43
6759.091662868421
 44
-368.9235574352756
 45
-1.571544821187101
 46
-1.571544821187101
 79
     0
 98
        1
 10
6759.091662868421
 20
-368.9235574352756
1001
GradientColor1ACI
1070
     5
1001
GradientColor2ACI
1070
     2
1001
ACAD
1010
0.0
1020
0.0
1030
0.0
  0
LWPOLYLINE
  5
92
102
{ACAD_REACTORS
330
8D
102
}
330
89
100
AcDbEntity
  8
-GUMMI
100
AcDbPolyline
 90
       26
 70
     1
 43
0.0
 10
0.000000000001819
 20
-1.497633412080176
 10
0.5
 20
-1.937727921821874
 10
8.764210984670171
 20
-4.377932074137447
 10
8.764210984670171
 20
-4.377932074137447
 42
-0.1402935142290111
 10
9.656859285106293
 20
-4.95963518002344
 42
0.3641551661738441
 10
15.89076448963169
 20
1.535281683582752
 10
17.25052678736938
 20
21.97204300453558
 42
0.6125115394819037
 10
16.33261018732173
 20
22.51989730334049
 42
0.2325727834594456
 10
8.760000000001127
 20
10.24413317000432
 10
8.760000000001127
 20
-1.89132390945673
 42
-3.00832325673228
 10
8.376374069960547
 20
-2.178049261803494
 10
1.0
 20
0.0
 10
0.0
 20
-0.7082984386912017
 10
0.000000000003638
 20
-0.7082984386886438
 10
0.0
 20
-0.7082984386912017
 10
-1.0
 20
0.0
 10
-8.376374069960547
 20
-2.178049261803494
 42
-3.00832325673228
 10
-8.760000000001127
 20
-1.89132390945673
 10
-8.760000000001127
 20
10.24413317000432
 42
0.2325727834594456
 10
-16.33261018732173
 20
22.51989730334049
 42
0.6125115394819037
 10
-17.25052678736938
 20
21.97204300453558
 10
-15.89076448963169
 20
1.535281683582752
 42
0.3641551661738441
 10
-9.656859285106293
 20
-4.95963518002344
 42
-0.1402935142290111
 10
-8.764210984670171
 20
-4.377932074137447
 10
-8.764210984670171
 20
-4.377932074137447
 10
-0.5
 20
-1.937727921821874
  0
ENDBLK
  5
93
330
89
100
AcDbEntity
  8
0
100
AcDbBlockEnd
  0
BLOCK
  5
B6
330
B5
100
AcDbEntity
  8
0
100
AcDbBlockBegin
  2
core Top 4
 70
     0
 10
0.0
 20
0.0
 30
0.0
  3
core Top 4
  1

  0
HATCH
  5
B7
330
B5
100
AcDbEntity
  8
-PROFILAUSSENKANTET
100
AcDbHatch
 10
0.0
 20
0.0
 30
0.0
210
0.0
220
0.0
230
1.0
  2
_U
 70
     0
 71
     0
 91
        2
 92
        5
 93
       42
 72
     1
 10
6.999999999998181
 20
-4.999999999998181
 11
7.0
 21
-10.99999999999772
 72
     1
 10
7.0
 20
-10.99999999999772
 11
19.9895653489184
 21
-10.99999999999863
 72
     2
 10
19.98956534891658
 20
-10.74999999999681
 40
0.250000000002057
 50
270.0000000004168
 51
364.9293138614016
 73
     1
 72
     1
 10
20.23864071504249
 20
-10.72851833362119
 11
20.08704415691591
 21
-8.970788390514826
 72
     2
 10
20.33611952303909
 20
-8.949306724136931
 40
0.2499999999994249
 50
175.0706861380254
 51
299.3076220061158
 73
     0
 72
     1
 10
20.45849413754149
 20
-8.731305683485516
 11
24.27198517957549
 21
-10.87200416260884
 72
     2
 10
24.76148363758148
 20
-9.999999999997726
 40
1.000000000000454
 50
240.6923779942189
 51
269.9999999998958
 73
     1
 72
     1
 10
24.76148363757966
 20
-10.99999999999818
 11
28.5
 21
-10.99999999999727
 72
     2
 10
28.50000000000091
 20
-10.49999999999818
 40
0.4999999999990905
 50
269.9999999998958
 51
360.0
 73
     1
 72
     1
 10
29.0
 20
-10.49999999999818
 11
29.00000000000091
 21
104.5000000000023
 72
     2
 10
28.5
 20
104.5000000000009
 40
0.5000000000013643
 50
0.0000000001563306
 51
90.0
 73
     1
 72
     1
 10
28.5
 20
105.0000000000022
 11
19.80000000000018
 21
105.0000000000022
 72
     2
 10
19.80000000000018
 20
104.5000000000023
 40
0.5
 50
90.0
 51
180.0
 73
     1
 72
     1
 10
19.30000000000018
 20
104.5000000000023
 11
19.30000000000018
 21
103.5000000000023
 72
     2
 10
19.80000000000018
 20
103.5000000000023
 40
0.5
 50
180.0
 51
270.0
 73
     1
 72
     1
 10
19.80000000000018
 20
103.0000000000022
 11
21.49990992274161
 21
103.0000000000022
 72
     2
 10
21.49990992274252
 20
102.5000000000032
 40
0.4999999999990905
 50
269.9999999998437
 51
360.0
 73
     0
 72
     1
 10
21.99990992274161
 20
102.5000000000027
 11
21.99990992274525
 21
99.50000000000319
 72
     2
 10
21.49990992274434
 20
99.50000000000409
 40
0.5000000000013643
 50
0.0000000001042204
 51
90.0
 73
     0
 72
     1
 10
21.49990992274434
 20
99.00000000000273
 11
18.89863276444066
 21
99.00000000000227
 72
     2
 10
18.89863276444066
 20
98.50000000000136
 40
0.5000000000008724
 50
90.00000000000081
 51
179.8534613654568
 73
     1
 72
     1
 10
18.39863439974488
 20
98.50127878943432
 11
18.39440039337569
 21
96.84580979071871
 72
     2
 10
18.59439973926874
 20
96.8452982749477
 40
0.2000000000150991
 50
179.853461366092
 51
203.4585283329245
 73
     1
 72
     2
 10
13.59991563681069
 20
94.67793199798553
 40
5.24447867367059
 50
336.5414716651714
 51
391.4122645845574
 73
     0
 72
     2
 10
18.24644744229499
 20
91.84031147920633
 40
0.1999999999927383
 50
148.5877354108507
 51
183.156475223224
 73
     1
 72
     2
 10
12.59737007685089
 20
91.52878357874852
 40
5.457660710365914
 50
356.8435247776177
 51
392.5667496796031
 73
     0
 72
     2
 10
17.3654480452742
 20
88.4833678106429
 40
0.1999999999975303
 50
147.4332503202757
 51
187.01107458618
 73
     1
 72
     2
 10
12.25859874639263
 20
87.85532356400882
 40
4.945323054701505
 50
352.9889254140812
 51
393.3644792637748
 73
     0
 72
     2
 10
13.30588549707499
 20
87.38443045617305
 40
3.81604219353058
 50
36.1084325813626
 51
74.66078834119546
 73
     0
 72
     2
 10
14.44762153872307
 20
83.22214033803538
 40
0.5000000000008344
 50
105.3392116589888
 51
181.4755260837759
 73
     1
 72
     1
 10
13.94778733108615
 20
83.20926536709157
 11
13.95766853748682
 21
82.82565557154839
 72
     2
 10
14.45750274512465
 20
82.83853054249403
 40
0.5000000000018837
 50
181.4755260839817
 51
257.9265008682903
 73
     1
 72
     1
 10
14.35291960064751
 20
82.34959049924418
 11
19.83666515579807
 21
81.17663000730363
 72
     2
 10
19.00000000000091
 20
77.26510966131718
 40
3.99999999999909
 50
282.0734991314597
 51
360.0
 73
     0
 72
     1
 10
23.0
 20
77.26510966131673
 11
23.0
 21
37.27580569186512
 72
     2
 10
18.99999999999454
 20
37.27580569186739
 40
4.00000000000553
 50
0.0000000000325689
 51
35.38031329247611
 73
     0
 72
     1
 10
22.26130714952706
 20
34.95980144393252
 11
17.81139774509847
 21
28.70033298620729
 72
     2
 10
20.2564976558906
 20
26.96209064801724
 40
3.00000000000541
 50
144.5906550057556
 51
176.1934291431589
 73
     1
 72
     1
 10
17.26311607218031
 20
27.16125564076583
 11
15.89076448963442
 21
6.535281683588436
 72
     2
 10
8.906207460991026
 20
6.999999999998181
 40
6.999999999998181
 50
3.80657085681898
 51
63.77033424148226
 73
     0
 72
     1
 10
12.00000000000091
 20
0.7207924285330592
 11
11.99999999999909
 21
0.0000000000009095
 72
     1
 10
11.99999999999909
 20
0.0000000000009095
 11
6.999999999998181
 21
-4.999999999998181
 97
        0
 92
        5
 93
       25
 72
     1
 10
-12.0
 20
0.0000000000009095
 11
-12.0
 21
0.7207924285326044
 72
     2
 10
-8.906207460991936
 20
6.999999999997726
 40
6.999999999998437
 50
116.2296657584995
 51
176.1934291431847
 73
     0
 72
     1
 10
-15.89076448963533
 20
6.535281683588436
 11
-17.31511585085081
 21
27.94279449282203
 72
     2
 10
-22.3040851558826
 20
27.61085283833245
 40
4.999999998853466
 50
3.806570856672395
 51
5.312813683577919
 73
     1
 72
     1
 10
-17.32556507984191
 20
28.0738191880755
 11
-21.96603807865267
 21
77.97526019034012
 72
     2
 10
-17.48532472283114
 20
78.39144262986929
 40
4.50000000000057
 50
174.693417235253
 51
268.109757648795
 73
     0
 72
     1
 10
-17.63375708081003
 20
82.88899394531972
 11
-17.49144446903847
 21
82.89369067806456
 72
     2
 10
-17.50793695325865
 20
83.39341860200329
 40
0.4999999999999355
 50
271.8902423512405
 51
361.9552986884839
 73
     1
 72
     1
 10
-17.00822807779696
 20
83.41047849018423
 11
-17.52396154201688
 21
98.51705988818276
 72
     2
 10
-18.02367041747857
 20
98.50000000000136
 40
0.5000000000004548
 50
1.955298688532292
 51
89.99999999979156
 73
     1
 72
     1
 10
-18.02367041747675
 20
99.00000000000183
 11
-21.0422666985869
 21
99.00000000000318
 72
     2
 10
-21.04226669858781
 20
99.50000000000228
 40
0.4999999999990905
 50
89.99999999989578
 51
180.0
 73
     0
 72
     1
 10
-21.5422666985869
 20
99.50000000000228
 11
-21.54226669858781
 21
102.5000000000018
 72
     2
 10
-21.0422666985869
 20
102.5000000000004
 40
0.5000000000013643
 50
180.0000000001563
 51
270.0
 73
     0
 72
     1
 10
-21.0422666985869
 20
103.0000000000018
 11
-18.99999999999909
 21
103.0000000000027
 72
     2
 10
-18.99999999999909
 20
103.5000000000018
 40
0.4999999999990905
 50
269.9999999999479
 51
360.0
 73
     1
 72
     1
 10
-18.5
 20
103.5000000000023
 11
-18.49999999999909
 21
104.5000000000018
 72
     2
 10
-19.0
 20
104.5000000000004
 40
0.5000000000013643
 50
0.0000000001563306
 51
90.0
 73
     1
 72
     1
 10
-19.0
 20
105.0000000000018
 11
-26.5
 21
105.0000000000009
 72
     2
 10
-26.50000000000091
 20
104.5000000000018
 40
0.4999999999990905
 50
89.99999999989578
 51
180.0
 73
     1
 72
     1
 10
-27.0
 20
104.5000000000018
 11
-27.00000000000091
 21
-10.49999999999818
 72
     2
 10
-26.5
 20
-10.49999999999681
 40
0.5000000000013643
 50
180.0000000001563
 51
270.0
 73
     1
 72
     1
 10
-26.5
 20
-10.99999999999818
 11
-7.0
 21
-10.99999999999863
 72
     1
 10
-7.0
 20
-10.99999999999863
 11
-7.000000000000909
 21
-4.999999999997726
 72
     1
 10
-7.000000000000909
 20
-4.999999999997726
 11
-12.0
 21
0.0000000000009095
 97
        0
 75
     0
 76
     0
 52
45.0
 41
5.0
 77
     0
 78
     1
 53
45.0
 43
4976.129729578201
 44
-3688.989979733864
 45
-3.535533905932737
 46
3.535533905932737
 79
     0
 47
0.1970330217766768
 98
        2
 10
1.422258998056349
 20
38.08259652109382
 10
1.422258998056349
 20
38.08259652109382
1001
GradientColor1ACI
1070
     5
1001
GradientColor2ACI
1070
     2
1001
ACAD
1010
0.0
1020
0.0
1030
0.0
1001
GENIUS_GENOBJ-N-HTC_13
1002
{
1000
OWNER
1000
GEN
1002
}
1001
GENIUS_GENODEF_13
1002
{
1000
HIER
1070
     0
1002
}
1002
{
1000
MANEDIT
1070
     0
1002
}
1002
{
1000
NOSEL
1070
     0
1002
}
1002
{
1000
BEHIND
1070
     0
1002
}
1002
{
1000
OTHER
1070
     0
1002
}
1002
{
1000
REACTOR
1002
}
1001
GENIUS_GENHATCH_13
1002
{
1000
DATA
1040
45.0
1042
2.5
1000
_U
1070
     0
1011
4976.129729578201
1021
-3688.989979733864
1031
0.0
1002
}
1002
{
1000
UCS
1010
0.0
1020
0.0
1030
0.0
1010
1.0
1020
0.0
1030
0.0
1010
0.0
1020
1.0
1030
0.0
1002
}
  0
LWPOLYLINE
  5
BA
330
B5
100
AcDbEntity
  8
-PROFILAUSSENKANTET
100
AcDbPolyline
 90
       62
 70
     0
 43
0.0
 10
28.5
 20
105.0000000000022
 42
-0.4142135623730951
 10
29.0
 20
104.5000000000023
 10
29.0
 20
-10.49999999999818
 42
-0.4142135623730951
 10
28.5
 20
-10.99999999999818
 10
24.76148363757966
 20
-10.99999999999818
 42
-0.1285802789263
 10
24.27198517957549
 20
-10.87200416260884
 10
20.45849413754149
 20
-8.731305683485516
 42
0.6022685683129414
 10
20.08704415691682
 20
-8.970788390514826
 10
20.23864071504249
 20
-10.72851833362119
 42
-0.4396424401505486
 10
19.9895653489184
 20
-10.99999999999818
 10
-26.5
 20
-10.99999999999818
 42
-0.4142135623730951
 10
-27.0
 20
-10.49999999999818
 10
-27.0
 20
104.5000000000018
 42
-0.4142135623730951
 10
-26.5
 20
105.0000000000018
 10
-19.0
 20
105.0000000000018
 42
-0.4142135623730951
 10
-18.5
 20
104.5000000000018
 10
-18.5
 20
103.5000000000023
 42
-0.4142135623731617
 10
-19.0
 20
103.0000000000018
 10
-21.0422666985869
 20
103.0000000000018
 42
0.4142135623731284
 10
-21.5422666985869
 20
102.5000000000018
 10
-21.5422666985869
 20
99.50000000000228
 42
0.4142135623730563
 10
-21.0422666985869
 20
99.00000000000227
 10
-18.02367041747675
 20
99.00000000000183
 42
-0.4042531287901137
 10
-17.52396154201597
 20
98.51705988818276
 10
-17.00822807779696
 20
83.41047849018423
 42
-0.4145461662996631
 10
-17.49144446903847
 20
82.89369067806456
 10
-17.63375708081003
 20
82.88899394531972
 42
0.4317875397379496
 10
-21.96603807865177
 20
77.97526019034012
 10
-17.32556507984191
 20
28.0738191880755
 42
-0.006572318793332
 10
-17.31511585085081
 20
27.94279449282203
 10
-15.89076448963533
 20
6.535281683588436
 42
0.3948857526365925
 10
-8.906207460991026
 20
0.0
 10
8.906207460991026
 20
0.0
 42
0.3948857526365925
 10
15.89076448963533
 20
6.535281683588436
 10
17.26311607218031
 20
27.16125564076583
 42
-0.1387738043864482
 10
17.81139774509847
 20
28.70033298620729
 10
22.26130714952706
 20
34.95980144393252
 42
0.1556138978555952
 10
23.0
 20
37.27580569186512
 10
23.0
 20
77.26510966131673
 42
0.3537576972150267
 10
19.83666515579898
 20
81.17663000730408
 10
14.35291960064751
 20
82.34959049924418
 42
-0.3465301564240021
 10
13.95766853748682
 20
82.82565557154839
 10
13.94778733108615
 20
83.20926536709157
 42
-0.3449930520062417
 10
14.31535498635094
 20
83.70432864059422
 42
0.1698212117366207
 10
16.38887804164005
 20
85.1355785284195
 42
0.1780170813580985
 10
17.16694352983268
 20
88.45895557296717
 42
-0.1744282333759582
 10
17.19689506154282
 20
88.59102416983388
 42
0.1571467223868425
 10
18.04675086611496
 20
91.82929887465206
 42
-0.1519889713364233
 10
18.07575959195674
 20
91.94454994496618
 42
0.244100996166916
 10
18.41093004814684
 20
96.76568123879542
 42
-0.1033622923636
 10
18.39440039337569
 20
96.84580979071871
 10
18.39863439974488
 20
98.50127878943432
 42
-0.4134646622918058
 10
18.89863276444066
 20
99.00000000000227
 10
21.49990992274434
 20
99.00000000000273
 42
0.4142135623733615
 10
21.99990992274434
 20
99.50000000000319
 10
21.99990992274161
 20
102.5000000000027
 42
0.4142135623729052
 10
21.49990992274161
 20
103.0000000000022
 10
19.80000000000018
 20
103.0000000000022
 42
-0.4142135623731049
 10
19.30000000000018
 20
103.5000000000023
 10
19.30000000000018
 20
104.5000000000023
 42
-0.4142135623730951
 10
19.80000000000018
 20
105.0000000000022
 10
28.5
 20
105.0000000000022
  0
LINE
  5
BB
330
B5
100
AcDbEntity
  8
-ACHSE
  6
AM_DIN_G_W050x2
100
AcDbLine
 10
0.0
 20
-13.99992387264319
 30
0.0
 11
0.0
 21
1.50663081822131
 31
0.0
1001
GENIUS_GENOBJ-N-CEN_13
1002
{
1000
OWNER
1000
GEN
1002
}
1001
GENIUS_GENODEF_13
1002
{
1000
HIER
1070
     0
1002
}
1002
{
1000
MANEDIT
1070
     0
1002
}
1002
{
1000
NOSEL
1070
     0
1002
}
1002
{
1000
BEHIND
1070
     0
1002
}
1002
{
1000
OTHER
1070
     0
1002
}
1002
{
1000
REACTOR
1002
}
1001
GENIUS_GENCEN_19
1002
{
1040
3.0
1002
}
  0
LINE
  5
BC
330
B5
100
AcDbEntity
  8
-PROFILAUSSENKANTET
100
AcDbLine
 10
-7.0
 20
-4.999999999998635
 30
0.0
 11
6.99999999999909
 21
-4.999999999997726
 31
0.0
  0
LINE
  5
BD
330
B5
100
AcDbEntity
  8
-PROFILAUSSENKANTET
100
AcDbLine
 10
-12.0
 20
0.0000000000013642
 30
0.0
 11
-8.906207460998302
 21
-0.000000000001819
 31
0.0
  0
LINE
  5
BE
330
B5
100
AcDbEntity
  8
-PROFILAUSSENKANTET
100
AcDbLine
 10
12.0
 20
0.0000000000013642
 30
0.0
 11
8.906207460998302
 21
-0.000000000001819
 31
0.0
  0
POLYLINE
  5
BF
330
B5
100
AcDbEntity
  8
-PROFILAUSSENKANTET
100
AcDb2dPolyline
 66
     1
 10
0.0
 20
0.0
 30
0.0
  0
VERTEX
  5
C0
330
BF
100
AcDbEntity
  8
-PROFILAUSSENKANTET
100
AcDbVertex
100
AcDb2dVertex
 10
-12.0
 20
0.7207924285326044
 30
0.0
  0
VERTEX
  5
C1
330
BF
100
AcDbEntity
  8
-PROFILAUSSENKANTET
100
AcDbVertex
100
AcDb2dVertex
 10
-12.0
 20
0.0000000000013642
 30
0.0
  0
VERTEX
  5
C2
330
BF
100
AcDbEntity
  8
-PROFILAUSSENKANTET
100
AcDbVertex
100
AcDb2dVertex
 10
-7.0
 20
-4.999999999998635
 30
0.0
  0
VERTEX
  5
C3
330
BF
100
AcDbEntity
  8
-PROFILAUSSENKANTET
100
AcDbVertex
100
AcDb2dVertex
 10
-7.0
 20
-10.99999999999818
 30
0.0
  0
VERTEX
  5
C4
330
BF
100
AcDbEntity
  8
-PROFILAUSSENKANTET
100
AcDbVertex
100
AcDb2dVertex
 10
7.0
 20
-10.99999999999818
 30
0.0
  0
VERTEX
  5
C5
330
BF
100
AcDbEntity
  8
-PROFILAUSSENKANTET
100
AcDbVertex
100
AcDb2dVertex
 10
6.99999999999909
 20
-4.999999999998635
 30
0.0
  0
VERTEX
  5
C6
330
BF
100
AcDbEntity
  8
-PROFILAUSSENKANTET
100
AcDbVertex
100
AcDb2dVertex
 10
12.0
 20
0.0000000000013642
 30
0.0
  0
VERTEX
  5
C7
330
BF
100
AcDbEntity
  8
-PROFILAUSSENKANTET
100
AcDbVertex
100
AcDb2dVertex
 10
12.00000000000091
 20
0.7207924285335139
 30
0.0
  0
SEQEND
  5
C8
330
BF
100
AcDbEntity
  8
-PROFILAUSSENKANTET
  0
ENDBLK
  5
C9
330
B5
100
AcDbEntity
  8
0
100
AcDbBlockEnd
  0
BLOCK
  5
CC
330
CB
100
AcDbEntity
  8
0
100
AcDbBlockBegin
  2
*D9
 70
     1
 10
0.0
 20
0.0
 30
0.0
  3
*D9
  1

  0
LINE
  5
CD
330
CB
100
AcDbEntity
  8
AM_5
  6
ByBlock
100
AcDbLine
 10
-4947.129729578201
 20
3676.490055861221
 30
0.0
 11
-4947.129729578201
 21
3658.989979733867
 31
0.0
  0
LINE
  5
CE
330
CB
100
AcDbEntity
  8
AM_5
  6
ByBlock
100
AcDbLine
 10
-4976.130541293819
 20
3672.990055861221
 30
0.0
 11
-4976.130541293819
 21
3658.989979733867
 31
0.0
  0
LINE
  5
CF
330
CB
100
AcDbEntity
  8
AM_5
  6
ByBlock
100
AcDbLine
 10
-4954.129729578202
 20
3660.989979733867
 30
0.0
 11
-4969.13054129382
 21
3660.989979733867
 31
0.0
  0
SOLID
  5
D0
330
CB
100
AcDbEntity
  8
AM_5
100
AcDbTrace
 10
-4954.129729578202
 20
3662.156646400533
 30
0.0
 11
-4954.129729578202
 21
3659.8233130672
 31
0.0
 12
-4947.129729578201
 22
3660.989979733867
 32
0.0
 13
-4947.129729578201
 23
3660.989979733867
 33
0.0
  0
SOLID
  5
D1
330
CB
100
AcDbEntity
  8
AM_5
100
AcDbTrace
 10
-4969.13054129382
 20
3662.156646400533
 30
0.0
 11
-4969.13054129382
 21
3659.8233130672
 31
0.0
 12
-4976.130541293819
 22
3660.989979733867
 32
0.0
 13
-4976.130541293819
 23
3660.989979733867
 33
0.0
  0
MTEXT
  5
D2
330
CB
100
AcDbEntity
  8
AM_5
 62
     2
100
AcDbMText
 10
-4961.630135436011
 20
3667.563990647919
 30
0.0
 40
7.0
 41
0.0
 71
     5
 72
     1
  1
29
 73
     1
 44
1.0
1001
ACAD
1000
MTEXTBEGIN
1070
    73
1070
     1
1070
    44
1040
1.0
1070
    74
1070
     0
1000
MTEXTEND
  0
POINT
  5
D3
330
CB
100
AcDbEntity
  8
DEFPOINTS
 62
     0
100
AcDbPoint
 10
-4947.129729578201
 20
3678.490055861221
 30
0.0
  0
POINT
  5
D4
330
CB
100
AcDbEntity
  8
DEFPOINTS
 62
     0
100
AcDbPoint
 10
-4976.130541293819
 20
3674.990055861221
 30
0.0
  0
POINT
  5
D5
330
CB
100
AcDbEntity
  8
DEFPOINTS
 62
     0
100
AcDbPoint
 10
-4976.130541293819
 20
3660.989979733867
 30
0.0
  0
ENDBLK
  5
D6
330
CB
100
AcDbEntity
  8
0
100
AcDbBlockEnd
  0
BLOCK
  5
D9
330
D8
100
AcDbEntity
  8
0
100
AcDbBlockBegin
  2
*D10
 70
     1
 10
0.0
 20
0.0
 30
0.0
  3
*D10
  1

  0
LINE
  5
DA
330
D8
100
AcDbEntity
  8
AM_5
  6
ByBlock
100
AcDbLine
 10
-4976.130541293819
 20
3672.990055861221
 30
0.0
 11
-4976.130541293819
 21
3658.989979733867
 31
0.0
  0
LINE
  5
DB
330
D8
100
AcDbEntity
  8
AM_5
  6
ByBlock
100
AcDbLine
 10
-5003.129729578201
 20
3676.489979733866
 30
0.0
 11
-5003.129729578201
 21
3658.989979733867
 31
0.0
  0
LINE
  5
DC
330
D8
100
AcDbEntity
  8
AM_5
  6
ByBlock
100
AcDbLine
 10
-4983.13054129382
 20
3660.989979733867
 30
0.0
 11
-4996.129729578202
 21
3660.989979733867
 31
0.0
  0
SOLID
  5
DD
330
D8
100
AcDbEntity
  8
AM_5
100
AcDbTrace
 10
-4983.13054129382
 20
3662.156646400533
 30
0.0
 11
-4983.13054129382
 21
3659.8233130672
 31
0.0
 12
-4976.130541293819
 22
3660.989979733867
 32
0.0
 13
-4976.130541293819
 23
3660.989979733867
 33
0.0
  0
SOLID
  5
DE
330
D8
100
AcDbEntity
  8
AM_5
100
AcDbTrace
 10
-4996.129729578202
 20
3662.156646400533
 30
0.0
 11
-4996.129729578202
 21
3659.8233130672
 31
0.0
 12
-5003.129729578201
 22
3660.989979733867
 32
0.0
 13
-5003.129729578201
 23
3660.989979733867
 33
0.0
  0
MTEXT
  5
DF
330
D8
100
AcDbEntity
  8
AM_5
 62
     2
100
AcDbMText
 10
-4989.630135436011
 20
3667.50430442691
 30
0.0
 40
7.0
 41
0.0
 71
     5
 72
     1
  1
27
 73
     1
 44
1.0
1001
ACAD
1000
MTEXTBEGIN
1070
    73
1070
     1
1070
    44
1040
1.0
1070
    74
1070
     0
1000
MTEXTEND
  0
POINT
  5
E0
330
D8
100
AcDbEntity
  8
DEFPOINTS
 62
     0
100
AcDbPoint
 10
-4976.130541293819
 20
3674.990055861221
 30
0.0
  0
POINT
  5
E1
330
D8
100
AcDbEntity
  8
DEFPOINTS
 62
     0
100
AcDbPoint
 10
-5003.129729578201
 20
3678.489979733866
 30
0.0
  0
POINT
  5
E2
330
D8
100
AcDbEntity
  8
DEFPOINTS
 62
     0
100
AcDbPoint
 10
-5003.129729578201
 20
3660.989979733867
 30
0.0
  0
ENDBLK
  5
E3
330
D8
100
AcDbEntity
  8
0
100
AcDbBlockEnd
  0
BLOCK
  5
E6
330
E5
100
AcDbEntity
  8
0
100
AcDbBlockBegin
  2
*D11
 70
     1
 10
0.0
 20
0.0
 30
0.0
  3
*D11
  1

  0
LINE
  5
E7
330
E5
100
AcDbEntity
  8
AM_5
  6
ByBlock
100
AcDbLine
 10
-4947.129729578201
 20
3676.490055861221
 30
0.0
 11
-4947.129729578201
 21
3641.989979733867
 31
0.0
  0
LINE
  5
E8
330
E5
100
AcDbEntity
  8
AM_5
  6
ByBlock
100
AcDbLine
 10
-5003.129729578201
 20
3676.489979733866
 30
0.0
 11
-5003.129729578201
 21
3641.989979733867
 31
0.0
  0
LINE
  5
E9
330
E5
100
AcDbEntity
  8
AM_5
  6
ByBlock
100
AcDbLine
 10
-4954.129729578202
 20
3643.989979733867
 30
0.0
 11
-4996.129729578202
 21
3643.989979733867
 31
0.0
  0
SOLID
  5
EA
330
E5
100
AcDbEntity
  8
AM_5
100
AcDbTrace
 10
-4954.129729578202
 20
3645.156646400533
 30
0.0
 11
-4954.129729578202
 21
3642.8233130672
 31
0.0
 12
-4947.129729578201
 22
3643.989979733867
 32
0.0
 13
-4947.129729578201
 23
3643.989979733867
 33
0.0
  0
SOLID
  5
EB
330
E5
100
AcDbEntity
  8
AM_5
100
AcDbTrace
 10
-4996.129729578202
 20
3645.156646400533
 30
0.0
 11
-4996.129729578202
 21
3642.8233130672
 31
0.0
 12
-5003.129729578201
 22
3643.989979733867
 32
0.0
 13
-5003.129729578201
 23
3643.989979733867
 33
0.0
  0
MTEXT
  5
EC
330
E5
100
AcDbEntity
  8
AM_5
 62
     2
100
AcDbMText
 10
-4975.129729578202
 20
3650.563990647919
 30
0.0
 40
7.0
 41
0.0
 71
     5
 72
     1
  1
56
 73
     1
 44
1.0
1001
ACAD
1000
MTEXTBEGIN
1070
    73
1070
     1
1070
    44
1040
1.0
1070
    74
1070
     0
1000
MTEXTEND
  0
POINT
  5
ED
330
E5
100
AcDbEntity
  8
DEFPOINTS
 62
     0
100
AcDbPoint
 10
-4947.129729578201
 20
3678.490055861221
 30
0.0
  0
POINT
  5
EE
330
E5
100
AcDbEntity
  8
DEFPOINTS
 62
     0
100
AcDbPoint
 10
-5003.129729578201
 20
3678.489979733866
 30
0.0
  0
POINT
  5
EF
330
E5
100
AcDbEntity
  8
DEFPOINTS
 62
     0
100
AcDbPoint
 10
-5003.129729578201
 20
3643.989979733867
 30
0.0
  0
ENDBLK
  5
F0
330
E5
100
AcDbEntity
  8
0
100
AcDbBlockEnd
  0
BLOCK
  5
F3
330
F2
100
AcDbEntity
  8
0
100
AcDbBlockBegin
  2
*D12
 70
     1
 10
0.0
 20
0.0
 30
0.0
  3
*D12
  1

  0
LINE
  5
F4
330
F2
100
AcDbEntity
  8
AM_5
  6
ByBlock
100
AcDbLine
 10
-5004.629729578201
 20
3677.989979733866
 30
0.0
 11
-5039.129729578203
 21
3677.989979733866
 31
0.0
  0
LINE
  5
F5
330
F2
100
AcDbEntity
  8
AM_5
  6
ByBlock
100
AcDbLine
 10
-5004.629729578201
 20
3793.989979733866
 30
0.0
 11
-5039.129729578203
 21
3793.989979733866
 31
0.0
  0
LINE
  5
F6
330
F2
100
AcDbEntity
  8
AM_5
  6
ByBlock
100
AcDbLine
 10
-5037.129729578203
 20
3684.989979733866
 30
0.0
 11
-5037.129729578203
 21
3786.989979733866
 31
0.0
  0
SOLID
  5
F7
330
F2
100
AcDbEntity
  8
AM_5
100
AcDbTrace
 10
-5038.296396244869
 20
3684.989979733866
 30
0.0
 11
-5035.963062911536
 21
3684.989979733866
 31
0.0
 12
-5037.129729578203
 22
3677.989979733866
 32
0.0
 13
-5037.129729578203
 23
3677.989979733866
 33
0.0
  0
SOLID
  5
F8
330
F2
100
AcDbEntity
  8
AM_5
100
AcDbTrace
 10
-5038.296396244869
 20
3786.989979733866
 30
0.0
 11
-5035.963062911536
 21
3786.989979733866
 31
0.0
 12
-5037.129729578203
 22
3793.989979733866
 32
0.0
 13
-5037.129729578203
 23
3793.989979733866
 33
0.0
  0
MTEXT
  5
F9
330
F2
100
AcDbEntity
  8
AM_5
 62
     2
100
AcDbMText
 10
-5043.703740492254
 20
3735.989979733866
 30
0.0
 40
7.0
 41
0.0
 71
     5
 72
     1
  1
116
 11
0.0000000000000001
 21
1.0
 31
0.0
 73
     1
 44
1.0
1001
ACAD
1000
MTEXTBEGIN
1070
    73
1070
     1
1070
    44
1040
1.0
1070
    74
1070
     0
1000
MTEXTEND
  0
POINT
  5
FA
330
F2
100
AcDbEntity
  8
DEFPOINTS
 62
     0
100
AcDbPoint
 10
-5002.629729578202
 20
3677.989979733866
 30
0.0
  0
POINT
  5
FB
330
F2
100
AcDbEntity
  8
DEFPOINTS
 62
     0
100
AcDbPoint
 10
-5002.629729578202
 20
3793.989979733866
 30
0.0
  0
POINT
  5
FC
330
F2
100
AcDbEntity
  8
DEFPOINTS
 62
     0
100
AcDbPoint
 10
-5037.129729578203
 20
3793.989979733866
 30
0.0
  0
ENDBLK
  5
FD
330
F2
100
AcDbEntity
  8
0
100
AcDbBlockEnd
  0
BLOCK
  5
100
330
FF
100
AcDbEntity
  8
0
100
AcDbBlockBegin
  2
*D13
 70
     1
 10
0.0
 20
0.0
 30
0.0
  3
*D13
  1

  0
LINE
  5
101
330
FF
100
AcDbEntity
  8
AM_5
  6
ByBlock
100
AcDbLine
 10
-4984.889728497592
 20
3693.989979733871
 30
0.0
 11
-5022.129729578202
 21
3693.989979733871
 31
0.0
  0
LINE
  5
102
330
FF
100
AcDbEntity
  8
AM_5
  6
ByBlock
100
AcDbLine
 10
-5004.629729578201
 20
3793.989979733866
 30
0.0
 11
-5022.129729578202
 21
3793.989979733866
 31
0.0
  0
LINE
  5
103
330
FF
100
AcDbEntity
  8
AM_5
  6
ByBlock
100
AcDbLine
 10
-5020.129729578203
 20
3700.989979733871
 30
0.0
 11
-5020.129729578203
 21
3786.989979733866
 31
0.0
  0
SOLID
  5
104
330
FF
100
AcDbEntity
  8
AM_5
100
AcDbTrace
 10
-5021.29639624487
 20
3700.989979733871
 30
0.0
 11
-5018.963062911535
 21
3700.989979733871
 31
0.0
 12
-5020.129729578203
 22
3693.989979733871
 32
0.0
 13
-5020.129729578203
 23
3693.989979733871
 33
0.0
  0
SOLID
  5
105
330
FF
100
AcDbEntity
  8
AM_5
100
AcDbTrace
 10
-5021.29639624487
 20
3786.989979733866
 30
0.0
 11
-5018.963062911535
 21
3786.989979733866
 31
0.0
 12
-5020.129729578203
 22
3793.989979733866
 32
0.0
 13
-5020.129729578203
 23
3793.989979733866
 33
0.0
  0
MTEXT
  5
106
330
FF
100
AcDbEntity
  8
AM_5
 62
     2
100
AcDbMText
 10
-5026.749102020222
 20
3743.989979733868
 30
0.0
 40
7.0
 41
0.0
 71
     5
 72
     1
  1
Glaseinstand ca.100
 11
0.0000000000000001
 21
1.0
 31
0.0
 73
     1
 44
1.0
1001
ACAD
1000
MTEXTBEGIN
1070
    73
1070
     1
1070
    44
1040
1.0
1070
    74
1070
     0
1000
MTEXTEND
  0
POINT
  5
107
330
FF
100
AcDbEntity
  8
DEFPOINTS
 62
     0
100
AcDbPoint
 10
-4982.889728497593
 20
3693.989979733871
 30
0.0
  0
POINT
  5
108
330
FF
100
AcDbEntity
  8
DEFPOINTS
 62
     0
100
AcDbPoint
 10
-5002.629729578202
 20
3793.989979733866
 30
0.0
  0
POINT
  5
109
330
FF
100
AcDbEntity
  8
DEFPOINTS
 62
     0
100
AcDbPoint
 10
-5020.129729578203
 20
3793.989979733866
 30
0.0
  0
ENDBLK
  5
10A
330
FF
100
AcDbEntity
  8
0
100
AcDbBlockEnd
  0
BLOCK
  5
10D
330
10C
100
AcDbEntity
  8
0
100
AcDbBlockBegin
  2
*D14
 70
     1
 10
0.0
 20
0.0
 30
0.0
  3
*D14
  1

  0
LINE
  5
10E
330
10C
100
AcDbEntity
  8
AM_5
  6
ByBlock
100
AcDbLine
 10
-4983.130541293819
 20
3685.743333206652
 30
0.0
 11
-4983.130541293819
 21
3702.121617041295
 31
0.0
  0
LINE
  5
10F
330
10C
100
AcDbEntity
  8
AM_5
  6
ByBlock
100
AcDbLine
 10
-4969.130541293819
 20
3685.743333206652
 30
0.0
 11
-4969.130541293819
 21
3702.121617041295
 31
0.0
  0
LINE
  5
110
330
10C
100
AcDbEntity
  8
AM_5
  6
ByBlock
100
AcDbLine
 10
-4990.130541293819
 20
3700.121617041296
 30
0.0
 11
-4997.130541293819
 21
3700.121617041296
 31
0.0
  0
LINE
  5
111
330
10C
100
AcDbEntity
  8
AM_5
  6
ByBlock
100
AcDbLine
 10
-4962.130541293819
 20
3700.121617041296
 30
0.0
 11
-4955.130541293819
 21
3700.121617041296
 31
0.0
  0
LINE
  5
112
330
10C
100
AcDbEntity
  8
AM_5
  6
ByBlock
100
AcDbLine
 10
-4983.130541293819
 20
3700.121617041296
 30
0.0
 11
-4969.130541293819
 21
3700.121617041296
 31
0.0
  0
SOLID
  5
113
330
10C
100
AcDbEntity
  8
AM_5
100
AcDbTrace
 10
-4990.130541293819
 20
3701.288283707962
 30
0.0
 11
-4990.130541293819
 21
3698.954950374628
 31
0.0
 12
-4983.130541293819
 22
3700.121617041296
 32
0.0
 13
-4983.130541293819
 23
3700.121617041296
 33
0.0
  0
SOLID
  5
114
330
10C
100
AcDbEntity
  8
AM_5
100
AcDbTrace
 10
-4962.130541293819
 20
3701.288283707962
 30
0.0
 11
-4962.130541293819
 21
3698.954950374628
 31
0.0
 12
-4969.130541293819
 22
3700.121617041296
 32
0.0
 13
-4969.130541293819
 23
3700.121617041296
 33
0.0
  0
MTEXT
  5
115
330
10C
100
AcDbEntity
  8
AM_5
 62
     2
100
AcDbMText
 10
-4976.130541293819
 20
3706.891398760259
 30
0.0
 40
7.0
 41
0.0
 71
     5
 72
     1
  1
%%C14
 73
     1
 44
1.0
1001
ACAD
1000
MTEXTBEGIN
1070
    73
1070
     1
1070
    44
1040
1.0
1070
    74
1070
     0
1000
MTEXTEND
  0
POINT
  5
116
330
10C
100
AcDbEntity
  8
DEFPOINTS
 62
     0
100
AcDbPoint
 10
-4983.130541293819
 20
3683.743333206652
 30
0.0
  0
POINT
  5
117
330
10C
100
AcDbEntity
  8
DEFPOINTS
 62
     0
100
AcDbPoint
 10
-4969.130541293819
 20
3683.743333206652
 30
0.0
  0
POINT
  5
118
330
10C
100
AcDbEntity
  8
DEFPOINTS
 62
     0
100
AcDbPoint
 10
-4969.130541293819
 20
3700.121617041296
 30
0.0
  0
ENDBLK
  5
119
330
10C
100
AcDbEntity
  8
0
100
AcDbBlockEnd
  0
BLOCK
  5
11C
330
11B
100
AcDbEntity
  8
0
100
AcDbBlockBegin
  2
*D15
 70
     1
 10
0.0
 20
0.0
 30
0.0
  3
*D15
  1

  0
LINE
  5
11D
330
11B
100
AcDbEntity
  8
AM_5
  6
ByBlock
100
AcDbLine
 10
-4988.129729578201
 20
3691.266983126589
 30
0.0
 11
-4988.129729578201
 21
3719.121617041295
 31
0.0
  0
LINE
  5
11E
330
11B
100
AcDbEntity
  8
AM_5
  6
ByBlock
100
AcDbLine
 10
-4964.1297295782
 20
3691.266983126589
 30
0.0
 11
-4964.1297295782
 21
3719.121617041295
 31
0.0
  0
LINE
  5
11F
330
11B
100
AcDbEntity
  8
AM_5
  6
ByBlock
100
AcDbLine
 10
-4981.1297295782
 20
3717.121617041295
 30
0.0
 11
-4971.129729578199
 21
3717.121617041295
 31
0.0
  0
SOLID
  5
120
330
11B
100
AcDbEntity
  8
AM_5
100
AcDbTrace
 10
-4981.1297295782
 20
3718.288283707962
 30
0.0
 11
-4981.1297295782
 21
3715.954950374629
 31
0.0
 12
-4988.129729578201
 22
3717.121617041295
 32
0.0
 13
-4988.129729578201
 23
3717.121617041295
 33
0.0
  0
SOLID
  5
121
330
11B
100
AcDbEntity
  8
AM_5
100
AcDbTrace
 10
-4971.129729578199
 20
3718.288283707962
 30
0.0
 11
-4971.129729578199
 21
3715.954950374629
 31
0.0
 12
-4964.1297295782
 22
3717.121617041295
 32
0.0
 13
-4964.1297295782
 23
3717.121617041295
 33
0.0
  0
MTEXT
  5
122
330
11B
100
AcDbEntity
  8
AM_5
 62
     2
100
AcDbMText
 10
-4973.630135436009
 20
3723.891398760258
 30
0.0
 40
7.0
 41
0.0
 71
     5
 72
     1
  1
%%C24
 73
     1
 44
1.0
1001
ACAD
1000
MTEXTBEGIN
1070
    73
1070
     1
1070
    44
1040
1.0
1070
    74
1070
     0
1000
MTEXTEND
  0
POINT
  5
123
330
11B
100
AcDbEntity
  8
DEFPOINTS
 62
     0
100
AcDbPoint
 10
-4988.129729578201
 20
3689.266983126589
 30
0.0
  0
POINT
  5
124
330
11B
100
AcDbEntity
  8
DEFPOINTS
 62
     0
100
AcDbPoint
 10
-4964.1297295782
 20
3689.266983126589
 30
0.0
  0
POINT
  5
125
330
11B
100
AcDbEntity
  8
DEFPOINTS
 62
     0
100
AcDbPoint
 10
-4964.1297295782
 20
3717.121617041295
 30
0.0
  0
ENDBLK
  5
126
330
11B
100
AcDbEntity
  8
0
100
AcDbBlockEnd
  0
BLOCK
  5
129
330
128
100
AcDbEntity
  8
0
100
AcDbBlockBegin
  2
*D16
 70
     1
 10
0.0
 20
0.0
 30
0.0
  3
*D16
  1

  0
LINE
  5
12A
330
128
100
AcDbEntity
  8
AM_5
  6
ByBlock
100
AcDbLine
 10
-4962.715516015827
 20
3690.404193296239
 30
0.0
 11
-4934.593313181034
 21
3718.526396131027
 31
0.0
  0
LINE
  5
12B
330
128
100
AcDbEntity
  8
AM_5
  6
ByBlock
100
AcDbLine
 10
-4989.543943140574
 20
3690.404193296239
 30
0.0
 11
-5017.666145975365
 21
3718.526396131031
 31
0.0
  0
ARC
  5
12C
330
128
100
AcDbEntity
  8
AM_5
  6
ByBlock
100
AcDbCircle
 10
-4976.129729578201
 20
3676.989979733866
 30
0.0
 40
56.74136340124515
100
AcDbArc
 50
52.07288658398507
 51
127.9271134160105
  0
SOLID
  5
12D
330
128
100
AcDbEntity
  8
AM_5
100
AcDbTrace
 10
-4940.48066517681
 20
3722.62146053103
 30
0.0
 11
-4942.025666762803
 21
3720.87291412223
 31
0.0
 12
-4936.007526743408
 22
3717.112182568654
 32
0.0
 13
-4936.007526743408
 23
3717.112182568654
 33
0.0
  0
SOLID
  5
12E
330
128
100
AcDbEntity
  8
AM_5
100
AcDbTrace
 10
-5010.233792393597
 20
3720.872914122233
 30
0.0
 11
-5011.778793979588
 21
3722.621460531033
 31
0.0
 12
-5016.251932412991
 22
3717.112182568657
 32
0.0
 13
-5016.251932412991
 23
3717.112182568657
 33
0.0
  0
MTEXT
  5
12F
330
128
100
AcDbEntity
  8
AM_5
 62
     2
100
AcDbMText
 10
-4976.1297295782
 20
3740.305354049163
 30
0.0
 40
7.0
 41
0.0
 71
     5
 72
     1
  1
90\U+00B0
 73
     1
 44
1.0
1001
ACAD
1000
MTEXTBEGIN
1070
    73
1070
     1
1070
    44
1040
1.0
1070
    74
1070
     0
1000
MTEXTEND
  0
POINT
  5
130
330
128
100
AcDbEntity
  8
DEFPOINTS
 62
     0
100
AcDbPoint
 10
-4961.443984084874
 20
3731.797928061982
 30
0.0
  0
POINT
  5
131
330
128
100
AcDbEntity
  8
DEFPOINTS
 62
     0
100
AcDbPoint
 10
-4969.129729578201
 20
3683.989979733865
 30
0.0
  0
POINT
  5
132
330
128
100
AcDbEntity
  8
DEFPOINTS
 62
     0
100
AcDbPoint
 10
-4988.129729578201
 20
3688.989979733866
 30
0.0
  0
POINT
  5
133
330
128
100
AcDbEntity
  8
DEFPOINTS
 62
     0
100
AcDbPoint
 10
-4983.129729578201
 20
3683.989979733865
 30
0.0
  0
POINT
  5
134
330
128
100
AcDbEntity
  8
DEFPOINTS
 62
     0
100
AcDbPoint
 10
-4964.129729578201
 20
3688.989979733866
 30
0.0
  0
ENDBLK
  5
135
330
128
100
AcDbEntity
  8
0
100
AcDbBlockEnd
  0
BLOCK
  5
13F
330
13E
100
AcDbEntity
  8
0
100
AcDbBlockBegin
  2
*D17
 70
     1
 10
0.0
 20
0.0
 30
0.0
  3
*D17
  1

  0
LINE
  5
140
330
13E
100
AcDbEntity
  8
AM_5
  6
ByBlock
100
AcDbLine
 10
-4098.74994149945
 20
3667.989979733866
 30
0.0
 11
-4098.74994149945
 21
3534.101477522803
 31
0.0
  0
LINE
  5
141
330
13E
100
AcDbEntity
  8
AM_5
  6
ByBlock
100
AcDbLine
 10
-3973.74994149945
 20
3681.989979733866
 30
0.0
 11
-3973.74994149945
 21
3534.101477522803
 31
0.0
  0
LINE
  5
142
330
13E
100
AcDbEntity
  8
AM_5
  6
ByBlock
100
AcDbLine
 10
-4063.74994149945
 20
3544.101477522803
 30
0.0
 11
-4008.74994149945
 21
3544.101477522803
 31
0.0
  0
SOLID
  5
143
330
13E
100
AcDbEntity
  8
AM_5
100
AcDbTrace
 10
-4063.74994149945
 20
3549.934810856137
 30
0.0
 11
-4063.74994149945
 21
3538.26814418947
 31
0.0
 12
-4098.74994149945
 22
3544.101477522803
 32
0.0
 13
-4098.74994149945
 23
3544.101477522803
 33
0.0
  0
SOLID
  5
144
330
13E
100
AcDbEntity
  8
AM_5
100
AcDbTrace
 10
-4008.74994149945
 20
3549.934810856137
 30
0.0
 11
-4008.74994149945
 21
3538.26814418947
 31
0.0
 12
-3973.74994149945
 22
3544.101477522803
 32
0.0
 13
-3973.74994149945
 23
3544.101477522803
 33
0.0
  0
MTEXT
  5
145
330
13E
100
AcDbEntity
  8
AM_5
 62
     2
100
AcDbMText
 10
-4036.24994149945
 20
3576.971532093062
 30
0.0
 40
35.0
 41
0.0
 71
     5
 72
     1
  1
125
 73
     1
 44
1.0
1001
ACAD
1000
MTEXTBEGIN
1070
    73
1070
     1
1070
    44
1040
1.0
1070
    74
1070
     0
1000
MTEXTEND
  0
POINT
  5
146
330
13E
100
AcDbEntity
  8
DEFPOINTS
 62
     0
100
AcDbPoint
 10
-4098.74994149945
 20
3677.989979733866
 30
0.0
  0
POINT
  5
147
330
13E
100
AcDbEntity
  8
DEFPOINTS
 62
     0
100
AcDbPoint
 10
-3973.74994149945
 20
3691.989979733866
 30
0.0
  0
POINT
  5
148
330
13E
100
AcDbEntity
  8
DEFPOINTS
 62
     0
100
AcDbPoint
 10
-3973.74994149945
 20
3544.101477522803
 30
0.0
  0
ENDBLK
  5
149
330
13E
100
AcDbEntity
  8
0
100
AcDbBlockEnd
  0
BLOCK
  5
14C
330
14B
100
AcDbEntity
  8
0
100
AcDbBlockBegin
  2
*D18
 70
     1
 10
0.0
 20
0.0
 30
0.0
  3
*D18
  1

  0
LINE
  5
14D
330
14B
100
AcDbEntity
  8
AM_5
  6
ByBlock
100
AcDbLine
 10
-4098.74994149945
 20
3667.989979733866
 30
0.0
 11
-4098.74994149945
 21
3425.323391931407
 31
0.0
  0
LINE
  5
14E
330
14B
100
AcDbEntity
  8
AM_5
  6
ByBlock
100
AcDbLine
 10
-1098.750319257229
 20
3667.989979733866
 30
0.0
 11
-1098.750319257229
 21
3425.323391931407
 31
0.0
  0
LINE
  5
14F
330
14B
100
AcDbEntity
  8
AM_5
  6
ByBlock
100
AcDbLine
 10
-4063.74994149945
 20
3435.323391931407
 30
0.0
 11
-1133.750319257229
 21
3435.323391931407
 31
0.0
  0
SOLID
  5
150
330
14B
100
AcDbEntity
  8
AM_5
100
AcDbTrace
 10
-4063.74994149945
 20
3441.15672526474
 30
0.0
 11
-4063.74994149945
 21
3429.490058598073
 31
0.0
 12
-4098.74994149945
 22
3435.323391931407
 32
0.0
 13
-4098.74994149945
 23
3435.323391931407
 33
0.0
  0
SOLID
  5
151
330
14B
100
AcDbEntity
  8
AM_5
100
AcDbTrace
 10
-1133.750319257229
 20
3441.15672526474
 30
0.0
 11
-1133.750319257229
 21
3429.490058598073
 31
0.0
 12
-1098.750319257229
 22
3435.323391931407
 32
0.0
 13
-1098.750319257229
 23
3435.323391931407
 33
0.0
  0
MTEXT
  5
152
330
14B
100
AcDbEntity
  8
AM_5
 62
     2
100
AcDbMText
 10
-2598.75013037834
 20
3480.159379880474
 30
0.0
 40
35.0
 41
0.0
 71
     5
 72
     1
  1
3000{}{\H0.71x;\C3;\S+3^  0;}
 73
     1
 44
1.0
1001
ACAD
1000
MTEXTBEGIN
1070
    73
1070
     1
1070
    44
1040
1.0
1070
    74
1070
     0
1000
MTEXTEND
  0
POINT
  5
153
330
14B
100
AcDbEntity
  8
DEFPOINTS
 62
     0
100
AcDbPoint
 10
-4098.74994149945
 20
3677.989979733866
 30
0.0
  0
POINT
  5
154
330
14B
100
AcDbEntity
  8
DEFPOINTS
 62
     0
100
AcDbPoint
 10
-1098.750319257229
 20
3677.989979733866
 30
0.0
  0
POINT
  5
155
330
14B
100
AcDbEntity
  8
DEFPOINTS
 62
     0
100
AcDbPoint
 10
-1098.750319257229
 20
3435.323391931407
 30
0.0
  0
ENDBLK
  5
156
330
14B
100
AcDbEntity
  8
0
100
AcDbBlockEnd
  0
BLOCK
  5
17A
330
179
100
AcDbEntity
  8
0
100
AcDbBlockBegin
  2
*D19
 70
     1
 10
0.0
 20
0.0
 30
0.0
  3
*D19
  1

  0
LINE
  5
17B
330
179
100
AcDbEntity
  8
AM_5
  6
ByBlock
100
AcDbLine
 10
-3973.74994149945
 20
3681.989979733866
 30
0.0
 11
-3973.74994149945
 21
3534.101477522803
 31
0.0
  0
LINE
  5
17C
330
179
100
AcDbEntity
  8
AM_5
  6
ByBlock
100
AcDbLine
 10
-3723.749941499451
 20
3681.989979733866
 30
0.0
 11
-3723.749941499451
 21
3534.101477522803
 31
0.0
  0
LINE
  5
17D
330
179
100
AcDbEntity
  8
AM_5
  6
ByBlock
100
AcDbLine
 10
-3938.74994149945
 20
3544.101477522803
 30
0.0
 11
-3758.749941499451
 21
3544.101477522803
 31
0.0
  0
SOLID
  5
17E
330
179
100
AcDbEntity
  8
AM_5
100
AcDbTrace
 10
-3938.74994149945
 20
3549.934810856137
 30
0.0
 11
-3938.74994149945
 21
3538.26814418947
 31
0.0
 12
-3973.74994149945
 22
3544.101477522803
 32
0.0
 13
-3973.74994149945
 23
3544.101477522803
 33
0.0
  0
SOLID
  5
17F
330
179
100
AcDbEntity
  8
AM_5
100
AcDbTrace
 10
-3758.749941499451
 20
3549.934810856137
 30
0.0
 11
-3758.749941499451
 21
3538.26814418947
 31
0.0
 12
-3723.749941499451
 22
3544.101477522803
 32
0.0
 13
-3723.749941499451
 23
3544.101477522803
 33
0.0
  0
MTEXT
  5
180
330
179
100
AcDbEntity
  8
AM_5
 62
     2
100
AcDbMText
 10
-3848.74994149945
 20
3576.971532093062
 30
0.0
 40
35.0
 41
0.0
 71
     5
 72
     1
  1
250
 73
     1
 44
1.0
1001
ACAD
1000
MTEXTBEGIN
1070
    73
1070
     1
1070
    44
1040
1.0
1070
    74
1070
     0
1000
MTEXTEND
  0
POINT
  5
181
330
179
100
AcDbEntity
  8
DEFPOINTS
 62
     0
100
AcDbPoint
 10
-3973.74994149945
 20
3691.989979733866
 30
0.0
  0
POINT
  5
182
330
179
100
AcDbEntity
  8
DEFPOINTS
 62
     0
100
AcDbPoint
 10
-3723.749941499451
 20
3691.989979733866
 30
0.0
  0
POINT
  5
183
330
179
100
AcDbEntity
  8
DEFPOINTS
 62
     0
100
AcDbPoint
 10
-3723.749941499451
 20
3544.101477522803
 30
0.0
  0
ENDBLK
  5
184
330
179
100
AcDbEntity
  8
0
100
AcDbBlockEnd
  0
BLOCK
  5
187
330
186
100
AcDbEntity
  8
0
100
AcDbBlockBegin
  2
*D20
 70
     1
 10
0.0
 20
0.0
 30
0.0
  3
*D20
  1

  0
LINE
  5
188
330
186
100
AcDbEntity
  8
AM_5
  6
ByBlock
100
AcDbLine
 10
-3723.749941499451
 20
3681.989979733866
 30
0.0
 11
-3723.749941499451
 21
3534.101477522803
 31
0.0
  0
LINE
  5
189
330
186
100
AcDbEntity
  8
AM_5
  6
ByBlock
100
AcDbLine
 10
-3473.749941499449
 20
3681.989979733866
 30
0.0
 11
-3473.749941499449
 21
3534.101477522803
 31
0.0
  0
LINE
  5
18A
330
186
100
AcDbEntity
  8
AM_5
  6
ByBlock
100
AcDbLine
 10
-3688.74994149945
 20
3544.101477522803
 30
0.0
 11
-3508.749941499449
 21
3544.101477522803
 31
0.0
  0
SOLID
  5
18B
330
186
100
AcDbEntity
  8
AM_5
100
AcDbTrace
 10
-3688.74994149945
 20
3549.934810856137
 30
0.0
 11
-3688.74994149945
 21
3538.26814418947
 31
0.0
 12
-3723.749941499451
 22
3544.101477522803
 32
0.0
 13
-3723.749941499451
 23
3544.101477522803
 33
0.0
  0
SOLID
  5
18C
330
186
100
AcDbEntity
  8
AM_5
100
AcDbTrace
 10
-3508.749941499449
 20
3549.934810856137
 30
0.0
 11
-3508.749941499449
 21
3538.26814418947
 31
0.0
 12
-3473.749941499449
 22
3544.101477522803
 32
0.0
 13
-3473.749941499449
 23
3544.101477522803
 33
0.0
  0
MTEXT
  5
18D
330
186
100
AcDbEntity
  8
AM_5
 62
     2
100
AcDbMText
 10
-3598.74994149945
 20
3576.971532093062
 30
0.0
 40
35.0
 41
0.0
 71
     5
 72
     1
  1
250
 73
     1
 44
1.0
1001
ACAD
1000
MTEXTBEGIN
1070
    73
1070
     1
1070
    44
1040
1.0
1070
    74
1070
     0
1000
MTEXTEND
  0
POINT
  5
18E
330
186
100
AcDbEntity
  8
DEFPOINTS
 62
     0
100
AcDbPoint
 10
-3723.749941499451
 20
3691.989979733866
 30
0.0
  0
POINT
  5
18F
330
186
100
AcDbEntity
  8
DEFPOINTS
 62
     0
100
AcDbPoint
 10
-3473.749941499449
 20
3691.989979733866
 30
0.0
  0
POINT
  5
190
330
186
100
AcDbEntity
  8
DEFPOINTS
 62
     0
100
AcDbPoint
 10
-3473.749941499449
 20
3544.101477522803
 30
0.0
  0
ENDBLK
  5
191
330
186
100
AcDbEntity
  8
0
100
AcDbBlockEnd
  0
BLOCK
  5
194
330
193
100
AcDbEntity
  8
0
100
AcDbBlockBegin
  2
*D21
 70
     1
 10
0.0
 20
0.0
 30
0.0
  3
*D21
  1

  0
LINE
  5
195
330
193
100
AcDbEntity
  8
AM_5
  6
ByBlock
100
AcDbLine
 10
-3473.749941499451
 20
3681.989979733866
 30
0.0
 11
-3473.749941499451
 21
3534.101477522803
 31
0.0
  0
LINE
  5
196
330
193
100
AcDbEntity
  8
AM_5
  6
ByBlock
100
AcDbLine
 10
-3223.749941499449
 20
3681.989979733866
 30
0.0
 11
-3223.749941499449
 21
3534.101477522803
 31
0.0
  0
LINE
  5
197
330
193
100
AcDbEntity
  8
AM_5
  6
ByBlock
100
AcDbLine
 10
-3438.74994149945
 20
3544.101477522803
 30
0.0
 11
-3258.749941499449
 21
3544.101477522803
 31
0.0
  0
SOLID
  5
198
330
193
100
AcDbEntity
  8
AM_5
100
AcDbTrace
 10
-3438.74994149945
 20
3549.934810856137
 30
0.0
 11
-3438.74994149945
 21
3538.26814418947
 31
0.0
 12
-3473.749941499451
 22
3544.101477522803
 32
0.0
 13
-3473.749941499451
 23
3544.101477522803
 33
0.0
  0
SOLID
  5
199
330
193
100
AcDbEntity
  8
AM_5
100
AcDbTrace
 10
-3258.749941499449
 20
3549.934810856137
 30
0.0
 11
-3258.749941499449
 21
3538.26814418947
 31
0.0
 12
-3223.749941499449
 22
3544.101477522803
 32
0.0
 13
-3223.749941499449
 23
3544.101477522803
 33
0.0
  0
MTEXT
  5
19A
330
193
100
AcDbEntity
  8
AM_5
 62
     2
100
AcDbMText
 10
-3348.74994149945
 20
3576.971532093062
 30
0.0
 40
35.0
 41
0.0
 71
     5
 72
     1
  1
250
 73
     1
 44
1.0
1001
ACAD
1000
MTEXTBEGIN
1070
    73
1070
     1
1070
    44
1040
1.0
1070
    74
1070
     0
1000
MTEXTEND
  0
POINT
  5
19B
330
193
100
AcDbEntity
  8
DEFPOINTS
 62
     0
100
AcDbPoint
 10
-3473.749941499451
 20
3691.989979733866
 30
0.0
  0
POINT
  5
19C
330
193
100
AcDbEntity
  8
DEFPOINTS
 62
     0
100
AcDbPoint
 10
-3223.749941499449
 20
3691.989979733866
 30
0.0
  0
POINT
  5
19D
330
193
100
AcDbEntity
  8
DEFPOINTS
 62
     0
100
AcDbPoint
 10
-3223.749941499449
 20
3544.101477522803
 30
0.0
  0
ENDBLK
  5
19E
330
193
100
AcDbEntity
  8
0
100
AcDbBlockEnd
  0
BLOCK
  5
1A1
330
1A0
100
AcDbEntity
  8
0
100
AcDbBlockBegin
  2
*D22
 70
     1
 10
0.0
 20
0.0
 30
0.0
  3
*D22
  1

  0
LINE
  5
1A2
330
1A0
100
AcDbEntity
  8
AM_5
  6
ByBlock
100
AcDbLine
 10
-3223.749941499451
 20
3681.989979733866
 30
0.0
 11
-3223.749941499451
 21
3534.101477522803
 31
0.0
  0
LINE
  5
1A3
330
1A0
100
AcDbEntity
  8
AM_5
  6
ByBlock
100
AcDbLine
 10
-2973.749941499449
 20
3681.989979733866
 30
0.0
 11
-2973.749941499449
 21
3534.101477522803
 31
0.0
  0
LINE
  5
1A4
330
1A0
100
AcDbEntity
  8
AM_5
  6
ByBlock
100
AcDbLine
 10
-3188.74994149945
 20
3544.101477522803
 30
0.0
 11
-3008.749941499449
 21
3544.101477522803
 31
0.0
  0
SOLID
  5
1A5
330
1A0
100
AcDbEntity
  8
AM_5
100
AcDbTrace
 10
-3188.74994149945
 20
3549.934810856137
 30
0.0
 11
-3188.74994149945
 21
3538.26814418947
 31
0.0
 12
-3223.749941499451
 22
3544.101477522803
 32
0.0
 13
-3223.749941499451
 23
3544.101477522803
 33
0.0
  0
SOLID
  5
1A6
330
1A0
100
AcDbEntity
  8
AM_5
100
AcDbTrace
 10
-3008.749941499449
 20
3549.934810856137
 30
0.0
 11
-3008.749941499449
 21
3538.26814418947
 31
0.0
 12
-2973.749941499449
 22
3544.101477522803
 32
0.0
 13
-2973.749941499449
 23
3544.101477522803
 33
0.0
  0
MTEXT
  5
1A7
330
1A0
100
AcDbEntity
  8
AM_5
 62
     2
100
AcDbMText
 10
-3098.74994149945
 20
3576.971532093062
 30
0.0
 40
35.0
 41
0.0
 71
     5
 72
     1
  1
250
 73
     1
 44
1.0
1001
ACAD
1000
MTEXTBEGIN
1070
    73
1070
     1
1070
    44
1040
1.0
1070
    74
1070
     0
1000
MTEXTEND
  0
POINT
  5
1A8
330
1A0
100
AcDbEntity
  8
DEFPOINTS
 62
     0
100
AcDbPoint
 10
-3223.749941499451
 20
3691.989979733866
 30
0.0
  0
POINT
  5
1A9
330
1A0
100
AcDbEntity
  8
DEFPOINTS
 62
     0
100
AcDbPoint
 10
-2973.749941499449
 20
3691.989979733866
 30
0.0
  0
POINT
  5
1AA
330
1A0
100
AcDbEntity
  8
DEFPOINTS
 62
     0
100
AcDbPoint
 10
-2973.749941499449
 20
3544.101477522803
 30
0.0
  0
ENDBLK
  5
1AB
330
1A0
100
AcDbEntity
  8
0
100
AcDbBlockEnd
  0
BLOCK
  5
1AE
330
1AD
100
AcDbEntity
  8
0
100
AcDbBlockBegin
  2
*D23
 70
     1
 10
0.0
 20
0.0
 30
0.0
  3
*D23
  1

  0
LINE
  5
1AF
330
1AD
100
AcDbEntity
  8
AM_5
  6
ByBlock
100
AcDbLine
 10
-2973.74994149945
 20
3681.989979733866
 30
0.0
 11
-2973.74994149945
 21
3534.101477522803
 31
0.0
  0
LINE
  5
1B0
330
1AD
100
AcDbEntity
  8
AM_5
  6
ByBlock
100
AcDbLine
 10
-2723.749941499449
 20
3681.989979733866
 30
0.0
 11
-2723.749941499449
 21
3534.101477522803
 31
0.0
  0
LINE
  5
1B1
330
1AD
100
AcDbEntity
  8
AM_5
  6
ByBlock
100
AcDbLine
 10
-2938.74994149945
 20
3544.101477522803
 30
0.0
 11
-2758.749941499449
 21
3544.101477522803
 31
0.0
  0
SOLID
  5
1B2
330
1AD
100
AcDbEntity
  8
AM_5
100
AcDbTrace
 10
-2938.74994149945
 20
3549.934810856137
 30
0.0
 11
-2938.74994149945
 21
3538.26814418947
 31
0.0
 12
-2973.74994149945
 22
3544.101477522803
 32
0.0
 13
-2973.74994149945
 23
3544.101477522803
 33
0.0
  0
SOLID
  5
1B3
330
1AD
100
AcDbEntity
  8
AM_5
100
AcDbTrace
 10
-2758.749941499449
 20
3549.934810856137
 30
0.0
 11
-2758.749941499449
 21
3538.26814418947
 31
0.0
 12
-2723.749941499449
 22
3544.101477522803
 32
0.0
 13
-2723.749941499449
 23
3544.101477522803
 33
0.0
  0
MTEXT
  5
1B4
330
1AD
100
AcDbEntity
  8
AM_5
 62
     2
100
AcDbMText
 10
-2848.74994149945
 20
3576.971532093062
 30
0.0
 40
35.0
 41
0.0
 71
     5
 72
     1
  1
250
 73
     1
 44
1.0
1001
ACAD
1000
MTEXTBEGIN
1070
    73
1070
     1
1070
    44
1040
1.0
1070
    74
1070
     0
1000
MTEXTEND
  0
POINT
  5
1B5
330
1AD
100
AcDbEntity
  8
DEFPOINTS
 62
     0
100
AcDbPoint
 10
-2973.74994149945
 20
3691.989979733866
 30
0.0
  0
POINT
  5
1B6
330
1AD
100
AcDbEntity
  8
DEFPOINTS
 62
     0
100
AcDbPoint
 10
-2723.749941499449
 20
3691.989979733866
 30
0.0
  0
POINT
  5
1B7
330
1AD
100
AcDbEntity
  8
DEFPOINTS
 62
     0
100
AcDbPoint
 10
-2723.749941499449
 20
3544.101477522803
 30
0.0
  0
ENDBLK
  5
1B8
330
1AD
100
AcDbEntity
  8
0
100
AcDbBlockEnd
  0
BLOCK
  5
1BB
330
1BA
100
AcDbEntity
  8
0
100
AcDbBlockBegin
  2
*D24
 70
     1
 10
0.0
 20
0.0
 30
0.0
  3
*D24
  1

  0
LINE
  5
1BC
330
1BA
100
AcDbEntity
  8
AM_5
  6
ByBlock
100
AcDbLine
 10
-2723.74994149945
 20
3681.989979733866
 30
0.0
 11
-2723.74994149945
 21
3534.101477522803
 31
0.0
  0
LINE
  5
1BD
330
1BA
100
AcDbEntity
  8
AM_5
  6
ByBlock
100
AcDbLine
 10
-2473.749941499449
 20
3681.989979733866
 30
0.0
 11
-2473.749941499449
 21
3534.101477522803
 31
0.0
  0
LINE
  5
1BE
330
1BA
100
AcDbEntity
  8
AM_5
  6
ByBlock
100
AcDbLine
 10
-2688.74994149945
 20
3544.101477522803
 30
0.0
 11
-2508.749941499449
 21
3544.101477522803
 31
0.0
  0
SOLID
  5
1BF
330
1BA
100
AcDbEntity
  8
AM_5
100
AcDbTrace
 10
-2688.74994149945
 20
3549.934810856137
 30
0.0
 11
-2688.74994149945
 21
3538.26814418947
 31
0.0
 12
-2723.74994149945
 22
3544.101477522803
 32
0.0
 13
-2723.74994149945
 23
3544.101477522803
 33
0.0
  0
SOLID
  5
1C0
330
1BA
100
AcDbEntity
  8
AM_5
100
AcDbTrace
 10
-2508.749941499449
 20
3549.934810856137
 30
0.0
 11
-2508.749941499449
 21
3538.26814418947
 31
0.0
 12
-2473.749941499449
 22
3544.101477522803
 32
0.0
 13
-2473.749941499449
 23
3544.101477522803
 33
0.0
  0
MTEXT
  5
1C1
330
1BA
100
AcDbEntity
  8
AM_5
 62
     2
100
AcDbMText
 10
-2598.74994149945
 20
3576.971532093062
 30
0.0
 40
35.0
 41
0.0
 71
     5
 72
     1
  1
250
 73
     1
 44
1.0
1001
ACAD
1000
MTEXTBEGIN
1070
    73
1070
     1
1070
    44
1040
1.0
1070
    74
1070
     0
1000
MTEXTEND
  0
POINT
  5
1C2
330
1BA
100
AcDbEntity
  8
DEFPOINTS
 62
     0
100
AcDbPoint
 10
-2723.74994149945
 20
3691.989979733866
 30
0.0
  0
POINT
  5
1C3
330
1BA
100
AcDbEntity
  8
DEFPOINTS
 62
     0
100
AcDbPoint
 10
-2473.749941499449
 20
3691.989979733866
 30
0.0
  0
POINT
  5
1C4
330
1BA
100
AcDbEntity
  8
DEFPOINTS
 62
     0
100
AcDbPoint
 10
-2473.749941499449
 20
3544.101477522803
 30
0.0
  0
ENDBLK
  5
1C5
330
1BA
100
AcDbEntity
  8
0
100
AcDbBlockEnd
  0
BLOCK
  5
1C8
330
1C7
100
AcDbEntity
  8
0
100
AcDbBlockBegin
  2
*D25
 70
     1
 10
0.0
 20
0.0
 30
0.0
  3
*D25
  1

  0
LINE
  5
1C9
330
1C7
100
AcDbEntity
  8
AM_5
  6
ByBlock
100
AcDbLine
 10
-2473.74994149945
 20
3681.989979733866
 30
0.0
 11
-2473.74994149945
 21
3534.101477522803
 31
0.0
  0
LINE
  5
1CA
330
1C7
100
AcDbEntity
  8
AM_5
  6
ByBlock
100
AcDbLine
 10
-2223.749941499449
 20
3681.989979733866
 30
0.0
 11
-2223.749941499449
 21
3534.101477522803
 31
0.0
  0
LINE
  5
1CB
330
1C7
100
AcDbEntity
  8
AM_5
  6
ByBlock
100
AcDbLine
 10
-2438.74994149945
 20
3544.101477522803
 30
0.0
 11
-2258.749941499449
 21
3544.101477522803
 31
0.0
  0
SOLID
  5
1CC
330
1C7
100
AcDbEntity
  8
AM_5
100
AcDbTrace
 10
-2438.74994149945
 20
3549.934810856137
 30
0.0
 11
-2438.74994149945
 21
3538.26814418947
 31
0.0
 12
-2473.74994149945
 22
3544.101477522803
 32
0.0
 13
-2473.74994149945
 23
3544.101477522803
 33
0.0
  0
SOLID
  5
1CD
330
1C7
100
AcDbEntity
  8
AM_5
100
AcDbTrace
 10
-2258.749941499449
 20
3549.934810856137
 30
0.0
 11
-2258.749941499449
 21
3538.26814418947
 31
0.0
 12
-2223.749941499449
 22
3544.101477522803
 32
0.0
 13
-2223.749941499449
 23
3544.101477522803
 33
0.0
  0
MTEXT
  5
1CE
330
1C7
100
AcDbEntity
  8
AM_5
 62
     2
100
AcDbMText
 10
-2348.74994149945
 20
3576.971532093062
 30
0.0
 40
35.0
 41
0.0
 71
     5
 72
     1
  1
250
 73
     1
 44
1.0
1001
ACAD
1000
MTEXTBEGIN
1070
    73
1070
     1
1070
    44
1040
1.0
1070
    74
1070
     0
1000
MTEXTEND
  0
POINT
  5
1CF
330
1C7
100
AcDbEntity
  8
DEFPOINTS
 62
     0
100
AcDbPoint
 10
-2473.74994149945
 20
3691.989979733866
 30
0.0
  0
POINT
  5
1D0
330
1C7
100
AcDbEntity
  8
DEFPOINTS
 62
     0
100
AcDbPoint
 10
-2223.749941499449
 20
3691.989979733866
 30
0.0
  0
POINT
  5
1D1
330
1C7
100
AcDbEntity
  8
DEFPOINTS
 62
     0
100
AcDbPoint
 10
-2223.749941499449
 20
3544.101477522803
 30
0.0
  0
ENDBLK
  5
1D2
330
1C7
100
AcDbEntity
  8
0
100
AcDbBlockEnd
  0
BLOCK
  5
1D5
330
1D4
100
AcDbEntity
  8
0
100
AcDbBlockBegin
  2
*D26
 70
     1
 10
0.0
 20
0.0
 30
0.0
  3
*D26
  1

  0
LINE
  5
1D6
330
1D4
100
AcDbEntity
  8
AM_5
  6
ByBlock
100
AcDbLine
 10
-2223.74994149945
 20
3681.989979733866
 30
0.0
 11
-2223.74994149945
 21
3534.101477522803
 31
0.0
  0
LINE
  5
1D7
330
1D4
100
AcDbEntity
  8
AM_5
  6
ByBlock
100
AcDbLine
 10
-1973.749941499449
 20
3681.989979733866
 30
0.0
 11
-1973.749941499449
 21
3534.101477522803
 31
0.0
  0
LINE
  5
1D8
330
1D4
100
AcDbEntity
  8
AM_5
  6
ByBlock
100
AcDbLine
 10
-2188.74994149945
 20
3544.101477522803
 30
0.0
 11
-2008.749941499449
 21
3544.101477522803
 31
0.0
  0
SOLID
  5
1D9
330
1D4
100
AcDbEntity
  8
AM_5
100
AcDbTrace
 10
-2188.74994149945
 20
3549.934810856137
 30
0.0
 11
-2188.74994149945
 21
3538.26814418947
 31
0.0
 12
-2223.74994149945
 22
3544.101477522803
 32
0.0
 13
-2223.74994149945
 23
3544.101477522803
 33
0.0
  0
SOLID
  5
1DA
330
1D4
100
AcDbEntity
  8
AM_5
100
AcDbTrace
 10
-2008.749941499449
 20
3549.934810856137
 30
0.0
 11
-2008.749941499449
 21
3538.26814418947
 31
0.0
 12
-1973.749941499449
 22
3544.101477522803
 32
0.0
 13
-1973.749941499449
 23
3544.101477522803
 33
0.0
  0
MTEXT
  5
1DB
330
1D4
100
AcDbEntity
  8
AM_5
 62
     2
100
AcDbMText
 10
-2098.74994149945
 20
3576.971532093062
 30
0.0
 40
35.0
 41
0.0
 71
     5
 72
     1
  1
250
 73
     1
 44
1.0
1001
ACAD
1000
MTEXTBEGIN
1070
    73
1070
     1
1070
    44
1040
1.0
1070
    74
1070
     0
1000
MTEXTEND
  0
POINT
  5
1DC
330
1D4
100
AcDbEntity
  8
DEFPOINTS
 62
     0
100
AcDbPoint
 10
-2223.74994149945
 20
3691.989979733866
 30
0.0
  0
POINT
  5
1DD
330
1D4
100
AcDbEntity
  8
DEFPOINTS
 62
     0
100
AcDbPoint
 10
-1973.749941499449
 20
3691.989979733866
 30
0.0
  0
POINT
  5
1DE
330
1D4
100
AcDbEntity
  8
DEFPOINTS
 62
     0
100
AcDbPoint
 10
-1973.749941499449
 20
3544.101477522803
 30
0.0
  0
ENDBLK
  5
1DF
330
1D4
100
AcDbEntity
  8
0
100
AcDbBlockEnd
  0
BLOCK
  5
1E2
330
1E1
100
AcDbEntity
  8
0
100
AcDbBlockBegin
  2
*D27
 70
     1
 10
0.0
 20
0.0
 30
0.0
  3
*D27
  1

  0
LINE
  5
1E3
330
1E1
100
AcDbEntity
  8
AM_5
  6
ByBlock
100
AcDbLine
 10
-1973.74994149945
 20
3681.989979733866
 30
0.0
 11
-1973.74994149945
 21
3534.101477522803
 31
0.0
  0
LINE
  5
1E4
330
1E1
100
AcDbEntity
  8
AM_5
  6
ByBlock
100
AcDbLine
 10
-1723.749941499449
 20
3681.989979733866
 30
0.0
 11
-1723.749941499449
 21
3534.101477522803
 31
0.0
  0
LINE
  5
1E5
330
1E1
100
AcDbEntity
  8
AM_5
  6
ByBlock
100
AcDbLine
 10
-1938.74994149945
 20
3544.101477522803
 30
0.0
 11
-1758.749941499449
 21
3544.101477522803
 31
0.0
  0
SOLID
  5
1E6
330
1E1
100
AcDbEntity
  8
AM_5
100
AcDbTrace
 10
-1938.74994149945
 20
3549.934810856137
 30
0.0
 11
-1938.74994149945
 21
3538.26814418947
 31
0.0
 12
-1973.74994149945
 22
3544.101477522803
 32
0.0
 13
-1973.74994149945
 23
3544.101477522803
 33
0.0
  0
SOLID
  5
1E7
330
1E1
100
AcDbEntity
  8
AM_5
100
AcDbTrace
 10
-1758.749941499449
 20
3549.934810856137
 30
0.0
 11
-1758.749941499449
 21
3538.26814418947
 31
0.0
 12
-1723.749941499449
 22
3544.101477522803
 32
0.0
 13
-1723.749941499449
 23
3544.101477522803
 33
0.0
  0
MTEXT
  5
1E8
330
1E1
100
AcDbEntity
  8
AM_5
 62
     2
100
AcDbMText
 10
-1848.749941499449
 20
3576.971532093062
 30
0.0
 40
35.0
 41
0.0
 71
     5
 72
     1
  1
250
 73
     1
 44
1.0
1001
ACAD
1000
MTEXTBEGIN
1070
    73
1070
     1
1070
    44
1040
1.0
1070
    74
1070
     0
1000
MTEXTEND
  0
POINT
  5
1E9
330
1E1
100
AcDbEntity
  8
DEFPOINTS
 62
     0
100
AcDbPoint
 10
-1973.74994149945
 20
3691.989979733866
 30
0.0
  0
POINT
  5
1EA
330
1E1
100
AcDbEntity
  8
DEFPOINTS
 62
     0
100
AcDbPoint
 10
-1723.749941499449
 20
3691.989979733866
 30
0.0
  0
POINT
  5
1EB
330
1E1
100
AcDbEntity
  8
DEFPOINTS
 62
     0
100
AcDbPoint
 10
-1723.749941499449
 20
3544.101477522803
 30
0.0
  0
ENDBLK
  5
1EC
330
1E1
100
AcDbEntity
  8
0
100
AcDbBlockEnd
  0
BLOCK
  5
1EF
330
1EE
100
AcDbEntity
  8
0
100
AcDbBlockBegin
  2
*D28
 70
     1
 10
0.0
 20
0.0
 30
0.0
  3
*D28
  1

  0
LINE
  5
1F0
330
1EE
100
AcDbEntity
  8
AM_5
  6
ByBlock
100
AcDbLine
 10
-1723.74994149945
 20
3681.989979733866
 30
0.0
 11
-1723.74994149945
 21
3534.101477522803
 31
0.0
  0
LINE
  5
1F1
330
1EE
100
AcDbEntity
  8
AM_5
  6
ByBlock
100
AcDbLine
 10
-1473.749941499449
 20
3681.989979733866
 30
0.0
 11
-1473.749941499449
 21
3534.101477522803
 31
0.0
  0
LINE
  5
1F2
330
1EE
100
AcDbEntity
  8
AM_5
  6
ByBlock
100
AcDbLine
 10
-1688.74994149945
 20
3544.101477522803
 30
0.0
 11
-1508.749941499449
 21
3544.101477522803
 31
0.0
  0
SOLID
  5
1F3
330
1EE
100
AcDbEntity
  8
AM_5
100
AcDbTrace
 10
-1688.74994149945
 20
3549.934810856137
 30
0.0
 11
-1688.74994149945
 21
3538.26814418947
 31
0.0
 12
-1723.74994149945
 22
3544.101477522803
 32
0.0
 13
-1723.74994149945
 23
3544.101477522803
 33
0.0
  0
SOLID
  5
1F4
330
1EE
100
AcDbEntity
  8
AM_5
100
AcDbTrace
 10
-1508.749941499449
 20
3549.934810856137
 30
0.0
 11
-1508.749941499449
 21
3538.26814418947
 31
0.0
 12
-1473.749941499449
 22
3544.101477522803
 32
0.0
 13
-1473.749941499449
 23
3544.101477522803
 33
0.0
  0
MTEXT
  5
1F5
330
1EE
100
AcDbEntity
  8
AM_5
 62
     2
100
AcDbMText
 10
-1598.749941499449
 20
3576.971532093062
 30
0.0
 40
35.0
 41
0.0
 71
     5
 72
     1
  1
250
 73
     1
 44
1.0
1001
ACAD
1000
MTEXTBEGIN
1070
    73
1070
     1
1070
    44
1040
1.0
1070
    74
1070
     0
1000
MTEXTEND
  0
POINT
  5
1F6
330
1EE
100
AcDbEntity
  8
DEFPOINTS
 62
     0
100
AcDbPoint
 10
-1723.74994149945
 20
3691.989979733866
 30
0.0
  0
POINT
  5
1F7
330
1EE
100
AcDbEntity
  8
DEFPOINTS
 62
     0
100
AcDbPoint
 10
-1473.749941499449
 20
3691.989979733866
 30
0.0
  0
POINT
  5
1F8
330
1EE
100
AcDbEntity
  8
DEFPOINTS
 62
     0
100
AcDbPoint
 10
-1473.749941499449
 20
3544.101477522803
 30
0.0
  0
ENDBLK
  5
1F9
330
1EE
100
AcDbEntity
  8
0
100
AcDbBlockEnd
  0
BLOCK
  5
1FC
330
1FB
100
AcDbEntity
  8
0
100
AcDbBlockBegin
  2
*D29
 70
     1
 10
0.0
 20
0.0
 30
0.0
  3
*D29
  1

  0
LINE
  5
1FD
330
1FB
100
AcDbEntity
  8
AM_5
  6
ByBlock
100
AcDbLine
 10
-1473.74994149945
 20
3681.989979733866
 30
0.0
 11
-1473.74994149945
 21
3534.101477522803
 31
0.0
  0
LINE
  5
1FE
330
1FB
100
AcDbEntity
  8
AM_5
  6
ByBlock
100
AcDbLine
 10
-1223.749941499449
 20
3681.989979733866
 30
0.0
 11
-1223.749941499449
 21
3534.101477522803
 31
0.0
  0
LINE
  5
1FF
330
1FB
100
AcDbEntity
  8
AM_5
  6
ByBlock
100
AcDbLine
 10
-1438.74994149945
 20
3544.101477522803
 30
0.0
 11
-1258.749941499449
 21
3544.101477522803
 31
0.0
  0
SOLID
  5
200
330
1FB
100
AcDbEntity
  8
AM_5
100
AcDbTrace
 10
-1438.74994149945
 20
3549.934810856137
 30
0.0
 11
-1438.74994149945
 21
3538.26814418947
 31
0.0
 12
-1473.74994149945
 22
3544.101477522803
 32
0.0
 13
-1473.74994149945
 23
3544.101477522803
 33
0.0
  0
SOLID
  5
201
330
1FB
100
AcDbEntity
  8
AM_5
100
AcDbTrace
 10
-1258.749941499449
 20
3549.934810856137
 30
0.0
 11
-1258.749941499449
 21
3538.26814418947
 31
0.0
 12
-1223.749941499449
 22
3544.101477522803
 32
0.0
 13
-1223.749941499449
 23
3544.101477522803
 33
0.0
  0
MTEXT
  5
202
330
1FB
100
AcDbEntity
  8
AM_5
 62
     2
100
AcDbMText
 10
-1348.749941499449
 20
3576.971532093062
 30
0.0
 40
35.0
 41
0.0
 71
     5
 72
     1
  1
250
 73
     1
 44
1.0
1001
ACAD
1000
MTEXTBEGIN
1070
    73
1070
     1
1070
    44
1040
1.0
1070
    74
1070
     0
1000
MTEXTEND
  0
POINT
  5
203
330
1FB
100
AcDbEntity
  8
DEFPOINTS
 62
     0
100
AcDbPoint
 10
-1473.74994149945
 20
3691.989979733866
 30
0.0
  0
POINT
  5
204
330
1FB
100
AcDbEntity
  8
DEFPOINTS
 62
     0
100
AcDbPoint
 10
-1223.749941499449
 20
3691.989979733866
 30
0.0
  0
POINT
  5
205
330
1FB
100
AcDbEntity
  8
DEFPOINTS
 62
     0
100
AcDbPoint
 10
-1223.749941499449
 20
3544.101477522803
 30
0.0
  0
ENDBLK
  5
206
330
1FB
100
AcDbEntity
  8
0
100
AcDbBlockEnd
  0
BLOCK
  5
209
330
208
100
AcDbEntity
  8
0
100
AcDbBlockBegin
  2
*D30
 70
     1
 10
0.0
 20
0.0
 30
0.0
  3
*D30
  1

  0
LINE
  5
20A
330
208
100
AcDbEntity
  8
AM_5
  6
ByBlock
100
AcDbLine
 10
-1223.74994149945
 20
3681.989979733866
 30
0.0
 11
-1223.74994149945
 21
3534.101477522803
 31
0.0
  0
LINE
  5
20B
330
208
100
AcDbEntity
  8
AM_5
  6
ByBlock
100
AcDbLine
 10
-1098.750319257229
 20
3667.989979733866
 30
0.0
 11
-1098.750319257229
 21
3534.101477522803
 31
0.0
  0
LINE
  5
20C
330
208
100
AcDbEntity
  8
AM_5
  6
ByBlock
100
AcDbLine
 10
-1188.74994149945
 20
3544.101477522803
 30
0.0
 11
-1133.750319257229
 21
3544.101477522803
 31
0.0
  0
SOLID
  5
20D
330
208
100
AcDbEntity
  8
AM_5
100
AcDbTrace
 10
-1188.74994149945
 20
3549.934810856137
 30
0.0
 11
-1188.74994149945
 21
3538.26814418947
 31
0.0
 12
-1223.74994149945
 22
3544.101477522803
 32
0.0
 13
-1223.74994149945
 23
3544.101477522803
 33
0.0
  0
SOLID
  5
20E
330
208
100
AcDbEntity
  8
AM_5
100
AcDbTrace
 10
-1133.750319257229
 20
3549.934810856137
 30
0.0
 11
-1133.750319257229
 21
3538.26814418947
 31
0.0
 12
-1098.750319257229
 22
3544.101477522803
 32
0.0
 13
-1098.750319257229
 23
3544.101477522803
 33
0.0
  0
MTEXT
  5
20F
330
208
100
AcDbEntity
  8
AM_5
 62
     2
100
AcDbMText
 10
-1161.25013037834
 20
3576.971532093062
 30
0.0
 40
35.0
 41
0.0
 71
     5
 72
     1
  1
125
 73
     1
 44
1.0
1001
ACAD
1000
MTEXTBEGIN
1070
    73
1070
     1
1070
    44
1040
1.0
1070
    74
1070
     0
1000
MTEXTEND
  0
POINT
  5
210
330
208
100
AcDbEntity
  8
DEFPOINTS
 62
     0
100
AcDbPoint
 10
-1223.74994149945
 20
3691.989979733866
 30
0.0
  0
POINT
  5
211
330
208
100
AcDbEntity
  8
DEFPOINTS
 62
     0
100
AcDbPoint
 10
-1098.750319257229
 20
3677.989979733866
 30
0.0
  0
POINT
  5
212
330
208
100
AcDbEntity
  8
DEFPOINTS
 62
     0
100
AcDbPoint
 10
-1098.750319257229
 20
3544.101477522803
 30
0.0
  0
ENDBLK
  5
213
330
208
100
AcDbEntity
  8
0
100
AcDbBlockEnd
  0
BLOCK
  5
15C
330
15B
100
AcDbEntity
  8
0
100
AcDbBlockBegin
  2
*D31
 70
     1
 10
0.0
 20
0.0
 30
0.0
  3
*D31
  1

  0
LINE
  5
15D
330
15B
100
AcDbEntity
  8
AM_5
  6
ByBlock
100
AcDbLine
 10
-4108.74994149945
 20
3677.989979733866
 30
0.0
 11
-4163.007337558577
 21
3677.989979733866
 31
0.0
  0
LINE
  5
15E
330
15B
100
AcDbEntity
  8
AM_5
  6
ByBlock
100
AcDbLine
 10
-4108.74994149945
 20
3733.989979733866
 30
0.0
 11
-4163.007337558577
 21
3733.989979733866
 31
0.0
  0
LINE
  5
15F
330
15B
100
AcDbEntity
  8
AM_5
  6
ByBlock
100
AcDbLine
 10
-4153.007337558578
 20
3642.989979733866
 30
0.0
 11
-4153.007337558578
 21
3607.989979733866
 31
0.0
  0
LINE
  5
160
330
15B
100
AcDbEntity
  8
AM_5
  6
ByBlock
100
AcDbLine
 10
-4153.007337558578
 20
3768.989979733866
 30
0.0
 11
-4153.007337558578
 21
3803.989979733866
 31
0.0
  0
LINE
  5
161
330
15B
100
AcDbEntity
  8
AM_5
  6
ByBlock
100
AcDbLine
 10
-4153.007337558578
 20
3677.989979733866
 30
0.0
 11
-4153.007337558578
 21
3733.989979733866
 31
0.0
  0
SOLID
  5
162
330
15B
100
AcDbEntity
  8
AM_5
100
AcDbTrace
 10
-4158.840670891911
 20
3642.989979733866
 30
0.0
 11
-4147.174004225244
 21
3642.989979733866
 31
0.0
 12
-4153.007337558578
 22
3677.989979733866
 32
0.0
 13
-4153.007337558578
 23
3677.989979733866
 33
0.0
  0
SOLID
  5
163
330
15B
100
AcDbEntity
  8
AM_5
100
AcDbTrace
 10
-4158.840670891911
 20
3768.989979733866
 30
0.0
 11
-4147.174004225244
 21
3768.989979733866
 31
0.0
 12
-4153.007337558578
 22
3733.989979733866
 32
0.0
 13
-4153.007337558578
 23
3733.989979733866
 33
0.0
  0
MTEXT
  5
164
330
15B
100
AcDbEntity
  8
AM_5
 62
     2
100
AcDbMText
 10
-4185.877392128838
 20
3705.989979733865
 30
0.0
 40
35.0
 41
0.0
 71
     5
 72
     1
  1
56
 11
0.0000000000000001
 21
1.0
 31
0.0
 73
     1
 44
1.0
1001
ACAD
1000
MTEXTBEGIN
1070
    73
1070
     1
1070
    44
1040
1.0
1070
    74
1070
     0
1000
MTEXTEND
  0
POINT
  5
165
330
15B
100
AcDbEntity
  8
DEFPOINTS
 62
     0
100
AcDbPoint
 10
-4098.74994149945
 20
3677.989979733866
 30
0.0
  0
POINT
  5
166
330
15B
100
AcDbEntity
  8
DEFPOINTS
 62
     0
100
AcDbPoint
 10
-4098.74994149945
 20
3733.989979733866
 30
0.0
  0
POINT
  5
167
330
15B
100
AcDbEntity
  8
DEFPOINTS
 62
     0
100
AcDbPoint
 10
-4153.007337558578
 20
3733.989979733866
 30
0.0
  0
ENDBLK
  5
168
330
15B
100
AcDbEntity
  8
0
100
AcDbBlockEnd
  0
BLOCK
  5
16B
330
16A
100
AcDbEntity
  8
0
100
AcDbBlockBegin
  2
*D32
 70
     1
 10
0.0
 20
0.0
 30
0.0
  3
*D32
  1

  0
LINE
  5
16C
330
16A
100
AcDbEntity
  8
AM_5
  6
ByBlock
100
AcDbLine
 10
-2980.749941499449
 20
3716.989979733866
 30
0.0
 11
-2980.749941499449
 21
3780.989979734005
 31
0.0
  0
LINE
  5
16D
330
16A
100
AcDbEntity
  8
AM_5
  6
ByBlock
100
AcDbLine
 10
-2966.749941499449
 20
3716.989979733866
 30
0.0
 11
-2966.749941499449
 21
3780.989979734005
 31
0.0
  0
LINE
  5
16E
330
16A
100
AcDbEntity
  8
AM_5
  6
ByBlock
100
AcDbLine
 10
-3015.749941499449
 20
3770.989979734005
 30
0.0
 11
-3050.749941499449
 21
3770.989979734005
 31
0.0
  0
LINE
  5
16F
330
16A
100
AcDbEntity
  8
AM_5
  6
ByBlock
100
AcDbLine
 10
-2931.749941499449
 20
3770.989979734005
 30
0.0
 11
-2778.676953777758
 21
3770.989979734005
 31
0.0
  0
LINE
  5
170
330
16A
100
AcDbEntity
  8
AM_5
  6
ByBlock
100
AcDbLine
 10
-2980.749941499449
 20
3770.989979734005
 30
0.0
 11
-2966.749941499449
 21
3770.989979734005
 31
0.0
  0
SOLID
  5
171
330
16A
100
AcDbEntity
  8
AM_5
100
AcDbTrace
 10
-3015.749941499449
 20
3776.823313067339
 30
0.0
 11
-3015.749941499449
 21
3765.156646400671
 31
0.0
 12
-2980.749941499449
 22
3770.989979734005
 32
0.0
 13
-2980.749941499449
 23
3770.989979734005
 33
0.0
  0
SOLID
  5
172
330
16A
100
AcDbEntity
  8
AM_5
100
AcDbTrace
 10
-2931.749941499449
 20
3776.823313067339
 30
0.0
 11
-2931.749941499449
 21
3765.156646400671
 31
0.0
 12
-2966.749941499449
 22
3770.989979734005
 32
0.0
 13
-2966.749941499449
 23
3770.989979734005
 33
0.0
  0
MTEXT
  5
173
330
16A
100
AcDbEntity
  8
AM_5
 62
     2
100
AcDbMText
 10
-2837.713447638603
 20
3804.838888328821
 30
0.0
 40
35.0
 41
0.0
 71
     5
 72
     1
  1
%%C14
 73
     1
 44
1.0
1001
ACAD
1000
MTEXTBEGIN
1070
    73
1070
     1
1070
    44
1040
1.0
1070
    74
1070
     0
1000
MTEXTEND
  0
POINT
  5
174
330
16A
100
AcDbEntity
  8
DEFPOINTS
 62
     0
100
AcDbPoint
 10
-2980.749941499449
 20
3706.989979733866
 30
0.0
  0
POINT
  5
175
330
16A
100
AcDbEntity
  8
DEFPOINTS
 62
     0
100
AcDbPoint
 10
-2966.749941499449
 20
3706.989979733866
 30
0.0
  0
POINT
  5
176
330
16A
100
AcDbEntity
  8
DEFPOINTS
 62
     0
100
AcDbPoint
 10
-2966.749941499449
 20
3770.989979734005
 30
0.0
  0
ENDBLK
  5
177
330
16A
100
AcDbEntity
  8
0
100
AcDbBlockEnd
  0
ENDSEC
  0
SECTION
  2
ENTITIES
  0
DIMENSION
  5
5A
330
2
100
AcDbEntity
  8
AM_5
100
AcDbDimension
  2
*D2
 10
-523.3642841240793
 20
3699.989979733867
 30
0.0
 11
-523.3642841240798
 21
3843.229406746144
 31
0.0
 70
   128
  1
%%C<>
 71
     5
 42
13.99999999999909
  3
AM_DIN$0
100
AcDbAlignedDimension
 13
-673.1352616610061
 23
3713.989979733866
 33
0.0
 14
-673.1352616610052
 24
3699.989979733867
 34
0.0
 50
270.0
100
AcDbRotatedDimension
1001
ACAD
1000
DSTYLE
1002
{
1070
    40
1040
10.0
1070
   271
1070
     0
1002
}
1001
ACAD_DSTYLE_DIMINSPECT
1070
   396
1000
100%
1070
   395
1000

1070
   394
1070
    33
1070
   393
1070
     0
  0
LWPOLYLINE
  5
70
330
2
100
AcDbEntity
  8
DEFPOINTS
100
AcDbPolyline
 90
        4
 70
     1
 43
0.0
 10
-7041.742961063206
 20
4143.965539815082
 10
-135.6259634422567
 20
4143.965539815082
 10
-135.6259634422567
 20
3143.965539815082
 10
-7041.742961063206
 20
3143.965539815083
1001
GENIUS_GENREC_14
1002
{
1000
PYDIR
1011
-5132.554235996274
1021
3295.46060765602
1031
0.0
1002
}
1002
{
1000
PXDIR
1011
-523.1850255869467
1021
3935.724886940357
1031
0.0
1002
}
1002
{
1000
PORI
1011
-5132.554235996274
1021
3935.724886940357
1031
0.0
1002
}
1002
{
1000
PINS
1011
-5132.554235996274
1021
3935.724886940357
1031
0.0
1002
}
1002
{
1000
PINS2
1011
-523.1850255869467
1021
3295.46060765602
1031
0.0
1002
}
1002
{
1000
C
1070
     1
1002
}
1001
GENIUS_GENODEF_13
1002
{
1000
HIER
1070
     0
1002
}
1002
{
1000
MANEDIT
1070
     0
1002
}
1002
{
1000
NOSEL
1070
     0
1002
}
1002
{
1000
BEHIND
1070
     0
1002
}
1002
{
1000
OTHER
1070
     0
1002
}
1002
{
1000
REACTOR
1002
}
1001
GENIUS_GENOBJ-N-REC_13
1002
{
1000
OWNER
1000
GEN
1002
}
  0
DIMENSION
  5
74
330
2
100
AcDbEntity
  8
AM_5
100
AcDbDimension
  2
*D3
 10
-739.9171104760092
 20
3706.989979733866
 30
0.0
 11
-739.9171104760098
 21
3595.587524072202
 31
0.0
 70
   128
 71
     5
 42
27.0
  3
AM_DIN$0
100
AcDbAlignedDimension
 13
-678.6266115851431
 23
3733.989979733866
 33
0.0
 14
-682.1351855336506
 24
3706.989979733866
 34
0.0
 50
270.0
100
AcDbRotatedDimension
1001
ACAD_DSTYLE_DIMINSPECT
1070
   396
1000
100%
1070
   395
1000

1070
   394
1070
    33
1070
   393
1070
     0
1001
ACAD
1000
DSTYLE
1002
{
1070
    40
1040
10.0
1070
   271
1070
     0
1002
}
  0
MTEXT
  5
83
330
2
100
AcDbEntity
  8
DEFPOINTS
100
AcDbMText
 10
-5003.129729578201
 20
4102.404923385598
 30
0.0
 40
50.0
 41
1523.832139117654
 71
     1
 72
     5
  1
BALARDO core, Top 4
 73
     1
 44
1.0
1001
ACAD
1000
ACAD_MTEXT_COLUMN_INFO_BEGIN
1070
    75
1070
     2
1070
    79
1070
     0
1070
    76
1070
     1
1070
    78
1070
     0
1070
    48
1040
1523.832139117654
1070
    49
1040
12.5
1070
    50
1070
     1
1040
0.0
1000
ACAD_MTEXT_COLUMN_INFO_END
1000
MTEXTBEGIN
1070
    73
1070
     1
1070
    44
1040
1.0
1070
    74
1070
     0
1000
MTEXTEND
  0
LWPOLYLINE
  5
84
330
2
100
AcDbEntity
  8
-GLAS
100
AcDbPolyline
 90
        6
 70
   128
 43
0.0
 10
-4984.889730658808
 20
3843.989979733866
 10
-4984.889730658808
 20
3695.989981895085
 10
-4982.889728497593
 20
3693.989979733871
 10
-4969.369732820022
 20
3693.989979733871
 10
-4967.369730658808
 20
3695.989981895085
 10
-4967.369730658808
 20
3843.989979733866
  0
LWPOLYLINE
  5
87
330
2
100
AcDbEntity
  8
-GLAS
100
AcDbPolyline
 90
        4
 70
     0
 43
0.0
 10
-4976.889730658808
 20
3843.989979733866
 10
-4976.889730658808
 20
3693.989979733871
 10
-4975.369730658807
 20
3693.989979733871
 10
-4975.369730658808
 20
3843.989979733866
  0
INSERT
  5
88
330
2
100
AcDbEntity
  8
0
100
AcDbBlockReference
  2
BA-Z-P9717-16
 10
-4976.1297295782
 20
3693.989979733871
 30
0.0
  0
INSERT
  5
94
330
2
100
AcDbEntity
  8
0
100
AcDbBlockReference
  2
BA-Z30550877-10
 10
-4962.669729578201
 20
3780.518763312613
 30
0.0
  0
INSERT
  5
9B
330
2
100
AcDbEntity
  8
0
100
AcDbBlockReference
  2
BA-Z-P9732-A
 10
-4996.377699525504
 20
3794.489852593136
 30
0.0
  0
INSERT
  5
A1
330
2
100
AcDbEntity
  8
0
100
AcDbBlockReference
  2
BA-Z-P9771-I
 10
-4962.311874550621
 20
3793.64450902856
 30
0.0
 50
345.9075742695802
  0
LINE
  5
AD
330
2
100
AcDbEntity
  8
-ACHSE
  6
AM_DIN_G_W050x2
100
AcDbLine
 10
-4987.889730658808
 20
3843.989979733866
 30
0.0
 11
-4964.369730658808
 21
3843.989979733866
 31
0.0
1001
GENIUS_GENODEF_13
1002
{
1000
HIER
1070
     0
1002
}
1002
{
1000
MANEDIT
1070
     0
1002
}
1002
{
1000
NOSEL
1070
     0
1002
}
1002
{
1000
BEHIND
1070
     0
1002
}
1002
{
1000
OTHER
1070
     0
1002
}
1002
{
1000
REACTOR
1002
}
1001
GENIUS_GENOBJ-N-CEN_13
1002
{
1000
OWNER
1000
GEN
1002
}
1001
GENIUS_GENCEN_19
1002
{
1040
3.0
1002
}
  0
INSERT
  5
B4
330
2
100
AcDbEntity
  8
-PROFILAUSSENKANTET
100
AcDbBlockReference
  2
core Top 4
 10
-4976.129729578201
 20
3688.989979733864
 30
0.0
  0
DIMENSION
  5
CA
330
2
100
AcDbEntity
  8
AM_5
100
AcDbDimension
  2
*D9
 10
-4976.130541293819
 20
3660.989979733867
 30
0.0
 11
-4961.630135436011
 21
3667.563990647919
 31
0.0
  1
<>
 71
     5
 42
29.00081171561851
  3
AM_DIN$0
100
AcDbAlignedDimension
 13
-4947.129729578201
 23
3678.490055861221
 33
0.0
 14
-4976.130541293819
 24
3674.990055861221
 34
0.0
 50
180.0
100
AcDbRotatedDimension
1001
ACAD_DSTYLE_DIMINSPECT
1070
   396
1000
100%
1070
   395
1000

1070
   394
1070
    33
1070
   393
1070
     0
1001
ACAD
1000
DSTYLE
1002
{
1070
    40
1040
2.0
1002
}
  0
DIMENSION
  5
D7
330
2
100
AcDbEntity
  8
AM_5
100
AcDbDimension
  2
*D10
 10
-5003.129729578201
 20
3660.989979733867
 30
0.0
 11
-4989.630135436011
 21
3667.50430442691
 31
0.0
 71
     5
 42
26.99918828438149
  3
AM_DIN$0
100
AcDbAlignedDimension
 13
-4976.130541293819
 23
3674.990055861221
 33
0.0
 14
-5003.129729578201
 24
3678.489979733866
 34
0.0
 50
180.0
100
AcDbRotatedDimension
1001
ACAD_DSTYLE_DIMINSPECT
1070
   396
1000
100%
1070
   395
1000

1070
   394
1070
    33
1070
   393
1070
     0
1001
ACAD
1000
DSTYLE
1002
{
1070
    40
1040
2.0
1002
}
  0
DIMENSION
  5
E4
330
2
100
AcDbEntity
  8
AM_5
100
AcDbDimension
  2
*D11
 10
-5003.129729578201
 20
3643.989979733867
 30
0.0
 11
-4975.129729578202
 21
3650.563990647919
 31
0.0
 71
     5
 42
56.0
  3
AM_DIN$0
100
AcDbAlignedDimension
 13
-4947.129729578201
 23
3678.490055861221
 33
0.0
 14
-5003.129729578201
 24
3678.489979733866
 34
0.0
 50
180.0
100
AcDbRotatedDimension
1001
ACAD_DSTYLE_DIMINSPECT
1070
   396
1000
100%
1070
   395
1000

1070
   394
1070
    33
1070
   393
1070
     0
1001
ACAD
1000
DSTYLE
1002
{
1070
    40
1040
2.0
1002
}
  0
DIMENSION
  5
F1
330
2
100
AcDbEntity
  8
AM_5
100
AcDbDimension
  2
*D12
 10
-5037.129729578203
 20
3793.989979733866
 30
0.0
 11
-5043.703740492254
 21
3735.989979733866
 31
0.0
  1
<>
 71
     5
 42
116.0
  3
AM_DIN$0
100
AcDbAlignedDimension
 13
-5002.629729578202
 23
3677.989979733866
 33
0.0
 14
-5002.629729578202
 24
3793.989979733866
 34
0.0
 50
90.0
100
AcDbRotatedDimension
1001
ACAD_DSTYLE_DIMINSPECT
1070
   396
1000
100%
1070
   395
1000

1070
   394
1070
    33
1070
   393
1070
     0
1001
ACAD
1000
DSTYLE
1002
{
1070
    40
1040
2.0
1002
}
  0
DIMENSION
  5
FE
330
2
100
AcDbEntity
  8
AM_5
100
AcDbDimension
  2
*D13
 10
-5020.129729578203
 20
3793.989979733866
 30
0.0
 11
-5026.749102020222
 21
3743.989979733868
 31
0.0
  1
Glaseinstand ca.<>
 71
     5
 42
99.999999999995
  3
AM_DIN$0
100
AcDbAlignedDimension
 13
-4982.889728497593
 23
3693.989979733871
 33
0.0
 14
-5002.629729578202
 24
3793.989979733866
 34
0.0
 50
90.0
100
AcDbRotatedDimension
1001
ACAD_DSTYLE_DIMINSPECT
1070
   396
1000
100%
1070
   395
1000

1070
   394
1070
    33
1070
   393
1070
     0
1001
ACAD
1000
DSTYLE
1002
{
1070
     3
1000

1070
    40
1040
2.0
1002
}
  0
DIMENSION
  5
10B
330
2
100
AcDbEntity
  8
AM_5
100
AcDbDimension
  2
*D14
 10
-4969.130541293819
 20
3700.121617041296
 30
0.0
 11
-4976.130541293819
 21
3700.121617041296
 31
0.0
 70
   128
  1
%%C<>
 71
     5
 42
14.0
  3
AM_DIN$0
100
AcDbAlignedDimension
 13
-4983.130541293819
 23
3683.743333206652
 33
0.0
 14
-4969.130541293819
 24
3683.743333206652
 34
0.0
100
AcDbRotatedDimension
1001
ACAD_DSTYLE_DIMINSPECT
1070
   396
1000
100%
1070
   395
1000

1070
   394
1070
    33
1070
   393
1070
     0
1001
ACAD
1000
DSTYLE
1002
{
1070
    40
1040
2.0
1002
}
  0
DIMENSION
  5
11A
330
2
100
AcDbEntity
  8
AM_5
100
AcDbDimension
  2
*D15
 10
-4964.1297295782
 20
3717.121617041295
 30
0.0
 11
-4973.630135436009
 21
3717.121617041295
 31
0.0
 70
   128
  1
%%C<>
 71
     5
 42
24.00000000000091
  3
AM_DIN$0
100
AcDbAlignedDimension
 13
-4988.129729578201
 23
3689.266983126589
 33
0.0
 14
-4964.1297295782
 24
3689.266983126589
 34
0.0
100
AcDbRotatedDimension
1001
ACAD_DSTYLE_DIMINSPECT
1070
   396
1000
100%
1070
   395
1000

1070
   394
1070
    33
1070
   393
1070
     0
1001
ACAD
1000
DSTYLE
1002
{
1070
    40
1040
2.0
1002
}
  0
DIMENSION
  5
127
330
2
100
AcDbEntity
  8
AM_5
100
AcDbDimension
  2
*D16
 10
-4964.129729578201
 20
3688.989979733866
 30
0.0
 11
-4976.1297295782
 21
3740.305354049163
 31
0.0
 70
     2
  1
<>
 71
     5
 42
1.57079632679497
  3
AM_DIN$2
100
AcDb2LineAngularDimension
 13
-4988.129729578201
 23
3688.989979733866
 33
0.0
 14
-4983.129729578201
 24
3683.989979733865
 34
0.0
 15
-4969.129729578201
 25
3683.989979733865
 35
0.0
 16
-4961.443984084874
 26
3731.797928061982
 36
0.0
1001
ACAD
1000
DSTYLE
1002
{
1070
    40
1040
2.0
1070
   179
1070
     2
1002
}
1001
ACAD_DSTYLE_DIMINSPECT
1070
   396
1000
100%
1070
   395
1000

1070
   394
1070
    33
1070
   393
1070
     0
  0
POLYLINE
  5
137
102
{ACAD_REACTORS
330
15A
102
}
330
2
100
AcDbEntity
  8
-PROFILAUSSENKANTET
100
AcDb2dPolyline
 66
     1
 10
0.0
 20
0.0
 30
0.0
 70
     1
1001
GENIUS_GENREC_14
1002
{
1000
PYDIR
1011
-4098.74994149945
1021
3700.347455243248
1031
0.0
1002
}
1002
{
1000
PXDIR
1011
-3558.052707750962
1021
3840.34664352763
1031
0.0
1002
}
1002
{
1000
PORI
1011
-4098.74994149945
1021
3840.34664352763
1031
0.0
1002
}
1002
{
1000
PINS
1011
-4098.74994149945
1021
3840.34664352763
1031
0.0
1002
}
1002
{
1000
PINS2
1011
-3558.052707750962
1021
3700.347455243248
1031
0.0
1002
}
1002
{
1000
C
1070
     1
1002
}
1001
GENIUS_GENODEF_13
1002
{
1000
HIER
1070
     0
1002
}
1002
{
1000
MANEDIT
1070
     0
1002
}
1002
{
1000
NOSEL
1070
     0
1002
}
1002
{
1000
BEHIND
1070
     0
1002
}
1002
{
1000
OTHER
1070
     0
1002
}
1002
{
1000
REACTOR
1002
}
1001
GENIUS_GENOBJ-N-REC_13
1002
{
1000
OWNER
1000
GEN
1002
}
  0
VERTEX
  5
138
330
137
100
AcDbEntity
  8
-PROFILAUSSENKANTET
100
AcDbVertex
100
AcDb2dVertex
 10
-4098.74994149945
 20
3733.989979733866
 30
0.0
  0
VERTEX
  5
139
330
137
100
AcDbEntity
  8
-PROFILAUSSENKANTET
100
AcDbVertex
100
AcDb2dVertex
 10
-1098.750319257229
 20
3733.989979733866
 30
0.0
  0
VERTEX
  5
13A
102
{ACAD_REACTORS
330
15A
102
}
330
137
100
AcDbEntity
  8
-PROFILAUSSENKANTET
100
AcDbVertex
100
AcDb2dVertex
 10
-1098.750319257229
 20
3677.989979733866
 30
0.0
  0
VERTEX
  5
13B
330
137
100
AcDbEntity
  8
-PROFILAUSSENKANTET
100
AcDbVertex
100
AcDb2dVertex
 10
-4098.74994149945
 20
3677.989979733866
 30
0.0
  0
SEQEND
  5
13C
330
137
100
AcDbEntity
  8
-PROFILAUSSENKANTET
  0
DIMENSION
  5
13D
330
2
100
AcDbEntity
  8
AM_5
100
AcDbDimension
  2
*D17
 10
-3973.74994149945
 20
3544.101477522803
 30
0.0
 11
-4036.24994149945
 21
3576.971532093062
 31
0.0
  1
<>
 71
     5
 42
125.0
  3
AM_DIN$0
100
AcDbAlignedDimension
 13
-4098.74994149945
 23
3677.989979733866
 33
0.0
 14
-3973.74994149945
 24
3691.989979733866
 34
0.0
100
AcDbRotatedDimension
1001
ACAD_DSTYLE_DIMINSPECT
1070
   396
1000
100%
1070
   395
1000

1070
   394
1070
    33
1070
   393
1070
     0
1001
ACAD
1000
DSTYLE
1002
{
1070
    40
1040
10.0
1002
}
  0
DIMENSION
  5
14A
330
2
100
AcDbEntity
  8
AM_5
100
AcDbDimension
  2
*D18
 10
-1098.750319257229
 20
3435.323391931407
 30
0.0
 11
-2598.75013037834
 21
3480.159379880474
 31
0.0
  1
<>{}{\H0.71x;\C3;\S+3^  0;}
 71
     5
 42
2999.999622242221
  3
AM_DIN$0
100
AcDbAlignedDimension
 13
-4098.74994149945
 23
3677.989979733866
 33
0.0
 14
-1098.750319257229
 24
3677.989979733866
 34
0.0
100
AcDbRotatedDimension
1001
ACAD_DSTYLE_DIMINSPECT
1070
   396
1000
100%
1070
   395
1000

1070
   394
1070
    33
1070
   393
1070
     0
1001
ACAD
1000
DSTYLE
1002
{
1070
    40
1040
10.0
1070
    47
1040
3.0
1070
    48
1040
0.0
1002
}
1001
GENIUS_GENDTOL_13
1000
TolSmNrm
1000

1000
{\H0.71x;$2\S$+$P^ $-$M;}
1040
3000.0
  0
DIMENSION
  5
158
102
{ACAD_XDICTIONARY
360
159
102
}
102
{ACAD_REACTORS
330
15A
102
}
330
2
100
AcDbEntity
  8
AM_5
100
AcDbDimension
  2
*D31
 10
-4153.007337558578
 20
3733.989979733866
 30
0.0
 11
-4153.007337558579
 21
3705.989979733865
 31
0.0
 70
   128
  1
<>
 71
     5
 42
56.0
  3
AM_DIN$0
100
AcDbAlignedDimension
 13
-4098.74994149945
 23
3677.989979733866
 33
0.0
 14
-4098.74994149945
 24
3733.989979733866
 34
0.0
 50
90.0
100
AcDbRotatedDimension
1001
ACAD_DSTYLE_DIMINSPECT
1070
   396
1000
100%
1070
   395
1000

1070
   394
1070
    33
1070
   393
1070
     0
1001
ACAD
1000
DSTYLE
1002
{
1070
    40
1040
10.0
1002
}
  0
DIMENSION
  5
169
330
2
100
AcDbEntity
  8
AM_5
100
AcDbDimension
  2
*D32
 10
-2966.749941499449
 20
3770.989979734005
 30
0.0
 11
-2837.713447638603
 21
3804.838888328821
 31
0.0
  1
%%C<>
 71
     5
 42
14.0
  3
AM_DIN$0
100
AcDbAlignedDimension
 13
-2980.749941499449
 23
3706.989979733866
 33
0.0
 14
-2966.749941499449
 24
3706.989979733866
 34
0.0
100
AcDbRotatedDimension
1001
ACAD_DSTYLE_DIMINSPECT
1070
   396
1000
100%
1070
   395
1000

1070
   394
1070
    33
1070
   393
1070
     0
1001
ACAD
1000
DSTYLE
1002
{
1070
    40
1040
10.0
1002
}
  0
DIMENSION
  5
178
330
2
100
AcDbEntity
  8
AM_5
100
AcDbDimension
  2
*D19
 10
-3723.749941499451
 20
3544.101477522803
 30
0.0
 11
-3848.74994149945
 21
3576.971532093062
 31
0.0
  1
<>
 71
     5
 42
250.0
  3
AM_DIN$0
100
AcDbAlignedDimension
 13
-3973.74994149945
 23
3691.989979733866
 33
0.0
 14
-3723.749941499451
 24
3691.989979733866
 34
0.0
100
AcDbRotatedDimension
1001
ACAD_DSTYLE_DIMINSPECT
1070
   396
1000
100%
1070
   395
1000

1070
   394
1070
    33
1070
   393
1070
     0
1001
ACAD
1000
DSTYLE
1002
{
1070
    40
1040
10.0
1002
}
  0
DIMENSION
  5
185
330
2
100
AcDbEntity
  8
AM_5
100
AcDbDimension
  2
*D20
 10
-3473.749941499449
 20
3544.101477522803
 30
0.0
 11
-3598.74994149945
 21
3576.971532093062
 31
0.0
  1
<>
 71
     5
 42
250.0000000000009
  3
AM_DIN$0
100
AcDbAlignedDimension
 13
-3723.749941499451
 23
3691.989979733866
 33
0.0
 14
-3473.749941499449
 24
3691.989979733866
 34
0.0
100
AcDbRotatedDimension
1001
ACAD_DSTYLE_DIMINSPECT
1070
   396
1000
100%
1070
   395
1000

1070
   394
1070
    33
1070
   393
1070
     0
1001
ACAD
1000
DSTYLE
1002
{
1070
    40
1040
10.0
1002
}
  0
DIMENSION
  5
192
330
2
100
AcDbEntity
  8
AM_5
100
AcDbDimension
  2
*D21
 10
-3223.749941499449
 20
3544.101477522803
 30
0.0
 11
-3348.74994149945
 21
3576.971532093062
 31
0.0
  1
<>
 71
     5
 42
250.0000000000009
  3
AM_DIN$0
100
AcDbAlignedDimension
 13
-3473.749941499451
 23
3691.989979733866
 33
0.0
 14
-3223.749941499449
 24
3691.989979733866
 34
0.0
100
AcDbRotatedDimension
1001
ACAD_DSTYLE_DIMINSPECT
1070
   396
1000
100%
1070
   395
1000

1070
   394
1070
    33
1070
   393
1070
     0
1001
ACAD
1000
DSTYLE
1002
{
1070
    40
1040
10.0
1002
}
  0
DIMENSION
  5
19F
330
2
100
AcDbEntity
  8
AM_5
100
AcDbDimension
  2
*D22
 10
-2973.749941499449
 20
3544.101477522803
 30
0.0
 11
-3098.74994149945
 21
3576.971532093062
 31
0.0
  1
<>
 71
     5
 42
250.0000000000009
  3
AM_DIN$0
100
AcDbAlignedDimension
 13
-3223.749941499451
 23
3691.989979733866
 33
0.0
 14
-2973.749941499449
 24
3691.989979733866
 34
0.0
100
AcDbRotatedDimension
1001
ACAD_DSTYLE_DIMINSPECT
1070
   396
1000
100%
1070
   395
1000

1070
   394
1070
    33
1070
   393
1070
     0
1001
ACAD
1000
DSTYLE
1002
{
1070
    40
1040
10.0
1002
}
  0
DIMENSION
  5
1AC
330
2
100
AcDbEntity
  8
AM_5
100
AcDbDimension
  2
*D23
 10
-2723.749941499449
 20
3544.101477522803
 30
0.0
 11
-2848.74994149945
 21
3576.971532093062
 31
0.0
  1
<>
 71
     5
 42
250.0000000000009
  3
AM_DIN$0
100
AcDbAlignedDimension
 13
-2973.74994149945
 23
3691.989979733866
 33
0.0
 14
-2723.749941499449
 24
3691.989979733866
 34
0.0
100
AcDbRotatedDimension
1001
ACAD_DSTYLE_DIMINSPECT
1070
   396
1000
100%
1070
   395
1000

1070
   394
1070
    33
1070
   393
1070
     0
1001
ACAD
1000
DSTYLE
1002
{
1070
    40
1040
10.0
1002
}
  0
DIMENSION
  5
1B9
330
2
100
AcDbEntity
  8
AM_5
100
AcDbDimension
  2
*D24
 10
-2473.749941499449
 20
3544.101477522803
 30
0.0
 11
-2598.74994149945
 21
3576.971532093062
 31
0.0
  1
<>
 71
     5
 42
250.0000000000009
  3
AM_DIN$0
100
AcDbAlignedDimension
 13
-2723.74994149945
 23
3691.989979733866
 33
0.0
 14
-2473.749941499449
 24
3691.989979733866
 34
0.0
100
AcDbRotatedDimension
1001
ACAD_DSTYLE_DIMINSPECT
1070
   396
1000
100%
1070
   395
1000

1070
   394
1070
    33
1070
   393
1070
     0
1001
ACAD
1000
DSTYLE
1002
{
1070
    40
1040
10.0
1002
}
  0
DIMENSION
  5
1C6
330
2
100
AcDbEntity
  8
AM_5
100
AcDbDimension
  2
*D25
 10
-2223.749941499449
 20
3544.101477522803
 30
0.0
 11
-2348.74994149945
 21
3576.971532093062
 31
0.0
  1
<>
 71
     5
 42
250.0000000000009
  3
AM_DIN$0
100
AcDbAlignedDimension
 13
-2473.74994149945
 23
3691.989979733866
 33
0.0
 14
-2223.749941499449
 24
3691.989979733866
 34
0.0
100
AcDbRotatedDimension
1001
ACAD_DSTYLE_DIMINSPECT
1070
   396
1000
100%
1070
   395
1000

1070
   394
1070
    33
1070
   393
1070
     0
1001
ACAD
1000
DSTYLE
1002
{
1070
    40
1040
10.0
1002
}
  0
DIMENSION
  5
1D3
330
2
100
AcDbEntity
  8
AM_5
100
AcDbDimension
  2
*D26
 10
-1973.749941499449
 20
3544.101477522803
 30
0.0
 11
-2098.74994149945
 21
3576.971532093062
 31
0.0
  1
<>
 71
     5
 42
250.0000000000009
  3
AM_DIN$0
100
AcDbAlignedDimension
 13
-2223.74994149945
 23
3691.989979733866
 33
0.0
 14
-1973.749941499449
 24
3691.989979733866
 34
0.0
100
AcDbRotatedDimension
1001
ACAD_DSTYLE_DIMINSPECT
1070
   396
1000
100%
1070
   395
1000

1070
   394
1070
    33
1070
   393
1070
     0
1001
ACAD
1000
DSTYLE
1002
{
1070
    40
1040
10.0
1002
}
  0
DIMENSION
  5
1E0
330
2
100
AcDbEntity
  8
AM_5
100
AcDbDimension
  2
*D27
 10
-1723.749941499449
 20
3544.101477522803
 30
0.0
 11
-1848.749941499449
 21
3576.971532093062
 31
0.0
  1
<>
 71
     5
 42
250.0000000000009
  3
AM_DIN$0
100
AcDbAlignedDimension
 13
-1973.74994149945
 23
3691.989979733866
 33
0.0
 14
-1723.749941499449
 24
3691.989979733866
 34
0.0
100
AcDbRotatedDimension
1001
ACAD_DSTYLE_DIMINSPECT
1070
   396
1000
100%
1070
   395
1000

1070
   394
1070
    33
1070
   393
1070
     0
1001
ACAD
1000
DSTYLE
1002
{
1070
    40
1040
10.0
1002
}
  0
DIMENSION
  5
1ED
330
2
100
AcDbEntity
  8
AM_5
100
AcDbDimension
  2
*D28
 10
-1473.749941499449
 20
3544.101477522803
 30
0.0
 11
-1598.749941499449
 21
3576.971532093062
 31
0.0
  1
<>
 71
     5
 42
250.0000000000009
  3
AM_DIN$0
100
AcDbAlignedDimension
 13
-1723.74994149945
 23
3691.989979733866
 33
0.0
 14
-1473.749941499449
 24
3691.989979733866
 34
0.0
100
AcDbRotatedDimension
1001
ACAD_DSTYLE_DIMINSPECT
1070
   396
1000
100%
1070
   395
1000

1070
   394
1070
    33
1070
   393
1070
     0
1001
ACAD
1000
DSTYLE
1002
{
1070
    40
1040
10.0
1002
}
  0
DIMENSION
  5
1FA
330
2
100
AcDbEntity
  8
AM_5
100
AcDbDimension
  2
*D29
 10
-1223.749941499449
 20
3544.101477522803
 30
0.0
 11
-1348.749941499449
 21
3576.971532093062
 31
0.0
  1
<>
 71
     5
 42
250.0000000000009
  3
AM_DIN$0
100
AcDbAlignedDimension
 13
-1473.74994149945
 23
3691.989979733866
 33
0.0
 14
-1223.749941499449
 24
3691.989979733866
 34
0.0
100
AcDbRotatedDimension
1001
ACAD_DSTYLE_DIMINSPECT
1070
   396
1000
100%
1070
   395
1000

1070
   394
1070
    33
1070
   393
1070
     0
1001
ACAD
1000
DSTYLE
1002
{
1070
    40
1040
10.0
1002
}
  0
DIMENSION
  5
207
330
2
100
AcDbEntity
  8
AM_5
100
AcDbDimension
  2
*D30
 10
-1098.750319257229
 20
3544.101477522803
 30
0.0
 11
-1161.25013037834
 21
3576.971532093062
 31
0.0
  1
<>
 71
     5
 42
124.9996222422205
  3
AM_DIN$0
100
AcDbAlignedDimension
 13
-1223.74994149945
 23
3691.989979733866
 33
0.0
 14
-1098.750319257229
 24
3677.989979733866
 34
0.0
100
AcDbRotatedDimension
1001
ACAD_DSTYLE_DIMINSPECT
1070
   396
1000
100%
1070
   395
1000

1070
   394
1070
    33
1070
   393
1070
     0
1001
ACAD
1000
DSTYLE
1002
{
1070
    40
1040
10.0
1002
}
  0
LWPOLYLINE
  5
214
330
2
100
AcDbEntity
  8
-PROFILAUSSENKANTET
100
AcDbPolyline
 90
       62
 70
     0
 43
0.0
 10
-563.1352616610051
 20
3678.489979733866
 42
-0.4142135623730951
 10
-563.6352616610052
 20
3677.989979733866
 10
-678.6352616610056
 20
3677.989979733866
 42
-0.4142135623730951
 10
-679.1352616610056
 20
3678.489979733866
 10
-679.1352616610056
 20
3682.228496096286
 42
-0.1285802789263
 10
-679.0072658236162
 20
3682.71799455429
 10
-676.8665673444929
 20
3686.531485596324
 42
0.6022685683129414
 10
-677.1060500515223
 20
3686.902935576949
 10
-678.8637799946286
 20
3686.751339018824
 42
-0.4396424401505486
 10
-679.1352616610056
 20
3687.000414384948
 10
-679.1352616610056
 20
3733.489979733866
 42
-0.4142135623730951
 10
-678.6352616610056
 20
3733.989979733866
 10
-563.6352616610056
 20
3733.989979733866
 42
-0.4142135623730951
 10
-563.1352616610056
 20
3733.489979733866
 10
-563.1352616610056
 20
3725.989979733866
 42
-0.4142135623730951
 10
-563.6352616610056
 20
3725.489979733866
 10
-564.6352616610052
 20
3725.489979733866
 42
-0.4142135623731617
 10
-565.1352616610056
 20
3725.989979733866
 10
-565.1352616610056
 20
3728.032246432453
 42
0.4142135623731284
 10
-565.6352616610056
 20
3728.532246432453
 10
-568.6352616610052
 20
3728.532246432453
 42
0.4142135623730563
 10
-569.1352616610052
 20
3728.032246432453
 10
-569.1352616610056
 20
3725.013650151343
 42
-0.4042531287901137
 10
-569.6182017728246
 20
3724.513941275882
 10
-584.7247831708232
 20
3723.998207811663
 42
-0.4145461662996631
 10
-585.2415709829428
 20
3724.481424202905
 10
-585.2462677156877
 20
3724.623736814676
 42
0.4317875397379496
 10
-590.1600014706673
 20
3728.956017812518
 10
-640.0614424729319
 20
3724.315544813708
 42
-0.006572318793332
 10
-640.1924671681854
 20
3724.305095584717
 10
-661.599979977419
 20
3722.880744223501
 42
0.3948857526365925
 10
-668.1352616610074
 20
3715.896187194857
 10
-668.1352616610074
 20
3698.083772272875
 42
0.3948857526365925
 10
-661.599979977419
 20
3691.099215244231
 10
-640.9740060202416
 20
3689.726863661686
 42
-0.1387738043864482
 10
-639.4349286748002
 20
3689.178581988767
 10
-633.1754602170749
 20
3684.728672584339
 42
0.1556138978555952
 10
-630.8594559691423
 20
3683.989979733866
 10
-590.8701519996907
 20
3683.989979733866
 42
0.3537576972150267
 10
-586.9586316537033
 20
3687.153314578067
 10
-585.7856711617633
 20
3692.637060133218
 42
-0.3465301564240021
 10
-585.309606089459
 20
3693.032311196379
 10
-584.9259962939158
 20
3693.04219240278
 42
-0.3449930520062417
 10
-584.4309330204132
 20
3692.674624747515
 42
0.1698212117366207
 10
-582.9996831325879
 20
3690.601101692226
 42
0.1780170813580985
 10
-579.6763060880403
 20
3689.823036204033
 42
-0.1744282333759582
 10
-579.5442374911735
 20
3689.793084672323
 42
0.1571467223868425
 10
-576.3059627863554
 20
3688.943228867751
 42
-0.1519889713364233
 10
-576.1907117160412
 20
3688.914220141909
 42
0.244100996166916
 10
-571.369580422212
 20
3688.579049685719
 42
-0.1033622923636
 10
-571.2894518702888
 20
3688.59557934049
 10
-569.6339828715731
 20
3688.591345334121
 42
-0.4134646622918058
 10
-569.1352616610052
 20
3688.091346969425
 10
-569.1352616610047
 20
3685.490069811122
 42
0.4142135623733615
 10
-568.6352616610043
 20
3684.990069811121
 10
-565.6352616610047
 20
3684.990069811124
 42
0.4142135623729052
 10
-565.1352616610052
 20
3685.490069811125
 10
-565.1352616610052
 20
3687.189979733866
 42
-0.4142135623731049
 10
-564.6352616610052
 20
3687.689979733866
 10
-563.6352616610052
 20
3687.689979733866
 42
-0.4142135623730951
 10
-563.1352616610051
 20
3687.189979733866
 10
-563.1352616610051
 20
3678.489979733866
  0
LINE
  5
215
330
2
100
AcDbEntity
  8
-ACHSE
  6
AM_DIN_G_W050x2
100
AcDbLine
 10
-682.1351855336506
 20
3706.989979733866
 30
0.0
 11
-666.6286308427861
 21
3706.989979733866
 31
0.0
1001
GENIUS_GENOBJ-N-CEN_13
1002
{
1000
OWNER
1000
GEN
1002
}
1001
GENIUS_GENODEF_13
1002
{
1000
HIER
1070
     0
1002
}
1002
{
1000
MANEDIT
1070
     0
1002
}
1002
{
1000
NOSEL
1070
     0
1002
}
1002
{
1000
BEHIND
1070
     0
1002
}
1002
{
1000
OTHER
1070
     0
1002
}
1002
{
1000
REACTOR
1002
}
1001
GENIUS_GENCEN_19
1002
{
1040
3.0
1002
}
  0
LINE
  5
216
330
2
100
AcDbEntity
  8
-PROFILAUSSENKANTET
  6
VERDECKT
100
AcDbLine
 10
-673.1352616610061
 20
3713.989979733866
 30
0.0
 11
-673.1352616610052
 21
3699.989979733867
 31
0.0
  0
LINE
  5
218
330
2
100
AcDbEntity
  8
-PROFILAUSSENKANTET
  6
VERDECKT
100
AcDbLine
 10
-668.1352616610061
 20
3718.989979733866
 30
0.0
 11
-668.1352616610093
 21
3715.896187194864
 31
0.0
  0
LINE
  5
219
330
2
100
AcDbEntity
  8
-PROFILAUSSENKANTET
  6
VERDECKT
100
AcDbLine
 10
-668.1352616610061
 20
3694.989979733866
 30
0.0
 11
-668.1352616610093
 21
3698.083772272867
 31
0.0
  0
POLYLINE
  5
21A
330
2
100
AcDbEntity
  8
-PROFILAUSSENKANTET
  6
VERDECKT
100
AcDb2dPolyline
 66
     1
 10
0.0
 20
0.0
 30
0.0
  0
VERTEX
  5
21B
330
21A
100
AcDbEntity
  8
-PROFILAUSSENKANTET
  6
VERDECKT
100
AcDbVertex
100
AcDb2dVertex
 10
-667.4144692324748
 20
3718.989979733866
 30
0.0
  0
VERTEX
  5
21C
330
21A
100
AcDbEntity
  8
-PROFILAUSSENKANTET
  6
VERDECKT
100
AcDbVertex
100
AcDb2dVertex
 10
-668.1352616610061
 20
3718.989979733866
 30
0.0
  0
VERTEX
  5
21D
330
21A
100
AcDbEntity
  8
-PROFILAUSSENKANTET
  6
VERDECKT
100
AcDbVertex
100
AcDb2dVertex
 10
-673.1352616610061
 20
3713.989979733866
 30
0.0
  0
VERTEX
  5
21E
330
21A
100
AcDbEntity
  8
-PROFILAUSSENKANTET
  6
VERDECKT
100
AcDbVertex
100
AcDb2dVertex
 10
-679.1352616610056
 20
3713.989979733866
 30
0.0
  0
VERTEX
  5
21F
330
21A
100
AcDbEntity
  8
-PROFILAUSSENKANTET
  6
VERDECKT
100
AcDbVertex
100
AcDb2dVertex
 10
-679.1352616610056
 20
3699.989979733866
 30
0.0
  0
VERTEX
  5
220
330
21A
100
AcDbEntity
  8
-PROFILAUSSENKANTET
  6
VERDECKT
100
AcDbVertex
100
AcDb2dVertex
 10
-673.1352616610061
 20
3699.989979733867
 30
0.0
  0
VERTEX
  5
221
330
21A
100
AcDbEntity
  8
-PROFILAUSSENKANTET
  6
VERDECKT
100
AcDbVertex
100
AcDb2dVertex
 10
-668.1352616610061
 20
3694.989979733866
 30
0.0
  0
VERTEX
  5
222
330
21A
100
AcDbEntity
  8
-PROFILAUSSENKANTET
  6
VERDECKT
100
AcDbVertex
100
AcDb2dVertex
 10
-667.4144692324739
 20
3694.989979733865
 30
0.0
  0
SEQEND
  5
223
330
21A
100
AcDbEntity
  8
-PROFILAUSSENKANTET
  6
VERDECKT
  0
LINE
  5
224
330
2
100
AcDbEntity
  8
-PROFILAUSSENKANTET
100
AcDbLine
 10
-4098.74994149945
 20
3725.489979733866
 30
0.0
 11
-1098.750319257229
 21
3725.489979733866
 31
0.0
  0
LINE
  5
225
330
2
100
AcDbEntity
  8
-PROFILAUSSENKANTET
100
AcDbLine
 10
-4098.74994149945
 20
3693.042358195144
 30
0.0
 11
-1098.750319257229
 21
3693.042358195144
 31
0.0
  0
LINE
  5
226
330
2
100
AcDbEntity
  8
-PROFILAUSSENKANTET
100
AcDbLine
 10
-4098.74994149945
 20
3689.819578684196
 30
0.0
 11
-1098.750319257229
 21
3689.819578684196
 31
0.0
  0
LINE
  5
227
330
2
100
AcDbEntity
  8
-PROFILAUSSENKANTET
100
AcDbLine
 10
-4098.74994149945
 20
3688.937482950641
 30
0.0
 11
-1098.750319257229
 21
3688.937482950641
 31
0.0
  0
LINE
  5
228
330
2
100
AcDbEntity
  8
-PROFILAUSSENKANTET
100
AcDbLine
 10
-4098.74994149945
 20
3688.593462337305
 30
0.0
 11
-1098.750319257229
 21
3688.593462337305
 31
0.0
  0
LINE
  5
229
330
2
100
AcDbEntity
  8
-PROFILAUSSENKANTET
100
AcDbLine
 10
-4098.74994149945
 20
3687.689979733866
 30
0.0
 11
-1098.750319257229
 21
3687.689979733866
 31
0.0
  0
CIRCLE
  5
22A
330
2
100
AcDbEntity
  8
-PROFILAUSSENKANTET
100
AcDbCircle
 10
-3973.74994149945
 20
3706.989979733866
 30
0.0
 40
7.0
  0
CIRCLE
  5
22B
330
2
100
AcDbEntity
  8
-PROFILAUSSENKANTET
100
AcDbCircle
 10
-3973.74994149945
 20
3706.989979733866
 30
0.0
 40
12.0
  0
LINE
  5
22C
330
2
100
AcDbEntity
  8
-ACHSE
100
AcDbLine
 10
-3988.74994149945
 20
3706.989979733866
 30
0.0
 11
-3958.74994149945
 21
3706.989979733866
 31
0.0
1001
GENIUS_GENOREF_13
1005
2C7
  0
LINE
  5
22E
330
2
100
AcDbEntity
  8
-ACHSE
100
AcDbLine
 10
-3973.74994149945
 20
3691.989979733866
 30
0.0
 11
-3973.74994149945
 21
3721.989979733866
 31
0.0
1001
GENIUS_GENOREF_13
1005
2C7
  0
CIRCLE
  5
22F
330
2
100
AcDbEntity
  8
-PROFILAUSSENKANTET
100
AcDbCircle
 10
-3723.749941499451
 20
3706.989979733866
 30
0.0
 40
7.0
  0
CIRCLE
  5
230
330
2
100
AcDbEntity
  8
-PROFILAUSSENKANTET
100
AcDbCircle
 10
-3723.749941499451
 20
3706.989979733866
 30
0.0
 40
12.0
  0
LINE
  5
231
330
2
100
AcDbEntity
  8
-ACHSE
100
AcDbLine
 10
-3738.74994149945
 20
3706.989979733866
 30
0.0
 11
-3708.74994149945
 21
3706.989979733866
 31
0.0
1001
GENIUS_GENOREF_13
1005
2C6
  0
LINE
  5
232
330
2
100
AcDbEntity
  8
-ACHSE
100
AcDbLine
 10
-3723.749941499451
 20
3691.989979733866
 30
0.0
 11
-3723.749941499451
 21
3721.989979733866
 31
0.0
1001
GENIUS_GENOREF_13
1005
2C6
  0
CIRCLE
  5
233
330
2
100
AcDbEntity
  8
-PROFILAUSSENKANTET
100
AcDbCircle
 10
-3473.749941499451
 20
3706.989979733866
 30
0.0
 40
7.0
  0
CIRCLE
  5
234
330
2
100
AcDbEntity
  8
-PROFILAUSSENKANTET
100
AcDbCircle
 10
-3473.749941499451
 20
3706.989979733866
 30
0.0
 40
12.0
  0
LINE
  5
235
330
2
100
AcDbEntity
  8
-ACHSE
100
AcDbLine
 10
-3488.74994149945
 20
3706.989979733866
 30
0.0
 11
-3458.74994149945
 21
3706.989979733866
 31
0.0
1001
GENIUS_GENOREF_13
1005
2C5
  0
LINE
  5
236
330
2
100
AcDbEntity
  8
-ACHSE
100
AcDbLine
 10
-3473.749941499451
 20
3691.989979733866
 30
0.0
 11
-3473.749941499451
 21
3721.989979733866
 31
0.0
1001
GENIUS_GENOREF_13
1005
2C5
  0
CIRCLE
  5
237
330
2
100
AcDbEntity
  8
-PROFILAUSSENKANTET
100
AcDbCircle
 10
-3223.749941499451
 20
3706.989979733866
 30
0.0
 40
7.0
  0
CIRCLE
  5
238
330
2
100
AcDbEntity
  8
-PROFILAUSSENKANTET
100
AcDbCircle
 10
-3223.749941499451
 20
3706.989979733866
 30
0.0
 40
12.0
  0
LINE
  5
239
330
2
100
AcDbEntity
  8
-ACHSE
100
AcDbLine
 10
-3238.74994149945
 20
3706.989979733866
 30
0.0
 11
-3208.74994149945
 21
3706.989979733866
 31
0.0
1001
GENIUS_GENOREF_13
1005
2C4
  0
LINE
  5
23A
330
2
100
AcDbEntity
  8
-ACHSE
100
AcDbLine
 10
-3223.749941499451
 20
3691.989979733866
 30
0.0
 11
-3223.749941499451
 21
3721.989979733866
 31
0.0
1001
GENIUS_GENOREF_13
1005
2C4
  0
CIRCLE
  5
23B
330
2
100
AcDbEntity
  8
-PROFILAUSSENKANTET
100
AcDbCircle
 10
-2973.74994149945
 20
3706.989979733866
 30
0.0
 40
7.0
  0
CIRCLE
  5
23C
330
2
100
AcDbEntity
  8
-PROFILAUSSENKANTET
100
AcDbCircle
 10
-2973.74994149945
 20
3706.989979733866
 30
0.0
 40
12.0
  0
LINE
  5
23D
330
2
100
AcDbEntity
  8
-ACHSE
100
AcDbLine
 10
-2988.74994149945
 20
3706.989979733866
 30
0.0
 11
-2958.74994149945
 21
3706.989979733866
 31
0.0
1001
GENIUS_GENOREF_13
1005
2C3
  0
LINE
  5
23E
330
2
100
AcDbEntity
  8
-ACHSE
100
AcDbLine
 10
-2973.74994149945
 20
3691.989979733866
 30
0.0
 11
-2973.74994149945
 21
3721.989979733866
 31
0.0
1001
GENIUS_GENOREF_13
1005
2C3
  0
CIRCLE
  5
23F
330
2
100
AcDbEntity
  8
-PROFILAUSSENKANTET
100
AcDbCircle
 10
-2723.74994149945
 20
3706.989979733866
 30
0.0
 40
7.0
  0
CIRCLE
  5
240
330
2
100
AcDbEntity
  8
-PROFILAUSSENKANTET
100
AcDbCircle
 10
-2723.74994149945
 20
3706.989979733866
 30
0.0
 40
12.0
  0
LINE
  5
241
330
2
100
AcDbEntity
  8
-ACHSE
100
AcDbLine
 10
-2738.74994149945
 20
3706.989979733866
 30
0.0
 11
-2708.74994149945
 21
3706.989979733866
 31
0.0
1001
GENIUS_GENOREF_13
1005
2C2
  0
LINE
  5
242
330
2
100
AcDbEntity
  8
-ACHSE
100
AcDbLine
 10
-2723.74994149945
 20
3691.989979733866
 30
0.0
 11
-2723.74994149945
 21
3721.989979733866
 31
0.0
1001
GENIUS_GENOREF_13
1005
2C2
  0
CIRCLE
  5
243
330
2
100
AcDbEntity
  8
-PROFILAUSSENKANTET
100
AcDbCircle
 10
-2473.74994149945
 20
3706.989979733866
 30
0.0
 40
7.0
  0
CIRCLE
  5
244
330
2
100
AcDbEntity
  8
-PROFILAUSSENKANTET
100
AcDbCircle
 10
-2473.74994149945
 20
3706.989979733866
 30
0.0
 40
12.0
  0
LINE
  5
245
330
2
100
AcDbEntity
  8
-ACHSE
100
AcDbLine
 10
-2488.74994149945
 20
3706.989979733866
 30
0.0
 11
-2458.74994149945
 21
3706.989979733866
 31
0.0
1001
GENIUS_GENOREF_13
1005
2C1
  0
LINE
  5
246
330
2
100
AcDbEntity
  8
-ACHSE
100
AcDbLine
 10
-2473.74994149945
 20
3691.989979733866
 30
0.0
 11
-2473.74994149945
 21
3721.989979733866
 31
0.0
1001
GENIUS_GENOREF_13
1005
2C1
  0
CIRCLE
  5
247
330
2
100
AcDbEntity
  8
-PROFILAUSSENKANTET
100
AcDbCircle
 10
-2223.74994149945
 20
3706.989979733866
 30
0.0
 40
7.0
  0
CIRCLE
  5
248
330
2
100
AcDbEntity
  8
-PROFILAUSSENKANTET
100
AcDbCircle
 10
-2223.74994149945
 20
3706.989979733866
 30
0.0
 40
12.0
  0
LINE
  5
249
330
2
100
AcDbEntity
  8
-ACHSE
100
AcDbLine
 10
-2238.74994149945
 20
3706.989979733866
 30
0.0
 11
-2208.74994149945
 21
3706.989979733866
 31
0.0
1001
GENIUS_GENOREF_13
1005
2C0
  0
LINE
  5
24A
330
2
100
AcDbEntity
  8
-ACHSE
100
AcDbLine
 10
-2223.74994149945
 20
3691.989979733866
 30
0.0
 11
-2223.74994149945
 21
3721.989979733866
 31
0.0
1001
GENIUS_GENOREF_13
1005
2C0
  0
CIRCLE
  5
24B
330
2
100
AcDbEntity
  8
-PROFILAUSSENKANTET
100
AcDbCircle
 10
-1973.74994149945
 20
3706.989979733866
 30
0.0
 40
7.0
  0
CIRCLE
  5
24C
330
2
100
AcDbEntity
  8
-PROFILAUSSENKANTET
100
AcDbCircle
 10
-1973.74994149945
 20
3706.989979733866
 30
0.0
 40
12.0
  0
LINE
  5
24D
330
2
100
AcDbEntity
  8
-ACHSE
100
AcDbLine
 10
-1988.74994149945
 20
3706.989979733866
 30
0.0
 11
-1958.74994149945
 21
3706.989979733866
 31
0.0
1001
GENIUS_GENOREF_13
1005
2BF
  0
LINE
  5
24E
330
2
100
AcDbEntity
  8
-ACHSE
100
AcDbLine
 10
-1973.74994149945
 20
3691.989979733866
 30
0.0
 11
-1973.74994149945
 21
3721.989979733866
 31
0.0
1001
GENIUS_GENOREF_13
1005
2BF
  0
CIRCLE
  5
24F
330
2
100
AcDbEntity
  8
-PROFILAUSSENKANTET
100
AcDbCircle
 10
-1723.74994149945
 20
3706.989979733866
 30
0.0
 40
7.0
  0
CIRCLE
  5
250
330
2
100
AcDbEntity
  8
-PROFILAUSSENKANTET
100
AcDbCircle
 10
-1723.74994149945
 20
3706.989979733866
 30
0.0
 40
12.0
  0
LINE
  5
251
330
2
100
AcDbEntity
  8
-ACHSE
100
AcDbLine
 10
-1738.74994149945
 20
3706.989979733866
 30
0.0
 11
-1708.74994149945
 21
3706.989979733866
 31
0.0
1001
GENIUS_GENOREF_13
1005
2BE
  0
LINE
  5
252
330
2
100
AcDbEntity
  8
-ACHSE
100
AcDbLine
 10
-1723.74994149945
 20
3691.989979733866
 30
0.0
 11
-1723.74994149945
 21
3721.989979733866
 31
0.0
1001
GENIUS_GENOREF_13
1005
2BE
  0
CIRCLE
  5
253
330
2
100
AcDbEntity
  8
-PROFILAUSSENKANTET
100
AcDbCircle
 10
-1473.74994149945
 20
3706.989979733866
 30
0.0
 40
7.0
  0
CIRCLE
  5
254
330
2
100
AcDbEntity
  8
-PROFILAUSSENKANTET
100
AcDbCircle
 10
-1473.74994149945
 20
3706.989979733866
 30
0.0
 40
12.0
  0
LINE
  5
255
330
2
100
AcDbEntity
  8
-ACHSE
100
AcDbLine
 10
-1488.74994149945
 20
3706.989979733866
 30
0.0
 11
-1458.74994149945
 21
3706.989979733866
 31
0.0
1001
GENIUS_GENOREF_13
1005
2BD
  0
LINE
  5
256
330
2
100
AcDbEntity
  8
-ACHSE
100
AcDbLine
 10
-1473.74994149945
 20
3691.989979733866
 30
0.0
 11
-1473.74994149945
 21
3721.989979733866
 31
0.0
1001
GENIUS_GENOREF_13
1005
2BD
  0
CIRCLE
  5
257
330
2
100
AcDbEntity
  8
-PROFILAUSSENKANTET
100
AcDbCircle
 10
-1223.74994149945
 20
3706.989979733866
 30
0.0
 40
7.0
  0
CIRCLE
  5
258
330
2
100
AcDbEntity
  8
-PROFILAUSSENKANTET
100
AcDbCircle
 10
-1223.74994149945
 20
3706.989979733866
 30
0.0
 40
12.0
  0
LINE
  5
259
330
2
100
AcDbEntity
  8
-ACHSE
100
AcDbLine
 10
-1238.74994149945
 20
3706.989979733866
 30
0.0
 11
-1208.74994149945
 21
3706.989979733866
 31
0.0
1001
GENIUS_GENOREF_13
1005
2B8
  0
LINE
  5
25A
330
2
100
AcDbEntity
  8
-ACHSE
100
AcDbLine
 10
-1223.74994149945
 20
3691.989979733866
 30
0.0
 11
-1223.74994149945
 21
3721.989979733866
 31
0.0
1001
GENIUS_GENOREF_13
1005
2B8
  0
POINT
  5
2B8
330
2
100
AcDbEntity
  8
0
 62
     1
 60
     1
100
AcDbPoint
 10
-9187.5
 20
-1999.0
 30
0.0
1001
GENIUS_GENODEF_13
1002
{
1000
HIER
1070
    10
1002
}
1002
{
1000
MANEDIT
1070
     0
1002
}
1002
{
1000
NOSEL
1070
     0
1002
}
1002
{
1000
BEHIND
1070
     0
1002
}
1002
{
1000
OTHER
1070
     0
1002
}
1002
{
1000
REACTOR
1002
}
1001
GENIUS_GENOLIS_13
1002
{
1000
ENT
1005
25A
1005
259
1002
}
1001
GENIUS_GENOENT_13
1002
{
1000
MYREF
1005
2B8
1002
}
1002
{
1000
GRP
1005
0
1002
}
1001
GENIUS_GENOBJ-N-CRS_13
1002
{
1000
OWNER
1000
GEN
1002
}
1001
GENIUS_GENCRS_20
1002
{
1070
     1
1002
}
  0
POINT
  5
2BD
330
2
100
AcDbEntity
  8
0
 62
     1
 60
     1
100
AcDbPoint
 10
-9437.5
 20
-1999.0
 30
0.0
1001
GENIUS_GENODEF_13
1002
{
1000
HIER
1070
    10
1002
}
1002
{
1000
MANEDIT
1070
     0
1002
}
1002
{
1000
NOSEL
1070
     0
1002
}
1002
{
1000
BEHIND
1070
     0
1002
}
1002
{
1000
OTHER
1070
     0
1002
}
1002
{
1000
REACTOR
1002
}
1001
GENIUS_GENOLIS_13
1002
{
1000
ENT
1005
256
1005
255
1002
}
1001
GENIUS_GENOENT_13
1002
{
1000
MYREF
1005
2BD
1002
}
1002
{
1000
GRP
1005
0
1002
}
1001
GENIUS_GENOBJ-N-CRS_13
1002
{
1000
OWNER
1000
GEN
1002
}
1001
GENIUS_GENCRS_20
1002
{
1070
     1
1002
}
  0
POINT
  5
2BE
330
2
100
AcDbEntity
  8
0
 62
     1
 60
     1
100
AcDbPoint
 10
-9687.5
 20
-1999.0
 30
0.0
1001
GENIUS_GENODEF_13
1002
{
1000
HIER
1070
    10
1002
}
1002
{
1000
MANEDIT
1070
     0
1002
}
1002
{
1000
NOSEL
1070
     0
1002
}
1002
{
1000
BEHIND
1070
     0
1002
}
1002
{
1000
OTHER
1070
     0
1002
}
1002
{
1000
REACTOR
1002
}
1001
GENIUS_GENOLIS_13
1002
{
1000
ENT
1005
252
1005
251
1002
}
1001
GENIUS_GENOENT_13
1002
{
1000
MYREF
1005
2BE
1002
}
1002
{
1000
GRP
1005
0
1002
}
1001
GENIUS_GENOBJ-N-CRS_13
1002
{
1000
OWNER
1000
GEN
1002
}
1001
GENIUS_GENCRS_20
1002
{
1070
     1
1002
}
  0
POINT
  5
2BF
330
2
100
AcDbEntity
  8
0
 62
     1
 60
     1
100
AcDbPoint
 10
-9937.5
 20
-1999.0
 30
0.0
1001
GENIUS_GENODEF_13
1002
{
1000
HIER
1070
    10
1002
}
1002
{
1000
MANEDIT
1070
     0
1002
}
1002
{
1000
NOSEL
1070
     0
1002
}
1002
{
1000
BEHIND
1070
     0
1002
}
1002
{
1000
OTHER
1070
     0
1002
}
1002
{
1000
REACTOR
1002
}
1001
GENIUS_GENOLIS_13
1002
{
1000
ENT
1005
24E
1005
24D
1002
}
1001
GENIUS_GENOENT_13
1002
{
1000
MYREF
1005
2BF
1002
}
1002
{
1000
GRP
1005
0
1002
}
1001
GENIUS_GENOBJ-N-CRS_13
1002
{
1000
OWNER
1000
GEN
1002
}
1001
GENIUS_GENCRS_20
1002
{
1070
     1
1002
}
  0
POINT
  5
2C0
330
2
100
AcDbEntity
  8
0
 62
     1
 60
     1
100
AcDbPoint
 10
-10187.5
 20
-1999.0
 30
0.0
1001
GENIUS_GENODEF_13
1002
{
1000
HIER
1070
    10
1002
}
1002
{
1000
MANEDIT
1070
     0
1002
}
1002
{
1000
NOSEL
1070
     0
1002
}
1002
{
1000
BEHIND
1070
     0
1002
}
1002
{
1000
OTHER
1070
     0
1002
}
1002
{
1000
REACTOR
1002
}
1001
GENIUS_GENOLIS_13
1002
{
1000
ENT
1005
24A
1005
249
1002
}
1001
GENIUS_GENOENT_13
1002
{
1000
MYREF
1005
2C0
1002
}
1002
{
1000
GRP
1005
0
1002
}
1001
GENIUS_GENOBJ-N-CRS_13
1002
{
1000
OWNER
1000
GEN
1002
}
1001
GENIUS_GENCRS_20
1002
{
1070
     1
1002
}
  0
POINT
  5
2C1
330
2
100
AcDbEntity
  8
0
 62
     1
 60
     1
100
AcDbPoint
 10
-10437.5
 20
-1999.0
 30
0.0
1001
GENIUS_GENODEF_13
1002
{
1000
HIER
1070
    10
1002
}
1002
{
1000
MANEDIT
1070
     0
1002
}
1002
{
1000
NOSEL
1070
     0
1002
}
1002
{
1000
BEHIND
1070
     0
1002
}
1002
{
1000
OTHER
1070
     0
1002
}
1002
{
1000
REACTOR
1002
}
1001
GENIUS_GENOLIS_13
1002
{
1000
ENT
1005
246
1005
245
1002
}
1001
GENIUS_GENOENT_13
1002
{
1000
MYREF
1005
2C1
1002
}
1002
{
1000
GRP
1005
0
1002
}
1001
GENIUS_GENOBJ-N-CRS_13
1002
{
1000
OWNER
1000
GEN
1002
}
1001
GENIUS_GENCRS_20
1002
{
1070
     1
1002
}
  0
POINT
  5
2C2
330
2
100
AcDbEntity
  8
0
 62
     1
 60
     1
100
AcDbPoint
 10
-10687.5
 20
-1999.0
 30
0.0
1001
GENIUS_GENODEF_13
1002
{
1000
HIER
1070
    10
1002
}
1002
{
1000
MANEDIT
1070
     0
1002
}
1002
{
1000
NOSEL
1070
     0
1002
}
1002
{
1000
BEHIND
1070
     0
1002
}
1002
{
1000
OTHER
1070
     0
1002
}
1002
{
1000
REACTOR
1002
}
1001
GENIUS_GENOLIS_13
1002
{
1000
ENT
1005
242
1005
241
1002
}
1001
GENIUS_GENOENT_13
1002
{
1000
MYREF
1005
2C2
1002
}
1002
{
1000
GRP
1005
0
1002
}
1001
GENIUS_GENOBJ-N-CRS_13
1002
{
1000
OWNER
1000
GEN
1002
}
1001
GENIUS_GENCRS_20
1002
{
1070
     1
1002
}
  0
POINT
  5
2C3
330
2
100
AcDbEntity
  8
0
 62
     1
 60
     1
100
AcDbPoint
 10
-10937.5
 20
-1999.0
 30
0.0
1001
GENIUS_GENODEF_13
1002
{
1000
HIER
1070
    10
1002
}
1002
{
1000
MANEDIT
1070
     0
1002
}
1002
{
1000
NOSEL
1070
     0
1002
}
1002
{
1000
BEHIND
1070
     0
1002
}
1002
{
1000
OTHER
1070
     0
1002
}
1002
{
1000
REACTOR
1002
}
1001
GENIUS_GENOLIS_13
1002
{
1000
ENT
1005
23E
1005
23D
1002
}
1001
GENIUS_GENOENT_13
1002
{
1000
MYREF
1005
2C3
1002
}
1002
{
1000
GRP
1005
0
1002
}
1001
GENIUS_GENOBJ-N-CRS_13
1002
{
1000
OWNER
1000
GEN
1002
}
1001
GENIUS_GENCRS_20
1002
{
1070
     1
1002
}
  0
POINT
  5
2C4
330
2
100
AcDbEntity
  8
0
 62
     1
 60
     1
100
AcDbPoint
 10
-11187.5
 20
-1999.0
 30
0.0
1001
GENIUS_GENODEF_13
1002
{
1000
HIER
1070
    10
1002
}
1002
{
1000
MANEDIT
1070
     0
1002
}
1002
{
1000
NOSEL
1070
     0
1002
}
1002
{
1000
BEHIND
1070
     0
1002
}
1002
{
1000
OTHER
1070
     0
1002
}
1002
{
1000
REACTOR
1002
}
1001
GENIUS_GENOLIS_13
1002
{
1000
ENT
1005
23A
1005
239
1002
}
1001
GENIUS_GENOENT_13
1002
{
1000
MYREF
1005
2C4
1002
}
1002
{
1000
GRP
1005
0
1002
}
1001
GENIUS_GENOBJ-N-CRS_13
1002
{
1000
OWNER
1000
GEN
1002
}
1001
GENIUS_GENCRS_20
1002
{
1070
     1
1002
}
  0
POINT
  5
2C5
330
2
100
AcDbEntity
  8
0
 62
     1
 60
     1
100
AcDbPoint
 10
-11437.5
 20
-1999.0
 30
0.0
1001
GENIUS_GENODEF_13
1002
{
1000
HIER
1070
    10
1002
}
1002
{
1000
MANEDIT
1070
     0
1002
}
1002
{
1000
NOSEL
1070
     0
1002
}
1002
{
1000
BEHIND
1070
     0
1002
}
1002
{
1000
OTHER
1070
     0
1002
}
1002
{
1000
REACTOR
1002
}
1001
GENIUS_GENOLIS_13
1002
{
1000
ENT
1005
236
1005
235
1002
}
1001
GENIUS_GENOENT_13
1002
{
1000
MYREF
1005
2C5
1002
}
1002
{
1000
GRP
1005
0
1002
}
1001
GENIUS_GENOBJ-N-CRS_13
1002
{
1000
OWNER
1000
GEN
1002
}
1001
GENIUS_GENCRS_20
1002
{
1070
     1
1002
}
  0
POINT
  5
2C6
330
2
100
AcDbEntity
  8
0
 62
     1
 60
     1
100
AcDbPoint
 10
-11687.5
 20
-1999.0
 30
0.0
1001
GENIUS_GENODEF_13
1002
{
1000
HIER
1070
    10
1002
}
1002
{
1000
MANEDIT
1070
     0
1002
}
1002
{
1000
NOSEL
1070
     0
1002
}
1002
{
1000
BEHIND
1070
     0
1002
}
1002
{
1000
OTHER
1070
     0
1002
}
1002
{
1000
REACTOR
1002
}
1001
GENIUS_GENOLIS_13
1002
{
1000
ENT
1005
232
1005
231
1002
}
1001
GENIUS_GENOENT_13
1002
{
1000
MYREF
1005
2C6
1002
}
1002
{
1000
GRP
1005
0
1002
}
1001
GENIUS_GENOBJ-N-CRS_13
1002
{
1000
OWNER
1000
GEN
1002
}
1001
GENIUS_GENCRS_20
1002
{
1070
     1
1002
}
  0
POINT
  5
2C7
330
2
100
AcDbEntity
  8
0
 62
     1
 60
     1
100
AcDbPoint
 10
-11937.5
 20
-1999.0
 30
0.0
1001
GENIUS_GENODEF_13
1002
{
1000
HIER
1070
    10
1002
}
1002
{
1000
MANEDIT
1070
     0
1002
}
1002
{
1000
NOSEL
1070
     0
1002
}
1002
{
1000
BEHIND
1070
     0
1002
}
1002
{
1000
OTHER
1070
     0
1002
}
1002
{
1000
REACTOR
1002
}
1001
GENIUS_GENOLIS_13
1002
{
1000
ENT
1005
22E
1005
22C
1002
}
1001
GENIUS_GENOENT_13
1002
{
1000
MYREF
1005
2C7
1002
}
1002
{
1000
GRP
1005
0
1002
}
1001
GENIUS_GENOBJ-N-CRS_13
1002
{
1000
OWNER
1000
GEN
1002
}
1001
GENIUS_GENCRS_20
1002
{
1070
     1
1002
}
  0
ENDSEC
  0
SECTION
  2
OBJECTS
  0
DICTIONARY
  5
9
330
0
100
AcDbDictionary
281
     1
  3
ACAD_2007HEADERVARS_RT
350
2E0
  3
ACAD_COLOR
350
3F
  3
ACAD_DETAILVIEWSTYLE
350
27C
  3
ACAD_FIELDLIST
350
2C8
  3
ACAD_GROUP
350
36
  3
ACAD_LAYOUT
350
8
  3
ACAD_MATERIAL
350
18
  3
ACAD_MLEADERSTYLE
350
42
  3
ACAD_MLINESTYLE
350
37
  3
ACAD_PLOTSETTINGS
350
38
  3
ACAD_PLOTSTYLENAME
350
16
  3
ACAD_SCALELIST
350
40
  3
ACAD_SECTIONVIEWSTYLE
350
28A
  3
ACAD_TABLESTYLE
350
41
  3
ACAD_VISUALSTYLE
350
2E
  3
ACDB_RECOMPOSE_DATA
350
2DF
  3
AcDbVariableDictionary
350
2CD
  3
AcDsDecomposeData
350
2EA
  3
AcmDictionary
350
270
  3
AcmSystemVariableManager
350
2F7
  3
AMG
350
25F
  0
DICTIONARY
  5
21
330
12
100
AcDbDictionary
280
     1
281
     1
  3
ACAD_LAYERSTATES
360
22
  0
DICTIONARY
  5
14
330
13
100
AcDbDictionary
280
     1
281
     1
  0
DICTIONARY
  5
AF
330
AE
100
AcDbDictionary
280
     1
281
     1
  0
DICTIONARY
  5
69
330
68
100
AcDbDictionary
280
     1
281
     1
  0
DICTIONARY
  5
8F
330
8E
100
AcDbDictionary
280
     1
281
     1
  0
DICTIONARY
  5
86
330
85
100
AcDbDictionary
280
     1
281
     1
  0
DICTIONARY
  5
3
330
2
100
AcDbDictionary
280
     1
281
     1
  3
ACAD_SORTENTS
360
25D
  0
DICTIONARY
  5
D
330
C
100
AcDbDictionary
280
     1
281
     1
  3
ACAD_SORTENTS
360
E
  0
DICTIONARY
  5
A3
330
A2
100
AcDbDictionary
280
     1
281
     1
  3
ACAD_SORTENTS
360
25B
  0
DICTIONARY
  5
8A
330
89
100
AcDbDictionary
280
     1
281
     1
  3
ACAD_SORTENTS
360
25C
  0
DICTIONARY
  5
159
330
158
100
AcDbDictionary
280
     1
281
     1
  3
ACAD_DIMASSOC
360
15A
  0
DICTIONARY
  5
2E0
102
{ACAD_REACTORS
330
9
102
}
330
9
100
AcDbDictionary
281
     1
  3
DIMJOGANG
350
2E1
  3
DIMLTEX1
350
2E3
  3
DIMLTEX2
350
2E4
  3
DIMLTYPE
350
2E2
  0
DICTIONARY
  5
3F
102
{ACAD_REACTORS
330
9
102
}
330
9
100
AcDbDictionary
281
     1
  0
DICTIONARY
  5
27C
102
{ACAD_REACTORS
330
9
102
}
330
9
100
AcDbDictionary
281
     1
  3
Imperial24
350
283
  3
Metric50
350
286
  0
FIELDLIST
  5
2C8
102
{ACAD_REACTORS
330
9
102
}
330
9
100
AcDbIdSet
 90
        6
330
27F
330
280
330
281
330
28D
330
28E
330
28F
100
AcDbFieldList
  0
DICTIONARY
  5
36
102
{ACAD_REACTORS
330
9
102
}
330
9
100
AcDbDictionary
281
     1
  0
DICTIONARY
  5
8
102
{ACAD_REACTORS
330
9
102
}
330
9
100
AcDbDictionary
281
     1
  3
core
350
11
  3
Model
350
7
  0
DICTIONARY
  5
18
102
{ACAD_REACTORS
330
9
102
}
330
9
100
AcDbDictionary
281
     1
  3
ByBlock
350
3C
  3
ByLayer
350
39
  3
Global
350
17
  0
DICTIONARY
  5
42
102
{ACAD_REACTORS
330
9
102
}
330
9
100
AcDbDictionary
281
     1
  0
DICTIONARY
  5
37
102
{ACAD_REACTORS
330
9
102
}
330
9
100
AcDbDictionary
281
     1
  3
Standard
350
44
  0
DICTIONARY
  5
38
102
{ACAD_REACTORS
330
9
102
}
330
9
100
AcDbDictionary
281
     1
  0
ACDBDICTIONARYWDFLT
  5
16
102
{ACAD_REACTORS
330
9
102
}
330
9
100
AcDbDictionary
281
     1
  3
Normal
350
15
100
AcDbDictionaryWithDefault
340
15
  0
DICTIONARY
  5
40
102
{ACAD_REACTORS
330
9
102
}
330
9
100
AcDbDictionary
281
     1
  3
A0
350
49
  3
A1
350
4A
  3
A2
350
4B
  3
A3
350
4C
  3
A4
350
4D
  3
A5
350
4E
  3
A6
350
4F
  3
A7
350
50
  3
A8
350
51
  3
A9
350
52
  3
B0
350
53
  3
B1
350
54
  3
B2
350
55
  3
B3
350
56
  3
B4
350
57
  3
B5
350
58
  3
B6
350
59
  0
DICTIONARY
  5
28A
102
{ACAD_REACTORS
330
9
102
}
330
9
100
AcDbDictionary
281
     1
  3
Imperial24
350
295
  3
Metric50
350
298
  0
DICTIONARY
  5
41
102
{ACAD_REACTORS
330
9
102
}
330
9
100
AcDbDictionary
281
     1
  3
Standard
350
45
  0
DICTIONARY
  5
2E
102
{ACAD_REACTORS
330
9
102
}
330
9
100
AcDbDictionary
281
     1
  3
2dWireframe
350
2D
  3
Realistic
350
47
  3
Wireframe
350
48
  0
XRECORD
  5
2DF
102
{ACAD_REACTORS
330
9
102
}
330
9
100
AcDbXrecord
280
     1
 90
        1
330
45
330
83
  0
DICTIONARY
  5
2CD
102
{ACAD_REACTORS
330
9
102
}
330
9
100
AcDbDictionary
281
     1
  3
CANNOSCALE
350
2D3
  3
CMLEADERSTYLE
350
2CF
  3
CTABLESTYLE
350
2CE
  3
CVIEWDETAILSTYLE
350
2D0
  3
CVIEWSECTIONSTYLE
350
2D1
  3
DIMASSOC
350
2DA
  3
HIDETEXT
350
2D9
  3
INDEXCTL
350
2D8
  3
LAYEREVAL
350
2D5
  3
LAYERNOTIFY
350
2D6
  3
LIGHTINGUNITS
350
2D4
  3
MSLTSCALE
350
2D2
  3
PSOLHEIGHT
350
2DC
  3
PSOLWIDTH
350
2DB
  3
SORTENTS
350
2D7
  3
XCLIPFRAME
350
2DD
  0
DICTIONARY
  5
2EA
102
{ACAD_REACTORS
330
9
102
}
330
9
100
AcDbDictionary
281
     1
  3
AcDsRecords
350
2EC
  3
AcDsSchemas
350
2EB
1001
ACAD
1070
     2
  0
DICTIONARY
  5
270
102
{ACAD_REACTORS
330
9
102
}
330
9
100
AcDbDictionary
281
     1
  3
AcmStdDictionary
350
271
  0
DICTIONARY
  5
25F
102
{ACAD_REACTORS
330
9
102
}
330
9
100
AcDbDictionary
281
     1
  3
AcMgSettings
350
268
  0
DICTIONARY
  5
22
102
{ACAD_REACTORS
330
21
102
}
330
21
100
AcDbDictionary
281
     1
  0
SORTENTSTABLE
  5
25D
102
{ACAD_REACTORS
330
3
102
}
330
3
100
AcDbSortentsTable
330
2
  0
SORTENTSTABLE
  5
E
102
{ACAD_REACTORS
330
D
102
}
330
D
100
AcDbSortentsTable
330
C
  0
SORTENTSTABLE
  5
25B
102
{ACAD_REACTORS
330
A3
102
}
330
A3
100
AcDbSortentsTable
330
A2
331
A6
  5
A7
331
A7
  5
A6
  0
SORTENTSTABLE
  5
25C
102
{ACAD_REACTORS
330
8A
102
}
330
8A
100
AcDbSortentsTable
330
89
  0
DIMASSOC
  5
15A
102
{ACAD_REACTORS
330
159
102
}
330
159
100
AcDbDimAssoc
330
158
 90
        1
 70
     0
 71
     0
  1
AcDbOsnapPointRef
 72
     1
331
137
331
13A
 73
     0
 91
        0
 40
0.0
 10
0.0
 20
0.0
 30
2.000000000000000E+50
 75
     0
  0
XRECORD
  5
2E1
102
{ACAD_REACTORS
330
2E0
102
}
330
2E0
100
AcDbXrecord
280
     1
 40
1.570796326794896
  0
XRECORD
  5
2E3
102
{ACAD_REACTORS
330
2E0
102
}
330
2E0
100
AcDbXrecord
280
     1
340
27
  0
XRECORD
  5
2E4
102
{ACAD_REACTORS
330
2E0
102
}
330
2E0
100
AcDbXrecord
280
     1
340
27
  0
XRECORD
  5
2E2
102
{ACAD_REACTORS
330
2E0
102
}
330
2E0
100
AcDbXrecord
280
     1
340
27
  0
ACDBDETAILVIEWSTYLE
  5
283
102
{ACAD_XDICTIONARY
360
284
102
}
102
{ACAD_REACTORS
330
27C
330
282
102
}
330
27C
100
AcDbModelDocViewStyle
 70
     0
  3
Imperial24
290
     0
100
AcDbDetailViewStyle
 70
     0
 71
     0
 90
        3
 71
     1
340
24
 40
0.24
340
0
 40
0.24
300

 40
0.36
280
     3
 71
     2
340
20
 90
       25
 71
     3
340
24
 40
0.24
 90
        1
 40
0.75
 90
        1
300
%<\AcVar ViewType \f "%tc1">% %<\AcVar ViewDetailId>%\PVARIA %<\AcVar ViewScale \f "%sn">%
 71
     4
340
20
 90
       25
340
20
 90
       25
280
     0
  0
ACDBDETAILVIEWSTYLE
  5
286
102
{ACAD_XDICTIONARY
360
287
102
}
102
{ACAD_REACTORS
330
27C
330
285
102
}
330
27C
100
AcDbModelDocViewStyle
 70
     0
  3
Metric50
290
     0
100
AcDbDetailViewStyle
 70
     0
 71
     0
 90
        3
 71
     1
340
24
 40
5.0
340
0
 40
5.0
300

 40
0.0
280
     1
 71
     2
340
20
 90
       25
 71
     3
340
24
 40
5.0
 90
        0
 40
15.0
 90
        1
300
%<\AcVar ViewDetailId>% (%<\AcVar ViewScale \f "%sn">%)
 71
     4
340
20
 90
       25
340
20
 90
       25
280
     0
  0
LAYOUT
  5
11
102
{ACAD_XDICTIONARY
360
2EE
102
}
102
{ACAD_REACTORS
330
8
102
}
330
8
100
AcDbPlotSettings
  1

  2
Kein
  4
ISO_A4_(210.00_x_297.00_MM)
  6

 40
7.5
 41
20.0
 42
7.5
 43
20.0
 44
210.0
 45
297.0
 46
0.0
 47
0.0
 48
0.0
 49
0.0
140
0.0
141
0.0
142
1.0
143
1.0
 70
   688
 72
     1
 73
     1
 74
     5
  7

 75
    16
147
1.0
148
0.0
149
0.0
100
AcDbLayout
  1
core
 70
     1
 71
     2
 10
0.0
 20
0.0
 11
12.0
 21
9.0
 12
0.0
 22
0.0
 32
0.0
 14
-322.0076848068127
 24
-275.0669151153652
 34
0.0
 15
2647.992315193187
 25
435.7570261834401
 35
0.0
146
0.0
 13
0.0
 23
0.0
 33
0.0
 16
1.0
 26
0.0
 36
0.0
 17
0.0
 27
1.0
 37
0.0
 76
     0
330
C
1001
ACAD_PSEXT
1000
Kein
1000
Kein
1000
Nicht anwendbar
1000
Das Layout wird erst geplottet, wenn ein neuer Plotter-Konfigurationsname ausgewählt wird.
1070
     0
  0
LAYOUT
  5
7
102
{ACAD_XDICTIONARY
360
A
102
}
102
{ACAD_REACTORS
330
8
102
}
330
8
100
AcDbPlotSettings
  1

  2
none_device
  4
ISO_A4_(210.00_x_297.00_MM)
  6

 40
7.5
 41
20.0
 42
7.5
 43
20.0
 44
210.0
 45
297.0
 46
11.54999923706054
 47
-13.65000009536743
 48
0.0
 49
0.0
140
0.0
141
0.0
142
1.0
143
8.704084754739808
 70
 11952
 72
     1
 73
     0
 74
     0
  7

 75
     0
147
0.1148885871608098
148
0.0
149
0.0
100
AcDbLayout
  1
Model
 70
     1
 71
     0
 10
0.0
 20
0.0
 11
12.0
 21
9.0
 12
0.0
 22
0.0
 32
0.0
 14
0.0
 24
0.0
 34
0.0
 15
0.0
 25
0.0
 35
0.0
146
0.0
 13
0.0
 23
0.0
 33
0.0
 16
1.0
 26
0.0
 36
0.0
 17
0.0
 27
1.0
 37
0.0
 76
     0
330
2
331
2C
1001
ACAD_PSEXT
1000
None
1000
None
1000
Not applicable
1000
The layout will not be plotted unless a new plotter configuration name is selected.
1070
     0
  0
MATERIAL
  5
3C
102
{ACAD_XDICTIONARY
360
3D
102
}
102
{ACAD_REACTORS
330
18
102
}
330
18
100
AcDbMaterial
  1
ByBlock
  0
MATERIAL
  5
39
102
{ACAD_XDICTIONARY
360
3A
102
}
102
{ACAD_REACTORS
330
18
102
}
330
18
100
AcDbMaterial
  1
ByLayer
  0
MATERIAL
  5
17
102
{ACAD_XDICTIONARY
360
19
102
}
102
{ACAD_REACTORS
330
18
102
}
330
18
100
AcDbMaterial
  1
Global
 43
0.0007999999797903
 43
0.0
 43
0.0
 43
0.0
 43
0.0
 43
0.0007999999797903
 43
0.0
 43
0.0
 43
0.0
 43
0.0
 43
1.0
 43
0.0
 43
0.0
 43
0.0
 43
0.0
 43
1.0
 49
0.0007999999797903
 49
0.0
 49
0.0
 49
0.0
 49
0.0
 49
0.0007999999797903
 49
0.0
 49
0.0
 49
0.0
 49
0.0
 49
1.0
 49
0.0
 49
0.0
 49
0.0
 49
0.0
 49
1.0
142
0.0007999999797903
142
0.0
142
0.0
142
0.0
142
0.0
142
0.0007999999797903
142
0.0
142
0.0
142
0.0
142
0.0
142
1.0
142
0.0
142
0.0
142
0.0
142
0.0
142
1.0
144
0.0007999999797903
144
0.0
144
0.0
144
0.0
144
0.0
144
0.0007999999797903
144
0.0
144
0.0
144
0.0
144
0.0
144
1.0
144
0.0
144
0.0
144
0.0
144
0.0
144
1.0
1001
ACAD
1070
    -1
1070
     3
1070
     0
1000

1071
        0
1070
     0
  0
MLINESTYLE
  5
44
102
{ACAD_REACTORS
330
37
102
}
330
37
100
AcDbMlineStyle
  2
STANDARD
 70
     0
  3

 62
   256
 51
90.0
 52
90.0
 71
     2
 49
0.5
 62
   256
  6
BYLAYER
 49
-0.5
 62
   256
  6
BYLAYER
  0
ACDBPLACEHOLDER
  5
15
102
{ACAD_REACTORS
330
16
102
}
330
16
  0
SCALE
  5
49
102
{ACAD_REACTORS
330
40
102
}
330
40
100
AcDbScale
 70
     0
300
1:1
140
1.0
141
1.0
290
     1
  0
SCALE
  5
4A
102
{ACAD_REACTORS
330
40
102
}
330
40
100
AcDbScale
 70
     0
300
1:2
140
1.0
141
2.0
290
     0
  0
SCALE
  5
4B
102
{ACAD_REACTORS
330
40
102
}
330
40
100
AcDbScale
 70
     0
300
1:4
140
1.0
141
4.0
290
     0
  0
SCALE
  5
4C
102
{ACAD_REACTORS
330
40
102
}
330
40
100
AcDbScale
 70
     0
300
1:5
140
1.0
141
5.0
290
     0
  0
SCALE
  5
4D
102
{ACAD_REACTORS
330
40
102
}
330
40
100
AcDbScale
 70
     0
300
1:8
140
1.0
141
8.0
290
     0
  0
SCALE
  5
4E
102
{ACAD_REACTORS
330
40
102
}
330
40
100
AcDbScale
 70
     0
300
1:10
140
1.0
141
10.0
290
     0
  0
SCALE
  5
4F
102
{ACAD_REACTORS
330
40
102
}
330
40
100
AcDbScale
 70
     0
300
1:16
140
1.0
141
16.0
290
     0
  0
SCALE
  5
50
102
{ACAD_REACTORS
330
40
102
}
330
40
100
AcDbScale
 70
     0
300
1:20
140
1.0
141
20.0
290
     0
  0
SCALE
  5
51
102
{ACAD_REACTORS
330
40
102
}
330
40
100
AcDbScale
 70
     0
300
1:30
140
1.0
141
30.0
290
     0
  0
SCALE
  5
52
102
{ACAD_REACTORS
330
40
102
}
330
40
100
AcDbScale
 70
     0
300
1:40
140
1.0
141
40.0
290
     0
  0
SCALE
  5
53
102
{ACAD_REACTORS
330
40
102
}
330
40
100
AcDbScale
 70
     0
300
1:50
140
1.0
141
50.0
290
     0
  0
SCALE
  5
54
102
{ACAD_REACTORS
330
40
102
}
330
40
100
AcDbScale
 70
     0
300
1:100
140
1.0
141
100.0
290
     0
  0
SCALE
  5
55
102
{ACAD_REACTORS
330
40
102
}
330
40
100
AcDbScale
 70
     0
300
2:1
140
2.0
141
1.0
290
     0
  0
SCALE
  5
56
102
{ACAD_REACTORS
330
40
102
}
330
40
100
AcDbScale
 70
     0
300
4:1
140
4.0
141
1.0
290
     0
  0
SCALE
  5
57
102
{ACAD_REACTORS
330
40
102
}
330
40
100
AcDbScale
 70
     0
300
8:1
140
8.0
141
1.0
290
     0
  0
SCALE
  5
58
102
{ACAD_REACTORS
330
40
102
}
330
40
100
AcDbScale
 70
     0
300
10:1
140
10.0
141
1.0
290
     0
  0
SCALE
  5
59
102
{ACAD_REACTORS
330
40
102
}
330
40
100
AcDbScale
 70
     0
300
100:1
140
100.0
141
1.0
290
     0
  0
ACDBSECTIONVIEWSTYLE
  5
295
102
{ACAD_XDICTIONARY
360
296
102
}
102
{ACAD_REACTORS
330
28A
330
294
102
}
330
28A
100
AcDbModelDocViewStyle
 70
     0
  3
Imperial24
290
     0
100
AcDbSectionViewStyle
 70
     0
 71
     0
 90
       78
 71
     1
340
24
 40
0.24
340
0
340
0
 40
0.24
300
I, O, Q, S, X, Z
 40
0.48
 90
        3
 40
0.18
 90
        1
 71
     2
340
20
 90
       25
340
20
 90
       50
 40
0.24
 40
0.0
 40
0.24
 71
     3
340
24
 40
0.24
 90
        1
 40
0.75
 90
        1
300
%<\AcVar ViewType \f "%tc1">% %<\AcVar ViewSectionStartId>%-%<\AcVar ViewSectionEndId>%\PVARIA %<\AcVar ViewScale \f "%sn">%
 71
     4
300
ANSI31
 40
1.0
 90
        0
290
     0
290
     0
 90
        6
 40
0.0
 40
1.570796326794896
 40
0.2617993877991494
 40
1.308996938995747
 40
-0.2617993877991494
 40
1.832595714594046
  0
ACDBSECTIONVIEWSTYLE
  5
298
102
{ACAD_XDICTIONARY
360
299
102
}
102
{ACAD_REACTORS
330
28A
330
297
102
}
330
28A
100
AcDbModelDocViewStyle
 70
     0
  3
Metric50
290
     0
100
AcDbSectionViewStyle
 70
     0
 71
     0
 90
      102
 71
     1
340
24
 40
5.0
340
0
340
0
 40
5.0
300
I, O, Q, S, X, Z
 40
10.0
 90
        0
 40
2.5
 90
        0
 71
     2
340
20
 90
       25
340
20
 90
       50
 40
5.0
 40
2.5
 40
5.0
 71
     3
340
24
 40
5.0
 90
        0
 40
15.0
 90
        1
300
%<\AcVar ViewSectionStartId>%-%<\AcVar ViewSectionEndId>% (%<\AcVar ViewScale \f "%sn">%)
 71
     4
300
ANSI31
 40
1.0
 90
        0
290
     0
290
     0
 90
        6
 40
0.0
 40
1.570796326794896
 40
0.2617993877991494
 40
1.308996938995747
 40
-0.2617993877991494
 40
1.832595714594046
  0
TABLESTYLE
  5
45
102
{ACAD_XDICTIONARY
360
46
102
}
102
{ACAD_REACTORS
330
41
102
}
330
41
100
AcDbTableStyle
  3
Standard
 70
     0
 71
     0
 40
1.5
 41
1.5
280
     0
281
     0
  7
Standard
140
4.5
170
     2
 62
     0
 63
     7
283
     0
274
    -2
284
     1
 64
     0
275
    -2
285
     1
 65
     0
276
    -2
286
     1
 66
     0
277
    -2
287
     1
 67
     0
278
    -2
288
     1
 68
     0
279
    -2
289
     1
 69
     0
  7
Standard
140
6.0
170
     5
 62
     0
 63
     7
283
     0
274
    -2
284
     1
 64
     0
275
    -2
285
     1
 65
     0
276
    -2
286
     1
 66
     0
277
    -2
287
     1
 67
     0
278
    -2
288
     1
 68
     0
279
    -2
289
     1
 69
     0
  7
Standard
140
4.5
170
     5
 62
     0
 63
     7
283
     0
274
    -2
284
     1
 64
     0
275
    -2
285
     1
 65
     0
276
    -2
286
     1
 66
     0
277
    -2
287
     1
 67
     0
278
    -2
288
     1
 68
     0
279
    -2
289
     1
 69
     0
  0
VISUALSTYLE
  5
2D
102
{ACAD_XDICTIONARY
360
2F1
102
}
102
{ACAD_REACTORS
330
2E
102
}
330
2E
100
AcDbVisualStyle
  2
2dWireframe
 70
     4
 71
     0
 72
     2
 73
     1
 90
        0
 40
-0.6
 41
-30.0
 62
     5
 63
     7
 74
     1
 91
        4
 64
     7
 65
   257
 75
     1
175
     1
 42
1.0
 92
        0
 66
   257
 43
1.0
 76
     1
 77
     6
 78
     2
 67
     7
 79
     5
170
     0
171
     0
290
     0
174
     0
 93
        1
 44
0.0
173
     0
291
     0
 45
0.0
1001
ACAD
1000
AcDbSavedByObjectVersion
1070
     0
  0
VISUALSTYLE
  5
47
102
{ACAD_XDICTIONARY
360
2FC
102
}
102
{ACAD_REACTORS
330
2E
102
}
330
2E
100
AcDbVisualStyle
  2
Realistic
 70
     8
 71
     2
 72
     3
 73
     0
 90
        2
 40
-0.6
 41
30.0
 62
     5
 63
     7
 74
     0
 91
        0
 64
     7
 65
   257
 75
     1
175
     1
 42
1.0
 92
        8
 66
   257
 43
1.0
 76
     1
 77
     6
 78
     2
 67
     7
 79
     3
170
     0
171
     0
290
     0
174
     0
 93
       13
 44
0.0
173
     0
291
     0
 45
0.0
1001
ACAD
1000
AcDbSavedByObjectVersion
1070
     0
  0
VISUALSTYLE
  5
48
102
{ACAD_XDICTIONARY
360
2FE
102
}
102
{ACAD_REACTORS
330
2E
102
}
330
2E
100
AcDbVisualStyle
  2
Wireframe
 70
     5
 71
     0
 72
     2
 73
     0
 90
        0
 40
-0.6
 41
-30.0
 62
     5
 63
     7
 74
     1
 91
        4
 64
     7
 65
   257
 75
     1
175
     1
 42
1.0
 92
        0
 66
   257
 43
1.0
 76
     1
 77
     6
 78
     2
 67
     7
 79
     3
170
     0
171
     0
290
     0
174
     0
 93
        1
 44
0.0
173
     0
291
     0
 45
0.0
1001
ACAD
1000
AcDbSavedByObjectVersion
1070
     0
  0
DICTIONARYVAR
  5
2D3
102
{ACAD_REACTORS
330
2CD
102
}
330
2CD
100
DictionaryVariables
280
     0
  1
1:1
  0
DICTIONARYVAR
  5
2CF
102
{ACAD_REACTORS
330
2CD
102
}
330
2CD
100
DictionaryVariables
280
     0
  1
STANDARD
  0
DICTIONARYVAR
  5
2CE
102
{ACAD_REACTORS
330
2CD
102
}
330
2CD
100
DictionaryVariables
280
     0
  1
STANDARD
  0
DICTIONARYVAR
  5
2D0
102
{ACAD_REACTORS
330
2CD
102
}
330
2CD
100
DictionaryVariables
280
     0
  1

  0
DICTIONARYVAR
  5
2D1
102
{ACAD_REACTORS
330
2CD
102
}
330
2CD
100
DictionaryVariables
280
     0
  1

  0
DICTIONARYVAR
  5
2DA
102
{ACAD_REACTORS
330
2CD
102
}
330
2CD
100
DictionaryVariables
280
     0
  1
2
  0
DICTIONARYVAR
  5
2D9
102
{ACAD_REACTORS
330
2CD
102
}
330
2CD
100
DictionaryVariables
280
     0
  1
1
  0
DICTIONARYVAR
  5
2D8
102
{ACAD_REACTORS
330
2CD
102
}
330
2CD
100
DictionaryVariables
280
     0
  1
0
  0
DICTIONARYVAR
  5
2D5
102
{ACAD_REACTORS
330
2CD
102
}
330
2CD
100
DictionaryVariables
280
     0
  1
0
  0
DICTIONARYVAR
  5
2D6
102
{ACAD_REACTORS
330
2CD
102
}
330
2CD
100
DictionaryVariables
280
     0
  1
0
  0
DICTIONARYVAR
  5
2D4
102
{ACAD_REACTORS
330
2CD
102
}
330
2CD
100
DictionaryVariables
280
     0
  1
2
  0
DICTIONARYVAR
  5
2D2
102
{ACAD_REACTORS
330
2CD
102
}
330
2CD
100
DictionaryVariables
280
     0
  1
1
  0
DICTIONARYVAR
  5
2DC
102
{ACAD_REACTORS
330
2CD
102
}
330
2CD
100
DictionaryVariables
280
     0
  1
80.000000
  0
DICTIONARYVAR
  5
2DB
102
{ACAD_REACTORS
330
2CD
102
}
330
2CD
100
DictionaryVariables
280
     0
  1
5.000000
  0
DICTIONARYVAR
  5
2D7
102
{ACAD_REACTORS
330
2CD
102
}
330
2CD
100
DictionaryVariables
280
     0
  1
127
  0
DICTIONARYVAR
  5
2DD
102
{ACAD_REACTORS
330
2CD
102
}
330
2CD
100
DictionaryVariables
280
     0
  1
2
  0
DICTIONARY
  5
2EC
102
{ACAD_REACTORS
330
2EA
102
}
330
2EA
100
AcDbDictionary
281
     1
  0
DICTIONARY
  5
2EB
102
{ACAD_REACTORS
330
2EA
102
}
330
2EA
100
AcDbDictionary
281
     1
  3
140688809441616
350
2E5
  3
140688809441632
350
2E6
  3
140688809441648
350
2E7
  3
140688809441664
350
2E8
  3
140688809441680
350
2E9
  0
DICTIONARY
  5
271
102
{ACAD_REACTORS
330
270
102
}
330
270
100
AcDbDictionary
281
     1
  0
DICTIONARY
  5
268
102
{ACAD_REACTORS
330
25F
102
}
330
25F
100
AcDbDictionary
281
     1
  3
Behind
350
267
  3
DWGSETTINGS
350
269
  3
Shaft
350
26A
  3
TRANSSETTINGS
350
26B
  0
DICTIONARY
  5
284
330
283
100
AcDbDictionary
280
     1
281
     1
  3
ACAD_XREC_ROUNDTRIP
360
300
  0
DICTIONARY
  5
287
330
286
100
AcDbDictionary
280
     1
281
     1
  3
ACAD_XREC_ROUNDTRIP
360
301
  0
DICTIONARY
  5
2EE
330
11
100
AcDbDictionary
280
     1
281
     1
  3
ACAD_XREC_ROUNDTRIP
360
2EF
  0
DICTIONARY
  5
A
330
7
100
AcDbDictionary
280
     1
281
     1
  3
ACAD_XREC_ROUNDTRIP
360
2ED
  0
DICTIONARY
  5
3D
330
3C
100
AcDbDictionary
280
     1
281
     1
  3
ACAD_XREC_ROUNDTRIP
360
2FA
  3
FBXASSET
360
3E
  0
DICTIONARY
  5
3A
330
39
100
AcDbDictionary
280
     1
281
     1
  3
ACAD_XREC_ROUNDTRIP
360
2F9
  3
FBXASSET
360
3B
  0
DICTIONARY
  5
19
330
17
100
AcDbDictionary
280
     1
281
     1
  3
ACAD_XREC_ROUNDTRIP
360
2F0
  3
BUMPTILE
360
1A
  3
DIFFUSETILE
360
1B
  3
FBXASSET
360
1C
  3
OPACITYTILE
360
1D
  3
REFLECTIONTILE
360
1E
  0
DICTIONARY
  5
296
330
295
100
AcDbDictionary
280
     1
281
     1
  3
ACAD_XREC_ROUNDTRIP
360
302
  0
DICTIONARY
  5
299
330
298
100
AcDbDictionary
280
     1
281
     1
  3
ACAD_XREC_ROUNDTRIP
360
303
  0
DICTIONARY
  5
46
330
45
100
AcDbDictionary
280
     1
281
     1
  3
ACAD_ROUNDTRIP_2008_TABLESTYLE_CELLSTYLEMAP
360
2DE
  3
ACAD_XREC_ROUNDTRIP
360
2FB
  0
DICTIONARY
  5
2F1
330
2D
100
AcDbDictionary
280
     1
281
     1
  3
ACAD_XREC_ROUNDTRIP
360
2F2
  0
DICTIONARY
  5
2FC
330
47
100
AcDbDictionary
280
     1
281
     1
  3
ACAD_XREC_ROUNDTRIP
360
2FD
  0
DICTIONARY
  5
2FE
330
48
100
AcDbDictionary
280
     1
281
     1
  3
ACAD_XREC_ROUNDTRIP
360
2FF
  0
XRECORD
  5
2E5
102
{ACAD_REACTORS
330
2EB
102
}
330
2EB
100
AcDbXrecord
280
     1
  1
AcDb_Thumbnail_Schema
102
{ATTRRECORD
341
2E6
  2
AcDbDs::TreatedAsObjectData
280
     1
291
     1
102
ATTRRECORD}
102
{ATTRRECORD
341
2E7
  2
AcDbDs::Legacy
280
     1
291
     1
102
ATTRRECORD}
  2
AcDbDs::ID
280
    10
 91
        8
102
{ATTRRECORD
341
2E8
  2
AcDs:Indexable
280
     1
291
     1
102
ATTRRECORD}
102
{ATTRRECORD
341
2E9
  2
AcDbDs::HandleAttribute
280
     7
282
     1
102
ATTRRECORD}
  2
Thumbnail_Data
280
    15
 91
        0
  0
XRECORD
  5
2E6
102
{ACAD_REACTORS
330
2EB
102
}
330
2EB
100
AcDbXrecord
280
     1
  1
AcDbDs::TreatedAsObjectDataSchema
  2
AcDbDs::TreatedAsObjectData
280
     1
 91
        0
  0
XRECORD
  5
2E7
102
{ACAD_REACTORS
330
2EB
102
}
330
2EB
100
AcDbXrecord
280
     1
  1
AcDbDs::LegacySchema
  2
AcDbDs::Legacy
280
     1
 91
        0
  0
XRECORD
  5
2E8
102
{ACAD_REACTORS
330
2EB
102
}
330
2EB
100
AcDbXrecord
280
     1
  1
AcDbDs::IndexedPropertySchema
  2
AcDs:Indexable
280
     1
 91
        0
  0
XRECORD
  5
2E9
102
{ACAD_REACTORS
330
2EB
102
}
330
2EB
100
AcDbXrecord
280
     1
  1
AcDbDs::HandleAttributeSchema
  2
AcDbDs::HandleAttribute
280
     7
 91
        1
284
     1
  0
XRECORD
  5
300
102
{ACAD_REACTORS
330
284
102
}
330
284
100
AcDbXrecord
280
     1
102
DISPLAYNAME
  1
Imperial24
102
FLAGS
 90
        0
  0
XRECORD
  5
301
102
{ACAD_REACTORS
330
287
102
}
330
287
100
AcDbXrecord
280
     1
102
DISPLAYNAME
  1
Metric50
102
FLAGS
 90
        0
  0
XRECORD
  5
2EF
102
{ACAD_REACTORS
330
2EE
102
}
330
2EE
100
AcDbXrecord
280
     1
102
SHADEPLOT
 70
     0
102
SHADEPLOTRESLEVEL
 70
     2
102
SHADEPLOTCUSTOMDPI
 70
   300
  0
XRECORD
  5
2ED
102
{ACAD_REACTORS
330
A
102
}
330
A
100
AcDbXrecord
280
     1
102
SHADEPLOT
 70
     0
102
SHADEPLOTRESLEVEL
 70
     2
102
SHADEPLOTCUSTOMDPI
 70
   300
  0
XRECORD
  5
2FA
102
{ACAD_REACTORS
330
3D
102
}
330
3D
100
AcDbXrecord
280
     1
102
MATERIAL
148
0.0
149
0.0
149
0.0
 93
        0
 94
       63
282
     0
 72
     1
 77
     1
171
     1
175
     1
179
     1
273
     0
  0
XRECORD
  5
3E
102
{ACAD_REACTORS
330
3D
102
}
330
3D
100
AcDbXrecord
280
     1
 70
     1
 90
429727718
  1
D62C5603-E3A1-4AEA-B7FB-FE5D8D0755AF
310
504B03040A0000080000CC70623B3DEE336E79000000790000001B0000006175746F6465736B2D64657369676E2D7061636B6167652E786D6C3C3F786D6C2076657273696F6E3D22312E302220656E636F64696E673D227574662D3822203F3E3C666F726D6174733E3C666F726D61743E687474703A2F2F736368656D612E
310
6175746F6465736B2E636F6D2F64657369676E2D7061636B6167652F323030393C2F666F726D61743E3C2F666F726D6174733E504B0304140006080800CC70623BD486FD9CA0000000F4000000130000005B436F6E74656E745F54797065735D2E786D6C7D8EC10E82300C865F65E91D8A1E8C310C0EEA1BF002731658846E
310
D98AC1B77784ABF1D8FE5FBFBF75BBCE937A534CCEB38643598122B6FEE978D0B0485F9C41B54DDD7D022595594E1A469170414C76A4D9A4D207E29CF43ECE46F218070CC6BECC4078ACAA135ACF422C856C0E68EA1BF5669944DDD7BCDE7B1F8E415D77AECB980613C2E4AC91FC167A2B244592486606FC29C8FD7F045B9A
310
EF7053A7E60B504B0304140006080800CC70623B853B8169EB0000007C01000008000000636F72652E786D6C8D90416EC3201045AF62CDB6C206821CC7C244919D9CA01740401C94182C03558F5F9C3852BBEB6A467FFE9B197D7EFC9E1EC5975982F5AE035262288C535E5B377690E21535501C055FBC8FBF6C503839990E
310
5619041F179FE64D52DE45E362569DD7661365082642A11EB9E920A89B99642953CC8E702F67A9EE7234257977194EC9EAE275C4EABCCF5EAD5940D4AC6F0E35A568B8F43562CD7046CD199FD07E60174276A7BE677B5EADB0E0D14EEFFB6A31321A0D82627C4084204C3F096B71DD52F6819B16635EADF63F509AF53FA164
310
5DDCD1EDDD17164090FCC8732078B56691CB33A85CD7DCC40F504B0304140006080800CC70623B55019EA25F0000007C00000007000000636E782E786D6C4DCB3B0E80201045D1AD90E915ED2CF8AC45050C11660C8261F98AB1B07AC9C97D42D718D865D3E909258CFD00CCE24AC6E326A164D74DC0B4128928FF32603847
310
2BA13128B1252AC747C6BAB984FC68F0B87FE8960A5C09FE86CFB69FBA01504B0304140006080800CC70623BDBABAAF470010000D40300000C0000006662782F636F72652E786D6CC553D16E823014FD95A6AF4B694182CC941A83FA05FB810A9511A125A5257EFE2E82712ECEB8A7F100CD39F7F69E734AF9FADC366850B6
310
AF8DCE7018308C942E4C59EB2AC3DE1D498AD15A706B8CFB56869196ADCAF00863C12B6B7C374385D14E6907A836A59A41D9F7CA615434B0C8705F7CAA5606D23BA8E84F41278B93AC54100640439DE0BDB320004D43C63716C7C399D30917DCFBBA9CD9BA8469F5B156168B24CED3F7248AC8769F27244EB73B92EED8862C
310
B7F13E0C179B3C8F979C8ECD82BBBABDAA2BAC924E9558448CBD9330242CFA08E3154B5651FCC6D215639C8EE5774DBE2B5F6CF2B5768B68963BB5F5588420E442FC700B1139D4CB01F450C1E918227C2E09DF070D8140C84E1E9AAB8F1340832A9CB13130A5F1376A908D57309505ECF2A0DF179C4E9D30F5B239B87E3823
310
7A79C6F31DE1A8A5AEC08474B03C7837EAE4938639B44E5932B833D2C6B6B279CDC613877FA26EE21F4A2A4C63EC7F29A2F301D1F9F7A0E37D145F504B0304140006080800CC70623B9C113CC27E0000009D0000000B0000006662782F636E782E786D6C4DCCDF0A83201C86E15B91DFB94BFB330DD428C8FB886521330DA7
310
6397BF1A1DECE883878F57749FCDA1B7892F1BBC047A23808C7F84D9FA55424E0BE6803A256208E9EF06C84F9B91703228B1C690F78B66B34CD9A5439DF5CF0BFBF65E35BCA1B8D6A5C6F540381E886698B5741C695F9503EBA150A2F8958E3DC3EA0B504B0304140006080800CC70623B7DF2F77C2A010000120200003100
310
00006662782F41393633353835312D344632462D344230382D423046372D3739314545314133324237412F636F72652E786D6C8D51DB8EC22014FC15C2939B0D2DB4B45643319AE817EC0F6041255A68B86CFCFC856D4D76DF7CE190393373060EDB3DC707F856CE6B6B7A480A0C81328395DA5C7B18C3057510EC3873D686
310
3F34088C18550F330C39BB3A1BA7051AAC09CA84841A2BD5020AEF55806078A44B0FFD7053A328440C89E1EFC52486BBB8AA8214A99D789CF9E05200300FC927E4FB4D5B375D43103D5527440FB843077C5AA3F5861C8F645F5787F59E95B390B318B55CE45AA638FAA2957BD7248B390B7A7CC51F9C124149C82B8C378810
310
84AB2F42B7B8DD56F413775B8C5999E9FF4471926F8AA236A1AE96B8B3CC434E5839373893369E1FAF30EA395917409EB7F26AF8801C171837A4A6AC9C89E9F9C9B1A58BA30FD6A5EF5DDDCF894B9AD9B6A59C957943A9FCAE2FD5BC4DFE03504B0304140006080800CC70623BAD7543B64E01000033030000300000006662
310
782F41393633353835312D344632462D344230382D423046372D3739314545314133324237412F636E782E786D6CD593CD6EC32010845F0571AD6CE3D48AD20813A9873E410FBD12D82434182C7EAAE6EDBB2424CD25871E7B41D6EC30B3FA84F9E67BB2E40B4234DE8DB46F1925E094D7C6ED479AD3AE5951B2113C789FEE
310
6C943839C1488B4C05DF079FE72A69D8C96C13AAD6B8631503449F83828872B949AC57D26200B826A308D316B4064D6E46FCDA41C05550DC9E483A00797BFD207EFB092A45DE9514C1BBD22178396BD39D891265658C238DEA00936C654E5E433CB65A26D9F6EDB5EBC14EBF49A45CB856E66048291F6939A9A81BB5C89177
310
38143CA680F4AA299D66A042CEB3354A2684DC9D8D178FE0D9B8B41CAAD720F880EE7EF93C0C18769E099ECC04D5A102C8049A8A05632F4DDF376CF1DE0F6BB65C2F8627B65A33C6BB62177CEBBDAD973006829F89F22E814B54F4BC2BE347F8AA8F681390B50FA73F804400B5F542E796F19FF974E7F78DB802FE05E20750
310
4B0304140006080800CC70623BE75B7789680500003C100000340000006662782F41393633353835312D344632462D344230382D423046372D3739314545314133324237412F6F626A656374732E786D6CAD575B8F9B3818FD2B887D06C22499CB8AA1CA655245D5B455A356FB305264C061D8018C6C3393D95FBFC7600890
310
A4CD5EF210B0B1BFEBF98E3F7B1FF6596ABC522E1296DF9BAE3D320D9A872C4AF2F8DE2CE5CEBA358D0FBEC719939D65A691938CDE9B6ADAF4BD98B3B2D05311DD91329583D9D5FC0F438434A7A611A644887B5384CF34233629258BA878B12322891DEFF6B66BD70BFB62634E8AE781D082709A4B588AF91C528CDA28B73F
310
1C998EEF39EABBEFA97FBD6A7C7E9553F9D3D79FE442923C3C523610337627CB87ABE99D359D4CC6D6E4FACAB5E6ABF9D2726FC6A3C5F56271377BB88362213924694B38DD99FE47C48627A1E7D49F5A8BB5E1A74C0A599ED3B0F21F1E56366B89112D681E218F0915D0D6F17AD41FBA2A369DCF6335D62ABBD39779D5DDD1
310
11D4D8DE3CBB96B2E04FB8202E41051754A1AA8E8F76B4C6DFE810B580B1547F4B84911149794252234D024EF8BBE963A95AE27B3D310A9D5C215C7960FAEE415ED75694C6AFB17BCACA5D99A60A9AA65F217B0BFC53292ACB92BF283FAD0D3621576592CB5BED907C2FA8E9DF794E35E97BEA31BED21FEB401ABB94C44839
310
DCACBF0E1C5DA8DA5B2F4DFFD32AD86F543D9E565E7056502E157C00AD2671CD534549AB752FCA9CDA00677A313F04E51B22FF19E57B300579E3C97EB29F682D92935CEC18CF901B7B54FD8C51F362B56FC72FE0B3C1EAE335EDCCBF5AEC39ADB17DC238973F804BA5E6F6BFE7AF1FB32E523BE9F3BD571418E3631DCA4D48
310
5250CF639223210A9446CA30052EDF057BD35F8329C1ECD84552BF0DC8D18BE7BCE23BFE6BD960AB4A7DE79923A103BEBD80F911CBAA2C60DB19B01CF164A5583B772EE6D3FFA56666CBCDA74DC97724A48F9A58967497E489C4D979006FD7A05E227A1EBDD0F737C623387A9C844D3709995625106D157315F8B8392CD4E0
310
A0B9A720C4BE9829CEF37EA1E13111214D53925356365ADA634861B52519DD27A00AEB808EAF0628E6F435519D446F45CF2C9CF5214F0A15B2F6D06B79DA3EE3CBF7F56780D2F4E7EF73A0F5E5B02A38D07DC852C6B7C1FBB6664213E0C39E3EBA7FF4E1AD23EA2829407C85E586727488B751B2DB9502BC7B228A3FD68B6E
310
A65A22397E690AA8D158D7E404EC8CDA235CC3B7D1898680131CEC2CDF2638C65196279577750F15884AEE19F94199155B92B13297978469D4F8D358DF0AEF7631E28DC8F0D9F437D5D39A83B2231A1D52D543813A824EF8D44BCFF2FA6A31BD1E8DAD87F1CCB526B3879935BF59CDADD5C37479BB1CDD4CA7B3556B516589
310
EF352754B706114D9C885EC9131DE6EFEB43D99AFE2391C2F958179413D7CFEF6B1B6DB1E7600F00DE6E5C67454A339A4BA2E0FBA85ED26F045D454F463DBFCE484C2F90F2E5E3666003662ED8F755951A7D1BECD5B30B550B2785C8E7320B7292A4838DDA71BBC863ED7613CAF659337A3354231D4FF4A182A54904C2898C
310
98B28C4AD0CE056CCF332A80986E571EE9DBC305BB5FEB7E509220A58D25CF042D712A806AC0AD0C657FDEF80D2D9CEAA2EE4D1C76F60BFE74219A06527D6F82DF6412526107381E55E353090704D085B52408A8913C4ED159D79BDA71BB4BC506F4831350EB6F975CD22D69BF7AC49B91A2C0A9DDA3D5CA36AD20FC478E37
310
E61844E2352865EBCB61A275A65283CAAA9DD27703B4102F5AF51EF5F573B75CBB5AD38BC845F7A49F82A0966A49C2E3EA5EA0ECD326CD965F1DB402C6FA8B51A4658C5C5E2EC9E214602E55810345408596591009A82E7E7FFACA19EEA299B14A0081A705CB3296EBC14CDF658DCD336EA6D1136881AAEB87B81AB9EE53D5
310
F5EB8BC8362082DA24122F98680A4E7930C01A0079749CEA14382A0783E5EBA5A10F8C098456A03D6A4AEB6BB881E2513747552A5DB22C7EDAF83BD5528081A365F7FF06504B0304140006080000CC70623B000000000000000000000000350000006662782F41393633353835312D344632462D344230382D423046372D37
310
39314545314133324237412F76657274696365732E62696E504B0304140006080800CC70623BF270F1330600000004000000360000006662782F41393633353835312D344632462D344230382D423046372D3739314545314133324237412F747269616E676C65732E62696E636660600000504B0304140006080000CC7062
310
3B000000000000000000000000370000006662782F41393633353835312D344632462D344230382D423046372D3739314545314133324237412F617474726962757465732E62696E504B0304140006080800CC70623B08DA0BD19000000041010000360000006662782F41393633353835312D344632462D344230382D4230
310
46372D3739314545314133324237412F6469726563746F72792E786D6C858F410AC3201045AF22B36F53E9A60B35CBEEBAE80D244E44489C6234F4F835464A48035D0DF398FF9F8AF63D0E6CC63039F212F8F9020C7D47C6792B21C5FE7403D62A1188E2E60C98D7234A5830286103A55745067B9D86B8A3CF9C7F90C11DE6
310
07FB144396D7B6A82D282E9A152AD114D5EF2CB866EEE831B8EEA07A7BB5A8D7D61A2BAAEB7FD5F70921FF497D00504B0304140006080800CC70623BEDD1DC58FD000000A00100003B0000006662782F41393633353835312D344632462D344230382D423046372D3739314545314133324237412F7265736F75726365732F
310
636F72652E786D6C8D504B6E833010BD0A9A6D65B00922041947112427E8052C33A156828DFCA97AFC9A40A576D7CDCCE87D344F8F9FBFE667F689CE6B6B3A6039850C8DB2A336530731DC4903D95970676DF82583CCC8193B5861107C72362E3BA4AC096842428D1D7107A5F7182053CF7474E0D507CE32973124857FE48B
310
540F3961CEF244279DE03EB81420DB9EAC1384436FA353E879B1B182C7A8C75DA3C7F453DF353A1075D537A7BA6464B8F535A99AE14A9A2BBD90E350DD183B5CFABE3AF262350B1EF4FC9351399401471025A527C218A1E53BAB5A5AB765F5469B96525EACF23FA6B88CFF34456DC2A1DCE36E360F82A5202F42F062ED2BAD
310
579969AFDD8A6F504B010214000A0000080000CC70623B3DEE336E79000000790000001B00000000000000000000000000000000006175746F6465736B2D64657369676E2D7061636B6167652E786D6C504B01021400140006080800CC70623BD486FD9CA0000000F40000001300000000000000000000000000B20000005B
310
436F6E74656E745F54797065735D2E786D6C504B01021400140006080800CC70623B853B8169EB0000007C010000080000000000000000000000000083010000636F72652E786D6C504B01021400140006080800CC70623B55019EA25F0000007C000000070000000000000000000000000094020000636E782E786D6C504B
310
01021400140006080800CC70623BDBABAAF470010000D40300000C00000000000000000000000000180300006662782F636F72652E786D6C504B01021400140006080800CC70623B9C113CC27E0000009D0000000B00000000000000000000000000B20400006662782F636E782E786D6C504B01021400140006080800CC70
310
623B7DF2F77C2A010000120200003100000000000000000000000000590500006662782F41393633353835312D344632462D344230382D423046372D3739314545314133324237412F636F72652E786D6C504B01021400140006080800CC70623BAD7543B64E010000330300003000000000000000000000000000D2060000
310
6662782F41393633353835312D344632462D344230382D423046372D3739314545314133324237412F636E782E786D6C504B01021400140006080800CC70623BE75B7789680500003C10000034000000000000000000000000006E0800006662782F41393633353835312D344632462D344230382D423046372D3739314545
310
314133324237412F6F626A656374732E786D6C504B01021400140006080000CC70623B0000000000000000000000003500000000000000000000000000280E00006662782F41393633353835312D344632462D344230382D423046372D3739314545314133324237412F76657274696365732E62696E504B01021400140006
310
080800CC70623BF270F133060000000400000036000000000000000000000000007B0E00006662782F41393633353835312D344632462D344230382D423046372D3739314545314133324237412F747269616E676C65732E62696E504B01021400140006080000CC70623B0000000000000000000000003700000000000000
310
000000000000D50E00006662782F41393633353835312D344632462D344230382D423046372D3739314545314133324237412F617474726962757465732E62696E504B01021400140006080800CC70623B08DA0BD1900000004101000036000000000000000000000000002A0F00006662782F41393633353835312D344632
310
462D344230382D423046372D3739314545314133324237412F6469726563746F72792E786D6C504B01021400140006080800CC70623BEDD1DC58FD000000A00100003B000000000000000000000000000E1000006662782F41393633353835312D344632462D344230382D423046372D3739314545314133324237412F7265
310
736F75726365732F636F72652E786D6C504B0506000000000E000E0080040000641100000000
  0
XRECORD
  5
2F9
102
{ACAD_REACTORS
330
3A
102
}
330
3A
100
AcDbXrecord
280
     1
102
MATERIAL
148
0.0
149
0.0
149
0.0
 93
        0
 94
       63
282
     0
 72
     1
 77
     1
171
     1
175
     1
179
     1
273
     0
  0
XRECORD
  5
3B
102
{ACAD_REACTORS
330
3A
102
}
330
3A
100
AcDbXrecord
280
     1
 70
     1
 90
429727718
  1
30362254-06B7-45E0-A893-8CFA70E3D6BC
310
504B03040A0000080000CC70623B3DEE336E79000000790000001B0000006175746F6465736B2D64657369676E2D7061636B6167652E786D6C3C3F786D6C2076657273696F6E3D22312E302220656E636F64696E673D227574662D3822203F3E3C666F726D6174733E3C666F726D61743E687474703A2F2F736368656D612E
310
6175746F6465736B2E636F6D2F64657369676E2D7061636B6167652F323030393C2F666F726D61743E3C2F666F726D6174733E504B0304140006080800CC70623BD486FD9CA0000000F4000000130000005B436F6E74656E745F54797065735D2E786D6C7D8EC10E82300C865F65E91D8A1E8C310C0EEA1BF002731658846E
310
D98AC1B77784ABF1D8FE5FBFBF75BBCE937A534CCEB38643598122B6FEE978D0B0485F9C41B54DDD7D022595594E1A469170414C76A4D9A4D207E29CF43ECE46F218070CC6BECC4078ACAA135ACF422C856C0E68EA1BF5669944DDD7BCDE7B1F8E415D77AECB980613C2E4AC91FC167A2B244592486606FC29C8FD7F045B9A
310
EF7053A7E60B504B0304140006080800CC70623B1EC5D7A3EB0000007C01000008000000636F72652E786D6C8D90416EC3201045AF82665B6103C6756C6122AB4D4ED00B204C5C94182C03558F5F9C3852BBEB6A467FFE9B197D71FC9E6FE8CBACC17AD7032D0820E3B41FAD9B7A48F1820F808E52ACDEC75F36404ECDA687
310
4D0629A6D5A76597B477D1B89855E747B38B2A041301E95B6E7A08FAD3CCAA50296647B8168BD2573599823EBB0CA76447F43862C7BCCF5EAC59410E4DDD9C7973C2755553CCCFA4C603E3040F1565ED3B1FDE4E432BCA0D9622DAF9795FAF464533826484B498524CD807E51D79ED187F21878E10516EF63F505AC67F42C9
310
BA58B1FDDD071640D2FCC87D2045B96591CB3DA85CB7DCE40F504B0304140006080800CC70623B55019EA25F0000007C00000007000000636E782E786D6C4DCB3B0E80201045D1AD90E915ED2CF8AC45050C11660C8261F98AB1B07AC9C97D42D718D865D3E909258CFD00CCE24AC6E326A164D74DC0B4128928FF32603847
310
2BA13128B1252AC747C6BAB984FC68F0B87FE8960A5C09FE86CFB69FBA01504B0304140006080800CC70623B8C9102E971010000D40300000C0000006662782F636F72652E786D6CC5535B6E833010BC8AE5DF0A6C08340F1947A84D4ED00B38C6A128602363A31CBFCB234A53A551FA553EC09AD9F5CE8C31DB9E9B1AF5CA
310
7695D1198E428A91D2D214952E33ECDD315861B4E5CC1AE3BE9561A445A3323CC098B3D21ADFCE9034DA29ED00D5A6503328BA4E398C640D8B0C77F253352214DE4145770A5B214FA2546114020D759C75CE8200340D19DE981F0F6746269C33EFAB6266AB02A655C74A59CCF365BADC27CB5D902ED22848F6340DF238A141
310
BE88E2F57B92BFEDF23523433367AE6A2EEAA455C2A902F398D2751045018D3FA264435F3771F242571B4A1919CA6F9A7C5B3CD9E42BED16F12C776AEB308F40C848FC700B1139D4891EF410CEC810227CC6846F8386402064270EF5C5C709A05E49676C024C61FC95EA45ED154CA5211D1FF4FB8291A913A68E9B83EBBB33
310
E2A7673CDE118E5AE8124C0807CB8377834E366998436B950D7A7746DAD846D4CFD978E0F04FD455FC5D49D2D4C6FE9722321F10997F0F32DC47FE05504B0304140006080800CC70623BFFEA85907E0000009D0000000B0000006662782F636E782E786D6C4DCCD10A83201886E15B91FFDC95D95A811AB6F23E625948A6C3
310
E9D8E5AF46073BFAE0E1E365ED67B3E8ADC3CB78C7815C7240DA3DFC64DCC221C519D7805AC182F7F1EF06C88D9BE6703008B6049F9E274D7A1E938DBB5AE3D6131B2589BA0D3D965551E0B2EA732C9B9A624AAEB41E3A557677029960D9AFB4EF11165F504B0304140006080800CC70623B4FEEA4082C0100001202000031
310
0000006662782F39464131463745442D413632322D343644302D413938332D3331353338454246344243312F636F72652E786D6C8D515B6EC32010BC0AE2AB55850DD871ED0813254D72825EC00192A2C460F1A872FC42ED48ED5F7E00CDCECCCEB26C731F6FE05B39AFADE921293004CA082BB5B9F43086336A21D870E6AC
310
0D7F68109861543DCC30E4ECE26C9C164858139409093556AA051CBC570102714B8F1E7AF1A5C6A11862480C7F2DA6415C878B2A4891CA89C7990F2E050073937C42DE1DB7E4F87ED8A36D4329AA9B3D46DBAEAD504556557BD81DEBDD0761E52CE42C462D17B996298E3E6BE59E35C962CE821E1FF18553435012728A7187
310
0841987E927A8D9B35ADDF70BBC6989599FE4F1427F9A4286A132ABAC49D651EF234CD5CE04CDA78BA3DC2A8FB645D00B9DF8B57E215725C60BCA2A463E54C4CE327C7A65E1C7DB02E7DEFCBF594B864C5CA6CDBD49C957943E9FA5D5FBAF336F90F504B0304140006080800CC70623BAD7543B64E01000033030000300000
310
006662782F39464131463745442D413632322D343644302D413938332D3331353338454246344243312F636E782E786D6CD593CD6EC32010845F0571AD6CE3D48AD20813A9873E410FBD12D82434182C7EAAE6EDBB2424CD25871E7B41D6EC30B3FA84F9E67BB2E40B4234DE8DB46F1925E094D7C6ED479AD3AE5951B2113C
310
789FEE6C943839C1488B4C05DF079FE72A69D8C96C13AAD6B8631503449F83828872B949AC57D26200B826A308D316B4064D6E46FCDA41C05550DC9E483A00797BFD207EFB092A45DE9514C1BBD22178396BD39D891265658C238DEA00936C654E5E433CB65A26D9F6EDB5EBC14EBF49A45CB856E66048291F6939A9A81BB5
310
C8917738143CA680F4AA299D66A042CEB3354A2684DC9D8D178FE0D9B8B41CAAD720F880EE7EF93C0C18769E099ECC04D5A102C8049A8A05632F4DDF376CF1DE0F6BB65C2F8627B65A33C6BB62177CEBBDAD973006829F89F22E814B54F4BC2BE347F8AA8F681390B50FA73F804400B5F542E796F19FF974E7F78DB802FE05
310
E207504B0304140006080800CC70623B16AB87BA640500003C100000340000006662782F39464131463745442D413632322D343644302D413938332D3331353338454246344243312F6F626A656374732E786D6CAD575B6FA33818FD2B887DE6924B3BED8A326A92B68A663B534DD4D13E548A0C38942D60649B369D5FBFC7
310
600890A493BDE42160637FD7F31D7FF63E6FB3D478A55C242CBF3247B66B1A340F5994E4F19559CA8D75611A9F7D8F33263BCB4C232719BD32D5B4E97B316765A1A722BA21652A07B3B7B33F0D11D29C9A46981221AE4C113ED38CD8A4942CA2E2C58E882476BCD9DA23BB5ED8171B73523C0F841684D35CC252CCE79062D4
310
468DFA43D7747CCF51DF7D4FFDEB5593E3AB9CCA9FBEFE241792E4E19EB28198C968BAB8199F5D5A67D3E9C49A9E8F47D6EC76B6B0469F26EEFC7C3EBFBCBEB98462213924694B38DD98FE1D62C393D073EA4FADC5DAF04326852CCF6958F90F0F2B9BB5C48816348F90C7840A68EB78EDF68723159BCEE7891A6B95DDE9D3
310
BCEAEEE8086A6C6F9E5D4B59F0175C10A7A0820BAA5055C7473B5AE3CFDD452D602CD5DF12616444529E90D448938013FE6EFA58AA96F85E4F8C42275708571E98FE6827AF6B2B4AE3D7D83D64E5A64C53054DD3AF90BD06FEA9149565C94FCA0F6B834DC85599E4F2423B24DF0B6AFA979E534DFA9E7A4CC6FA631D486393
310
921829879BF5D781A373557BCB85E97FB90DB62B558F8795179C15944B051F40AB495CF35451D26A4727654E6D8033BD98EF82F21D91FF8AF2DD9982BCF1643BDD4EB516C9492E368C67C88DED563FC36D5EACF66DFF057C3658BDBFA69DF9578B3DA735B64F18C7F20770A9D45CFCF7FCF563D6456A277DBEF78A02637CA2
310
43B90A490AEAB94F72244481D24819A6C0E59B606BFA4B3025981DBB48EAB701D97BF19C577CC77F2D1B6C55A9EF3C732474C0B727303F625995056C3B02963D9EAC146BE78EC5FCEC7FA999EBC5EACBAAE41B12D27B4D2C0BBA49F244E2ECDC81B76B502F113D8F5EE8FB1BE3111CDD4FC2AA9B844CAB1288B68AB90A7CDC
310
1C166AB0D3DC5310625FCC14E779BFD0709F8890A629C9292B1B2DED31A4B0DA928CEE135085754027E3018A397D4D5427D15BD1330B677DC8934285AC3DF45A9EB68FF8F2B8FC0A509AFEECFD0FF2DE25CC6047F7214B195F07EFEB9A094D800F7BFAE8FED187B78EA8A3A400F115961BCAD1215E47C966530AF0EE8128FE
310
58CEBB996A8964FFA529A046635D9353B0336A8F700DDF46271A024E70B0B37C9DE01847591E54DED53D54202AB947E4076556AC49C6CA5C9E1226B7F1A7B1BE15DEED62C41B91E1B3E9AFAAA735036547343A925075041DF0A9979E893B391F8FCFA6967B3EFB644DCF6E5CEBFAE272625DCC6FAF3FB93793C5F90CE1EF57
310
407342756B10D1C489E8953CD1617E5CEECAD6F4EF8914CE5D5D504E5C3F1F9736DA62CFC11E00BCDDB8CC8A9466349744C1F75EBDA4DF09BA8A9E8C7A7E9991989E20E5DBDD6A6003664ED8F7A04A8DBE0DF6EAD9B9AA858342E47399053949D2C146EDB85DE4B176BB0965FBAC19BD19AA918E27FA50C1D22402E144464C
310
59462568E704B6E71915404CB72B8FF4EDE184DDAF753F284990D2C6926782963815403548A70C657FDEF80D2D9CEAA2AE4C1C76F60BFE74219A06527D6582DF6412526107381E55E353090704D085B52408D0933C4ED159D79BDA71BB4BC506F4831350EB6F979CD22D69BF7AC49B91A2C0A9DDA3D5CA36AD20FC478E37E6
310
1844E2352865EBCB6EA275A652E3836BE04EFB400BF1A2556F515F1FBB35B2AB35BD889C744FFA1004B5544B121E57F70215746DD2F5E2C1412B602CBF19455AC6C8E5E9922C4E01E65215385004546899059180EAFCF7A707CE7017CD8CDB0410789AB32C63B91E5CEBBBACB17AC6CD347A022D5075FD106377347AAABA7E
310
7D11590744509B44E205134DC1290F06580320F78E537D3D73540E06CB970B431F185308AD40BBD794D6D77003C5A36E8EAA54BA64597CD8F83BD552A080A365F7FF06504B0304140006080000CC70623B000000000000000000000000350000006662782F39464131463745442D413632322D343644302D413938332D3331
310
353338454246344243312F76657274696365732E62696E504B0304140006080800CC70623BF270F1330600000004000000360000006662782F39464131463745442D413632322D343644302D413938332D3331353338454246344243312F747269616E676C65732E62696E636660600000504B0304140006080000CC70623B
310
000000000000000000000000370000006662782F39464131463745442D413632322D343644302D413938332D3331353338454246344243312F617474726962757465732E62696E504B0304140006080800CC70623B08DA0BD19000000041010000360000006662782F39464131463745442D413632322D343644302D413938
310
332D3331353338454246344243312F6469726563746F72792E786D6C858F410AC3201045AF22B36F53E9A60B35CBEEBAE80D244E44489C6234F4F835464A48035D0DF398FF9F8AF63D0E6CC63039F212F8F9020C7D47C6792B21C5FE7403D62A1188E2E60C98D7234A5830286103A55745067B9D86B8A3CF9C7F90C11DE607
310
FB144396D7B6A82D282E9A152AD114D5EF2CB866EEE831B8EEA07A7BB5A8D7D61A2BAAEB7FD5F70921FF497D00504B0304140006080800CC70623B0D6EF93BFE000000A00100003B0000006662782F39464131463745442D413632322D343644302D413938332D3331353338454246344243312F7265736F75726365732F63
310
6F72652E786D6C8D50596E833010BD0A9ADFCA60B334011947A8694ED00B586642AC041B79A97AFC9A40A5F6AF3F33A3B7689E1E3F7DCD8FEC139DD7D6F4C0720A191A65476DA61E62B892236427C19DB5E1970C322367EC618541F0C9D9B8EC90B226A009093576C41D94DE63804C3DD2D18357379C652E63480A7FCF17A9
310
EE72C29CE5894E3AC17D702940B63D59270887DE46A7D0F36263058F518FBB468FE9A7BE6A7420864373B8D4873369AA8691FA421B3294352543C5CAF65C0F6FEF43CB8BD52C78D0F34F46E550061C419494B6843142CB0F5677F4B52BEB177AEC28E5C52AFF638ACBF84F53D42654E51E77B379102C05791282176B5F693D
310
CB4C7BED567C03504B010214000A0000080000CC70623B3DEE336E79000000790000001B00000000000000000000000000000000006175746F6465736B2D64657369676E2D7061636B6167652E786D6C504B01021400140006080800CC70623BD486FD9CA0000000F40000001300000000000000000000000000B20000005B
310
436F6E74656E745F54797065735D2E786D6C504B01021400140006080800CC70623B1EC5D7A3EB0000007C010000080000000000000000000000000083010000636F72652E786D6C504B01021400140006080800CC70623B55019EA25F0000007C000000070000000000000000000000000094020000636E782E786D6C504B
310
01021400140006080800CC70623B8C9102E971010000D40300000C00000000000000000000000000180300006662782F636F72652E786D6C504B01021400140006080800CC70623BFFEA85907E0000009D0000000B00000000000000000000000000B30400006662782F636E782E786D6C504B01021400140006080800CC70
310
623B4FEEA4082C0100001202000031000000000000000000000000005A0500006662782F39464131463745442D413632322D343644302D413938332D3331353338454246344243312F636F72652E786D6C504B01021400140006080800CC70623BAD7543B64E010000330300003000000000000000000000000000D5060000
310
6662782F39464131463745442D413632322D343644302D413938332D3331353338454246344243312F636E782E786D6C504B01021400140006080800CC70623B16AB87BA640500003C1000003400000000000000000000000000710800006662782F39464131463745442D413632322D343644302D413938332D3331353338
310
454246344243312F6F626A656374732E786D6C504B01021400140006080000CC70623B0000000000000000000000003500000000000000000000000000270E00006662782F39464131463745442D413632322D343644302D413938332D3331353338454246344243312F76657274696365732E62696E504B01021400140006
310
080800CC70623BF270F133060000000400000036000000000000000000000000007A0E00006662782F39464131463745442D413632322D343644302D413938332D3331353338454246344243312F747269616E676C65732E62696E504B01021400140006080000CC70623B0000000000000000000000003700000000000000
310
000000000000D40E00006662782F39464131463745442D413632322D343644302D413938332D3331353338454246344243312F617474726962757465732E62696E504B01021400140006080800CC70623B08DA0BD190000000410100003600000000000000000000000000290F00006662782F39464131463745442D413632
310
322D343644302D413938332D3331353338454246344243312F6469726563746F72792E786D6C504B01021400140006080800CC70623B0D6EF93BFE000000A00100003B000000000000000000000000000D1000006662782F39464131463745442D413632322D343644302D413938332D3331353338454246344243312F7265
310
736F75726365732F636F72652E786D6C504B0506000000000E000E0080040000641100000000
  0
XRECORD
  5
2F0
102
{ACAD_REACTORS
330
19
102
}
330
19
100
AcDbXrecord
280
     1
102
MATERIAL
148
0.0
149
0.0
149
0.0
 93
        0
 94
       63
282
     0
 72
     1
 77
     1
171
     1
175
     1
179
     1
273
     0
  0
XRECORD
  5
1A
102
{ACAD_REACTORS
330
19
102
}
330
19
100
AcDbXrecord
280
     1
270
     1
271
     1
  0
XRECORD
  5
1B
102
{ACAD_REACTORS
330
19
102
}
330
19
100
AcDbXrecord
280
     1
270
     1
271
     1
  0
XRECORD
  5
1C
102
{ACAD_REACTORS
330
19
102
}
330
19
100
AcDbXrecord
280
     1
 70
     0
 90
1673772943
  1
ECE7A1D2-D628-4531-984C-D00F80459256
310
504B03040A0000080000CC70623B3DEE336E79000000790000001B0000006175746F6465736B2D64657369676E2D7061636B6167652E786D6C3C3F786D6C2076657273696F6E3D22312E302220656E636F64696E673D227574662D3822203F3E3C666F726D6174733E3C666F726D61743E687474703A2F2F736368656D612E
310
6175746F6465736B2E636F6D2F64657369676E2D7061636B6167652F323030393C2F666F726D61743E3C2F666F726D6174733E504B0304140006080800CC70623BD486FD9CA0000000F4000000130000005B436F6E74656E745F54797065735D2E786D6C7D8EC10E82300C865F65E91D8A1E8C310C0EEA1BF002731658846E
310
D98AC1B77784ABF1D8FE5FBFBF75BBCE937A534CCEB38643598122B6FEE978D0B0485F9C41B54DDD7D022595594E1A469170414C76A4D9A4D207E29CF43ECE46F218070CC6BECC4078ACAA135ACF422C856C0E68EA1BF5669944DDD7BCDE7B1F8E415D77AECB980613C2E4AC91FC167A2B244592486606FC29C8FD7F045B9A
310
EF7053A7E60B504B0304140006080800CC70623BD9DDAED0EC0000007C01000008000000636F72652E786D6C8D90416EC3201045AF82665B61836D9CD8C2444DD39CA01740405C94182C03558F5F9C3852BBEB6A467FFE9B197D7EF89E6EE8CB2CC17A37002D0820E394D7D68D03A478C17B4007C117EFE32F1B20272733C0
310
2A83E0E3E2D3BC49CABB685CCCAAF3DA6CA20CC14440EA969B0182FA34932C648AD911AEC52CD5558EA6A0CF2EC329598D1E47ACCEFBECC59A050463A7EA5833865FEBDD0E37353BE3EE8DBDE3F6786A48D375FBF6CC78B9C282473B3DEFABC5C86834888A900E538A49F5419B9EB47DD5BC907D4F082F57FB1F28CDFA9F50
310
B22ED6D5F6EE030B20687EE43E10BC5CB3C8E51E54AE6B6EE207504B0304140006080800CC70623B55019EA25F0000007C00000007000000636E782E786D6C4DCB3B0E80201045D1AD90E915ED2CF8AC45050C11660C8261F98AB1B07AC9C97D42D718D865D3E909258CFD00CCE24AC6E326A164D74DC0B4128928FF326038
310
472BA13128B1252AC747C6BAB984FC68F0B87FE8960A5C09FE86CFB69FBA01504B0304140006080800CC70623BA24EB22D72010000D40300000C0000006662782F636F72652E786D6CC5535B6E833010BC8AE5DF0A6C5E49888CA3A6694ED00B38E05014B091B1518EDFE511A5A9D228FD2A1F60CDEC7A67C6986DCE4D8D7A
310
69BA4AAB0C073EC548AA5C17952A33ECECD15B61B4E1CC686DBF9561A44423333CC098B3D268D7CE50AE9595CA02AA74216750749DB418E5352C32DCE59FB211BE70162ABA93DF8AFC244AE9073ED050C759670D0840D390E18DF9F1706664C23973AE2A66B62A605A75ACA4C13C4976E1364A12EF355A2EBD384AF65EFA96
310
BC7B8BED2EA6719AAE16FB8491A199335B351775B991C2CA02F390D2D40B028F861F41BCA68B7518BFD0D59A524686F29B26D7164F36B94AD9289CE54E6D1DE6010819891F6E21228B3AD1831EC219194284CF98F06DD01008846CC5A1BEF83801D4CBDC6A1303536877A57A513B0953A94FC707FDBE6064EA84A9E3E6E0FA
310
EE8CF0E9198F7784A316AA0413C2C2F2E0ECA0934D1AE6D05A69BCDE9E91D2A611F573361E38FC1375157F5752AE6B6DFE4B11990F88CCBF0719EE23FF02504B0304140006080800CC70623B408A7D3B7C0000009D0000000B0000006662782F636E782E786D6C4DCCD10A83201886E15B91FFDC552A92A0064DBC8F581632
310
D3703A76F9ABD1C18E3E78F878E5F0D9027ABBFCF2292AE86E2D20171F69F6715550CB827B40839639A5F2770314A7CD293819B45C73AAFB45B35BA61ACAA1C1C7E7855C58C15BC331339661262CC762340413D68D77DA5B42298546CBE6573AF60CEB2F504B0304140006080800CC70623B449FB9BD290100001202000031
310
0000006662782F36394639363044362D344446342D343946362D394244322D3234314243333846323333332F636F72652E786D6C8D515B6EC32010BC0AE22B55850D98B871848994463E412FE002495162B07854397EA176A4F62F3F2C9A9D991D587EB84F37F0AD7D30CEF6905418026DA553C65E7A98E219ED203808EE9D
310
8B7F6810D871D23D2C3014FCE25D9A57483A1BB58D19B54EE9151C43D0110279CB971E06F9A5A7B11A53CC8C70ADE6515EC78BAE4895DB992778883E0700CB907242D17643D7E2538BD869608875438BBAE38922CAC8F1BDD90DB4691A5E2F42C153326A951B95E398B3D1FE599322163C9AE9115F7A3D46ADA0A018778810
310
84E907617BDCEE297BC5BB3DC6BC2EF47FA234AB2745C9D8D8D035EE220B50105E2F0DC1954B9FB747187D9F9D8FA0CCDB042D5FA0C015C65B42DF78BD10F3F3B363CB56C7109DCFDFBBB97E662ED92EB62D13BC2E1BCAE5777DB9966D8A1F504B0304140006080800CC70623BAD7543B64E01000033030000300000006662
310
782F36394639363044362D344446342D343946362D394244322D3234314243333846323333332F636E782E786D6CD593CD6EC32010845F0571AD6CE3D48AD20813A9873E410FBD12D82434182C7EAAE6EDBB2424CD25871E7B41D6EC30B3FA84F9E67BB2E40B4234DE8DB46F1925E094D7C6ED479AD3AE5951B2113C789FEE
310
6C943839C1488B4C05DF079FE72A69D8C96C13AAD6B8631503449F83828872B949AC57D26200B826A308D316B4064D6E46FCDA41C05550DC9E483A00797BFD207EFB092A45DE9514C1BBD22178396BD39D891265658C238DEA00936C654E5E433CB65A26D9F6EDB5EBC14EBF49A45CB856E66048291F6939A9A81BB5C89177
310
38143CA680F4AA299D66A042CEB3354A2684DC9D8D178FE0D9B8B41CAAD720F880EE7EF93C0C18769E099ECC04D5A102C8049A8A05632F4DDF376CF1DE0F6BB65C2F8627B65A33C6BB62177CEBBDAD973006829F89F22E814B54F4BC2BE347F8AA8F681390B50FA73F804400B5F542E796F19FF974E7F78DB802FE05E20750
310
4B0304140006080800CC70623B8D05915C650500003B100000340000006662782F36394639363044362D344446342D343946362D394244322D3234314243333846323333332F6F626A656374732E786D6CAD575B6FA33814FE2B887D06429276DA1565D4266D158D3A339A6846FB502932E050B66023DB74D2FDF5FB190C01
310
9276B2973C046C8ECFF53B17071F77456EBD502133CEAE6CDF9DD81665314F32965ED995DA3A17B6F5310C04E7AA47665B8C14F4CAD6DB7618A48257A5D94AE89654B91AEDDEDDFC61C998326A5B714EA4BCB265FC440BE2924AF184CA6737218AB8E976E7FA6E4338649B0A523E8D98964450A6A029F619B8588D52FE7039
310
B1BD30F0F4F730D0FF866AF6369557DB33949F31A9088B0F848DD8CCFCF9F2767A76E99CCDE733677E3EF59D9BBB9BA5E37F984D16E78BC5E5F5ED25044B25C0C96822E8D60EEFE11B91C581D77CEA34368A1F5329E68CD1B8B61F16D63A1B8E092D294B10C78C4A48EB593D192E7DED9BDEE7995E1B91FDEDD3ACEA9FE831
310
6A756F9F7D4D79F4274C90A7A04248AA51D5F8C718DAE06FB2F75AC4796EBE65D22A88A22223B995679120E2D50E41AA49C260C046A35368846B0BECD0DFF3EBEB8AD4F835768F69B9ADF25C43D30E6B646F807FAA64AD59F61715C7A54127C4AACA98BA3006A9D792DAE165E0D59B61A01FB3A9F9D838D2DAE62445C86166
310
F37564E842E7DE6A69879FEEA2DD5AE7E371E1A5E025154AC307D06A03D73EB5978C58FFA4C8E9033066E0F3BD53BEC1F39F91BE7B55103791EDE6BBB991A2046172CB4581D8B893FA674DDA17A77B3B7C413D1B511FD2743BFF8A38F03A658705E3ADF8015C3A3417FF3D7E439FF591DA0B5F18BC20C1B8981957AE6392A3
310
F43C640C01D1A0B4728E2DD4F26DB4B3C3152A252A3B4E913CEC1C72F012782FF88EFF8637AA552DBEF76408E8A8DE9E50F9E1CB3A2DA0DB1B6039A893B56063DC5B3E3FFB5F72E67AB9FEB4AEC496C4F4C1149625DD662C53E89D7BF0F6151A046260D1337DFDC94502430F83B0EE07A130A224BCAD7DAE1D9FB6CD422FF6
310
920702629C4BB9AE79C12F243C6432A6794E18E5552BA56B431AAB5D91317302B2B071E86C3A42B1A02F999E24061403B5D0EB639195DA655DD3EBEAB4FB862DDF579F014AD0E73C22F99E28DA57FB98E75C6CA2D74D53086D600F4786E0FE3144B771A8A7B900F03594DB8A633CBC49B2EDB69228BB479CF863B5E807AAAB
310
23872F6DFEB4129B949CA33823F58830E86D65621E10047D9DB34D862E8EAC3C2ABC2F7B2C40D67CDFE01F5545B92105AF983AC54D93D69E56FB8E797F88913F898A9FEC705D3F9D1B54EC8426FB500D40A03BD0119B06E1B95DDC7EB8F6975367793EBD70E66733DFB9BC982F9CE564727731999F5D4ECFCE3B8D6A4DC2A0
310
6D50FD148437D110834A64C6CDDF57FBACB5C307A2A477DFE4939736CFEF2B175371E0E10CF0DD1D5C15654E0BCA14D1E87DD02FF93782A162C0A3D95F1524A52770F972BF1EE9809D13CE7DD599467F8ECE9ADD85CE85A34CD45355448C64F9E8A031DC2D596ACC6E5DD93D9B82DE2EF5CAF81363A8E47996A0DE24564A79
310
4115AACE09C55E14540231FDA13C319787134EBF34E3A022514E5B4D9E0826E25C02D5805B15ABE1BEF51B26383D445DD9E875EE33FE4C22DA16427D65A3BCA92CA6D28DD01DF5DC53330704308475351050232CCD31583787BA75774AFB06E5070DD0C8EF484E19968C5D83BA5B90B244D31E54D55A372320FE4786B7EA58
310
44E135AA5467CB7EA333A61683CC6A8C3257034C10CF46F40EF9F5BE59BE5BD30C3C72D235E95D10345C1D45445A5F0BB47E46A5EBE5570F9380B5FA629579952296A773720405982B9DE04011506178964401AA8BDF1FBF0A8EAB6861DD6580C0E38217056766716DAEB2D6FA0917D3E4116581EADB879C4E7CFFB11EFACD
310
3D641311495D92C8676CB409A72D18610D803CE8A626049E8EC1887CB5B44CC39883690DDA8399B4B9855B481E7D71D4A9D22F96E5BB73BF5793020C02137BF837504B0304140006080000CC70623B000000000000000000000000350000006662782F36394639363044362D344446342D343946362D394244322D32343142
310
43333846323333332F76657274696365732E62696E504B0304140006080800CC70623BF270F1330600000004000000360000006662782F36394639363044362D344446342D343946362D394244322D3234314243333846323333332F747269616E676C65732E62696E636660600000504B0304140006080000CC70623B0000
310
00000000000000000000370000006662782F36394639363044362D344446342D343946362D394244322D3234314243333846323333332F617474726962757465732E62696E504B0304140006080800CC70623B08DA0BD19000000041010000360000006662782F36394639363044362D344446342D343946362D394244322D
310
3234314243333846323333332F6469726563746F72792E786D6C858F410AC3201045AF22B36F53E9A60B35CBEEBAE80D244E44489C6234F4F835464A48035D0DF398FF9F8AF63D0E6CC63039F212F8F9020C7D47C6792B21C5FE7403D62A1188E2E60C98D7234A5830286103A55745067B9D86B8A3CF9C7F90C11DE607FB14
310
4396D7B6A82D282E9A152AD114D5EF2CB866EEE831B8EEA07A7BB5A8D7D61A2BAAEB7FD5F70921FF497D00504B0304140006080800CC70623BCA768048FE000000A00100003B0000006662782F36394639363044362D344446342D343946362D394244322D3234314243333846323333332F7265736F75726365732F636F72
310
652E786D6C8D50596E833010BD0A9ADFCA60D600328E9AA639412F609909B1126CE4A5EAF16B0295DABFFECC8CDEA2797AECF8353F924FB44E193D409E5248504B332A3D0D10FC95B4901C39B3C6F85F3248B49871801506CE266BC2B243D2688FDA47549B11775038871E12F988C7004EDE7016A9083E2ADC3D5D84BC8B09
310
D33C8D74D471E6BC8D0192EDC93A815B742658898E651BCB59086ADC356A8C3FD555A1055ED7E7E254D615792D0F075295F585746FF53B694EE78A565DD736979A65AB9933AFE69F8CD2A2F038022F28ED489E135A7CE4554F9BBEA85E68DB53CAB255FEC71496F19FA6A0B42F8B3DEE6673C0F318E4497096AD7DC5F52C33
310
EEB55BFE0D504B010214000A0000080000CC70623B3DEE336E79000000790000001B00000000000000000000000000000000006175746F6465736B2D64657369676E2D7061636B6167652E786D6C504B01021400140006080800CC70623BD486FD9CA0000000F40000001300000000000000000000000000B20000005B436F
310
6E74656E745F54797065735D2E786D6C504B01021400140006080800CC70623BD9DDAED0EC0000007C010000080000000000000000000000000083010000636F72652E786D6C504B01021400140006080800CC70623B55019EA25F0000007C000000070000000000000000000000000095020000636E782E786D6C504B0102
310
1400140006080800CC70623BA24EB22D72010000D40300000C00000000000000000000000000190300006662782F636F72652E786D6C504B01021400140006080800CC70623B408A7D3B7C0000009D0000000B00000000000000000000000000B50400006662782F636E782E786D6C504B01021400140006080800CC70623B
310
449FB9BD290100001202000031000000000000000000000000005A0500006662782F36394639363044362D344446342D343946362D394244322D3234314243333846323333332F636F72652E786D6C504B01021400140006080800CC70623BAD7543B64E010000330300003000000000000000000000000000D20600006662
310
782F36394639363044362D344446342D343946362D394244322D3234314243333846323333332F636E782E786D6C504B01021400140006080800CC70623B8D05915C650500003B10000034000000000000000000000000006E0800006662782F36394639363044362D344446342D343946362D394244322D32343142433338
310
46323333332F6F626A656374732E786D6C504B01021400140006080000CC70623B0000000000000000000000003500000000000000000000000000250E00006662782F36394639363044362D344446342D343946362D394244322D3234314243333846323333332F76657274696365732E62696E504B010214001400060808
310
00CC70623BF270F13306000000040000003600000000000000000000000000780E00006662782F36394639363044362D344446342D343946362D394244322D3234314243333846323333332F747269616E676C65732E62696E504B01021400140006080000CC70623B00000000000000000000000037000000000000000000
310
00000000D20E00006662782F36394639363044362D344446342D343946362D394244322D3234314243333846323333332F617474726962757465732E62696E504B01021400140006080800CC70623B08DA0BD190000000410100003600000000000000000000000000270F00006662782F36394639363044362D344446342D
310
343946362D394244322D3234314243333846323333332F6469726563746F72792E786D6C504B01021400140006080800CC70623BCA768048FE000000A00100003B000000000000000000000000000B1000006662782F36394639363044362D344446342D343946362D394244322D3234314243333846323333332F7265736F
310
75726365732F636F72652E786D6C504B0506000000000E000E0080040000621100000000
  0
XRECORD
  5
1D
102
{ACAD_REACTORS
330
19
102
}
330
19
100
AcDbXrecord
280
     1
270
     1
271
     1
  0
XRECORD
  5
1E
102
{ACAD_REACTORS
330
19
102
}
330
19
100
AcDbXrecord
280
     1
270
     1
271
     1
  0
XRECORD
  5
302
102
{ACAD_REACTORS
330
296
102
}
330
296
100
AcDbXrecord
280
     1
102
DISPLAYNAME
  1
Imperial24
102
FLAGS
 90
        0
  0
XRECORD
  5
303
102
{ACAD_REACTORS
330
299
102
}
330
299
100
AcDbXrecord
280
     1
102
DISPLAYNAME
  1
Metric50
102
FLAGS
 90
        0
  0
CELLSTYLEMAP
  5
2DE
102
{ACAD_REACTORS
330
46
102
}
330
46
100
AcDbCellStyleMap
 90
        3
300
CELLSTYLE
  1
TABLEFORMAT_BEGIN
 90
        5
170
     1
 91
        0
 92
    32768
 62
   257
 93
        1
300
CONTENTFORMAT
  1
CONTENTFORMAT_BEGIN
 90
        0
 91
        0
 92
      512
 93
        0
300

 40
0.0
140
1.0
 94
        5
 62
     0
340
24
144
6.0
309
CONTENTFORMAT_END
171
     1
301
MARGIN
  1
CELLMARGIN_BEGIN
 40
1.5
 40
1.5
 40
1.5
 40
1.5
 40
4.5
 40
4.5
309
CELLMARGIN_END
 94
        6
 95
        1
302
GRIDFORMAT
  1
GRIDFORMAT_BEGIN
 90
        0
 91
        1
 62
     0
 92
       -2
340
27
 93
        0
 40
1.125
309
GRIDFORMAT_END
 95
        2
302
GRIDFORMAT
  1
GRIDFORMAT_BEGIN
 90
        0
 91
        1
 62
     0
 92
       -2
340
27
 93
        0
 40
1.125
309
GRIDFORMAT_END
 95
        4
302
GRIDFORMAT
  1
GRIDFORMAT_BEGIN
 90
        0
 91
        1
 62
     0
 92
       -2
340
27
 93
        0
 40
1.125
309
GRIDFORMAT_END
 95
        8
302
GRIDFORMAT
  1
GRIDFORMAT_BEGIN
 90
        0
 91
        1
 62
     0
 92
       -2
340
27
 93
        0
 40
1.125
309
GRIDFORMAT_END
 95
       16
302
GRIDFORMAT
  1
GRIDFORMAT_BEGIN
 90
        0
 91
        1
 62
     0
 92
       -2
340
27
 93
        0
 40
1.125
309
GRIDFORMAT_END
 95
       32
302
GRIDFORMAT
  1
GRIDFORMAT_BEGIN
 90
        0
 91
        1
 62
     0
 92
       -2
340
27
 93
        0
 40
1.125
309
GRIDFORMAT_END
309
TABLEFORMAT_END
  1
CELLSTYLE_BEGIN
 90
        1
 91
        1
300
_TITLE
309
CELLSTYLE_END
300
CELLSTYLE
  1
TABLEFORMAT_BEGIN
 90
        5
170
     1
 91
        0
 92
        0
 62
   257
 93
        1
300
CONTENTFORMAT
  1
CONTENTFORMAT_BEGIN
 90
        0
 91
        0
 92
      512
 93
        0
300

 40
0.0
140
1.0
 94
        5
 62
     0
340
24
144
4.5
309
CONTENTFORMAT_END
171
     1
301
MARGIN
  1
CELLMARGIN_BEGIN
 40
1.5
 40
1.5
 40
1.5
 40
1.5
 40
4.5
 40
4.5
309
CELLMARGIN_END
 94
        6
 95
        1
302
GRIDFORMAT
  1
GRIDFORMAT_BEGIN
 90
        0
 91
        1
 62
     0
 92
       -2
340
27
 93
        0
 40
1.125
309
GRIDFORMAT_END
 95
        2
302
GRIDFORMAT
  1
GRIDFORMAT_BEGIN
 90
        0
 91
        1
 62
     0
 92
       -2
340
27
 93
        0
 40
1.125
309
GRIDFORMAT_END
 95
        4
302
GRIDFORMAT
  1
GRIDFORMAT_BEGIN
 90
        0
 91
        1
 62
     0
 92
       -2
340
27
 93
        0
 40
1.125
309
GRIDFORMAT_END
 95
        8
302
GRIDFORMAT
  1
GRIDFORMAT_BEGIN
 90
        0
 91
        1
 62
     0
 92
       -2
340
27
 93
        0
 40
1.125
309
GRIDFORMAT_END
 95
       16
302
GRIDFORMAT
  1
GRIDFORMAT_BEGIN
 90
        0
 91
        1
 62
     0
 92
       -2
340
27
 93
        0
 40
1.125
309
GRIDFORMAT_END
 95
       32
302
GRIDFORMAT
  1
GRIDFORMAT_BEGIN
 90
        0
 91
        1
 62
     0
 92
       -2
340
27
 93
        0
 40
1.125
309
GRIDFORMAT_END
309
TABLEFORMAT_END
  1
CELLSTYLE_BEGIN
 90
        2
 91
        1
300
_HEADER
309
CELLSTYLE_END
300
CELLSTYLE
  1
TABLEFORMAT_BEGIN
 90
        5
170
     1
 91
        0
 92
        0
 62
   257
 93
        1
300
CONTENTFORMAT
  1
CONTENTFORMAT_BEGIN
 90
        0
 91
        0
 92
      512
 93
        0
300

 40
0.0
140
1.0
 94
        2
 62
     0
340
24
144
4.5
309
CONTENTFORMAT_END
171
     1
301
MARGIN
  1
CELLMARGIN_BEGIN
 40
1.5
 40
1.5
 40
1.5
 40
1.5
 40
4.5
 40
4.5
309
CELLMARGIN_END
 94
        6
 95
        1
302
GRIDFORMAT
  1
GRIDFORMAT_BEGIN
 90
        0
 91
        1
 62
     0
 92
       -2
340
27
 93
        0
 40
1.125
309
GRIDFORMAT_END
 95
        2
302
GRIDFORMAT
  1
GRIDFORMAT_BEGIN
 90
        0
 91
        1
 62
     0
 92
       -2
340
27
 93
        0
 40
1.125
309
GRIDFORMAT_END
 95
        4
302
GRIDFORMAT
  1
GRIDFORMAT_BEGIN
 90
        0
 91
        1
 62
     0
 92
       -2
340
27
 93
        0
 40
1.125
309
GRIDFORMAT_END
 95
        8
302
GRIDFORMAT
  1
GRIDFORMAT_BEGIN
 90
        0
 91
        1
 62
     0
 92
       -2
340
27
 93
        0
 40
1.125
309
GRIDFORMAT_END
 95
       16
302
GRIDFORMAT
  1
GRIDFORMAT_BEGIN
 90
        0
 91
        1
 62
     0
 92
       -2
340
27
 93
        0
 40
1.125
309
GRIDFORMAT_END
 95
       32
302
GRIDFORMAT
  1
GRIDFORMAT_BEGIN
 90
        0
 91
        1
 62
     0
 92
       -2
340
27
 93
        0
 40
1.125
309
GRIDFORMAT_END
309
TABLEFORMAT_END
  1
CELLSTYLE_BEGIN
 90
        3
 91
        2
300
_DATA
309
CELLSTYLE_END
  0
XRECORD
  5
2FB
102
{ACAD_REACTORS
330
46
102
}
330
46
100
AcDbXrecord
280
     1
102
ACAD_ROUNDTRIP_PRE2007_TABLESTYLE
 90
      512
 91
        0
  1

 92
      512
 93
        0
  2

 94
      512
 95
        0
  3

  0
XRECORD
  5
2F2
102
{ACAD_REACTORS
330
2F1
102
}
330
2F1
100
AcDbXrecord
280
     1
102
RTVSPost2010Prop28
280
     1
102
RTVSPost2010PropOp28
 70
     1
102
RTVSPost2010Prop29
280
     1
102
RTVSPost2010PropOp29
 70
     1
102
RTVSPost2010Prop30
280
     0
102
RTVSPost2010PropOp30
 70
     1
102
RTVSPost2010Prop31
280
     0
102
RTVSPost2010PropOp31
 70
     1
102
RTVSPost2010Prop32
280
     0
102
RTVSPost2010PropOp32
 70
     1
102
RTVSPost2010Prop33
280
     0
102
RTVSPost2010PropOp33
 70
     1
102
RTVSPost2010Prop34
280
     0
102
RTVSPost2010PropOp34
 70
     1
102
RTVSPost2010Prop35
280
     0
102
RTVSPost2010PropOp35
 70
     1
102
RTVSPost2010Prop36
280
     0
102
RTVSPost2010PropOp36
 70
     1
102
RTVSPost2010Prop37
 90
       50
102
RTVSPost2010PropOp37
 70
     1
102
RTVSPost2010Prop38
140
0.0
102
RTVSPost2010PropOp38
 70
     1
102
RTVSPost2010Prop39
140
1.0
102
RTVSPost2010PropOp39
 70
     1
102
RTVSPost2010Prop40
 90
        0
102
RTVSPost2010PropOp40
 70
     1
102
RTVSPost2010Prop41ColorIndex
 90
       18
102
RTVSPost2010Prop41ColorRGB
 90
        0
102
RTVSPost2010PropOp41
 70
     1
102
RTVSPost2010Prop42
 90
       50
102
RTVSPost2010PropOp42
 70
     1
102
RTVSPost2010Prop43
 90
        3
102
RTVSPost2010PropOp43
 70
     1
102
RTVSPost2010Prop44ColorIndex
 90
        5
102
RTVSPost2010Prop44ColorRGB
 90
      255
102
RTVSPost2010PropOp44
 70
     1
102
RTVSPost2010Prop45
280
     0
102
RTVSPost2010PropOp45
 70
     1
102
RTVSPost2010Prop46
 90
       50
102
RTVSPost2010PropOp46
 70
     1
102
RTVSPost2010Prop47
 90
       50
102
RTVSPost2010PropOp47
 70
     1
102
RTVSPost2010Prop48
 90
       50
102
RTVSPost2010PropOp48
 70
     1
102
RTVSPost2010Prop49
280
     0
102
RTVSPost2010PropOp49
 70
     1
102
RTVSPost2010Prop50
 90
       50
102
RTVSPost2010PropOp50
 70
     1
102
RTVSPost2010Prop51ColorIndex
 90
      256
102
RTVSPost2010Prop51ColorRGB
 90
-16777216
102
RTVSPost2010PropOp51
 70
     0
102
RTVSPost2010Prop52
140
1.0
102
RTVSPost2010PropOp52
 70
     0
102
RTVSPost2010Prop53
 90
        2
102
RTVSPost2010PropOp53
 70
     1
102
RTVSPost2010Prop54
  1
strokes_ogs.tif
102
RTVSPost2010PropOp54
 70
     1
102
RTVSPost2010Prop55
280
     0
102
RTVSPost2010PropOp55
 70
     1
102
RTVSPost2010Prop56
140
1.0
102
RTVSPost2010PropOp56
 70
     1
102
RTVSPost2010Prop57
140
1.0
102
RTVSPost2010PropOp57
 70
     1
102
RTVSPropertyOp0
 70
     1
102
RTVSPropertyOp1
 70
     1
102
RTVSPropertyOp2
 70
     1
102
RTVSPropertyOp3
 70
     1
102
RTVSPropertyOp4
 70
     1
102
RTVSPropertyOp5
 70
     1
102
RTVSPropertyOp6
 70
     1
102
RTVSPropertyOp7
 70
     1
102
RTVSPropertyOp8
 70
     1
102
RTVSPropertyOp9
 70
     1
102
RTVSPropertyOp10
 70
     1
102
RTVSPropertyOp11
 70
     1
102
RTVSPropertyOp12
 70
     1
102
RTVSPropertyOp13
 70
     1
102
RTVSPropertyOp14
 70
     1
102
RTVSPropertyOp15
 70
     1
102
RTVSPropertyOp16
 70
     1
102
RTVSPropertyOp17
 70
     1
102
RTVSPropertyOp18
 70
     1
102
RTVSPropertyOp19
 70
     1
102
RTVSPropertyOp20
 70
     1
102
RTVSPropertyOp21
 70
     1
102
RTVSPropertyOp22
 70
     1
102
RTVSPropertyOp23
 70
     1
102
RTVSPropertyOp24
 70
     1
102
RTVSPropertyOp25
 70
     1
102
RTVSPropertyOp26
 70
     1
102
RTVSPropertyOp27
 70
     1
102
RTVSPropertyOp28
 70
     1
102
RTVSPropertyOp29
 70
     1
102
RTVSPropertyOp30
 70
     1
102
RTVSPropertyOp31
 70
     1
102
RTVSPropertyOp32
 70
     1
102
RTVSPropertyOp33
 70
     1
102
RTVSPropertyOp34
 70
     1
102
RTVSPropertyOp35
 70
     1
102
RTVSPropertyOp36
 70
     1
102
RTVSPropertyOp37
 70
     1
102
RTVSPropertyOp38
 70
     1
102
RTVSPropertyOp39
 70
     1
102
RTVSPropertyOp40
 70
     1
102
RTVSPropertyOp41
 70
     1
102
RTVSPropertyOp42
 70
     1
102
RTVSPropertyOp43
 70
     1
102
RTVSPropertyOp44
 70
     1
102
RTVSPropertyOp45
 70
     1
102
RTVSPropertyOp46
 70
     1
102
RTVSPropertyOp47
 70
     1
102
RTVSPropertyOp48
 70
     1
102
RTVSPropertyOp49
 70
     1
102
RTVSPropertyOp50
 70
     1
102
RTVSPropertyOp51
 70
     0
102
RTVSPropertyOp52
 70
     0
102
RTVSPropertyOp53
 70
     1
102
RTVSPropertyOp54
 70
     1
102
RTVSPropertyOp55
 70
     1
102
RTVSPropertyOp56
 70
     1
102
RTVSPropertyOp57
 70
     1
102
RTVSPropertyOp58
 70
     1
102
RTVSPropertyOp59
 70
     1
102
RTVSPropertyOp60
 70
     1
102
RTVSPropertyOp61
 70
     1
102
RTVSPropertyOp62
 70
     1
  0
XRECORD
  5
2FD
102
{ACAD_REACTORS
330
2FC
102
}
330
2FC
100
AcDbXrecord
280
     1
102
RTVSPost2010Prop28
280
     0
102
RTVSPost2010PropOp28
 70
     1
102
RTVSPost2010Prop29
280
     1
102
RTVSPost2010PropOp29
 70
     1
102
RTVSPost2010Prop30
280
     1
102
RTVSPost2010PropOp30
 70
     1
102
RTVSPost2010Prop31
280
     0
102
RTVSPost2010PropOp31
 70
     1
102
RTVSPost2010Prop32
280
     0
102
RTVSPost2010PropOp32
 70
     1
102
RTVSPost2010Prop33
280
     0
102
RTVSPost2010PropOp33
 70
     1
102
RTVSPost2010Prop34
280
     0
102
RTVSPost2010PropOp34
 70
     1
102
RTVSPost2010Prop35
280
     0
102
RTVSPost2010PropOp35
 70
     1
102
RTVSPost2010Prop36
280
     0
102
RTVSPost2010PropOp36
 70
     1
102
RTVSPost2010Prop37
 90
       50
102
RTVSPost2010PropOp37
 70
     1
102
RTVSPost2010Prop38
140
0.0
102
RTVSPost2010PropOp38
 70
     1
102
RTVSPost2010Prop39
140
1.0
102
RTVSPost2010PropOp39
 70
     1
102
RTVSPost2010Prop40
 90
        0
102
RTVSPost2010PropOp40
 70
     1
102
RTVSPost2010Prop41ColorIndex
 90
       18
102
RTVSPost2010Prop41ColorRGB
 90
        0
102
RTVSPost2010PropOp41
 70
     1
102
RTVSPost2010Prop42
 90
       50
102
RTVSPost2010PropOp42
 70
     1
102
RTVSPost2010Prop43
 90
        3
102
RTVSPost2010PropOp43
 70
     1
102
RTVSPost2010Prop44ColorIndex
 90
        5
102
RTVSPost2010Prop44ColorRGB
 90
      255
102
RTVSPost2010PropOp44
 70
     1
102
RTVSPost2010Prop45
280
     0
102
RTVSPost2010PropOp45
 70
     1
102
RTVSPost2010Prop46
 90
       50
102
RTVSPost2010PropOp46
 70
     1
102
RTVSPost2010Prop47
 90
       50
102
RTVSPost2010PropOp47
 70
     1
102
RTVSPost2010Prop48
 90
       50
102
RTVSPost2010PropOp48
 70
     1
102
RTVSPost2010Prop49
280
     0
102
RTVSPost2010PropOp49
 70
     1
102
RTVSPost2010Prop50
 90
       50
102
RTVSPost2010PropOp50
 70
     1
102
RTVSPost2010Prop51ColorIndex
 90
      256
102
RTVSPost2010Prop51ColorRGB
 90
-16777216
102
RTVSPost2010PropOp51
 70
     0
102
RTVSPost2010Prop52
140
1.0
102
RTVSPost2010PropOp52
 70
     0
102
RTVSPost2010Prop53
 90
        2
102
RTVSPost2010PropOp53
 70
     1
102
RTVSPost2010Prop54
  1
strokes_ogs.tif
102
RTVSPost2010PropOp54
 70
     1
102
RTVSPost2010Prop55
280
     0
102
RTVSPost2010PropOp55
 70
     1
102
RTVSPost2010Prop56
140
1.0
102
RTVSPost2010PropOp56
 70
     1
102
RTVSPost2010Prop57
140
1.0
102
RTVSPost2010PropOp57
 70
     1
102
RTVSPropertyOp0
 70
     1
102
RTVSPropertyOp1
 70
     1
102
RTVSPropertyOp2
 70
     1
102
RTVSPropertyOp3
 70
     1
102
RTVSPropertyOp4
 70
     1
102
RTVSPropertyOp5
 70
     1
102
RTVSPropertyOp6
 70
     1
102
RTVSPropertyOp7
 70
     1
102
RTVSPropertyOp8
 70
     1
102
RTVSPropertyOp9
 70
     1
102
RTVSPropertyOp10
 70
     1
102
RTVSPropertyOp11
 70
     1
102
RTVSPropertyOp12
 70
     1
102
RTVSPropertyOp13
 70
     1
102
RTVSPropertyOp14
 70
     1
102
RTVSPropertyOp15
 70
     1
102
RTVSPropertyOp16
 70
     1
102
RTVSPropertyOp17
 70
     1
102
RTVSPropertyOp18
 70
     1
102
RTVSPropertyOp19
 70
     1
102
RTVSPropertyOp20
 70
     1
102
RTVSPropertyOp21
 70
     1
102
RTVSPropertyOp22
 70
     1
102
RTVSPropertyOp23
 70
     1
102
RTVSPropertyOp24
 70
     1
102
RTVSPropertyOp25
 70
     1
102
RTVSPropertyOp26
 70
     1
102
RTVSPropertyOp27
 70
     1
102
RTVSPropertyOp28
 70
     1
102
RTVSPropertyOp29
 70
     1
102
RTVSPropertyOp30
 70
     1
102
RTVSPropertyOp31
 70
     1
102
RTVSPropertyOp32
 70
     1
102
RTVSPropertyOp33
 70
     1
102
RTVSPropertyOp34
 70
     1
102
RTVSPropertyOp35
 70
     1
102
RTVSPropertyOp36
 70
     1
102
RTVSPropertyOp37
 70
     1
102
RTVSPropertyOp38
 70
     1
102
RTVSPropertyOp39
 70
     1
102
RTVSPropertyOp40
 70
     1
102
RTVSPropertyOp41
 70
     1
102
RTVSPropertyOp42
 70
     1
102
RTVSPropertyOp43
 70
     1
102
RTVSPropertyOp44
 70
     1
102
RTVSPropertyOp45
 70
     1
102
RTVSPropertyOp46
 70
     1
102
RTVSPropertyOp47
 70
     1
102
RTVSPropertyOp48
 70
     1
102
RTVSPropertyOp49
 70
     1
102
RTVSPropertyOp50
 70
     1
102
RTVSPropertyOp51
 70
     0
102
RTVSPropertyOp52
 70
     0
102
RTVSPropertyOp53
 70
     1
102
RTVSPropertyOp54
 70
     1
102
RTVSPropertyOp55
 70
     1
102
RTVSPropertyOp56
 70
     1
102
RTVSPropertyOp57
 70
     1
102
RTVSPropertyOp58
 70
     1
102
RTVSPropertyOp59
 70
     1
102
RTVSPropertyOp60
 70
     1
102
RTVSPropertyOp61
 70
     1
102
RTVSPropertyOp62
 70
     1
  0
XRECORD
  5
2FF
102
{ACAD_REACTORS
330
2FE
102
}
330
2FE
100
AcDbXrecord
280
     1
102
RTVSPost2010Prop28
280
     0
102
RTVSPost2010PropOp28
 70
     1
102
RTVSPost2010Prop29
280
     1
102
RTVSPost2010PropOp29
 70
     1
102
RTVSPost2010Prop30
280
     1
102
RTVSPost2010PropOp30
 70
     1
102
RTVSPost2010Prop31
280
     0
102
RTVSPost2010PropOp31
 70
     1
102
RTVSPost2010Prop32
280
     0
102
RTVSPost2010PropOp32
 70
     1
102
RTVSPost2010Prop33
280
     0
102
RTVSPost2010PropOp33
 70
     1
102
RTVSPost2010Prop34
280
     0
102
RTVSPost2010PropOp34
 70
     1
102
RTVSPost2010Prop35
280
     0
102
RTVSPost2010PropOp35
 70
     1
102
RTVSPost2010Prop36
280
     0
102
RTVSPost2010PropOp36
 70
     1
102
RTVSPost2010Prop37
 90
       50
102
RTVSPost2010PropOp37
 70
     1
102
RTVSPost2010Prop38
140
0.0
102
RTVSPost2010PropOp38
 70
     1
102
RTVSPost2010Prop39
140
1.0
102
RTVSPost2010PropOp39
 70
     1
102
RTVSPost2010Prop40
 90
        0
102
RTVSPost2010PropOp40
 70
     1
102
RTVSPost2010Prop41ColorIndex
 90
       18
102
RTVSPost2010Prop41ColorRGB
 90
        0
102
RTVSPost2010PropOp41
 70
     1
102
RTVSPost2010Prop42
 90
       50
102
RTVSPost2010PropOp42
 70
     1
102
RTVSPost2010Prop43
 90
        3
102
RTVSPost2010PropOp43
 70
     1
102
RTVSPost2010Prop44ColorIndex
 90
        5
102
RTVSPost2010Prop44ColorRGB
 90
      255
102
RTVSPost2010PropOp44
 70
     1
102
RTVSPost2010Prop45
280
     0
102
RTVSPost2010PropOp45
 70
     1
102
RTVSPost2010Prop46
 90
       50
102
RTVSPost2010PropOp46
 70
     1
102
RTVSPost2010Prop47
 90
       50
102
RTVSPost2010PropOp47
 70
     1
102
RTVSPost2010Prop48
 90
       50
102
RTVSPost2010PropOp48
 70
     1
102
RTVSPost2010Prop49
280
     0
102
RTVSPost2010PropOp49
 70
     1
102
RTVSPost2010Prop50
 90
       50
102
RTVSPost2010PropOp50
 70
     1
102
RTVSPost2010Prop51ColorIndex
 90
      256
102
RTVSPost2010Prop51ColorRGB
 90
-16777216
102
RTVSPost2010PropOp51
 70
     0
102
RTVSPost2010Prop52
140
1.0
102
RTVSPost2010PropOp52
 70
     0
102
RTVSPost2010Prop53
 90
        2
102
RTVSPost2010PropOp53
 70
     1
102
RTVSPost2010Prop54
  1
strokes_ogs.tif
102
RTVSPost2010PropOp54
 70
     1
102
RTVSPost2010Prop55
280
     0
102
RTVSPost2010PropOp55
 70
     1
102
RTVSPost2010Prop56
140
1.0
102
RTVSPost2010PropOp56
 70
     1
102
RTVSPost2010Prop57
140
1.0
102
RTVSPost2010PropOp57
 70
     1
102
RTVSPropertyOp0
 70
     1
102
RTVSPropertyOp1
 70
     1
102
RTVSPropertyOp2
 70
     1
102
RTVSPropertyOp3
 70
     1
102
RTVSPropertyOp4
 70
     1
102
RTVSPropertyOp5
 70
     1
102
RTVSPropertyOp6
 70
     1
102
RTVSPropertyOp7
 70
     1
102
RTVSPropertyOp8
 70
     1
102
RTVSPropertyOp9
 70
     1
102
RTVSPropertyOp10
 70
     1
102
RTVSPropertyOp11
 70
     1
102
RTVSPropertyOp12
 70
     1
102
RTVSPropertyOp13
 70
     1
102
RTVSPropertyOp14
 70
     1
102
RTVSPropertyOp15
 70
     1
102
RTVSPropertyOp16
 70
     1
102
RTVSPropertyOp17
 70
     1
102
RTVSPropertyOp18
 70
     1
102
RTVSPropertyOp19
 70
     1
102
RTVSPropertyOp20
 70
     1
102
RTVSPropertyOp21
 70
     1
102
RTVSPropertyOp22
 70
     1
102
RTVSPropertyOp23
 70
     1
102
RTVSPropertyOp24
 70
     1
102
RTVSPropertyOp25
 70
     1
102
RTVSPropertyOp26
 70
     1
102
RTVSPropertyOp27
 70
     1
102
RTVSPropertyOp28
 70
     1
102
RTVSPropertyOp29
 70
     1
102
RTVSPropertyOp30
 70
     1
102
RTVSPropertyOp31
 70
     1
102
RTVSPropertyOp32
 70
     1
102
RTVSPropertyOp33
 70
     1
102
RTVSPropertyOp34
 70
     1
102
RTVSPropertyOp35
 70
     1
102
RTVSPropertyOp36
 70
     1
102
RTVSPropertyOp37
 70
     1
102
RTVSPropertyOp38
 70
     1
102
RTVSPropertyOp39
 70
     1
102
RTVSPropertyOp40
 70
     1
102
RTVSPropertyOp41
 70
     1
102
RTVSPropertyOp42
 70
     1
102
RTVSPropertyOp43
 70
     1
102
RTVSPropertyOp44
 70
     1
102
RTVSPropertyOp45
 70
     1
102
RTVSPropertyOp46
 70
     1
102
RTVSPropertyOp47
 70
     1
102
RTVSPropertyOp48
 70
     1
102
RTVSPropertyOp49
 70
     1
102
RTVSPropertyOp50
 70
     1
102
RTVSPropertyOp51
 70
     0
102
RTVSPropertyOp52
 70
     0
102
RTVSPropertyOp53
 70
     1
102
RTVSPropertyOp54
 70
     1
102
RTVSPropertyOp55
 70
     1
102
RTVSPropertyOp56
 70
     1
102
RTVSPropertyOp57
 70
     1
102
RTVSPropertyOp58
 70
     1
102
RTVSPropertyOp59
 70
     1
102
RTVSPropertyOp60
 70
     1
102
RTVSPropertyOp61
 70
     1
102
RTVSPropertyOp62
 70
     1
  0
ENDSEC
  0
EOF
