  0
SECTION
  2
HEADER
  9
$ACADVER
  1
AC1015
  9
$ACADMAINTVER
 70
    18
  9
$DWGCODEPAGE
  3
ANSI_1252
  9
$INSBASE
 10
-7041.742961063206
 20
6143.965539815082
 30
0.0
  9
$EXTMIN
 10
-7061.742961063206
 20
123.9655398150823
 30
0.0
  9
$EXTMAX
 10
17884.37403655774
 20
8478.174147914165
 30
0.0
  9
$LIMMIN
 10
0.0
 20
0.0
  9
$LIMMAX
 10
420.0
 20
297.0
  9
$ORTHOMODE
 70
     1
  9
$REGENMODE
 70
     1
  9
$FILLMODE
 70
     1
  9
$QTEXTMODE
 70
     0
  9
$MIRRTEXT
 70
     0
  9
$LTSCALE
 40
1.0
  9
$ATTMODE
 70
     1
  9
$TEXTSIZE
 40
2.5
  9
$TRACEWID
 40
1.0
  9
$TEXTSTYLE
  7
Standard
  9
$CLAYER
  8
-PROFILAUSSENKANTET
  9
$CELTYPE
  6
ByLayer
  9
$CECOLOR
 62
   256
  9
$CELTSCALE
 40
1.0
  9
$DISPSILH
 70
     0
  9
$DIMSCALE
 40
1.0
  9
$DIMASZ
 40
3.5
  9
$DIMEXO
 40
1.0
  9
$DIMDLI
 40
10.0
  9
$DIMRND
 40
0.0
  9
$DIMDLE
 40
0.0
  9
$DIMEXE
 40
1.0
  9
$DIMTP
 40
0.1
  9
$DIMTM
 40
0.1
  9
$DIMTXT
 40
3.5
  9
$DIMCEN
 40
0.0
  9
$DIMTSZ
 40
0.0
  9
$DIMTOL
 70
     0
  9
$DIMLIM
 70
     0
  9
$DIMTIH
 70
     0
  9
$DIMTOH
 70
     0
  9
$DIMSE1
 70
     0
  9
$DIMSE2
 70
     0
  9
$DIMTAD
 70
     1
  9
$DIMZIN
 70
     8
  9
$DIMBLK
  1

  9
$DIMASO
 70
     1
  9
$DIMSHO
 70
     1
  9
$DIMPOST
  1

  9
$DIMAPOST
  1
"
  9
$DIMALT
 70
     0
  9
$DIMALTD
 70
     2
  9
$DIMALTF
 40
0.0393701
  9
$DIMLFAC
 40
1.0
  9
$DIMTOFL
 70
     1
  9
$DIMTVP
 40
0.0
  9
$DIMTIX
 70
     0
  9
$DIMSOXD
 70
     0
  9
$DIMSAH
 70
     0
  9
$DIMBLK1
  1

  9
$DIMBLK2
  1

  9
$DIMSTYLE
  2
AM_DIN
  9
$DIMCLRD
 70
   256
  9
$DIMCLRE
 70
   256
  9
$DIMCLRT
 70
     2
  9
$DIMTFAC
 40
0.71
  9
$DIMGAP
 40
1.5
  9
$DIMJUST
 70
     0
  9
$DIMSD1
 70
     0
  9
$DIMSD2
 70
     0
  9
$DIMTOLJ
 70
     0
  9
$DIMTZIN
 70
     8
  9
$DIMALTZ
 70
     0
  9
$DIMALTTZ
 70
     0
  9
$DIMUPT
 70
     0
  9
$DIMDEC
 70
     2
  9
$DIMTDEC
 70
     3
  9
$DIMALTU
 70
     2
  9
$DIMALTTD
 70
     4
  9
$DIMTXSTY
  7
Standard
  9
$DIMAUNIT
 70
     0
  9
$DIMADEC
 70
     0
  9
$DIMALTRND
 40
0.0
  9
$DIMAZIN
 70
     2
  9
$DIMDSEP
 70
    46
  9
$DIMATFIT
 70
     3
  9
$DIMFRAC
 70
     0
  9
$DIMLDRBLK
  1

  9
$DIMLUNIT
 70
     2
  9
$DIMLWD
 70
    -1
  9
$DIMLWE
 70
    -1
  9
$DIMTMOVE
 70
     0
  9
$LUNITS
 70
     2
  9
$LUPREC
 70
     4
  9
$SKETCHINC
 40
1.0
  9
$FILLETRAD
 40
6.0
  9
$AUNITS
 70
     0
  9
$AUPREC
 70
     0
  9
$MENU
  1
.
  9
$ELEVATION
 40
0.0
  9
$PELEVATION
 40
0.0
  9
$THICKNESS
 40
0.0
  9
$LIMCHECK
 70
     0
  9
$CHAMFERA
 40
2.0
  9
$CHAMFERB
 40
2.0
  9
$CHAMFERC
 40
0.0
  9
$CHAMFERD
 40
0.0
  9
$SKPOLY
 70
     0
  9
$TDCREATE
 40
2458738.314460429
  9
$TDUCREATE
 40
2458738.231127095
  9
$TDUPDATE
 40
2458744.548181910
  9
$TDUUPDATE
 40
2458744.464848577
  9
$TDINDWG
 40
1.1838714468
  9
$TDUSRTIMER
 40
1.1838711227
  9
$USRTIMER
 70
     1
  9
$ANGBASE
 50
0.0
  9
$ANGDIR
 70
     0
  9
$PDMODE
 70
     0
  9
$PDSIZE
 40
0.0
  9
$PLINEWID
 40
0.0
  9
$SPLFRAME
 70
     0
  9
$SPLINETYPE
 70
     6
  9
$SPLINESEGS
 70
     8
  9
$HANDSEED
  5
2F2
  9
$SURFTAB1
 70
     6
  9
$SURFTAB2
 70
     6
  9
$SURFTYPE
 70
     6
  9
$SURFU
 70
     6
  9
$SURFV
 70
     6
  9
$UCSBASE
  2

  9
$UCSNAME
  2

  9
$UCSORG
 10
0.0
 20
0.0
 30
0.0
  9
$UCSXDIR
 10
1.0
 20
0.0
 30
0.0
  9
$UCSYDIR
 10
0.0
 20
1.0
 30
0.0
  9
$UCSORTHOREF
  2

  9
$UCSORTHOVIEW
 70
     0
  9
$UCSORGTOP
 10
0.0
 20
0.0
 30
0.0
  9
$UCSORGBOTTOM
 10
0.0
 20
0.0
 30
0.0
  9
$UCSORGLEFT
 10
0.0
 20
0.0
 30
0.0
  9
$UCSORGRIGHT
 10
0.0
 20
0.0
 30
0.0
  9
$UCSORGFRONT
 10
0.0
 20
0.0
 30
0.0
  9
$UCSORGBACK
 10
0.0
 20
0.0
 30
0.0
  9
$PUCSBASE
  2

  9
$PUCSNAME
  2

  9
$PUCSORG
 10
0.0
 20
0.0
 30
0.0
  9
$PUCSXDIR
 10
1.0
 20
0.0
 30
0.0
  9
$PUCSYDIR
 10
0.0
 20
1.0
 30
0.0
  9
$PUCSORTHOREF
  2

  9
$PUCSORTHOVIEW
 70
     0
  9
$PUCSORGTOP
 10
0.0
 20
0.0
 30
0.0
  9
$PUCSORGBOTTOM
 10
0.0
 20
0.0
 30
0.0
  9
$PUCSORGLEFT
 10
0.0
 20
0.0
 30
0.0
  9
$PUCSORGRIGHT
 10
0.0
 20
0.0
 30
0.0
  9
$PUCSORGFRONT
 10
0.0
 20
0.0
 30
0.0
  9
$PUCSORGBACK
 10
0.0
 20
0.0
 30
0.0
  9
$USERI1
 70
     0
  9
$USERI2
 70
     0
  9
$USERI3
 70
     0
  9
$USERI4
 70
     0
  9
$USERI5
 70
     0
  9
$USERR1
 40
0.0
  9
$USERR2
 40
0.0
  9
$USERR3
 40
0.0
  9
$USERR4
 40
0.0
  9
$USERR5
 40
0.0
  9
$WORLDVIEW
 70
     1
  9
$SHADEDGE
 70
     3
  9
$SHADEDIF
 70
    70
  9
$TILEMODE
 70
     1
  9
$MAXACTVP
 70
    64
  9
$PINSBASE
 10
0.0
 20
0.0
 30
0.0
  9
$PLIMCHECK
 70
     0
  9
$PEXTMIN
 10
-322.0620289577801
 20
-275.077753814461
 30
-0.0000000000000153
  9
$PEXTMAX
 10
3242.046709135701
 20
435.7678748132378
 30
0.0000000000000153
  9
$PLIMMIN
 10
0.0
 20
0.0
  9
$PLIMMAX
 10
12.0
 20
9.0
  9
$UNITMODE
 70
     0
  9
$VISRETAIN
 70
     1
  9
$PLINEGEN
 70
     0
  9
$PSLTSCALE
 70
     1
  9
$TREEDEPTH
 70
  3020
  9
$CMLSTYLE
  2
Standard
  9
$CMLJUST
 70
     0
  9
$CMLSCALE
 40
20.0
  9
$PROXYGRAPHICS
 70
     1
  9
$MEASUREMENT
 70
     1
  9
$CELWEIGHT
370
    -1
  9
$ENDCAPS
280
     0
  9
$JOINSTYLE
280
     0
  9
$LWDISPLAY
290
     0
  9
$INSUNITS
 70
     4
  9
$HYPERLINKBASE
  1

  9
$STYLESHEET
  1

  9
$XEDIT
290
     1
  9
$CEPSNTYPE
380
     0
  9
$PSTYLEMODE
290
     1
  9
$FINGERPRINTGUID
  2
{C6BE9C2B-E489-4F63-A749-DC12182203A2}
  9
$VERSIONGUID
  2
{EA430841-A6DB-4160-BFD8-49CAF2047969}
  9
$EXTNAMES
290
     1
  9
$PSVPSCALE
 40
0.0
  9
$OLESTARTUP
290
     0
  0
ENDSEC
  0
SECTION
  2
CLASSES
  0
CLASS
  1
ACDBDICTIONARYWDFLT
  2
AcDbDictionaryWithDefault
  3
ObjectDBX Classes
 90
        0
280
     0
281
     0
  0
CLASS
  1
ACDBPLACEHOLDER
  2
AcDbPlaceHolder
  3
ObjectDBX Classes
 90
        0
280
     0
281
     0
  0
CLASS
  1
LAYOUT
  2
AcDbLayout
  3
ObjectDBX Classes
 90
        0
280
     0
281
     0
  0
CLASS
  1
DICTIONARYVAR
  2
AcDbDictionaryVar
  3
ObjectDBX Classes
 90
        0
280
     0
281
     0
  0
CLASS
  1
TABLESTYLE
  2
AcDbTableStyle
  3
ObjectDBX Classes
 90
     4095
280
     0
281
     0
  0
CLASS
  1
MATERIAL
  2
AcDbMaterial
  3
ObjectDBX Classes
 90
     1153
280
     0
281
     0
  0
CLASS
  1
VISUALSTYLE
  2
AcDbVisualStyle
  3
ObjectDBX Classes
 90
     4095
280
     0
281
     0
  0
CLASS
  1
SCALE
  2
AcDbScale
  3
ObjectDBX Classes
 90
     1153
280
     0
281
     0
  0
CLASS
  1
MLEADERSTYLE
  2
AcDbMLeaderStyle
  3
ACDB_MLEADERSTYLE_CLASS
 90
    36863
280
     0
281
     0
  0
CLASS
  1
CELLSTYLEMAP
  2
AcDbCellStyleMap
  3
ObjectDBX Classes
 90
     1152
280
     0
281
     0
  0
CLASS
  1
EXACXREFPANELOBJECT
  2
ExAcXREFPanelObject
  3
EXAC_ESW
 90
    33793
280
     1
281
     0
  0
CLASS
  1
NPOCOLLECTION
  2
AcDbImpNonPersistentObjectsCollection
  3
ObjectDBX Classes
 90
    33921
280
     0
281
     0
  0
CLASS
  1
LAYER_INDEX
  2
AcDbLayerIndex
  3
ObjectDBX Classes
 90
    32768
280
     0
281
     0
  0
CLASS
  1
SPATIAL_INDEX
  2
AcDbSpatialIndex
  3
ObjectDBX Classes
 90
    32768
280
     0
281
     0
  0
CLASS
  1
IDBUFFER
  2
AcDbIdBuffer
  3
ObjectDBX Classes
 90
    32768
280
     0
281
     0
  0
CLASS
  1
ACDBSECTIONVIEWSTYLE
  2
AcDbSectionViewStyle
  3
ObjectDBX Classes
 90
     1025
280
     0
281
     0
  0
CLASS
  1
ACDBDETAILVIEWSTYLE
  2
AcDbDetailViewStyle
  3
ObjectDBX Classes
 90
     1025
280
     0
281
     0
  0
CLASS
  1
ACME_DOCUMENT
  2
AcMeDbDoc
  3
AcMeServices
 90
    33792
280
     0
281
     0
  0
CLASS
  1
AMGSETTINGSOBJ
  2
AmgSettingsObj
  3
"AcadM|Product Description: AutoCAD Mechanical|Company: Autodesk, Inc."
 90
     1024
280
     0
281
     0
  0
CLASS
  1
ACMESCOPE
  2
AcMeScope
  3
AcMeServices
 90
     1024
280
     0
281
     0
  0
CLASS
  1
ACMECOMMANDHISTORY
  2
AcMeCommandHistory
  3
AcMeServices
 90
    33792
280
     0
281
     0
  0
CLASS
  1
ACIMSYSVARMAN
  2
AcImSysVarManager
  3
AcMeServices
 90
     1024
280
     0
281
     0
  0
CLASS
  1
ACIMINTSYSVAR
  2
AcImIntSysVar
  3
AcMeServices
 90
     1024
280
     0
281
     0
  0
CLASS
  1
ACMESTATEMGR
  2
AcMeStateMgr
  3
AcMeServices
 90
     1024
280
     0
281
     0
  0
CLASS
  1
ACDBENTITYCACHE
  2
AcMeEntityCache
  3
AcMeServices
 90
    33792
280
     0
281
     0
  0
CLASS
  1
ACGREFMASTER
  2
AcGrefMaster
  3
AcAttribServices
 90
     1024
280
     0
281
     0
  0
CLASS
  1
ACME_DATABASE
  2
AcMeDbDatabase
  3
AcMeServices
 90
    33792
280
     0
281
     0
  0
CLASS
  1
ACRFINSADJUSTERMGR
  2
AcRfInsAdjusterMgr
  3
AcMeServices
 90
    33792
280
     0
281
     0
  0
CLASS
  1
ACGREFACADMASTER
  2
AcGrefacadMaster
  3
AcGrefServices
 90
    33792
280
     0
281
     0
  0
CLASS
  1
AMDTMENUSTATEMGR
  2
AmdtMenuStateMgr
  3
McadcomServices
 90
    33792
280
     0
281
     0
  0
CLASS
  1
AMDTMCOMMENUSTATE
  2
AmdtMcomMenuState
  3
McadcomServices
 90
    33792
280
     0
281
     0
  0
CLASS
  1
AMIMASTER
  2
AmiMaster
  3
AmiServices
 90
    33792
280
     0
281
     0
  0
CLASS
  1
MAPIAMMOUDLE
  2
MApiAmModule
  3
MApiAmServices
 90
    33792
280
     0
281
     0
  0
CLASS
  1
ACIMSTRSYSVAR
  2
AcImStrSysVar
  3
AcMeServices
 90
     1024
280
     0
281
     0
  0
CLASS
  1
AMDTAMMENUSTATE
  2
AmdtAmMenuState
  3
DesignerAssemblies
 90
    33792
280
     0
281
     0
  0
CLASS
  1
ACAMPROJECT
  2
AcAmProject
  3
DesignerAssemblies
 90
    33792
280
     0
281
     0
  0
CLASS
  1
ACAMGRCOMPDEF
  2
AcAmGrCompDef
  3
DesignerAssemblies
 90
    33792
280
     0
281
     0
  0
CLASS
  1
ACAMCOMPDEF
  2
AcAmCompDef
  3
DesignerAssemblies
 90
    33792
280
     0
281
     0
  0
CLASS
  1
ACAMCOMPDEFMGR
  2
AcAmCompDefMgr
  3
DesignerAssemblies
 90
    33792
280
     0
281
     0
  0
CLASS
  1
AMCONTEXTMGR
  2
AcAmContextMgr
  3
DesignerAssemblies
 90
    33792
280
     0
281
     0
  0
CLASS
  1
ACAMCONTEXTMODELER
  2
AcAmContextModeler
  3
DesignerAssemblies
 90
    33792
280
     0
281
     0
  0
CLASS
  1
ACMDATADICTIONARY
  2
AcmDataDictionary
  3
"AcmSymBB|Product Description: AutoCAD Mechanical|Company: Autodesk, Inc."
 90
    33792
280
     0
281
     0
  0
CLASS
  1
ACAMGRCOMPDEFSET
  2
AcAmGrCompDefSet
  3
DesignerAssemblies
 90
    33792
280
     0
281
     0
  0
CLASS
  1
AMDTBROWSERDBTAB
  2
AmdtBrowserDbTab
  3
McadcomServices
 90
    33792
280
     0
281
     0
  0
CLASS
  1
CBROWSERAPPOBJECT
  2
CBrowserAppObject
  3
McadcomServices
 90
    33792
280
     0
281
     0
  0
CLASS
  1
DM_PLACEHOLDER
  2
AcDmSelsetPlaceholder
  3
McadcomServices
 90
    33792
280
     0
281
     0
  0
CLASS
  1
ACMSTANDARDDIN
  2
AcmStandardDIN
  3
"Amdt_StdImp|Product Description: AutoCAD Mechanical|Company: Autodesk, Inc."
 90
     1024
280
     0
281
     0
  0
CLASS
  1
AMDTEDGESTANDARDDIN13715
  2
AmdtEdgeStdDIN13715
  3
"Amdt_StdImp|Product Description: AutoCAD Mechanical|Company: Autodesk, Inc."
 90
     1024
280
     0
281
     0
  0
CLASS
  1
ACMSURFSTANDARDDIN2002
  2
AcmSurfTextStdDIN2002
  3
"Amdt_StdImp|Product Description: AutoCAD Mechanical|Company: Autodesk, Inc."
 90
     1024
280
     0
281
     0
  0
CLASS
  1
ACMFCFSTANDARDDIN2008
  2
AcmFCFStdDIN2008
  3
"Amdt_StdImp|Product Description: AutoCAD Mechanical|Company: Autodesk, Inc."
 90
     1024
280
     0
281
     0
  0
CLASS
  1
ACMWELDSTANDARDDIN
  2
AcmWeldingStdDIN
  3
"Amdt_StdImp|Product Description: AutoCAD Mechanical|Company: Autodesk, Inc."
 90
     1024
280
     0
281
     0
  0
CLASS
  1
ACMIDSTANDARDDIN2012
  2
AcmIdStdDIN2012
  3
"Amdt_StdImp|Product Description: AutoCAD Mechanical|Company: Autodesk, Inc."
 90
     1024
280
     0
281
     0
  0
CLASS
  1
ACMDATUMSTANDARDDIN2008
  2
AcmDatumStdDIN2008
  3
"Amdt_StdImp|Product Description: AutoCAD Mechanical|Company: Autodesk, Inc."
 90
     1024
280
     0
281
     0
  0
CLASS
  1
ACMBOMSTANDARDDIN
  2
AcmBOMStdDIN
  3
"Amdt_StdImp|Product Description: AutoCAD Mechanical|Company: Autodesk, Inc."
 90
     1024
280
     0
281
     0
  0
CLASS
  1
ACMDETAILSTANDARDDIN
  2
AmdtDetailSymStdDIN
  3
"Amdt_StdImp|Product Description: AutoCAD Mechanical|Company: Autodesk, Inc."
 90
     1024
280
     0
281
     0
  0
CLASS
  1
ACMSECTIONSTANDARDDIN
  2
AmdtSectionSymStdDIN
  3
"Amdt_StdImp|Product Description: AutoCAD Mechanical|Company: Autodesk, Inc."
 90
     1024
280
     0
281
     0
  0
CLASS
  1
ACMCENTERLINESTANDARDDIN
  2
AmdtCenterLineStdDIN
  3
"Amdt_StdImp|Product Description: AutoCAD Mechanical|Company: Autodesk, Inc."
 90
     1024
280
     0
281
     0
  0
CLASS
  1
ACMTHREADLINESTANDARDDIN
  2
AmdtThreadLineStdDIN
  3
"Amdt_StdImp|Product Description: AutoCAD Mechanical|Company: Autodesk, Inc."
 90
     1024
280
     0
281
     0
  0
CLASS
  1
ACMNOTESTANDARDDIN
  2
AmdtNoteStdDIN
  3
"Amdt_StdImp|Product Description: AutoCAD Mechanical|Company: Autodesk, Inc."
 90
     1024
280
     0
281
     0
  0
CLASS
  1
ACMTAPERSTANDARDDIN
  2
AcmTaperStdDIN
  3
"Amdt_StdImp|Product Description: AutoCAD Mechanical|Company: Autodesk, Inc."
 90
     1024
280
     0
281
     0
  0
CLASS
  1
ACMANOOTATIONVIEWSTANDARDDIN
  2
AmdtAnViewStdDIN
  3
"Amdt_StdImp|Product Description: AutoCAD Mechanical|Company: Autodesk, Inc."
 90
     1024
280
     0
281
     0
  0
CLASS
  1
ACAMGLAYSTD
  2
AcAmgLayStd
  3
"AmgLay|Product Description: AutoCAD Mechanical|Company: Autodesk, Inc."
 90
     1024
280
     0
281
     0
  0
CLASS
  1
ACAMGDIMSTD
  2
AcAmgDimStd
  3
"AmgDim|Product Description: AutoCAD Mechanical|Company: Autodesk, Inc."
 90
     1024
280
     0
281
     0
  0
CLASS
  1
AMGOBJPROPCFG
  2
AmgObjPropCfg
  3
"AmgLay|Product Description: AutoCAD Mechanical|Company: Autodesk, Inc."
 90
     1024
280
     0
281
     0
  0
CLASS
  1
ACAMGHOLECHARTSTDDIN
  2
AcAmgHoleChartStdDIN
  3
AmgDim|Product Description: AutoCAD Mechanical|Company: Autodesk, Inc.
 90
     1024
280
     0
281
     0
  0
CLASS
  1
ACAMGTITLESTD
  2
AcAmgTitleStd
  3
"AmgTitle|Product Description: AutoCAD Mechanical|Company: Autodesk, Inc."
 90
     1024
280
     0
281
     0
  0
CLASS
  1
ACMSECTIONSTANDARDCUSTOM
  2
AmdtSectionSymStdCustom
  3
"Amdt_StdImp|Product Description: AutoCAD Mechanical|Company: Autodesk, Inc."
 90
     1024
280
     0
281
     0
  0
CLASS
  1
ACMDETAILTANDARDCUSTOM
  2
AmdtDetailSymStdCustom
  3
"Amdt_StdImp|Product Description: AutoCAD Mechanical|Company: Autodesk, Inc."
 90
     1024
280
     0
281
     0
  0
CLASS
  1
FIELD
  2
AcDbField
  3
ObjectDBX Classes
 90
     1152
280
     0
281
     0
  0
CLASS
  1
FIELDLIST
  2
AcDbFieldList
  3
ObjectDBX Classes
 90
     1152
280
     0
281
     0
  0
CLASS
  1
AMDTNOTETEMPLATEDB
  2
AmdtNoteTemplateDB
  3
AcmSymBB|Product Description: AutoCAD Mechanical|Company: Autodesk, Inc.
 90
     1024
280
     0
281
     0
  0
CLASS
  1
CAMSSTRUCTBTNSTATE
  2
StructBtnState
  3
DesignerAssemblies
 90
    33792
280
     0
281
     0
  0
CLASS
  1
RAPIDRTRENDERSETTINGS
  2
AcDbRapidRTRenderSettings
  3
ObjectDBX Classes
 90
    33792
280
     0
281
     0
  0
CLASS
  1
SORTENTSTABLE
  2
AcDbSortentsTable
  3
ObjectDBX Classes
 90
        0
280
     0
281
     0
  0
CLASS
  1
ACAMGFILTERDAT
  2
AcAmgFilterDat
  3
"AcadM|Product Description: AutoCAD Mechanical|Company: Autodesk, Inc."
 90
    33792
280
     0
281
     0
  0
CLASS
  1
ACDBASSOCNETWORK
  2
AcDbAssocNetwork
  3
ObjectDBX Classes
 90
    33793
280
     0
281
     0
  0
CLASS
  1
ACDBASSOC2DCONSTRAINTGROUP
  2
AcDbAssoc2dConstraintGroup
  3
ObjectDBX Classes
 90
    33793
280
     0
281
     0
  0
CLASS
  1
ACDBASSOCGEOMDEPENDENCY
  2
AcDbAssocGeomDependency
  3
ObjectDBX Classes
 90
    33793
280
     0
281
     0
  0
CLASS
  1
ACAD_EVALUATION_GRAPH
  2
AcDbEvalGraph
  3
ObjectDBX Classes
 90
    33921
280
     0
281
     0
  0
CLASS
  1
BLOCKBASEPOINTPARAMETER
  2
AcDbBlockBasepointParameter
  3
ObjectDBX Classes
 90
    33921
280
     0
281
     0
  0
CLASS
  1
ACDB_DYNAMICBLOCKPROXYNODE
  2
AcDbDynamicBlockProxyNode
  3
ObjectDBX Classes
 90
    33921
280
     0
281
     0
  0
CLASS
  1
BLOCKVISIBILITYPARAMETER
  2
AcDbBlockVisibilityParameter
  3
ObjectDBX Classes
 90
    33921
280
     0
281
     0
  0
CLASS
  1
BLOCKVISIBILITYGRIP
  2
AcDbBlockVisibilityGrip
  3
ObjectDBX Classes
 90
    33921
280
     0
281
     0
  0
CLASS
  1
BLOCKGRIPLOCATIONCOMPONENT
  2
AcDbBlockGripExpr
  3
ObjectDBX Classes
 90
    33921
280
     0
281
     0
  0
CLASS
  1
BLOCKPOINTPARAMETER
  2
AcDbBlockPointParameter
  3
ObjectDBX Classes
 90
    33921
280
     0
281
     0
  0
CLASS
  1
BLOCKXYGRIP
  2
AcDbBlockXYGrip
  3
ObjectDBX Classes
 90
    33921
280
     0
281
     0
  0
CLASS
  1
BLOCKMOVEACTION
  2
AcDbBlockMoveAction
  3
ObjectDBX Classes
 90
    33921
280
     0
281
     0
  0
CLASS
  1
ACDB_DYNAMICBLOCKPURGEPREVENTER_VERSION
  2
AcDbDynamicBlockPurgePreventer
  3
ObjectDBX Classes
 90
    33921
280
     0
281
     0
  0
CLASS
  1
IMAGE
  2
AcDbRasterImage
  3
ISM
 90
    34943
280
     0
281
     1
  0
CLASS
  1
IMAGEDEF_REACTOR
  2
AcDbRasterImageDefReactor
  3
ISM
 90
    32769
280
     0
281
     0
  0
CLASS
  1
ACDB_BLOCKREPRESENTATION_DATA
  2
AcDbBlockRepresentationData
  3
ObjectDBX Classes
 90
    33921
280
     0
281
     0
  0
CLASS
  1
IMAGEDEF
  2
AcDbRasterImageDef
  3
ISM
 90
    32768
280
     0
281
     0
  0
CLASS
  1
ACMDATAENTRYBLOCK
  2
AcmDataEntryBlock
  3
AcmSymBB|Product Description: AutoCAD Mechanical|Company: Autodesk, Inc.
 90
    33792
280
     0
281
     0
  0
CLASS
  1
RASTERVARIABLES
  2
AcDbRasterVariables
  3
ISM
 90
    32768
280
     0
281
     0
  0
CLASS
  1
ACAECUSTOBJ
  2
AcAeEditorObj
  3
AcAeEditorObj
 90
    33792
280
     1
281
     0
  0
CLASS
  1
ACDBASSOCVARIABLE
  2
AcDbAssocVariable
  3
ObjectDBX Classes
 90
    33793
280
     0
281
     0
  0
CLASS
  1
ACDBASSOCVALUEDEPENDENCY
  2
AcDbAssocValueDependency
  3
ObjectDBX Classes
 90
    33793
280
     0
281
     0
  0
CLASS
  1
ACDBASSOCDEPENDENCY
  2
AcDbAssocDependency
  3
ObjectDBX Classes
 90
    33793
280
     0
281
     0
  0
CLASS
  1
BLOCKPARAMDEPENDENCYBODY
  2
AcDbBlockParameterDependencyBody
  3
ObjectDBX Classes
 90
    32769
280
     0
281
     0
  0
CLASS
  1
BLOCKHORIZONTALCONSTRAINTPARAMETER
  2
AcDbBlockHorizontalConstraintParameter
  3
ObjectDBX Classes
 90
    33921
280
     0
281
     0
  0
CLASS
  1
BLOCKLINEARGRIP
  2
AcDbBlockLinearGrip
  3
ObjectDBX Classes
 90
    33921
280
     0
281
     0
  0
CLASS
  1
BLOCKVERTICALCONSTRAINTPARAMETER
  2
AcDbBlockVerticalConstraintParameter
  3
ObjectDBX Classes
 90
    33921
280
     0
281
     0
  0
CLASS
  1
DIMASSOC
  2
AcDbDimAssoc
  3
"AcDbDimAssoc|Product Desc:     AcDim ARX App For Dimension|Company:          Autodesk, Inc.|WEB Address:      www.autodesk.com"
 90
        0
280
     0
281
     0
  0
CLASS
  1
ACAD_TABLE
  2
AcDbTable
  3
ObjectDBX Classes
 90
    33793
280
     0
281
     1
  0
CLASS
  1
TABLECONTENT
  2
AcDbTableContent
  3
ObjectDBX Classes
 90
    33920
280
     0
281
     0
  0
CLASS
  1
TABLEGEOMETRY
  2
AcDbTableGeometry
  3
ObjectDBX Classes
 90
    33920
280
     0
281
     0
  0
CLASS
  1
BLOCKLINEARPARAMETER
  2
AcDbBlockLinearParameter
  3
ObjectDBX Classes
 90
    33921
280
     0
281
     0
  0
CLASS
  1
BLOCKSCALEACTION
  2
AcDbBlockScaleAction
  3
ObjectDBX Classes
 90
    33921
280
     0
281
     0
  0
CLASS
  1
POINTPARAMETERENTITY
  2
AcDbBlockPointParameterEntity
  3
ObjectDBX Classes
 90
    33793
280
     0
281
     1
  0
CLASS
  1
ACAEEEMGROBJ
  2
AcAeEEMgrObj
  3
AcAeEEMgrObj
 90
    33792
280
     0
281
     0
  0
CLASS
  1
XYGRIPENTITY
  2
AcDbBlockXYGripEntity
  3
ObjectDBX Classes
 90
    33793
280
     0
281
     1
  0
CLASS
  1
VISIBILITYPARAMETERENTITY
  2
AcDbBlockVisibilityParameterEntity
  3
ObjectDBX Classes
 90
    33793
280
     0
281
     1
  0
CLASS
  1
VISIBILITYGRIPENTITY
  2
AcDbBlockVisibilityGripEntity
  3
ObjectDBX Classes
 90
    33793
280
     0
281
     1
  0
CLASS
  1
STDPART2D
  2
AmgStdPart
  3
AmgStdPart|Product Description: AutoCAD Mechanical|Company: Autodesk, Inc.
 90
    33792
280
     0
281
     1
  0
CLASS
  1
ACMDATAENTRYPART
  2
AcmDataEntryPart
  3
AcmSymBB|Product Description: AutoCAD Mechanical|Company: Autodesk, Inc.
 90
    33792
280
     0
281
     0
  0
CLASS
  1
ACMPARTREF
  2
AcmPartRef
  3
"AcmSymBB|Product Description: AutoCAD Mechanical|Company: Autodesk, Inc."
 90
    33792
280
     0
281
     1
  0
CLASS
  1
ACDBSTDPARTRES_LINE
  2
AcDbStdPartRes_Line
  3
AmgStdPart|Product Description: AutoCAD Mechanical|Company: Autodesk, Inc.
 90
    33792
280
     0
281
     0
  0
CLASS
  1
AMDTINTERNALREACTOR
  2
AmdtInternalReactor
  3
AcMeServices
 90
    33792
280
     0
281
     0
  0
CLASS
  1
ACMSTANDARDANSI
  2
AcmStandardANSI
  3
"Amdt_StdImp|Product Description: AutoCAD Mechanical|Company: Autodesk, Inc."
 90
    33792
280
     0
281
     0
  0
CLASS
  1
ACMSURFSTANDARDANSI
  2
AcmSurfTextStdANSI
  3
"Amdt_StdImp|Product Description: AutoCAD Mechanical|Company: Autodesk, Inc."
 90
    33792
280
     0
281
     0
  0
CLASS
  1
ACMFCFSTANDARDANSI
  2
AcmFCFStdANSI
  3
"Amdt_StdImp|Product Description: AutoCAD Mechanical|Company: Autodesk, Inc."
 90
    33792
280
     0
281
     0
  0
CLASS
  1
ACMWELDSTANDARDANSI
  2
AcmWeldingStdANSI
  3
"Amdt_StdImp|Product Description: AutoCAD Mechanical|Company: Autodesk, Inc."
 90
    33792
280
     0
281
     0
  0
CLASS
  1
ACMIDSTANDARDANSI
  2
AcmIdStdANSI
  3
"Amdt_StdImp|Product Description: AutoCAD Mechanical|Company: Autodesk, Inc."
 90
    33792
280
     0
281
     0
  0
CLASS
  1
ACMDATUMSTANDARDANSI
  2
AcmDatumStdANSI
  3
"Amdt_StdImp|Product Description: AutoCAD Mechanical|Company: Autodesk, Inc."
 90
    33792
280
     0
281
     0
  0
CLASS
  1
ACMBOMSTANDARDANSI
  2
AcmBOMStdANSI
  3
"Amdt_StdImp|Product Description: AutoCAD Mechanical|Company: Autodesk, Inc."
 90
    33792
280
     0
281
     0
  0
CLASS
  1
ACMDETAILSTANDARDANSI
  2
AmdtDetailSymStdANSI
  3
"Amdt_StdImp|Product Description: AutoCAD Mechanical|Company: Autodesk, Inc."
 90
    33792
280
     0
281
     0
  0
CLASS
  1
ACMSECTIONSTANDARDANSI
  2
AmdtSectionSymStdANSI
  3
"Amdt_StdImp|Product Description: AutoCAD Mechanical|Company: Autodesk, Inc."
 90
    33792
280
     0
281
     0
  0
CLASS
  1
ACMCENTERLINESTANDARDANSI
  2
AmdtCenterLineStdANSI
  3
"Amdt_StdImp|Product Description: AutoCAD Mechanical|Company: Autodesk, Inc."
 90
    33792
280
     0
281
     0
  0
CLASS
  1
ACMTHREADLINESTANDARDANSI
  2
AmdtThreadLineStdANSI
  3
"Amdt_StdImp|Product Description: AutoCAD Mechanical|Company: Autodesk, Inc."
 90
    33792
280
     0
281
     0
  0
CLASS
  1
ACMNOTESTANDARDANSI
  2
AmdtNoteStdANSI
  3
"Amdt_StdImp|Product Description: AutoCAD Mechanical|Company: Autodesk, Inc."
 90
    33792
280
     0
281
     0
  0
CLASS
  1
ACMTAPERSTANDARDANSI
  2
AcmTaperStdANSI
  3
"Amdt_StdImp|Product Description: AutoCAD Mechanical|Company: Autodesk, Inc."
 90
    33792
280
     0
281
     0
  0
CLASS
  1
ACMANOOTATIONVIEWSTANDARDANSI
  2
AmdtAnViewStdANSI
  3
"Amdt_StdImp|Product Description: AutoCAD Mechanical|Company: Autodesk, Inc."
 90
    33792
280
     0
281
     0
  0
CLASS
  1
ACAMGHOLECHARTSTDANSI
  2
AcAmgHoleChartStdANSI
  3
AmgDim|Product Description: AutoCAD Mechanical|Company: Autodesk, Inc.
 90
    33792
280
     0
281
     0
  0
CLASS
  1
AEC_REFEDIT_STATUS_TRACKER
  2
AecDbRefEditStatusTracker
  3
AecArchBase70|Product Desc: Autodesk Architectural Desktop 2007 |Company: Autodesk,Inc. |WEB Address: www.autodesk.com
 90
    32897
280
     0
281
     0
  0
CLASS
  1
SOLID_BACKGROUND
  2
AcDbSolidBackground
  3
SCENEOE
 90
    36863
280
     0
281
     0
  0
CLASS
  1
AMDTNOTE
  2
AmdtNote
  3
"AcmSymBB|Product Description: AutoCAD Mechanical|Company: Autodesk, Inc."
 90
    33792
280
     0
281
     1
  0
ENDSEC
  0
SECTION
  2
TABLES
  0
TABLE
  2
VPORT
  5
2B
330
0
100
AcDbSymbolTable
 70
     1
  0
VPORT
  5
2C
330
2B
100
AcDbSymbolTableRecord
100
AcDbViewportTableRecord
  2
*Active
 70
     0
 10
0.0
 20
0.0
 11
1.0
 21
1.0
 12
-3277.541640651745
 22
6449.549587926445
 13
0.0
 23
0.0
 14
10.0
 24
10.0
 15
10.0
 25
10.0
 16
0.0
 26
0.0
 36
1.0
 17
0.0
 27
0.0
 37
0.0
 40
3131.624849463369
 41
2.591280653950953
 42
50.0
 43
0.0
 44
0.0
 50
0.0
 51
0.0
 71
     0
 72
  1000
 73
     1
 74
     3
 75
     0
 76
     0
 77
     0
 78
     0
281
     0
 65
     1
110
0.0
120
0.0
130
0.0
111
1.0
121
0.0
131
0.0
112
0.0
122
1.0
132
0.0
 79
     0
146
0.0
1001
ACAD_NAV_VCDISPLAY
1070
     3
  0
ENDTAB
  0
TABLE
  2
LTYPE
  5
26
330
0
100
AcDbSymbolTable
 70
    14
  0
LTYPE
  5
27
330
26
100
AcDbSymbolTableRecord
100
AcDbLinetypeTableRecord
  2
ByBlock
 70
     0
  3

 72
    65
 73
     0
 40
0.0
  0
LTYPE
  5
28
330
26
100
AcDbSymbolTableRecord
100
AcDbLinetypeTableRecord
  2
ByLayer
 70
     0
  3

 72
    65
 73
     0
 40
0.0
  0
LTYPE
  5
20
330
26
100
AcDbSymbolTableRecord
100
AcDbLinetypeTableRecord
  2
Continuous
 70
     0
  3
Solid line
 72
    65
 73
     0
 40
0.0
  0
LTYPE
  5
250
330
26
100
AcDbSymbolTableRecord
100
AcDbLinetypeTableRecord
  2
Amconstr
 70
     0
  3
_______________________
 72
    65
 73
     2
 40
9999.0
 49
9999.0
 74
     0
 49
0.0
 74
     0
  0
LTYPE
  5
252
330
26
100
AcDbSymbolTableRecord
100
AcDbLinetypeTableRecord
  2
Amzigzag
 70
     0
  3
/\/-/\/-/\/-/\/-/\/-/\/
 72
    65
 73
     2
 40
11.0001
 49
0.0001
 74
     4
 75
   136
340
253
 46
0.04
 50
0.0
 44
0.0
 45
0.0
 49
-11.0
 74
     0
  0
LTYPE
  5
24D
330
26
100
AcDbSymbolTableRecord
100
AcDbLinetypeTableRecord
  2
AM_DIN_F_W050
 70
     0
  3
__ __ __ __ __ __ __ __ __ __ __ __ __ __ __
 72
    65
 73
     2
 40
6.25
 49
4.75
 74
     0
 49
-1.5
 74
     0
  0
LTYPE
  5
24E
330
26
100
AcDbSymbolTableRecord
100
AcDbLinetypeTableRecord
  2
AM_DIN_G_W050
 70
     0
  3
____ . ____ . ____ . ____ . ____ . ____ . ____
 72
    65
 73
     4
 40
13.75
 49
9.75
 74
     0
 49
-1.5
 74
     0
 49
1.0
 74
     0
 49
-1.5
 74
     0
  0
LTYPE
  5
24F
330
26
100
AcDbSymbolTableRecord
100
AcDbLinetypeTableRecord
  2
AM_DIN_K_W050
 70
     0
  3
_____ . . _____ . . _____ . . ____ .. ____
 72
    65
 73
     6
 40
16.25
 49
9.75
 74
     0
 49
-1.5
 74
     0
 49
1.0
 74
     0
 49
-1.5
 74
     0
 49
1.0
 74
     0
 49
-1.5
 74
     0
  0
LTYPE
  5
5E
330
26
100
AcDbSymbolTableRecord
100
AcDbLinetypeTableRecord
  2
AM_DIN_G_W050x2
 70
     0
  3
__ . __ . __ . __ . __ . __
 72
    65
 73
     4
 40
6.875
 49
4.75
 74
     0
 49
-0.875
 74
     0
 49
0.375
 74
     0
 49
-0.875
 74
     0
  0
LTYPE
  5
251
330
26
100
AcDbSymbolTableRecord
100
AcDbLinetypeTableRecord
  2
AM_DIN_F_W050x2
 70
     0
  3
 _ _ _ _ _ _ _ _ _ _ _ _
 72
    65
 73
     2
 40
3.125
 49
2.25
 74
     0
 49
-0.875
 74
     0
  0
LTYPE
  5
265
330
26
100
AcDbSymbolTableRecord
100
AcDbLinetypeTableRecord
  2
ACDINWELD
 70
     0
  3
_ _ _ _ _
 72
    65
 73
     2
 40
2.0
 49
2.0
 74
     0
 49
-1.0
 74
     0
  0
LTYPE
  5
2A3
330
26
100
AcDbSymbolTableRecord
100
AcDbLinetypeTableRecord
  2
ACDINTGL
 70
     0
  3
_ _ _ _ _
 72
    65
 73
     2
 40
3.0
 49
2.0
 74
     0
 49
-1.0
 74
     0
  0
LTYPE
  5
2A5
330
26
100
AcDbSymbolTableRecord
100
AcDbLinetypeTableRecord
  2
ACDINTGB
 70
     0
  3
__ . . __ . .
 72
    65
 73
     6
 40
9.0
 49
4.0
 74
     0
 49
-1.0
 74
     0
 49
1.0
 74
     0
 49
-1.0
 74
     0
 49
1.0
 74
     0
 49
-1.0
 74
     0
  0
LTYPE
  5
5D
330
26
100
AcDbSymbolTableRecord
100
AcDbLinetypeTableRecord
  2
MITTE
 70
     0
  3
____ _ ____ _ ____ _ ____ _ ____ _ ____ _ ____
 72
    65
 73
     4
 40
2.0
 49
1.25
 74
     0
 49
-0.25
 74
     0
 49
0.25
 74
     0
 49
-0.25
 74
     0
  0
LTYPE
  5
1A1
330
26
100
AcDbSymbolTableRecord
100
AcDbLinetypeTableRecord
  2
VERDECKT
 70
     0
  3
_ _ _ _ _ _ _ _ _ _ _ _ _ _ _ _ _ _ _ _ _ _ _
 72
    65
 73
     2
 40
0.375
 49
0.25
 74
     0
 49
-0.125
 74
     0
  0
LTYPE
  5
6E
330
26
100
AcDbSymbolTableRecord
100
AcDbLinetypeTableRecord
  2
AUSGEZOGEN
 70
     0
  3
____________________________________________
 72
    65
 73
     2
 40
2000.1
 49
2000.0
 74
     0
 49
-0.1
 74
     0
  0
ENDTAB
  0
TABLE
  2
LAYER
  5
12
102
{ACAD_XDICTIONARY
360
21
102
}
330
0
100
AcDbSymbolTable
 70
    10
  0
LAYER
  5
13
102
{ACAD_XDICTIONARY
360
14
102
}
330
12
100
AcDbSymbolTableRecord
100
AcDbLayerTableRecord
  2
0
 70
     0
 62
     7
  6
Continuous
370
    -3
390
15
  0
LAYER
  5
5B
102
{ACAD_XDICTIONARY
360
5C
102
}
330
12
100
AcDbSymbolTableRecord
100
AcDbLayerTableRecord
  2
-ACHSE
 70
     0
 62
     3
  6
MITTE
370
    -3
390
15
  0
LAYER
  5
6C
102
{ACAD_XDICTIONARY
360
6D
102
}
330
12
100
AcDbSymbolTableRecord
100
AcDbLayerTableRecord
  2
DEFPOINTS
 70
     0
 62
     5
  6
AUSGEZOGEN
290
     0
370
    -3
390
15
  0
LAYER
  5
15B
102
{ACAD_XDICTIONARY
360
15C
102
}
330
12
100
AcDbSymbolTableRecord
100
AcDbLayerTableRecord
  2
-GUMMI
 70
     0
 62
    30
  6
AUSGEZOGEN
370
    -3
390
15
  0
LAYER
  5
139
102
{ACAD_XDICTIONARY
360
13A
102
}
330
12
100
AcDbSymbolTableRecord
100
AcDbLayerTableRecord
  2
-GLAS
 70
     0
 62
     1
  6
AUSGEZOGEN
370
    25
390
15
  0
LAYER
  5
13C
102
{ACAD_XDICTIONARY
360
13D
102
}
330
12
100
AcDbSymbolTableRecord
100
AcDbLayerTableRecord
  2
-TEXT3
 70
     0
 62
     2
  6
Continuous
370
    -3
390
15
  0
LAYER
  5
43
330
12
100
AcDbSymbolTableRecord
100
AcDbLayerTableRecord
  2
-PROFILAUSSENKANTET
 70
     0
 62
     4
  6
Continuous
370
    -3
390
15
  0
LAYER
  5
61
330
12
100
AcDbSymbolTableRecord
100
AcDbLayerTableRecord
  2
AM_5
 70
     0
 62
     3
  6
Continuous
370
    25
390
15
1001
AcAecLayerStandard
1000

1000

  0
LAYER
  5
154
330
12
100
AcDbSymbolTableRecord
100
AcDbLayerTableRecord
  2
-POM Stab
 70
     0
 62
    72
  6
AUSGEZOGEN
370
    -3
390
15
1001
AcAecLayerStandard
1000

1000

  0
LAYER
  5
144
330
12
100
AcDbSymbolTableRecord
100
AcDbLayerTableRecord
  2
BALARDO-Profil
 70
     0
 62
     4
  6
Continuous
370
    18
390
15
  0
ENDTAB
  0
TABLE
  2
STYLE
  5
23
330
0
100
AcDbSymbolTable
 70
     3
  0
STYLE
  5
24
330
23
100
AcDbSymbolTableRecord
100
AcDbTextStyleTableRecord
  2
Standard
 70
     0
 40
0.0
 41
1.0
 50
0.0
 71
     0
 42
2.5
  3
arial.ttf
  4

1001
ACAD
1000
Arial
1071
       34
  0
STYLE
  5
253
330
23
100
AcDbSymbolTableRecord
100
AcDbTextStyleTableRecord
  2

 70
     1
 40
0.0
 41
1.0
 50
0.0
 71
     0
 42
2.5
  3
genltshp.shx
  4

  0
STYLE
  5
263
330
23
100
AcDbSymbolTableRecord
100
AcDbTextStyleTableRecord
  2
ACDINGDT
 70
     0
 40
0.0
 41
1.0
 50
0.0
 71
     0
 42
2.5
  3
amgdt.shx
  4

  0
ENDTAB
  0
TABLE
  2
VIEW
  5
29
330
0
100
AcDbSymbolTable
 70
     0
  0
ENDTAB
  0
TABLE
  2
UCS
  5
2A
330
0
100
AcDbSymbolTable
 70
     0
  0
ENDTAB
  0
TABLE
  2
APPID
  5
30
330
0
100
AcDbSymbolTable
 70
    27
  0
APPID
  5
1F
330
30
100
AcDbSymbolTableRecord
100
AcDbRegAppTableRecord
  2
ACAD
 70
     0
  0
APPID
  5
B
330
30
100
AcDbSymbolTableRecord
100
AcDbRegAppTableRecord
  2
ACAD_PSEXT
 70
     0
  0
APPID
  5
33
330
30
100
AcDbSymbolTableRecord
100
AcDbRegAppTableRecord
  2
ACAD_DSTYLE_DIMJAG
 70
     0
  0
APPID
  5
2F
330
30
100
AcDbSymbolTableRecord
100
AcDbRegAppTableRecord
  2
ACAD_NAV_VCDISPLAY
 70
     0
  0
APPID
  5
34
330
30
100
AcDbSymbolTableRecord
100
AcDbRegAppTableRecord
  2
ACAD_DSTYLE_DIMBREAK
 70
     0
  0
APPID
  5
62
330
30
100
AcDbSymbolTableRecord
100
AcDbRegAppTableRecord
  2
AcAecLayerStandard
 70
     0
  0
APPID
  5
A6
330
30
100
AcDbSymbolTableRecord
100
AcDbRegAppTableRecord
  2
GENIUS_GENREC_14
 70
     0
  0
APPID
  5
A7
330
30
100
AcDbSymbolTableRecord
100
AcDbRegAppTableRecord
  2
GENIUS_GENODEF_13
 70
     0
  0
APPID
  5
A8
330
30
100
AcDbSymbolTableRecord
100
AcDbRegAppTableRecord
  2
GENIUS_GENOBJ-N-REC_13
 70
     0
  0
APPID
  5
14A
330
30
100
AcDbSymbolTableRecord
100
AcDbRegAppTableRecord
  2
GradientColor1ACI
 70
     0
  0
APPID
  5
14B
330
30
100
AcDbSymbolTableRecord
100
AcDbRegAppTableRecord
  2
GradientColor2ACI
 70
     0
  0
APPID
  5
F9
330
30
100
AcDbSymbolTableRecord
100
AcDbRegAppTableRecord
  2
GENIUS_GENDTOL_13
 70
     0
  0
APPID
  5
73
330
30
100
AcDbSymbolTableRecord
100
AcDbRegAppTableRecord
  2
ACAD_DSTYLE_DIMINSPECT
 70
     0
  0
APPID
  5
14C
330
30
100
AcDbSymbolTableRecord
100
AcDbRegAppTableRecord
  2
GENIUS_GENOBJ-N-HTC_13
 70
     0
  0
APPID
  5
14D
330
30
100
AcDbSymbolTableRecord
100
AcDbRegAppTableRecord
  2
GENIUS_GENHATCH_13
 70
     0
  0
APPID
  5
146
330
30
100
AcDbSymbolTableRecord
100
AcDbRegAppTableRecord
  2
GENIUS_GENOBJ-N-CEN_13
 70
     0
  0
APPID
  5
147
330
30
100
AcDbSymbolTableRecord
100
AcDbRegAppTableRecord
  2
GENIUS_GENCEN_19
 70
     0
  0
APPID
  5
2A7
330
30
100
AcDbSymbolTableRecord
100
AcDbRegAppTableRecord
  2
GENIUS_GENOENT_13
 70
     0
  0
APPID
  5
2A8
330
30
100
AcDbSymbolTableRecord
100
AcDbRegAppTableRecord
  2
GENIUS_GENOBJ-N-CRS_13
 70
     0
  0
APPID
  5
2A9
330
30
100
AcDbSymbolTableRecord
100
AcDbRegAppTableRecord
  2
GENIUS_GENOLIS_13
 70
     0
  0
APPID
  5
5F
330
30
100
AcDbSymbolTableRecord
100
AcDbRegAppTableRecord
  2
GENIUS_GENOREF_13
 70
     0
  0
APPID
  5
2AA
330
30
100
AcDbSymbolTableRecord
100
AcDbRegAppTableRecord
  2
GENIUS_GENCRS_20
 70
     0
  0
APPID
  5
2B7
330
30
100
AcDbSymbolTableRecord
100
AcDbRegAppTableRecord
  2
ACATTRIBSERVICES
 70
     0
  0
APPID
  5
2E1
330
30
100
AcDbSymbolTableRecord
100
AcDbRegAppTableRecord
  2
ACAD_DSTYLE_DIMJOGGED_JOGANGLE_SYMBOL
 70
     0
  0
APPID
  5
2E2
330
30
100
AcDbSymbolTableRecord
100
AcDbRegAppTableRecord
  2
ACAD_DSTYLE_DIM_LINETYPE
 70
     0
  0
APPID
  5
2E3
330
30
100
AcDbSymbolTableRecord
100
AcDbRegAppTableRecord
  2
ACAD_DSTYLE_DIM_EXT1_LINETYPE
 70
     0
  0
APPID
  5
2E4
330
30
100
AcDbSymbolTableRecord
100
AcDbRegAppTableRecord
  2
ACAD_DSTYLE_DIM_EXT2_LINETYPE
 70
     0
  0
ENDTAB
  0
TABLE
  2
DIMSTYLE
  5
31
330
0
100
AcDbSymbolTable
 70
     9
100
AcDbDimStyleTable
 71
     1
340
32
  0
DIMSTYLE
105
32
102
{ACAD_REACTORS
330
25F
102
}
330
31
100
AcDbSymbolTableRecord
100
AcDbDimStyleTableRecord
  2
AM_DIN
 70
     0
  4
"
 41
3.5
 42
1.0
 43
10.0
 44
1.0
 47
0.1
 48
0.1
 73
     0
 74
     0
 77
     1
 78
     8
 79
     2
140
3.5
141
0.0
143
0.0393701
146
0.71
147
1.5
172
     1
176
   256
177
   256
178
     2
271
     2
272
     3
274
     4
283
     0
284
     8
340
24
371
    -1
372
    -1
1001
ACAD_DSTYLE_DIMJAG
1070
   388
1040
1.5
1001
ACAD_DSTYLE_DIMBREAK
1070
   391
1040
3.75
1001
ACAD_DSTYLE_DIMJOGGED_JOGANGLE_SYMBOL
1070
   384
1040
1.570796326794896
1001
ACAD_DSTYLE_DIM_LINETYPE
1070
   380
1005
27
1001
ACAD_DSTYLE_DIM_EXT1_LINETYPE
1070
   381
1005
27
1001
ACAD_DSTYLE_DIM_EXT2_LINETYPE
1070
   382
1005
27
  0
DIMSTYLE
105
296
330
31
100
AcDbSymbolTableRecord
100
AcDbDimStyleTableRecord
  2
AM_DIN$3
 70
     0
  4
"
 41
3.5
 42
1.0
 43
10.0
 44
1.0
 47
0.1
 48
0.1
 73
     0
 77
     1
 78
     8
 79
     2
140
3.5
141
0.0
143
0.0393701
146
0.71
147
1.5
176
   256
177
   256
178
     2
271
     2
272
     3
274
     4
283
     0
284
     8
288
     1
289
     0
340
24
371
    -1
372
    -1
1001
ACAD_DSTYLE_DIMBREAK
1070
   391
1040
3.75
1001
ACAD_DSTYLE_DIMJAG
1070
   388
1040
1.5
1001
ACAD_DSTYLE_DIMJOGGED_JOGANGLE_SYMBOL
1070
   384
1040
1.570796326794896
1001
ACAD_DSTYLE_DIM_LINETYPE
1070
   380
1005
27
1001
ACAD_DSTYLE_DIM_EXT1_LINETYPE
1070
   381
1005
27
1001
ACAD_DSTYLE_DIM_EXT2_LINETYPE
1070
   382
1005
27
  0
DIMSTYLE
105
297
330
31
100
AcDbSymbolTableRecord
100
AcDbDimStyleTableRecord
  2
AM_DIN$4
 70
     0
  4
"
 41
3.5
 42
1.0
 43
10.0
 44
1.0
 47
0.1
 48
0.1
 73
     0
 74
     0
 77
     1
 78
     8
 79
     2
140
3.5
141
0.0
143
0.0393701
146
0.71
147
1.5
172
     1
176
   256
177
   256
178
     2
271
     2
272
     3
274
     4
283
     0
284
     8
340
24
371
    -1
372
    -1
1001
ACAD_DSTYLE_DIMBREAK
1070
   391
1040
3.75
1001
ACAD_DSTYLE_DIMJAG
1070
   388
1040
1.5
1001
ACAD_DSTYLE_DIMJOGGED_JOGANGLE_SYMBOL
1070
   384
1040
1.570796326794896
1001
ACAD_DSTYLE_DIM_LINETYPE
1070
   380
1005
27
1001
ACAD_DSTYLE_DIM_EXT1_LINETYPE
1070
   381
1005
27
1001
ACAD_DSTYLE_DIM_EXT2_LINETYPE
1070
   382
1005
27
  0
DIMSTYLE
105
298
330
31
100
AcDbSymbolTableRecord
100
AcDbDimStyleTableRecord
  2
AM_DIN$6
 70
     0
  4
"
 41
3.5
 42
1.0
 43
10.0
 44
1.0
 47
0.1
 48
0.1
 73
     0
 74
     0
 78
     8
 79
     2
140
3.5
141
0.0
143
0.0393701
146
0.71
147
1.5
172
     1
176
   256
177
   256
178
     2
271
     2
272
     3
274
     4
283
     0
284
     8
340
24
371
    -1
372
    -1
1001
ACAD_DSTYLE_DIMBREAK
1070
   391
1040
3.75
1001
ACAD_DSTYLE_DIMJAG
1070
   388
1040
1.5
1001
ACAD_DSTYLE_DIMJOGGED_JOGANGLE_SYMBOL
1070
   384
1040
1.570796326794896
1001
ACAD_DSTYLE_DIM_LINETYPE
1070
   380
1005
27
1001
ACAD_DSTYLE_DIM_EXT1_LINETYPE
1070
   381
1005
27
1001
ACAD_DSTYLE_DIM_EXT2_LINETYPE
1070
   382
1005
27
  0
DIMSTYLE
105
299
330
31
100
AcDbSymbolTableRecord
100
AcDbDimStyleTableRecord
  2
AM_DIN$7
 70
     0
  4
"
 41
3.5
 42
1.0
 43
10.0
 44
1.0
 47
0.1
 48
0.1
 73
     0
 74
     0
 77
     1
 78
     8
 79
     2
140
3.5
141
0.0
143
0.0393701
146
0.71
147
1.5
172
     1
176
   256
177
   256
178
     2
271
     2
272
     3
274
     4
283
     0
284
     8
340
24
371
    -1
372
    -1
1001
ACAD_DSTYLE_DIMBREAK
1070
   391
1040
3.75
1001
ACAD_DSTYLE_DIMJAG
1070
   388
1040
1.5
1001
ACAD_DSTYLE_DIMJOGGED_JOGANGLE_SYMBOL
1070
   384
1040
1.570796326794896
1001
ACAD_DSTYLE_DIM_LINETYPE
1070
   380
1005
27
1001
ACAD_DSTYLE_DIM_EXT1_LINETYPE
1070
   381
1005
27
1001
ACAD_DSTYLE_DIM_EXT2_LINETYPE
1070
   382
1005
27
  0
DIMSTYLE
105
29A
330
31
100
AcDbSymbolTableRecord
100
AcDbDimStyleTableRecord
  2
AM_DIN$SF
 70
     0
  4
"
 41
3.5
 42
1.0
 43
10.0
 44
1.0
 47
0.1
 48
0.1
 73
     0
 74
     0
 75
     1
 76
     1
 77
     1
 78
     8
 79
     2
140
3.5
141
0.0
143
0.0393701
146
0.71
147
1.5
172
     1
176
   256
177
   256
178
     2
271
     2
272
     3
274
     4
283
     0
284
     8
340
24
371
    -1
372
    -1
1001
ACAD_DSTYLE_DIMBREAK
1070
   391
1040
3.75
1001
ACAD_DSTYLE_DIMJAG
1070
   388
1040
1.5
1001
ACAD_DSTYLE_DIMJOGGED_JOGANGLE_SYMBOL
1070
   384
1040
1.570796326794896
1001
ACAD_DSTYLE_DIM_LINETYPE
1070
   380
1005
27
1001
ACAD_DSTYLE_DIM_EXT1_LINETYPE
1070
   381
1005
27
1001
ACAD_DSTYLE_DIM_EXT2_LINETYPE
1070
   382
1005
27
  0
DIMSTYLE
105
29B
330
31
100
AcDbSymbolTableRecord
100
AcDbDimStyleTableRecord
  2
AM_DIN$SH
 70
     0
  4
"
 41
3.5
 42
1.0
 43
10.0
 44
1.0
 47
0.1
 48
0.1
 73
     0
 74
     0
 75
     1
 76
     1
 77
     1
 78
     8
 79
     2
140
3.5
141
0.0
143
0.0393701
144
2.0
146
0.71
147
1.5
172
     1
173
     1
176
   256
177
   256
178
     2
271
     2
272
     3
274
     4
283
     0
284
     8
340
24
343
29C
371
    -1
372
    -1
1001
ACAD_DSTYLE_DIMBREAK
1070
   391
1040
3.75
1001
ACAD_DSTYLE_DIMJAG
1070
   388
1040
1.5
1001
ACAD_DSTYLE_DIMJOGGED_JOGANGLE_SYMBOL
1070
   384
1040
1.570796326794896
1001
ACAD_DSTYLE_DIM_LINETYPE
1070
   380
1005
27
1001
ACAD_DSTYLE_DIM_EXT1_LINETYPE
1070
   381
1005
27
1001
ACAD_DSTYLE_DIM_EXT2_LINETYPE
1070
   382
1005
27
  0
DIMSTYLE
105
72
102
{ACAD_REACTORS
330
60
330
74
330
81
330
8E
330
DF
330
EC
330
FA
330
12A
330
109
330
118
330
174
330
183
330
192
330
1A6
330
1B3
330
1C0
330
1CD
330
1DA
330
1E7
330
1F4
330
201
330
20E
330
21B
330
228
330
235
102
}
330
31
100
AcDbSymbolTableRecord
100
AcDbDimStyleTableRecord
  2
AM_DIN$0
 70
     0
  4
"
 41
3.5
 42
1.0
 43
10.0
 44
1.0
 47
0.1
 48
0.1
 73
     0
 74
     0
 77
     1
 78
     8
 79
     2
140
3.5
141
0.0
143
0.0393701
146
0.71
147
1.5
172
     1
176
   256
177
   256
178
     2
271
     2
272
     3
274
     4
283
     0
284
     8
340
24
371
    -1
372
    -1
1001
ACAD_DSTYLE_DIMBREAK
1070
   391
1040
3.75
1001
ACAD_DSTYLE_DIMJAG
1070
   388
1040
1.5
1001
ACAD_DSTYLE_DIMJOGGED_JOGANGLE_SYMBOL
1070
   384
1040
1.570796326794896
1001
ACAD_DSTYLE_DIM_LINETYPE
1070
   380
1005
27
1001
ACAD_DSTYLE_DIM_EXT1_LINETYPE
1070
   381
1005
27
1001
ACAD_DSTYLE_DIM_EXT2_LINETYPE
1070
   382
1005
27
  0
DIMSTYLE
105
295
330
31
100
AcDbSymbolTableRecord
100
AcDbDimStyleTableRecord
  2
AM_DIN$2
 70
     0
  4
"
 41
3.5
 42
1.0
 43
10.0
 44
1.0
 47
0.1
 48
0.1
 73
     0
 74
     0
 77
     1
 78
     8
 79
     2
140
3.5
141
0.0
143
0.0393701
146
0.71
147
1.5
172
     1
176
   256
177
   256
178
     2
271
     2
272
     3
274
     4
283
     0
284
     8
340
24
371
    -1
372
    -1
1001
ACAD_DSTYLE_DIMBREAK
1070
   391
1040
3.75
1001
ACAD_DSTYLE_DIMJAG
1070
   388
1040
1.5
1001
ACAD_DSTYLE_DIMJOGGED_JOGANGLE_SYMBOL
1070
   384
1040
1.570796326794896
1001
ACAD_DSTYLE_DIM_LINETYPE
1070
   380
1005
27
1001
ACAD_DSTYLE_DIM_EXT1_LINETYPE
1070
   381
1005
27
1001
ACAD_DSTYLE_DIM_EXT2_LINETYPE
1070
   382
1005
27
  0
ENDTAB
  0
TABLE
  2
BLOCK_RECORD
  5
1
330
0
100
AcDbSymbolTable
 70
    32
  0
BLOCK_RECORD
  5
2
102
{ACAD_XDICTIONARY
360
3
102
}
330
1
100
AcDbSymbolTableRecord
100
AcDbBlockTableRecord
  2
*Model_Space
340
7
  0
BLOCK_RECORD
  5
C
102
{ACAD_XDICTIONARY
360
D
102
}
330
1
100
AcDbSymbolTableRecord
100
AcDbBlockTableRecord
  2
*Paper_Space
340
11
  0
BLOCK_RECORD
  5
29C
330
1
100
AcDbSymbolTableRecord
100
AcDbBlockTableRecord
  2
GENAXEH
340
0
  0
BLOCK_RECORD
  5
27D
330
1
100
AcDbSymbolTableRecord
100
AcDbBlockTableRecord
  2
_ACMFILLED30
340
0
  0
BLOCK_RECORD
  5
63
330
1
100
AcDbSymbolTableRecord
100
AcDbBlockTableRecord
  2
*D2
340
0
  0
BLOCK_RECORD
  5
75
330
1
100
AcDbSymbolTableRecord
100
AcDbBlockTableRecord
  2
*D3
340
0
  0
BLOCK_RECORD
  5
82
330
1
100
AcDbSymbolTableRecord
100
AcDbBlockTableRecord
  2
*D4
340
0
  0
BLOCK_RECORD
  5
8F
330
1
100
AcDbSymbolTableRecord
100
AcDbBlockTableRecord
  2
*D5
340
0
  0
BLOCK_RECORD
  5
E0
330
1
100
AcDbSymbolTableRecord
100
AcDbBlockTableRecord
  2
*D6
340
0
  0
BLOCK_RECORD
  5
ED
330
1
100
AcDbSymbolTableRecord
100
AcDbBlockTableRecord
  2
*D7
340
0
  0
BLOCK_RECORD
  5
FB
330
1
100
AcDbSymbolTableRecord
100
AcDbBlockTableRecord
  2
*D8
340
0
  0
BLOCK_RECORD
  5
12B
330
1
100
AcDbSymbolTableRecord
100
AcDbBlockTableRecord
  2
*D9
340
0
  0
BLOCK_RECORD
  5
10C
330
1
100
AcDbSymbolTableRecord
100
AcDbBlockTableRecord
  2
*D10
340
0
  0
BLOCK_RECORD
  5
11B
330
1
100
AcDbSymbolTableRecord
100
AcDbBlockTableRecord
  2
*D11
340
0
  0
BLOCK_RECORD
  5
13F
102
{ACAD_XDICTIONARY
360
140
102
}
330
1
100
AcDbSymbolTableRecord
100
AcDbBlockTableRecord
  2
BA-0-T1(S)
340
0
310
28000000200000002000000001002000000000000010000001000000010000000000000000000000000000FF000000FF000000FF000000FF000000FF000000FF000000FF000000FF000000FF000000FF000000FF000000FF000000FF000000FF000000FF000000FF000000FF000000FF000000FF000000FF000000FF000000
310
FF000000FF000000FF000000FF000000FF000000FF000000FF000000FF000000FF000000FF000000FF000000FF000000FF000000FF000000FF000000FF000000FF000000FF000000FF000000FF000000FF000000FF000000FF000000FF000000FF000000FF000000FF000000FF000000FF000000FF000000FF000000FF0000
310
00FF000000FF000000FF000000FF000000FF000000FF000000FF000000FF000000FF000000FF000000FF000000FF000000FF000000FF000000FF000000FF000000FF000000FF000000FF000000FF000000FF000000FF000000FF000000FF000000FF000000FF000000FF000000FF000000FF000000FF000000FF000000FF00
310
0000FF000000FF000000FF000000FF000000FF000000FF000000FF000000FF000000FF000000FF000000FF000000FF000000FFFFFF00FFFFFF00FFFFFF00FFFFFF00FFFFFF00FFFFFF00FFFFFF00FFFFFF00FFFFFF00FFFFFF00FFFFFF00FFFFFF00FFFFFF00FFFFFF00FFFFFF00FFFFFF00FFFFFF00FFFFFF00FFC0C0C0FF
310
00FF00FFFFFF00FFC0C0C0FFFFFF00FFFFFF00FFFFFF00FFFFFF00FFFFFF00FFFFFF00FFFFFF00FF000000FF000000FFFFFF00FF000000FF000000FF000000FF000000FF000000FF000000FF000000FF000000FF000000FF000000FF000000FF000000FF000000FF000000FF000000FF000000FF000000FF000000FFC0C0C0
310
FF00FF00FF000000FFC0C0C0FF000000FF000000FF000000FF000000FF000000FF000000FFFFFF00FF000000FF000000FFFFFF00FF000000FF000000FFFFFF00FFFFFF00FFFFFF00FFFFFF00FFFFFF00FFFFFF00FF000000FF000000FF000000FFFFFF00FFFFFF00FFFFFF00FFFFFF00FFFFFF00FFFFFF00FFFFFF00FFC0C0
310
C0FF00FF00FFFFFF00FFC0C0C0FFFFFF00FFFFFF00FFFFFF00FFFFFF00FFFFFF00FFFFFF00FFFFFF00FF000000FF000000FFFFFF00FF000000FFFFFF00FFFFFF00FF000000FF000000FF000000FF000000FF000000FFFFFF00FF000000FF000000FFFFFF00FF000000FF000000FF000000FF000000FF000000FF000000FF00
310
0000FF00FF00FF000000FF000000FF000000FF000000FF000000FF000000FF000000FF000000FF000000FF000000FF000000FFFFFF00FF000000FFFFFF00FF000000FF000000FF000000FF000000FF000000FF000000FF000000FFFFFF00FFFFFF00FF000000FF000000FF000000FF000000FF000000FF000000FF000000FF
310
000000FF000000FF000000FF000000FF000000FF000000FF000000FF000000FF000000FF000000FF000000FF000000FF000000FFFFFF00FF000000FFFFFF00FF000000FF000000FF000000FF000000FF000000FF000000FF000000FFFFFF00FFFFFF00FF000000FF000000FF000000FF000000FF000000FF000000FF000000
310
FF000000FF000000FF000000FF000000FF000000FF000000FF000000FF000000FF000000FF000000FF000000FF000000FF000000FFFFFF00FF000000FFFFFF00FF000000FF000000FF000000FF000000FF000000FF000000FF000000FFFFFF00FFFFFF00FF000000FF000000FF000000FF000000FF000000FF000000FF0000
310
00FF000000FF000000FF000000FF000000FF000000FF000000FF000000FF000000FF000000FF000000FF000000FF000000FF000000FFFFFF00FF000000FFFFFF00FF000000FF000000FF000000FF000000FF000000FF000000FF000000FFFFFF00FFFFFF00FF000000FF000000FF000000FF000000FF000000FF000000FF00
310
0000FF000000FF000000FF000000FF000000FF000000FF000000FF000000FF000000FF000000FF000000FF000000FF000000FF000000FFFFFF00FF000000FFFFFF00FF000000FF000000FF000000FF000000FF000000FF000000FF000000FFFFFF00FFFFFF00FF000000FF000000FF000000FF000000FF000000FF000000FF
310
000000FF000000FF000000FF000000FF000000FF000000FF000000FF000000FF000000FF000000FF000000FF000000FF000000FF000000FFFFFF00FF000000FFFFFF00FF000000FF000000FF000000FF000000FF000000FF000000FF000000FFFFFF00FFFFFF00FF000000FF000000FF000000FF000000FF000000FF000000
310
FF000000FF000000FF000000FF000000FF000000FF000000FF000000FF000000FF000000FF000000FF000000FF000000FF000000FF000000FFFFFF00FF000000FFFFFF00FF000000FF000000FF000000FF000000FF000000FF000000FF000000FFFFFF00FFFFFF00FF000000FF000000FF000000FF000000FF000000FF0000
310
00FF000000FF000000FF000000FF000000FF000000FF000000FF000000FF000000FF000000FF000000FF000000FF000000FF000000FF000000FFFFFF00FF000000FFFFFF00FF000000FF000000FF000000FF000000FF000000FF000000FF000000FFFFFF00FFFFFF00FF000000FF000000FF000000FF000000FF000000FF00
310
0000FF000000FF000000FF000000FF000000FF000000FF000000FF000000FF000000FF000000FF000000FF000000FF000000FF000000FF000000FFFFFF00FF000000FFFFFF00FF000000FF000000FF000000FF000000FF000000FF000000FF000000FFFFFF00FFFFFF00FF000000FF000000FF000000FF000000FF000000FF
310
000000FF000000FF000000FF000000FF000000FF000000FF000000FF000000FF000000FF000000FF000000FF000000FF000000FF000000FF000000FFFFFF00FFFFFF00FF000000FF000000FF000000FF000000FF000000FF000000FF000000FF000000FFFFFF00FFFFFF00FF000000FF000000FF000000FF000000FF000000
310
FF000000FF000000FF000000FF000000FF000000FF000000FF000000FF000000FF000000FF000000FF000000FF000000FF000000FF000000FF000000FFFFFF00FFFFFF00FF000000FF000000FF000000FF000000FF000000FF000000FF000000FF000000FFFFFF00FFFFFF00FF000000FF000000FF000000FF000000FF0000
310
00FF000000FF000000FF000000FF000000FF000000FF000000FF000000FF000000FF000000FF000000FF000000FF000000FF000000FF000000FF000000FFFFFF00FFFFFF00FF000000FF000000FF000000FF000000FF000000FF000000FF000000FF000000FFFFFF00FFFFFF00FF000000FF000000FF000000FF000000FF00
310
0000FF000000FF000000FF000000FF000000FF000000FF000000FF000000FF000000FF000000FF000000FF000000FF000000FF000000FF000000FF000000FFFFFF00FFFFFF00FF000000FF000000FF000000FF000000FF000000FF000000FF000000FF000000FFFFFF00FFFFFF00FF000000FF000000FF000000FF000000FF
310
000000FF000000FF000000FF000000FF000000FF000000FF000000FF000000FF000000FF000000FF000000FF000000FF000000FF000000FF000000FF000000FFFFFF00FFFFFF00FF000000FF000000FF000000FF000000FF000000FF000000FF000000FF000000FFFFFF00FFFFFF00FF000000FF000000FF000000FF000000
310
FF000000FF000000FF000000FF000000FF000000FF000000FF000000FF000000FF000000FF000000FF000000FF000000FF000000FF000000FF000000FF000000FFFFFF00FFFFFF00FF000000FF000000FF000000FF000000FF000000FF000000FF000000FF000000FFFFFF00FFFFFF00FF000000FF000000FF000000FF0000
310
00FF000000FF000000FF000000FF000000FF000000FF000000FF000000FF000000FF000000FF000000FF000000FF000000FF000000FF000000FF000000FF000000FFFFFF00FFFFFF00FFFFFF00FF000000FF000000FF000000FF000000FF000000FF000000FFFFFF00FFFFFF00FFFFFF00FF000000FF000000FF000000FF00
310
0000FF000000FF000000FF000000FF000000FF000000FF000000FF000000FF000000FF000000FF000000FF000000FF000000FF000000FF000000FF000000FF000000FFFFFF00FF000000FFFFFF00FF000000FF000000FF000000FF000000FF000000FF000000FFFFFF00FF000000FFFFFF00FF000000FF000000FF000000FF
310
000000FF000000FF000000FF000000FF000000FF000000FF000000FF000000FF000000FF000000FF000000FF000000FF000000FF000000FF000000FF000000FF000000FFFFFF00FF000000FFFFFF00FF000000FF000000FF000000FF000000FF000000FF000000FF000000FFFFFF00FFFFFF00FF000000FF000000FF000000
310
FF000000FF000000FF000000FF000000FF000000FF000000FF000000FF000000FF000000FF000000FF000000FF000000FF000000FF000000FF000000FF000000FF000000FFFFFF00FF000000FFFFFF00FF000000FF000000FF000000FF000000FF000000FF000000FF000000FFFFFF00FFFFFF00FF000000FF000000FF0000
310
00FF000000FF000000FF000000FF000000FF000000FF000000FF000000FF000000FF000000FF000000FF000000FF000000FF000000FF000000FF000000FF000000FF000000FFFFFF00FF000000FFFFFF00FF000000FF000000FF000000FF000000FF000000FF000000FF000000FFFFFF00FFFFFF00FF000000FF000000FF00
310
0000FF000000FF000000FF000000FF000000FF000000FF000000FF000000FF000000FF000000FF000000FF000000FF000000FF000000FF000000FF000000FF000000FF000000FFFFFF00FFFFFF00FFFFFF00FF000000FF000000FF000000FF000000FF000000FF000000FF000000FFFFFF00FFFFFF00FF000000FF000000FF
310
000000FF000000FF000000FF000000FF000000FF000000FF000000FF000000FF000000FF000000FF000000FF000000FF000000FF000000FF000000FF000000FF000000FF000000FFFFFF00FFFFFF00FFFFFF00FF000000FF000000FF000000FF000000FF000000FF000000FF000000FFFFFF00FFFFFF00FF000000FF000000
310
FF000000FF000000FF000000FF000000FF000000FF000000FF000000FF000000FF000000FF000000FF000000FF000000FF000000FF000000FF000000FF000000FF000000FF000000FF000000FF000000FF000000FF000000FF000000FF000000FF000000FF000000FF000000FF000000FF000000FF000000FF000000FF0000
310
00FF000000FF000000FF000000FF000000FF000000FF000000FF000000FF000000FF000000FF000000FF000000FF000000FF000000FF000000FF000000FF000000FF000000FF000000FF000000FF000000FF000000FF000000FF000000FF000000FF000000FF000000FF000000FF000000FF000000FF000000FF000000FF00
310
0000FF000000FF000000FF000000FF000000FF000000FF000000FF000000FF000000FF000000FF000000FF000000FF000000FF000000FF000000FF000000FF000000FF000000FF000000FF000000FF000000FF000000FF000000FF000000FF000000FF000000FF000000FF000000FF000000FF000000FF000000FF000000FF
310
000000FF000000FF000000FF000000FF000000FF000000FF000000FF000000FF000000FF000000FF000000FF000000FF000000FF000000FF000000FF000000FF000000FF000000FF
102
{BLKREFS
331
13E
102
}
1001
ACAD
1000
DesignCenter Data
1002
{
1070
     1
1070
     4
1002
}
  0
BLOCK_RECORD
  5
151
330
1
100
AcDbSymbolTableRecord
100
AcDbBlockTableRecord
  2
BA-Z30550877-10
340
0
310
28000000200000002000000001002000000000000010000001000000010000000000000000000000000000FF000000FF000000FF000000FF000000FF000000FF000000FF000000FF000000FF000000FF000000FF000000FF000000FF000000FF000000FF000000FF000000FF000000FF000000FF000000FF000000FF000000
310
FF000000FF000000FF000000FF000000FF000000FF000000FF000000FF000000FF000000FF000000FF000000FF000000FF000000FF000000FF000000FF000000FF000000FF000000FF000000FF000000FF000000FF000000FF000000FF000000FF000000FF00CC66FF00CC66FF00CC66FF000000FF000000FF000000FF0000
310
00FF000000FF000000FF000000FF000000FF000000FF000000FF000000FF000000FF000000FF000000FF000000FF000000FF000000FF000000FF000000FF000000FF000000FF000000FF000000FF000000FF00CC66FF00CC66FF00CC66FF00CC66FF00CC66FF00CC66FF000000FF000000FF00CC66FF00CC66FF00CC66FF00
310
0000FF000000FF000000FF000000FF000000FF000000FF000000FF000000FF000000FF000000FF000000FF000000FF000000FF000000FF000000FF000000FF000000FF000000FF000000FF00CC66FF00CC66FF000000FF000000FF000000FF000000FF000000FF00CC66FF000000FF000000FF000000FF000000FF00CC66FF
310
00CC66FF00CC66FF000000FF000000FF000000FF000000FF000000FF000000FF000000FF000000FF000000FF000000FF000000FF000000FF000000FF000000FF000000FF000000FF00CC66FF000000FF00CC66FF000000FF000000FF000000FF000000FF000000FF00CC66FF000000FF000000FF000000FF000000FF00CC66
310
FF000000FF000000FF00CC66FF00CC66FF000000FF000000FF000000FF000000FF000000FF000000FF000000FF000000FF000000FF000000FF000000FF000000FF000000FF00CC66FF000000FF000000FF00CC66FF000000FF000000FF000000FF000000FF000000FF00CC66FF000000FF000000FF000000FF000000FF00CC
310
66FF000000FF000000FF000000FF000000FF00CC66FF000000FF000000FF000000FF000000FF000000FF000000FF000000FF000000FF000000FF000000FF000000FF00CC66FF000000FF000000FF000000FF00CC66FF000000FF000000FF000000FF000000FF000000FF00CC66FF000000FF000000FF000000FF000000FF00
310
CC66FF000000FF000000FF000000FF000000FF00CC66FF00CC66FF000000FF000000FF000000FF000000FF000000FF000000FF000000FF000000FF000000FF00CC66FF00CC66FF00CC66FF00CC66FF00CC66FF00CC66FF00CC66FF00CC66FF00CC66FF00CC66FF00CC66FF00CC66FF00CC66FF00CC66FF00CC66FF00CC66FF
310
00CC66FF00CC66FF00CC66FF00CC66FF00CC66FF00CC66FF00CC66FF00CC66FF000000FF000000FF000000FF000000FF000000FF000000FF000000FF000000FF00CC66FF000000FF000000FF000000FF000000FF00CC66FF000000FF000000FF000000FF000000FF000000FF00CC66FF000000FF000000FF000000FF000000
310
FF00CC66FF000000FF000000FF000000FF000000FF00CC66FF000000FF00CC66FF000000FF000000FF000000FF000000FF000000FF000000FF000000FF00CC66FF00CC66FF000000FF000000FF000000FF000000FF00CC66FF000000FF000000FF000000FF000000FF000000FF00CC66FF000000FF000000FF000000FF0000
310
00FF00CC66FF000000FF000000FF000000FF000000FF00CC66FF000000FF000000FF00CC66FF000000FF000000FF000000FF000000FF000000FF000000FF00CC66FF00CC66FF000000FF000000FF000000FF000000FF00CC66FF000000FF000000FF000000FF000000FF000000FF00CC66FF000000FF000000FF000000FF00
310
0000FF00CC66FF000000FF000000FF000000FF000000FF00CC66FF000000FF000000FF000000FF00CC66FF000000FF000000FF000000FF000000FF00CC66FF000000FF00CC66FF000000FF000000FF000000FF000000FF00CC66FF000000FF000000FF000000FF000000FF000000FF00CC66FF000000FF000000FF000000FF
310
000000FF00CC66FF000000FF000000FF000000FF000000FF00CC66FF000000FF000000FF000000FF00CC66FF000000FF000000FF000000FF000000FF00CC66FF00CC66FF00CC66FF00CC66FF00CC66FF00CC66FF00CC66FF00CC66FF00CC66FF00CC66FF00CC66FF00CC66FF00CC66FF00CC66FF00CC66FF00CC66FF00CC66
310
FF00CC66FF00CC66FF00CC66FF00CC66FF00CC66FF00CC66FF00CC66FF00CC66FF00CC66FF00CC66FF00CC66FF000000FF000000FF000000FF000000FF00CC66FF000000FF00CC66FF000000FF000000FF000000FF000000FF00CC66FF000000FF000000FF000000FF000000FF000000FF00CC66FF000000FF000000FF0000
310
00FF000000FF00CC66FF000000FF000000FF000000FF000000FF00CC66FF000000FF000000FF000000FF00CC66FF000000FF000000FF000000FF00CC66FF000000FF000000FF00CC66FF000000FF000000FF000000FF000000FF00CC66FF000000FF000000FF000000FF000000FF000000FF00CC66FF000000FF000000FF00
310
0000FF000000FF00CC66FF000000FF000000FF000000FF000000FF00CC66FF000000FF000000FF000000FF000000FF00CC66FF000000FF000000FF00CC66FF000000FF000000FF00CC66FF000000FF000000FF000000FF000000FF00CC66FF000000FF000000FF000000FF000000FF000000FF00CC66FF000000FF000000FF
310
000000FF000000FF00CC66FF000000FF000000FF000000FF000000FF00CC66FF000000FF000000FF000000FF000000FF00CC66FF000000FF000000FF00CC66FF000000FF000000FF00CC66FF000000FF000000FF000000FF000000FF00CC66FF000000FF000000FF000000FF000000FF000000FF00CC66FF000000FF000000
310
FF000000FF000000FF00CC66FF000000FF000000FF000000FF000000FF00CC66FF000000FF000000FF000000FF000000FF00CC66FF000000FF000000FF00CC66FF00CC66FF00CC66FF00CC66FF00CC66FF00CC66FF00CC66FF00CC66FF00CC66FF00CC66FF00CC66FF00CC66FF00CC66FF00CC66FF00CC66FF00CC66FF00CC
310
66FF00CC66FF00CC66FF00CC66FF00CC66FF00CC66FF00CC66FF00CC66FF00CC66FF00CC66FF00CC66FF00CC66FF00CC66FF000000FF000000FF000000FF000000FF00CC66FF000000FF00CC66FF000000FF000000FF000000FF000000FF00CC66FF000000FF000000FF000000FF000000FF000000FF00CC66FF000000FF00
310
0000FF000000FF000000FF00CC66FF000000FF000000FF000000FF000000FF00CC66FF000000FF000000FF000000FF00CC66FF000000FF000000FF000000FF000000FF00CC66FF000000FF00CC66FF000000FF000000FF000000FF000000FF00CC66FF000000FF000000FF000000FF000000FF000000FF00CC66FF000000FF
310
000000FF000000FF000000FF00CC66FF000000FF000000FF000000FF000000FF00CC66FF000000FF000000FF000000FF00CC66FF000000FF000000FF000000FF000000FF00CC66FF000000FF00CC66FF000000FF000000FF000000FF000000FF00CC66FF000000FF000000FF000000FF000000FF000000FF00CC66FF000000
310
FF000000FF000000FF000000FF00CC66FF000000FF000000FF000000FF000000FF00CC66FF000000FF000000FF000000FF00CC66FF000000FF000000FF000000FF000000FF000000FF00CC66FF00CC66FF000000FF000000FF000000FF000000FF00CC66FF000000FF000000FF000000FF000000FF000000FF00CC66FF0000
310
00FF000000FF000000FF000000FF00CC66FF000000FF000000FF000000FF000000FF00CC66FF000000FF000000FF000000FF00CC66FF000000FF000000FF000000FF000000FF000000FF00CC66FF00CC66FF000000FF000000FF000000FF000000FF00CC66FF000000FF000000FF000000FF000000FF000000FF00CC66FF00
310
0000FF000000FF000000FF000000FF00CC66FF000000FF000000FF000000FF000000FF00CC66FF000000FF000000FF00CC66FF000000FF000000FF000000FF000000FF000000FF000000FF00CC66FF00CC66FF00CC66FF00CC66FF00CC66FF00CC66FF00CC66FF00CC66FF00CC66FF00CC66FF00CC66FF00CC66FF00CC66FF
310
00CC66FF00CC66FF00CC66FF00CC66FF00CC66FF00CC66FF00CC66FF00CC66FF00CC66FF00CC66FF00CC66FF00CC66FF00CC66FF000000FF000000FF000000FF000000FF000000FF000000FF000000FF00CC66FF000000FF000000FF000000FF000000FF00CC66FF000000FF000000FF000000FF000000FF000000FF00CC66
310
FF000000FF000000FF000000FF000000FF00CC66FF000000FF000000FF000000FF000000FF00CC66FF000000FF00CC66FF000000FF000000FF000000FF000000FF000000FF000000FF000000FF000000FF000000FF00CC66FF000000FF000000FF000000FF00CC66FF000000FF000000FF000000FF000000FF000000FF00CC
310
66FF000000FF000000FF000000FF000000FF00CC66FF000000FF000000FF000000FF000000FF00CC66FF00CC66FF000000FF000000FF000000FF000000FF000000FF000000FF000000FF000000FF000000FF000000FF000000FF00CC66FF000000FF000000FF00CC66FF000000FF000000FF000000FF000000FF000000FF00
310
CC66FF000000FF000000FF000000FF000000FF00CC66FF000000FF000000FF000000FF000000FF00CC66FF000000FF000000FF000000FF000000FF000000FF000000FF000000FF000000FF000000FF000000FF000000FF000000FF000000FF00CC66FF000000FF00CC66FF000000FF000000FF000000FF000000FF000000FF
310
00CC66FF000000FF000000FF000000FF000000FF00CC66FF000000FF000000FF00CC66FF00CC66FF000000FF000000FF000000FF000000FF000000FF000000FF000000FF000000FF000000FF000000FF000000FF000000FF000000FF000000FF000000FF00CC66FF00CC66FF00CC66FF00CC66FF00CC66FF00CC66FF00CC66
310
FF00CC66FF00CC66FF00CC66FF00CC66FF00CC66FF00CC66FF00CC66FF00CC66FF000000FF000000FF000000FF000000FF000000FF000000FF000000FF000000FF000000FF000000FF000000FF000000FF000000FF000000FF000000FF000000FF000000FF000000FF000000FF00CC66FF00CC66FF00CC66FF00CC66FF00CC
310
66FF00CC66FF000000FF000000FF00CC66FF00CC66FF00CC66FF000000FF000000FF000000FF000000FF000000FF000000FF000000FF000000FF000000FF000000FF000000FF000000FF000000FF000000FF000000FF000000FF000000FF000000FF000000FF000000FF000000FF000000FF000000FF000000FF000000FF00
310
0000FF00CC66FF00CC66FF00CC66FF000000FF000000FF000000FF000000FF000000FF000000FF000000FF000000FF000000FF000000FF000000FF000000FF000000FF000000FF000000FF000000FF000000FF000000FF000000FF000000FF000000FF000000FF000000FF000000FF000000FF000000FF000000FF000000FF
310
000000FF000000FF000000FF000000FF000000FF000000FF000000FF000000FF000000FF000000FF000000FF000000FF000000FF000000FF000000FF000000FF000000FF000000FF
102
{BLKREFS
331
150
102
}
1001
ACAD
1000
DesignCenter Data
1002
{
1070
     1
1070
     4
1002
}
  0
BLOCK_RECORD
  5
158
330
1
100
AcDbSymbolTableRecord
100
AcDbBlockTableRecord
  2
BA-Z-P9732-A
340
0
310
28000000200000002000000001002000000000000010000001000000010000000000000000000000000000FF000000FF000000FF000000FF000000FF000000FF000000FF000000FF000000FF000000FF000000FF000000FF000000FF000000FF000000FF000000FF000000FF000000FF000000FF000000FF000000FF000000
310
FF000000FF000000FF000000FF000000FF000000FF000000FF000000FF000000FF000000FF000000FF000000FF000000FF000000FF000000FF000000FF000000FF000000FF000000FF000000FF000000FF000000FF000000FF000000FF007FFFFF007FFFFF007FFFFF007FFFFF007FFFFF007FFFFF007FFFFF007FFFFF007F
310
FFFF007FFFFF007FFFFF007FFFFF000000FF000000FF000000FF000000FF000000FF000000FF000000FF000000FF000000FF000000FF000000FF000000FF000000FF000000FF000000FF000000FF000000FF000000FF000000FF000000FF007FFFFF007FFFFF007FFFFF000000FF007FFFFF007FFFFF000000FF007FFFFF00
310
7FFFFF000000FF007FFFFF007FFFFF000000FF000000FF000000FF000000FF000000FF000000FF000000FF000000FF000000FF000000FF000000FF000000FF000000FF000000FF000000FF000000FF000000FF000000FF000000FF000000FF007FFFFF000000FF007FFFFF000000FF007FFFFF007FFFFF000000FF007FFFFF
310
007FFFFF000000FF007FFFFF007FFFFF000000FF000000FF000000FF000000FF000000FF000000FF000000FF000000FF000000FF000000FF000000FF000000FF000000FF000000FF000000FF000000FF000000FF000000FF000000FF000000FF007FFFFF007FFFFF000000FF007FFFFF000000FF000000FF007FFFFF000000
310
FF000000FF007FFFFF000000FF007FFFFF000000FF000000FF000000FF000000FF000000FF000000FF000000FF000000FF000000FF000000FF000000FF000000FF000000FF000000FF000000FF000000FF000000FF000000FF000000FF000000FF007FFFFF007FFFFF000000FF007FFFFF007FFFFF007FFFFF000000FF007F
310
FFFF007FFFFF000000FF007FFFFF007FFFFF000000FF000000FF000000FF000000FF000000FF000000FF000000FF000000FF000000FF000000FF000000FF000000FF000000FF000000FF000000FF000000FF000000FF000000FF000000FF000000FF007FFFFF000000FF007FFFFF000000FF007FFFFF007FFFFF000000FF00
310
7FFFFF007FFFFF000000FF007FFFFF007FFFFF000000FF000000FF000000FF000000FF000000FF000000FF000000FF000000FF000000FF000000FF000000FF000000FF000000FF000000FF000000FF000000FF000000FF000000FF000000FF000000FF007FFFFF007FFFFF000000FF007FFFFF000000FF000000FF007FFFFF
310
000000FF000000FF007FFFFF000000FF007FFFFF000000FF000000FF000000FF000000FF000000FF000000FF000000FF000000FF000000FF000000FF000000FF000000FF000000FF000000FF000000FF000000FF000000FF000000FF000000FF007FFFFF007FFFFF007FFFFF007FFFFF000000FF007FFFFF007FFFFF000000
310
FF007FFFFF007FFFFF000000FF007FFFFF007FFFFF000000FF000000FF000000FF000000FF000000FF000000FF000000FF000000FF000000FF000000FF000000FF000000FF000000FF000000FF000000FF000000FF000000FF000000FF000000FF007FFFFF000000FF007FFFFF007FFFFF000000FF007FFFFF007FFFFF0000
310
00FF007FFFFF007FFFFF000000FF007FFFFF007FFFFF000000FF000000FF000000FF000000FF000000FF000000FF000000FF000000FF000000FF000000FF000000FF000000FF000000FF000000FF000000FF000000FF000000FF000000FF000000FF007FFFFF007FFFFF000000FF000000FF007FFFFF000000FF000000FF00
310
7FFFFF000000FF000000FF007FFFFF000000FF007FFFFF000000FF000000FF000000FF000000FF000000FF000000FF000000FF000000FF000000FF000000FF000000FF000000FF000000FF000000FF000000FF000000FF000000FF000000FF000000FF007FFFFF000000FF007FFFFF007FFFFF000000FF007FFFFF007FFFFF
310
000000FF007FFFFF007FFFFF000000FF007FFFFF007FFFFF000000FF000000FF000000FF000000FF000000FF000000FF000000FF000000FF000000FF000000FF000000FF000000FF000000FF000000FF000000FF000000FF000000FF000000FF000000FF007FFFFF000000FF007FFFFF007FFFFF000000FF007FFFFF007FFF
310
FF000000FF007FFFFF007FFFFF000000FF007FFFFF007FFFFF000000FF000000FF000000FF000000FF000000FF000000FF000000FF000000FF000000FF000000FF000000FF000000FF000000FF000000FF000000FF007FFFFF007FFFFF007FFFFF007FFFFF007FFFFF007FFFFF000000FF000000FF007FFFFF000000FF0000
310
00FF007FFFFF000000FF000000FF007FFFFF000000FF007FFFFF000000FF000000FF000000FF000000FF000000FF000000FF000000FF000000FF000000FF000000FF000000FF000000FF000000FF000000FF000000FF007FFFFF000000FF007FFFFF007FFFFF007FFFFF000000FF007FFFFF007FFFFF007FFFFF000000FF00
310
7FFFFF000000FF007FFFFF007FFFFF000000FF007FFFFF007FFFFF000000FF000000FF000000FF000000FF000000FF000000FF000000FF000000FF000000FF000000FF000000FF000000FF000000FF000000FF007FFFFF007FFFFF007FFFFF007FFFFF007FFFFF007FFFFF000000FF007FFFFF007FFFFF000000FF007FFFFF
310
000000FF000000FF007FFFFF007FFFFF000000FF007FFFFF007FFFFF000000FF000000FF000000FF000000FF000000FF000000FF000000FF000000FF000000FF000000FF000000FF000000FF000000FF000000FF007FFFFF000000FF000000FF007FFFFF000000FF000000FF007FFFFF000000FF000000FF007FFFFF000000
310
FF007FFFFF007FFFFF007FFFFF007FFFFF007FFFFF007FFFFF007FFFFF000000FF000000FF000000FF000000FF000000FF000000FF000000FF000000FF000000FF000000FF000000FF000000FF000000FF000000FF007FFFFF007FFFFF007FFFFF007FFFFF007FFFFF007FFFFF000000FF007FFFFF007FFFFF000000FF007F
310
FFFF007FFFFF007FFFFF007FFFFF000000FF000000FF000000FF000000FF000000FF000000FF000000FF000000FF000000FF000000FF000000FF000000FF000000FF000000FF000000FF000000FF000000FF000000FF000000FF007FFFFF007FFFFF007FFFFF007FFFFF007FFFFF000000FF007FFFFF007FFFFF000000FF00
310
7FFFFF007FFFFF000000FF007FFFFF007FFFFF000000FF000000FF000000FF000000FF000000FF000000FF000000FF000000FF000000FF000000FF000000FF000000FF000000FF000000FF000000FF000000FF000000FF000000FF000000FF000000FF000000FF007FFFFF000000FF007FFFFF000000FF000000FF007FFFFF
310
000000FF000000FF007FFFFF000000FF007FFFFF000000FF000000FF000000FF000000FF000000FF000000FF000000FF000000FF000000FF000000FF000000FF000000FF000000FF000000FF000000FF000000FF000000FF000000FF000000FF000000FF000000FF007FFFFF007FFFFF000000FF007FFFFF007FFFFF000000
310
FF007FFFFF007FFFFF000000FF007FFFFF007FFFFF007FFFFF000000FF000000FF000000FF000000FF000000FF000000FF000000FF000000FF000000FF000000FF000000FF000000FF000000FF000000FF000000FF000000FF000000FF007FFFFF007FFFFF007FFFFF007FFFFF007FFFFF000000FF007FFFFF007FFFFF0000
310
00FF007FFFFF007FFFFF000000FF007FFFFF007FFFFF007FFFFF000000FF000000FF000000FF000000FF000000FF000000FF000000FF000000FF000000FF000000FF000000FF000000FF000000FF000000FF000000FF000000FF000000FF007FFFFF007FFFFF007FFFFF007FFFFF000000FF007FFFFF000000FF000000FF00
310
7FFFFF000000FF000000FF007FFFFF000000FF000000FF007FFFFF007FFFFF000000FF000000FF000000FF000000FF000000FF000000FF000000FF000000FF000000FF000000FF000000FF000000FF000000FF000000FF000000FF000000FF000000FF007FFFFF007FFFFF007FFFFF007FFFFF000000FF007FFFFF007FFFFF
310
000000FF007FFFFF007FFFFF000000FF007FFFFF007FFFFF000000FF007FFFFF000000FF000000FF000000FF000000FF000000FF000000FF000000FF000000FF000000FF000000FF000000FF000000FF000000FF000000FF000000FF000000FF000000FF000000FF000000FF007FFFFF007FFFFF007FFFFF007FFFFF007FFF
310
FF000000FF007FFFFF007FFFFF000000FF007FFFFF007FFFFF007FFFFF007FFFFF007FFFFF000000FF000000FF000000FF000000FF000000FF000000FF000000FF000000FF000000FF000000FF000000FF000000FF000000FF000000FF000000FF000000FF000000FF000000FF000000FF000000FF007FFFFF007FFFFF0000
310
00FF007FFFFF000000FF000000FF007FFFFF007FFFFF000000FF007FFFFF007FFFFF007FFFFF000000FF000000FF000000FF000000FF000000FF000000FF000000FF000000FF000000FF000000FF000000FF000000FF000000FF000000FF000000FF000000FF000000FF000000FF000000FF000000FF000000FF000000FF00
310
7FFFFF007FFFFF007FFFFF007FFFFF000000FF007FFFFF007FFFFF000000FF000000FF000000FF000000FF000000FF000000FF000000FF000000FF000000FF000000FF000000FF000000FF000000FF000000FF000000FF000000FF000000FF000000FF000000FF000000FF000000FF000000FF000000FF000000FF000000FF
310
000000FF000000FF007FFFFF007FFFFF000000FF007FFFFF007FFFFF007FFFFF000000FF000000FF000000FF000000FF000000FF000000FF000000FF000000FF000000FF000000FF000000FF000000FF000000FF000000FF000000FF000000FF000000FF000000FF000000FF000000FF000000FF000000FF000000FF000000
310
FF000000FF000000FF000000FF000000FF007FFFFF007FFFFF007FFFFF007FFFFF007FFFFF000000FF000000FF000000FF000000FF000000FF000000FF000000FF000000FF000000FF000000FF000000FF000000FF000000FF000000FF000000FF000000FF000000FF000000FF000000FF000000FF000000FF000000FF0000
310
00FF000000FF000000FF000000FF000000FF000000FF000000FF007FFFFF007FFFFF007FFFFF007FFFFF000000FF000000FF000000FF000000FF000000FF000000FF000000FF000000FF000000FF000000FF000000FF000000FF000000FF000000FF000000FF000000FF000000FF000000FF000000FF000000FF000000FF00
310
0000FF000000FF000000FF000000FF000000FF000000FF000000FF000000FF000000FF007FFFFF007FFFFF000000FF000000FF000000FF000000FF000000FF000000FF000000FF000000FF000000FF000000FF000000FF000000FF000000FF000000FF000000FF000000FF000000FF000000FF000000FF000000FF000000FF
310
000000FF000000FF000000FF000000FF000000FF000000FF000000FF000000FF000000FF000000FF000000FF000000FF000000FF000000FF000000FF000000FF000000FF000000FF
102
{BLKREFS
331
157
102
}
1001
ACAD
1000
DesignCenter Data
1002
{
1070
     1
1070
     4
1002
}
  0
BLOCK_RECORD
  5
160
102
{ACAD_XDICTIONARY
360
161
102
}
330
1
100
AcDbSymbolTableRecord
100
AcDbBlockTableRecord
  2
BA-Z-P9771-I
340
0
310
28000000200000002000000001002000000000000010000001000000010000000000000000000000000000FF000000FF000000FF000000FF000000FF000000FF000000FF000000FF000000FF000000FF000000FF000000FF000000FF000000FF000000FF000000FF000000FF000000FF000000FF000000FF000000FF000000
310
FF000000FF000000FF000000FF000000FF000000FF000000FF000000FF000000FF000000FF000000FF000000FF000000FF000000FF000000FF000000FF000000FF000000FF000000FF000000FF000000FF000000FF000000FF000000FF000000FF000000FF000000FF000000FF000000FF000000FF000000FF000000FF0000
310
00FF000000FF000000FF000000FF000000FF000000FF000000FF000000FF000000FF000000FF000000FF000000FF000000FF000000FF000000FF000000FF000000FF000000FF000000FF000000FF000000FF000000FF000000FF000000FF000000FF000000FF000000FF000000FF000000FF000000FF000000FF000000FF00
310
0000FF000000FF000000FF000000FF000000FF000000FF000000FF000000FF000000FF000000FF000000FF000000FF000000FF000000FF000000FF000000FF000000FF000000FF000000FF000000FF000000FF000000FF000000FF000000FF000000FF000000FF000000FF000000FF000000FF000000FF000000FF000000FF
310
000000FF000000FF000000FF000000FF000000FF000000FF000000FF000000FF000000FF000000FF000000FF000000FF000000FF000000FF000000FF000000FF000000FF000000FF000000FF000000FF000000FF000000FF000000FF000000FF000000FF000000FF000000FF000000FF000000FF000000FF000000FF000000
310
FF000000FF000000FF000000FF000000FF000000FF000000FF000000FF000000FF000000FF000000FF000000FF000000FF000000FF000000FF000000FF000000FF007FFFFF007FFFFF007FFFFF000000FF000000FF000000FF000000FF000000FF000000FF000000FF000000FF000000FF000000FF000000FF000000FF0000
310
00FF000000FF000000FF000000FF000000FF000000FF000000FF000000FF000000FF000000FF000000FF000000FF000000FF000000FF000000FF000000FF000000FF007FFFFF000000FF000000FF007FFFFF007FFFFF000000FF000000FF000000FF000000FF000000FF000000FF000000FF000000FF000000FF000000FF00
310
0000FF000000FF000000FF000000FF000000FF007FFFFF007FFFFF007FFFFF000000FF000000FF000000FF000000FF000000FF000000FF000000FF000000FF000000FF000000FF007FFFFF000000FF000000FF000000FF007FFFFF007FFFFF000000FF000000FF000000FF000000FF000000FF000000FF000000FF000000FF
310
000000FF000000FF000000FF007FFFFF007FFFFF000000FF000000FF000000FF007FFFFF000000FF000000FF000000FF000000FF000000FF000000FF000000FF000000FF000000FF000000FF007FFFFF000000FF000000FF000000FF000000FF007FFFFF007FFFFF000000FF000000FF000000FF000000FF000000FF007FFF
310
FF007FFFFF007FFFFF007FFFFF000000FF000000FF000000FF000000FF000000FF000000FF007FFFFF000000FF000000FF000000FF000000FF000000FF000000FF000000FF000000FF000000FF000000FF007FFFFF000000FF000000FF000000FF000000FF000000FF007FFFFF007FFFFF007FFFFF007FFFFF007FFFFF0000
310
00FF000000FF000000FF000000FF000000FF000000FF000000FF007FFFFF007FFFFF007FFFFF007FFFFF000000FF000000FF000000FF000000FF000000FF000000FF000000FF000000FF000000FF000000FF007FFFFF000000FF000000FF000000FF000000FF000000FF000000FF000000FF000000FF000000FF000000FF00
310
0000FF000000FF000000FF000000FF000000FF000000FF000000FF007FFFFF000000FF000000FF000000FF000000FF000000FF000000FF000000FF000000FF000000FF000000FF000000FF000000FF000000FF007FFFFF007FFFFF000000FF000000FF000000FF000000FF000000FF000000FF000000FF000000FF000000FF
310
000000FF000000FF000000FF000000FF000000FF000000FF000000FF007FFFFF000000FF000000FF000000FF000000FF000000FF000000FF000000FF000000FF000000FF000000FF000000FF000000FF000000FF007FFFFF000000FF000000FF000000FF000000FF000000FF000000FF000000FF000000FF000000FF000000
310
FF000000FF000000FF000000FF000000FF000000FF000000FF000000FF007FFFFF007FFFFF000000FF000000FF000000FF000000FF000000FF000000FF000000FF000000FF000000FF000000FF000000FF000000FF007FFFFF000000FF000000FF000000FF000000FF000000FF000000FF007FFFFF007FFFFF007FFFFF007F
310
FFFF000000FF000000FF000000FF000000FF000000FF000000FF000000FF000000FF000000FF007FFFFF000000FF000000FF000000FF000000FF000000FF000000FF000000FF000000FF000000FF007FFFFF007FFFFF000000FF000000FF000000FF000000FF000000FF000000FF007FFFFF000000FF000000FF000000FF00
310
0000FF007FFFFF000000FF000000FF000000FF000000FF000000FF000000FF000000FF000000FF007FFFFF000000FF000000FF000000FF000000FF000000FF000000FF000000FF000000FF007FFFFF000000FF000000FF000000FF000000FF000000FF000000FF000000FF007FFFFF000000FF000000FF000000FF000000FF
310
000000FF000000FF007FFFFF000000FF000000FF000000FF000000FF000000FF000000FF000000FF000000FF007FFFFF007FFFFF000000FF000000FF000000FF000000FF000000FF000000FF007FFFFF007FFFFF007FFFFF007FFFFF000000FF000000FF000000FF000000FF007FFFFF000000FF000000FF000000FF000000
310
FF000000FF000000FF007FFFFF000000FF000000FF000000FF000000FF000000FF000000FF007FFFFF007FFFFF007FFFFF007FFFFF000000FF000000FF000000FF000000FF000000FF000000FF007FFFFF000000FF000000FF007FFFFF000000FF000000FF000000FF000000FF007FFFFF000000FF000000FF000000FF0000
310
00FF000000FF000000FF007FFFFF000000FF000000FF000000FF000000FF000000FF000000FF007FFFFF000000FF000000FF000000FF000000FF000000FF000000FF000000FF000000FF000000FF000000FF000000FF000000FF007FFFFF000000FF000000FF000000FF000000FF007FFFFF000000FF000000FF000000FF00
310
0000FF000000FF000000FF007FFFFF000000FF000000FF000000FF000000FF000000FF000000FF007FFFFF000000FF000000FF000000FF000000FF000000FF000000FF000000FF000000FF000000FF000000FF000000FF000000FF007FFFFF000000FF000000FF000000FF000000FF000000FF007FFFFF000000FF000000FF
310
000000FF000000FF007FFFFF000000FF000000FF000000FF000000FF000000FF000000FF000000FF007FFFFF000000FF000000FF000000FF000000FF000000FF000000FF000000FF000000FF000000FF000000FF000000FF000000FF007FFFFF000000FF000000FF000000FF000000FF000000FF000000FF007FFFFF007FFF
310
FF007FFFFF007FFFFF000000FF000000FF000000FF000000FF000000FF000000FF000000FF000000FF007FFFFF007FFFFF007FFFFF000000FF000000FF000000FF000000FF000000FF000000FF000000FF000000FF000000FF000000FF007FFFFF000000FF000000FF000000FF000000FF000000FF000000FF000000FF0000
310
00FF000000FF000000FF000000FF000000FF000000FF000000FF000000FF000000FF000000FF000000FF000000FF000000FF007FFFFF000000FF000000FF000000FF000000FF000000FF000000FF000000FF000000FF007FFFFF007FFFFF000000FF000000FF000000FF000000FF000000FF000000FF000000FF000000FF00
310
0000FF000000FF000000FF000000FF000000FF000000FF000000FF000000FF000000FF000000FF000000FF000000FF000000FF007FFFFF000000FF000000FF000000FF000000FF000000FF000000FF000000FF007FFFFF000000FF000000FF000000FF000000FF000000FF000000FF000000FF000000FF000000FF000000FF
310
000000FF000000FF000000FF000000FF000000FF000000FF000000FF000000FF000000FF000000FF000000FF007FFFFF007FFFFF000000FF000000FF000000FF000000FF000000FF000000FF007FFFFF007FFFFF000000FF000000FF000000FF000000FF007FFFFF007FFFFF007FFFFF007FFFFF007FFFFF007FFFFF007FFF
310
FF007FFFFF007FFFFF007FFFFF007FFFFF007FFFFF007FFFFF007FFFFF007FFFFF007FFFFF007FFFFF007FFFFF000000FF000000FF000000FF000000FF000000FF000000FF007FFFFF007FFFFF000000FF007FFFFF007FFFFF007FFFFF007FFFFF007FFFFF000000FF000000FF000000FF000000FF000000FF000000FF0000
310
00FF000000FF000000FF000000FF000000FF000000FF000000FF000000FF000000FF000000FF000000FF000000FF000000FF000000FF000000FF000000FF000000FF000000FF000000FF007FFFFF007FFFFF000000FF000000FF000000FF000000FF000000FF000000FF000000FF000000FF000000FF000000FF000000FF00
310
0000FF000000FF000000FF000000FF000000FF000000FF000000FF000000FF000000FF000000FF000000FF000000FF000000FF000000FF000000FF000000FF000000FF000000FF000000FF000000FF000000FF000000FF000000FF000000FF000000FF000000FF000000FF000000FF000000FF000000FF000000FF000000FF
310
000000FF000000FF000000FF000000FF000000FF000000FF000000FF000000FF000000FF000000FF000000FF000000FF000000FF000000FF000000FF000000FF000000FF000000FF000000FF000000FF000000FF000000FF000000FF000000FF000000FF000000FF000000FF000000FF000000FF000000FF000000FF000000
310
FF000000FF000000FF000000FF000000FF000000FF000000FF000000FF000000FF000000FF000000FF000000FF000000FF000000FF000000FF000000FF000000FF000000FF000000FF000000FF000000FF000000FF000000FF000000FF000000FF000000FF000000FF000000FF000000FF000000FF000000FF000000FF0000
310
00FF000000FF000000FF000000FF000000FF000000FF000000FF000000FF000000FF000000FF000000FF000000FF000000FF000000FF000000FF000000FF000000FF000000FF000000FF000000FF000000FF000000FF000000FF000000FF000000FF000000FF000000FF000000FF000000FF000000FF000000FF000000FF00
310
0000FF000000FF000000FF000000FF000000FF000000FF000000FF000000FF000000FF000000FF000000FF000000FF000000FF000000FF000000FF000000FF000000FF000000FF000000FF000000FF000000FF000000FF000000FF000000FF000000FF000000FF000000FF000000FF000000FF000000FF000000FF000000FF
310
000000FF000000FF000000FF000000FF000000FF000000FF000000FF000000FF000000FF000000FF000000FF000000FF000000FF000000FF000000FF000000FF000000FF000000FF
102
{BLKREFS
331
15F
102
}
1001
ACAD
1000
DesignCenter Data
1002
{
1070
     1
1070
     4
1002
}
  0
BLOCK_RECORD
  5
16C
102
{ACAD_XDICTIONARY
360
16D
102
}
330
1
100
AcDbSymbolTableRecord
100
AcDbBlockTableRecord
  2
BA-Z-P9717-16
340
0
310
28000000200000002000000001002000000000000010000001000000010000000000000000000000000000FF000000FF000000FF000000FF000000FF000000FF000000FF000000FF000000FF000000FF000000FF000000FF000000FF000000FF000000FF000000FF000000FF000000FF000000FF000000FF000000FF000000
310
FF000000FF000000FF000000FF000000FF000000FF000000FF000000FF000000FF000000FF000000FF000000FF000000FF000000FF000000FF000000FF000000FF000000FF000000FF000000FF000000FF000000FF000000FF000000FF000000FF000000FF000000FF000000FF000000FF000000FF000000FF000000FF0000
310
00FF000000FF000000FF000000FF000000FF000000FF000000FF000000FF000000FF000000FF000000FF000000FF000000FF000000FF000000FF000000FF000000FF000000FF000000FF000000FF000000FF000000FF000000FF000000FF000000FF000000FF000000FF000000FF000000FF000000FF000000FF000000FF00
310
0000FF000000FF000000FF000000FF000000FF000000FF000000FF000000FF000000FF000000FF000000FF000000FF000000FF000000FF000000FF000000FF000000FF000000FF000000FF000000FF000000FF000000FF000000FF000000FF000000FF000000FF000000FF000000FF000000FF000000FF000000FF000000FF
310
000000FF000000FF000000FF000000FF000000FF000000FF000000FF000000FF000000FF000000FF000000FF000000FF000000FF000000FF000000FF000000FF000000FF000000FF007FFFFF007FFFFF000000FF000000FF000000FF000000FF000000FF000000FF000000FF000000FF000000FF000000FF000000FF000000
310
FF000000FF000000FF007FFFFF007FFFFF000000FF000000FF000000FF000000FF000000FF000000FF000000FF000000FF000000FF000000FF000000FF000000FF007FFFFF007FFFFF000000FF007FFFFF007FFFFF007FFFFF000000FF000000FF000000FF000000FF000000FF000000FF000000FF000000FF000000FF0000
310
00FF007FFFFF007FFFFF007FFFFF007FFFFF007FFFFF007FFFFF000000FF000000FF000000FF000000FF000000FF000000FF000000FF000000FF000000FF007FFFFF007FFFFF000000FF007FFFFF007FFFFF007FFFFF007FFFFF007FFFFF007FFFFF007FFFFF007FFFFF000000FF000000FF007FFFFF007FFFFF007FFFFF00
310
7FFFFF007FFFFF007FFFFF007FFFFF000000FF007FFFFF000000FF007FFFFF000000FF000000FF000000FF000000FF000000FF000000FF000000FF007FFFFF007FFFFF007FFFFF007FFFFF007FFFFF007FFFFF007FFFFF007FFFFF007FFFFF007FFFFF007FFFFF007FFFFF007FFFFF007FFFFF007FFFFF007FFFFF007FFFFF
310
007FFFFF007FFFFF007FFFFF007FFFFF007FFFFF007FFFFF007FFFFF007FFFFF000000FF000000FF000000FF000000FF000000FF000000FF000000FF007FFFFF000000FF007FFFFF007FFFFF007FFFFF007FFFFF000000FF000000FF000000FF000000FF007FFFFF007FFFFF007FFFFF007FFFFF007FFFFF007FFFFF007FFF
310
FF000000FF000000FF000000FF007FFFFF007FFFFF007FFFFF007FFFFF000000FF007FFFFF000000FF000000FF000000FF000000FF000000FF000000FF007FFFFF007FFFFF000000FF007FFFFF007FFFFF007FFFFF000000FF000000FF000000FF000000FF000000FF000000FF000000FF000000FF000000FF000000FF0000
310
00FF000000FF000000FF000000FF007FFFFF000000FF007FFFFF000000FF007FFFFF007FFFFF000000FF000000FF000000FF000000FF000000FF000000FF007FFFFF000000FF007FFFFF000000FF000000FF007FFFFF000000FF000000FF000000FF000000FF000000FF000000FF000000FF000000FF000000FF000000FF00
310
0000FF000000FF000000FF000000FF007FFFFF007FFFFF000000FF007FFFFF000000FF007FFFFF000000FF000000FF000000FF000000FF000000FF000000FF007FFFFF007FFFFF000000FF007FFFFF007FFFFF007FFFFF000000FF000000FF000000FF000000FF000000FF000000FF000000FF000000FF000000FF000000FF
310
000000FF000000FF000000FF000000FF007FFFFF000000FF007FFFFF000000FF007FFFFF007FFFFF000000FF000000FF000000FF000000FF000000FF007FFFFF007FFFFF000000FF007FFFFF007FFFFF007FFFFF007FFFFF000000FF000000FF000000FF000000FF000000FF000000FF000000FF000000FF000000FF000000
310
FF000000FF000000FF000000FF000000FF007FFFFF007FFFFF000000FF007FFFFF000000FF007FFFFF000000FF000000FF000000FF000000FF000000FF007FFFFF007FFFFF000000FF007FFFFF007FFFFF007FFFFF007FFFFF000000FF000000FF000000FF000000FF000000FF000000FF000000FF000000FF000000FF0000
310
00FF000000FF000000FF000000FF000000FF007FFFFF007FFFFF007FFFFF000000FF007FFFFF007FFFFF007FFFFF000000FF000000FF000000FF000000FF007FFFFF007FFFFF007FFFFF000000FF007FFFFF007FFFFF007FFFFF000000FF000000FF000000FF000000FF000000FF000000FF000000FF000000FF000000FF00
310
0000FF000000FF000000FF000000FF000000FF007FFFFF000000FF007FFFFF000000FF000000FF007FFFFF007FFFFF000000FF000000FF000000FF000000FF007FFFFF007FFFFF000000FF007FFFFF000000FF000000FF007FFFFF000000FF000000FF000000FF000000FF000000FF000000FF000000FF000000FF000000FF
310
000000FF000000FF000000FF000000FF000000FF007FFFFF007FFFFF000000FF007FFFFF007FFFFF000000FF007FFFFF000000FF000000FF000000FF000000FF007FFFFF000000FF007FFFFF007FFFFF007FFFFF007FFFFF007FFFFF000000FF000000FF000000FF000000FF000000FF000000FF000000FF000000FF000000
310
FF000000FF000000FF000000FF000000FF000000FF007FFFFF000000FF007FFFFF007FFFFF007FFFFF007FFFFF007FFFFF000000FF000000FF000000FF000000FF007FFFFF000000FF007FFFFF007FFFFF007FFFFF007FFFFF007FFFFF000000FF000000FF000000FF000000FF000000FF000000FF000000FF000000FF0000
310
00FF000000FF000000FF000000FF000000FF000000FF007FFFFF007FFFFF000000FF007FFFFF007FFFFF007FFFFF007FFFFF000000FF000000FF000000FF000000FF007FFFFF007FFFFF000000FF007FFFFF007FFFFF000000FF007FFFFF000000FF000000FF000000FF000000FF000000FF000000FF000000FF000000FF00
310
0000FF000000FF000000FF000000FF000000FF000000FF007FFFFF007FFFFF000000FF007FFFFF000000FF007FFFFF007FFFFF000000FF000000FF000000FF000000FF007FFFFF000000FF007FFFFF007FFFFF000000FF007FFFFF007FFFFF000000FF000000FF000000FF000000FF000000FF000000FF000000FF000000FF
310
000000FF000000FF000000FF000000FF000000FF000000FF007FFFFF000000FF007FFFFF000000FF007FFFFF000000FF007FFFFF000000FF000000FF000000FF000000FF007FFFFF007FFFFF007FFFFF007FFFFF007FFFFF000000FF007FFFFF000000FF000000FF000000FF000000FF000000FF000000FF000000FF000000
310
FF000000FF000000FF000000FF000000FF000000FF000000FF000000FF007FFFFF000000FF007FFFFF000000FF007FFFFF007FFFFF000000FF000000FF000000FF000000FF007FFFFF007FFFFF007FFFFF007FFFFF007FFFFF007FFFFF000000FF000000FF000000FF000000FF000000FF000000FF000000FF000000FF0000
310
00FF000000FF000000FF000000FF000000FF000000FF000000FF000000FF007FFFFF007FFFFF007FFFFF000000FF007FFFFF007FFFFF000000FF000000FF000000FF000000FF007FFFFF000000FF007FFFFF007FFFFF000000FF007FFFFF000000FF000000FF000000FF000000FF000000FF000000FF000000FF000000FF00
310
0000FF000000FF000000FF000000FF000000FF000000FF000000FF000000FF007FFFFF007FFFFF007FFFFF007FFFFF000000FF007FFFFF007FFFFF000000FF000000FF007FFFFF000000FF007FFFFF000000FF000000FF007FFFFF000000FF000000FF000000FF000000FF000000FF000000FF000000FF000000FF000000FF
310
000000FF000000FF000000FF000000FF000000FF000000FF000000FF000000FF000000FF007FFFFF007FFFFF007FFFFF007FFFFF000000FF007FFFFF000000FF000000FF007FFFFF007FFFFF000000FF007FFFFF007FFFFF000000FF000000FF000000FF000000FF000000FF000000FF000000FF000000FF000000FF000000
310
FF000000FF000000FF000000FF000000FF000000FF000000FF000000FF000000FF000000FF007FFFFF007FFFFF000000FF007FFFFF007FFFFF007FFFFF000000FF000000FF007FFFFF000000FF007FFFFF007FFFFF007FFFFF000000FF000000FF000000FF000000FF000000FF000000FF000000FF000000FF000000FF0000
310
00FF000000FF000000FF000000FF000000FF000000FF000000FF000000FF000000FF000000FF000000FF000000FF007FFFFF000000FF007FFFFF007FFFFF000000FF000000FF007FFFFF000000FF007FFFFF000000FF000000FF000000FF000000FF000000FF000000FF000000FF000000FF000000FF000000FF000000FF00
310
0000FF000000FF000000FF000000FF000000FF000000FF000000FF000000FF000000FF000000FF000000FF000000FF000000FF007FFFFF000000FF007FFFFF000000FF000000FF000000FF007FFFFF000000FF000000FF000000FF000000FF000000FF000000FF000000FF000000FF000000FF000000FF000000FF000000FF
310
000000FF000000FF000000FF000000FF000000FF000000FF000000FF000000FF000000FF000000FF000000FF000000FF000000FF000000FF007FFFFF000000FF000000FF000000FF000000FF000000FF000000FF000000FF000000FF000000FF000000FF000000FF000000FF000000FF000000FF000000FF000000FF000000
310
FF000000FF000000FF000000FF000000FF000000FF000000FF000000FF000000FF000000FF000000FF000000FF000000FF000000FF000000FF000000FF000000FF000000FF000000FF000000FF000000FF000000FF000000FF000000FF000000FF000000FF000000FF000000FF000000FF000000FF000000FF000000FF0000
310
00FF000000FF000000FF000000FF000000FF000000FF000000FF000000FF000000FF000000FF000000FF000000FF000000FF000000FF000000FF000000FF000000FF000000FF000000FF000000FF000000FF000000FF000000FF000000FF000000FF000000FF000000FF000000FF000000FF000000FF000000FF000000FF00
310
0000FF000000FF000000FF000000FF000000FF000000FF000000FF000000FF000000FF000000FF000000FF000000FF000000FF000000FF000000FF000000FF000000FF000000FF000000FF000000FF000000FF000000FF000000FF000000FF000000FF000000FF000000FF000000FF000000FF000000FF000000FF000000FF
310
000000FF000000FF000000FF000000FF000000FF000000FF000000FF000000FF000000FF000000FF000000FF000000FF000000FF000000FF000000FF000000FF000000FF000000FF
102
{BLKREFS
331
16B
102
}
1001
ACAD
1000
DesignCenter Data
1002
{
1070
     1
1070
     4
1002
}
  0
BLOCK_RECORD
  5
175
330
1
100
AcDbSymbolTableRecord
100
AcDbBlockTableRecord
  2
*D17
340
0
  0
BLOCK_RECORD
  5
184
330
1
100
AcDbSymbolTableRecord
100
AcDbBlockTableRecord
  2
*D18
340
0
  0
BLOCK_RECORD
  5
193
330
1
100
AcDbSymbolTableRecord
100
AcDbBlockTableRecord
  2
*D19
340
0
  0
BLOCK_RECORD
  5
1A7
330
1
100
AcDbSymbolTableRecord
100
AcDbBlockTableRecord
  2
*D20
340
0
  0
BLOCK_RECORD
  5
1B4
330
1
100
AcDbSymbolTableRecord
100
AcDbBlockTableRecord
  2
*D21
340
0
  0
BLOCK_RECORD
  5
1C1
330
1
100
AcDbSymbolTableRecord
100
AcDbBlockTableRecord
  2
*D22
340
0
  0
BLOCK_RECORD
  5
1CE
330
1
100
AcDbSymbolTableRecord
100
AcDbBlockTableRecord
  2
*D23
340
0
  0
BLOCK_RECORD
  5
1DB
330
1
100
AcDbSymbolTableRecord
100
AcDbBlockTableRecord
  2
*D24
340
0
  0
BLOCK_RECORD
  5
1E8
330
1
100
AcDbSymbolTableRecord
100
AcDbBlockTableRecord
  2
*D25
340
0
  0
BLOCK_RECORD
  5
1F5
330
1
100
AcDbSymbolTableRecord
100
AcDbBlockTableRecord
  2
*D26
340
0
  0
BLOCK_RECORD
  5
202
330
1
100
AcDbSymbolTableRecord
100
AcDbBlockTableRecord
  2
*D27
340
0
  0
BLOCK_RECORD
  5
20F
330
1
100
AcDbSymbolTableRecord
100
AcDbBlockTableRecord
  2
*D28
340
0
  0
BLOCK_RECORD
  5
21C
330
1
100
AcDbSymbolTableRecord
100
AcDbBlockTableRecord
  2
*D29
340
0
  0
BLOCK_RECORD
  5
229
330
1
100
AcDbSymbolTableRecord
100
AcDbBlockTableRecord
  2
*D30
340
0
  0
BLOCK_RECORD
  5
236
330
1
100
AcDbSymbolTableRecord
100
AcDbBlockTableRecord
  2
*D31
340
0
  0
ENDTAB
  0
ENDSEC
  0
SECTION
  2
BLOCKS
  0
BLOCK
  5
5
330
2
100
AcDbEntity
  8
0
100
AcDbBlockBegin
  2
*Model_Space
 70
     0
 10
0.0
 20
0.0
 30
0.0
  3
*Model_Space
  1

  0
ENDBLK
  5
6
330
2
100
AcDbEntity
  8
0
100
AcDbBlockEnd
  0
BLOCK
  5
F
330
C
100
AcDbEntity
 67
     1
  8
0
100
AcDbBlockBegin
  2
*Paper_Space
 70
     0
 10
0.0
 20
0.0
 30
0.0
  3
*Paper_Space
  1

  0
ENDBLK
  5
10
330
C
100
AcDbEntity
 67
     1
  8
0
100
AcDbBlockEnd
  0
BLOCK
  5
29D
330
29C
100
AcDbEntity
  8
0
100
AcDbBlockBegin
  2
GENAXEH
 70
     0
 10
0.0
 20
0.0
 30
0.0
  3
GENAXEH
  1

  0
LINE
  5
29E
330
29C
100
AcDbEntity
  8
0
100
AcDbLine
 10
-1.0
 20
0.0
 30
0.0
 11
1.0
 21
0.0
 31
0.0
  0
ENDBLK
  5
29F
330
29C
100
AcDbEntity
  8
0
100
AcDbBlockEnd
  0
BLOCK
  5
27E
330
27D
100
AcDbEntity
  8
0
100
AcDbBlockBegin
  2
_ACMFILLED30
 70
     0
 10
0.0
 20
0.0
 30
0.0
  3
_ACMFILLED30
  1

  0
TRACE
  5
27F
330
27D
100
AcDbEntity
  8
0
 62
     0
100
AcDbTrace
 10
-1.0
 20
-0.26794919
 30
0.0
 11
-1.0
 21
0.26794919
 31
0.0
 12
0.0
 22
0.0
 32
0.0
 13
0.0
 23
0.0
 33
0.0
  0
ENDBLK
  5
280
330
27D
100
AcDbEntity
  8
0
100
AcDbBlockEnd
  0
BLOCK
  5
64
330
63
100
AcDbEntity
  8
0
100
AcDbBlockBegin
  2
*D2
 70
     1
 10
0.0
 20
0.0
 30
0.0
  3
*D2
  1

  0
LINE
  5
65
330
63
100
AcDbEntity
  8
AM_5
  6
ByBlock
100
AcDbLine
 10
-4880.129729578201
 20
6698.847455243248
 30
0.0
 11
-4880.129729578201
 21
6681.347455243247
 31
0.0
  0
LINE
  5
66
330
63
100
AcDbEntity
  8
AM_5
  6
ByBlock
100
AcDbLine
 10
-4916.129729578202
 20
6695.347455243247
 30
0.0
 11
-4916.129729578202
 21
6681.347455243247
 31
0.0
  0
LINE
  5
67
330
63
100
AcDbEntity
  8
AM_5
  6
ByBlock
100
AcDbLine
 10
-4887.129729578202
 20
6683.347455243247
 30
0.0
 11
-4909.129729578201
 21
6683.347455243247
 31
0.0
  0
SOLID
  5
68
330
63
100
AcDbEntity
  8
AM_5
100
AcDbTrace
 10
-4887.129729578202
 20
6684.514121909915
 30
0.0
 11
-4887.129729578202
 21
6682.18078857658
 31
0.0
 12
-4880.129729578201
 22
6683.347455243247
 32
0.0
 13
-4880.129729578201
 23
6683.347455243247
 33
0.0
  0
SOLID
  5
69
330
63
100
AcDbEntity
  8
AM_5
100
AcDbTrace
 10
-4909.129729578201
 20
6684.514121909915
 30
0.0
 11
-4909.129729578201
 21
6682.18078857658
 31
0.0
 12
-4916.129729578202
 22
6683.347455243247
 32
0.0
 13
-4916.129729578202
 23
6683.347455243247
 33
0.0
  0
MTEXT
  5
6A
330
63
100
AcDbEntity
  8
AM_5
 62
     2
100
AcDbMText
 10
-4898.129729578201
 20
6689.923853606138
 30
0.0
 40
7.0
 41
0.0
 71
     5
 72
     1
  1
36
 73
     1
 44
1.0
1001
ACAD
1000
MTEXTBEGIN
1070
    73
1070
     1
1070
    44
1040
1.0
1070
    74
1070
     0
1000
MTEXTEND
  0
POINT
  5
6B
330
63
100
AcDbEntity
  8
DEFPOINTS
 62
     0
100
AcDbPoint
 10
-4880.129729578201
 20
6700.847455243248
 30
0.0
  0
POINT
  5
6F
330
63
100
AcDbEntity
  8
DEFPOINTS
 62
     0
100
AcDbPoint
 10
-4916.129729578202
 20
6697.347455243248
 30
0.0
  0
POINT
  5
70
330
63
100
AcDbEntity
  8
DEFPOINTS
 62
     0
100
AcDbPoint
 10
-4916.129729578202
 20
6683.347455243247
 30
0.0
  0
ENDBLK
  5
71
330
63
100
AcDbEntity
  8
0
100
AcDbBlockEnd
  0
BLOCK
  5
76
330
75
100
AcDbEntity
  8
0
100
AcDbBlockBegin
  2
*D3
 70
     1
 10
0.0
 20
0.0
 30
0.0
  3
*D3
  1

  0
LINE
  5
77
330
75
100
AcDbEntity
  8
AM_5
  6
ByBlock
100
AcDbLine
 10
-4916.129729578202
 20
6695.347455243247
 30
0.0
 11
-4916.129729578202
 21
6681.347455243247
 31
0.0
  0
LINE
  5
78
330
75
100
AcDbEntity
  8
AM_5
  6
ByBlock
100
AcDbLine
 10
-5003.129729578201
 20
6698.851818510997
 30
0.0
 11
-5003.129729578201
 21
6681.347455243247
 31
0.0
  0
LINE
  5
79
330
75
100
AcDbEntity
  8
AM_5
  6
ByBlock
100
AcDbLine
 10
-4923.129729578201
 20
6683.347455243247
 30
0.0
 11
-4996.129729578202
 21
6683.347455243247
 31
0.0
  0
SOLID
  5
7A
330
75
100
AcDbEntity
  8
AM_5
100
AcDbTrace
 10
-4923.129729578201
 20
6684.514121909915
 30
0.0
 11
-4923.129729578201
 21
6682.18078857658
 31
0.0
 12
-4916.129729578202
 22
6683.347455243247
 32
0.0
 13
-4916.129729578202
 23
6683.347455243247
 33
0.0
  0
SOLID
  5
7B
330
75
100
AcDbEntity
  8
AM_5
100
AcDbTrace
 10
-4996.129729578202
 20
6684.514121909915
 30
0.0
 11
-4996.129729578202
 21
6682.18078857658
 31
0.0
 12
-5003.129729578201
 22
6683.347455243247
 32
0.0
 13
-5003.129729578201
 23
6683.347455243247
 33
0.0
  0
MTEXT
  5
7C
330
75
100
AcDbEntity
  8
AM_5
 62
     2
100
AcDbMText
 10
-4959.629729578201
 20
6689.921466157298
 30
0.0
 40
7.0
 41
0.0
 71
     5
 72
     1
  1
87
 73
     1
 44
1.0
1001
ACAD
1000
MTEXTBEGIN
1070
    73
1070
     1
1070
    44
1040
1.0
1070
    74
1070
     0
1000
MTEXTEND
  0
POINT
  5
7D
330
75
100
AcDbEntity
  8
DEFPOINTS
 62
     0
100
AcDbPoint
 10
-4916.129729578202
 20
6697.347455243248
 30
0.0
  0
POINT
  5
7E
330
75
100
AcDbEntity
  8
DEFPOINTS
 62
     0
100
AcDbPoint
 10
-5003.129729578201
 20
6700.851818510997
 30
0.0
  0
POINT
  5
7F
330
75
100
AcDbEntity
  8
DEFPOINTS
 62
     0
100
AcDbPoint
 10
-5003.129729578201
 20
6683.347455243247
 30
0.0
  0
ENDBLK
  5
80
330
75
100
AcDbEntity
  8
0
100
AcDbBlockEnd
  0
BLOCK
  5
83
330
82
100
AcDbEntity
  8
0
100
AcDbBlockBegin
  2
*D4
 70
     1
 10
0.0
 20
0.0
 30
0.0
  3
*D4
  1

  0
LINE
  5
84
330
82
100
AcDbEntity
  8
AM_5
  6
ByBlock
100
AcDbLine
 10
-4880.129729578201
 20
6698.847455243248
 30
0.0
 11
-4880.129729578201
 21
6664.347455243248
 31
0.0
  0
LINE
  5
85
330
82
100
AcDbEntity
  8
AM_5
  6
ByBlock
100
AcDbLine
 10
-5003.129729578201
 20
6698.851818510997
 30
0.0
 11
-5003.129729578201
 21
6664.347455243248
 31
0.0
  0
LINE
  5
86
330
82
100
AcDbEntity
  8
AM_5
  6
ByBlock
100
AcDbLine
 10
-4887.129729578202
 20
6666.347455243247
 30
0.0
 11
-4996.129729578202
 21
6666.347455243247
 31
0.0
  0
SOLID
  5
87
330
82
100
AcDbEntity
  8
AM_5
100
AcDbTrace
 10
-4887.129729578202
 20
6667.514121909914
 30
0.0
 11
-4887.129729578202
 21
6665.180788576581
 31
0.0
 12
-4880.129729578201
 22
6666.347455243247
 32
0.0
 13
-4880.129729578201
 23
6666.347455243247
 33
0.0
  0
SOLID
  5
88
330
82
100
AcDbEntity
  8
AM_5
100
AcDbTrace
 10
-4996.129729578202
 20
6667.514121909914
 30
0.0
 11
-4996.129729578202
 21
6665.180788576581
 31
0.0
 12
-5003.129729578201
 22
6666.347455243247
 32
0.0
 13
-5003.129729578201
 23
6666.347455243247
 33
0.0
  0
MTEXT
  5
89
330
82
100
AcDbEntity
  8
AM_5
 62
     2
100
AcDbMText
 10
-4941.629729578202
 20
6672.923853606139
 30
0.0
 40
7.0
 41
0.0
 71
     5
 72
     1
  1
123
 73
     1
 44
1.0
1001
ACAD
1000
MTEXTBEGIN
1070
    73
1070
     1
1070
    44
1040
1.0
1070
    74
1070
     0
1000
MTEXTEND
  0
POINT
  5
8A
330
82
100
AcDbEntity
  8
DEFPOINTS
 62
     0
100
AcDbPoint
 10
-4880.129729578201
 20
6700.847455243248
 30
0.0
  0
POINT
  5
8B
330
82
100
AcDbEntity
  8
DEFPOINTS
 62
     0
100
AcDbPoint
 10
-5003.129729578201
 20
6700.851818510997
 30
0.0
  0
POINT
  5
8C
330
82
100
AcDbEntity
  8
DEFPOINTS
 62
     0
100
AcDbPoint
 10
-5003.129729578201
 20
6666.347455243247
 30
0.0
  0
ENDBLK
  5
8D
330
82
100
AcDbEntity
  8
0
100
AcDbBlockEnd
  0
BLOCK
  5
90
330
8F
100
AcDbEntity
  8
0
100
AcDbBlockBegin
  2
*D5
 70
     1
 10
0.0
 20
0.0
 30
0.0
  3
*D5
  1

  0
LINE
  5
91
330
8F
100
AcDbEntity
  8
AM_5
  6
ByBlock
100
AcDbLine
 10
-4987.889727416986
 20
6713.347455243251
 30
0.0
 11
-5022.129729578202
 21
6713.347455243251
 31
0.0
  0
LINE
  5
92
330
8F
100
AcDbEntity
  8
AM_5
  6
ByBlock
100
AcDbLine
 10
-5004.629729578201
 20
6808.347455243247
 30
0.0
 11
-5022.129729578202
 21
6808.347455243247
 31
0.0
  0
LINE
  5
93
330
8F
100
AcDbEntity
  8
AM_5
  6
ByBlock
100
AcDbLine
 10
-5020.129729578203
 20
6720.347455243253
 30
0.0
 11
-5020.129729578203
 21
6801.347455243247
 31
0.0
  0
SOLID
  5
94
330
8F
100
AcDbEntity
  8
AM_5
100
AcDbTrace
 10
-5021.29639624487
 20
6720.347455243253
 30
0.0
 11
-5018.963062911535
 21
6720.347455243253
 31
0.0
 12
-5020.129729578203
 22
6713.347455243251
 32
0.0
 13
-5020.129729578203
 23
6713.347455243251
 33
0.0
  0
SOLID
  5
95
330
8F
100
AcDbEntity
  8
AM_5
100
AcDbTrace
 10
-5021.29639624487
 20
6801.347455243247
 30
0.0
 11
-5018.963062911535
 21
6801.347455243247
 31
0.0
 12
-5020.129729578203
 22
6808.347455243247
 32
0.0
 13
-5020.129729578203
 23
6808.347455243247
 33
0.0
  0
MTEXT
  5
96
330
8F
100
AcDbEntity
  8
AM_5
 62
     2
100
AcDbMText
 10
-5026.749102020223
 20
6760.84745524325
 30
0.0
 40
7.0
 41
0.0
 71
     5
 72
     1
  1
Glaseinstand ca.95
 11
0.0000000000000001
 21
1.0
 31
0.0
 73
     1
 44
1.0
1001
ACAD
1000
MTEXTBEGIN
1070
    73
1070
     1
1070
    44
1040
1.0
1070
    74
1070
     0
1000
MTEXTEND
  0
POINT
  5
97
330
8F
100
AcDbEntity
  8
DEFPOINTS
 62
     0
100
AcDbPoint
 10
-4985.889727416986
 20
6713.347455243251
 30
0.0
  0
POINT
  5
98
330
8F
100
AcDbEntity
  8
DEFPOINTS
 62
     0
100
AcDbPoint
 10
-5002.629729578202
 20
6808.347455243247
 30
0.0
  0
POINT
  5
99
330
8F
100
AcDbEntity
  8
DEFPOINTS
 62
     0
100
AcDbPoint
 10
-5020.129729578203
 20
6808.347455243247
 30
0.0
  0
ENDBLK
  5
9A
330
8F
100
AcDbEntity
  8
0
100
AcDbBlockEnd
  0
BLOCK
  5
E1
330
E0
100
AcDbEntity
  8
0
100
AcDbBlockBegin
  2
*D6
 70
     1
 10
0.0
 20
0.0
 30
0.0
  3
*D6
  1

  0
LINE
  5
E2
330
E0
100
AcDbEntity
  8
AM_5
  6
ByBlock
100
AcDbLine
 10
-4098.74994149945
 20
6690.347455243248
 30
0.0
 11
-4098.74994149945
 21
6534.101477522803
 31
0.0
  0
LINE
  5
E3
330
E0
100
AcDbEntity
  8
AM_5
  6
ByBlock
100
AcDbLine
 10
-3973.74994149945
 20
6715.347455243247
 30
0.0
 11
-3973.74994149945
 21
6534.101477522803
 31
0.0
  0
LINE
  5
E4
330
E0
100
AcDbEntity
  8
AM_5
  6
ByBlock
100
AcDbLine
 10
-4063.74994149945
 20
6544.101477522803
 30
0.0
 11
-4008.74994149945
 21
6544.101477522803
 31
0.0
  0
SOLID
  5
E5
330
E0
100
AcDbEntity
  8
AM_5
100
AcDbTrace
 10
-4063.74994149945
 20
6549.934810856136
 30
0.0
 11
-4063.74994149945
 21
6538.26814418947
 31
0.0
 12
-4098.74994149945
 22
6544.101477522803
 32
0.0
 13
-4098.74994149945
 23
6544.101477522803
 33
0.0
  0
SOLID
  5
E6
330
E0
100
AcDbEntity
  8
AM_5
100
AcDbTrace
 10
-4008.74994149945
 20
6549.934810856136
 30
0.0
 11
-4008.74994149945
 21
6538.26814418947
 31
0.0
 12
-3973.74994149945
 22
6544.101477522803
 32
0.0
 13
-3973.74994149945
 23
6544.101477522803
 33
0.0
  0
MTEXT
  5
E7
330
E0
100
AcDbEntity
  8
AM_5
 62
     2
100
AcDbMText
 10
-4036.24994149945
 20
6576.971532093063
 30
0.0
 40
35.0
 41
0.0
 71
     5
 72
     1
  1
125
 73
     1
 44
1.0
1001
ACAD
1000
MTEXTBEGIN
1070
    73
1070
     1
1070
    44
1040
1.0
1070
    74
1070
     0
1000
MTEXTEND
  0
POINT
  5
E8
330
E0
100
AcDbEntity
  8
DEFPOINTS
 62
     0
100
AcDbPoint
 10
-4098.74994149945
 20
6700.347455243248
 30
0.0
  0
POINT
  5
E9
330
E0
100
AcDbEntity
  8
DEFPOINTS
 62
     0
100
AcDbPoint
 10
-3973.74994149945
 20
6725.347455243248
 30
0.0
  0
POINT
  5
EA
330
E0
100
AcDbEntity
  8
DEFPOINTS
 62
     0
100
AcDbPoint
 10
-3973.74994149945
 20
6544.101477522803
 30
0.0
  0
ENDBLK
  5
EB
330
E0
100
AcDbEntity
  8
0
100
AcDbBlockEnd
  0
BLOCK
  5
EE
330
ED
100
AcDbEntity
  8
0
100
AcDbBlockBegin
  2
*D7
 70
     1
 10
0.0
 20
0.0
 30
0.0
  3
*D7
  1

  0
LINE
  5
EF
330
ED
100
AcDbEntity
  8
AM_5
  6
ByBlock
100
AcDbLine
 10
-4098.74994149945
 20
6690.347455243248
 30
0.0
 11
-4098.74994149945
 21
6425.323391931406
 31
0.0
  0
LINE
  5
F0
330
ED
100
AcDbEntity
  8
AM_5
  6
ByBlock
100
AcDbLine
 10
-1098.750319257229
 20
6690.347455243248
 30
0.0
 11
-1098.750319257229
 21
6425.323391931406
 31
0.0
  0
LINE
  5
F1
330
ED
100
AcDbEntity
  8
AM_5
  6
ByBlock
100
AcDbLine
 10
-4063.74994149945
 20
6435.323391931406
 30
0.0
 11
-1133.750319257229
 21
6435.323391931406
 31
0.0
  0
SOLID
  5
F2
330
ED
100
AcDbEntity
  8
AM_5
100
AcDbTrace
 10
-4063.74994149945
 20
6441.156725264739
 30
0.0
 11
-4063.74994149945
 21
6429.490058598073
 31
0.0
 12
-4098.74994149945
 22
6435.323391931406
 32
0.0
 13
-4098.74994149945
 23
6435.323391931406
 33
0.0
  0
SOLID
  5
F3
330
ED
100
AcDbEntity
  8
AM_5
100
AcDbTrace
 10
-1133.750319257229
 20
6441.156725264739
 30
0.0
 11
-1133.750319257229
 21
6429.490058598073
 31
0.0
 12
-1098.750319257229
 22
6435.323391931406
 32
0.0
 13
-1098.750319257229
 23
6435.323391931406
 33
0.0
  0
MTEXT
  5
F4
330
ED
100
AcDbEntity
  8
AM_5
 62
     2
100
AcDbMText
 10
-2598.75013037834
 20
6480.159379880475
 30
0.0
 40
35.0
 41
0.0
 71
     5
 72
     1
  1
3000{}{\H0.71x;\C3;\S+3^  0;}
 73
     1
 44
1.0
1001
ACAD
1000
MTEXTBEGIN
1070
    73
1070
     1
1070
    44
1040
1.0
1070
    74
1070
     0
1000
MTEXTEND
  0
POINT
  5
F5
330
ED
100
AcDbEntity
  8
DEFPOINTS
 62
     0
100
AcDbPoint
 10
-4098.74994149945
 20
6700.347455243248
 30
0.0
  0
POINT
  5
F6
330
ED
100
AcDbEntity
  8
DEFPOINTS
 62
     0
100
AcDbPoint
 10
-1098.750319257229
 20
6700.347455243248
 30
0.0
  0
POINT
  5
F7
330
ED
100
AcDbEntity
  8
DEFPOINTS
 62
     0
100
AcDbPoint
 10
-1098.750319257229
 20
6435.323391931406
 30
0.0
  0
ENDBLK
  5
F8
330
ED
100
AcDbEntity
  8
0
100
AcDbBlockEnd
  0
BLOCK
  5
FC
330
FB
100
AcDbEntity
  8
0
100
AcDbBlockBegin
  2
*D8
 70
     1
 10
0.0
 20
0.0
 30
0.0
  3
*D8
  1

  0
LINE
  5
FD
330
FB
100
AcDbEntity
  8
AM_5
  6
ByBlock
100
AcDbLine
 10
-737.132939928837
 20
6736.347455243247
 30
0.0
 11
-789.6438244456658
 21
6736.347455243247
 31
0.0
  0
LINE
  5
FE
330
FB
100
AcDbEntity
  8
AM_5
  6
ByBlock
100
AcDbLine
 10
-733.628576661089
 20
6823.347455243247
 30
0.0
 11
-789.6438244456658
 21
6823.347455243247
 31
0.0
  0
LINE
  5
FF
330
FB
100
AcDbEntity
  8
AM_5
  6
ByBlock
100
AcDbLine
 10
-779.6438244456658
 20
6701.347455243247
 30
0.0
 11
-779.6438244456658
 21
6666.347455243247
 31
0.0
  0
LINE
  5
100
330
FB
100
AcDbEntity
  8
AM_5
  6
ByBlock
100
AcDbLine
 10
-779.6438244456658
 20
6858.347455243247
 30
0.0
 11
-779.6438244456658
 21
6893.347455243247
 31
0.0
  0
LINE
  5
101
330
FB
100
AcDbEntity
  8
AM_5
  6
ByBlock
100
AcDbLine
 10
-779.6438244456658
 20
6736.347455243247
 30
0.0
 11
-779.6438244456658
 21
6823.347455243247
 31
0.0
  0
SOLID
  5
102
330
FB
100
AcDbEntity
  8
AM_5
100
AcDbTrace
 10
-785.4771577789992
 20
6701.347455243247
 30
0.0
 11
-773.8104911123324
 21
6701.347455243247
 31
0.0
 12
-779.6438244456658
 22
6736.347455243247
 32
0.0
 13
-779.6438244456658
 23
6736.347455243247
 33
0.0
  0
SOLID
  5
103
330
FB
100
AcDbEntity
  8
AM_5
100
AcDbTrace
 10
-785.4771577789992
 20
6858.347455243247
 30
0.0
 11
-773.8104911123324
 21
6858.347455243247
 31
0.0
 12
-779.6438244456658
 22
6823.347455243247
 32
0.0
 13
-779.6438244456658
 23
6823.347455243247
 33
0.0
  0
MTEXT
  5
104
330
FB
100
AcDbEntity
  8
AM_5
 62
     2
100
AcDbMText
 10
-812.513879015926
 20
6779.847455243246
 30
0.0
 40
35.0
 41
0.0
 71
     5
 72
     1
  1
87
 11
0.0000000000000001
 21
1.0
 31
0.0
 73
     1
 44
1.0
1001
ACAD
1000
MTEXTBEGIN
1070
    73
1070
     1
1070
    44
1040
1.0
1070
    74
1070
     0
1000
MTEXTEND
  0
POINT
  5
105
330
FB
100
AcDbEntity
  8
DEFPOINTS
 62
     0
100
AcDbPoint
 10
-727.132939928837
 20
6736.347455243247
 30
0.0
  0
POINT
  5
106
330
FB
100
AcDbEntity
  8
DEFPOINTS
 62
     0
100
AcDbPoint
 10
-723.628576661089
 20
6823.347455243247
 30
0.0
  0
POINT
  5
107
330
FB
100
AcDbEntity
  8
DEFPOINTS
 62
     0
100
AcDbPoint
 10
-779.6438244456658
 20
6823.347455243247
 30
0.0
  0
ENDBLK
  5
108
330
FB
100
AcDbEntity
  8
0
100
AcDbBlockEnd
  0
BLOCK
  5
12C
330
12B
100
AcDbEntity
  8
0
100
AcDbBlockBegin
  2
*D9
 70
     1
 10
0.0
 20
0.0
 30
0.0
  3
*D9
  1

  0
LINE
  5
12D
330
12B
100
AcDbEntity
  8
AM_5
  6
ByBlock
100
AcDbLine
 10
-5004.629729578201
 20
6700.347455243248
 30
0.0
 11
-5039.129729578203
 21
6700.347455243248
 31
0.0
  0
LINE
  5
12E
330
12B
100
AcDbEntity
  8
AM_5
  6
ByBlock
100
AcDbLine
 10
-5004.629729578201
 20
6808.347455243247
 30
0.0
 11
-5039.129729578203
 21
6808.347455243247
 31
0.0
  0
LINE
  5
12F
330
12B
100
AcDbEntity
  8
AM_5
  6
ByBlock
100
AcDbLine
 10
-5037.129729578203
 20
6707.347455243247
 30
0.0
 11
-5037.129729578203
 21
6801.347455243247
 31
0.0
  0
SOLID
  5
130
330
12B
100
AcDbEntity
  8
AM_5
100
AcDbTrace
 10
-5038.296396244869
 20
6707.347455243247
 30
0.0
 11
-5035.963062911536
 21
6707.347455243247
 31
0.0
 12
-5037.129729578203
 22
6700.347455243248
 32
0.0
 13
-5037.129729578203
 23
6700.347455243248
 33
0.0
  0
SOLID
  5
131
330
12B
100
AcDbEntity
  8
AM_5
100
AcDbTrace
 10
-5038.296396244869
 20
6801.347455243247
 30
0.0
 11
-5035.963062911536
 21
6801.347455243247
 31
0.0
 12
-5037.129729578203
 22
6808.347455243247
 32
0.0
 13
-5037.129729578203
 23
6808.347455243247
 33
0.0
  0
MTEXT
  5
132
330
12B
100
AcDbEntity
  8
AM_5
 62
     2
100
AcDbMText
 10
-5043.703740492255
 20
6754.347455243245
 30
0.0
 40
7.0
 41
0.0
 71
     5
 72
     1
  1
108
 11
0.0000000000000001
 21
1.0
 31
0.0
 73
     1
 44
1.0
1001
ACAD
1000
MTEXTBEGIN
1070
    73
1070
     1
1070
    44
1040
1.0
1070
    74
1070
     0
1000
MTEXTEND
  0
POINT
  5
133
330
12B
100
AcDbEntity
  8
DEFPOINTS
 62
     0
100
AcDbPoint
 10
-5002.629729578202
 20
6700.347455243248
 30
0.0
  0
POINT
  5
134
330
12B
100
AcDbEntity
  8
DEFPOINTS
 62
     0
100
AcDbPoint
 10
-5002.629729578202
 20
6808.347455243247
 30
0.0
  0
POINT
  5
135
330
12B
100
AcDbEntity
  8
DEFPOINTS
 62
     0
100
AcDbPoint
 10
-5037.129729578203
 20
6808.347455243247
 30
0.0
  0
ENDBLK
  5
136
330
12B
100
AcDbEntity
  8
0
100
AcDbBlockEnd
  0
BLOCK
  5
10D
330
10C
100
AcDbEntity
  8
0
100
AcDbBlockBegin
  2
*D10
 70
     1
 10
0.0
 20
0.0
 30
0.0
  3
*D10
  1

  0
LINE
  5
10E
330
10C
100
AcDbEntity
  8
AM_5
  6
ByBlock
100
AcDbLine
 10
-4108.74994149945
 20
6700.347455243248
 30
0.0
 11
-4163.455706072073
 21
6700.347455243248
 31
0.0
  0
LINE
  5
10F
330
10C
100
AcDbEntity
  8
AM_5
  6
ByBlock
100
AcDbLine
 10
-4108.74994149945
 20
6823.347455243247
 30
0.0
 11
-4163.455706072073
 21
6823.347455243247
 31
0.0
  0
LINE
  5
110
330
10C
100
AcDbEntity
  8
AM_5
  6
ByBlock
100
AcDbLine
 10
-4153.455706072073
 20
6735.347455243249
 30
0.0
 11
-4153.455706072073
 21
6788.347455243247
 31
0.0
  0
SOLID
  5
111
330
10C
100
AcDbEntity
  8
AM_5
100
AcDbTrace
 10
-4159.289039405407
 20
6735.347455243249
 30
0.0
 11
-4147.62237273874
 21
6735.347455243249
 31
0.0
 12
-4153.455706072073
 22
6700.347455243248
 32
0.0
 13
-4153.455706072073
 23
6700.347455243248
 33
0.0
  0
SOLID
  5
112
330
10C
100
AcDbEntity
  8
AM_5
100
AcDbTrace
 10
-4159.289039405407
 20
6788.347455243247
 30
0.0
 11
-4147.62237273874
 21
6788.347455243247
 31
0.0
 12
-4153.455706072073
 22
6823.347455243247
 32
0.0
 13
-4153.455706072073
 23
6823.347455243247
 33
0.0
  0
MTEXT
  5
113
330
10C
100
AcDbEntity
  8
AM_5
 62
     2
100
AcDbMText
 10
-4186.337697886536
 20
6761.847455243247
 30
0.0
 40
35.0
 41
0.0
 71
     5
 72
     1
  1
123
 11
0.0000000000000001
 21
1.0
 31
0.0
 73
     1
 44
1.0
1001
ACAD
1000
MTEXTBEGIN
1070
    73
1070
     1
1070
    44
1040
1.0
1070
    74
1070
     0
1000
MTEXTEND
  0
POINT
  5
114
330
10C
100
AcDbEntity
  8
DEFPOINTS
 62
     0
100
AcDbPoint
 10
-4098.74994149945
 20
6700.347455243248
 30
0.0
  0
POINT
  5
115
330
10C
100
AcDbEntity
  8
DEFPOINTS
 62
     0
100
AcDbPoint
 10
-4098.74994149945
 20
6823.347455243247
 30
0.0
  0
POINT
  5
116
330
10C
100
AcDbEntity
  8
DEFPOINTS
 62
     0
100
AcDbPoint
 10
-4153.455706072073
 20
6823.347455243247
 30
0.0
  0
ENDBLK
  5
117
330
10C
100
AcDbEntity
  8
0
100
AcDbBlockEnd
  0
BLOCK
  5
11C
330
11B
100
AcDbEntity
  8
0
100
AcDbBlockBegin
  2
*D11
 70
     1
 10
0.0
 20
0.0
 30
0.0
  3
*D11
  1

  0
LINE
  5
11D
330
11B
100
AcDbEntity
  8
AM_5
  6
ByBlock
100
AcDbLine
 10
-2980.749941499449
 20
6746.347455243247
 30
0.0
 11
-2980.749941499449
 21
6873.347455243247
 31
0.0
  0
LINE
  5
11E
330
11B
100
AcDbEntity
  8
AM_5
  6
ByBlock
100
AcDbLine
 10
-2966.749941499449
 20
6746.347455243247
 30
0.0
 11
-2966.749941499449
 21
6873.347455243247
 31
0.0
  0
LINE
  5
11F
330
11B
100
AcDbEntity
  8
AM_5
  6
ByBlock
100
AcDbLine
 10
-3015.749941499449
 20
6863.347455243247
 30
0.0
 11
-3050.749941499449
 21
6863.347455243247
 31
0.0
  0
LINE
  5
120
330
11B
100
AcDbEntity
  8
AM_5
  6
ByBlock
100
AcDbLine
 10
-2931.749941499449
 20
6863.347455243247
 30
0.0
 11
-2778.676953777758
 21
6863.347455243247
 31
0.0
  0
LINE
  5
121
330
11B
100
AcDbEntity
  8
AM_5
  6
ByBlock
100
AcDbLine
 10
-2980.749941499449
 20
6863.347455243247
 30
0.0
 11
-2966.749941499449
 21
6863.347455243247
 31
0.0
  0
SOLID
  5
122
330
11B
100
AcDbEntity
  8
AM_5
100
AcDbTrace
 10
-3015.749941499449
 20
6869.18078857658
 30
0.0
 11
-3015.749941499449
 21
6857.514121909914
 31
0.0
 12
-2980.749941499449
 22
6863.347455243247
 32
0.0
 13
-2980.749941499449
 23
6863.347455243247
 33
0.0
  0
SOLID
  5
123
330
11B
100
AcDbEntity
  8
AM_5
100
AcDbTrace
 10
-2931.749941499449
 20
6869.18078857658
 30
0.0
 11
-2931.749941499449
 21
6857.514121909914
 31
0.0
 12
-2966.749941499449
 22
6863.347455243247
 32
0.0
 13
-2966.749941499449
 23
6863.347455243247
 33
0.0
  0
MTEXT
  5
124
330
11B
100
AcDbEntity
  8
AM_5
 62
     2
100
AcDbMText
 10
-2837.713447638603
 20
6897.196363838062
 30
0.0
 40
35.0
 41
0.0
 71
     5
 72
     1
  1
%%C14
 73
     1
 44
1.0
1001
ACAD
1000
MTEXTBEGIN
1070
    73
1070
     1
1070
    44
1040
1.0
1070
    74
1070
     0
1000
MTEXTEND
  0
POINT
  5
125
330
11B
100
AcDbEntity
  8
DEFPOINTS
 62
     0
100
AcDbPoint
 10
-2980.749941499449
 20
6736.347455243247
 30
0.0
  0
POINT
  5
126
330
11B
100
AcDbEntity
  8
DEFPOINTS
 62
     0
100
AcDbPoint
 10
-2966.749941499449
 20
6736.347455243247
 30
0.0
  0
POINT
  5
127
330
11B
100
AcDbEntity
  8
DEFPOINTS
 62
     0
100
AcDbPoint
 10
-2966.749941499449
 20
6863.347455243247
 30
0.0
  0
ENDBLK
  5
128
330
11B
100
AcDbEntity
  8
0
100
AcDbBlockEnd
  0
BLOCK
  5
142
330
13F
100
AcDbEntity
  8
0
100
AcDbBlockBegin
  2
BA-0-T1(S)
 70
     0
 10
0.0
 20
0.0
 30
0.0
  3
BA-0-T1(S)
  1

  0
LWPOLYLINE
  5
143
102
{ACAD_REACTORS
330
149
102
}
330
13F
100
AcDbEntity
  8
BALARDO-Profil
100
AcDbPolyline
 90
        4
 70
     1
 43
0.0
 10
-7.009999999999308
 20
-0.0002883061497414
 10
6.990000000000691
 20
-0.0002883061497414
 10
6.990000000000691
 20
6.999711693850258
 10
-7.009999999999308
 20
6.999711693850258
1001
GENIUS_GENREC_14
1002
{
1000
PYDIR
1011
-7.009999999999308
1021
6.999711693850258
1031
0.0
1002
}
1002
{
1000
PXDIR
1011
6.990000000000691
1021
-0.0002883061497414
1031
0.0
1002
}
1002
{
1000
PORI
1011
-7.009999999999308
1021
-0.0002883061497414
1031
0.0
1002
}
1002
{
1000
PINS
1011
-7.009999999999308
1021
-0.0002883061497414
1031
0.0
1002
}
1002
{
1000
PINS2
1011
6.990000000000691
1021
6.999711693850258
1031
0.0
1002
}
1002
{
1000
C
1070
     1
1002
}
1001
GENIUS_GENOBJ-N-REC_13
1002
{
1000
OWNER
1000
GEN
1002
}
1001
GENIUS_GENODEF_13
1002
{
1000
HIER
1070
     0
1002
}
1002
{
1000
MANEDIT
1070
     0
1002
}
1002
{
1000
NOSEL
1070
     0
1002
}
1002
{
1000
BEHIND
1070
     0
1002
}
1002
{
1000
OTHER
1070
     0
1002
}
1002
{
1000
REACTOR
1002
}
  0
LINE
  5
145
330
13F
100
AcDbEntity
  8
-ACHSE
  6
AM_DIN_G_W050x2
100
AcDbLine
 10
-0.0099999999993088
 20
9.999711693850258
 30
0.0
 11
-0.0099999999993088
 21
-3.000288306149741
 31
0.0
1001
GENIUS_GENODEF_13
1002
{
1000
HIER
1070
     0
1002
}
1002
{
1000
MANEDIT
1070
     0
1002
}
1002
{
1000
NOSEL
1070
     0
1002
}
1002
{
1000
BEHIND
1070
     0
1002
}
1002
{
1000
OTHER
1070
     0
1002
}
1002
{
1000
REACTOR
1002
}
1001
GENIUS_GENOBJ-N-CEN_13
1002
{
1000
OWNER
1000
GEN
1002
}
1001
GENIUS_GENCEN_19
1002
{
1040
3.0
1002
}
  0
LWPOLYLINE
  5
148
102
{ACAD_REACTORS
330
149
102
}
330
13F
100
AcDbEntity
  8
BALARDO-Profil
100
AcDbPolyline
 90
       56
 70
     1
 43
0.0
 10
-39.00999999999931
 20
107.4997116938502
 10
-39.00999999999931
 20
14.99971169385026
 42
0.4142135623730951
 10
-31.00999999999931
 20
6.999711693850258
 10
35.49000000000069
 20
6.999711693850258
 42
-0.4142135623730841
 10
35.99000000000069
 20
6.499711693850258
 10
35.99000000000069
 20
0.4997116938502586
 42
-0.414213562373106
 10
35.49000000000069
 20
-0.0002883061497414
 10
-86.5099999999993
 20
-0.0002883061497414
 42
-0.4142135623730951
 10
-87.00999999999931
 20
0.4997116938502586
 10
-87.00999999999931
 20
107.4997116938502
 42
-0.4142135623730951
 10
-86.5099999999993
 20
107.9997116938502
 10
-82.00999999999931
 20
107.9997116938502
 42
-0.4142135623730917
 10
-81.5099999999993
 20
107.4997116938502
 10
-81.5099999999993
 20
106.4997116938502
 42
-0.4142135623730896
 10
-82.00999999999931
 20
105.9997116938502
 10
-84.0099999999993
 20
105.9997116938502
 42
0.4142135623730884
 10
-84.50999999999931
 20
105.4997116938502
 10
-84.50999999999931
 20
102.4997116938502
 42
0.4142135623730808
 10
-84.0099999999993
 20
101.9997116938502
 10
-81.03376049473444
 20
101.9997116938502
 42
-0.4042531287900766
 10
-80.53405161927276
 20
101.5167715820307
 10
-79.87963881650921
 20
82.34807116080355
 42
-0.3428208099845369
 10
-80.23931445503967
 20
81.85102096797619
 10
-80.62117258300622
 20
81.73961698920811
 42
0.3518731136957255
 10
-83.13321843881022
 20
78.14732569847819
 10
-78.90076448963009
 20
14.53499337743778
 42
0.3948857526365925
 10
-71.91620746098578
 20
7.999711693849349
 10
-54.10379253900373
 20
7.999711693849349
 42
0.3948857526365925
 10
-47.11923551035943
 20
14.53499337743778
 10
-43.07402729469413
 20
75.33308649609534
 42
0.3057364146329589
 10
-45.04270167452705
 20
78.71641858997645
 10
-47.21323794881572
 20
79.76594777003538
 10
-48.99373782724251
 20
80.79870986213791
 42
-0.2674092552862424
 10
-49.24286566566934
 20
81.2312178488246
 10
-49.24286566566934
 20
83.10269561634504
 42
-0.1318946637568552
 10
-49.21597545477107
 20
83.20286048502294
 42
0.1085999041361657
 10
-48.05984810084101
 20
86.83456577420839
 42
-0.2558846811396497
 10
-47.95249857222552
 20
86.99390556764502
 42
0.1164404881914905
 10
-46.62121203561674
 20
88.13529022226886
 42
0.1780170813581284
 10
-45.84314654742501
 20
91.45866726681651
 42
-0.1744282333762618
 10
-45.81319501571397
 20
91.59073586368322
 42
0.157146722386849
 10
-44.96333921114183
 20
94.82901056850005
 42
-0.1519889713362018
 10
-44.93433048530005
 20
94.94426163881417
 42
0.2441009961668257
 10
-44.59916002910904
 20
99.76539293264432
 42
-0.103362292365946
 10
-44.61568968388109
 20
99.84552148456897
 10
-44.61145567751191
 20
101.5009904832823
 42
-0.4134646622918249
 10
-44.11145731281703
 20
101.9997116938502
 10
-41.50999999999839
 20
101.9997116938502
 42
0.4142135623732364
 10
-41.0099999999984
 20
102.4997116938502
 10
-41.01000000000022
 20
105.4997116938502
 42
0.4142135623729845
 10
-41.51000000000022
 20
105.9997116938502
 10
-43.20999999999912
 20
105.9997116938502
 42
-0.4142135623731177
 10
-43.70999999999912
 20
106.4997116938502
 10
-43.70999999999912
 20
107.4997116938502
 42
-0.4142135623730951
 10
-43.20999999999912
 20
107.9997116938502
 10
-39.50999999999931
 20
107.9997116938502
 42
-0.4142135623730951
  0
HATCH
  5
149
330
13F
100
AcDbEntity
  8
-PROFILAUSSENKANTET
100
AcDbHatch
 10
0.0
 20
0.0
 30
0.0
210
0.0
220
0.0
230
1.0
  2
_U
 70
     0
 71
     1
 91
        2
 92
        5
 93
        6
 72
     1
 10
6.990000000000691
 20
6.999711693850258
 11
6.989999999999781
 21
-0.0002883061497414
 72
     1
 10
6.989999999999781
 20
-0.0002883061497414
 11
35.49000000000069
 21
-0.0002883061497982
 72
     2
 10
35.49000000000069
 20
0.4997116938502586
 40
0.5
 50
269.9999999999935
 51
360.0
 73
     1
 72
     1
 10
35.99000000000069
 20
0.4997116938502586
 11
35.99000000000069
 21
6.499711693850258
 72
     2
 10
35.49000000000069
 20
6.499711693850258
 40
0.4999999999998864
 50
359.999999999987
 51
450.0
 73
     1
 72
     1
 10
35.49000000000069
 20
6.999711693850258
 11
6.990000000000691
 21
6.999711693850258
 97
        2
330
148
330
143
 92
        5
 93
       54
 72
     1
 10
-7.009999999999308
 20
-0.0002883061497414
 11
-7.010000000000218
 21
6.999711693850258
 72
     1
 10
-7.010000000000218
 20
6.999711693850258
 11
-31.00999999999931
 21
6.999711693850997
 72
     2
 10
-31.01000000000022
 20
14.99971169385026
 40
7.99999999999909
 50
89.99999999999227
 51
180.0
 73
     0
 72
     1
 10
-39.00999999999931
 20
14.99971169385026
 11
-39.00999999999931
 21
107.4997116938502
 72
     2
 10
-39.50999999999931
 20
107.4997116938502
 40
0.4999999999998864
 50
359.999999999987
 51
450.0
 73
     1
 72
     1
 10
-39.50999999999931
 20
107.9997116938502
 11
-43.20999999999912
 21
107.9997116938496
 72
     2
 10
-43.21000000000004
 20
107.4997116938502
 40
0.4999999999990905
 50
89.9999999998632
 51
180.0
 73
     1
 72
     1
 10
-43.70999999999912
 20
107.4997116938502
 11
-43.71000000000003
 21
106.4997116938501
 72
     2
 10
-43.20999999999912
 20
106.4997116938511
 40
0.5000000000009664
 50
180.0000000001107
 51
270.0
 73
     1
 72
     1
 10
-43.20999999999912
 20
105.9997116938502
 11
-41.51000000000022
 21
105.9997116938498
 72
     2
 10
-41.50999999999931
 20
105.4997116938502
 40
0.4999999999990905
 50
269.9999999998762
 51
360.0
 73
     0
 72
     1
 10
-41.01000000000022
 20
105.4997116938502
 11
-41.0099999999984
 21
102.4997116938505
 72
     2
 10
-41.50999999999839
 20
102.4997116938502
 40
0.5000000000001137
 50
359.9999999999805
 51
450.0
 73
     0
 72
     1
 10
-41.50999999999839
 20
101.9997116938502
 11
-44.11145731281703
 21
101.9997116938504
 72
     2
 10
-44.11145731281703
 20
101.4997116938502
 40
0.4999999999999601
 50
90.00000000000014
 51
179.8534613655861
 73
     1
 72
     1
 10
-44.61145567751191
 20
101.5009904832823
 11
-44.61568968388109
 21
99.84552148456913
 72
     2
 10
-44.4156903380026
 20
99.84500996879525
 40
0.2000000000005309
 50
179.8534613652997
 51
203.4585283344338
 73
     1
 72
     2
 10
-49.41017444045065
 20
97.67764369183533
 40
5.244478673675271
 50
336.5414716652055
 51
391.4122645845496
 73
     0
 72
     2
 10
-44.76364263496089
 20
94.84002317305385
 40
0.1999999999936245
 50
148.5877354110144
 51
183.156475223096
 73
     1
 72
     2
 10
-50.41272000040226
 20
94.52849527259695
 40
5.457660710362358
 50
356.8435247776181
 51
392.5667496796156
 73
     0
 72
     2
 10
-45.6446420319744
 20
91.48307950448907
 40
0.2000000000062172
 50
147.433250320742
 51
187.01107458507
 73
     1
 72
     2
 10
-50.75149133087143
 20
90.85503525785862
 40
4.945323054707801
 50
352.9889254140941
 51
393.3644792637372
 73
     0
 72
     2
 10
-49.70420458018907
 20
90.38414215003285
 40
3.816042193542667
 50
36.10843258143404
 51
62.67499122181635
 73
     0
 72
     2
 10
-47.86069109635355
 20
86.81622217681796
 40
0.2000000000040582
 50
117.3250087790551
 51
174.7375506607421
 73
     1
 72
     2
 10
-56.89959765691492
 20
87.64876162580277
 40
8.877166614346226
 50
5.262449338773059
 51
30.05455312210783
 73
     0
 72
     2
 10
-49.04286566568043
 20
83.10269561634868
 40
0.1999999999889042
 50
149.9454468762034
 51
180.0
 73
     1
 72
     1
 10
-49.24286566566934
 20
83.10269561634504
 11
-49.24286566566934
 21
81.23121784882437
 72
     2
 10
-48.74286566567298
 20
81.23121784882277
 40
0.4999999999965218
 50
179.999999999772
 51
239.8845292531226
 73
     1
 72
     1
 10
-48.99373782724251
 20
80.79870986213791
 11
-47.21323794881572
 21
79.76594777003516
 72
     1
 10
-47.21323794881572
 20
79.76594777003538
 11
-45.04270167452705
 21
78.71641858997685
 72
     2
 10
-46.56630580901946
 20
75.56544565429795
 40
3.500000000002746
 50
295.8053692297706
 51
363.8065708567862
 73
     0
 72
     1
 10
-43.07402729469413
 20
75.33308649609534
 11
-47.11923551035943
 21
14.53499337743778
 72
     2
 10
-54.10379253900464
 20
14.99971169384935
 40
7.000000000000397
 50
3.806570856835672
 51
89.99999999999257
 73
     0
 72
     1
 10
-54.10379253900373
 20
7.999711693849349
 11
-71.91620746098578
 21
7.999711693849292
 72
     2
 10
-71.91620746098488
 20
14.99971169384935
 40
7.000000000000425
 50
90.00000000000753
 51
176.1934291431644
 73
     0
 72
     1
 10
-78.90076448963009
 20
14.53499337743778
 11
-83.13321843881022
 21
78.14732569847819
 72
     2
 10
-79.6409399244867
 20
78.37968485668262
 40
3.500000000001075
 50
176.193429143195
 51
253.7358278851872
 73
     0
 72
     1
 10
-80.62117258300622
 20
81.73961698920811
 11
-80.23931445503967
 21
81.85102096797567
 72
     2
 10
-80.37934769196999
 20
82.33101127262125
 40
0.4999999999990614
 50
286.2641721147255
 51
361.9552986886045
 73
     1
 72
     1
 10
-79.87963881650921
 20
82.34807116080355
 11
-80.53405161927186
 21
101.5167715820312
 72
     2
 10
-81.03376049473444
 20
101.4997116938493
 40
0.5000000000009095
 50
1.955298688564861
 51
90.0
 73
     1
 72
     1
 10
-81.03376049473444
 20
101.9997116938502
 11
-84.0099999999993
 21
101.9997116938504
 72
     2
 10
-84.0099999999993
 20
102.4997116938502
 40
0.5
 50
89.99999999999349
 51
180.0
 73
     0
 72
     1
 10
-84.50999999999931
 20
102.4997116938502
 11
-84.50999999999931
 21
105.49971169385
 72
     2
 10
-84.0099999999993
 20
105.4997116938502
 40
0.4999999999998864
 50
179.999999999987
 51
270.0
 73
     0
 72
     1
 10
-84.0099999999993
 20
105.9997116938502
 11
-82.00999999999931
 21
105.9997116938501
 72
     2
 10
-82.00999999999931
 20
106.4997116938502
 40
0.5
 50
269.9999999999739
 51
360.0
 73
     1
 72
     1
 10
-81.5099999999993
 20
106.4997116938502
 11
-81.5099999999993
 21
107.4997116938502
 72
     2
 10
-82.00999999999931
 20
107.4997116938502
 40
0.4999999999998864
 50
359.999999999987
 51
450.0
 73
     1
 72
     1
 10
-82.00999999999931
 20
107.9997116938502
 11
-86.5099999999993
 21
107.9997116938503
 72
     2
 10
-86.5099999999993
 20
107.4997116938502
 40
0.5
 50
89.99999999999349
 51
180.0
 73
     1
 72
     1
 10
-87.00999999999931
 20
107.4997116938502
 11
-87.00999999999931
 21
0.4997116938503155
 72
     2
 10
-86.5099999999993
 20
0.4997116938502586
 40
0.4999999999998864
 50
179.999999999987
 51
270.0
 73
     1
 72
     1
 10
-86.5099999999993
 20
-0.0002883061497414
 11
-7.009999999999308
 21
-0.0002883061496846
 97
        2
330
148
330
143
 75
     0
 76
     0
 52
45.0
 41
5.0
 77
     0
 78
     1
 53
45.0
 43
5224.483499171484
 44
-6702.468692501574
 45
-3.535533905932737
 46
3.535533905932737
 79
     0
 47
0.3392217802028341
 98
        2
 10
-50.17063549853538
 20
33.85882958028651
 10
-50.17063549853538
 20
33.85882958028651
1001
GradientColor1ACI
1070
     5
1001
GradientColor2ACI
1070
     2
1001
ACAD
1010
0.0
1020
0.0
1030
0.0
1001
GENIUS_GENOBJ-N-HTC_13
1002
{
1000
OWNER
1000
GEN
1002
}
1001
GENIUS_GENODEF_13
1002
{
1000
HIER
1070
     0
1002
}
1002
{
1000
MANEDIT
1070
     0
1002
}
1002
{
1000
NOSEL
1070
     0
1002
}
1002
{
1000
BEHIND
1070
     0
1002
}
1002
{
1000
OTHER
1070
     0
1002
}
1002
{
1000
REACTOR
1002
}
1001
GENIUS_GENHATCH_13
1002
{
1000
DATA
1040
45.0
1042
2.5
1000
_U
1070
     0
1011
5224.483499171484
1021
-6702.468692501574
1031
0.0
1002
}
1002
{
1000
UCS
1010
0.0
1020
0.0
1030
0.0
1010
1.0
1020
0.0
1030
0.0
1010
0.0
1020
1.0
1030
0.0
1002
}
  0
ENDBLK
  5
14E
330
13F
100
AcDbEntity
  8
0
100
AcDbBlockEnd
  0
BLOCK
  5
152
330
151
100
AcDbEntity
  8
0
100
AcDbBlockBegin
  2
BA-Z30550877-10
 70
     0
 10
0.0
 20
0.0
 30
0.0
  3
BA-Z30550877-10
  1

  0
HATCH
  5
153
330
151
100
AcDbEntity
  8
-POM Stab
100
AcDbHatch
 10
0.0
 20
0.0
 30
0.0
210
0.0
220
0.0
230
1.0
  2
ANSI37
 70
     0
 71
     1
 91
        1
 92
        1
 93
        1
 72
     2
 10
0.0
 20
0.0
 40
5.0
 50
0.0
 51
360.0
 73
     1
 97
        1
330
155
 75
     1
 76
     1
 52
45.0
 41
0.6
 77
     0
 78
     2
 53
90.0
 43
-125.9940108713508
 44
-201.2544121082752
 45
-1.904999999999999
 46
0.0000000000000003
 79
     0
 53
180.0
 43
-125.9940108713508
 44
-201.2544121082752
 45
-0.0000000000000003
 46
-1.904999999999999
 79
     0
 98
        1
 10
-125.9940108713508
 20
-201.2544121082752
1001
GradientColor1ACI
1070
     5
1001
GradientColor2ACI
1070
     2
1001
ACAD
1010
0.0
1020
0.0
1030
0.0
  0
CIRCLE
  5
155
102
{ACAD_REACTORS
330
153
102
}
330
151
100
AcDbEntity
  8
-POM Stab
100
AcDbCircle
 10
0.0
 20
0.0
 30
0.0
 40
5.0
  0
ENDBLK
  5
156
330
151
100
AcDbEntity
  8
0
100
AcDbBlockEnd
  0
BLOCK
  5
159
330
158
100
AcDbEntity
  8
0
100
AcDbBlockBegin
  2
BA-Z-P9732-A
 70
     0
 10
0.0
 20
0.0
 30
0.0
  3
BA-Z-P9732-A
  1

  0
LWPOLYLINE
  5
15A
330
158
100
AcDbEntity
  8
-GUMMI
100
AcDbPolyline
 90
       32
 70
     1
 43
0.0
 10
11.28796994730328
 20
-15.44922005344068
 10
3.206337201746464
 20
-15.44922005344074
 42
-0.404253128789892
 10
3.006453651561969
 20
-15.25604400871299
 10
2.713597351253156
 20
-6.677858093949282
 42
0.3072185196004725
 10
2.581241264257187
 20
-6.496426792415149
 10
1.867279092202352
 20
-6.240327413785962
 42
-0.1657024214315883
 10
1.362772286318886
 20
-5.838303647662428
 10
1.087806375162017
 20
-5.408892716616605
 42
0.8358399843347207
 10
0.723889706880982
 20
-5.558986596971919
 42
-0.7942321963915147
 10
-0.6365716383816107
 20
-6.201440735740902
 42
-0.2843480137046063
 10
-1.00033634708734
 20
-3.065541943961136
 42
-0.6763877254848247
 10
0.7647880135577907
 20
-3.166611253671362
 42
0.4834328118778848
 10
1.059694172430226
 20
-3.272921851533396
 10
1.844767524444705
 20
-2.786580791747212
 42
0.3257935955011907
 10
1.933536834183541
 20
-2.568316559185973
 10
1.560174783686306
 20
0.1297054046891048
 42
0.4770302557874213
 10
1.278504117110514
 20
0.261267269921575
 10
0.9685263472383667
 20
0.1102891265310859
 42
0.0943887691269676
 10
0.3688586587227292
 20
-0.3375548694440908
 42
-0.9485185643391902
 10
-0.4024009198619752
 20
0.296771797336703
 42
-0.0456530734745997
 10
0.6641728249669541
 20
1.115107472109002
 10
11.03322669524095
 20
6.175861642324377
 42
-0.8366732845940511
 10
11.42320471930816
 20
5.732343865104382
 10
8.812452816709082
 20
2.451589552107066
 42
0.8663308656491327
 10
9.168602168955658
 20
1.97635677573578
 10
11.04451685695176
 20
2.997707740221926
 42
-0.7401513932141515
 10
11.45416481042184
 20
2.595880900452982
 10
8.240186160627672
 20
-3.588155730485084
 42
0.6540664669825524
 10
8.52300595412862
 20
-4.101799398878199
 10
10.39711945798399
 20
-3.930828226130358
 42
-0.4411178976152918
 10
11.4879699473031
 20
-4.926692769424505
 10
11.4879699473031
 20
-15.24922005344069
 42
-0.4142135623730935
  0
HATCH
  5
15D
330
158
100
AcDbEntity
  8
-GUMMI
100
AcDbHatch
 10
0.0
 20
0.0
 30
0.0
210
0.0
220
0.0
230
1.0
  2
ANSI37
 70
     0
 71
     0
 91
        1
 92
        1
 93
       32
 72
     2
 10
11.18796946403881
 20
2.734228425056755
 40
0.2999999999999538
 50
332.5381167793105
 51
478.5662993649837
 73
     1
 72
     1
 10
11.04451685695176
 20
2.997707740221926
 11
9.168602168955658
 21
1.97635677573578
 72
     2
 10
9.024739801445321
 20
2.239612581396784
 40
0.2999999999998391
 50
61.34455701346986
 51
224.9581333934034
 73
     0
 72
     1
 10
8.812452816709082
 20
2.451589552107066
 11
11.42320471930816
 21
5.732343865104382
 72
     2
 10
11.18846139214747
 20
5.919147425974074
 40
0.300000000000109
 50
321.4879996939366
 51
481.1612898055295
 73
     1
 72
     1
 10
11.03322669524095
 20
6.175861642324434
 11
0.6641728249669541
 21
1.115107472109002
 72
     2
 10
4.60281979432375
 20
-5.122533168411905
 40
7.377065860455737
 50
122.2696322391686
 51
132.7252860974096
 73
     1
 72
     2
 10
0.0
 20
0.0
 40
0.5000000000002208
 50
143.5911222396689
 51
317.5373273614666
 73
     1
 72
     2
 10
1.844293293611826
 20
-1.687774347217157
 40
1.999999999997024
 50
222.4626726384989
 51
244.0310838110485
 73
     0
 72
     1
 10
0.9685263472383667
 20
0.1102891265310859
 11
1.278504117110514
 21
0.261267269921575
 72
     2
 10
1.366080811747906
 20
0.0814609225465688
 40
0.1999999999998808
 50
244.0310838110596
 51
346.0413007427754
 73
     0
 72
     1
 10
1.560174783686306
 20
0.1297054046891048
 11
1.933536834183541
 21
-2.568316559185973
 72
     2
 10
1.739442862243777
 20
-2.616561041327656
 40
0.2000000000011835
 50
346.0413007431067
 51
418.2224118281722
 73
     0
 72
     1
 10
1.844767524444705
 20
-2.786580791747212
 11
1.059694172430226
 21
-3.272921851533396
 72
     2
 10
0.9543695102302081
 20
-3.102902101114523
 40
0.2000000000001104
 50
58.22241182829087
 51
161.4249984394473
 73
     0
 72
     2
 10
-0.1380399339250289
 20
-3.47000796932366
 40
0.9524431058203118
 50
18.57500156058194
 51
154.8707535157014
 73
     1
 72
     2
 10
1.715720101512488
 20
-4.339526782187476
 40
3.000000000001837
 50
154.8707535156908
 51
218.3627384645035
 73
     1
 72
     2
 10
-0.0310014356464308
 20
-5.722112601730714
 40
0.7723151756209129
 50
218.3627384645557
 51
372.1936742771821
 73
     1
 72
     2
 10
0.9193775507960708
 20
-5.516743220197781
 40
0.1999999999996298
 50
167.8063257226451
 51
327.367231012409
 73
     0
 72
     1
 10
1.087806375162017
 20
-5.408892716616605
 11
1.362772286318886
 21
-5.838303647662428
 72
     2
 10
2.204916408148164
 20
-5.299051129751262
 40
1.000000000002569
 50
212.63276898786
 51
250.2670081957681
 73
     1
 72
     1
 10
1.867279092202352
 20
-6.240327413785905
 11
2.581241264257187
 21
-6.496426792415149
 72
     2
 10
2.513713801067297
 20
-6.684682049222487
 40
0.2000000000011468
 50
289.7329918043885
 51
358.0447013112902
 73
     0
 72
     1
 10
2.713597351253156
 20
-6.677858093949282
 11
3.006453651561969
 21
-15.25604400871299
 72
     2
 10
3.206337201746464
 20
-15.24922005344103
 40
0.199999999999778
 50
181.9552986883651
 51
270.0
 73
     1
 72
     1
 10
3.206337201746464
 20
-15.44922005344079
 11
11.28796994730328
 21
-15.44922005344068
 72
     2
 10
11.28796994730237
 20
-15.24922005344012
 40
0.2000000000005571
 50
270.0000000002606
 51
359.9999999998372
 73
     1
 72
     1
 10
11.4879699473031
 20
-15.24922005344069
 11
11.4879699473031
 21
-4.926692769424505
 72
     2
 10
10.48796994730264
 20
-4.926692769425073
 40
1.000000000000454
 50
0.0000000000325689
 51
95.21253699462798
 73
     1
 72
     1
 10
10.39711945798399
 20
-3.930828226130643
 11
8.52300595412862
 21
-4.101799398878029
 72
     2
 10
8.493933797546105
 20
-3.783122745024058
 40
0.319999999999877
 50
84.78746300527069
 51
217.5368766715217
 73
     0
 72
     1
 10
8.240186160627672
 20
-3.588155730485084
 11
11.45416481042184
 21
2.595880900452982
 97
        0
 75
     1
 76
     1
 52
0.0
 41
0.5
 77
     0
 78
     2
 53
45.0
 43
3137.353636055042
 44
-464.4234302945408
 45
-1.122532015133643
 46
1.122532015133644
 79
     0
 53
135.0
 43
3137.353636055042
 44
-464.4234302945408
 45
-1.122532015133644
 46
-1.122532015133643
 79
     0
 98
        1
 10
3137.353636055042
 20
-464.4234302945408
1001
ACAD
1010
0.0
1020
0.0
1030
0.0
  0
ENDBLK
  5
15E
330
158
100
AcDbEntity
  8
0
100
AcDbBlockEnd
  0
BLOCK
  5
163
330
160
100
AcDbEntity
  8
0
100
AcDbBlockBegin
  2
BA-Z-P9771-I
 70
     0
 10
0.0
 20
0.0
 30
0.0
  3
BA-Z-P9771-I
  1

  0
LWPOLYLINE
  5
164
330
160
100
AcDbEntity
  8
-GUMMI
100
AcDbPolyline
 90
        2
 70
     1
 43
0.0
 10
-2.0
 20
0.0000000000000568
 42
-1.0
 10
2.0
 20
-0.0000000000002274
 42
-1.0
  0
LWPOLYLINE
  5
165
330
160
100
AcDbEntity
  8
-GUMMI
100
AcDbPolyline
 90
       33
 70
     1
 43
0.0
 10
5.638006894001136
 20
-4.671451405534355
 10
6.71593907050601
 20
-4.003797945511223
 42
0.4252122128243584
 10
6.806926086322164
 20
-3.581361290270535
 42
0.3619862325071687
 10
6.438275031278863
 20
-3.473669612583307
 10
5.766809110155008
 20
-3.76583738332755
 42
-0.3483649646131899
 10
5.52663305789747
 20
-3.701939079839803
 10
5.174771296721701
 20
-3.229684252826416
 42
-0.3787483523006605
 10
5.272278784381342
 20
-2.068401030454481
 10
7.209097407467652
 20
-0.4570407746283536
 42
0.7288547710536787
 10
7.056194160082213
 20
-0.108292853151795
 10
5.90013815315342
 20
-0.2273856871273665
 42
-0.2682682699947097
 10
5.71740926192615
 20
-0.1455769097481152
 42
-0.0661800380565999
 10
5.300136048606873
 20
1.671455838362646
 42
-0.4120651636336638
 10
5.378216448256807
 20
1.788744539080255
 10
7.148908381231649
 20
2.150867560314054
 42
0.279387332648114
 10
7.224996834864214
 20
2.221270819095707
 42
0.324937459934638
 10
7.0641718799925
 20
2.663163855373227
 42
0.1313929371806072
 10
5.110491520400955
 20
3.3369629134869
 42
-0.0695505818109697
 10
-8.27668607871692
 20
4.84142559630311
 42
0.7970935161922136
 10
-8.593052085036106
 20
4.303700437612974
 42
0.0885477013448139
 10
-5.124367623924172
 20
2.030968254612616
 42
-0.2728163528243628
 10
-5.003917397188615
 20
1.867398112713715
 10
-4.726455464819082
 20
-0.8417981588095813
 42
-0.5259060550474044
 10
-4.977559693680177
 20
-1.055257187034158
 10
-6.080768380305471
 20
-0.7573187567106175
 42
0.9259038899883661
 10
-6.384040718465712
 20
-1.495050252277565
 10
-5.166791593798279
 20
-2.10868800908355
 42
-0.5248262112012345
 10
-4.716437151535046
 20
-5.369621168204844
 10
-5.587668486511574
 20
-6.167393220039173
 42
0.9066134578268497
 10
-5.229377753385961
 20
-6.645085174536347
 10
-1.809144418396954
 20
-4.568548650843581
 42
-0.2256010157757109
 10
3.316341600867417
 20
-4.044575801621533
 10
5.20708851489735
 20
-4.717442781801821
 42
0.227941086876516
  0
LINE
  5
166
330
160
100
AcDbEntity
  8
-GUMMI
100
AcDbLine
 10
-6.314840632345749
 20
4.381902893274343
 30
0.0
 11
-5.803969651237821
 21
2.346901721452809
 31
0.0
  0
LINE
  5
167
330
160
100
AcDbEntity
  8
-GUMMI
100
AcDbLine
 10
-4.948483059558384
 20
-1.06083972583832
 30
0.0
 11
-4.570019499891259
 21
-2.568409769735126
 31
0.0
  0
LINE
  5
168
330
160
100
AcDbEntity
  8
-GUMMI
100
AcDbLine
 10
-4.121151810876654
 20
-4.356427306288367
 30
0.0
 11
-3.769162421278906
 21
-5.758540260025085
 31
0.0
  0
HATCH
  5
169
330
160
100
AcDbEntity
  8
-GUMMI
100
AcDbHatch
 10
0.0
 20
0.0
 30
0.0
210
0.0
220
0.0
230
1.0
  2
ANSI37
 70
     0
 71
     0
 91
        2
 92
        1
 93
       37
 72
     2
 10
-4.925414764307333
 20
-0.8621745458137297
 40
0.2000000000000707
 50
-5.847550990307468
 51
96.62332126173819
 73
     0
 72
     1
 10
-4.948483059559293
 20
-1.06083972583815
 11
-4.570019499891728
 21
-2.568409769734452
 72
     2
 10
-6.067098084018198
 20
-3.894590644634547
 40
2.000000000000291
 50
318.4640047990385
 51
373.3511437401218
 73
     0
 72
     1
 10
-4.121151810876654
 20
-4.356427306288139
 11
-3.769162421278649
 21
-5.758540260025101
 72
     1
 10
-3.769162421278906
 20
-5.758540260025085
 11
-1.809144418396926
 21
-4.568548650843537
 72
     2
 10
1.304687446680418
 20
-9.697296170078175
 40
6.000000000002102
 50
238.7366809857507
 51
289.5893035217628
 73
     0
 72
     1
 10
3.316341600867417
 20
-4.044575801621533
 11
5.207088514897192
 21
-4.717442781801858
 72
     2
 10
5.37472636108032
 20
-4.246382751096177
 40
0.5000000000011631
 50
250.4106964782396
 51
301.7733930072763
 73
     1
 72
     1
 10
5.638006894001136
 20
-4.671451405534583
 11
6.028290579235648
 21
-4.429716110385954
 72
     2
 10
6.426414347832633
 20
-4.732201589176497
 40
0.5000000000009611
 50
217.2267520335657
 51
255.9075742695281
 73
     0
 72
     1
 10
6.304670949575665
 20
-4.247249483312714
 11
6.335297890443355
 21
-4.239560831558559
 72
     1
 10
6.335297890443143
 20
-4.239560831558549
 11
6.715939070505925
 21
-4.003797945511196
 72
     2
 10
6.557970750754066
 20
-3.748756752848692
 40
0.2999999999999321
 50
301.7733930072491
 51
473.5147869619679
 73
     1
 72
     1
 10
6.438275031279317
 20
-3.473669612583421
 11
5.766809110154743
 21
-3.765837383327537
 72
     2
 10
5.687011963838358
 20
-3.582445956482843
 40
0.20000000000099
 50
66.48521303821643
 51
143.3113993599406
 73
     0
 72
     1
 10
5.52663305789747
 20
-3.701939079839746
 11
5.174771296721832
 21
-3.229684252826445
 72
     2
 10
5.880093427586871
 20
-2.704171599557923
 40
0.8795696999291482
 50
143.3113993601294
 51
226.2877982253337
 73
     0
 72
     1
 10
5.272278784381342
 20
-2.068401030454595
 11
7.209097407468064
 21
-0.4570407746282621
 72
     2
 10
7.076570547086248
 20
-0.3072521526393075
 40
0.1999999999997365
 50
311.501090429294
 51
455.8475509903417
 73
     1
 72
     1
 10
7.056194160082213
 20
-0.1082928531519087
 11
5.900138153152971
 21
-0.2273856871274428
 72
     2
 10
5.879524876099367
 20
-0.0284507912216441
 40
0.1999999999997512
 50
84.0842258559355
 51
144.1524490097225
 73
     0
 72
     2
 10
12.34268574244879
 20
2.332316172787955
 40
7.073488712922965
 50
159.4939021675184
 51
169.8244937995371
 73
     0
 72
     1
 10
5.380454368067148
 20
1.082685482774934
 11
5.354781340975872
 21
1.184951303592512
 72
     2
 10
5.83973344683909
 20
1.306694701849494
 40
0.5000000000004548
 50
165.9075742695085
 51
182.8482590626702
 73
     0
 72
     2
 10
12.34268574244925
 20
2.33231617278443
 40
7.073488712923052
 50
171.8663498570021
 51
174.6391643474364
 73
     0
 72
     2
 10
5.398252674808645
 20
1.69077235105999
 40
0.099999999999886
 50
168.8624446887548
 51
258.4418558720453
 73
     0
 72
     1
 10
5.378216448256807
 20
1.788744539080482
 11
7.148908381231685
 21
2.150867560314054
 72
     1
 10
7.148908381231649
 20
2.150867560314054
 11
7.157485658674627
 21
2.153020818111533
 72
     2
 10
7.128872154678447
 20
2.248839748335058
 40
0.1000000000005369
 50
286.6267073237401
 51
343.9969043086589
 73
     1
 72
     2
 10
6.840498114122055
 20
2.331546536063513
 40
0.400000000006139
 50
343.9969043072039
 51
416.0005866693234
 73
     1
 72
     2
 10
4.827434221404018
 20
-0.6530093377367621
 40
4.000000000006121
 50
56.00058667080112
 51
85.94211132737026
 73
     1
 72
     2
 10
3.798544151529767
 20
51.97671611255043
 40
48.65744338911063
 50
88.45495050903217
 51
101.9963083977722
 73
     0
 72
     1
 10
-6.314840632345749
 20
4.381902893274343
 11
-6.156156473082365
 21
3.74980112591853
 72
     1
 10
-6.156156473082319
 20
3.749801125918565
 11
-5.803969651237052
 21
2.346901721452659
 72
     2
 10
-0.4923323315415474
 20
12.88381345991428
 40
11.80000000000492
 50
243.2474132669827
 51
246.8870276357749
 73
     1
 72
     2
 10
-5.202876696676412
 20
1.847021725709396
 40
0.1999999999998765
 50
293.1129723642119
 51
354.1524490096281
 73
     0
 72
     1
 10
-5.003917397188615
 20
1.867398112713715
 11
-4.726455464819543
 21
-0.8417981588095813
 97
        0
 92
       16
 93
        2
 72
     2
 10
-0.0000000000004547
 20
-0.0000000000003411
 40
2.000000000000192
 50
-0.0000000000193012
 51
207.5607962373457
 73
     0
 72
     2
 10
-0.0000000000004547
 20
0.0000000000001137
 40
1.999999999999532
 50
207.560796237336
 51
359.9999999999934
 73
     0
 97
        0
 75
     1
 76
     1
 52
14.09242573041982
 41
0.5
 77
     0
 78
     2
 53
59.09242573041982
 43
3030.789901658352
 44
282.8931290429063
 45
-1.362070253623105
 46
0.8154268049280005
 79
     0
 53
149.0924257304198
 43
3030.789901658352
 44
282.8931290429063
 45
-0.8154268049280005
 46
-1.362070253623105
 79
     0
 98
        1
 10
3030.789901658352
 20
282.8931290429063
1001
ACAD
1010
0.0
1020
0.0
1030
0.0
  0
ENDBLK
  5
16A
330
160
100
AcDbEntity
  8
0
100
AcDbBlockEnd
  0
BLOCK
  5
16F
330
16C
100
AcDbEntity
  8
0
100
AcDbBlockBegin
  2
BA-Z-P9717-16
 70
     0
 10
0.0
 20
0.0
 30
0.0
  3
BA-Z-P9717-16
  1

  0
HATCH
  5
170
330
16C
100
AcDbEntity
  8
-GUMMI
100
AcDbHatch
 10
0.0
 20
0.0
 30
0.0
210
0.0
220
0.0
230
1.0
  2
ANSI37
 70
     0
 71
     1
 91
        1
 92
        1
 93
       22
 72
     1
 10
0.000000000001819
 20
-1.497633412080176
 11
0.5
 21
-1.937727921821874
 72
     1
 10
0.5
 20
-1.937727921821874
 11
8.764210984670171
 21
-4.377932074137447
 72
     2
 10
8.194355108050331
 20
-6.228155349039013
 40
1.935991189831617
 50
287.1184676982083
 51
319.0628820034157
 73
     0
 72
     2
 10
8.906207460989207
 20
1.999999999992553
 40
6.99999999999761
 50
276.1560059974838
 51
356.19342914318
 73
     1
 72
     1
 10
15.89076448963169
 20
1.535281683582752
 11
17.25052678736938
 21
21.97204300453558
 72
     2
 10
16.65185047062823
 20
22.01187600308395
 40
0.6000000000000855
 50
356.1934291432809
 51
482.1452297567524
 73
     1
 72
     2
 10
25.02816846552923
 20
8.682267612011628
 40
16.34297186083513
 50
122.1452297567591
 51
174.5159859460864
 73
     1
 72
     1
 10
8.760000000001127
 20
10.24413317000432
 11
8.760000000001127
 21
-1.89132390945673
 72
     2
 10
8.760000000001127
 20
-2.291323909456991
 40
0.4000000000002615
 50
270.0
 51
556.4504845332108
 73
     0
 72
     1
 10
8.376374069960547
 20
-2.178049261803494
 11
1.0
 21
0.0
 72
     1
 10
1.0
 20
0.0
 11
0.0
 21
-0.7082984386912017
 72
     1
 10
0.0
 20
-0.7082984386912017
 11
-1.0
 21
0.0
 72
     1
 10
-1.0
 20
0.0
 11
-8.376374069960547
 21
-2.178049261803494
 72
     2
 10
-8.760000000001127
 20
-2.291323909456991
 40
0.4000000000006551
 50
343.549515466789
 51
630.0
 73
     0
 72
     1
 10
-8.760000000001127
 20
-1.89132390945673
 11
-8.760000000001127
 21
10.24413317000432
 72
     2
 10
-25.02816846552923
 20
8.682267612011628
 40
16.34297186083507
 50
5.48401405391357
 51
57.85477024324085
 73
     1
 72
     2
 10
-16.65185047062823
 20
22.01187600308395
 40
0.5999999999999578
 50
57.85477024324766
 51
183.806570856719
 73
     1
 72
     1
 10
-17.25052678736938
 20
21.97204300453558
 11
-15.89076448963169
 21
1.535281683582752
 72
     2
 10
-8.906207460989207
 20
1.999999999992553
 40
6.999999999997563
 50
183.8065708568199
 51
263.8439940025163
 73
     1
 72
     2
 10
-8.194355108050331
 20
-6.228155349039013
 40
1.935991189831564
 50
220.9371179965843
 51
252.8815323017916
 73
     0
 72
     1
 10
-8.764210984670171
 20
-4.377932074137447
 11
-0.5
 21
-1.937727921821874
 72
     1
 10
-0.5
 20
-1.937727921821874
 11
0.000000000001819
 21
-1.497633412080176
 97
        1
330
171
 75
     1
 76
     1
 52
0.0
 41
0.7
 77
     0
 78
     2
 53
45.0
 43
6759.091662868421
 44
-368.9235574352756
 45
-1.571544821187101
 46
1.571544821187101
 79
     0
 53
135.0
 43
6759.091662868421
 44
-368.9235574352756
 45
-1.571544821187101
 46
-1.571544821187101
 79
     0
 98
        1
 10
6759.091662868421
 20
-368.9235574352756
1001
GradientColor1ACI
1070
     5
1001
GradientColor2ACI
1070
     2
1001
ACAD
1010
0.0
1020
0.0
1030
0.0
  0
LWPOLYLINE
  5
171
102
{ACAD_REACTORS
330
170
102
}
330
16C
100
AcDbEntity
  8
-GUMMI
100
AcDbPolyline
 90
       26
 70
     1
 43
0.0
 10
0.000000000001819
 20
-1.497633412080176
 10
0.5
 20
-1.937727921821874
 10
8.764210984670171
 20
-4.377932074137447
 10
8.764210984670171
 20
-4.377932074137447
 42
-0.1402935142290111
 10
9.656859285106293
 20
-4.95963518002344
 42
0.3641551661738441
 10
15.89076448963169
 20
1.535281683582752
 10
17.25052678736938
 20
21.97204300453558
 42
0.6125115394819037
 10
16.33261018732173
 20
22.51989730334049
 42
0.2325727834594456
 10
8.760000000001127
 20
10.24413317000432
 10
8.760000000001127
 20
-1.89132390945673
 42
-3.00832325673228
 10
8.376374069960547
 20
-2.178049261803494
 10
1.0
 20
0.0
 10
0.0
 20
-0.7082984386912017
 10
0.000000000003638
 20
-0.7082984386886438
 10
0.0
 20
-0.7082984386912017
 10
-1.0
 20
0.0
 10
-8.376374069960547
 20
-2.178049261803494
 42
-3.00832325673228
 10
-8.760000000001127
 20
-1.89132390945673
 10
-8.760000000001127
 20
10.24413317000432
 42
0.2325727834594456
 10
-16.33261018732173
 20
22.51989730334049
 42
0.6125115394819037
 10
-17.25052678736938
 20
21.97204300453558
 10
-15.89076448963169
 20
1.535281683582752
 42
0.3641551661738441
 10
-9.656859285106293
 20
-4.95963518002344
 42
-0.1402935142290111
 10
-8.764210984670171
 20
-4.377932074137447
 10
-8.764210984670171
 20
-4.377932074137447
 10
-0.5
 20
-1.937727921821874
  0
ENDBLK
  5
172
330
16C
100
AcDbEntity
  8
0
100
AcDbBlockEnd
  0
BLOCK
  5
176
330
175
100
AcDbEntity
  8
0
100
AcDbBlockBegin
  2
*D17
 70
     1
 10
0.0
 20
0.0
 30
0.0
  3
*D17
  1

  0
LINE
  5
177
330
175
100
AcDbEntity
  8
AM_5
  6
ByBlock
100
AcDbLine
 10
-4878.629729578201
 20
6700.347455243248
 30
0.0
 11
-4861.129729578202
 21
6700.347455243248
 31
0.0
  0
LINE
  5
178
330
175
100
AcDbEntity
  8
AM_5
  6
ByBlock
100
AcDbLine
 10
-4878.630541293819
 20
6707.347455243247
 30
0.0
 11
-4861.129729578202
 21
6707.347455243247
 31
0.0
  0
LINE
  5
179
330
175
100
AcDbEntity
  8
AM_5
  6
ByBlock
100
AcDbLine
 10
-4863.129729578202
 20
6693.347455243247
 30
0.0
 11
-4863.129729578202
 21
6686.347455243248
 31
0.0
  0
LINE
  5
17A
330
175
100
AcDbEntity
  8
AM_5
  6
ByBlock
100
AcDbLine
 10
-4863.129729578202
 20
6714.347455243248
 30
0.0
 11
-4863.129729578202
 21
6721.347455243247
 31
0.0
  0
LINE
  5
17B
330
175
100
AcDbEntity
  8
AM_5
  6
ByBlock
100
AcDbLine
 10
-4863.129729578202
 20
6700.347455243248
 30
0.0
 11
-4863.129729578202
 21
6707.347455243247
 31
0.0
  0
SOLID
  5
17C
330
175
100
AcDbEntity
  8
AM_5
100
AcDbTrace
 10
-4864.296396244868
 20
6693.347455243247
 30
0.0
 11
-4861.963062911534
 21
6693.347455243247
 31
0.0
 12
-4863.129729578202
 22
6700.347455243248
 32
0.0
 13
-4863.129729578202
 23
6700.347455243248
 33
0.0
  0
SOLID
  5
17D
330
175
100
AcDbEntity
  8
AM_5
100
AcDbTrace
 10
-4864.296396244868
 20
6714.347455243248
 30
0.0
 11
-4861.963062911534
 21
6714.347455243248
 31
0.0
 12
-4863.129729578202
 22
6707.347455243247
 32
0.0
 13
-4863.129729578202
 23
6707.347455243247
 33
0.0
  0
MTEXT
  5
17E
330
175
100
AcDbEntity
  8
AM_5
 62
     2
100
AcDbMText
 10
-4869.629729578203
 20
6703.847455243246
 30
0.0
 40
7.0
 41
0.0
 71
     5
 72
     1
  1
7
 11
0.0000000000000001
 21
1.0
 31
0.0
 73
     1
 44
1.0
1001
ACAD
1000
MTEXTBEGIN
1070
    73
1070
     1
1070
    44
1040
1.0
1070
    74
1070
     0
1000
MTEXTEND
  0
POINT
  5
17F
330
175
100
AcDbEntity
  8
DEFPOINTS
 62
     0
100
AcDbPoint
 10
-4880.629729578202
 20
6700.347455243248
 30
0.0
  0
POINT
  5
180
330
175
100
AcDbEntity
  8
DEFPOINTS
 62
     0
100
AcDbPoint
 10
-4880.63054129382
 20
6707.347455243247
 30
0.0
  0
POINT
  5
181
330
175
100
AcDbEntity
  8
DEFPOINTS
 62
     0
100
AcDbPoint
 10
-4863.129729578202
 20
6707.347455243247
 30
0.0
  0
ENDBLK
  5
182
330
175
100
AcDbEntity
  8
0
100
AcDbBlockEnd
  0
BLOCK
  5
185
330
184
100
AcDbEntity
  8
0
100
AcDbBlockBegin
  2
*D18
 70
     1
 10
0.0
 20
0.0
 30
0.0
  3
*D18
  1

  0
LINE
  5
186
330
184
100
AcDbEntity
  8
AM_5
  6
ByBlock
100
AcDbLine
 10
-4923.130541293819
 20
6709.347455243246
 30
0.0
 11
-4923.130541293819
 21
6726.347455243247
 31
0.0
  0
LINE
  5
187
330
184
100
AcDbEntity
  8
AM_5
  6
ByBlock
100
AcDbLine
 10
-4909.130541293819
 20
6709.347455243246
 30
0.0
 11
-4909.130541293819
 21
6726.347455243247
 31
0.0
  0
LINE
  5
188
330
184
100
AcDbEntity
  8
AM_5
  6
ByBlock
100
AcDbLine
 10
-4930.13054129382
 20
6724.347455243247
 30
0.0
 11
-4937.13054129382
 21
6724.347455243247
 31
0.0
  0
LINE
  5
189
330
184
100
AcDbEntity
  8
AM_5
  6
ByBlock
100
AcDbLine
 10
-4902.13054129382
 20
6724.347455243247
 30
0.0
 11
-4895.13054129382
 21
6724.347455243247
 31
0.0
  0
LINE
  5
18A
330
184
100
AcDbEntity
  8
AM_5
  6
ByBlock
100
AcDbLine
 10
-4923.130541293819
 20
6724.347455243247
 30
0.0
 11
-4909.130541293819
 21
6724.347455243247
 31
0.0
  0
SOLID
  5
18B
330
184
100
AcDbEntity
  8
AM_5
100
AcDbTrace
 10
-4930.13054129382
 20
6725.514121909914
 30
0.0
 11
-4930.13054129382
 21
6723.180788576581
 31
0.0
 12
-4923.130541293819
 22
6724.347455243247
 32
0.0
 13
-4923.130541293819
 23
6724.347455243247
 33
0.0
  0
SOLID
  5
18C
330
184
100
AcDbEntity
  8
AM_5
100
AcDbTrace
 10
-4902.13054129382
 20
6725.514121909914
 30
0.0
 11
-4902.13054129382
 21
6723.180788576581
 31
0.0
 12
-4909.130541293819
 22
6724.347455243247
 32
0.0
 13
-4909.130541293819
 23
6724.347455243247
 33
0.0
  0
MTEXT
  5
18D
330
184
100
AcDbEntity
  8
AM_5
 62
     2
100
AcDbMText
 10
-4916.13054129382
 20
6731.11723696221
 30
0.0
 40
7.0
 41
0.0
 71
     5
 72
     1
  1
%%C14
 73
     1
 44
1.0
1001
ACAD
1000
MTEXTBEGIN
1070
    73
1070
     1
1070
    44
1040
1.0
1070
    74
1070
     0
1000
MTEXTEND
  0
POINT
  5
18E
330
184
100
AcDbEntity
  8
DEFPOINTS
 62
     0
100
AcDbPoint
 10
-4923.130541293819
 20
6707.347455243247
 30
0.0
  0
POINT
  5
18F
330
184
100
AcDbEntity
  8
DEFPOINTS
 62
     0
100
AcDbPoint
 10
-4909.130541293819
 20
6707.347455243247
 30
0.0
  0
POINT
  5
190
330
184
100
AcDbEntity
  8
DEFPOINTS
 62
     0
100
AcDbPoint
 10
-4909.130541293819
 20
6724.347455243247
 30
0.0
  0
ENDBLK
  5
191
330
184
100
AcDbEntity
  8
0
100
AcDbBlockEnd
  0
BLOCK
  5
194
330
193
100
AcDbEntity
  8
0
100
AcDbBlockBegin
  2
*D19
 70
     1
 10
0.0
 20
0.0
 30
0.0
  3
*D19
  1

  0
LINE
  5
195
330
193
100
AcDbEntity
  8
AM_5
  6
ByBlock
100
AcDbLine
 10
-4955.129729578201
 20
6809.847455243247
 30
0.0
 11
-4955.129729578201
 21
6827.347455243248
 31
0.0
  0
LINE
  5
196
330
193
100
AcDbEntity
  8
AM_5
  6
ByBlock
100
AcDbLine
 10
-5003.129729578201
 20
6809.847455243247
 30
0.0
 11
-5003.129729578201
 21
6827.347455243248
 31
0.0
  0
LINE
  5
197
330
193
100
AcDbEntity
  8
AM_5
  6
ByBlock
100
AcDbLine
 10
-4962.129729578201
 20
6825.347455243248
 30
0.0
 11
-4996.129729578202
 21
6825.347455243248
 31
0.0
  0
SOLID
  5
198
330
193
100
AcDbEntity
  8
AM_5
100
AcDbTrace
 10
-4962.129729578201
 20
6826.514121909915
 30
0.0
 11
-4962.129729578201
 21
6824.180788576581
 31
0.0
 12
-4955.129729578201
 22
6825.347455243248
 32
0.0
 13
-4955.129729578201
 23
6825.347455243248
 33
0.0
  0
SOLID
  5
199
330
193
100
AcDbEntity
  8
AM_5
100
AcDbTrace
 10
-4996.129729578202
 20
6826.514121909915
 30
0.0
 11
-4996.129729578202
 21
6824.180788576581
 31
0.0
 12
-5003.129729578201
 22
6825.347455243248
 32
0.0
 13
-5003.129729578201
 23
6825.347455243248
 33
0.0
  0
MTEXT
  5
19A
330
193
100
AcDbEntity
  8
AM_5
 62
     2
100
AcDbMText
 10
-4979.129729578201
 20
6831.921466157298
 30
0.0
 40
7.0
 41
0.0
 71
     5
 72
     1
  1
48
 73
     1
 44
1.0
1001
ACAD
1000
MTEXTBEGIN
1070
    73
1070
     1
1070
    44
1040
1.0
1070
    74
1070
     0
1000
MTEXTEND
  0
POINT
  5
19B
330
193
100
AcDbEntity
  8
DEFPOINTS
 62
     0
100
AcDbPoint
 10
-4955.129729578201
 20
6807.847455243247
 30
0.0
  0
POINT
  5
19C
330
193
100
AcDbEntity
  8
DEFPOINTS
 62
     0
100
AcDbPoint
 10
-5003.129729578201
 20
6807.847455243247
 30
0.0
  0
POINT
  5
19D
330
193
100
AcDbEntity
  8
DEFPOINTS
 62
     0
100
AcDbPoint
 10
-5003.129729578201
 20
6825.347455243248
 30
0.0
  0
ENDBLK
  5
19E
330
193
100
AcDbEntity
  8
0
100
AcDbBlockEnd
  0
BLOCK
  5
1A8
330
1A7
100
AcDbEntity
  8
0
100
AcDbBlockBegin
  2
*D20
 70
     1
 10
0.0
 20
0.0
 30
0.0
  3
*D20
  1

  0
LINE
  5
1A9
330
1A7
100
AcDbEntity
  8
AM_5
  6
ByBlock
100
AcDbLine
 10
-3973.74994149945
 20
6715.347455243247
 30
0.0
 11
-3973.74994149945
 21
6534.101477522803
 31
0.0
  0
LINE
  5
1AA
330
1A7
100
AcDbEntity
  8
AM_5
  6
ByBlock
100
AcDbLine
 10
-3723.749941499449
 20
6715.347455243247
 30
0.0
 11
-3723.749941499449
 21
6534.101477522803
 31
0.0
  0
LINE
  5
1AB
330
1A7
100
AcDbEntity
  8
AM_5
  6
ByBlock
100
AcDbLine
 10
-3938.74994149945
 20
6544.101477522803
 30
0.0
 11
-3758.749941499449
 21
6544.101477522803
 31
0.0
  0
SOLID
  5
1AC
330
1A7
100
AcDbEntity
  8
AM_5
100
AcDbTrace
 10
-3938.74994149945
 20
6549.934810856136
 30
0.0
 11
-3938.74994149945
 21
6538.26814418947
 31
0.0
 12
-3973.74994149945
 22
6544.101477522803
 32
0.0
 13
-3973.74994149945
 23
6544.101477522803
 33
0.0
  0
SOLID
  5
1AD
330
1A7
100
AcDbEntity
  8
AM_5
100
AcDbTrace
 10
-3758.749941499449
 20
6549.934810856136
 30
0.0
 11
-3758.749941499449
 21
6538.26814418947
 31
0.0
 12
-3723.749941499449
 22
6544.101477522803
 32
0.0
 13
-3723.749941499449
 23
6544.101477522803
 33
0.0
  0
MTEXT
  5
1AE
330
1A7
100
AcDbEntity
  8
AM_5
 62
     2
100
AcDbMText
 10
-3848.74994149945
 20
6576.971532093063
 30
0.0
 40
35.0
 41
0.0
 71
     5
 72
     1
  1
250
 73
     1
 44
1.0
1001
ACAD
1000
MTEXTBEGIN
1070
    73
1070
     1
1070
    44
1040
1.0
1070
    74
1070
     0
1000
MTEXTEND
  0
POINT
  5
1AF
330
1A7
100
AcDbEntity
  8
DEFPOINTS
 62
     0
100
AcDbPoint
 10
-3973.74994149945
 20
6725.347455243248
 30
0.0
  0
POINT
  5
1B0
330
1A7
100
AcDbEntity
  8
DEFPOINTS
 62
     0
100
AcDbPoint
 10
-3723.749941499449
 20
6725.347455243248
 30
0.0
  0
POINT
  5
1B1
330
1A7
100
AcDbEntity
  8
DEFPOINTS
 62
     0
100
AcDbPoint
 10
-3723.749941499449
 20
6544.101477522803
 30
0.0
  0
ENDBLK
  5
1B2
330
1A7
100
AcDbEntity
  8
0
100
AcDbBlockEnd
  0
BLOCK
  5
1B5
330
1B4
100
AcDbEntity
  8
0
100
AcDbBlockBegin
  2
*D21
 70
     1
 10
0.0
 20
0.0
 30
0.0
  3
*D21
  1

  0
LINE
  5
1B6
330
1B4
100
AcDbEntity
  8
AM_5
  6
ByBlock
100
AcDbLine
 10
-3723.749941499449
 20
6715.347455243247
 30
0.0
 11
-3723.749941499449
 21
6534.101477522803
 31
0.0
  0
LINE
  5
1B7
330
1B4
100
AcDbEntity
  8
AM_5
  6
ByBlock
100
AcDbLine
 10
-3473.749941499448
 20
6715.347455243247
 30
0.0
 11
-3473.749941499448
 21
6534.101477522803
 31
0.0
  0
LINE
  5
1B8
330
1B4
100
AcDbEntity
  8
AM_5
  6
ByBlock
100
AcDbLine
 10
-3688.74994149945
 20
6544.101477522803
 30
0.0
 11
-3508.749941499448
 21
6544.101477522803
 31
0.0
  0
SOLID
  5
1B9
330
1B4
100
AcDbEntity
  8
AM_5
100
AcDbTrace
 10
-3688.74994149945
 20
6549.934810856136
 30
0.0
 11
-3688.74994149945
 21
6538.26814418947
 31
0.0
 12
-3723.749941499449
 22
6544.101477522803
 32
0.0
 13
-3723.749941499449
 23
6544.101477522803
 33
0.0
  0
SOLID
  5
1BA
330
1B4
100
AcDbEntity
  8
AM_5
100
AcDbTrace
 10
-3508.749941499448
 20
6549.934810856136
 30
0.0
 11
-3508.749941499448
 21
6538.26814418947
 31
0.0
 12
-3473.749941499448
 22
6544.101477522803
 32
0.0
 13
-3473.749941499448
 23
6544.101477522803
 33
0.0
  0
MTEXT
  5
1BB
330
1B4
100
AcDbEntity
  8
AM_5
 62
     2
100
AcDbMText
 10
-3598.749941499449
 20
6576.971532093063
 30
0.0
 40
35.0
 41
0.0
 71
     5
 72
     1
  1
250
 73
     1
 44
1.0
1001
ACAD
1000
MTEXTBEGIN
1070
    73
1070
     1
1070
    44
1040
1.0
1070
    74
1070
     0
1000
MTEXTEND
  0
POINT
  5
1BC
330
1B4
100
AcDbEntity
  8
DEFPOINTS
 62
     0
100
AcDbPoint
 10
-3723.749941499449
 20
6725.347455243248
 30
0.0
  0
POINT
  5
1BD
330
1B4
100
AcDbEntity
  8
DEFPOINTS
 62
     0
100
AcDbPoint
 10
-3473.749941499448
 20
6725.347455243248
 30
0.0
  0
POINT
  5
1BE
330
1B4
100
AcDbEntity
  8
DEFPOINTS
 62
     0
100
AcDbPoint
 10
-3473.749941499448
 20
6544.101477522803
 30
0.0
  0
ENDBLK
  5
1BF
330
1B4
100
AcDbEntity
  8
0
100
AcDbBlockEnd
  0
BLOCK
  5
1C2
330
1C1
100
AcDbEntity
  8
0
100
AcDbBlockBegin
  2
*D22
 70
     1
 10
0.0
 20
0.0
 30
0.0
  3
*D22
  1

  0
LINE
  5
1C3
330
1C1
100
AcDbEntity
  8
AM_5
  6
ByBlock
100
AcDbLine
 10
-3473.749941499449
 20
6715.347455243247
 30
0.0
 11
-3473.749941499449
 21
6534.101477522803
 31
0.0
  0
LINE
  5
1C4
330
1C1
100
AcDbEntity
  8
AM_5
  6
ByBlock
100
AcDbLine
 10
-3223.749941499448
 20
6715.347455243247
 30
0.0
 11
-3223.749941499448
 21
6534.101477522803
 31
0.0
  0
LINE
  5
1C5
330
1C1
100
AcDbEntity
  8
AM_5
  6
ByBlock
100
AcDbLine
 10
-3438.74994149945
 20
6544.101477522803
 30
0.0
 11
-3258.749941499448
 21
6544.101477522803
 31
0.0
  0
SOLID
  5
1C6
330
1C1
100
AcDbEntity
  8
AM_5
100
AcDbTrace
 10
-3438.74994149945
 20
6549.934810856136
 30
0.0
 11
-3438.74994149945
 21
6538.26814418947
 31
0.0
 12
-3473.749941499449
 22
6544.101477522803
 32
0.0
 13
-3473.749941499449
 23
6544.101477522803
 33
0.0
  0
SOLID
  5
1C7
330
1C1
100
AcDbEntity
  8
AM_5
100
AcDbTrace
 10
-3258.749941499448
 20
6549.934810856136
 30
0.0
 11
-3258.749941499448
 21
6538.26814418947
 31
0.0
 12
-3223.749941499448
 22
6544.101477522803
 32
0.0
 13
-3223.749941499448
 23
6544.101477522803
 33
0.0
  0
MTEXT
  5
1C8
330
1C1
100
AcDbEntity
  8
AM_5
 62
     2
100
AcDbMText
 10
-3348.749941499449
 20
6576.971532093063
 30
0.0
 40
35.0
 41
0.0
 71
     5
 72
     1
  1
250
 73
     1
 44
1.0
1001
ACAD
1000
MTEXTBEGIN
1070
    73
1070
     1
1070
    44
1040
1.0
1070
    74
1070
     0
1000
MTEXTEND
  0
POINT
  5
1C9
330
1C1
100
AcDbEntity
  8
DEFPOINTS
 62
     0
100
AcDbPoint
 10
-3473.749941499449
 20
6725.347455243248
 30
0.0
  0
POINT
  5
1CA
330
1C1
100
AcDbEntity
  8
DEFPOINTS
 62
     0
100
AcDbPoint
 10
-3223.749941499448
 20
6725.347455243248
 30
0.0
  0
POINT
  5
1CB
330
1C1
100
AcDbEntity
  8
DEFPOINTS
 62
     0
100
AcDbPoint
 10
-3223.749941499448
 20
6544.101477522803
 30
0.0
  0
ENDBLK
  5
1CC
330
1C1
100
AcDbEntity
  8
0
100
AcDbBlockEnd
  0
BLOCK
  5
1CF
330
1CE
100
AcDbEntity
  8
0
100
AcDbBlockBegin
  2
*D23
 70
     1
 10
0.0
 20
0.0
 30
0.0
  3
*D23
  1

  0
LINE
  5
1D0
330
1CE
100
AcDbEntity
  8
AM_5
  6
ByBlock
100
AcDbLine
 10
-3223.749941499449
 20
6715.347455243247
 30
0.0
 11
-3223.749941499449
 21
6534.101477522803
 31
0.0
  0
LINE
  5
1D1
330
1CE
100
AcDbEntity
  8
AM_5
  6
ByBlock
100
AcDbLine
 10
-2973.749941499448
 20
6715.347455243247
 30
0.0
 11
-2973.749941499448
 21
6534.101477522803
 31
0.0
  0
LINE
  5
1D2
330
1CE
100
AcDbEntity
  8
AM_5
  6
ByBlock
100
AcDbLine
 10
-3188.749941499449
 20
6544.101477522803
 30
0.0
 11
-3008.749941499448
 21
6544.101477522803
 31
0.0
  0
SOLID
  5
1D3
330
1CE
100
AcDbEntity
  8
AM_5
100
AcDbTrace
 10
-3188.749941499449
 20
6549.934810856136
 30
0.0
 11
-3188.749941499449
 21
6538.26814418947
 31
0.0
 12
-3223.749941499449
 22
6544.101477522803
 32
0.0
 13
-3223.749941499449
 23
6544.101477522803
 33
0.0
  0
SOLID
  5
1D4
330
1CE
100
AcDbEntity
  8
AM_5
100
AcDbTrace
 10
-3008.749941499448
 20
6549.934810856136
 30
0.0
 11
-3008.749941499448
 21
6538.26814418947
 31
0.0
 12
-2973.749941499448
 22
6544.101477522803
 32
0.0
 13
-2973.749941499448
 23
6544.101477522803
 33
0.0
  0
MTEXT
  5
1D5
330
1CE
100
AcDbEntity
  8
AM_5
 62
     2
100
AcDbMText
 10
-3098.749941499449
 20
6576.971532093063
 30
0.0
 40
35.0
 41
0.0
 71
     5
 72
     1
  1
250
 73
     1
 44
1.0
1001
ACAD
1000
MTEXTBEGIN
1070
    73
1070
     1
1070
    44
1040
1.0
1070
    74
1070
     0
1000
MTEXTEND
  0
POINT
  5
1D6
330
1CE
100
AcDbEntity
  8
DEFPOINTS
 62
     0
100
AcDbPoint
 10
-3223.749941499449
 20
6725.347455243248
 30
0.0
  0
POINT
  5
1D7
330
1CE
100
AcDbEntity
  8
DEFPOINTS
 62
     0
100
AcDbPoint
 10
-2973.749941499448
 20
6725.347455243248
 30
0.0
  0
POINT
  5
1D8
330
1CE
100
AcDbEntity
  8
DEFPOINTS
 62
     0
100
AcDbPoint
 10
-2973.749941499448
 20
6544.101477522803
 30
0.0
  0
ENDBLK
  5
1D9
330
1CE
100
AcDbEntity
  8
0
100
AcDbBlockEnd
  0
BLOCK
  5
1DC
330
1DB
100
AcDbEntity
  8
0
100
AcDbBlockBegin
  2
*D24
 70
     1
 10
0.0
 20
0.0
 30
0.0
  3
*D24
  1

  0
LINE
  5
1DD
330
1DB
100
AcDbEntity
  8
AM_5
  6
ByBlock
100
AcDbLine
 10
-2973.749941499449
 20
6715.347455243247
 30
0.0
 11
-2973.749941499449
 21
6534.101477522803
 31
0.0
  0
LINE
  5
1DE
330
1DB
100
AcDbEntity
  8
AM_5
  6
ByBlock
100
AcDbLine
 10
-2723.749941499448
 20
6715.347455243247
 30
0.0
 11
-2723.749941499448
 21
6534.101477522803
 31
0.0
  0
LINE
  5
1DF
330
1DB
100
AcDbEntity
  8
AM_5
  6
ByBlock
100
AcDbLine
 10
-2938.749941499449
 20
6544.101477522803
 30
0.0
 11
-2758.749941499448
 21
6544.101477522803
 31
0.0
  0
SOLID
  5
1E0
330
1DB
100
AcDbEntity
  8
AM_5
100
AcDbTrace
 10
-2938.749941499449
 20
6549.934810856136
 30
0.0
 11
-2938.749941499449
 21
6538.26814418947
 31
0.0
 12
-2973.749941499449
 22
6544.101477522803
 32
0.0
 13
-2973.749941499449
 23
6544.101477522803
 33
0.0
  0
SOLID
  5
1E1
330
1DB
100
AcDbEntity
  8
AM_5
100
AcDbTrace
 10
-2758.749941499448
 20
6549.934810856136
 30
0.0
 11
-2758.749941499448
 21
6538.26814418947
 31
0.0
 12
-2723.749941499448
 22
6544.101477522803
 32
0.0
 13
-2723.749941499448
 23
6544.101477522803
 33
0.0
  0
MTEXT
  5
1E2
330
1DB
100
AcDbEntity
  8
AM_5
 62
     2
100
AcDbMText
 10
-2848.749941499449
 20
6576.971532093063
 30
0.0
 40
35.0
 41
0.0
 71
     5
 72
     1
  1
250
 73
     1
 44
1.0
1001
ACAD
1000
MTEXTBEGIN
1070
    73
1070
     1
1070
    44
1040
1.0
1070
    74
1070
     0
1000
MTEXTEND
  0
POINT
  5
1E3
330
1DB
100
AcDbEntity
  8
DEFPOINTS
 62
     0
100
AcDbPoint
 10
-2973.749941499449
 20
6725.347455243248
 30
0.0
  0
POINT
  5
1E4
330
1DB
100
AcDbEntity
  8
DEFPOINTS
 62
     0
100
AcDbPoint
 10
-2723.749941499448
 20
6725.347455243248
 30
0.0
  0
POINT
  5
1E5
330
1DB
100
AcDbEntity
  8
DEFPOINTS
 62
     0
100
AcDbPoint
 10
-2723.749941499448
 20
6544.101477522803
 30
0.0
  0
ENDBLK
  5
1E6
330
1DB
100
AcDbEntity
  8
0
100
AcDbBlockEnd
  0
BLOCK
  5
1E9
330
1E8
100
AcDbEntity
  8
0
100
AcDbBlockBegin
  2
*D25
 70
     1
 10
0.0
 20
0.0
 30
0.0
  3
*D25
  1

  0
LINE
  5
1EA
330
1E8
100
AcDbEntity
  8
AM_5
  6
ByBlock
100
AcDbLine
 10
-2723.749941499449
 20
6715.347455243247
 30
0.0
 11
-2723.749941499449
 21
6534.101477522803
 31
0.0
  0
LINE
  5
1EB
330
1E8
100
AcDbEntity
  8
AM_5
  6
ByBlock
100
AcDbLine
 10
-2473.749941499448
 20
6715.347455243247
 30
0.0
 11
-2473.749941499448
 21
6534.101477522803
 31
0.0
  0
LINE
  5
1EC
330
1E8
100
AcDbEntity
  8
AM_5
  6
ByBlock
100
AcDbLine
 10
-2688.749941499449
 20
6544.101477522803
 30
0.0
 11
-2508.749941499448
 21
6544.101477522803
 31
0.0
  0
SOLID
  5
1ED
330
1E8
100
AcDbEntity
  8
AM_5
100
AcDbTrace
 10
-2688.749941499449
 20
6549.934810856136
 30
0.0
 11
-2688.749941499449
 21
6538.26814418947
 31
0.0
 12
-2723.749941499449
 22
6544.101477522803
 32
0.0
 13
-2723.749941499449
 23
6544.101477522803
 33
0.0
  0
SOLID
  5
1EE
330
1E8
100
AcDbEntity
  8
AM_5
100
AcDbTrace
 10
-2508.749941499448
 20
6549.934810856136
 30
0.0
 11
-2508.749941499448
 21
6538.26814418947
 31
0.0
 12
-2473.749941499448
 22
6544.101477522803
 32
0.0
 13
-2473.749941499448
 23
6544.101477522803
 33
0.0
  0
MTEXT
  5
1EF
330
1E8
100
AcDbEntity
  8
AM_5
 62
     2
100
AcDbMText
 10
-2598.749941499449
 20
6576.971532093063
 30
0.0
 40
35.0
 41
0.0
 71
     5
 72
     1
  1
250
 73
     1
 44
1.0
1001
ACAD
1000
MTEXTBEGIN
1070
    73
1070
     1
1070
    44
1040
1.0
1070
    74
1070
     0
1000
MTEXTEND
  0
POINT
  5
1F0
330
1E8
100
AcDbEntity
  8
DEFPOINTS
 62
     0
100
AcDbPoint
 10
-2723.749941499449
 20
6725.347455243248
 30
0.0
  0
POINT
  5
1F1
330
1E8
100
AcDbEntity
  8
DEFPOINTS
 62
     0
100
AcDbPoint
 10
-2473.749941499448
 20
6725.347455243248
 30
0.0
  0
POINT
  5
1F2
330
1E8
100
AcDbEntity
  8
DEFPOINTS
 62
     0
100
AcDbPoint
 10
-2473.749941499448
 20
6544.101477522803
 30
0.0
  0
ENDBLK
  5
1F3
330
1E8
100
AcDbEntity
  8
0
100
AcDbBlockEnd
  0
BLOCK
  5
1F6
330
1F5
100
AcDbEntity
  8
0
100
AcDbBlockBegin
  2
*D26
 70
     1
 10
0.0
 20
0.0
 30
0.0
  3
*D26
  1

  0
LINE
  5
1F7
330
1F5
100
AcDbEntity
  8
AM_5
  6
ByBlock
100
AcDbLine
 10
-2473.749941499449
 20
6715.347455243247
 30
0.0
 11
-2473.749941499449
 21
6534.101477522803
 31
0.0
  0
LINE
  5
1F8
330
1F5
100
AcDbEntity
  8
AM_5
  6
ByBlock
100
AcDbLine
 10
-2223.749941499448
 20
6715.347455243247
 30
0.0
 11
-2223.749941499448
 21
6534.101477522803
 31
0.0
  0
LINE
  5
1F9
330
1F5
100
AcDbEntity
  8
AM_5
  6
ByBlock
100
AcDbLine
 10
-2438.749941499449
 20
6544.101477522803
 30
0.0
 11
-2258.749941499448
 21
6544.101477522803
 31
0.0
  0
SOLID
  5
1FA
330
1F5
100
AcDbEntity
  8
AM_5
100
AcDbTrace
 10
-2438.749941499449
 20
6549.934810856136
 30
0.0
 11
-2438.749941499449
 21
6538.26814418947
 31
0.0
 12
-2473.749941499449
 22
6544.101477522803
 32
0.0
 13
-2473.749941499449
 23
6544.101477522803
 33
0.0
  0
SOLID
  5
1FB
330
1F5
100
AcDbEntity
  8
AM_5
100
AcDbTrace
 10
-2258.749941499448
 20
6549.934810856136
 30
0.0
 11
-2258.749941499448
 21
6538.26814418947
 31
0.0
 12
-2223.749941499448
 22
6544.101477522803
 32
0.0
 13
-2223.749941499448
 23
6544.101477522803
 33
0.0
  0
MTEXT
  5
1FC
330
1F5
100
AcDbEntity
  8
AM_5
 62
     2
100
AcDbMText
 10
-2348.749941499448
 20
6576.971532093063
 30
0.0
 40
35.0
 41
0.0
 71
     5
 72
     1
  1
250
 73
     1
 44
1.0
1001
ACAD
1000
MTEXTBEGIN
1070
    73
1070
     1
1070
    44
1040
1.0
1070
    74
1070
     0
1000
MTEXTEND
  0
POINT
  5
1FD
330
1F5
100
AcDbEntity
  8
DEFPOINTS
 62
     0
100
AcDbPoint
 10
-2473.749941499449
 20
6725.347455243248
 30
0.0
  0
POINT
  5
1FE
330
1F5
100
AcDbEntity
  8
DEFPOINTS
 62
     0
100
AcDbPoint
 10
-2223.749941499448
 20
6725.347455243248
 30
0.0
  0
POINT
  5
1FF
330
1F5
100
AcDbEntity
  8
DEFPOINTS
 62
     0
100
AcDbPoint
 10
-2223.749941499448
 20
6544.101477522803
 30
0.0
  0
ENDBLK
  5
200
330
1F5
100
AcDbEntity
  8
0
100
AcDbBlockEnd
  0
BLOCK
  5
203
330
202
100
AcDbEntity
  8
0
100
AcDbBlockBegin
  2
*D27
 70
     1
 10
0.0
 20
0.0
 30
0.0
  3
*D27
  1

  0
LINE
  5
204
330
202
100
AcDbEntity
  8
AM_5
  6
ByBlock
100
AcDbLine
 10
-2223.749941499449
 20
6715.347455243247
 30
0.0
 11
-2223.749941499449
 21
6534.101477522803
 31
0.0
  0
LINE
  5
205
330
202
100
AcDbEntity
  8
AM_5
  6
ByBlock
100
AcDbLine
 10
-1973.749941499448
 20
6715.347455243247
 30
0.0
 11
-1973.749941499448
 21
6534.101477522803
 31
0.0
  0
LINE
  5
206
330
202
100
AcDbEntity
  8
AM_5
  6
ByBlock
100
AcDbLine
 10
-2188.749941499449
 20
6544.101477522803
 30
0.0
 11
-2008.749941499448
 21
6544.101477522803
 31
0.0
  0
SOLID
  5
207
330
202
100
AcDbEntity
  8
AM_5
100
AcDbTrace
 10
-2188.749941499449
 20
6549.934810856136
 30
0.0
 11
-2188.749941499449
 21
6538.26814418947
 31
0.0
 12
-2223.749941499449
 22
6544.101477522803
 32
0.0
 13
-2223.749941499449
 23
6544.101477522803
 33
0.0
  0
SOLID
  5
208
330
202
100
AcDbEntity
  8
AM_5
100
AcDbTrace
 10
-2008.749941499448
 20
6549.934810856136
 30
0.0
 11
-2008.749941499448
 21
6538.26814418947
 31
0.0
 12
-1973.749941499448
 22
6544.101477522803
 32
0.0
 13
-1973.749941499448
 23
6544.101477522803
 33
0.0
  0
MTEXT
  5
209
330
202
100
AcDbEntity
  8
AM_5
 62
     2
100
AcDbMText
 10
-2098.749941499448
 20
6576.971532093063
 30
0.0
 40
35.0
 41
0.0
 71
     5
 72
     1
  1
250
 73
     1
 44
1.0
1001
ACAD
1000
MTEXTBEGIN
1070
    73
1070
     1
1070
    44
1040
1.0
1070
    74
1070
     0
1000
MTEXTEND
  0
POINT
  5
20A
330
202
100
AcDbEntity
  8
DEFPOINTS
 62
     0
100
AcDbPoint
 10
-2223.749941499449
 20
6725.347455243248
 30
0.0
  0
POINT
  5
20B
330
202
100
AcDbEntity
  8
DEFPOINTS
 62
     0
100
AcDbPoint
 10
-1973.749941499448
 20
6725.347455243248
 30
0.0
  0
POINT
  5
20C
330
202
100
AcDbEntity
  8
DEFPOINTS
 62
     0
100
AcDbPoint
 10
-1973.749941499448
 20
6544.101477522803
 30
0.0
  0
ENDBLK
  5
20D
330
202
100
AcDbEntity
  8
0
100
AcDbBlockEnd
  0
BLOCK
  5
210
330
20F
100
AcDbEntity
  8
0
100
AcDbBlockBegin
  2
*D28
 70
     1
 10
0.0
 20
0.0
 30
0.0
  3
*D28
  1

  0
LINE
  5
211
330
20F
100
AcDbEntity
  8
AM_5
  6
ByBlock
100
AcDbLine
 10
-1973.749941499449
 20
6715.347455243247
 30
0.0
 11
-1973.749941499449
 21
6534.101477522803
 31
0.0
  0
LINE
  5
212
330
20F
100
AcDbEntity
  8
AM_5
  6
ByBlock
100
AcDbLine
 10
-1723.749941499448
 20
6715.347455243247
 30
0.0
 11
-1723.749941499448
 21
6534.101477522803
 31
0.0
  0
LINE
  5
213
330
20F
100
AcDbEntity
  8
AM_5
  6
ByBlock
100
AcDbLine
 10
-1938.749941499449
 20
6544.101477522803
 30
0.0
 11
-1758.749941499448
 21
6544.101477522803
 31
0.0
  0
SOLID
  5
214
330
20F
100
AcDbEntity
  8
AM_5
100
AcDbTrace
 10
-1938.749941499449
 20
6549.934810856136
 30
0.0
 11
-1938.749941499449
 21
6538.26814418947
 31
0.0
 12
-1973.749941499449
 22
6544.101477522803
 32
0.0
 13
-1973.749941499449
 23
6544.101477522803
 33
0.0
  0
SOLID
  5
215
330
20F
100
AcDbEntity
  8
AM_5
100
AcDbTrace
 10
-1758.749941499448
 20
6549.934810856136
 30
0.0
 11
-1758.749941499448
 21
6538.26814418947
 31
0.0
 12
-1723.749941499448
 22
6544.101477522803
 32
0.0
 13
-1723.749941499448
 23
6544.101477522803
 33
0.0
  0
MTEXT
  5
216
330
20F
100
AcDbEntity
  8
AM_5
 62
     2
100
AcDbMText
 10
-1848.749941499448
 20
6576.971532093063
 30
0.0
 40
35.0
 41
0.0
 71
     5
 72
     1
  1
250
 73
     1
 44
1.0
1001
ACAD
1000
MTEXTBEGIN
1070
    73
1070
     1
1070
    44
1040
1.0
1070
    74
1070
     0
1000
MTEXTEND
  0
POINT
  5
217
330
20F
100
AcDbEntity
  8
DEFPOINTS
 62
     0
100
AcDbPoint
 10
-1973.749941499449
 20
6725.347455243248
 30
0.0
  0
POINT
  5
218
330
20F
100
AcDbEntity
  8
DEFPOINTS
 62
     0
100
AcDbPoint
 10
-1723.749941499448
 20
6725.347455243248
 30
0.0
  0
POINT
  5
219
330
20F
100
AcDbEntity
  8
DEFPOINTS
 62
     0
100
AcDbPoint
 10
-1723.749941499448
 20
6544.101477522803
 30
0.0
  0
ENDBLK
  5
21A
330
20F
100
AcDbEntity
  8
0
100
AcDbBlockEnd
  0
BLOCK
  5
21D
330
21C
100
AcDbEntity
  8
0
100
AcDbBlockBegin
  2
*D29
 70
     1
 10
0.0
 20
0.0
 30
0.0
  3
*D29
  1

  0
LINE
  5
21E
330
21C
100
AcDbEntity
  8
AM_5
  6
ByBlock
100
AcDbLine
 10
-1723.749941499449
 20
6715.347455243247
 30
0.0
 11
-1723.749941499449
 21
6534.101477522803
 31
0.0
  0
LINE
  5
21F
330
21C
100
AcDbEntity
  8
AM_5
  6
ByBlock
100
AcDbLine
 10
-1473.749941499448
 20
6715.347455243247
 30
0.0
 11
-1473.749941499448
 21
6534.101477522803
 31
0.0
  0
LINE
  5
220
330
21C
100
AcDbEntity
  8
AM_5
  6
ByBlock
100
AcDbLine
 10
-1688.749941499449
 20
6544.101477522803
 30
0.0
 11
-1508.749941499448
 21
6544.101477522803
 31
0.0
  0
SOLID
  5
221
330
21C
100
AcDbEntity
  8
AM_5
100
AcDbTrace
 10
-1688.749941499449
 20
6549.934810856136
 30
0.0
 11
-1688.749941499449
 21
6538.26814418947
 31
0.0
 12
-1723.749941499449
 22
6544.101477522803
 32
0.0
 13
-1723.749941499449
 23
6544.101477522803
 33
0.0
  0
SOLID
  5
222
330
21C
100
AcDbEntity
  8
AM_5
100
AcDbTrace
 10
-1508.749941499448
 20
6549.934810856136
 30
0.0
 11
-1508.749941499448
 21
6538.26814418947
 31
0.0
 12
-1473.749941499448
 22
6544.101477522803
 32
0.0
 13
-1473.749941499448
 23
6544.101477522803
 33
0.0
  0
MTEXT
  5
223
330
21C
100
AcDbEntity
  8
AM_5
 62
     2
100
AcDbMText
 10
-1598.749941499449
 20
6576.971532093063
 30
0.0
 40
35.0
 41
0.0
 71
     5
 72
     1
  1
250
 73
     1
 44
1.0
1001
ACAD
1000
MTEXTBEGIN
1070
    73
1070
     1
1070
    44
1040
1.0
1070
    74
1070
     0
1000
MTEXTEND
  0
POINT
  5
224
330
21C
100
AcDbEntity
  8
DEFPOINTS
 62
     0
100
AcDbPoint
 10
-1723.749941499449
 20
6725.347455243248
 30
0.0
  0
POINT
  5
225
330
21C
100
AcDbEntity
  8
DEFPOINTS
 62
     0
100
AcDbPoint
 10
-1473.749941499448
 20
6725.347455243248
 30
0.0
  0
POINT
  5
226
330
21C
100
AcDbEntity
  8
DEFPOINTS
 62
     0
100
AcDbPoint
 10
-1473.749941499448
 20
6544.101477522803
 30
0.0
  0
ENDBLK
  5
227
330
21C
100
AcDbEntity
  8
0
100
AcDbBlockEnd
  0
BLOCK
  5
22A
330
229
100
AcDbEntity
  8
0
100
AcDbBlockBegin
  2
*D30
 70
     1
 10
0.0
 20
0.0
 30
0.0
  3
*D30
  1

  0
LINE
  5
22B
330
229
100
AcDbEntity
  8
AM_5
  6
ByBlock
100
AcDbLine
 10
-1473.749941499449
 20
6715.347455243247
 30
0.0
 11
-1473.749941499449
 21
6534.101477522803
 31
0.0
  0
LINE
  5
22C
330
229
100
AcDbEntity
  8
AM_5
  6
ByBlock
100
AcDbLine
 10
-1223.749941499448
 20
6715.347455243247
 30
0.0
 11
-1223.749941499448
 21
6534.101477522803
 31
0.0
  0
LINE
  5
22D
330
229
100
AcDbEntity
  8
AM_5
  6
ByBlock
100
AcDbLine
 10
-1438.749941499449
 20
6544.101477522803
 30
0.0
 11
-1258.749941499448
 21
6544.101477522803
 31
0.0
  0
SOLID
  5
22E
330
229
100
AcDbEntity
  8
AM_5
100
AcDbTrace
 10
-1438.749941499449
 20
6549.934810856136
 30
0.0
 11
-1438.749941499449
 21
6538.26814418947
 31
0.0
 12
-1473.749941499449
 22
6544.101477522803
 32
0.0
 13
-1473.749941499449
 23
6544.101477522803
 33
0.0
  0
SOLID
  5
22F
330
229
100
AcDbEntity
  8
AM_5
100
AcDbTrace
 10
-1258.749941499448
 20
6549.934810856136
 30
0.0
 11
-1258.749941499448
 21
6538.26814418947
 31
0.0
 12
-1223.749941499448
 22
6544.101477522803
 32
0.0
 13
-1223.749941499448
 23
6544.101477522803
 33
0.0
  0
MTEXT
  5
230
330
229
100
AcDbEntity
  8
AM_5
 62
     2
100
AcDbMText
 10
-1348.749941499449
 20
6576.971532093063
 30
0.0
 40
35.0
 41
0.0
 71
     5
 72
     1
  1
250
 73
     1
 44
1.0
1001
ACAD
1000
MTEXTBEGIN
1070
    73
1070
     1
1070
    44
1040
1.0
1070
    74
1070
     0
1000
MTEXTEND
  0
POINT
  5
231
330
229
100
AcDbEntity
  8
DEFPOINTS
 62
     0
100
AcDbPoint
 10
-1473.749941499449
 20
6725.347455243248
 30
0.0
  0
POINT
  5
232
330
229
100
AcDbEntity
  8
DEFPOINTS
 62
     0
100
AcDbPoint
 10
-1223.749941499448
 20
6725.347455243248
 30
0.0
  0
POINT
  5
233
330
229
100
AcDbEntity
  8
DEFPOINTS
 62
     0
100
AcDbPoint
 10
-1223.749941499448
 20
6544.101477522803
 30
0.0
  0
ENDBLK
  5
234
330
229
100
AcDbEntity
  8
0
100
AcDbBlockEnd
  0
BLOCK
  5
237
330
236
100
AcDbEntity
  8
0
100
AcDbBlockBegin
  2
*D31
 70
     1
 10
0.0
 20
0.0
 30
0.0
  3
*D31
  1

  0
LINE
  5
238
330
236
100
AcDbEntity
  8
AM_5
  6
ByBlock
100
AcDbLine
 10
-1223.749941499449
 20
6715.347455243247
 30
0.0
 11
-1223.749941499449
 21
6534.101477522803
 31
0.0
  0
LINE
  5
239
330
236
100
AcDbEntity
  8
AM_5
  6
ByBlock
100
AcDbLine
 10
-1098.750319257229
 20
6690.347455243248
 30
0.0
 11
-1098.750319257229
 21
6534.101477522803
 31
0.0
  0
LINE
  5
23A
330
236
100
AcDbEntity
  8
AM_5
  6
ByBlock
100
AcDbLine
 10
-1188.749941499449
 20
6544.101477522803
 30
0.0
 11
-1133.750319257229
 21
6544.101477522803
 31
0.0
  0
SOLID
  5
23B
330
236
100
AcDbEntity
  8
AM_5
100
AcDbTrace
 10
-1188.749941499449
 20
6549.934810856136
 30
0.0
 11
-1188.749941499449
 21
6538.26814418947
 31
0.0
 12
-1223.749941499449
 22
6544.101477522803
 32
0.0
 13
-1223.749941499449
 23
6544.101477522803
 33
0.0
  0
SOLID
  5
23C
330
236
100
AcDbEntity
  8
AM_5
100
AcDbTrace
 10
-1133.750319257229
 20
6549.934810856136
 30
0.0
 11
-1133.750319257229
 21
6538.26814418947
 31
0.0
 12
-1098.750319257229
 22
6544.101477522803
 32
0.0
 13
-1098.750319257229
 23
6544.101477522803
 33
0.0
  0
MTEXT
  5
23D
330
236
100
AcDbEntity
  8
AM_5
 62
     2
100
AcDbMText
 10
-1161.250130378339
 20
6576.971532093063
 30
0.0
 40
35.0
 41
0.0
 71
     5
 72
     1
  1
125
 73
     1
 44
1.0
1001
ACAD
1000
MTEXTBEGIN
1070
    73
1070
     1
1070
    44
1040
1.0
1070
    74
1070
     0
1000
MTEXTEND
  0
POINT
  5
23E
330
236
100
AcDbEntity
  8
DEFPOINTS
 62
     0
100
AcDbPoint
 10
-1223.749941499449
 20
6725.347455243248
 30
0.0
  0
POINT
  5
23F
330
236
100
AcDbEntity
  8
DEFPOINTS
 62
     0
100
AcDbPoint
 10
-1098.750319257229
 20
6700.347455243248
 30
0.0
  0
POINT
  5
240
330
236
100
AcDbEntity
  8
DEFPOINTS
 62
     0
100
AcDbPoint
 10
-1098.750319257229
 20
6544.101477522803
 30
0.0
  0
ENDBLK
  5
241
330
236
100
AcDbEntity
  8
0
100
AcDbBlockEnd
  0
ENDSEC
  0
SECTION
  2
ENTITIES
  0
LINE
  5
5A
330
2
100
AcDbEntity
  8
-ACHSE
  6
AM_DIN_G_W050x2
100
AcDbLine
 10
-1723.749941499449
 20
6736.347455243247
 30
0.0
 11
-1723.749941499449
 21
6747.347455243247
 31
0.0
1001
GENIUS_GENOREF_13
1005
2B5
  0
DIMENSION
  5
60
330
2
100
AcDbEntity
  8
AM_5
100
AcDbDimension
  2
*D2
 10
-4916.129729578202
 20
6683.347455243247
 30
0.0
 11
-4898.129729578201
 21
6689.923853606138
 31
0.0
  1
<>
 71
     5
 42
36.0
  3
AM_DIN$0
100
AcDbAlignedDimension
 13
-4880.129729578201
 23
6700.847455243248
 33
0.0
 14
-4916.129729578202
 24
6697.347455243248
 34
0.0
 50
180.0
100
AcDbRotatedDimension
1001
ACAD_DSTYLE_DIMINSPECT
1070
   396
1000
100%
1070
   395
1000

1070
   394
1070
    33
1070
   393
1070
     0
1001
ACAD
1000
DSTYLE
1002
{
1070
    40
1040
2.0
1002
}
  0
DIMENSION
  5
74
330
2
100
AcDbEntity
  8
AM_5
100
AcDbDimension
  2
*D3
 10
-5003.129729578201
 20
6683.347455243247
 30
0.0
 11
-4959.629729578201
 21
6689.921466157298
 31
0.0
 71
     5
 42
87.0
  3
AM_DIN$0
100
AcDbAlignedDimension
 13
-4916.129729578202
 23
6697.347455243248
 33
0.0
 14
-5003.129729578201
 24
6700.851818510997
 34
0.0
 50
180.0
100
AcDbRotatedDimension
1001
ACAD_DSTYLE_DIMINSPECT
1070
   396
1000
100%
1070
   395
1000

1070
   394
1070
    33
1070
   393
1070
     0
1001
ACAD
1000
DSTYLE
1002
{
1070
    40
1040
2.0
1002
}
  0
DIMENSION
  5
81
330
2
100
AcDbEntity
  8
AM_5
100
AcDbDimension
  2
*D4
 10
-5003.129729578201
 20
6666.347455243247
 30
0.0
 11
-4941.629729578202
 21
6672.923853606139
 31
0.0
 71
     5
 42
123.0
  3
AM_DIN$0
100
AcDbAlignedDimension
 13
-4880.129729578201
 23
6700.847455243248
 33
0.0
 14
-5003.129729578201
 24
6700.851818510997
 34
0.0
 50
180.0
100
AcDbRotatedDimension
1001
ACAD_DSTYLE_DIMINSPECT
1070
   396
1000
100%
1070
   395
1000

1070
   394
1070
    33
1070
   393
1070
     0
1001
ACAD
1000
DSTYLE
1002
{
1070
    40
1040
2.0
1002
}
  0
DIMENSION
  5
8E
330
2
100
AcDbEntity
  8
AM_5
100
AcDbDimension
  2
*D5
 10
-5020.129729578203
 20
6808.347455243247
 30
0.0
 11
-5026.749102020223
 21
6760.84745524325
 31
0.0
  1
Glaseinstand ca.<>
 71
     5
 42
94.99999999999545
  3
AM_DIN$0
100
AcDbAlignedDimension
 13
-4985.889727416986
 23
6713.347455243251
 33
0.0
 14
-5002.629729578202
 24
6808.347455243247
 34
0.0
 50
90.0
100
AcDbRotatedDimension
1001
ACAD_DSTYLE_DIMINSPECT
1070
   396
1000
100%
1070
   395
1000

1070
   394
1070
    33
1070
   393
1070
     0
1001
ACAD
1000
DSTYLE
1002
{
1070
     3
1000

1070
    40
1040
2.0
1002
}
  0
CIRCLE
  5
9B
330
2
100
AcDbEntity
  8
-PROFILAUSSENKANTET
100
AcDbCircle
 10
-3973.74994149945
 20
6736.347455243247
 30
0.0
 40
7.0
  0
LINE
  5
9C
330
2
100
AcDbEntity
  8
-ACHSE
  6
AM_DIN_G_W050x2
100
AcDbLine
 10
-3973.74994149945
 20
6736.347455243247
 30
0.0
 11
-3973.74994149945
 21
6747.347455243247
 31
0.0
1001
GENIUS_GENOREF_13
1005
2B4
  0
LINE
  5
9D
330
2
100
AcDbEntity
  8
-ACHSE
  6
AM_DIN_G_W050x2
100
AcDbLine
 10
-3973.74994149945
 20
6736.347455243247
 30
0.0
 11
-3984.74994149945
 21
6736.347455243247
 31
0.0
1001
GENIUS_GENOREF_13
1005
2B4
  0
LINE
  5
9E
330
2
100
AcDbEntity
  8
-ACHSE
  6
AM_DIN_G_W050x2
100
AcDbLine
 10
-3973.74994149945
 20
6736.347455243247
 30
0.0
 11
-3962.749941499451
 21
6736.347455243247
 31
0.0
1001
GENIUS_GENOREF_13
1005
2B4
  0
LINE
  5
9F
330
2
100
AcDbEntity
  8
-ACHSE
  6
AM_DIN_G_W050x2
100
AcDbLine
 10
-3973.74994149945
 20
6736.347455243247
 30
0.0
 11
-3973.74994149945
 21
6725.347455243248
 31
0.0
1001
GENIUS_GENOREF_13
1005
2B4
  0
POLYLINE
  5
A0
102
{ACAD_REACTORS
330
10B
102
}
330
2
100
AcDbEntity
  8
-PROFILAUSSENKANTET
100
AcDb2dPolyline
 66
     1
 10
0.0
 20
0.0
 30
0.0
 70
     1
1001
GENIUS_GENREC_14
1002
{
1000
PYDIR
1011
-4098.74994149945
1021
6700.347455243248
1031
0.0
1002
}
1002
{
1000
PXDIR
1011
-3558.052707750962
1021
6840.34664352763
1031
0.0
1002
}
1002
{
1000
PORI
1011
-4098.74994149945
1021
6840.34664352763
1031
0.0
1002
}
1002
{
1000
PINS
1011
-4098.74994149945
1021
6840.34664352763
1031
0.0
1002
}
1002
{
1000
PINS2
1011
-3558.052707750962
1021
6700.347455243248
1031
0.0
1002
}
1002
{
1000
C
1070
     1
1002
}
1001
GENIUS_GENODEF_13
1002
{
1000
HIER
1070
     0
1002
}
1002
{
1000
MANEDIT
1070
     0
1002
}
1002
{
1000
NOSEL
1070
     0
1002
}
1002
{
1000
BEHIND
1070
     0
1002
}
1002
{
1000
OTHER
1070
     0
1002
}
1002
{
1000
REACTOR
1002
}
1001
GENIUS_GENOBJ-N-REC_13
1002
{
1000
OWNER
1000
GEN
1002
}
  0
VERTEX
  5
A1
330
A0
100
AcDbEntity
  8
-PROFILAUSSENKANTET
100
AcDbVertex
100
AcDb2dVertex
 10
-4098.74994149945
 20
6823.347455243247
 30
0.0
  0
VERTEX
  5
A2
330
A0
100
AcDbEntity
  8
-PROFILAUSSENKANTET
100
AcDbVertex
100
AcDb2dVertex
 10
-1098.750319257229
 20
6823.347455243247
 30
0.0
  0
VERTEX
  5
A3
102
{ACAD_REACTORS
330
10B
102
}
330
A0
100
AcDbEntity
  8
-PROFILAUSSENKANTET
100
AcDbVertex
100
AcDb2dVertex
 10
-1098.750319257229
 20
6700.347455243248
 30
0.0
  0
VERTEX
  5
A4
330
A0
100
AcDbEntity
  8
-PROFILAUSSENKANTET
100
AcDbVertex
100
AcDb2dVertex
 10
-4098.74994149945
 20
6700.347455243248
 30
0.0
  0
SEQEND
  5
A5
330
A0
100
AcDbEntity
  8
-PROFILAUSSENKANTET
  0
CIRCLE
  5
A9
330
2
100
AcDbEntity
  8
-PROFILAUSSENKANTET
100
AcDbCircle
 10
-3723.749941499449
 20
6736.347455243247
 30
0.0
 40
7.0
  0
LINE
  5
AA
330
2
100
AcDbEntity
  8
-ACHSE
  6
AM_DIN_G_W050x2
100
AcDbLine
 10
-3723.749941499449
 20
6736.347455243247
 30
0.0
 11
-3723.749941499449
 21
6747.347455243247
 31
0.0
1001
GENIUS_GENOREF_13
1005
2B3
  0
LINE
  5
AB
330
2
100
AcDbEntity
  8
-ACHSE
  6
AM_DIN_G_W050x2
100
AcDbLine
 10
-3723.749941499449
 20
6736.347455243247
 30
0.0
 11
-3734.74994149945
 21
6736.347455243247
 31
0.0
1001
GENIUS_GENOREF_13
1005
2B3
  0
LINE
  5
AC
330
2
100
AcDbEntity
  8
-ACHSE
  6
AM_DIN_G_W050x2
100
AcDbLine
 10
-3723.749941499449
 20
6736.347455243247
 30
0.0
 11
-3712.749941499449
 21
6736.347455243247
 31
0.0
1001
GENIUS_GENOREF_13
1005
2B3
  0
LINE
  5
AD
330
2
100
AcDbEntity
  8
-ACHSE
  6
AM_DIN_G_W050x2
100
AcDbLine
 10
-3723.749941499449
 20
6736.347455243247
 30
0.0
 11
-3723.749941499449
 21
6725.347455243248
 31
0.0
1001
GENIUS_GENOREF_13
1005
2B3
  0
CIRCLE
  5
AE
330
2
100
AcDbEntity
  8
-PROFILAUSSENKANTET
100
AcDbCircle
 10
-3473.749941499449
 20
6736.347455243247
 30
0.0
 40
7.0
  0
LINE
  5
AF
330
2
100
AcDbEntity
  8
-ACHSE
  6
AM_DIN_G_W050x2
100
AcDbLine
 10
-3473.749941499449
 20
6736.347455243247
 30
0.0
 11
-3473.749941499449
 21
6747.347455243247
 31
0.0
1001
GENIUS_GENOREF_13
1005
2B2
  0
LINE
  5
B0
330
2
100
AcDbEntity
  8
-ACHSE
  6
AM_DIN_G_W050x2
100
AcDbLine
 10
-3473.749941499449
 20
6736.347455243247
 30
0.0
 11
-3484.74994149945
 21
6736.347455243247
 31
0.0
1001
GENIUS_GENOREF_13
1005
2B2
  0
LINE
  5
B1
330
2
100
AcDbEntity
  8
-ACHSE
  6
AM_DIN_G_W050x2
100
AcDbLine
 10
-3473.749941499449
 20
6736.347455243247
 30
0.0
 11
-3462.749941499449
 21
6736.347455243247
 31
0.0
1001
GENIUS_GENOREF_13
1005
2B2
  0
LINE
  5
B2
330
2
100
AcDbEntity
  8
-ACHSE
  6
AM_DIN_G_W050x2
100
AcDbLine
 10
-3473.749941499449
 20
6736.347455243247
 30
0.0
 11
-3473.749941499449
 21
6725.347455243248
 31
0.0
1001
GENIUS_GENOREF_13
1005
2B2
  0
CIRCLE
  5
B3
330
2
100
AcDbEntity
  8
-PROFILAUSSENKANTET
100
AcDbCircle
 10
-3223.749941499449
 20
6736.347455243247
 30
0.0
 40
7.0
  0
LINE
  5
B4
330
2
100
AcDbEntity
  8
-ACHSE
  6
AM_DIN_G_W050x2
100
AcDbLine
 10
-3223.749941499449
 20
6736.347455243247
 30
0.0
 11
-3223.749941499449
 21
6747.347455243247
 31
0.0
1001
GENIUS_GENOREF_13
1005
2B1
  0
LINE
  5
B5
330
2
100
AcDbEntity
  8
-ACHSE
  6
AM_DIN_G_W050x2
100
AcDbLine
 10
-3223.749941499449
 20
6736.347455243247
 30
0.0
 11
-3234.749941499449
 21
6736.347455243247
 31
0.0
1001
GENIUS_GENOREF_13
1005
2B1
  0
LINE
  5
B6
330
2
100
AcDbEntity
  8
-ACHSE
  6
AM_DIN_G_W050x2
100
AcDbLine
 10
-3223.749941499449
 20
6736.347455243247
 30
0.0
 11
-3212.749941499449
 21
6736.347455243247
 31
0.0
1001
GENIUS_GENOREF_13
1005
2B1
  0
LINE
  5
B7
330
2
100
AcDbEntity
  8
-ACHSE
  6
AM_DIN_G_W050x2
100
AcDbLine
 10
-3223.749941499449
 20
6736.347455243247
 30
0.0
 11
-3223.749941499449
 21
6725.347455243248
 31
0.0
1001
GENIUS_GENOREF_13
1005
2B1
  0
CIRCLE
  5
B8
102
{ACAD_REACTORS
330
11A
102
}
330
2
100
AcDbEntity
  8
-PROFILAUSSENKANTET
100
AcDbCircle
 10
-2973.749941499449
 20
6736.347455243247
 30
0.0
 40
7.0
  0
LINE
  5
B9
330
2
100
AcDbEntity
  8
-ACHSE
  6
AM_DIN_G_W050x2
100
AcDbLine
 10
-2973.749941499449
 20
6736.347455243247
 30
0.0
 11
-2973.749941499449
 21
6747.347455243247
 31
0.0
1001
GENIUS_GENOREF_13
1005
2B0
  0
LINE
  5
BA
330
2
100
AcDbEntity
  8
-ACHSE
  6
AM_DIN_G_W050x2
100
AcDbLine
 10
-2973.749941499449
 20
6736.347455243247
 30
0.0
 11
-2984.749941499449
 21
6736.347455243247
 31
0.0
1001
GENIUS_GENOREF_13
1005
2B0
  0
LINE
  5
BB
330
2
100
AcDbEntity
  8
-ACHSE
  6
AM_DIN_G_W050x2
100
AcDbLine
 10
-2973.749941499449
 20
6736.347455243247
 30
0.0
 11
-2962.749941499449
 21
6736.347455243247
 31
0.0
1001
GENIUS_GENOREF_13
1005
2B0
  0
LINE
  5
BC
330
2
100
AcDbEntity
  8
-ACHSE
  6
AM_DIN_G_W050x2
100
AcDbLine
 10
-2973.749941499449
 20
6736.347455243247
 30
0.0
 11
-2973.749941499449
 21
6725.347455243248
 31
0.0
1001
GENIUS_GENOREF_13
1005
2B0
  0
CIRCLE
  5
BD
330
2
100
AcDbEntity
  8
-PROFILAUSSENKANTET
100
AcDbCircle
 10
-2723.749941499449
 20
6736.347455243247
 30
0.0
 40
7.0
  0
LINE
  5
BE
330
2
100
AcDbEntity
  8
-ACHSE
  6
AM_DIN_G_W050x2
100
AcDbLine
 10
-2723.749941499449
 20
6736.347455243247
 30
0.0
 11
-2723.749941499449
 21
6747.347455243247
 31
0.0
1001
GENIUS_GENOREF_13
1005
2AF
  0
LINE
  5
BF
330
2
100
AcDbEntity
  8
-ACHSE
  6
AM_DIN_G_W050x2
100
AcDbLine
 10
-2723.749941499449
 20
6736.347455243247
 30
0.0
 11
-2734.749941499449
 21
6736.347455243247
 31
0.0
1001
GENIUS_GENOREF_13
1005
2AF
  0
LINE
  5
C0
330
2
100
AcDbEntity
  8
-ACHSE
  6
AM_DIN_G_W050x2
100
AcDbLine
 10
-2723.749941499449
 20
6736.347455243247
 30
0.0
 11
-2712.74994149945
 21
6736.347455243247
 31
0.0
1001
GENIUS_GENOREF_13
1005
2AF
  0
LINE
  5
C1
330
2
100
AcDbEntity
  8
-ACHSE
  6
AM_DIN_G_W050x2
100
AcDbLine
 10
-2723.749941499449
 20
6736.347455243247
 30
0.0
 11
-2723.749941499449
 21
6725.347455243248
 31
0.0
1001
GENIUS_GENOREF_13
1005
2AF
  0
CIRCLE
  5
C2
330
2
100
AcDbEntity
  8
-PROFILAUSSENKANTET
100
AcDbCircle
 10
-2473.749941499449
 20
6736.347455243247
 30
0.0
 40
7.0
  0
LINE
  5
C3
330
2
100
AcDbEntity
  8
-ACHSE
  6
AM_DIN_G_W050x2
100
AcDbLine
 10
-2473.749941499449
 20
6736.347455243247
 30
0.0
 11
-2473.749941499449
 21
6747.347455243247
 31
0.0
1001
GENIUS_GENOREF_13
1005
2AE
  0
LINE
  5
C4
330
2
100
AcDbEntity
  8
-ACHSE
  6
AM_DIN_G_W050x2
100
AcDbLine
 10
-2473.749941499449
 20
6736.347455243247
 30
0.0
 11
-2484.749941499449
 21
6736.347455243247
 31
0.0
1001
GENIUS_GENOREF_13
1005
2AE
  0
LINE
  5
C5
330
2
100
AcDbEntity
  8
-ACHSE
  6
AM_DIN_G_W050x2
100
AcDbLine
 10
-2473.749941499449
 20
6736.347455243247
 30
0.0
 11
-2462.74994149945
 21
6736.347455243247
 31
0.0
1001
GENIUS_GENOREF_13
1005
2AE
  0
LINE
  5
C6
330
2
100
AcDbEntity
  8
-ACHSE
  6
AM_DIN_G_W050x2
100
AcDbLine
 10
-2473.749941499449
 20
6736.347455243247
 30
0.0
 11
-2473.749941499449
 21
6725.347455243248
 31
0.0
1001
GENIUS_GENOREF_13
1005
2AE
  0
CIRCLE
  5
C7
330
2
100
AcDbEntity
  8
-PROFILAUSSENKANTET
100
AcDbCircle
 10
-2223.749941499449
 20
6736.347455243247
 30
0.0
 40
7.0
  0
LINE
  5
C8
330
2
100
AcDbEntity
  8
-ACHSE
  6
AM_DIN_G_W050x2
100
AcDbLine
 10
-2223.749941499449
 20
6736.347455243247
 30
0.0
 11
-2223.749941499449
 21
6747.347455243247
 31
0.0
1001
GENIUS_GENOREF_13
1005
2AD
  0
LINE
  5
C9
330
2
100
AcDbEntity
  8
-ACHSE
  6
AM_DIN_G_W050x2
100
AcDbLine
 10
-2223.749941499449
 20
6736.347455243247
 30
0.0
 11
-2234.749941499449
 21
6736.347455243247
 31
0.0
1001
GENIUS_GENOREF_13
1005
2AD
  0
LINE
  5
CA
330
2
100
AcDbEntity
  8
-ACHSE
  6
AM_DIN_G_W050x2
100
AcDbLine
 10
-2223.749941499449
 20
6736.347455243247
 30
0.0
 11
-2212.749941499449
 21
6736.347455243247
 31
0.0
1001
GENIUS_GENOREF_13
1005
2AD
  0
LINE
  5
CB
330
2
100
AcDbEntity
  8
-ACHSE
  6
AM_DIN_G_W050x2
100
AcDbLine
 10
-2223.749941499449
 20
6736.347455243247
 30
0.0
 11
-2223.749941499449
 21
6725.347455243248
 31
0.0
1001
GENIUS_GENOREF_13
1005
2AD
  0
CIRCLE
  5
CC
330
2
100
AcDbEntity
  8
-PROFILAUSSENKANTET
100
AcDbCircle
 10
-1973.749941499449
 20
6736.347455243247
 30
0.0
 40
7.0
  0
LINE
  5
CD
330
2
100
AcDbEntity
  8
-ACHSE
  6
AM_DIN_G_W050x2
100
AcDbLine
 10
-1973.749941499449
 20
6736.347455243247
 30
0.0
 11
-1973.749941499449
 21
6747.347455243247
 31
0.0
1001
GENIUS_GENOREF_13
1005
2AC
  0
LINE
  5
CE
330
2
100
AcDbEntity
  8
-ACHSE
  6
AM_DIN_G_W050x2
100
AcDbLine
 10
-1973.749941499449
 20
6736.347455243247
 30
0.0
 11
-1984.749941499449
 21
6736.347455243247
 31
0.0
1001
GENIUS_GENOREF_13
1005
2AC
  0
LINE
  5
CF
330
2
100
AcDbEntity
  8
-ACHSE
  6
AM_DIN_G_W050x2
100
AcDbLine
 10
-1973.749941499449
 20
6736.347455243247
 30
0.0
 11
-1962.749941499449
 21
6736.347455243247
 31
0.0
1001
GENIUS_GENOREF_13
1005
2AC
  0
LINE
  5
D0
330
2
100
AcDbEntity
  8
-ACHSE
  6
AM_DIN_G_W050x2
100
AcDbLine
 10
-1973.749941499449
 20
6736.347455243247
 30
0.0
 11
-1973.749941499449
 21
6725.347455243248
 31
0.0
1001
GENIUS_GENOREF_13
1005
2AC
  0
CIRCLE
  5
D1
330
2
100
AcDbEntity
  8
-PROFILAUSSENKANTET
100
AcDbCircle
 10
-1723.749941499449
 20
6736.347455243247
 30
0.0
 40
7.0
  0
LINE
  5
D2
330
2
100
AcDbEntity
  8
-ACHSE
  6
AM_DIN_G_W050x2
100
AcDbLine
 10
-1723.749941499449
 20
6736.347455243247
 30
0.0
 11
-1734.749941499449
 21
6736.347455243247
 31
0.0
1001
GENIUS_GENOREF_13
1005
2B5
  0
LINE
  5
D3
330
2
100
AcDbEntity
  8
-ACHSE
  6
AM_DIN_G_W050x2
100
AcDbLine
 10
-1723.749941499449
 20
6736.347455243247
 30
0.0
 11
-1712.749941499449
 21
6736.347455243247
 31
0.0
1001
GENIUS_GENOREF_13
1005
2B5
  0
LINE
  5
D4
330
2
100
AcDbEntity
  8
-ACHSE
  6
AM_DIN_G_W050x2
100
AcDbLine
 10
-1723.749941499449
 20
6736.347455243247
 30
0.0
 11
-1723.749941499449
 21
6725.347455243248
 31
0.0
1001
GENIUS_GENOREF_13
1005
2B5
  0
CIRCLE
  5
D5
330
2
100
AcDbEntity
  8
-PROFILAUSSENKANTET
100
AcDbCircle
 10
-1473.749941499449
 20
6736.347455243247
 30
0.0
 40
7.0
  0
LINE
  5
D6
330
2
100
AcDbEntity
  8
-ACHSE
  6
AM_DIN_G_W050x2
100
AcDbLine
 10
-1473.749941499449
 20
6736.347455243247
 30
0.0
 11
-1473.749941499449
 21
6747.347455243247
 31
0.0
1001
GENIUS_GENOREF_13
1005
2AB
  0
LINE
  5
D7
330
2
100
AcDbEntity
  8
-ACHSE
  6
AM_DIN_G_W050x2
100
AcDbLine
 10
-1473.749941499449
 20
6736.347455243247
 30
0.0
 11
-1484.749941499449
 21
6736.347455243247
 31
0.0
1001
GENIUS_GENOREF_13
1005
2AB
  0
LINE
  5
D8
330
2
100
AcDbEntity
  8
-ACHSE
  6
AM_DIN_G_W050x2
100
AcDbLine
 10
-1473.749941499449
 20
6736.347455243247
 30
0.0
 11
-1462.749941499449
 21
6736.347455243247
 31
0.0
1001
GENIUS_GENOREF_13
1005
2AB
  0
LINE
  5
D9
330
2
100
AcDbEntity
  8
-ACHSE
  6
AM_DIN_G_W050x2
100
AcDbLine
 10
-1473.749941499449
 20
6736.347455243247
 30
0.0
 11
-1473.749941499449
 21
6725.347455243248
 31
0.0
1001
GENIUS_GENOREF_13
1005
2AB
  0
CIRCLE
  5
DA
330
2
100
AcDbEntity
  8
-PROFILAUSSENKANTET
100
AcDbCircle
 10
-1223.749941499449
 20
6736.347455243247
 30
0.0
 40
7.0
  0
LINE
  5
DB
330
2
100
AcDbEntity
  8
-ACHSE
  6
AM_DIN_G_W050x2
100
AcDbLine
 10
-1223.749941499449
 20
6736.347455243247
 30
0.0
 11
-1223.749941499449
 21
6747.347455243247
 31
0.0
1001
GENIUS_GENOREF_13
1005
2A6
  0
LINE
  5
DC
330
2
100
AcDbEntity
  8
-ACHSE
  6
AM_DIN_G_W050x2
100
AcDbLine
 10
-1223.749941499449
 20
6736.347455243247
 30
0.0
 11
-1234.749941499449
 21
6736.347455243247
 31
0.0
1001
GENIUS_GENOREF_13
1005
2A6
  0
LINE
  5
DD
330
2
100
AcDbEntity
  8
-ACHSE
  6
AM_DIN_G_W050x2
100
AcDbLine
 10
-1223.749941499449
 20
6736.347455243247
 30
0.0
 11
-1212.749941499449
 21
6736.347455243247
 31
0.0
1001
GENIUS_GENOREF_13
1005
2A6
  0
LINE
  5
DE
330
2
100
AcDbEntity
  8
-ACHSE
  6
AM_DIN_G_W050x2
100
AcDbLine
 10
-1223.749941499449
 20
6736.347455243247
 30
0.0
 11
-1223.749941499449
 21
6725.347455243248
 31
0.0
1001
GENIUS_GENOREF_13
1005
2A6
  0
DIMENSION
  5
DF
330
2
100
AcDbEntity
  8
AM_5
100
AcDbDimension
  2
*D6
 10
-3973.74994149945
 20
6544.101477522803
 30
0.0
 11
-4036.24994149945
 21
6576.971532093063
 31
0.0
  1
<>
 71
     5
 42
125.0
  3
AM_DIN$0
100
AcDbAlignedDimension
 13
-4098.74994149945
 23
6700.347455243248
 33
0.0
 14
-3973.74994149945
 24
6725.347455243248
 34
0.0
 50
0.0000000000001132
100
AcDbRotatedDimension
1001
ACAD_DSTYLE_DIMINSPECT
1070
   396
1000
100%
1070
   395
1000

1070
   394
1070
    33
1070
   393
1070
     0
1001
ACAD
1000
DSTYLE
1002
{
1070
    40
1040
10.0
1002
}
  0
DIMENSION
  5
EC
330
2
100
AcDbEntity
  8
AM_5
100
AcDbDimension
  2
*D7
 10
-1098.750319257229
 20
6435.323391931406
 30
0.0
 11
-2598.75013037834
 21
6480.159379880475
 31
0.0
  1
<>{}{\H0.71x;\C3;\S+3^  0;}
 71
     5
 42
2999.999622242221
  3
AM_DIN$0
100
AcDbAlignedDimension
 13
-4098.74994149945
 23
6700.347455243248
 33
0.0
 14
-1098.750319257229
 24
6700.347455243248
 34
0.0
100
AcDbRotatedDimension
1001
ACAD_DSTYLE_DIMINSPECT
1070
   396
1000
100%
1070
   395
1000

1070
   394
1070
    33
1070
   393
1070
     0
1001
ACAD
1000
DSTYLE
1002
{
1070
    40
1040
10.0
1070
    47
1040
3.0
1070
    48
1040
0.0
1002
}
1001
GENIUS_GENDTOL_13
1000
TolSmNrm
1000

1000
{\H0.71x;$2\S$+$P^ $-$M;}
1040
3000.0
  0
DIMENSION
  5
FA
330
2
100
AcDbEntity
  8
AM_5
100
AcDbDimension
  2
*D8
 10
-779.6438244456658
 20
6823.347455243247
 30
0.0
 11
-812.513879015926
 21
6779.847455243246
 31
0.0
  1
<>
 71
     5
 42
87.0
  3
AM_DIN$0
100
AcDbAlignedDimension
 13
-727.132939928837
 23
6736.347455243247
 33
0.0
 14
-723.628576661089
 24
6823.347455243247
 34
0.0
 50
90.0
100
AcDbRotatedDimension
1001
ACAD
1000
DSTYLE
1002
{
1070
    40
1040
10.0
1002
}
1001
ACAD_DSTYLE_DIMINSPECT
1070
   396
1000
100%
1070
   395
1000

1070
   394
1070
    33
1070
   393
1070
     0
  0
DIMENSION
  5
109
102
{ACAD_XDICTIONARY
360
10A
102
}
102
{ACAD_REACTORS
330
10B
102
}
330
2
100
AcDbEntity
  8
AM_5
100
AcDbDimension
  2
*D10
 10
-4153.455706072073
 20
6823.347455243247
 30
0.0
 11
-4186.337697886536
 21
6761.847455243247
 31
0.0
  1
<>
 71
     5
 42
122.9999999999991
  3
AM_DIN$0
100
AcDbAlignedDimension
 13
-4098.74994149945
 23
6700.347455243248
 33
0.0
 14
-4098.74994149945
 24
6823.347455243247
 34
0.0
 50
90.0
100
AcDbRotatedDimension
1001
ACAD_DSTYLE_DIMINSPECT
1070
   396
1000
100%
1070
   395
1000

1070
   394
1070
    33
1070
   393
1070
     0
1001
ACAD
1000
DSTYLE
1002
{
1070
    40
1040
10.0
1002
}
  0
DIMENSION
  5
118
102
{ACAD_XDICTIONARY
360
119
102
}
102
{ACAD_REACTORS
330
11A
102
}
330
2
100
AcDbEntity
  8
AM_5
100
AcDbDimension
  2
*D11
 10
-2966.749941499449
 20
6863.347455243247
 30
0.0
 11
-2837.713447638603
 21
6897.196363838062
 31
0.0
  1
%%C<>
 71
     5
 42
14.0
  3
AM_DIN$0
100
AcDbAlignedDimension
 13
-2980.749941499449
 23
6736.347455243247
 33
0.0
 14
-2966.749941499449
 24
6736.347455243247
 34
0.0
100
AcDbRotatedDimension
1001
ACAD_DSTYLE_DIMINSPECT
1070
   396
1000
100%
1070
   395
1000

1070
   394
1070
    33
1070
   393
1070
     0
1001
ACAD
1000
DSTYLE
1002
{
1070
    40
1040
10.0
1002
}
  0
LWPOLYLINE
  5
129
330
2
100
AcDbEntity
  8
DEFPOINTS
100
AcDbPolyline
 90
        4
 70
     1
 43
0.0
 10
-7041.742961063206
 20
7143.965539815083
 10
-135.6259634422567
 20
7143.965539815083
 10
-135.6259634422567
 20
6143.965539815082
 10
-7041.742961063206
 20
6143.965539815082
1001
GENIUS_GENREC_14
1002
{
1000
PYDIR
1011
-5132.554235996274
1021
6295.46060765602
1031
0.0
1002
}
1002
{
1000
PXDIR
1011
-523.1850255869467
1021
6935.724886940356
1031
0.0
1002
}
1002
{
1000
PORI
1011
-5132.554235996274
1021
6935.724886940356
1031
0.0
1002
}
1002
{
1000
PINS
1011
-5132.554235996274
1021
6935.724886940356
1031
0.0
1002
}
1002
{
1000
PINS2
1011
-523.1850255869467
1021
6295.46060765602
1031
0.0
1002
}
1002
{
1000
C
1070
     1
1002
}
1001
GENIUS_GENODEF_13
1002
{
1000
HIER
1070
     0
1002
}
1002
{
1000
MANEDIT
1070
     0
1002
}
1002
{
1000
NOSEL
1070
     0
1002
}
1002
{
1000
BEHIND
1070
     0
1002
}
1002
{
1000
OTHER
1070
     0
1002
}
1002
{
1000
REACTOR
1002
}
1001
GENIUS_GENOBJ-N-REC_13
1002
{
1000
OWNER
1000
GEN
1002
}
  0
DIMENSION
  5
12A
330
2
100
AcDbEntity
  8
AM_5
100
AcDbDimension
  2
*D9
 10
-5037.129729578203
 20
6808.347455243247
 30
0.0
 11
-5043.703740492255
 21
6754.347455243245
 31
0.0
  1
<>
 71
     5
 42
108.0
  3
AM_DIN$0
100
AcDbAlignedDimension
 13
-5002.629729578202
 23
6700.347455243248
 33
0.0
 14
-5002.629729578202
 24
6808.347455243247
 34
0.0
 50
90.0
100
AcDbRotatedDimension
1001
ACAD_DSTYLE_DIMINSPECT
1070
   396
1000
100%
1070
   395
1000

1070
   394
1070
    33
1070
   393
1070
     0
1001
ACAD
1000
DSTYLE
1002
{
1070
    40
1040
2.0
1002
}
  0
MTEXT
  5
137
330
2
100
AcDbEntity
  8
DEFPOINTS
100
AcDbMText
 10
-5023.129729578201
 20
7102.404923385598
 30
0.0
 40
50.0
 41
1523.832139117654
 71
     1
 72
     5
  1
BALARDO core, Top 1
 73
     1
 44
1.0
1001
ACAD
1000
ACAD_MTEXT_COLUMN_INFO_BEGIN
1070
    75
1070
     2
1070
    79
1070
     0
1070
    76
1070
     1
1070
    78
1070
     0
1070
    48
1040
1523.832139117654
1070
    49
1040
12.5
1070
    50
1070
     1
1040
0.0
1000
ACAD_MTEXT_COLUMN_INFO_END
1000
MTEXTBEGIN
1070
    73
1070
     1
1070
    44
1040
1.0
1070
    74
1070
     0
1000
MTEXTEND
  0
LWPOLYLINE
  5
138
330
2
100
AcDbEntity
  8
-GLAS
100
AcDbPolyline
 90
        4
 70
     0
 43
0.0
 10
-4979.889729578201
 20
6858.347455243247
 10
-4979.889729578201
 20
6713.347455243251
 10
-4978.369729578201
 20
6713.347455243251
 10
-4978.369729578201
 20
6858.347455243247
  0
LINE
  5
13B
330
2
100
AcDbEntity
  8
-TEXT3
100
AcDbLine
 10
-4980.212572290676
 20
6708.347455243245
 30
0.0
 11
-4978.046886865727
 21
6708.347455243245
 31
0.0
  0
INSERT
  5
13E
330
2
100
AcDbEntity
  8
-PROFILAUSSENKANTET
100
AcDbBlockReference
  2
BA-0-T1(S)
 10
-4916.119729578202
 20
6700.347743549397
 30
0.0
  0
LWPOLYLINE
  5
14F
330
2
100
AcDbEntity
  8
-GLAS
100
AcDbPolyline
 90
        6
 70
   128
 43
0.0
 10
-4987.889729578201
 20
6858.347455243247
 10
-4987.889729578201
 20
6715.347457404466
 10
-4985.889727416986
 20
6713.347455243251
 10
-4972.369731739416
 20
6713.347455243251
 10
-4970.369729578202
 20
6715.347457404466
 10
-4970.369729578202
 20
6858.347455243247
  0
INSERT
  5
150
330
2
100
AcDbEntity
  8
0
100
AcDbBlockReference
  2
BA-Z30550877-10
 10
-4965.669729578201
 20
6794.876238821993
 30
0.0
  0
INSERT
  5
157
330
2
100
AcDbEntity
  8
0
100
AcDbBlockReference
  2
BA-Z-P9732-A
 10
-4999.377699525504
 20
6808.847328102517
 30
0.0
  0
INSERT
  5
15F
330
2
100
AcDbEntity
  8
0
100
AcDbBlockReference
  2
BA-Z-P9771-I
 10
-4965.311874550621
 20
6808.001984537941
 30
0.0
 50
345.9075742695802
  0
INSERT
  5
16B
330
2
100
AcDbEntity
  8
0
100
AcDbBlockReference
  2
BA-Z-P9717-16
 10
-4979.1297295782
 20
6713.347455243251
 30
0.0
  0
LINE
  5
173
330
2
100
AcDbEntity
  8
-ACHSE
  6
AM_DIN_G_W050x2
100
AcDbLine
 10
-4990.889729578201
 20
6858.347455243247
 30
0.0
 11
-4967.369729578201
 21
6858.347455243247
 31
0.0
  0
DIMENSION
  5
174
330
2
100
AcDbEntity
  8
AM_5
100
AcDbDimension
  2
*D17
 10
-4863.129729578202
 20
6707.347455243247
 30
0.0
 11
-4863.129729578203
 21
6703.847455243246
 31
0.0
 70
   128
  1
<>
 71
     5
 42
7.0
  3
AM_DIN$0
100
AcDbAlignedDimension
 13
-4880.629729578202
 23
6700.347455243248
 33
0.0
 14
-4880.63054129382
 24
6707.347455243247
 34
0.0
 50
90.0
100
AcDbRotatedDimension
1001
ACAD_DSTYLE_DIMINSPECT
1070
   396
1000
100%
1070
   395
1000

1070
   394
1070
    33
1070
   393
1070
     0
1001
ACAD
1000
DSTYLE
1002
{
1070
    40
1040
2.0
1002
}
  0
DIMENSION
  5
183
330
2
100
AcDbEntity
  8
AM_5
100
AcDbDimension
  2
*D18
 10
-4909.130541293819
 20
6724.347455243247
 30
0.0
 11
-4916.13054129382
 21
6724.347455243247
 31
0.0
 70
   128
  1
%%C<>
 71
     5
 42
14.0
  3
AM_DIN$0
100
AcDbAlignedDimension
 13
-4923.130541293819
 23
6707.347455243247
 33
0.0
 14
-4909.130541293819
 24
6707.347455243247
 34
0.0
 50
0.0000000000000127
100
AcDbRotatedDimension
1001
ACAD_DSTYLE_DIMINSPECT
1070
   396
1000
100%
1070
   395
1000

1070
   394
1070
    33
1070
   393
1070
     0
1001
ACAD
1000
DSTYLE
1002
{
1070
    40
1040
2.0
1002
}
  0
DIMENSION
  5
192
330
2
100
AcDbEntity
  8
AM_5
100
AcDbDimension
  2
*D19
 10
-5003.129729578201
 20
6825.347455243248
 30
0.0
 11
-4979.129729578201
 21
6831.921466157298
 31
0.0
 71
     5
 42
48.0
  3
AM_DIN$0
100
AcDbAlignedDimension
 13
-4955.129729578201
 23
6807.847455243247
 33
0.0
 14
-5003.129729578201
 24
6807.847455243247
 34
0.0
 50
180.0
100
AcDbRotatedDimension
1001
ACAD_DSTYLE_DIMINSPECT
1070
   396
1000
100%
1070
   395
1000

1070
   394
1070
    33
1070
   393
1070
     0
1001
ACAD
1000
DSTYLE
1002
{
1070
    40
1040
2.0
1002
}
  0
LWPOLYLINE
  5
19F
330
2
100
AcDbEntity
  8
-PROFILAUSSENKANTET
100
AcDbPolyline
 90
       56
 70
     1
 43
0.0
 10
-616.632939928837
 20
6775.347455243248
 10
-709.132939928837
 20
6775.347455243248
 42
0.4142135623730951
 10
-717.132939928837
 20
6767.347455243246
 10
-717.132939928837
 20
6700.847455243247
 42
-0.4142135623730841
 10
-717.632939928837
 20
6700.347455243248
 10
-723.6329399288369
 20
6700.347455243248
 42
-0.414213562373106
 10
-724.1329399288369
 20
6700.847455243247
 10
-724.1329399288369
 20
6822.847455243247
 42
-0.4142135623730951
 10
-723.6329399288369
 20
6823.347455243247
 10
-616.632939928837
 20
6823.347455243247
 42
-0.4142135623730951
 10
-616.1329399288369
 20
6822.847455243247
 10
-616.1329399288369
 20
6818.347455243247
 42
-0.4142135623730917
 10
-616.632939928837
 20
6817.847455243247
 10
-617.632939928837
 20
6817.847455243247
 42
-0.4142135623730896
 10
-618.132939928837
 20
6818.347455243247
 10
-618.132939928837
 20
6820.347455243247
 42
0.4142135623730884
 10
-618.632939928837
 20
6820.847455243248
 10
-621.632939928837
 20
6820.847455243248
 42
0.4142135623730808
 10
-622.132939928837
 20
6820.347455243247
 10
-622.132939928837
 20
6817.371215737982
 42
-0.4042531287900766
 10
-622.6158800406565
 20
6816.87150686252
 10
-641.7845804618837
 20
6816.217094059758
 42
-0.3428208099845369
 10
-642.2816306547111
 20
6816.576769698288
 10
-642.3930346334791
 20
6816.958627826254
 42
0.3518731136957255
 10
-645.985325924209
 20
6819.470673682058
 10
-709.5976582452494
 20
6815.238219732878
 42
0.3948857526365925
 10
-716.1329399288379
 20
6808.253662704235
 10
-716.1329399288379
 20
6790.441247782251
 42
0.3948857526365925
 10
-709.5976582452494
 20
6783.456690753607
 10
-648.7995651265919
 20
6779.411482537942
 42
0.3057364146329589
 10
-645.4162330327108
 20
6781.380156917776
 10
-644.3667038526519
 20
6783.550693192063
 10
-643.3339417605493
 20
6785.33119307049
 42
-0.2674092552862424
 10
-642.9014337738626
 20
6785.580320908917
 10
-641.0299560063422
 20
6785.580320908917
 42
-0.1318946637568552
 10
-640.9297911376643
 20
6785.553430698019
 42
0.1085999041361657
 10
-637.2980858484789
 20
6784.397303344089
 42
-0.2558846811396497
 10
-637.1387460550423
 20
6784.289953815473
 42
0.1164404881914905
 10
-635.9973614004184
 20
6782.958667278865
 42
0.1780170813581284
 10
-632.6739843558707
 20
6782.180601790672
 42
-0.1744282333762618
 10
-632.541915759004
 20
6782.150650258961
 42
0.157146722386849
 10
-629.3036410541872
 20
6781.30079445439
 42
-0.1519889713362018
 10
-629.188389983873
 20
6781.271785728548
 42
0.2441009961668257
 10
-624.3672586900429
 20
6780.936615272357
 42
-0.103362292365946
 10
-624.2871301381183
 20
6780.953144927129
 10
-622.6316611394049
 20
6780.94891092076
 42
-0.4134646622918249
 10
-622.132939928837
 20
6780.448912556065
 10
-622.132939928837
 20
6777.847455243247
 42
0.4142135623732364
 10
-621.632939928837
 20
6777.347455243246
 10
-618.632939928837
 20
6777.347455243248
 42
0.4142135623729845
 10
-618.132939928837
 20
6777.847455243248
 10
-618.132939928837
 20
6779.547455243246
 42
-0.4142135623731177
 10
-617.632939928837
 20
6780.047455243248
 10
-616.632939928837
 20
6780.047455243248
 42
-0.4142135623730951
 10
-616.1329399288369
 20
6779.547455243246
 10
-616.1329399288369
 20
6775.847455243248
 42
-0.4142135623730951
  0
LWPOLYLINE
  5
1A0
330
2
100
AcDbEntity
  8
-PROFILAUSSENKANTET
  6
VERDECKT
100
AcDbPolyline
 90
        4
 70
     1
 43
0.0
 10
-724.1329399288369
 20
6743.347455243247
 10
-724.1329399288369
 20
6729.347455243247
 10
-717.132939928837
 20
6729.347455243247
 10
-717.132939928837
 20
6743.347455243247
1001
GENIUS_GENREC_14
1002
{
1000
PYDIR
1011
-717.132939928837
1021
6743.347455243247
1031
0.0
1002
}
1002
{
1000
PXDIR
1011
-724.1329399288369
1021
6729.347455243247
1031
0.0
1002
}
1002
{
1000
PORI
1011
-724.1329399288369
1021
6743.347455243247
1031
0.0
1002
}
1002
{
1000
PINS
1011
-724.1329399288369
1021
6743.347455243247
1031
0.0
1002
}
1002
{
1000
PINS2
1011
-717.132939928837
1021
6729.347455243247
1031
0.0
1002
}
1002
{
1000
C
1070
     1
1002
}
1001
GENIUS_GENOBJ-N-REC_13
1002
{
1000
OWNER
1000
GEN
1002
}
1001
GENIUS_GENODEF_13
1002
{
1000
HIER
1070
     0
1002
}
1002
{
1000
MANEDIT
1070
     0
1002
}
1002
{
1000
NOSEL
1070
     0
1002
}
1002
{
1000
BEHIND
1070
     0
1002
}
1002
{
1000
OTHER
1070
     0
1002
}
1002
{
1000
REACTOR
1002
}
  0
LINE
  5
1A2
330
2
100
AcDbEntity
  8
-ACHSE
  6
AM_DIN_G_W050x2
100
AcDbLine
 10
-714.132939928837
 20
6736.347455243247
 30
0.0
 11
-727.132939928837
 21
6736.347455243247
 31
0.0
1001
GENIUS_GENODEF_13
1002
{
1000
HIER
1070
     0
1002
}
1002
{
1000
MANEDIT
1070
     0
1002
}
1002
{
1000
NOSEL
1070
     0
1002
}
1002
{
1000
BEHIND
1070
     0
1002
}
1002
{
1000
OTHER
1070
     0
1002
}
1002
{
1000
REACTOR
1002
}
1001
GENIUS_GENOBJ-N-CEN_13
1002
{
1000
OWNER
1000
GEN
1002
}
1001
GENIUS_GENCEN_19
1002
{
1040
3.0
1002
}
  0
LINE
  5
1A3
330
2
100
AcDbEntity
  8
-PROFILAUSSENKANTET
100
AcDbLine
 10
-4098.74994149945
 20
6817.847455243247
 30
0.0
 11
-1098.750319257229
 21
6817.847455243247
 31
0.0
  0
LINE
  5
1A4
330
2
100
AcDbEntity
  8
-PROFILAUSSENKANTET
100
AcDbLine
 10
-4098.74994149945
 20
6780.047455243248
 30
0.0
 11
-1098.750319257229
 21
6780.047455243248
 31
0.0
  0
LINE
  5
1A5
330
2
100
AcDbEntity
  8
-PROFILAUSSENKANTET
100
AcDbLine
 10
-4098.74994149945
 20
6775.347455243248
 30
0.0
 11
-1098.750319257229
 21
6775.347455243248
 31
0.0
  0
DIMENSION
  5
1A6
330
2
100
AcDbEntity
  8
AM_5
100
AcDbDimension
  2
*D20
 10
-3723.749941499449
 20
6544.101477522803
 30
0.0
 11
-3848.74994149945
 21
6576.971532093063
 31
0.0
  1
<>
 71
     5
 42
250.0000000000009
  3
AM_DIN$0
100
AcDbAlignedDimension
 13
-3973.74994149945
 23
6725.347455243248
 33
0.0
 14
-3723.749941499449
 24
6725.347455243248
 34
0.0
 50
0.0000000000001132
100
AcDbRotatedDimension
1001
ACAD_DSTYLE_DIMINSPECT
1070
   396
1000
100%
1070
   395
1000

1070
   394
1070
    33
1070
   393
1070
     0
1001
ACAD
1000
DSTYLE
1002
{
1070
    40
1040
10.0
1002
}
  0
DIMENSION
  5
1B3
330
2
100
AcDbEntity
  8
AM_5
100
AcDbDimension
  2
*D21
 10
-3473.749941499448
 20
6544.101477522803
 30
0.0
 11
-3598.749941499449
 21
6576.971532093063
 31
0.0
  1
<>
 71
     5
 42
250.0000000000009
  3
AM_DIN$0
100
AcDbAlignedDimension
 13
-3723.749941499449
 23
6725.347455243248
 33
0.0
 14
-3473.749941499448
 24
6725.347455243248
 34
0.0
 50
0.0000000000001132
100
AcDbRotatedDimension
1001
ACAD_DSTYLE_DIMINSPECT
1070
   396
1000
100%
1070
   395
1000

1070
   394
1070
    33
1070
   393
1070
     0
1001
ACAD
1000
DSTYLE
1002
{
1070
    40
1040
10.0
1002
}
  0
DIMENSION
  5
1C0
330
2
100
AcDbEntity
  8
AM_5
100
AcDbDimension
  2
*D22
 10
-3223.749941499448
 20
6544.101477522803
 30
0.0
 11
-3348.749941499449
 21
6576.971532093063
 31
0.0
  1
<>
 71
     5
 42
250.0000000000009
  3
AM_DIN$0
100
AcDbAlignedDimension
 13
-3473.749941499449
 23
6725.347455243248
 33
0.0
 14
-3223.749941499448
 24
6725.347455243248
 34
0.0
 50
0.0000000000001132
100
AcDbRotatedDimension
1001
ACAD_DSTYLE_DIMINSPECT
1070
   396
1000
100%
1070
   395
1000

1070
   394
1070
    33
1070
   393
1070
     0
1001
ACAD
1000
DSTYLE
1002
{
1070
    40
1040
10.0
1002
}
  0
DIMENSION
  5
1CD
330
2
100
AcDbEntity
  8
AM_5
100
AcDbDimension
  2
*D23
 10
-2973.749941499448
 20
6544.101477522803
 30
0.0
 11
-3098.749941499449
 21
6576.971532093063
 31
0.0
  1
<>
 71
     5
 42
250.0000000000009
  3
AM_DIN$0
100
AcDbAlignedDimension
 13
-3223.749941499449
 23
6725.347455243248
 33
0.0
 14
-2973.749941499448
 24
6725.347455243248
 34
0.0
 50
0.0000000000001132
100
AcDbRotatedDimension
1001
ACAD_DSTYLE_DIMINSPECT
1070
   396
1000
100%
1070
   395
1000

1070
   394
1070
    33
1070
   393
1070
     0
1001
ACAD
1000
DSTYLE
1002
{
1070
    40
1040
10.0
1002
}
  0
DIMENSION
  5
1DA
330
2
100
AcDbEntity
  8
AM_5
100
AcDbDimension
  2
*D24
 10
-2723.749941499448
 20
6544.101477522803
 30
0.0
 11
-2848.749941499449
 21
6576.971532093063
 31
0.0
  1
<>
 71
     5
 42
250.0000000000009
  3
AM_DIN$0
100
AcDbAlignedDimension
 13
-2973.749941499449
 23
6725.347455243248
 33
0.0
 14
-2723.749941499448
 24
6725.347455243248
 34
0.0
 50
0.0000000000001132
100
AcDbRotatedDimension
1001
ACAD_DSTYLE_DIMINSPECT
1070
   396
1000
100%
1070
   395
1000

1070
   394
1070
    33
1070
   393
1070
     0
1001
ACAD
1000
DSTYLE
1002
{
1070
    40
1040
10.0
1002
}
  0
DIMENSION
  5
1E7
330
2
100
AcDbEntity
  8
AM_5
100
AcDbDimension
  2
*D25
 10
-2473.749941499448
 20
6544.101477522803
 30
0.0
 11
-2598.749941499449
 21
6576.971532093063
 31
0.0
  1
<>
 71
     5
 42
250.0000000000009
  3
AM_DIN$0
100
AcDbAlignedDimension
 13
-2723.749941499449
 23
6725.347455243248
 33
0.0
 14
-2473.749941499448
 24
6725.347455243248
 34
0.0
 50
0.0000000000001132
100
AcDbRotatedDimension
1001
ACAD_DSTYLE_DIMINSPECT
1070
   396
1000
100%
1070
   395
1000

1070
   394
1070
    33
1070
   393
1070
     0
1001
ACAD
1000
DSTYLE
1002
{
1070
    40
1040
10.0
1002
}
  0
DIMENSION
  5
1F4
330
2
100
AcDbEntity
  8
AM_5
100
AcDbDimension
  2
*D26
 10
-2223.749941499448
 20
6544.101477522803
 30
0.0
 11
-2348.749941499448
 21
6576.971532093063
 31
0.0
  1
<>
 71
     5
 42
250.0000000000009
  3
AM_DIN$0
100
AcDbAlignedDimension
 13
-2473.749941499449
 23
6725.347455243248
 33
0.0
 14
-2223.749941499448
 24
6725.347455243248
 34
0.0
 50
0.0000000000001132
100
AcDbRotatedDimension
1001
ACAD_DSTYLE_DIMINSPECT
1070
   396
1000
100%
1070
   395
1000

1070
   394
1070
    33
1070
   393
1070
     0
1001
ACAD
1000
DSTYLE
1002
{
1070
    40
1040
10.0
1002
}
  0
DIMENSION
  5
201
330
2
100
AcDbEntity
  8
AM_5
100
AcDbDimension
  2
*D27
 10
-1973.749941499448
 20
6544.101477522803
 30
0.0
 11
-2098.749941499448
 21
6576.971532093063
 31
0.0
  1
<>
 71
     5
 42
250.0000000000009
  3
AM_DIN$0
100
AcDbAlignedDimension
 13
-2223.749941499449
 23
6725.347455243248
 33
0.0
 14
-1973.749941499448
 24
6725.347455243248
 34
0.0
 50
0.0000000000001132
100
AcDbRotatedDimension
1001
ACAD_DSTYLE_DIMINSPECT
1070
   396
1000
100%
1070
   395
1000

1070
   394
1070
    33
1070
   393
1070
     0
1001
ACAD
1000
DSTYLE
1002
{
1070
    40
1040
10.0
1002
}
  0
DIMENSION
  5
20E
330
2
100
AcDbEntity
  8
AM_5
100
AcDbDimension
  2
*D28
 10
-1723.749941499448
 20
6544.101477522803
 30
0.0
 11
-1848.749941499448
 21
6576.971532093063
 31
0.0
  1
<>
 71
     5
 42
250.0000000000009
  3
AM_DIN$0
100
AcDbAlignedDimension
 13
-1973.749941499449
 23
6725.347455243248
 33
0.0
 14
-1723.749941499448
 24
6725.347455243248
 34
0.0
 50
0.0000000000001132
100
AcDbRotatedDimension
1001
ACAD_DSTYLE_DIMINSPECT
1070
   396
1000
100%
1070
   395
1000

1070
   394
1070
    33
1070
   393
1070
     0
1001
ACAD
1000
DSTYLE
1002
{
1070
    40
1040
10.0
1002
}
  0
DIMENSION
  5
21B
330
2
100
AcDbEntity
  8
AM_5
100
AcDbDimension
  2
*D29
 10
-1473.749941499448
 20
6544.101477522803
 30
0.0
 11
-1598.749941499449
 21
6576.971532093063
 31
0.0
  1
<>
 71
     5
 42
250.0000000000009
  3
AM_DIN$0
100
AcDbAlignedDimension
 13
-1723.749941499449
 23
6725.347455243248
 33
0.0
 14
-1473.749941499448
 24
6725.347455243248
 34
0.0
 50
0.0000000000001132
100
AcDbRotatedDimension
1001
ACAD_DSTYLE_DIMINSPECT
1070
   396
1000
100%
1070
   395
1000

1070
   394
1070
    33
1070
   393
1070
     0
1001
ACAD
1000
DSTYLE
1002
{
1070
    40
1040
10.0
1002
}
  0
DIMENSION
  5
228
330
2
100
AcDbEntity
  8
AM_5
100
AcDbDimension
  2
*D30
 10
-1223.749941499448
 20
6544.101477522803
 30
0.0
 11
-1348.749941499449
 21
6576.971532093063
 31
0.0
  1
<>
 71
     5
 42
250.0000000000009
  3
AM_DIN$0
100
AcDbAlignedDimension
 13
-1473.749941499449
 23
6725.347455243248
 33
0.0
 14
-1223.749941499448
 24
6725.347455243248
 34
0.0
 50
0.0000000000001132
100
AcDbRotatedDimension
1001
ACAD_DSTYLE_DIMINSPECT
1070
   396
1000
100%
1070
   395
1000

1070
   394
1070
    33
1070
   393
1070
     0
1001
ACAD
1000
DSTYLE
1002
{
1070
    40
1040
10.0
1002
}
  0
DIMENSION
  5
235
330
2
100
AcDbEntity
  8
AM_5
100
AcDbDimension
  2
*D31
 10
-1098.750319257229
 20
6544.101477522803
 30
0.0
 11
-1161.250130378339
 21
6576.971532093063
 31
0.0
  1
<>
 71
     5
 42
124.9996222422196
  3
AM_DIN$0
100
AcDbAlignedDimension
 13
-1223.749941499449
 23
6725.347455243248
 33
0.0
 14
-1098.750319257229
 24
6700.347455243248
 34
0.0
 50
0.0000000000001132
100
AcDbRotatedDimension
1001
ACAD_DSTYLE_DIMINSPECT
1070
   396
1000
100%
1070
   395
1000

1070
   394
1070
    33
1070
   393
1070
     0
1001
ACAD
1000
DSTYLE
1002
{
1070
    40
1040
10.0
1002
}
  0
LINE
  5
242
330
2
100
AcDbEntity
  8
-PROFILAUSSENKANTET
100
AcDbLine
 10
-4098.74994149945
 20
6780.951027923944
 30
0.0
 11
-1098.750319257229
 21
6780.951027923944
 31
0.0
  0
LINE
  5
243
330
2
100
AcDbEntity
  8
-PROFILAUSSENKANTET
100
AcDbLine
 10
-4098.74994149945
 20
6781.29504853728
 30
0.0
 11
-1098.750319257229
 21
6781.29504853728
 31
0.0
  0
LINE
  5
244
330
2
100
AcDbEntity
  8
-PROFILAUSSENKANTET
100
AcDbLine
 10
-4098.74994149945
 20
6782.177144270836
 30
0.0
 11
-1098.750319257229
 21
6782.177144270836
 31
0.0
  0
LINE
  5
245
330
2
100
AcDbEntity
  8
-PROFILAUSSENKANTET
100
AcDbLine
 10
-4098.74994149945
 20
6784.364014885899
 30
0.0
 11
-1098.750319257229
 21
6784.364014885899
 31
0.0
  0
LINE
  5
246
330
2
100
AcDbEntity
  8
-PROFILAUSSENKANTET
100
AcDbLine
 10
-4098.74994149945
 20
6785.580320908917
 30
0.0
 11
-1098.750319257229
 21
6785.580320908917
 31
0.0
  0
POINT
  5
2A6
330
2
100
AcDbEntity
  8
0
 60
     1
100
AcDbPoint
 10
-2780.904421334123
 20
5664.450424459501
 30
0.0
1001
GENIUS_GENOENT_13
1002
{
1000
MYREF
1005
2A6
1002
}
1002
{
1000
GRP
1005
0
1002
}
1001
GENIUS_GENODEF_13
1002
{
1000
HIER
1070
    10
1002
}
1002
{
1000
MANEDIT
1070
     0
1002
}
1002
{
1000
NOSEL
1070
     0
1002
}
1002
{
1000
BEHIND
1070
     0
1002
}
1002
{
1000
OTHER
1070
     0
1002
}
1002
{
1000
REACTOR
1002
}
1001
GENIUS_GENOBJ-N-CRS_13
1002
{
1000
OWNER
1000
GEN
1002
}
1001
GENIUS_GENOLIS_13
1002
{
1000
ENT
1005
DC
1005
DB
1005
DD
1005
DE
1002
}
1001
GENIUS_GENCRS_20
1002
{
1070
     0
1002
}
  0
POINT
  5
2AB
330
2
100
AcDbEntity
  8
0
 60
     1
100
AcDbPoint
 10
-3030.904421334123
 20
5664.450424459501
 30
0.0
1001
GENIUS_GENOENT_13
1002
{
1000
MYREF
1005
2AB
1002
}
1002
{
1000
GRP
1005
0
1002
}
1001
GENIUS_GENODEF_13
1002
{
1000
HIER
1070
    10
1002
}
1002
{
1000
MANEDIT
1070
     0
1002
}
1002
{
1000
NOSEL
1070
     0
1002
}
1002
{
1000
BEHIND
1070
     0
1002
}
1002
{
1000
OTHER
1070
     0
1002
}
1002
{
1000
REACTOR
1002
}
1001
GENIUS_GENOBJ-N-CRS_13
1002
{
1000
OWNER
1000
GEN
1002
}
1001
GENIUS_GENOLIS_13
1002
{
1000
ENT
1005
D7
1005
D6
1005
D8
1005
D9
1002
}
1001
GENIUS_GENCRS_20
1002
{
1070
     0
1002
}
  0
POINT
  5
2AC
330
2
100
AcDbEntity
  8
0
 60
     1
100
AcDbPoint
 10
-3530.904421334123
 20
5664.450424459501
 30
0.0
1001
GENIUS_GENOENT_13
1002
{
1000
MYREF
1005
2AC
1002
}
1002
{
1000
GRP
1005
0
1002
}
1001
GENIUS_GENODEF_13
1002
{
1000
HIER
1070
    10
1002
}
1002
{
1000
MANEDIT
1070
     0
1002
}
1002
{
1000
NOSEL
1070
     0
1002
}
1002
{
1000
BEHIND
1070
     0
1002
}
1002
{
1000
OTHER
1070
     0
1002
}
1002
{
1000
REACTOR
1002
}
1001
GENIUS_GENOBJ-N-CRS_13
1002
{
1000
OWNER
1000
GEN
1002
}
1001
GENIUS_GENOLIS_13
1002
{
1000
ENT
1005
CE
1005
CD
1005
CF
1005
D0
1002
}
1001
GENIUS_GENCRS_20
1002
{
1070
     0
1002
}
  0
POINT
  5
2AD
330
2
100
AcDbEntity
  8
0
 60
     1
100
AcDbPoint
 10
-3780.904421334123
 20
5664.450424459501
 30
0.0
1001
GENIUS_GENOENT_13
1002
{
1000
MYREF
1005
2AD
1002
}
1002
{
1000
GRP
1005
0
1002
}
1001
GENIUS_GENODEF_13
1002
{
1000
HIER
1070
    10
1002
}
1002
{
1000
MANEDIT
1070
     0
1002
}
1002
{
1000
NOSEL
1070
     0
1002
}
1002
{
1000
BEHIND
1070
     0
1002
}
1002
{
1000
OTHER
1070
     0
1002
}
1002
{
1000
REACTOR
1002
}
1001
GENIUS_GENOBJ-N-CRS_13
1002
{
1000
OWNER
1000
GEN
1002
}
1001
GENIUS_GENOLIS_13
1002
{
1000
ENT
1005
C9
1005
C8
1005
CA
1005
CB
1002
}
1001
GENIUS_GENCRS_20
1002
{
1070
     0
1002
}
  0
POINT
  5
2AE
330
2
100
AcDbEntity
  8
0
 60
     1
100
AcDbPoint
 10
-4030.904421334121
 20
5664.450424459501
 30
0.0
1001
GENIUS_GENOENT_13
1002
{
1000
MYREF
1005
2AE
1002
}
1002
{
1000
GRP
1005
0
1002
}
1001
GENIUS_GENODEF_13
1002
{
1000
HIER
1070
    10
1002
}
1002
{
1000
MANEDIT
1070
     0
1002
}
1002
{
1000
NOSEL
1070
     0
1002
}
1002
{
1000
BEHIND
1070
     0
1002
}
1002
{
1000
OTHER
1070
     0
1002
}
1002
{
1000
REACTOR
1002
}
1001
GENIUS_GENOBJ-N-CRS_13
1002
{
1000
OWNER
1000
GEN
1002
}
1001
GENIUS_GENOLIS_13
1002
{
1000
ENT
1005
C4
1005
C3
1005
C5
1005
C6
1002
}
1001
GENIUS_GENCRS_20
1002
{
1070
     0
1002
}
  0
POINT
  5
2AF
330
2
100
AcDbEntity
  8
0
 60
     1
100
AcDbPoint
 10
-4280.904421334121
 20
5664.450424459501
 30
0.0
1001
GENIUS_GENOENT_13
1002
{
1000
MYREF
1005
2AF
1002
}
1002
{
1000
GRP
1005
0
1002
}
1001
GENIUS_GENODEF_13
1002
{
1000
HIER
1070
    10
1002
}
1002
{
1000
MANEDIT
1070
     0
1002
}
1002
{
1000
NOSEL
1070
     0
1002
}
1002
{
1000
BEHIND
1070
     0
1002
}
1002
{
1000
OTHER
1070
     0
1002
}
1002
{
1000
REACTOR
1002
}
1001
GENIUS_GENOBJ-N-CRS_13
1002
{
1000
OWNER
1000
GEN
1002
}
1001
GENIUS_GENOLIS_13
1002
{
1000
ENT
1005
BF
1005
BE
1005
C0
1005
C1
1002
}
1001
GENIUS_GENCRS_20
1002
{
1070
     0
1002
}
  0
POINT
  5
2B0
330
2
100
AcDbEntity
  8
0
 60
     1
100
AcDbPoint
 10
-4530.904421334121
 20
5664.450424459501
 30
0.0
1001
GENIUS_GENOENT_13
1002
{
1000
MYREF
1005
2B0
1002
}
1002
{
1000
GRP
1005
0
1002
}
1001
GENIUS_GENODEF_13
1002
{
1000
HIER
1070
    10
1002
}
1002
{
1000
MANEDIT
1070
     0
1002
}
1002
{
1000
NOSEL
1070
     0
1002
}
1002
{
1000
BEHIND
1070
     0
1002
}
1002
{
1000
OTHER
1070
     0
1002
}
1002
{
1000
REACTOR
1002
}
1001
GENIUS_GENOBJ-N-CRS_13
1002
{
1000
OWNER
1000
GEN
1002
}
1001
GENIUS_GENOLIS_13
1002
{
1000
ENT
1005
BA
1005
B9
1005
BB
1005
BC
1002
}
1001
GENIUS_GENCRS_20
1002
{
1070
     0
1002
}
  0
POINT
  5
2B1
330
2
100
AcDbEntity
  8
0
 60
     1
100
AcDbPoint
 10
-4780.904421334121
 20
5664.450424459501
 30
0.0
1001
GENIUS_GENOENT_13
1002
{
1000
MYREF
1005
2B1
1002
}
1002
{
1000
GRP
1005
0
1002
}
1001
GENIUS_GENODEF_13
1002
{
1000
HIER
1070
    10
1002
}
1002
{
1000
MANEDIT
1070
     0
1002
}
1002
{
1000
NOSEL
1070
     0
1002
}
1002
{
1000
BEHIND
1070
     0
1002
}
1002
{
1000
OTHER
1070
     0
1002
}
1002
{
1000
REACTOR
1002
}
1001
GENIUS_GENOBJ-N-CRS_13
1002
{
1000
OWNER
1000
GEN
1002
}
1001
GENIUS_GENOLIS_13
1002
{
1000
ENT
1005
B5
1005
B4
1005
B6
1005
B7
1002
}
1001
GENIUS_GENCRS_20
1002
{
1070
     0
1002
}
  0
POINT
  5
2B2
330
2
100
AcDbEntity
  8
0
 60
     1
100
AcDbPoint
 10
-5030.904421334121
 20
5664.450424459501
 30
0.0
1001
GENIUS_GENOENT_13
1002
{
1000
MYREF
1005
2B2
1002
}
1002
{
1000
GRP
1005
0
1002
}
1001
GENIUS_GENODEF_13
1002
{
1000
HIER
1070
    10
1002
}
1002
{
1000
MANEDIT
1070
     0
1002
}
1002
{
1000
NOSEL
1070
     0
1002
}
1002
{
1000
BEHIND
1070
     0
1002
}
1002
{
1000
OTHER
1070
     0
1002
}
1002
{
1000
REACTOR
1002
}
1001
GENIUS_GENOBJ-N-CRS_13
1002
{
1000
OWNER
1000
GEN
1002
}
1001
GENIUS_GENOLIS_13
1002
{
1000
ENT
1005
B0
1005
AF
1005
B1
1005
B2
1002
}
1001
GENIUS_GENCRS_20
1002
{
1070
     0
1002
}
  0
POINT
  5
2B3
330
2
100
AcDbEntity
  8
0
 60
     1
100
AcDbPoint
 10
-5280.904421334122
 20
5664.450424459501
 30
0.0
1001
GENIUS_GENOENT_13
1002
{
1000
MYREF
1005
2B3
1002
}
1002
{
1000
GRP
1005
0
1002
}
1001
GENIUS_GENODEF_13
1002
{
1000
HIER
1070
    10
1002
}
1002
{
1000
MANEDIT
1070
     0
1002
}
1002
{
1000
NOSEL
1070
     0
1002
}
1002
{
1000
BEHIND
1070
     0
1002
}
1002
{
1000
OTHER
1070
     0
1002
}
1002
{
1000
REACTOR
1002
}
1001
GENIUS_GENOBJ-N-CRS_13
1002
{
1000
OWNER
1000
GEN
1002
}
1001
GENIUS_GENOLIS_13
1002
{
1000
ENT
1005
AB
1005
AA
1005
AC
1005
AD
1002
}
1001
GENIUS_GENCRS_20
1002
{
1070
     0
1002
}
  0
POINT
  5
2B4
330
2
100
AcDbEntity
  8
0
 60
     1
100
AcDbPoint
 10
-5405.904421334122
 20
5789.450424459501
 30
0.0
1001
GENIUS_GENOENT_13
1002
{
1000
MYREF
1005
2B4
1002
}
1002
{
1000
GRP
1005
0
1002
}
1001
GENIUS_GENODEF_13
1002
{
1000
HIER
1070
    10
1002
}
1002
{
1000
MANEDIT
1070
     0
1002
}
1002
{
1000
NOSEL
1070
     0
1002
}
1002
{
1000
BEHIND
1070
     0
1002
}
1002
{
1000
OTHER
1070
     0
1002
}
1002
{
1000
REACTOR
1002
}
1001
GENIUS_GENOBJ-N-CRS_13
1002
{
1000
OWNER
1000
GEN
1002
}
1001
GENIUS_GENOLIS_13
1002
{
1000
ENT
1005
9D
1005
9C
1005
9E
1005
9F
1002
}
1001
GENIUS_GENCRS_20
1002
{
1070
     0
1002
}
  0
POINT
  5
2B5
330
2
100
AcDbEntity
  8
0
 60
     1
100
AcDbPoint
 10
-3280.904421334123
 20
5664.450424459501
 30
0.0
1001
GENIUS_GENOENT_13
1002
{
1000
MYREF
1005
2B5
1002
}
1002
{
1000
GRP
1005
0
1002
}
1001
GENIUS_GENODEF_13
1002
{
1000
HIER
1070
    10
1002
}
1002
{
1000
MANEDIT
1070
     0
1002
}
1002
{
1000
NOSEL
1070
     0
1002
}
1002
{
1000
BEHIND
1070
     0
1002
}
1002
{
1000
OTHER
1070
     0
1002
}
1002
{
1000
REACTOR
1002
}
1001
GENIUS_GENOBJ-N-CRS_13
1002
{
1000
OWNER
1000
GEN
1002
}
1001
GENIUS_GENOLIS_13
1002
{
1000
ENT
1005
D2
1005
5A
1005
D3
1005
D4
1002
}
1001
GENIUS_GENCRS_20
1002
{
1070
     0
1002
}
  0
ENDSEC
  0
SECTION
  2
OBJECTS
  0
DICTIONARY
  5
9
330
0
100
AcDbDictionary
281
     1
  3
ACAD_2007HEADERVARS_RT
350
2CE
  3
ACAD_COLOR
350
3F
  3
ACAD_DETAILVIEWSTYLE
350
269
  3
ACAD_FIELDLIST
350
2B6
  3
ACAD_GROUP
350
36
  3
ACAD_LAYOUT
350
8
  3
ACAD_MATERIAL
350
18
  3
ACAD_MLEADERSTYLE
350
42
  3
ACAD_MLINESTYLE
350
37
  3
ACAD_PLOTSETTINGS
350
38
  3
ACAD_PLOTSTYLENAME
350
16
  3
ACAD_SCALELIST
350
40
  3
ACAD_SECTIONVIEWSTYLE
350
277
  3
ACAD_TABLESTYLE
350
41
  3
ACAD_VISUALSTYLE
350
2E
  3
ACDB_RECOMPOSE_DATA
350
2CD
  3
AcDbVariableDictionary
350
2BB
  3
AcDsDecomposeData
350
2D8
  3
AcmDictionary
350
25D
  3
AcmSystemVariableManager
350
2E5
  3
AMG
350
24C
  0
DICTIONARY
  5
21
330
12
100
AcDbDictionary
280
     1
281
     1
  3
ACAD_LAYERSTATES
360
22
  0
DICTIONARY
  5
14
330
13
100
AcDbDictionary
280
     1
281
     1
  0
DICTIONARY
  5
5C
330
5B
100
AcDbDictionary
280
     1
281
     1
  0
DICTIONARY
  5
6D
330
6C
100
AcDbDictionary
280
     1
281
     1
  0
DICTIONARY
  5
15C
330
15B
100
AcDbDictionary
280
     1
281
     1
  0
DICTIONARY
  5
13A
330
139
100
AcDbDictionary
280
     1
281
     1
  0
DICTIONARY
  5
13D
330
13C
100
AcDbDictionary
280
     1
281
     1
  0
DICTIONARY
  5
3
330
2
100
AcDbDictionary
280
     1
281
     1
  3
ACAD_SORTENTS
360
24A
  0
DICTIONARY
  5
D
330
C
100
AcDbDictionary
280
     1
281
     1
  3
ACAD_SORTENTS
360
E
  0
DICTIONARY
  5
140
330
13F
100
AcDbDictionary
280
     1
281
     1
  3
ACAD_SORTENTS
360
247
  0
DICTIONARY
  5
161
330
160
100
AcDbDictionary
280
     1
281
     1
  3
ACAD_SORTENTS
360
248
  0
DICTIONARY
  5
16D
330
16C
100
AcDbDictionary
280
     1
281
     1
  3
ACAD_SORTENTS
360
249
  0
DICTIONARY
  5
10A
330
109
100
AcDbDictionary
280
     1
281
     1
  3
ACAD_DIMASSOC
360
10B
  0
DICTIONARY
  5
119
330
118
100
AcDbDictionary
280
     1
281
     1
  3
ACAD_DIMASSOC
360
11A
  0
DICTIONARY
  5
2CE
102
{ACAD_REACTORS
330
9
102
}
330
9
100
AcDbDictionary
281
     1
  3
DIMJOGANG
350
2CF
  3
DIMLTEX1
350
2D1
  3
DIMLTEX2
350
2D2
  3
DIMLTYPE
350
2D0
  0
DICTIONARY
  5
3F
102
{ACAD_REACTORS
330
9
102
}
330
9
100
AcDbDictionary
281
     1
  0
DICTIONARY
  5
269
102
{ACAD_REACTORS
330
9
102
}
330
9
100
AcDbDictionary
281
     1
  3
Imperial24
350
270
  3
Metric50
350
273
  0
FIELDLIST
  5
2B6
102
{ACAD_REACTORS
330
9
102
}
330
9
100
AcDbIdSet
 90
        6
330
26C
330
26D
330
26E
330
27A
330
27B
330
27C
100
AcDbFieldList
  0
DICTIONARY
  5
36
102
{ACAD_REACTORS
330
9
102
}
330
9
100
AcDbDictionary
281
     1
  0
DICTIONARY
  5
8
102
{ACAD_REACTORS
330
9
102
}
330
9
100
AcDbDictionary
281
     1
  3
core
350
11
  3
Model
350
7
  0
DICTIONARY
  5
18
102
{ACAD_REACTORS
330
9
102
}
330
9
100
AcDbDictionary
281
     1
  3
ByBlock
350
3C
  3
ByLayer
350
39
  3
Global
350
17
  0
DICTIONARY
  5
42
102
{ACAD_REACTORS
330
9
102
}
330
9
100
AcDbDictionary
281
     1
  0
DICTIONARY
  5
37
102
{ACAD_REACTORS
330
9
102
}
330
9
100
AcDbDictionary
281
     1
  3
Standard
350
44
  0
DICTIONARY
  5
38
102
{ACAD_REACTORS
330
9
102
}
330
9
100
AcDbDictionary
281
     1
  0
ACDBDICTIONARYWDFLT
  5
16
102
{ACAD_REACTORS
330
9
102
}
330
9
100
AcDbDictionary
281
     1
  3
Normal
350
15
100
AcDbDictionaryWithDefault
340
15
  0
DICTIONARY
  5
40
102
{ACAD_REACTORS
330
9
102
}
330
9
100
AcDbDictionary
281
     1
  3
A0
350
49
  3
A1
350
4A
  3
A2
350
4B
  3
A3
350
4C
  3
A4
350
4D
  3
A5
350
4E
  3
A6
350
4F
  3
A7
350
50
  3
A8
350
51
  3
A9
350
52
  3
B0
350
53
  3
B1
350
54
  3
B2
350
55
  3
B3
350
56
  3
B4
350
57
  3
B5
350
58
  3
B6
350
59
  0
DICTIONARY
  5
277
102
{ACAD_REACTORS
330
9
102
}
330
9
100
AcDbDictionary
281
     1
  3
Imperial24
350
282
  3
Metric50
350
285
  0
DICTIONARY
  5
41
102
{ACAD_REACTORS
330
9
102
}
330
9
100
AcDbDictionary
281
     1
  3
Standard
350
45
  0
DICTIONARY
  5
2E
102
{ACAD_REACTORS
330
9
102
}
330
9
100
AcDbDictionary
281
     1
  3
2dWireframe
350
2D
  3
Realistic
350
47
  3
Wireframe
350
48
  0
XRECORD
  5
2CD
102
{ACAD_REACTORS
330
9
102
}
330
9
100
AcDbXrecord
280
     1
 90
        1
330
45
330
137
  0
DICTIONARY
  5
2BB
102
{ACAD_REACTORS
330
9
102
}
330
9
100
AcDbDictionary
281
     1
  3
CANNOSCALE
350
2C1
  3
CMLEADERSTYLE
350
2BD
  3
CTABLESTYLE
350
2BC
  3
CVIEWDETAILSTYLE
350
2BE
  3
CVIEWSECTIONSTYLE
350
2BF
  3
DIMASSOC
350
2C8
  3
HIDETEXT
350
2C7
  3
INDEXCTL
350
2C6
  3
LAYEREVAL
350
2C3
  3
LAYERNOTIFY
350
2C4
  3
LIGHTINGUNITS
350
2C2
  3
MSLTSCALE
350
2C0
  3
PSOLHEIGHT
350
2CA
  3
PSOLWIDTH
350
2C9
  3
SORTENTS
350
2C5
  3
XCLIPFRAME
350
2CB
  0
DICTIONARY
  5
2D8
102
{ACAD_REACTORS
330
9
102
}
330
9
100
AcDbDictionary
281
     1
  3
AcDsRecords
350
2DA
  3
AcDsSchemas
350
2D9
1001
ACAD
1070
     2
  0
DICTIONARY
  5
25D
102
{ACAD_REACTORS
330
9
102
}
330
9
100
AcDbDictionary
281
     1
  3
AcmStdDictionary
350
25E
  0
DICTIONARY
  5
24C
102
{ACAD_REACTORS
330
9
102
}
330
9
100
AcDbDictionary
281
     1
  3
AcMgSettings
350
255
  0
DICTIONARY
  5
22
102
{ACAD_REACTORS
330
21
102
}
330
21
100
AcDbDictionary
281
     1
  0
SORTENTSTABLE
  5
24A
102
{ACAD_REACTORS
330
3
102
}
330
3
100
AcDbSortentsTable
330
2
  0
SORTENTSTABLE
  5
E
102
{ACAD_REACTORS
330
D
102
}
330
D
100
AcDbSortentsTable
330
C
  0
SORTENTSTABLE
  5
247
102
{ACAD_REACTORS
330
140
102
}
330
140
100
AcDbSortentsTable
330
13F
331
148
  5
145
331
149
  5
143
331
143
  5
148
331
145
  5
149
  0
SORTENTSTABLE
  5
248
102
{ACAD_REACTORS
330
161
102
}
330
161
100
AcDbSortentsTable
330
160
331
164
  5
165
331
165
  5
164
  0
SORTENTSTABLE
  5
249
102
{ACAD_REACTORS
330
16D
102
}
330
16D
100
AcDbSortentsTable
330
16C
  0
DIMASSOC
  5
10B
102
{ACAD_REACTORS
330
10A
102
}
330
10A
100
AcDbDimAssoc
330
109
 90
        1
 70
     0
 71
     0
  1
AcDbOsnapPointRef
 72
     1
331
A0
331
A3
 73
     0
 91
        0
 40
0.0
 10
0.0
 20
0.0
 30
2.000000000000000E+50
 75
     0
  0
DIMASSOC
  5
11A
102
{ACAD_REACTORS
330
119
102
}
330
119
100
AcDbDimAssoc
330
118
 90
        3
 70
     0
 71
     0
  1
AcDbOsnapPointRef
 72
     5
331
B8
 73
     0
 91
        0
 40
3.141592653589793
 10
0.0
 20
0.0
 30
0.0
 75
     0
  1
AcDbOsnapPointRef
 72
     5
331
B8
 73
     0
 91
        0
 40
0.0
 10
0.0
 20
0.0
 30
0.0
 75
     0
  0
XRECORD
  5
2CF
102
{ACAD_REACTORS
330
2CE
102
}
330
2CE
100
AcDbXrecord
280
     1
 40
1.570796326794896
  0
XRECORD
  5
2D1
102
{ACAD_REACTORS
330
2CE
102
}
330
2CE
100
AcDbXrecord
280
     1
340
27
  0
XRECORD
  5
2D2
102
{ACAD_REACTORS
330
2CE
102
}
330
2CE
100
AcDbXrecord
280
     1
340
27
  0
XRECORD
  5
2D0
102
{ACAD_REACTORS
330
2CE
102
}
330
2CE
100
AcDbXrecord
280
     1
340
27
  0
ACDBDETAILVIEWSTYLE
  5
270
102
{ACAD_XDICTIONARY
360
271
102
}
102
{ACAD_REACTORS
330
269
330
26F
102
}
330
269
100
AcDbModelDocViewStyle
 70
     0
  3
Imperial24
290
     0
100
AcDbDetailViewStyle
 70
     0
 71
     0
 90
        3
 71
     1
340
24
 40
0.24
340
0
 40
0.24
300

 40
0.36
280
     3
 71
     2
340
20
 90
       25
 71
     3
340
24
 40
0.24
 90
        1
 40
0.75
 90
        1
300
%<\AcVar ViewType \f "%tc1">% %<\AcVar ViewDetailId>%\PVARIA %<\AcVar ViewScale \f "%sn">%
 71
     4
340
20
 90
       25
340
20
 90
       25
280
     0
  0
ACDBDETAILVIEWSTYLE
  5
273
102
{ACAD_XDICTIONARY
360
274
102
}
102
{ACAD_REACTORS
330
269
330
272
102
}
330
269
100
AcDbModelDocViewStyle
 70
     0
  3
Metric50
290
     0
100
AcDbDetailViewStyle
 70
     0
 71
     0
 90
        3
 71
     1
340
24
 40
5.0
340
0
 40
5.0
300

 40
0.0
280
     1
 71
     2
340
20
 90
       25
 71
     3
340
24
 40
5.0
 90
        0
 40
15.0
 90
        1
300
%<\AcVar ViewDetailId>% (%<\AcVar ViewScale \f "%sn">%)
 71
     4
340
20
 90
       25
340
20
 90
       25
280
     0
  0
LAYOUT
  5
11
102
{ACAD_XDICTIONARY
360
2DC
102
}
102
{ACAD_REACTORS
330
8
102
}
330
8
100
AcDbPlotSettings
  1

  2
Kein
  4
ISO_A4_(210.00_x_297.00_MM)
  6

 40
7.5
 41
20.0
 42
7.5
 43
20.0
 44
210.0
 45
297.0
 46
0.0
 47
0.0
 48
0.0
 49
0.0
140
0.0
141
0.0
142
1.0
143
1.0
 70
   688
 72
     1
 73
     1
 74
     5
  7

 75
    16
147
1.0
148
0.0
149
0.0
100
AcDbLayout
  1
core
 70
     1
 71
     2
 10
0.0
 20
0.0
 11
12.0
 21
9.0
 12
0.0
 22
0.0
 32
0.0
 14
-322.0076848068127
 24
-275.0669151153652
 34
0.0
 15
2647.992315193187
 25
435.7570261834401
 35
0.0
146
0.0
 13
0.0
 23
0.0
 33
0.0
 16
1.0
 26
0.0
 36
0.0
 17
0.0
 27
1.0
 37
0.0
 76
     0
330
C
1001
ACAD_PSEXT
1000
Kein
1000
Kein
1000
Nicht anwendbar
1000
Das Layout wird erst geplottet, wenn ein neuer Plotter-Konfigurationsname ausgewählt wird.
1070
     0
  0
LAYOUT
  5
7
102
{ACAD_XDICTIONARY
360
A
102
}
102
{ACAD_REACTORS
330
8
102
}
330
8
100
AcDbPlotSettings
  1

  2
none_device
  4
ISO_A4_(210.00_x_297.00_MM)
  6

 40
7.5
 41
20.0
 42
7.5
 43
20.0
 44
210.0
 45
297.0
 46
11.54999923706054
 47
-13.65000009536743
 48
0.0
 49
0.0
140
0.0
141
0.0
142
1.0
143
8.704084754739808
 70
 11952
 72
     1
 73
     0
 74
     0
  7

 75
     0
147
0.1148885871608098
148
0.0
149
0.0
100
AcDbLayout
  1
Model
 70
     1
 71
     0
 10
0.0
 20
0.0
 11
12.0
 21
9.0
 12
0.0
 22
0.0
 32
0.0
 14
0.0
 24
0.0
 34
0.0
 15
0.0
 25
0.0
 35
0.0
146
0.0
 13
0.0
 23
0.0
 33
0.0
 16
1.0
 26
0.0
 36
0.0
 17
0.0
 27
1.0
 37
0.0
 76
     0
330
2
331
2C
1001
ACAD_PSEXT
1000
None
1000
None
1000
Not applicable
1000
The layout will not be plotted unless a new plotter configuration name is selected.
1070
     0
  0
MATERIAL
  5
3C
102
{ACAD_XDICTIONARY
360
3D
102
}
102
{ACAD_REACTORS
330
18
102
}
330
18
100
AcDbMaterial
  1
ByBlock
  0
MATERIAL
  5
39
102
{ACAD_XDICTIONARY
360
3A
102
}
102
{ACAD_REACTORS
330
18
102
}
330
18
100
AcDbMaterial
  1
ByLayer
  0
MATERIAL
  5
17
102
{ACAD_XDICTIONARY
360
19
102
}
102
{ACAD_REACTORS
330
18
102
}
330
18
100
AcDbMaterial
  1
Global
 43
0.0007999999797903
 43
0.0
 43
0.0
 43
0.0
 43
0.0
 43
0.0007999999797903
 43
0.0
 43
0.0
 43
0.0
 43
0.0
 43
1.0
 43
0.0
 43
0.0
 43
0.0
 43
0.0
 43
1.0
 49
0.0007999999797903
 49
0.0
 49
0.0
 49
0.0
 49
0.0
 49
0.0007999999797903
 49
0.0
 49
0.0
 49
0.0
 49
0.0
 49
1.0
 49
0.0
 49
0.0
 49
0.0
 49
0.0
 49
1.0
142
0.0007999999797903
142
0.0
142
0.0
142
0.0
142
0.0
142
0.0007999999797903
142
0.0
142
0.0
142
0.0
142
0.0
142
1.0
142
0.0
142
0.0
142
0.0
142
0.0
142
1.0
144
0.0007999999797903
144
0.0
144
0.0
144
0.0
144
0.0
144
0.0007999999797903
144
0.0
144
0.0
144
0.0
144
0.0
144
1.0
144
0.0
144
0.0
144
0.0
144
0.0
144
1.0
1001
ACAD
1070
    -1
1070
     3
1070
     0
1000

1071
        0
1070
     0
  0
MLINESTYLE
  5
44
102
{ACAD_REACTORS
330
37
102
}
330
37
100
AcDbMlineStyle
  2
STANDARD
 70
     0
  3

 62
   256
 51
90.0
 52
90.0
 71
     2
 49
0.5
 62
   256
  6
BYLAYER
 49
-0.5
 62
   256
  6
BYLAYER
  0
ACDBPLACEHOLDER
  5
15
102
{ACAD_REACTORS
330
16
102
}
330
16
  0
SCALE
  5
49
102
{ACAD_REACTORS
330
40
102
}
330
40
100
AcDbScale
 70
     0
300
1:1
140
1.0
141
1.0
290
     1
  0
SCALE
  5
4A
102
{ACAD_REACTORS
330
40
102
}
330
40
100
AcDbScale
 70
     0
300
1:2
140
1.0
141
2.0
290
     0
  0
SCALE
  5
4B
102
{ACAD_REACTORS
330
40
102
}
330
40
100
AcDbScale
 70
     0
300
1:4
140
1.0
141
4.0
290
     0
  0
SCALE
  5
4C
102
{ACAD_REACTORS
330
40
102
}
330
40
100
AcDbScale
 70
     0
300
1:5
140
1.0
141
5.0
290
     0
  0
SCALE
  5
4D
102
{ACAD_REACTORS
330
40
102
}
330
40
100
AcDbScale
 70
     0
300
1:8
140
1.0
141
8.0
290
     0
  0
SCALE
  5
4E
102
{ACAD_REACTORS
330
40
102
}
330
40
100
AcDbScale
 70
     0
300
1:10
140
1.0
141
10.0
290
     0
  0
SCALE
  5
4F
102
{ACAD_REACTORS
330
40
102
}
330
40
100
AcDbScale
 70
     0
300
1:16
140
1.0
141
16.0
290
     0
  0
SCALE
  5
50
102
{ACAD_REACTORS
330
40
102
}
330
40
100
AcDbScale
 70
     0
300
1:20
140
1.0
141
20.0
290
     0
  0
SCALE
  5
51
102
{ACAD_REACTORS
330
40
102
}
330
40
100
AcDbScale
 70
     0
300
1:30
140
1.0
141
30.0
290
     0
  0
SCALE
  5
52
102
{ACAD_REACTORS
330
40
102
}
330
40
100
AcDbScale
 70
     0
300
1:40
140
1.0
141
40.0
290
     0
  0
SCALE
  5
53
102
{ACAD_REACTORS
330
40
102
}
330
40
100
AcDbScale
 70
     0
300
1:50
140
1.0
141
50.0
290
     0
  0
SCALE
  5
54
102
{ACAD_REACTORS
330
40
102
}
330
40
100
AcDbScale
 70
     0
300
1:100
140
1.0
141
100.0
290
     0
  0
SCALE
  5
55
102
{ACAD_REACTORS
330
40
102
}
330
40
100
AcDbScale
 70
     0
300
2:1
140
2.0
141
1.0
290
     0
  0
SCALE
  5
56
102
{ACAD_REACTORS
330
40
102
}
330
40
100
AcDbScale
 70
     0
300
4:1
140
4.0
141
1.0
290
     0
  0
SCALE
  5
57
102
{ACAD_REACTORS
330
40
102
}
330
40
100
AcDbScale
 70
     0
300
8:1
140
8.0
141
1.0
290
     0
  0
SCALE
  5
58
102
{ACAD_REACTORS
330
40
102
}
330
40
100
AcDbScale
 70
     0
300
10:1
140
10.0
141
1.0
290
     0
  0
SCALE
  5
59
102
{ACAD_REACTORS
330
40
102
}
330
40
100
AcDbScale
 70
     0
300
100:1
140
100.0
141
1.0
290
     0
  0
ACDBSECTIONVIEWSTYLE
  5
282
102
{ACAD_XDICTIONARY
360
283
102
}
102
{ACAD_REACTORS
330
277
330
281
102
}
330
277
100
AcDbModelDocViewStyle
 70
     0
  3
Imperial24
290
     0
100
AcDbSectionViewStyle
 70
     0
 71
     0
 90
       78
 71
     1
340
24
 40
0.24
340
0
340
0
 40
0.24
300
I, O, Q, S, X, Z
 40
0.48
 90
        3
 40
0.18
 90
        1
 71
     2
340
20
 90
       25
340
20
 90
       50
 40
0.24
 40
0.0
 40
0.24
 71
     3
340
24
 40
0.24
 90
        1
 40
0.75
 90
        1
300
%<\AcVar ViewType \f "%tc1">% %<\AcVar ViewSectionStartId>%-%<\AcVar ViewSectionEndId>%\PVARIA %<\AcVar ViewScale \f "%sn">%
 71
     4
300
ANSI31
 40
1.0
 90
        0
290
     0
290
     0
 90
        6
 40
0.0
 40
1.570796326794896
 40
0.2617993877991494
 40
1.308996938995747
 40
-0.2617993877991494
 40
1.832595714594046
  0
ACDBSECTIONVIEWSTYLE
  5
285
102
{ACAD_XDICTIONARY
360
286
102
}
102
{ACAD_REACTORS
330
277
330
284
102
}
330
277
100
AcDbModelDocViewStyle
 70
     0
  3
Metric50
290
     0
100
AcDbSectionViewStyle
 70
     0
 71
     0
 90
      102
 71
     1
340
24
 40
5.0
340
0
340
0
 40
5.0
300
I, O, Q, S, X, Z
 40
10.0
 90
        0
 40
2.5
 90
        0
 71
     2
340
20
 90
       25
340
20
 90
       50
 40
5.0
 40
2.5
 40
5.0
 71
     3
340
24
 40
5.0
 90
        0
 40
15.0
 90
        1
300
%<\AcVar ViewSectionStartId>%-%<\AcVar ViewSectionEndId>% (%<\AcVar ViewScale \f "%sn">%)
 71
     4
300
ANSI31
 40
1.0
 90
        0
290
     0
290
     0
 90
        6
 40
0.0
 40
1.570796326794896
 40
0.2617993877991494
 40
1.308996938995747
 40
-0.2617993877991494
 40
1.832595714594046
  0
TABLESTYLE
  5
45
102
{ACAD_XDICTIONARY
360
46
102
}
102
{ACAD_REACTORS
330
41
102
}
330
41
100
AcDbTableStyle
  3
Standard
 70
     0
 71
     0
 40
1.5
 41
1.5
280
     0
281
     0
  7
Standard
140
4.5
170
     2
 62
     0
 63
     7
283
     0
274
    -2
284
     1
 64
     0
275
    -2
285
     1
 65
     0
276
    -2
286
     1
 66
     0
277
    -2
287
     1
 67
     0
278
    -2
288
     1
 68
     0
279
    -2
289
     1
 69
     0
  7
Standard
140
6.0
170
     5
 62
     0
 63
     7
283
     0
274
    -2
284
     1
 64
     0
275
    -2
285
     1
 65
     0
276
    -2
286
     1
 66
     0
277
    -2
287
     1
 67
     0
278
    -2
288
     1
 68
     0
279
    -2
289
     1
 69
     0
  7
Standard
140
4.5
170
     5
 62
     0
 63
     7
283
     0
274
    -2
284
     1
 64
     0
275
    -2
285
     1
 65
     0
276
    -2
286
     1
 66
     0
277
    -2
287
     1
 67
     0
278
    -2
288
     1
 68
     0
279
    -2
289
     1
 69
     0
  0
VISUALSTYLE
  5
2D
102
{ACAD_XDICTIONARY
360
2DF
102
}
102
{ACAD_REACTORS
330
2E
102
}
330
2E
100
AcDbVisualStyle
  2
2dWireframe
 70
     4
 71
     0
 72
     2
 73
     1
 90
        0
 40
-0.6
 41
-30.0
 62
     5
 63
     7
 74
     1
 91
        4
 64
     7
 65
   257
 75
     1
175
     1
 42
1.0
 92
        0
 66
   257
 43
1.0
 76
     1
 77
     6
 78
     2
 67
     7
 79
     5
170
     0
171
     0
290
     0
174
     0
 93
        1
 44
0.0
173
     0
291
     0
 45
0.0
1001
ACAD
1000
AcDbSavedByObjectVersion
1070
     0
  0
VISUALSTYLE
  5
47
102
{ACAD_XDICTIONARY
360
2EA
102
}
102
{ACAD_REACTORS
330
2E
102
}
330
2E
100
AcDbVisualStyle
  2
Realistic
 70
     8
 71
     2
 72
     3
 73
     0
 90
        2
 40
-0.6
 41
30.0
 62
     5
 63
     7
 74
     0
 91
        0
 64
     7
 65
   257
 75
     1
175
     1
 42
1.0
 92
        8
 66
   257
 43
1.0
 76
     1
 77
     6
 78
     2
 67
     7
 79
     3
170
     0
171
     0
290
     0
174
     0
 93
       13
 44
0.0
173
     0
291
     0
 45
0.0
1001
ACAD
1000
AcDbSavedByObjectVersion
1070
     0
  0
VISUALSTYLE
  5
48
102
{ACAD_XDICTIONARY
360
2EC
102
}
102
{ACAD_REACTORS
330
2E
102
}
330
2E
100
AcDbVisualStyle
  2
Wireframe
 70
     5
 71
     0
 72
     2
 73
     0
 90
        0
 40
-0.6
 41
-30.0
 62
     5
 63
     7
 74
     1
 91
        4
 64
     7
 65
   257
 75
     1
175
     1
 42
1.0
 92
        0
 66
   257
 43
1.0
 76
     1
 77
     6
 78
     2
 67
     7
 79
     3
170
     0
171
     0
290
     0
174
     0
 93
        1
 44
0.0
173
     0
291
     0
 45
0.0
1001
ACAD
1000
AcDbSavedByObjectVersion
1070
     0
  0
DICTIONARYVAR
  5
2C1
102
{ACAD_REACTORS
330
2BB
102
}
330
2BB
100
DictionaryVariables
280
     0
  1
1:1
  0
DICTIONARYVAR
  5
2BD
102
{ACAD_REACTORS
330
2BB
102
}
330
2BB
100
DictionaryVariables
280
     0
  1
STANDARD
  0
DICTIONARYVAR
  5
2BC
102
{ACAD_REACTORS
330
2BB
102
}
330
2BB
100
DictionaryVariables
280
     0
  1
STANDARD
  0
DICTIONARYVAR
  5
2BE
102
{ACAD_REACTORS
330
2BB
102
}
330
2BB
100
DictionaryVariables
280
     0
  1

  0
DICTIONARYVAR
  5
2BF
102
{ACAD_REACTORS
330
2BB
102
}
330
2BB
100
DictionaryVariables
280
     0
  1

  0
DICTIONARYVAR
  5
2C8
102
{ACAD_REACTORS
330
2BB
102
}
330
2BB
100
DictionaryVariables
280
     0
  1
2
  0
DICTIONARYVAR
  5
2C7
102
{ACAD_REACTORS
330
2BB
102
}
330
2BB
100
DictionaryVariables
280
     0
  1
1
  0
DICTIONARYVAR
  5
2C6
102
{ACAD_REACTORS
330
2BB
102
}
330
2BB
100
DictionaryVariables
280
     0
  1
0
  0
DICTIONARYVAR
  5
2C3
102
{ACAD_REACTORS
330
2BB
102
}
330
2BB
100
DictionaryVariables
280
     0
  1
0
  0
DICTIONARYVAR
  5
2C4
102
{ACAD_REACTORS
330
2BB
102
}
330
2BB
100
DictionaryVariables
280
     0
  1
0
  0
DICTIONARYVAR
  5
2C2
102
{ACAD_REACTORS
330
2BB
102
}
330
2BB
100
DictionaryVariables
280
     0
  1
2
  0
DICTIONARYVAR
  5
2C0
102
{ACAD_REACTORS
330
2BB
102
}
330
2BB
100
DictionaryVariables
280
     0
  1
1
  0
DICTIONARYVAR
  5
2CA
102
{ACAD_REACTORS
330
2BB
102
}
330
2BB
100
DictionaryVariables
280
     0
  1
80.000000
  0
DICTIONARYVAR
  5
2C9
102
{ACAD_REACTORS
330
2BB
102
}
330
2BB
100
DictionaryVariables
280
     0
  1
5.000000
  0
DICTIONARYVAR
  5
2C5
102
{ACAD_REACTORS
330
2BB
102
}
330
2BB
100
DictionaryVariables
280
     0
  1
127
  0
DICTIONARYVAR
  5
2CB
102
{ACAD_REACTORS
330
2BB
102
}
330
2BB
100
DictionaryVariables
280
     0
  1
2
  0
DICTIONARY
  5
2DA
102
{ACAD_REACTORS
330
2D8
102
}
330
2D8
100
AcDbDictionary
281
     1
  0
DICTIONARY
  5
2D9
102
{ACAD_REACTORS
330
2D8
102
}
330
2D8
100
AcDbDictionary
281
     1
  3
140688809355312
350
2D3
  3
140688809355328
350
2D4
  3
140688809355344
350
2D5
  3
140688809355360
350
2D6
  3
140688809355376
350
2D7
  0
DICTIONARY
  5
25E
102
{ACAD_REACTORS
330
25D
102
}
330
25D
100
AcDbDictionary
281
     1
  0
DICTIONARY
  5
255
102
{ACAD_REACTORS
330
24C
102
}
330
24C
100
AcDbDictionary
281
     1
  3
Behind
350
254
  3
DWGSETTINGS
350
256
  3
Shaft
350
257
  3
TRANSSETTINGS
350
258
  0
DICTIONARY
  5
271
330
270
100
AcDbDictionary
280
     1
281
     1
  3
ACAD_XREC_ROUNDTRIP
360
2EE
  0
DICTIONARY
  5
274
330
273
100
AcDbDictionary
280
     1
281
     1
  3
ACAD_XREC_ROUNDTRIP
360
2EF
  0
DICTIONARY
  5
2DC
330
11
100
AcDbDictionary
280
     1
281
     1
  3
ACAD_XREC_ROUNDTRIP
360
2DD
  0
DICTIONARY
  5
A
330
7
100
AcDbDictionary
280
     1
281
     1
  3
ACAD_XREC_ROUNDTRIP
360
2DB
  0
DICTIONARY
  5
3D
330
3C
100
AcDbDictionary
280
     1
281
     1
  3
ACAD_XREC_ROUNDTRIP
360
2E8
  3
FBXASSET
360
3E
  0
DICTIONARY
  5
3A
330
39
100
AcDbDictionary
280
     1
281
     1
  3
ACAD_XREC_ROUNDTRIP
360
2E7
  3
FBXASSET
360
3B
  0
DICTIONARY
  5
19
330
17
100
AcDbDictionary
280
     1
281
     1
  3
ACAD_XREC_ROUNDTRIP
360
2DE
  3
BUMPTILE
360
1A
  3
DIFFUSETILE
360
1B
  3
FBXASSET
360
1C
  3
OPACITYTILE
360
1D
  3
REFLECTIONTILE
360
1E
  0
DICTIONARY
  5
283
330
282
100
AcDbDictionary
280
     1
281
     1
  3
ACAD_XREC_ROUNDTRIP
360
2F0
  0
DICTIONARY
  5
286
330
285
100
AcDbDictionary
280
     1
281
     1
  3
ACAD_XREC_ROUNDTRIP
360
2F1
  0
DICTIONARY
  5
46
330
45
100
AcDbDictionary
280
     1
281
     1
  3
ACAD_ROUNDTRIP_2008_TABLESTYLE_CELLSTYLEMAP
360
2CC
  3
ACAD_XREC_ROUNDTRIP
360
2E9
  0
DICTIONARY
  5
2DF
330
2D
100
AcDbDictionary
280
     1
281
     1
  3
ACAD_XREC_ROUNDTRIP
360
2E0
  0
DICTIONARY
  5
2EA
330
47
100
AcDbDictionary
280
     1
281
     1
  3
ACAD_XREC_ROUNDTRIP
360
2EB
  0
DICTIONARY
  5
2EC
330
48
100
AcDbDictionary
280
     1
281
     1
  3
ACAD_XREC_ROUNDTRIP
360
2ED
  0
XRECORD
  5
2D3
102
{ACAD_REACTORS
330
2D9
102
}
330
2D9
100
AcDbXrecord
280
     1
  1
AcDb_Thumbnail_Schema
102
{ATTRRECORD
341
2D4
  2
AcDbDs::TreatedAsObjectData
280
     1
291
     1
102
ATTRRECORD}
102
{ATTRRECORD
341
2D5
  2
AcDbDs::Legacy
280
     1
291
     1
102
ATTRRECORD}
  2
AcDbDs::ID
280
    10
 91
        8
102
{ATTRRECORD
341
2D6
  2
AcDs:Indexable
280
     1
291
     1
102
ATTRRECORD}
102
{ATTRRECORD
341
2D7
  2
AcDbDs::HandleAttribute
280
     7
282
     1
102
ATTRRECORD}
  2
Thumbnail_Data
280
    15
 91
        0
  0
XRECORD
  5
2D4
102
{ACAD_REACTORS
330
2D9
102
}
330
2D9
100
AcDbXrecord
280
     1
  1
AcDbDs::TreatedAsObjectDataSchema
  2
AcDbDs::TreatedAsObjectData
280
     1
 91
        0
  0
XRECORD
  5
2D5
102
{ACAD_REACTORS
330
2D9
102
}
330
2D9
100
AcDbXrecord
280
     1
  1
AcDbDs::LegacySchema
  2
AcDbDs::Legacy
280
     1
 91
        0
  0
XRECORD
  5
2D6
102
{ACAD_REACTORS
330
2D9
102
}
330
2D9
100
AcDbXrecord
280
     1
  1
AcDbDs::IndexedPropertySchema
  2
AcDs:Indexable
280
     1
 91
        0
  0
XRECORD
  5
2D7
102
{ACAD_REACTORS
330
2D9
102
}
330
2D9
100
AcDbXrecord
280
     1
  1
AcDbDs::HandleAttributeSchema
  2
AcDbDs::HandleAttribute
280
     7
 91
        1
284
     1
  0
XRECORD
  5
2EE
102
{ACAD_REACTORS
330
271
102
}
330
271
100
AcDbXrecord
280
     1
102
DISPLAYNAME
  1
Imperial24
102
FLAGS
 90
        0
  0
XRECORD
  5
2EF
102
{ACAD_REACTORS
330
274
102
}
330
274
100
AcDbXrecord
280
     1
102
DISPLAYNAME
  1
Metric50
102
FLAGS
 90
        0
  0
XRECORD
  5
2DD
102
{ACAD_REACTORS
330
2DC
102
}
330
2DC
100
AcDbXrecord
280
     1
102
SHADEPLOT
 70
     0
102
SHADEPLOTRESLEVEL
 70
     2
102
SHADEPLOTCUSTOMDPI
 70
   300
  0
XRECORD
  5
2DB
102
{ACAD_REACTORS
330
A
102
}
330
A
100
AcDbXrecord
280
     1
102
SHADEPLOT
 70
     0
102
SHADEPLOTRESLEVEL
 70
     2
102
SHADEPLOTCUSTOMDPI
 70
   300
  0
XRECORD
  5
2E8
102
{ACAD_REACTORS
330
3D
102
}
330
3D
100
AcDbXrecord
280
     1
102
MATERIAL
148
0.0
149
0.0
149
0.0
 93
        0
 94
       63
282
     0
 72
     1
 77
     1
171
     1
175
     1
179
     1
273
     0
  0
XRECORD
  5
3E
102
{ACAD_REACTORS
330
3D
102
}
330
3D
100
AcDbXrecord
280
     1
 70
     1
 90
429727718
  1
D62C5603-E3A1-4AEA-B7FB-FE5D8D0755AF
310
504B03040A0000080000CC70623B3DEE336E79000000790000001B0000006175746F6465736B2D64657369676E2D7061636B6167652E786D6C3C3F786D6C2076657273696F6E3D22312E302220656E636F64696E673D227574662D3822203F3E3C666F726D6174733E3C666F726D61743E687474703A2F2F736368656D612E
310
6175746F6465736B2E636F6D2F64657369676E2D7061636B6167652F323030393C2F666F726D61743E3C2F666F726D6174733E504B0304140006080800CC70623BD486FD9CA0000000F4000000130000005B436F6E74656E745F54797065735D2E786D6C7D8EC10E82300C865F65E91D8A1E8C310C0EEA1BF002731658846E
310
D98AC1B77784ABF1D8FE5FBFBF75BBCE937A534CCEB38643598122B6FEE978D0B0485F9C41B54DDD7D022595594E1A469170414C76A4D9A4D207E29CF43ECE46F218070CC6BECC4078ACAA135ACF422C856C0E68EA1BF5669944DDD7BCDE7B1F8E415D77AECB980613C2E4AC91FC167A2B244592486606FC29C8FD7F045B9A
310
EF7053A7E60B504B0304140006080800CC70623B853B8169EB0000007C01000008000000636F72652E786D6C8D90416EC3201045AF62CDB6C206821CC7C244919D9CA01740401C94182C03558F5F9C3852BBEB6A467FFE9B197D7EFC9E1EC5975982F5AE035262288C535E5B377690E21535501C055FBC8FBF6C503839990E
310
5619041F179FE64D52DE45E362569DD7661365082642A11EB9E920A89B99642953CC8E702F67A9EE7234257977194EC9EAE275C4EABCCF5EAD5940D4AC6F0E35A568B8F43562CD7046CD199FD07E60174276A7BE677B5EADB0E0D14EEFFB6A31321A0D82627C4084204C3F096B71DD52F6819B16635EADF63F509AF53FA164
310
5DDCD1EDDD17164090FCC8732078B56691CB33A85CD7DCC40F504B0304140006080800CC70623B55019EA25F0000007C00000007000000636E782E786D6C4DCB3B0E80201045D1AD90E915ED2CF8AC45050C11660C8261F98AB1B07AC9C97D42D718D865D3E909258CFD00CCE24AC6E326A164D74DC0B4128928FF32603847
310
2BA13128B1252AC747C6BAB984FC68F0B87FE8960A5C09FE86CFB69FBA01504B0304140006080800CC70623BDBABAAF470010000D40300000C0000006662782F636F72652E786D6CC553D16E823014FD95A6AF4B694182CC941A83FA05FB810A9511A125A5257EFE2E82712ECEB8A7F100CD39F7F69E734AF9FADC366850B6
310
AF8DCE7018308C942E4C59EB2AC3DE1D498AD15A706B8CFB56869196ADCAF00863C12B6B7C374385D14E6907A836A59A41D9F7CA615434B0C8705F7CAA5606D23BA8E84F41278B93AC54100640439DE0BDB320004D43C63716C7C399D30917DCFBBA9CD9BA8469F5B156168B24CED3F7248AC8769F27244EB73B92EED8862C
310
B7F13E0C179B3C8F979C8ECD82BBBABDAA2BAC924E9558448CBD9330242CFA08E3154B5651FCC6D215639C8EE5774DBE2B5F6CF2B5768B68963BB5F5588420E442FC700B1139D4CB01F450C1E918227C2E09DF070D8140C84E1E9AAB8F1340832A9CB13130A5F1376A908D57309505ECF2A0DF179C4E9D30F5B239B87E3823
310
7A79C6F31DE1A8A5AEC08474B03C7837EAE4938639B44E5932B833D2C6B6B279CDC613877FA26EE21F4A2A4C63EC7F29A2F301D1F9F7A0E37D145F504B0304140006080800CC70623B9C113CC27E0000009D0000000B0000006662782F636E782E786D6C4DCCDF0A83201C86E15B91DFB94BFB330DD428C8FB886521330DA7
310
6397BF1A1DECE883878F57749FCDA1B7892F1BBC047A23808C7F84D9FA55424E0BE6803A256208E9EF06C84F9B91703228B1C690F78B66B34CD9A5439DF5CF0BFBF65E35BCA1B8D6A5C6F540381E886698B5741C695F9503EBA150A2F8958E3DC3EA0B504B0304140006080800CC70623B7DF2F77C2A010000120200003100
310
00006662782F41393633353835312D344632462D344230382D423046372D3739314545314133324237412F636F72652E786D6C8D51DB8EC22014FC15C2939B0D2DB4B45643319AE817EC0F6041255A68B86CFCFC856D4D76DF7CE190393373060EDB3DC707F856CE6B6B7A480A0C81328395DA5C7B18C3057510EC3873D686
310
3F34088C18550F330C39BB3A1BA7051AAC09CA84841A2BD5020AEF55806078A44B0FFD7053A328440C89E1EFC52486BBB8AA8214A99D789CF9E05200300FC927E4FB4D5B375D43103D5527440FB843077C5AA3F5861C8F645F5787F59E95B390B318B55CE45AA638FAA2957BD7248B390B7A7CC51F9C124149C82B8C378810
310
84AB2F42B7B8DD56F413775B8C5999E9FF4471926F8AA236A1AE96B8B3CC434E5839373893369E1FAF30EA395917409EB7F26AF8801C171837A4A6AC9C89E9F9C9B1A58BA30FD6A5EF5DDDCF894B9AD9B6A59C957943A9FCAE2FD5BC4DFE03504B0304140006080800CC70623BAD7543B64E01000033030000300000006662
310
782F41393633353835312D344632462D344230382D423046372D3739314545314133324237412F636E782E786D6CD593CD6EC32010845F0571AD6CE3D48AD20813A9873E410FBD12D82434182C7EAAE6EDBB2424CD25871E7B41D6EC30B3FA84F9E67BB2E40B4234DE8DB46F1925E094D7C6ED479AD3AE5951B2113C789FEE
310
6C943839C1488B4C05DF079FE72A69D8C96C13AAD6B8631503449F83828872B949AC57D26200B826A308D316B4064D6E46FCDA41C05550DC9E483A00797BFD207EFB092A45DE9514C1BBD22178396BD39D891265658C238DEA00936C654E5E433CB65A26D9F6EDB5EBC14EBF49A45CB856E66048291F6939A9A81BB5C89177
310
38143CA680F4AA299D66A042CEB3354A2684DC9D8D178FE0D9B8B41CAAD720F880EE7EF93C0C18769E099ECC04D5A102C8049A8A05632F4DDF376CF1DE0F6BB65C2F8627B65A33C6BB62177CEBBDAD973006829F89F22E814B54F4BC2BE347F8AA8F681390B50FA73F804400B5F542E796F19FF974E7F78DB802FE05E20750
310
4B0304140006080800CC70623BE75B7789680500003C100000340000006662782F41393633353835312D344632462D344230382D423046372D3739314545314133324237412F6F626A656374732E786D6CAD575B8F9B3818FD2B887D06C22499CB8AA1CA655245D5B455A356FB305264C061D8018C6C3393D95FBFC7600890
310
A4CD5EF210B0B1BFEBF98E3F7B1FF6596ABC522E1296DF9BAE3D320D9A872C4AF2F8DE2CE5CEBA358D0FBEC719939D65A691938CDE9B6ADAF4BD98B3B2D05311DD91329583D9D5FC0F438434A7A611A644887B5384CF34233629258BA878B12322891DEFF6B66BD70BFB62634E8AE781D082709A4B588AF91C528CDA28B73F
310
1C998EEF39EABBEFA97FBD6A7C7E9553F9D3D79FE442923C3C523610337627CB87ABE99D359D4CC6D6E4FACAB5E6ABF9D2726FC6A3C5F56271377BB88362213924694B38DD99FE47C48627A1E7D49F5A8BB5E1A74C0A599ED3B0F21F1E56366B89112D681E218F0915D0D6F17AD41FBA2A369DCF6335D62ABBD39779D5DDD1
310
11D4D8DE3CBB96B2E04FB8202E41051754A1AA8E8F76B4C6DFE810B580B1547F4B84911149794252234D024EF8BBE963A95AE27B3D310A9D5C215C7960FAEE415ED75694C6AFB17BCACA5D99A60A9AA65F217B0BFC53292ACB92BF283FAD0D3621576592CB5BED907C2FA8E9DF794E35E97BEA31BED21FEB401ABB94C44839
310
DCACBF0E1C5DA8DA5B2F4DFFD32AD86F543D9E565E7056502E157C00AD2671CD534549AB752FCA9CDA00677A313F04E51B22FF19E57B300579E3C97EB29F682D92935CEC18CF901B7B54FD8C51F362B56FC72FE0B3C1EAE335EDCCBF5AEC39ADB17DC238973F804BA5E6F6BFE7AF1FB32E523BE9F3BD571418E3631DCA4D48
310
5250CF639223210A9446CA30052EDF057BD35F8329C1ECD84552BF0DC8D18BE7BCE23BFE6BD960AB4A7DE79923A103BEBD80F911CBAA2C60DB19B01CF164A5583B772EE6D3FFA56666CBCDA74DC97724A48F9A58967497E489C4D979006FD7A05E227A1EBDD0F737C623387A9C844D3709995625106D157315F8B8392CD4E0
310
A0B9A720C4BE9829CEF37EA1E13111214D53925356365ADA634861B52519DD27A00AEB808EAF0628E6F435519D446F45CF2C9CF5214F0A15B2F6D06B79DA3EE3CBF7F56780D2F4E7EF73A0F5E5B02A38D07DC852C6B7C1FBB6664213E0C39E3EBA7FF4E1AD23EA2829407C85E586727488B751B2DB9502BC7B228A3FD68B6E
310
A65A22397E690AA8D158D7E404EC8CDA235CC3B7D1898680131CEC2CDF2638C65196279577750F15884AEE19F94199155B92B13297978469D4F8D358DF0AEF7631E28DC8F0D9F437D5D39A83B2231A1D52D543813A824EF8D44BCFF2FA6A31BD1E8DAD87F1CCB526B3879935BF59CDADD5C37479BB1CDD4CA7B3556B516589
310
EF352754B706114D9C885EC9131DE6EFEB43D99AFE2391C2F958179413D7CFEF6B1B6DB1E7600F00DE6E5C67454A339A4BA2E0FBA85ED26F045D454F463DBFCE484C2F90F2E5E3666003662ED8F755951A7D1BECD5B30B550B2785C8E7320B7292A4838DDA71BBC863ED7613CAF659337A3354231D4FF4A182A54904C2898C
310
98B28C4AD0CE056CCF332A80986E571EE9DBC305BB5FEB7E509220A58D25CF042D712A806AC0AD0C657FDEF80D2D9CEAA2EE4D1C76F60BFE74219A06527D6F82DF6412526107381E55E353090704D085B52408A8913C4ED159D79BDA71BB4BC506F4831350EB6F975CD22D69BF7AC49B91A2C0A9DDA3D5CA36AD20FC478E37
310
E61844E2352865EBCB61A275A65283CAAA9DD27703B4102F5AF51EF5F573B75CBB5AD38BC845F7A49F82A0966A49C2E3EA5EA0ECD326CD965F1DB402C6FA8B51A4658C5C5E2EC9E214602E55810345408596591009A82E7E7FFACA19EEA299B14A0081A705CB3296EBC14CDF658DCD336EA6D1136881AAEB87B81AB9EE53D5
310
F5EB8BC8362082DA24122F98680A4E7930C01A0079749CEA14382A0783E5EBA5A10F8C098456A03D6A4AEB6BB881E2513747552A5DB22C7EDAF83BD5528081A365F7FF06504B0304140006080000CC70623B000000000000000000000000350000006662782F41393633353835312D344632462D344230382D423046372D37
310
39314545314133324237412F76657274696365732E62696E504B0304140006080800CC70623BF270F1330600000004000000360000006662782F41393633353835312D344632462D344230382D423046372D3739314545314133324237412F747269616E676C65732E62696E636660600000504B0304140006080000CC7062
310
3B000000000000000000000000370000006662782F41393633353835312D344632462D344230382D423046372D3739314545314133324237412F617474726962757465732E62696E504B0304140006080800CC70623B08DA0BD19000000041010000360000006662782F41393633353835312D344632462D344230382D4230
310
46372D3739314545314133324237412F6469726563746F72792E786D6C858F410AC3201045AF22B36F53E9A60B35CBEEBAE80D244E44489C6234F4F835464A48035D0DF398FF9F8AF63D0E6CC63039F212F8F9020C7D47C6792B21C5FE7403D62A1188E2E60C98D7234A5830286103A55745067B9D86B8A3CF9C7F90C11DE6
310
07FB144396D7B6A82D282E9A152AD114D5EF2CB866EEE831B8EEA07A7BB5A8D7D61A2BAAEB7FD5F70921FF497D00504B0304140006080800CC70623BEDD1DC58FD000000A00100003B0000006662782F41393633353835312D344632462D344230382D423046372D3739314545314133324237412F7265736F75726365732F
310
636F72652E786D6C8D504B6E833010BD0A9A6D65B00922041947112427E8052C33A156828DFCA97AFC9A40A576D7CDCCE87D344F8F9FBFE667F689CE6B6B3A6039850C8DB2A336530731DC4903D95970676DF82583CCC8193B5861107C72362E3BA4AC096842428D1D7107A5F7182053CF7474E0D507CE32973124857FE48B
310
540F3961CEF244279DE03EB81420DB9EAC1384436FA353E879B1B182C7A8C75DA3C7F453DF353A1075D537A7BA6464B8F535A99AE14A9A2BBD90E350DD183B5CFABE3AF262350B1EF4FC9351399401471025A527C218A1E53BAB5A5AB765F5469B96525EACF23FA6B88CFF34456DC2A1DCE36E360F82A5202F42F062ED2BAD
310
579969AFDD8A6F504B010214000A0000080000CC70623B3DEE336E79000000790000001B00000000000000000000000000000000006175746F6465736B2D64657369676E2D7061636B6167652E786D6C504B01021400140006080800CC70623BD486FD9CA0000000F40000001300000000000000000000000000B20000005B
310
436F6E74656E745F54797065735D2E786D6C504B01021400140006080800CC70623B853B8169EB0000007C010000080000000000000000000000000083010000636F72652E786D6C504B01021400140006080800CC70623B55019EA25F0000007C000000070000000000000000000000000094020000636E782E786D6C504B
310
01021400140006080800CC70623BDBABAAF470010000D40300000C00000000000000000000000000180300006662782F636F72652E786D6C504B01021400140006080800CC70623B9C113CC27E0000009D0000000B00000000000000000000000000B20400006662782F636E782E786D6C504B01021400140006080800CC70
310
623B7DF2F77C2A010000120200003100000000000000000000000000590500006662782F41393633353835312D344632462D344230382D423046372D3739314545314133324237412F636F72652E786D6C504B01021400140006080800CC70623BAD7543B64E010000330300003000000000000000000000000000D2060000
310
6662782F41393633353835312D344632462D344230382D423046372D3739314545314133324237412F636E782E786D6C504B01021400140006080800CC70623BE75B7789680500003C10000034000000000000000000000000006E0800006662782F41393633353835312D344632462D344230382D423046372D3739314545
310
314133324237412F6F626A656374732E786D6C504B01021400140006080000CC70623B0000000000000000000000003500000000000000000000000000280E00006662782F41393633353835312D344632462D344230382D423046372D3739314545314133324237412F76657274696365732E62696E504B01021400140006
310
080800CC70623BF270F133060000000400000036000000000000000000000000007B0E00006662782F41393633353835312D344632462D344230382D423046372D3739314545314133324237412F747269616E676C65732E62696E504B01021400140006080000CC70623B0000000000000000000000003700000000000000
310
000000000000D50E00006662782F41393633353835312D344632462D344230382D423046372D3739314545314133324237412F617474726962757465732E62696E504B01021400140006080800CC70623B08DA0BD1900000004101000036000000000000000000000000002A0F00006662782F41393633353835312D344632
310
462D344230382D423046372D3739314545314133324237412F6469726563746F72792E786D6C504B01021400140006080800CC70623BEDD1DC58FD000000A00100003B000000000000000000000000000E1000006662782F41393633353835312D344632462D344230382D423046372D3739314545314133324237412F7265
310
736F75726365732F636F72652E786D6C504B0506000000000E000E0080040000641100000000
  0
XRECORD
  5
2E7
102
{ACAD_REACTORS
330
3A
102
}
330
3A
100
AcDbXrecord
280
     1
102
MATERIAL
148
0.0
149
0.0
149
0.0
 93
        0
 94
       63
282
     0
 72
     1
 77
     1
171
     1
175
     1
179
     1
273
     0
  0
XRECORD
  5
3B
102
{ACAD_REACTORS
330
3A
102
}
330
3A
100
AcDbXrecord
280
     1
 70
     1
 90
429727718
  1
30362254-06B7-45E0-A893-8CFA70E3D6BC
310
504B03040A0000080000CC70623B3DEE336E79000000790000001B0000006175746F6465736B2D64657369676E2D7061636B6167652E786D6C3C3F786D6C2076657273696F6E3D22312E302220656E636F64696E673D227574662D3822203F3E3C666F726D6174733E3C666F726D61743E687474703A2F2F736368656D612E
310
6175746F6465736B2E636F6D2F64657369676E2D7061636B6167652F323030393C2F666F726D61743E3C2F666F726D6174733E504B0304140006080800CC70623BD486FD9CA0000000F4000000130000005B436F6E74656E745F54797065735D2E786D6C7D8EC10E82300C865F65E91D8A1E8C310C0EEA1BF002731658846E
310
D98AC1B77784ABF1D8FE5FBFBF75BBCE937A534CCEB38643598122B6FEE978D0B0485F9C41B54DDD7D022595594E1A469170414C76A4D9A4D207E29CF43ECE46F218070CC6BECC4078ACAA135ACF422C856C0E68EA1BF5669944DDD7BCDE7B1F8E415D77AECB980613C2E4AC91FC167A2B244592486606FC29C8FD7F045B9A
310
EF7053A7E60B504B0304140006080800CC70623B1EC5D7A3EB0000007C01000008000000636F72652E786D6C8D90416EC3201045AF82665B6103C6756C6122AB4D4ED00B204C5C94182C03558F5F9C3852BBEB6A467FFE9B197D71FC9E6FE8CBACC17AD7032D0820E3B41FAD9B7A48F1820F808E52ACDEC75F36404ECDA687
310
4D0629A6D5A76597B477D1B89855E747B38B2A041301E95B6E7A08FAD3CCAA50296647B8168BD2573599823EBB0CA76447F43862C7BCCF5EAC59410E4DDD9C7973C2755553CCCFA4C603E3040F1565ED3B1FDE4E432BCA0D9622DAF9795FAF464533826484B498524CD807E51D79ED187F21878E10516EF63F505AC67F42C9
310
BA58B1FDDD071640D2FCC87D2045B96591CB3DA85CB7DCE40F504B0304140006080800CC70623B55019EA25F0000007C00000007000000636E782E786D6C4DCB3B0E80201045D1AD90E915ED2CF8AC45050C11660C8261F98AB1B07AC9C97D42D718D865D3E909258CFD00CCE24AC6E326A164D74DC0B4128928FF32603847
310
2BA13128B1252AC747C6BAB984FC68F0B87FE8960A5C09FE86CFB69FBA01504B0304140006080800CC70623B8C9102E971010000D40300000C0000006662782F636F72652E786D6CC5535B6E833010BC8AE5DF0A6C08340F1947A84D4ED00B38C6A128602363A31CBFCB234A53A551FA553EC09AD9F5CE8C31DB9E9B1AF5CA
310
7695D1198E428A91D2D214952E33ECDD315861B4E5CC1AE3BE9561A445A3323CC098B3D21ADFCE9034DA29ED00D5A6503328BA4E398C640D8B0C77F253352214DE4145770A5B214FA2546114020D759C75CE8200340D19DE981F0F6746269C33EFAB6266AB02A655C74A59CCF365BADC27CB5D902ED22848F6340DF238A141
310
BE88E2F57B92BFEDF23523433367AE6A2EEAA455C2A902F398D2751045018D3FA264435F3771F242571B4A1919CA6F9A7C5B3CD9E42BED16F12C776AEB308F40C848FC700B1139D4891EF410CEC810227CC6846F8386402064270EF5C5C709A05E49676C024C61FC95EA45ED154CA5211D1FF4FB8291A913A68E9B83EBBB33
310
E2A7673CDE118E5AE8124C0807CB8377834E366998436B950D7A7746DAD846D4CFD978E0F04FD455FC5D49D2D4C6FE9722321F10997F0F32DC47FE05504B0304140006080800CC70623BFFEA85907E0000009D0000000B0000006662782F636E782E786D6C4DCCD10A83201886E15B91FFDC95D95A811AB6F23E625948A6C3
310
E9D8E5AF46073BFAE0E1E365ED67B3E8ADC3CB78C7815C7240DA3DFC64DCC221C519D7805AC182F7F1EF06C88D9BE6703008B6049F9E274D7A1E938DBB5AE3D6131B2589BA0D3D965551E0B2EA732C9B9A624AAEB41E3A557677029960D9AFB4EF11165F504B0304140006080800CC70623B4FEEA4082C0100001202000031
310
0000006662782F39464131463745442D413632322D343644302D413938332D3331353338454246344243312F636F72652E786D6C8D515B6EC32010BC0AE2AB55850DD871ED0813254D72825EC00192A2C460F1A872FC42ED48ED5F7E00CDCECCCEB26C731F6FE05B39AFADE921293004CA082BB5B9F43086336A21D870E6AC
310
0D7F68109861543DCC30E4ECE26C9C164858139409093556AA051CBC570102714B8F1E7AF1A5C6A11862480C7F2DA6415C878B2A4891CA89C7990F2E050073937C42DE1DB7E4F87ED8A36D4329AA9B3D46DBAEAD504556557BD81DEBDD0761E52CE42C462D17B996298E3E6BE59E35C962CE821E1FF18553435012728A7187
310
0841987E927A8D9B35ADDF70BBC6989599FE4F1427F9A4286A132ABAC49D651EF234CD5CE04CDA78BA3DC2A8FB645D00B9DF8B57E215725C60BCA2A463E54C4CE327C7A65E1C7DB02E7DEFCBF594B864C5CA6CDBD49C957943E9FA5D5FBAF336F90F504B0304140006080800CC70623BAD7543B64E01000033030000300000
310
006662782F39464131463745442D413632322D343644302D413938332D3331353338454246344243312F636E782E786D6CD593CD6EC32010845F0571AD6CE3D48AD20813A9873E410FBD12D82434182C7EAAE6EDBB2424CD25871E7B41D6EC30B3FA84F9E67BB2E40B4234DE8DB46F1925E094D7C6ED479AD3AE5951B2113C
310
789FEE6C943839C1488B4C05DF079FE72A69D8C96C13AAD6B8631503449F83828872B949AC57D26200B826A308D316B4064D6E46FCDA41C05550DC9E483A00797BFD207EFB092A45DE9514C1BBD22178396BD39D891265658C238DEA00936C654E5E433CB65A26D9F6EDB5EBC14EBF49A45CB856E66048291F6939A9A81BB5
310
C8917738143CA680F4AA299D66A042CEB3354A2684DC9D8D178FE0D9B8B41CAAD720F880EE7EF93C0C18769E099ECC04D5A102C8049A8A05632F4DDF376CF1DE0F6BB65C2F8627B65A33C6BB62177CEBBDAD973006829F89F22E814B54F4BC2BE347F8AA8F681390B50FA73F804400B5F542E796F19FF974E7F78DB802FE05
310
E207504B0304140006080800CC70623B16AB87BA640500003C100000340000006662782F39464131463745442D413632322D343644302D413938332D3331353338454246344243312F6F626A656374732E786D6CAD575B6FA33818FD2B887DE6924B3BED8A326A92B68A663B534DD4D13E548A0C38942D60649B369D5FBFC7
310
600890A493BDE42160637FD7F31D7FF63E6FB3D478A55C242CBF3247B66B1A340F5994E4F19559CA8D75611A9F7D8F33263BCB4C232719BD32D5B4E97B316765A1A722BA21652A07B3B7B33F0D11D29C9A46981221AE4C113ED38CD8A4942CA2E2C58E882476BCD9DA23BB5ED8171B73523C0F841684D35CC252CCE79062D4
310
468DFA43D7747CCF51DF7D4FFDEB5593E3AB9CCA9FBEFE241792E4E19EB28198C968BAB8199F5D5A67D3E9C49A9E8F47D6EC76B6B0469F26EEFC7C3EBFBCBEB98462213924694B38DD98FE1D62C393D073EA4FADC5DAF04326852CCF6958F90F0F2B9BB5C48816348F90C7840A68EB78EDF68723159BCEE7891A6B95DDE9D3
310
BCEAEEE8086A6C6F9E5D4B59F0175C10A7A0820BAA5055C7473B5AE3CFDD452D602CD5DF12616444529E90D448938013FE6EFA58AA96F85E4F8C42275708571E98FE6827AF6B2B4AE3D7D83D64E5A64C53054DD3AF90BD06FEA9149565C94FCA0F6B834DC85599E4F2423B24DF0B6AFA979E534DFA9E7A4CC6FA631D486393
310
921829879BF5D781A373557BCB85E97FB90DB62B558F8795179C15944B051F40AB495CF35451D26A4727654E6D8033BD98EF82F21D91FF8AF2DD9982BCF1643BDD4EB516C9492E368C67C88DED563FC36D5EACF66DFF057C3658BDBFA69DF9578B3DA735B64F18C7F20770A9D45CFCF7FCF563D6456A277DBEF78A02637CA2
310
43B90A490AEAB94F72244481D24819A6C0E59B606BFA4B3025981DBB48EAB701D97BF19C577CC77F2D1B6C55A9EF3C732474C0B727303F625995056C3B02963D9EAC146BE78EC5FCEC7FA999EBC5EACBAAE41B12D27B4D2C0BBA49F244E2ECDC81B76B502F113D8F5EE8FB1BE3111CDD4FC2AA9B844CAB1288B68AB90A7CDC
310
1C166AB0D3DC5310625FCC14E779BFD0709F8890A629C9292B1B2DED31A4B0DA928CEE135085754027E3018A397D4D5427D15BD1330B677DC8934285AC3DF45A9EB68FF8F2B8FC0A509AFEECFD0FF2DE25CC6047F7214B195F07EFEB9A094D800F7BFAE8FED187B78EA8A3A400F115961BCAD1215E47C966530AF0EE8128FE
310
58CEBB996A8964FFA529A046635D9353B0336A8F700DDF46271A024E70B0B37C9DE01847591E54DED53D54202AB947E4076556AC49C6CA5C9E1226B7F1A7B1BE15DEED62C41B91E1B3E9AFAAA735036547343A925075041DF0A9979E893B391F8FCFA6967B3EFB644DCF6E5CEBFAE272625DCC6FAF3FB93793C5F90CE1EF57
310
407342756B10D1C489E8953CD1617E5CEECAD6F4EF8914CE5D5D504E5C3F1F9736DA62CFC11E00BCDDB8CC8A9466349744C1F75EBDA4DF09BA8A9E8C7A7E9991989E20E5DBDD6A6003664ED8F7A04A8DBE0DF6EAD9B9AA858342E47399053949D2C146EDB85DE4B176BB0965FBAC19BD19AA918E27FA50C1D22402E144464C
310
59462568E704B6E71915404CB72B8FF4EDE184DDAF753F284990D2C6926782963815403548A70C657FDEF80D2D9CEAA2AE4C1C76F60BFE74219A06527D6582DF6412526107381E55E353090704D085B52408D0933C4ED159D79BDA71BB4BC506F4831350EB6F979CD22D69BF7AC49B91A2C0A9DDA3D5CA36AD20FC478E37E6
310
1844E2352865EBCB6EA275A652E3836BE04EFB400BF1A2556F515F1FBB35B2AB35BD889C744FFA1004B5544B121E57F70215746DD2F5E2C1412B602CBF19455AC6C8E5E9922C4E01E65215385004546899059180EAFCF7A707CE7017CD8CDB0410789AB32C63B91E5CEBBBACB17AC6CD347A022D5075FD106377347AAABA7E
310
7D11590744509B44E205134DC1290F06580320F78E537D3D73540E06CB970B431F185308AD40BBD794D6D77003C5A36E8EAA54BA64597CD8F83BD552A080A365F7FF06504B0304140006080000CC70623B000000000000000000000000350000006662782F39464131463745442D413632322D343644302D413938332D3331
310
353338454246344243312F76657274696365732E62696E504B0304140006080800CC70623BF270F1330600000004000000360000006662782F39464131463745442D413632322D343644302D413938332D3331353338454246344243312F747269616E676C65732E62696E636660600000504B0304140006080000CC70623B
310
000000000000000000000000370000006662782F39464131463745442D413632322D343644302D413938332D3331353338454246344243312F617474726962757465732E62696E504B0304140006080800CC70623B08DA0BD19000000041010000360000006662782F39464131463745442D413632322D343644302D413938
310
332D3331353338454246344243312F6469726563746F72792E786D6C858F410AC3201045AF22B36F53E9A60B35CBEEBAE80D244E44489C6234F4F835464A48035D0DF398FF9F8AF63D0E6CC63039F212F8F9020C7D47C6792B21C5FE7403D62A1188E2E60C98D7234A5830286103A55745067B9D86B8A3CF9C7F90C11DE607
310
FB144396D7B6A82D282E9A152AD114D5EF2CB866EEE831B8EEA07A7BB5A8D7D61A2BAAEB7FD5F70921FF497D00504B0304140006080800CC70623B0D6EF93BFE000000A00100003B0000006662782F39464131463745442D413632322D343644302D413938332D3331353338454246344243312F7265736F75726365732F63
310
6F72652E786D6C8D50596E833010BD0A9ADFCA60B334011947A8694ED00B586642AC041B79A97AFC9A40A5F6AF3F33A3B7689E1E3F7DCD8FEC139DD7D6F4C0720A191A65476DA61E62B892236427C19DB5E1970C322367EC618541F0C9D9B8EC90B226A009093576C41D94DE63804C3DD2D18357379C652E63480A7FCF17A9
310
EE72C29CE5894E3AC17D702940B63D59270887DE46A7D0F36263058F518FBB468FE9A7BE6A7420864373B8D4873369AA8691FA421B3294352543C5CAF65C0F6FEF43CB8BD52C78D0F34F46E550061C419494B6843142CB0F5677F4B52BEB177AEC28E5C52AFF638ACBF84F53D42654E51E77B379102C05791282176B5F693D
310
CB4C7BED567C03504B010214000A0000080000CC70623B3DEE336E79000000790000001B00000000000000000000000000000000006175746F6465736B2D64657369676E2D7061636B6167652E786D6C504B01021400140006080800CC70623BD486FD9CA0000000F40000001300000000000000000000000000B20000005B
310
436F6E74656E745F54797065735D2E786D6C504B01021400140006080800CC70623B1EC5D7A3EB0000007C010000080000000000000000000000000083010000636F72652E786D6C504B01021400140006080800CC70623B55019EA25F0000007C000000070000000000000000000000000094020000636E782E786D6C504B
310
01021400140006080800CC70623B8C9102E971010000D40300000C00000000000000000000000000180300006662782F636F72652E786D6C504B01021400140006080800CC70623BFFEA85907E0000009D0000000B00000000000000000000000000B30400006662782F636E782E786D6C504B01021400140006080800CC70
310
623B4FEEA4082C0100001202000031000000000000000000000000005A0500006662782F39464131463745442D413632322D343644302D413938332D3331353338454246344243312F636F72652E786D6C504B01021400140006080800CC70623BAD7543B64E010000330300003000000000000000000000000000D5060000
310
6662782F39464131463745442D413632322D343644302D413938332D3331353338454246344243312F636E782E786D6C504B01021400140006080800CC70623B16AB87BA640500003C1000003400000000000000000000000000710800006662782F39464131463745442D413632322D343644302D413938332D3331353338
310
454246344243312F6F626A656374732E786D6C504B01021400140006080000CC70623B0000000000000000000000003500000000000000000000000000270E00006662782F39464131463745442D413632322D343644302D413938332D3331353338454246344243312F76657274696365732E62696E504B01021400140006
310
080800CC70623BF270F133060000000400000036000000000000000000000000007A0E00006662782F39464131463745442D413632322D343644302D413938332D3331353338454246344243312F747269616E676C65732E62696E504B01021400140006080000CC70623B0000000000000000000000003700000000000000
310
000000000000D40E00006662782F39464131463745442D413632322D343644302D413938332D3331353338454246344243312F617474726962757465732E62696E504B01021400140006080800CC70623B08DA0BD190000000410100003600000000000000000000000000290F00006662782F39464131463745442D413632
310
322D343644302D413938332D3331353338454246344243312F6469726563746F72792E786D6C504B01021400140006080800CC70623B0D6EF93BFE000000A00100003B000000000000000000000000000D1000006662782F39464131463745442D413632322D343644302D413938332D3331353338454246344243312F7265
310
736F75726365732F636F72652E786D6C504B0506000000000E000E0080040000641100000000
  0
XRECORD
  5
2DE
102
{ACAD_REACTORS
330
19
102
}
330
19
100
AcDbXrecord
280
     1
102
MATERIAL
148
0.0
149
0.0
149
0.0
 93
        0
 94
       63
282
     0
 72
     1
 77
     1
171
     1
175
     1
179
     1
273
     0
  0
XRECORD
  5
1A
102
{ACAD_REACTORS
330
19
102
}
330
19
100
AcDbXrecord
280
     1
270
     1
271
     1
  0
XRECORD
  5
1B
102
{ACAD_REACTORS
330
19
102
}
330
19
100
AcDbXrecord
280
     1
270
     1
271
     1
  0
XRECORD
  5
1C
102
{ACAD_REACTORS
330
19
102
}
330
19
100
AcDbXrecord
280
     1
 70
     0
 90
1673772943
  1
ECE7A1D2-D628-4531-984C-D00F80459256
310
504B03040A0000080000CC70623B3DEE336E79000000790000001B0000006175746F6465736B2D64657369676E2D7061636B6167652E786D6C3C3F786D6C2076657273696F6E3D22312E302220656E636F64696E673D227574662D3822203F3E3C666F726D6174733E3C666F726D61743E687474703A2F2F736368656D612E
310
6175746F6465736B2E636F6D2F64657369676E2D7061636B6167652F323030393C2F666F726D61743E3C2F666F726D6174733E504B0304140006080800CC70623BD486FD9CA0000000F4000000130000005B436F6E74656E745F54797065735D2E786D6C7D8EC10E82300C865F65E91D8A1E8C310C0EEA1BF002731658846E
310
D98AC1B77784ABF1D8FE5FBFBF75BBCE937A534CCEB38643598122B6FEE978D0B0485F9C41B54DDD7D022595594E1A469170414C76A4D9A4D207E29CF43ECE46F218070CC6BECC4078ACAA135ACF422C856C0E68EA1BF5669944DDD7BCDE7B1F8E415D77AECB980613C2E4AC91FC167A2B244592486606FC29C8FD7F045B9A
310
EF7053A7E60B504B0304140006080800CC70623BD9DDAED0EC0000007C01000008000000636F72652E786D6C8D90416EC3201045AF82665B61836D9CD8C2444DD39CA01740405C94182C03558F5F9C3852BBEB6A467FFE9B197D7EF89E6EE8CB2CC17A37002D0820E394D7D68D03A478C17B4007C117EFE32F1B20272733C0
310
2A83E0E3E2D3BC49CABB685CCCAAF3DA6CA20CC14440EA969B0182FA34932C648AD911AEC52CD5558EA6A0CF2EC329598D1E47ACCEFBECC59A050463A7EA5833865FEBDD0E37353BE3EE8DBDE3F6786A48D375FBF6CC78B9C282473B3DEFABC5C86834888A900E538A49F5419B9EB47DD5BC907D4F082F57FB1F28CDFA9F50
310
B22ED6D5F6EE030B20687EE43E10BC5CB3C8E51E54AE6B6EE207504B0304140006080800CC70623B55019EA25F0000007C00000007000000636E782E786D6C4DCB3B0E80201045D1AD90E915ED2CF8AC45050C11660C8261F98AB1B07AC9C97D42D718D865D3E909258CFD00CCE24AC6E326A164D74DC0B4128928FF326038
310
472BA13128B1252AC747C6BAB984FC68F0B87FE8960A5C09FE86CFB69FBA01504B0304140006080800CC70623BA24EB22D72010000D40300000C0000006662782F636F72652E786D6CC5535B6E833010BC8AE5DF0A6C5E49888CA3A6694ED00B38E05014B091B1518EDFE511A5A9D228FD2A1F60CDEC7A67C6986DCE4D8D7A
310
69BA4AAB0C073EC548AA5C17952A33ECECD15B61B4E1CC686DBF9561A44423333CC098B3D268D7CE50AE9595CA02AA74216750749DB418E5352C32DCE59FB211BE70162ABA93DF8AFC244AE9073ED050C759670D0840D390E18DF9F1706664C23973AE2A66B62A605A75ACA4C13C4976E1364A12EF355A2EBD384AF65EFA96
310
BC7B8BED2EA6719AAE16FB8491A199335B351775B991C2CA02F390D2D40B028F861F41BCA68B7518BFD0D59A524686F29B26D7164F36B94AD9289CE54E6D1DE6010819891F6E21228B3AD1831EC219194284CF98F06DD01008846CC5A1BEF83801D4CBDC6A1303536877A57A513B0953A94FC707FDBE6064EA84A9E3E6E0FA
310
EE8CF0E9198F7784A316AA0413C2C2F2E0ECA0934D1AE6D05A69BCDE9E91D2A611F573361E38FC1375157F5752AE6B6DFE4B11990F88CCBF0719EE23FF02504B0304140006080800CC70623B408A7D3B7C0000009D0000000B0000006662782F636E782E786D6C4DCCD10A83201886E15B91FFDC552A92A0064DBC8F581632
310
D3703A76F9ABD1C18E3E78F878E5F0D9027ABBFCF2292AE86E2D20171F69F6715550CB827B40839639A5F2770314A7CD293819B45C73AAFB45B35BA61ACAA1C1C7E7855C58C15BC331339661262CC762340413D68D77DA5B42298546CBE6573AF60CEB2F504B0304140006080800CC70623B449FB9BD290100001202000031
310
0000006662782F36394639363044362D344446342D343946362D394244322D3234314243333846323333332F636F72652E786D6C8D515B6EC32010BC0AE22B55850D98B871848994463E412FE002495162B07854397EA176A4F62F3F2C9A9D991D587EB84F37F0AD7D30CEF6905418026DA553C65E7A98E219ED203808EE9D
310
8B7F6810D871D23D2C3014FCE25D9A57483A1BB58D19B54EE9151C43D0110279CB971E06F9A5A7B11A53CC8C70ADE6515EC78BAE4895DB992778883E0700CB907242D17643D7E2538BD869608875438BBAE38922CAC8F1BDD90DB4691A5E2F42C153326A951B95E398B3D1FE599322163C9AE9115F7A3D46ADA0A018778810
310
84E907617BDCEE297BC5BB3DC6BC2EF47FA234AB2745C9D8D8D035EE220B50105E2F0DC1954B9FB747187D9F9D8FA0CCDB042D5FA0C015C65B42DF78BD10F3F3B363CB56C7109DCFDFBBB97E662ED92EB62D13BC2E1BCAE5777DB9966D8A1F504B0304140006080800CC70623BAD7543B64E01000033030000300000006662
310
782F36394639363044362D344446342D343946362D394244322D3234314243333846323333332F636E782E786D6CD593CD6EC32010845F0571AD6CE3D48AD20813A9873E410FBD12D82434182C7EAAE6EDBB2424CD25871E7B41D6EC30B3FA84F9E67BB2E40B4234DE8DB46F1925E094D7C6ED479AD3AE5951B2113C789FEE
310
6C943839C1488B4C05DF079FE72A69D8C96C13AAD6B8631503449F83828872B949AC57D26200B826A308D316B4064D6E46FCDA41C05550DC9E483A00797BFD207EFB092A45DE9514C1BBD22178396BD39D891265658C238DEA00936C654E5E433CB65A26D9F6EDB5EBC14EBF49A45CB856E66048291F6939A9A81BB5C89177
310
38143CA680F4AA299D66A042CEB3354A2684DC9D8D178FE0D9B8B41CAAD720F880EE7EF93C0C18769E099ECC04D5A102C8049A8A05632F4DDF376CF1DE0F6BB65C2F8627B65A33C6BB62177CEBBDAD973006829F89F22E814B54F4BC2BE347F8AA8F681390B50FA73F804400B5F542E796F19FF974E7F78DB802FE05E20750
310
4B0304140006080800CC70623B8D05915C650500003B100000340000006662782F36394639363044362D344446342D343946362D394244322D3234314243333846323333332F6F626A656374732E786D6CAD575B6FA33814FE2B887D06429276DA1565D4266D158D3A339A6846FB502932E050B66023DB74D2FDF5FB190C01
310
9276B2973C046C8ECFF53B17071F77456EBD502133CEAE6CDF9DD81665314F32965ED995DA3A17B6F5310C04E7AA47665B8C14F4CAD6DB7618A48257A5D94AE89654B91AEDDEDDFC61C998326A5B714EA4BCB265FC440BE2924AF184CA6737218AB8E976E7FA6E4338649B0A523E8D98964450A6A029F619B8588D52FE7039
310
B1BD30F0F4F730D0FF866AF6369557DB33949F31A9088B0F848DD8CCFCF9F2767A76E99CCDE733677E3EF59D9BBB9BA5E37F984D16E78BC5E5F5ED25044B25C0C96822E8D60EEFE11B91C581D77CEA34368A1F5329E68CD1B8B61F16D63A1B8E092D294B10C78C4A48EB593D192E7DED9BDEE7995E1B91FDEDD3ACEA9FE831
310
6A756F9F7D4D79F4274C90A7A04248AA51D5F8C718DAE06FB2F75AC4796EBE65D22A88A22223B995679120E2D50E41AA49C260C046A35368846B0BECD0DFF3EBEB8AD4F835768F69B9ADF25C43D30E6B646F807FAA64AD59F61715C7A54127C4AACA98BA3006A9D792DAE165E0D59B61A01FB3A9F9D838D2DAE62445C86166
310
F37564E842E7DE6A69879FEEA2DD5AE7E371E1A5E025154AC307D06A03D73EB5978C58FFA4C8E9033066E0F3BD53BEC1F39F91BE7B55103791EDE6BBB991A2046172CB4581D8B893FA674DDA17A77B3B7C413D1B511FD2743BFF8A38F03A658705E3ADF8015C3A3417FF3D7E439FF591DA0B5F18BC20C1B8981957AE6392A3
310
F43C640C01D1A0B4728E2DD4F26DB4B3C3152A252A3B4E913CEC1C72F012782FF88EFF8637AA552DBEF76408E8A8DE9E50F9E1CB3A2DA0DB1B6039A893B56063DC5B3E3FFB5F72E67AB9FEB4AEC496C4F4C1149625DD662C53E89D7BF0F6151A046260D1337DFDC94502430F83B0EE07A130A224BCAD7DAE1D9FB6CD422FF6
310
920702629C4BB9AE79C12F243C6432A6794E18E5552BA56B431AAB5D91317302B2B071E86C3A42B1A02F999E24061403B5D0EB639195DA655DD3EBEAB4FB862DDF579F014AD0E73C22F99E28DA57FB98E75C6CA2D74D53086D600F4786E0FE3144B771A8A7B900F03594DB8A633CBC49B2EDB69228BB479CF863B5E807AAAB
310
23872F6DFEB4129B949CA33823F58830E86D65621E10047D9DB34D862E8EAC3C2ABC2F7B2C40D67CDFE01F5545B92105AF983AC54D93D69E56FB8E797F88913F898A9FEC705D3F9D1B54EC8426FB500D40A03BD0119B06E1B95DDC7EB8F6975367793EBD70E66733DFB9BC982F9CE564727731999F5D4ECFCE3B8D6A4DC2A0
310
6D50FD148437D110834A64C6CDDF57FBACB5C307A2A477DFE4939736CFEF2B175371E0E10CF0DD1D5C15654E0BCA14D1E87DD02FF93782A162C0A3D95F1524A52770F972BF1EE9809D13CE7DD599467F8ECE9ADD85CE85A34CD45355448C64F9E8A031DC2D596ACC6E5DD93D9B82DE2EF5CAF81363A8E47996A0DE24564A79
310
4115AACE09C55E14540231FDA13C319787134EBF34E3A022514E5B4D9E0826E25C02D5805B15ABE1BEF51B26383D445DD9E875EE33FE4C22DA16427D65A3BCA92CA6D28DD01DF5DC53330704308475351050232CCD31583787BA75774AFB06E5070DD0C8EF484E19968C5D83BA5B90B244D31E54D55A372320FE4786B7EA58
310
44E135AA5467CB7EA333A61683CC6A8C3257034C10CF46F40EF9F5BE59BE5BD30C3C72D235E95D10345C1D45445A5F0BB47E46A5EBE5570F9380B5FA629579952296A773720405982B9DE04011506178964401AA8BDF1FBF0A8EAB6861DD6580C0E38217056766716DAEB2D6FA0917D3E4116581EADB879C4E7CFFB11EFACD
310
3D641311495D92C8676CB409A72D18610D803CE8A626049E8EC1887CB5B44CC39883690DDA8399B4B9855B481E7D71D4A9D22F96E5BB73BF5793020C02137BF837504B0304140006080000CC70623B000000000000000000000000350000006662782F36394639363044362D344446342D343946362D394244322D32343142
310
43333846323333332F76657274696365732E62696E504B0304140006080800CC70623BF270F1330600000004000000360000006662782F36394639363044362D344446342D343946362D394244322D3234314243333846323333332F747269616E676C65732E62696E636660600000504B0304140006080000CC70623B0000
310
00000000000000000000370000006662782F36394639363044362D344446342D343946362D394244322D3234314243333846323333332F617474726962757465732E62696E504B0304140006080800CC70623B08DA0BD19000000041010000360000006662782F36394639363044362D344446342D343946362D394244322D
310
3234314243333846323333332F6469726563746F72792E786D6C858F410AC3201045AF22B36F53E9A60B35CBEEBAE80D244E44489C6234F4F835464A48035D0DF398FF9F8AF63D0E6CC63039F212F8F9020C7D47C6792B21C5FE7403D62A1188E2E60C98D7234A5830286103A55745067B9D86B8A3CF9C7F90C11DE607FB14
310
4396D7B6A82D282E9A152AD114D5EF2CB866EEE831B8EEA07A7BB5A8D7D61A2BAAEB7FD5F70921FF497D00504B0304140006080800CC70623BCA768048FE000000A00100003B0000006662782F36394639363044362D344446342D343946362D394244322D3234314243333846323333332F7265736F75726365732F636F72
310
652E786D6C8D50596E833010BD0A9ADFCA60D600328E9AA639412F609909B1126CE4A5EAF16B0295DABFFECC8CDEA2797AECF8353F924FB44E193D409E5248504B332A3D0D10FC95B4901C39B3C6F85F3248B49871801506CE266BC2B243D2688FDA47549B11775038871E12F988C7004EDE7016A9083E2ADC3D5D84BC8B09
310
D33C8D74D471E6BC8D0192EDC93A815B742658898E651BCB59086ADC356A8C3FD555A1055ED7E7E254D615792D0F075295F585746FF53B694EE78A565DD736979A65AB9933AFE69F8CD2A2F038022F28ED489E135A7CE4554F9BBEA85E68DB53CAB255FEC71496F19FA6A0B42F8B3DEE6673C0F318E4497096AD7DC5F52C33
310
EEB55BFE0D504B010214000A0000080000CC70623B3DEE336E79000000790000001B00000000000000000000000000000000006175746F6465736B2D64657369676E2D7061636B6167652E786D6C504B01021400140006080800CC70623BD486FD9CA0000000F40000001300000000000000000000000000B20000005B436F
310
6E74656E745F54797065735D2E786D6C504B01021400140006080800CC70623BD9DDAED0EC0000007C010000080000000000000000000000000083010000636F72652E786D6C504B01021400140006080800CC70623B55019EA25F0000007C000000070000000000000000000000000095020000636E782E786D6C504B0102
310
1400140006080800CC70623BA24EB22D72010000D40300000C00000000000000000000000000190300006662782F636F72652E786D6C504B01021400140006080800CC70623B408A7D3B7C0000009D0000000B00000000000000000000000000B50400006662782F636E782E786D6C504B01021400140006080800CC70623B
310
449FB9BD290100001202000031000000000000000000000000005A0500006662782F36394639363044362D344446342D343946362D394244322D3234314243333846323333332F636F72652E786D6C504B01021400140006080800CC70623BAD7543B64E010000330300003000000000000000000000000000D20600006662
310
782F36394639363044362D344446342D343946362D394244322D3234314243333846323333332F636E782E786D6C504B01021400140006080800CC70623B8D05915C650500003B10000034000000000000000000000000006E0800006662782F36394639363044362D344446342D343946362D394244322D32343142433338
310
46323333332F6F626A656374732E786D6C504B01021400140006080000CC70623B0000000000000000000000003500000000000000000000000000250E00006662782F36394639363044362D344446342D343946362D394244322D3234314243333846323333332F76657274696365732E62696E504B010214001400060808
310
00CC70623BF270F13306000000040000003600000000000000000000000000780E00006662782F36394639363044362D344446342D343946362D394244322D3234314243333846323333332F747269616E676C65732E62696E504B01021400140006080000CC70623B00000000000000000000000037000000000000000000
310
00000000D20E00006662782F36394639363044362D344446342D343946362D394244322D3234314243333846323333332F617474726962757465732E62696E504B01021400140006080800CC70623B08DA0BD190000000410100003600000000000000000000000000270F00006662782F36394639363044362D344446342D
310
343946362D394244322D3234314243333846323333332F6469726563746F72792E786D6C504B01021400140006080800CC70623BCA768048FE000000A00100003B000000000000000000000000000B1000006662782F36394639363044362D344446342D343946362D394244322D3234314243333846323333332F7265736F
310
75726365732F636F72652E786D6C504B0506000000000E000E0080040000621100000000
  0
XRECORD
  5
1D
102
{ACAD_REACTORS
330
19
102
}
330
19
100
AcDbXrecord
280
     1
270
     1
271
     1
  0
XRECORD
  5
1E
102
{ACAD_REACTORS
330
19
102
}
330
19
100
AcDbXrecord
280
     1
270
     1
271
     1
  0
XRECORD
  5
2F0
102
{ACAD_REACTORS
330
283
102
}
330
283
100
AcDbXrecord
280
     1
102
DISPLAYNAME
  1
Imperial24
102
FLAGS
 90
        0
  0
XRECORD
  5
2F1
102
{ACAD_REACTORS
330
286
102
}
330
286
100
AcDbXrecord
280
     1
102
DISPLAYNAME
  1
Metric50
102
FLAGS
 90
        0
  0
CELLSTYLEMAP
  5
2CC
102
{ACAD_REACTORS
330
46
102
}
330
46
100
AcDbCellStyleMap
 90
        3
300
CELLSTYLE
  1
TABLEFORMAT_BEGIN
 90
        5
170
     1
 91
        0
 92
    32768
 62
   257
 93
        1
300
CONTENTFORMAT
  1
CONTENTFORMAT_BEGIN
 90
        0
 91
        0
 92
      512
 93
        0
300

 40
0.0
140
1.0
 94
        5
 62
     0
340
24
144
6.0
309
CONTENTFORMAT_END
171
     1
301
MARGIN
  1
CELLMARGIN_BEGIN
 40
1.5
 40
1.5
 40
1.5
 40
1.5
 40
4.5
 40
4.5
309
CELLMARGIN_END
 94
        6
 95
        1
302
GRIDFORMAT
  1
GRIDFORMAT_BEGIN
 90
        0
 91
        1
 62
     0
 92
       -2
340
27
 93
        0
 40
1.125
309
GRIDFORMAT_END
 95
        2
302
GRIDFORMAT
  1
GRIDFORMAT_BEGIN
 90
        0
 91
        1
 62
     0
 92
       -2
340
27
 93
        0
 40
1.125
309
GRIDFORMAT_END
 95
        4
302
GRIDFORMAT
  1
GRIDFORMAT_BEGIN
 90
        0
 91
        1
 62
     0
 92
       -2
340
27
 93
        0
 40
1.125
309
GRIDFORMAT_END
 95
        8
302
GRIDFORMAT
  1
GRIDFORMAT_BEGIN
 90
        0
 91
        1
 62
     0
 92
       -2
340
27
 93
        0
 40
1.125
309
GRIDFORMAT_END
 95
       16
302
GRIDFORMAT
  1
GRIDFORMAT_BEGIN
 90
        0
 91
        1
 62
     0
 92
       -2
340
27
 93
        0
 40
1.125
309
GRIDFORMAT_END
 95
       32
302
GRIDFORMAT
  1
GRIDFORMAT_BEGIN
 90
        0
 91
        1
 62
     0
 92
       -2
340
27
 93
        0
 40
1.125
309
GRIDFORMAT_END
309
TABLEFORMAT_END
  1
CELLSTYLE_BEGIN
 90
        1
 91
        1
300
_TITLE
309
CELLSTYLE_END
300
CELLSTYLE
  1
TABLEFORMAT_BEGIN
 90
        5
170
     1
 91
        0
 92
        0
 62
   257
 93
        1
300
CONTENTFORMAT
  1
CONTENTFORMAT_BEGIN
 90
        0
 91
        0
 92
      512
 93
        0
300

 40
0.0
140
1.0
 94
        5
 62
     0
340
24
144
4.5
309
CONTENTFORMAT_END
171
     1
301
MARGIN
  1
CELLMARGIN_BEGIN
 40
1.5
 40
1.5
 40
1.5
 40
1.5
 40
4.5
 40
4.5
309
CELLMARGIN_END
 94
        6
 95
        1
302
GRIDFORMAT
  1
GRIDFORMAT_BEGIN
 90
        0
 91
        1
 62
     0
 92
       -2
340
27
 93
        0
 40
1.125
309
GRIDFORMAT_END
 95
        2
302
GRIDFORMAT
  1
GRIDFORMAT_BEGIN
 90
        0
 91
        1
 62
     0
 92
       -2
340
27
 93
        0
 40
1.125
309
GRIDFORMAT_END
 95
        4
302
GRIDFORMAT
  1
GRIDFORMAT_BEGIN
 90
        0
 91
        1
 62
     0
 92
       -2
340
27
 93
        0
 40
1.125
309
GRIDFORMAT_END
 95
        8
302
GRIDFORMAT
  1
GRIDFORMAT_BEGIN
 90
        0
 91
        1
 62
     0
 92
       -2
340
27
 93
        0
 40
1.125
309
GRIDFORMAT_END
 95
       16
302
GRIDFORMAT
  1
GRIDFORMAT_BEGIN
 90
        0
 91
        1
 62
     0
 92
       -2
340
27
 93
        0
 40
1.125
309
GRIDFORMAT_END
 95
       32
302
GRIDFORMAT
  1
GRIDFORMAT_BEGIN
 90
        0
 91
        1
 62
     0
 92
       -2
340
27
 93
        0
 40
1.125
309
GRIDFORMAT_END
309
TABLEFORMAT_END
  1
CELLSTYLE_BEGIN
 90
        2
 91
        1
300
_HEADER
309
CELLSTYLE_END
300
CELLSTYLE
  1
TABLEFORMAT_BEGIN
 90
        5
170
     1
 91
        0
 92
        0
 62
   257
 93
        1
300
CONTENTFORMAT
  1
CONTENTFORMAT_BEGIN
 90
        0
 91
        0
 92
      512
 93
        0
300

 40
0.0
140
1.0
 94
        2
 62
     0
340
24
144
4.5
309
CONTENTFORMAT_END
171
     1
301
MARGIN
  1
CELLMARGIN_BEGIN
 40
1.5
 40
1.5
 40
1.5
 40
1.5
 40
4.5
 40
4.5
309
CELLMARGIN_END
 94
        6
 95
        1
302
GRIDFORMAT
  1
GRIDFORMAT_BEGIN
 90
        0
 91
        1
 62
     0
 92
       -2
340
27
 93
        0
 40
1.125
309
GRIDFORMAT_END
 95
        2
302
GRIDFORMAT
  1
GRIDFORMAT_BEGIN
 90
        0
 91
        1
 62
     0
 92
       -2
340
27
 93
        0
 40
1.125
309
GRIDFORMAT_END
 95
        4
302
GRIDFORMAT
  1
GRIDFORMAT_BEGIN
 90
        0
 91
        1
 62
     0
 92
       -2
340
27
 93
        0
 40
1.125
309
GRIDFORMAT_END
 95
        8
302
GRIDFORMAT
  1
GRIDFORMAT_BEGIN
 90
        0
 91
        1
 62
     0
 92
       -2
340
27
 93
        0
 40
1.125
309
GRIDFORMAT_END
 95
       16
302
GRIDFORMAT
  1
GRIDFORMAT_BEGIN
 90
        0
 91
        1
 62
     0
 92
       -2
340
27
 93
        0
 40
1.125
309
GRIDFORMAT_END
 95
       32
302
GRIDFORMAT
  1
GRIDFORMAT_BEGIN
 90
        0
 91
        1
 62
     0
 92
       -2
340
27
 93
        0
 40
1.125
309
GRIDFORMAT_END
309
TABLEFORMAT_END
  1
CELLSTYLE_BEGIN
 90
        3
 91
        2
300
_DATA
309
CELLSTYLE_END
  0
XRECORD
  5
2E9
102
{ACAD_REACTORS
330
46
102
}
330
46
100
AcDbXrecord
280
     1
102
ACAD_ROUNDTRIP_PRE2007_TABLESTYLE
 90
      512
 91
        0
  1

 92
      512
 93
        0
  2

 94
      512
 95
        0
  3

  0
XRECORD
  5
2E0
102
{ACAD_REACTORS
330
2DF
102
}
330
2DF
100
AcDbXrecord
280
     1
102
RTVSPost2010Prop28
280
     1
102
RTVSPost2010PropOp28
 70
     1
102
RTVSPost2010Prop29
280
     1
102
RTVSPost2010PropOp29
 70
     1
102
RTVSPost2010Prop30
280
     0
102
RTVSPost2010PropOp30
 70
     1
102
RTVSPost2010Prop31
280
     0
102
RTVSPost2010PropOp31
 70
     1
102
RTVSPost2010Prop32
280
     0
102
RTVSPost2010PropOp32
 70
     1
102
RTVSPost2010Prop33
280
     0
102
RTVSPost2010PropOp33
 70
     1
102
RTVSPost2010Prop34
280
     0
102
RTVSPost2010PropOp34
 70
     1
102
RTVSPost2010Prop35
280
     0
102
RTVSPost2010PropOp35
 70
     1
102
RTVSPost2010Prop36
280
     0
102
RTVSPost2010PropOp36
 70
     1
102
RTVSPost2010Prop37
 90
       50
102
RTVSPost2010PropOp37
 70
     1
102
RTVSPost2010Prop38
140
0.0
102
RTVSPost2010PropOp38
 70
     1
102
RTVSPost2010Prop39
140
1.0
102
RTVSPost2010PropOp39
 70
     1
102
RTVSPost2010Prop40
 90
        0
102
RTVSPost2010PropOp40
 70
     1
102
RTVSPost2010Prop41ColorIndex
 90
       18
102
RTVSPost2010Prop41ColorRGB
 90
        0
102
RTVSPost2010PropOp41
 70
     1
102
RTVSPost2010Prop42
 90
       50
102
RTVSPost2010PropOp42
 70
     1
102
RTVSPost2010Prop43
 90
        3
102
RTVSPost2010PropOp43
 70
     1
102
RTVSPost2010Prop44ColorIndex
 90
        5
102
RTVSPost2010Prop44ColorRGB
 90
      255
102
RTVSPost2010PropOp44
 70
     1
102
RTVSPost2010Prop45
280
     0
102
RTVSPost2010PropOp45
 70
     1
102
RTVSPost2010Prop46
 90
       50
102
RTVSPost2010PropOp46
 70
     1
102
RTVSPost2010Prop47
 90
       50
102
RTVSPost2010PropOp47
 70
     1
102
RTVSPost2010Prop48
 90
       50
102
RTVSPost2010PropOp48
 70
     1
102
RTVSPost2010Prop49
280
     0
102
RTVSPost2010PropOp49
 70
     1
102
RTVSPost2010Prop50
 90
       50
102
RTVSPost2010PropOp50
 70
     1
102
RTVSPost2010Prop51ColorIndex
 90
      256
102
RTVSPost2010Prop51ColorRGB
 90
-16777216
102
RTVSPost2010PropOp51
 70
     0
102
RTVSPost2010Prop52
140
1.0
102
RTVSPost2010PropOp52
 70
     0
102
RTVSPost2010Prop53
 90
        2
102
RTVSPost2010PropOp53
 70
     1
102
RTVSPost2010Prop54
  1
strokes_ogs.tif
102
RTVSPost2010PropOp54
 70
     1
102
RTVSPost2010Prop55
280
     0
102
RTVSPost2010PropOp55
 70
     1
102
RTVSPost2010Prop56
140
1.0
102
RTVSPost2010PropOp56
 70
     1
102
RTVSPost2010Prop57
140
1.0
102
RTVSPost2010PropOp57
 70
     1
102
RTVSPropertyOp0
 70
     1
102
RTVSPropertyOp1
 70
     1
102
RTVSPropertyOp2
 70
     1
102
RTVSPropertyOp3
 70
     1
102
RTVSPropertyOp4
 70
     1
102
RTVSPropertyOp5
 70
     1
102
RTVSPropertyOp6
 70
     1
102
RTVSPropertyOp7
 70
     1
102
RTVSPropertyOp8
 70
     1
102
RTVSPropertyOp9
 70
     1
102
RTVSPropertyOp10
 70
     1
102
RTVSPropertyOp11
 70
     1
102
RTVSPropertyOp12
 70
     1
102
RTVSPropertyOp13
 70
     1
102
RTVSPropertyOp14
 70
     1
102
RTVSPropertyOp15
 70
     1
102
RTVSPropertyOp16
 70
     1
102
RTVSPropertyOp17
 70
     1
102
RTVSPropertyOp18
 70
     1
102
RTVSPropertyOp19
 70
     1
102
RTVSPropertyOp20
 70
     1
102
RTVSPropertyOp21
 70
     1
102
RTVSPropertyOp22
 70
     1
102
RTVSPropertyOp23
 70
     1
102
RTVSPropertyOp24
 70
     1
102
RTVSPropertyOp25
 70
     1
102
RTVSPropertyOp26
 70
     1
102
RTVSPropertyOp27
 70
     1
102
RTVSPropertyOp28
 70
     1
102
RTVSPropertyOp29
 70
     1
102
RTVSPropertyOp30
 70
     1
102
RTVSPropertyOp31
 70
     1
102
RTVSPropertyOp32
 70
     1
102
RTVSPropertyOp33
 70
     1
102
RTVSPropertyOp34
 70
     1
102
RTVSPropertyOp35
 70
     1
102
RTVSPropertyOp36
 70
     1
102
RTVSPropertyOp37
 70
     1
102
RTVSPropertyOp38
 70
     1
102
RTVSPropertyOp39
 70
     1
102
RTVSPropertyOp40
 70
     1
102
RTVSPropertyOp41
 70
     1
102
RTVSPropertyOp42
 70
     1
102
RTVSPropertyOp43
 70
     1
102
RTVSPropertyOp44
 70
     1
102
RTVSPropertyOp45
 70
     1
102
RTVSPropertyOp46
 70
     1
102
RTVSPropertyOp47
 70
     1
102
RTVSPropertyOp48
 70
     1
102
RTVSPropertyOp49
 70
     1
102
RTVSPropertyOp50
 70
     1
102
RTVSPropertyOp51
 70
     0
102
RTVSPropertyOp52
 70
     0
102
RTVSPropertyOp53
 70
     1
102
RTVSPropertyOp54
 70
     1
102
RTVSPropertyOp55
 70
     1
102
RTVSPropertyOp56
 70
     1
102
RTVSPropertyOp57
 70
     1
102
RTVSPropertyOp58
 70
     1
102
RTVSPropertyOp59
 70
     1
102
RTVSPropertyOp60
 70
     1
102
RTVSPropertyOp61
 70
     1
102
RTVSPropertyOp62
 70
     1
  0
XRECORD
  5
2EB
102
{ACAD_REACTORS
330
2EA
102
}
330
2EA
100
AcDbXrecord
280
     1
102
RTVSPost2010Prop28
280
     0
102
RTVSPost2010PropOp28
 70
     1
102
RTVSPost2010Prop29
280
     1
102
RTVSPost2010PropOp29
 70
     1
102
RTVSPost2010Prop30
280
     1
102
RTVSPost2010PropOp30
 70
     1
102
RTVSPost2010Prop31
280
     0
102
RTVSPost2010PropOp31
 70
     1
102
RTVSPost2010Prop32
280
     0
102
RTVSPost2010PropOp32
 70
     1
102
RTVSPost2010Prop33
280
     0
102
RTVSPost2010PropOp33
 70
     1
102
RTVSPost2010Prop34
280
     0
102
RTVSPost2010PropOp34
 70
     1
102
RTVSPost2010Prop35
280
     0
102
RTVSPost2010PropOp35
 70
     1
102
RTVSPost2010Prop36
280
     0
102
RTVSPost2010PropOp36
 70
     1
102
RTVSPost2010Prop37
 90
       50
102
RTVSPost2010PropOp37
 70
     1
102
RTVSPost2010Prop38
140
0.0
102
RTVSPost2010PropOp38
 70
     1
102
RTVSPost2010Prop39
140
1.0
102
RTVSPost2010PropOp39
 70
     1
102
RTVSPost2010Prop40
 90
        0
102
RTVSPost2010PropOp40
 70
     1
102
RTVSPost2010Prop41ColorIndex
 90
       18
102
RTVSPost2010Prop41ColorRGB
 90
        0
102
RTVSPost2010PropOp41
 70
     1
102
RTVSPost2010Prop42
 90
       50
102
RTVSPost2010PropOp42
 70
     1
102
RTVSPost2010Prop43
 90
        3
102
RTVSPost2010PropOp43
 70
     1
102
RTVSPost2010Prop44ColorIndex
 90
        5
102
RTVSPost2010Prop44ColorRGB
 90
      255
102
RTVSPost2010PropOp44
 70
     1
102
RTVSPost2010Prop45
280
     0
102
RTVSPost2010PropOp45
 70
     1
102
RTVSPost2010Prop46
 90
       50
102
RTVSPost2010PropOp46
 70
     1
102
RTVSPost2010Prop47
 90
       50
102
RTVSPost2010PropOp47
 70
     1
102
RTVSPost2010Prop48
 90
       50
102
RTVSPost2010PropOp48
 70
     1
102
RTVSPost2010Prop49
280
     0
102
RTVSPost2010PropOp49
 70
     1
102
RTVSPost2010Prop50
 90
       50
102
RTVSPost2010PropOp50
 70
     1
102
RTVSPost2010Prop51ColorIndex
 90
      256
102
RTVSPost2010Prop51ColorRGB
 90
-16777216
102
RTVSPost2010PropOp51
 70
     0
102
RTVSPost2010Prop52
140
1.0
102
RTVSPost2010PropOp52
 70
     0
102
RTVSPost2010Prop53
 90
        2
102
RTVSPost2010PropOp53
 70
     1
102
RTVSPost2010Prop54
  1
strokes_ogs.tif
102
RTVSPost2010PropOp54
 70
     1
102
RTVSPost2010Prop55
280
     0
102
RTVSPost2010PropOp55
 70
     1
102
RTVSPost2010Prop56
140
1.0
102
RTVSPost2010PropOp56
 70
     1
102
RTVSPost2010Prop57
140
1.0
102
RTVSPost2010PropOp57
 70
     1
102
RTVSPropertyOp0
 70
     1
102
RTVSPropertyOp1
 70
     1
102
RTVSPropertyOp2
 70
     1
102
RTVSPropertyOp3
 70
     1
102
RTVSPropertyOp4
 70
     1
102
RTVSPropertyOp5
 70
     1
102
RTVSPropertyOp6
 70
     1
102
RTVSPropertyOp7
 70
     1
102
RTVSPropertyOp8
 70
     1
102
RTVSPropertyOp9
 70
     1
102
RTVSPropertyOp10
 70
     1
102
RTVSPropertyOp11
 70
     1
102
RTVSPropertyOp12
 70
     1
102
RTVSPropertyOp13
 70
     1
102
RTVSPropertyOp14
 70
     1
102
RTVSPropertyOp15
 70
     1
102
RTVSPropertyOp16
 70
     1
102
RTVSPropertyOp17
 70
     1
102
RTVSPropertyOp18
 70
     1
102
RTVSPropertyOp19
 70
     1
102
RTVSPropertyOp20
 70
     1
102
RTVSPropertyOp21
 70
     1
102
RTVSPropertyOp22
 70
     1
102
RTVSPropertyOp23
 70
     1
102
RTVSPropertyOp24
 70
     1
102
RTVSPropertyOp25
 70
     1
102
RTVSPropertyOp26
 70
     1
102
RTVSPropertyOp27
 70
     1
102
RTVSPropertyOp28
 70
     1
102
RTVSPropertyOp29
 70
     1
102
RTVSPropertyOp30
 70
     1
102
RTVSPropertyOp31
 70
     1
102
RTVSPropertyOp32
 70
     1
102
RTVSPropertyOp33
 70
     1
102
RTVSPropertyOp34
 70
     1
102
RTVSPropertyOp35
 70
     1
102
RTVSPropertyOp36
 70
     1
102
RTVSPropertyOp37
 70
     1
102
RTVSPropertyOp38
 70
     1
102
RTVSPropertyOp39
 70
     1
102
RTVSPropertyOp40
 70
     1
102
RTVSPropertyOp41
 70
     1
102
RTVSPropertyOp42
 70
     1
102
RTVSPropertyOp43
 70
     1
102
RTVSPropertyOp44
 70
     1
102
RTVSPropertyOp45
 70
     1
102
RTVSPropertyOp46
 70
     1
102
RTVSPropertyOp47
 70
     1
102
RTVSPropertyOp48
 70
     1
102
RTVSPropertyOp49
 70
     1
102
RTVSPropertyOp50
 70
     1
102
RTVSPropertyOp51
 70
     0
102
RTVSPropertyOp52
 70
     0
102
RTVSPropertyOp53
 70
     1
102
RTVSPropertyOp54
 70
     1
102
RTVSPropertyOp55
 70
     1
102
RTVSPropertyOp56
 70
     1
102
RTVSPropertyOp57
 70
     1
102
RTVSPropertyOp58
 70
     1
102
RTVSPropertyOp59
 70
     1
102
RTVSPropertyOp60
 70
     1
102
RTVSPropertyOp61
 70
     1
102
RTVSPropertyOp62
 70
     1
  0
XRECORD
  5
2ED
102
{ACAD_REACTORS
330
2EC
102
}
330
2EC
100
AcDbXrecord
280
     1
102
RTVSPost2010Prop28
280
     0
102
RTVSPost2010PropOp28
 70
     1
102
RTVSPost2010Prop29
280
     1
102
RTVSPost2010PropOp29
 70
     1
102
RTVSPost2010Prop30
280
     1
102
RTVSPost2010PropOp30
 70
     1
102
RTVSPost2010Prop31
280
     0
102
RTVSPost2010PropOp31
 70
     1
102
RTVSPost2010Prop32
280
     0
102
RTVSPost2010PropOp32
 70
     1
102
RTVSPost2010Prop33
280
     0
102
RTVSPost2010PropOp33
 70
     1
102
RTVSPost2010Prop34
280
     0
102
RTVSPost2010PropOp34
 70
     1
102
RTVSPost2010Prop35
280
     0
102
RTVSPost2010PropOp35
 70
     1
102
RTVSPost2010Prop36
280
     0
102
RTVSPost2010PropOp36
 70
     1
102
RTVSPost2010Prop37
 90
       50
102
RTVSPost2010PropOp37
 70
     1
102
RTVSPost2010Prop38
140
0.0
102
RTVSPost2010PropOp38
 70
     1
102
RTVSPost2010Prop39
140
1.0
102
RTVSPost2010PropOp39
 70
     1
102
RTVSPost2010Prop40
 90
        0
102
RTVSPost2010PropOp40
 70
     1
102
RTVSPost2010Prop41ColorIndex
 90
       18
102
RTVSPost2010Prop41ColorRGB
 90
        0
102
RTVSPost2010PropOp41
 70
     1
102
RTVSPost2010Prop42
 90
       50
102
RTVSPost2010PropOp42
 70
     1
102
RTVSPost2010Prop43
 90
        3
102
RTVSPost2010PropOp43
 70
     1
102
RTVSPost2010Prop44ColorIndex
 90
        5
102
RTVSPost2010Prop44ColorRGB
 90
      255
102
RTVSPost2010PropOp44
 70
     1
102
RTVSPost2010Prop45
280
     0
102
RTVSPost2010PropOp45
 70
     1
102
RTVSPost2010Prop46
 90
       50
102
RTVSPost2010PropOp46
 70
     1
102
RTVSPost2010Prop47
 90
       50
102
RTVSPost2010PropOp47
 70
     1
102
RTVSPost2010Prop48
 90
       50
102
RTVSPost2010PropOp48
 70
     1
102
RTVSPost2010Prop49
280
     0
102
RTVSPost2010PropOp49
 70
     1
102
RTVSPost2010Prop50
 90
       50
102
RTVSPost2010PropOp50
 70
     1
102
RTVSPost2010Prop51ColorIndex
 90
      256
102
RTVSPost2010Prop51ColorRGB
 90
-16777216
102
RTVSPost2010PropOp51
 70
     0
102
RTVSPost2010Prop52
140
1.0
102
RTVSPost2010PropOp52
 70
     0
102
RTVSPost2010Prop53
 90
        2
102
RTVSPost2010PropOp53
 70
     1
102
RTVSPost2010Prop54
  1
strokes_ogs.tif
102
RTVSPost2010PropOp54
 70
     1
102
RTVSPost2010Prop55
280
     0
102
RTVSPost2010PropOp55
 70
     1
102
RTVSPost2010Prop56
140
1.0
102
RTVSPost2010PropOp56
 70
     1
102
RTVSPost2010Prop57
140
1.0
102
RTVSPost2010PropOp57
 70
     1
102
RTVSPropertyOp0
 70
     1
102
RTVSPropertyOp1
 70
     1
102
RTVSPropertyOp2
 70
     1
102
RTVSPropertyOp3
 70
     1
102
RTVSPropertyOp4
 70
     1
102
RTVSPropertyOp5
 70
     1
102
RTVSPropertyOp6
 70
     1
102
RTVSPropertyOp7
 70
     1
102
RTVSPropertyOp8
 70
     1
102
RTVSPropertyOp9
 70
     1
102
RTVSPropertyOp10
 70
     1
102
RTVSPropertyOp11
 70
     1
102
RTVSPropertyOp12
 70
     1
102
RTVSPropertyOp13
 70
     1
102
RTVSPropertyOp14
 70
     1
102
RTVSPropertyOp15
 70
     1
102
RTVSPropertyOp16
 70
     1
102
RTVSPropertyOp17
 70
     1
102
RTVSPropertyOp18
 70
     1
102
RTVSPropertyOp19
 70
     1
102
RTVSPropertyOp20
 70
     1
102
RTVSPropertyOp21
 70
     1
102
RTVSPropertyOp22
 70
     1
102
RTVSPropertyOp23
 70
     1
102
RTVSPropertyOp24
 70
     1
102
RTVSPropertyOp25
 70
     1
102
RTVSPropertyOp26
 70
     1
102
RTVSPropertyOp27
 70
     1
102
RTVSPropertyOp28
 70
     1
102
RTVSPropertyOp29
 70
     1
102
RTVSPropertyOp30
 70
     1
102
RTVSPropertyOp31
 70
     1
102
RTVSPropertyOp32
 70
     1
102
RTVSPropertyOp33
 70
     1
102
RTVSPropertyOp34
 70
     1
102
RTVSPropertyOp35
 70
     1
102
RTVSPropertyOp36
 70
     1
102
RTVSPropertyOp37
 70
     1
102
RTVSPropertyOp38
 70
     1
102
RTVSPropertyOp39
 70
     1
102
RTVSPropertyOp40
 70
     1
102
RTVSPropertyOp41
 70
     1
102
RTVSPropertyOp42
 70
     1
102
RTVSPropertyOp43
 70
     1
102
RTVSPropertyOp44
 70
     1
102
RTVSPropertyOp45
 70
     1
102
RTVSPropertyOp46
 70
     1
102
RTVSPropertyOp47
 70
     1
102
RTVSPropertyOp48
 70
     1
102
RTVSPropertyOp49
 70
     1
102
RTVSPropertyOp50
 70
     1
102
RTVSPropertyOp51
 70
     0
102
RTVSPropertyOp52
 70
     0
102
RTVSPropertyOp53
 70
     1
102
RTVSPropertyOp54
 70
     1
102
RTVSPropertyOp55
 70
     1
102
RTVSPropertyOp56
 70
     1
102
RTVSPropertyOp57
 70
     1
102
RTVSPropertyOp58
 70
     1
102
RTVSPropertyOp59
 70
     1
102
RTVSPropertyOp60
 70
     1
102
RTVSPropertyOp61
 70
     1
102
RTVSPropertyOp62
 70
     1
  0
ENDSEC
  0
EOF
