  0
SECTION
  2
HEADER
  9
$ACADVER
  1
AC1015
  9
$ACADMAINTVER
 70
    18
  9
$DWGCODEPAGE
  3
ANSI_1252
  9
$INSBASE
 10
27904.37403655774
 20
4343.965539815084
 30
0.0
  9
$EXTMIN
 10
-7061.742961063206
 20
-1376.034460184917
 30
0.0
  9
$EXTMAX
 10
33565.99102362582
 20
8089.639204691897
 30
0.0
  9
$LIMMIN
 10
0.0
 20
0.0
  9
$LIMMAX
 10
420.0
 20
297.0
  9
$ORTHOMODE
 70
     1
  9
$REGENMODE
 70
     1
  9
$FILLMODE
 70
     1
  9
$QTEXTMODE
 70
     0
  9
$MIRRTEXT
 70
     0
  9
$LTSCALE
 40
1.0
  9
$ATTMODE
 70
     1
  9
$TEXTSIZE
 40
2.5
  9
$TRACEWID
 40
1.0
  9
$TEXTSTYLE
  7
Standard
  9
$CLAYER
  8
-PROFILAUSSENKANTET
  9
$CELTYPE
  6
ByLayer
  9
$CECOLOR
 62
   256
  9
$CELTSCALE
 40
1.0
  9
$DISPSILH
 70
     0
  9
$DIMSCALE
 40
1.0
  9
$DIMASZ
 40
3.5
  9
$DIMEXO
 40
1.0
  9
$DIMDLI
 40
10.0
  9
$DIMRND
 40
0.0
  9
$DIMDLE
 40
0.0
  9
$DIMEXE
 40
1.0
  9
$DIMTP
 40
0.1
  9
$DIMTM
 40
0.1
  9
$DIMTXT
 40
3.5
  9
$DIMCEN
 40
0.0
  9
$DIMTSZ
 40
0.0
  9
$DIMTOL
 70
     0
  9
$DIMLIM
 70
     0
  9
$DIMTIH
 70
     0
  9
$DIMTOH
 70
     0
  9
$DIMSE1
 70
     0
  9
$DIMSE2
 70
     0
  9
$DIMTAD
 70
     1
  9
$DIMZIN
 70
     8
  9
$DIMBLK
  1

  9
$DIMASO
 70
     1
  9
$DIMSHO
 70
     1
  9
$DIMPOST
  1

  9
$DIMAPOST
  1
"
  9
$DIMALT
 70
     0
  9
$DIMALTD
 70
     2
  9
$DIMALTF
 40
0.0393701
  9
$DIMLFAC
 40
1.0
  9
$DIMTOFL
 70
     1
  9
$DIMTVP
 40
0.0
  9
$DIMTIX
 70
     0
  9
$DIMSOXD
 70
     0
  9
$DIMSAH
 70
     0
  9
$DIMBLK1
  1

  9
$DIMBLK2
  1

  9
$DIMSTYLE
  2
AM_DIN
  9
$DIMCLRD
 70
   256
  9
$DIMCLRE
 70
   256
  9
$DIMCLRT
 70
     2
  9
$DIMTFAC
 40
0.71
  9
$DIMGAP
 40
1.5
  9
$DIMJUST
 70
     0
  9
$DIMSD1
 70
     0
  9
$DIMSD2
 70
     0
  9
$DIMTOLJ
 70
     0
  9
$DIMTZIN
 70
     8
  9
$DIMALTZ
 70
     0
  9
$DIMALTTZ
 70
     0
  9
$DIMUPT
 70
     0
  9
$DIMDEC
 70
     2
  9
$DIMTDEC
 70
     3
  9
$DIMALTU
 70
     2
  9
$DIMALTTD
 70
     4
  9
$DIMTXSTY
  7
Standard
  9
$DIMAUNIT
 70
     0
  9
$DIMADEC
 70
     0
  9
$DIMALTRND
 40
0.0
  9
$DIMAZIN
 70
     2
  9
$DIMDSEP
 70
    46
  9
$DIMATFIT
 70
     3
  9
$DIMFRAC
 70
     0
  9
$DIMLDRBLK
  1

  9
$DIMLUNIT
 70
     2
  9
$DIMLWD
 70
    -1
  9
$DIMLWE
 70
    -1
  9
$DIMTMOVE
 70
     0
  9
$LUNITS
 70
     2
  9
$LUPREC
 70
     4
  9
$SKETCHINC
 40
1.0
  9
$FILLETRAD
 40
9.0
  9
$AUNITS
 70
     0
  9
$AUPREC
 70
     0
  9
$MENU
  1
.
  9
$ELEVATION
 40
0.0
  9
$PELEVATION
 40
0.0
  9
$THICKNESS
 40
0.0
  9
$LIMCHECK
 70
     0
  9
$CHAMFERA
 40
2.0
  9
$CHAMFERB
 40
2.0
  9
$CHAMFERC
 40
0.0
  9
$CHAMFERD
 40
0.0
  9
$SKPOLY
 70
     0
  9
$TDCREATE
 40
2458738.272793762
  9
$TDUCREATE
 40
2458738.231127095
  9
$TDUPDATE
 40
2458817.442488669
  9
$TDUUPDATE
 40
2458817.400822002
  9
$TDINDWG
 40
1.8397501505
  9
$TDUSRTIMER
 40
1.8397498264
  9
$USRTIMER
 70
     1
  9
$ANGBASE
 50
0.0
  9
$ANGDIR
 70
     0
  9
$PDMODE
 70
     0
  9
$PDSIZE
 40
0.0
  9
$PLINEWID
 40
0.0
  9
$SPLFRAME
 70
     0
  9
$SPLINETYPE
 70
     6
  9
$SPLINESEGS
 70
     8
  9
$HANDSEED
  5
2B8
  9
$SURFTAB1
 70
     6
  9
$SURFTAB2
 70
     6
  9
$SURFTYPE
 70
     6
  9
$SURFU
 70
     6
  9
$SURFV
 70
     6
  9
$UCSBASE
  2

  9
$UCSNAME
  2

  9
$UCSORG
 10
0.0
 20
0.0
 30
0.0
  9
$UCSXDIR
 10
1.0
 20
0.0
 30
0.0
  9
$UCSYDIR
 10
0.0
 20
1.0
 30
0.0
  9
$UCSORTHOREF
  2

  9
$UCSORTHOVIEW
 70
     0
  9
$UCSORGTOP
 10
0.0
 20
0.0
 30
0.0
  9
$UCSORGBOTTOM
 10
0.0
 20
0.0
 30
0.0
  9
$UCSORGLEFT
 10
0.0
 20
0.0
 30
0.0
  9
$UCSORGRIGHT
 10
0.0
 20
0.0
 30
0.0
  9
$UCSORGFRONT
 10
0.0
 20
0.0
 30
0.0
  9
$UCSORGBACK
 10
0.0
 20
0.0
 30
0.0
  9
$PUCSBASE
  2

  9
$PUCSNAME
  2

  9
$PUCSORG
 10
0.0
 20
0.0
 30
0.0
  9
$PUCSXDIR
 10
1.0
 20
0.0
 30
0.0
  9
$PUCSYDIR
 10
0.0
 20
1.0
 30
0.0
  9
$PUCSORTHOREF
  2

  9
$PUCSORTHOVIEW
 70
     0
  9
$PUCSORGTOP
 10
0.0
 20
0.0
 30
0.0
  9
$PUCSORGBOTTOM
 10
0.0
 20
0.0
 30
0.0
  9
$PUCSORGLEFT
 10
0.0
 20
0.0
 30
0.0
  9
$PUCSORGRIGHT
 10
0.0
 20
0.0
 30
0.0
  9
$PUCSORGFRONT
 10
0.0
 20
0.0
 30
0.0
  9
$PUCSORGBACK
 10
0.0
 20
0.0
 30
0.0
  9
$USERI1
 70
     0
  9
$USERI2
 70
     0
  9
$USERI3
 70
     0
  9
$USERI4
 70
     0
  9
$USERI5
 70
     0
  9
$USERR1
 40
0.0
  9
$USERR2
 40
0.0
  9
$USERR3
 40
0.0
  9
$USERR4
 40
0.0
  9
$USERR5
 40
0.0
  9
$WORLDVIEW
 70
     1
  9
$SHADEDGE
 70
     3
  9
$SHADEDIF
 70
    70
  9
$TILEMODE
 70
     1
  9
$MAXACTVP
 70
    64
  9
$PINSBASE
 10
0.0
 20
0.0
 30
0.0
  9
$PLIMCHECK
 70
     0
  9
$PEXTMIN
 10
-322.1742980710169
 20
134.9306855640593
 30
-0.0000000000000153
  9
$PEXTMAX
 10
5138.158953882495
 20
435.7703254471215
 30
0.0000000000000153
  9
$PLIMMIN
 10
0.0
 20
0.0
  9
$PLIMMAX
 10
12.0
 20
9.0
  9
$UNITMODE
 70
     0
  9
$VISRETAIN
 70
     1
  9
$PLINEGEN
 70
     0
  9
$PSLTSCALE
 70
     1
  9
$TREEDEPTH
 70
  3020
  9
$CMLSTYLE
  2
Standard
  9
$CMLJUST
 70
     0
  9
$CMLSCALE
 40
20.0
  9
$PROXYGRAPHICS
 70
     1
  9
$MEASUREMENT
 70
     1
  9
$CELWEIGHT
370
    -1
  9
$ENDCAPS
280
     0
  9
$JOINSTYLE
280
     0
  9
$LWDISPLAY
290
     0
  9
$INSUNITS
 70
     4
  9
$HYPERLINKBASE
  1

  9
$STYLESHEET
  1

  9
$XEDIT
290
     1
  9
$CEPSNTYPE
380
     0
  9
$PSTYLEMODE
290
     1
  9
$FINGERPRINTGUID
  2
{CB0186AC-BFCA-4B95-BA8F-B3596EE2612F}
  9
$VERSIONGUID
  2
{33C81F56-E205-48EC-9302-4954D72C6C3B}
  9
$EXTNAMES
290
     1
  9
$PSVPSCALE
 40
0.0
  9
$OLESTARTUP
290
     0
  0
ENDSEC
  0
SECTION
  2
CLASSES
  0
CLASS
  1
ACDBDICTIONARYWDFLT
  2
AcDbDictionaryWithDefault
  3
ObjectDBX Classes
 90
        0
280
     0
281
     0
  0
CLASS
  1
ACDBPLACEHOLDER
  2
AcDbPlaceHolder
  3
ObjectDBX Classes
 90
        0
280
     0
281
     0
  0
CLASS
  1
LAYOUT
  2
AcDbLayout
  3
ObjectDBX Classes
 90
        0
280
     0
281
     0
  0
CLASS
  1
DICTIONARYVAR
  2
AcDbDictionaryVar
  3
ObjectDBX Classes
 90
        0
280
     0
281
     0
  0
CLASS
  1
TABLESTYLE
  2
AcDbTableStyle
  3
ObjectDBX Classes
 90
     4095
280
     0
281
     0
  0
CLASS
  1
MATERIAL
  2
AcDbMaterial
  3
ObjectDBX Classes
 90
     1153
280
     0
281
     0
  0
CLASS
  1
VISUALSTYLE
  2
AcDbVisualStyle
  3
ObjectDBX Classes
 90
     4095
280
     0
281
     0
  0
CLASS
  1
SCALE
  2
AcDbScale
  3
ObjectDBX Classes
 90
     1153
280
     0
281
     0
  0
CLASS
  1
MLEADERSTYLE
  2
AcDbMLeaderStyle
  3
ACDB_MLEADERSTYLE_CLASS
 90
    36863
280
     0
281
     0
  0
CLASS
  1
CELLSTYLEMAP
  2
AcDbCellStyleMap
  3
ObjectDBX Classes
 90
     1152
280
     0
281
     0
  0
CLASS
  1
EXACXREFPANELOBJECT
  2
ExAcXREFPanelObject
  3
EXAC_ESW
 90
    33793
280
     0
281
     0
  0
CLASS
  1
NPOCOLLECTION
  2
AcDbImpNonPersistentObjectsCollection
  3
ObjectDBX Classes
 90
    33921
280
     0
281
     0
  0
CLASS
  1
LAYER_INDEX
  2
AcDbLayerIndex
  3
ObjectDBX Classes
 90
    32768
280
     0
281
     0
  0
CLASS
  1
SPATIAL_INDEX
  2
AcDbSpatialIndex
  3
ObjectDBX Classes
 90
    32768
280
     0
281
     0
  0
CLASS
  1
IDBUFFER
  2
AcDbIdBuffer
  3
ObjectDBX Classes
 90
    32768
280
     0
281
     0
  0
CLASS
  1
ACDBSECTIONVIEWSTYLE
  2
AcDbSectionViewStyle
  3
ObjectDBX Classes
 90
     1025
280
     0
281
     0
  0
CLASS
  1
ACDBDETAILVIEWSTYLE
  2
AcDbDetailViewStyle
  3
ObjectDBX Classes
 90
     1025
280
     0
281
     0
  0
CLASS
  1
ACME_DOCUMENT
  2
AcMeDbDoc
  3
AcMeServices
 90
    33792
280
     0
281
     0
  0
CLASS
  1
AMGSETTINGSOBJ
  2
AmgSettingsObj
  3
"AcadM|Product Description: AutoCAD Mechanical|Company: Autodesk, Inc."
 90
     1024
280
     0
281
     0
  0
CLASS
  1
ACMESCOPE
  2
AcMeScope
  3
AcMeServices
 90
     1024
280
     0
281
     0
  0
CLASS
  1
ACMECOMMANDHISTORY
  2
AcMeCommandHistory
  3
AcMeServices
 90
    33792
280
     0
281
     0
  0
CLASS
  1
ACIMSYSVARMAN
  2
AcImSysVarManager
  3
AcMeServices
 90
     1024
280
     0
281
     0
  0
CLASS
  1
ACIMINTSYSVAR
  2
AcImIntSysVar
  3
AcMeServices
 90
     1024
280
     0
281
     0
  0
CLASS
  1
ACMESTATEMGR
  2
AcMeStateMgr
  3
AcMeServices
 90
     1024
280
     0
281
     0
  0
CLASS
  1
ACDBENTITYCACHE
  2
AcMeEntityCache
  3
AcMeServices
 90
    33792
280
     0
281
     0
  0
CLASS
  1
ACGREFMASTER
  2
AcGrefMaster
  3
AcAttribServices
 90
     1024
280
     0
281
     0
  0
CLASS
  1
ACME_DATABASE
  2
AcMeDbDatabase
  3
AcMeServices
 90
    33792
280
     0
281
     0
  0
CLASS
  1
ACRFINSADJUSTERMGR
  2
AcRfInsAdjusterMgr
  3
AcMeServices
 90
    33792
280
     0
281
     0
  0
CLASS
  1
ACGREFACADMASTER
  2
AcGrefacadMaster
  3
AcGrefServices
 90
    33792
280
     0
281
     0
  0
CLASS
  1
AMDTMENUSTATEMGR
  2
AmdtMenuStateMgr
  3
McadcomServices
 90
    33792
280
     0
281
     0
  0
CLASS
  1
AMDTMCOMMENUSTATE
  2
AmdtMcomMenuState
  3
McadcomServices
 90
    33792
280
     0
281
     0
  0
CLASS
  1
AMIMASTER
  2
AmiMaster
  3
AmiServices
 90
    33792
280
     0
281
     0
  0
CLASS
  1
MAPIAMMOUDLE
  2
MApiAmModule
  3
MApiAmServices
 90
    33792
280
     0
281
     0
  0
CLASS
  1
ACIMSTRSYSVAR
  2
AcImStrSysVar
  3
AcMeServices
 90
     1024
280
     0
281
     0
  0
CLASS
  1
AMDTAMMENUSTATE
  2
AmdtAmMenuState
  3
DesignerAssemblies
 90
    33792
280
     0
281
     0
  0
CLASS
  1
ACAMPROJECT
  2
AcAmProject
  3
DesignerAssemblies
 90
    33792
280
     0
281
     0
  0
CLASS
  1
ACAMGRCOMPDEF
  2
AcAmGrCompDef
  3
DesignerAssemblies
 90
    33792
280
     0
281
     0
  0
CLASS
  1
ACAMCOMPDEF
  2
AcAmCompDef
  3
DesignerAssemblies
 90
    33792
280
     0
281
     0
  0
CLASS
  1
ACAMCOMPDEFMGR
  2
AcAmCompDefMgr
  3
DesignerAssemblies
 90
    33792
280
     0
281
     0
  0
CLASS
  1
AMCONTEXTMGR
  2
AcAmContextMgr
  3
DesignerAssemblies
 90
    33792
280
     0
281
     0
  0
CLASS
  1
ACAMCONTEXTMODELER
  2
AcAmContextModeler
  3
DesignerAssemblies
 90
    33792
280
     0
281
     0
  0
CLASS
  1
ACMDATADICTIONARY
  2
AcmDataDictionary
  3
"AcmSymBB|Product Description: AutoCAD Mechanical|Company: Autodesk, Inc."
 90
    33792
280
     0
281
     0
  0
CLASS
  1
ACAMGRCOMPDEFSET
  2
AcAmGrCompDefSet
  3
DesignerAssemblies
 90
    33792
280
     0
281
     0
  0
CLASS
  1
AMDTBROWSERDBTAB
  2
AmdtBrowserDbTab
  3
McadcomServices
 90
    33792
280
     0
281
     0
  0
CLASS
  1
CBROWSERAPPOBJECT
  2
CBrowserAppObject
  3
McadcomServices
 90
    33792
280
     0
281
     0
  0
CLASS
  1
DM_PLACEHOLDER
  2
AcDmSelsetPlaceholder
  3
McadcomServices
 90
    33792
280
     0
281
     0
  0
CLASS
  1
ACMSTANDARDDIN
  2
AcmStandardDIN
  3
"Amdt_StdImp|Product Description: AutoCAD Mechanical|Company: Autodesk, Inc."
 90
     1024
280
     0
281
     0
  0
CLASS
  1
AMDTEDGESTANDARDDIN13715
  2
AmdtEdgeStdDIN13715
  3
"Amdt_StdImp|Product Description: AutoCAD Mechanical|Company: Autodesk, Inc."
 90
     1024
280
     0
281
     0
  0
CLASS
  1
ACMSURFSTANDARDDIN2002
  2
AcmSurfTextStdDIN2002
  3
"Amdt_StdImp|Product Description: AutoCAD Mechanical|Company: Autodesk, Inc."
 90
     1024
280
     0
281
     0
  0
CLASS
  1
ACMFCFSTANDARDDIN2008
  2
AcmFCFStdDIN2008
  3
"Amdt_StdImp|Product Description: AutoCAD Mechanical|Company: Autodesk, Inc."
 90
     1024
280
     0
281
     0
  0
CLASS
  1
ACMWELDSTANDARDDIN
  2
AcmWeldingStdDIN
  3
"Amdt_StdImp|Product Description: AutoCAD Mechanical|Company: Autodesk, Inc."
 90
     1024
280
     0
281
     0
  0
CLASS
  1
ACMIDSTANDARDDIN2012
  2
AcmIdStdDIN2012
  3
"Amdt_StdImp|Product Description: AutoCAD Mechanical|Company: Autodesk, Inc."
 90
     1024
280
     0
281
     0
  0
CLASS
  1
ACMDATUMSTANDARDDIN2008
  2
AcmDatumStdDIN2008
  3
"Amdt_StdImp|Product Description: AutoCAD Mechanical|Company: Autodesk, Inc."
 90
     1024
280
     0
281
     0
  0
CLASS
  1
ACMBOMSTANDARDDIN
  2
AcmBOMStdDIN
  3
"Amdt_StdImp|Product Description: AutoCAD Mechanical|Company: Autodesk, Inc."
 90
     1024
280
     0
281
     0
  0
CLASS
  1
ACMDETAILSTANDARDDIN
  2
AmdtDetailSymStdDIN
  3
"Amdt_StdImp|Product Description: AutoCAD Mechanical|Company: Autodesk, Inc."
 90
     1024
280
     0
281
     0
  0
CLASS
  1
ACMSECTIONSTANDARDDIN
  2
AmdtSectionSymStdDIN
  3
"Amdt_StdImp|Product Description: AutoCAD Mechanical|Company: Autodesk, Inc."
 90
     1024
280
     0
281
     0
  0
CLASS
  1
ACMCENTERLINESTANDARDDIN
  2
AmdtCenterLineStdDIN
  3
"Amdt_StdImp|Product Description: AutoCAD Mechanical|Company: Autodesk, Inc."
 90
     1024
280
     0
281
     0
  0
CLASS
  1
ACMTHREADLINESTANDARDDIN
  2
AmdtThreadLineStdDIN
  3
"Amdt_StdImp|Product Description: AutoCAD Mechanical|Company: Autodesk, Inc."
 90
     1024
280
     0
281
     0
  0
CLASS
  1
ACMNOTESTANDARDDIN
  2
AmdtNoteStdDIN
  3
"Amdt_StdImp|Product Description: AutoCAD Mechanical|Company: Autodesk, Inc."
 90
     1024
280
     0
281
     0
  0
CLASS
  1
ACMTAPERSTANDARDDIN
  2
AcmTaperStdDIN
  3
"Amdt_StdImp|Product Description: AutoCAD Mechanical|Company: Autodesk, Inc."
 90
     1024
280
     0
281
     0
  0
CLASS
  1
ACMANOOTATIONVIEWSTANDARDDIN
  2
AmdtAnViewStdDIN
  3
"Amdt_StdImp|Product Description: AutoCAD Mechanical|Company: Autodesk, Inc."
 90
     1024
280
     0
281
     0
  0
CLASS
  1
ACAMGLAYSTD
  2
AcAmgLayStd
  3
"AmgLay|Product Description: AutoCAD Mechanical|Company: Autodesk, Inc."
 90
     1024
280
     0
281
     0
  0
CLASS
  1
ACAMGDIMSTD
  2
AcAmgDimStd
  3
"AmgDim|Product Description: AutoCAD Mechanical|Company: Autodesk, Inc."
 90
     1024
280
     0
281
     0
  0
CLASS
  1
AMGOBJPROPCFG
  2
AmgObjPropCfg
  3
"AmgLay|Product Description: AutoCAD Mechanical|Company: Autodesk, Inc."
 90
     1024
280
     0
281
     0
  0
CLASS
  1
ACAMGHOLECHARTSTDDIN
  2
AcAmgHoleChartStdDIN
  3
AmgDim|Product Description: AutoCAD Mechanical|Company: Autodesk, Inc.
 90
     1024
280
     0
281
     0
  0
CLASS
  1
ACAMGTITLESTD
  2
AcAmgTitleStd
  3
"AmgTitle|Product Description: AutoCAD Mechanical|Company: Autodesk, Inc."
 90
     1024
280
     0
281
     0
  0
CLASS
  1
ACMSECTIONSTANDARDCUSTOM
  2
AmdtSectionSymStdCustom
  3
"Amdt_StdImp|Product Description: AutoCAD Mechanical|Company: Autodesk, Inc."
 90
     1024
280
     0
281
     0
  0
CLASS
  1
ACMDETAILTANDARDCUSTOM
  2
AmdtDetailSymStdCustom
  3
"Amdt_StdImp|Product Description: AutoCAD Mechanical|Company: Autodesk, Inc."
 90
     1024
280
     0
281
     0
  0
CLASS
  1
FIELD
  2
AcDbField
  3
ObjectDBX Classes
 90
     1152
280
     0
281
     0
  0
CLASS
  1
FIELDLIST
  2
AcDbFieldList
  3
ObjectDBX Classes
 90
     1152
280
     0
281
     0
  0
CLASS
  1
AMDTNOTETEMPLATEDB
  2
AmdtNoteTemplateDB
  3
AcmSymBB|Product Description: AutoCAD Mechanical|Company: Autodesk, Inc.
 90
     1024
280
     0
281
     0
  0
CLASS
  1
CAMSSTRUCTBTNSTATE
  2
StructBtnState
  3
DesignerAssemblies
 90
    33792
280
     0
281
     0
  0
CLASS
  1
RAPIDRTRENDERSETTINGS
  2
AcDbRapidRTRenderSettings
  3
ObjectDBX Classes
 90
    33792
280
     0
281
     0
  0
CLASS
  1
SORTENTSTABLE
  2
AcDbSortentsTable
  3
ObjectDBX Classes
 90
        0
280
     0
281
     0
  0
CLASS
  1
ACAMGFILTERDAT
  2
AcAmgFilterDat
  3
"AcadM|Product Description: AutoCAD Mechanical|Company: Autodesk, Inc."
 90
    33792
280
     0
281
     0
  0
CLASS
  1
ACDBASSOCNETWORK
  2
AcDbAssocNetwork
  3
ObjectDBX Classes
 90
    33793
280
     0
281
     0
  0
CLASS
  1
ACDBASSOC2DCONSTRAINTGROUP
  2
AcDbAssoc2dConstraintGroup
  3
ObjectDBX Classes
 90
    33793
280
     0
281
     0
  0
CLASS
  1
ACDBASSOCGEOMDEPENDENCY
  2
AcDbAssocGeomDependency
  3
ObjectDBX Classes
 90
    33793
280
     0
281
     0
  0
CLASS
  1
ACAD_EVALUATION_GRAPH
  2
AcDbEvalGraph
  3
ObjectDBX Classes
 90
    33921
280
     0
281
     0
  0
CLASS
  1
BLOCKBASEPOINTPARAMETER
  2
AcDbBlockBasepointParameter
  3
ObjectDBX Classes
 90
    33921
280
     0
281
     0
  0
CLASS
  1
ACDB_DYNAMICBLOCKPROXYNODE
  2
AcDbDynamicBlockProxyNode
  3
ObjectDBX Classes
 90
    33921
280
     0
281
     0
  0
CLASS
  1
BLOCKVISIBILITYPARAMETER
  2
AcDbBlockVisibilityParameter
  3
ObjectDBX Classes
 90
    33921
280
     0
281
     0
  0
CLASS
  1
BLOCKVISIBILITYGRIP
  2
AcDbBlockVisibilityGrip
  3
ObjectDBX Classes
 90
    33921
280
     0
281
     0
  0
CLASS
  1
BLOCKGRIPLOCATIONCOMPONENT
  2
AcDbBlockGripExpr
  3
ObjectDBX Classes
 90
    33921
280
     0
281
     0
  0
CLASS
  1
BLOCKPOINTPARAMETER
  2
AcDbBlockPointParameter
  3
ObjectDBX Classes
 90
    33921
280
     0
281
     0
  0
CLASS
  1
BLOCKXYGRIP
  2
AcDbBlockXYGrip
  3
ObjectDBX Classes
 90
    33921
280
     0
281
     0
  0
CLASS
  1
BLOCKMOVEACTION
  2
AcDbBlockMoveAction
  3
ObjectDBX Classes
 90
    33921
280
     0
281
     0
  0
CLASS
  1
ACDB_DYNAMICBLOCKPURGEPREVENTER_VERSION
  2
AcDbDynamicBlockPurgePreventer
  3
ObjectDBX Classes
 90
    33921
280
     0
281
     0
  0
CLASS
  1
IMAGE
  2
AcDbRasterImage
  3
ISM
 90
    34943
280
     0
281
     1
  0
CLASS
  1
IMAGEDEF_REACTOR
  2
AcDbRasterImageDefReactor
  3
ISM
 90
    32769
280
     0
281
     0
  0
CLASS
  1
ACDB_BLOCKREPRESENTATION_DATA
  2
AcDbBlockRepresentationData
  3
ObjectDBX Classes
 90
    33921
280
     0
281
     0
  0
CLASS
  1
IMAGEDEF
  2
AcDbRasterImageDef
  3
ISM
 90
    32768
280
     0
281
     0
  0
CLASS
  1
ACMDATAENTRYBLOCK
  2
AcmDataEntryBlock
  3
AcmSymBB|Product Description: AutoCAD Mechanical|Company: Autodesk, Inc.
 90
    33792
280
     0
281
     0
  0
CLASS
  1
RASTERVARIABLES
  2
AcDbRasterVariables
  3
ISM
 90
    32768
280
     0
281
     0
  0
CLASS
  1
ACAECUSTOBJ
  2
AcAeEditorObj
  3
AcAeEditorObj
 90
    33792
280
     1
281
     0
  0
CLASS
  1
ACDBASSOCVARIABLE
  2
AcDbAssocVariable
  3
ObjectDBX Classes
 90
    33793
280
     0
281
     0
  0
CLASS
  1
ACDBASSOCVALUEDEPENDENCY
  2
AcDbAssocValueDependency
  3
ObjectDBX Classes
 90
    33793
280
     0
281
     0
  0
CLASS
  1
ACDBASSOCDEPENDENCY
  2
AcDbAssocDependency
  3
ObjectDBX Classes
 90
    33793
280
     0
281
     0
  0
CLASS
  1
BLOCKPARAMDEPENDENCYBODY
  2
AcDbBlockParameterDependencyBody
  3
ObjectDBX Classes
 90
    32769
280
     0
281
     0
  0
CLASS
  1
BLOCKHORIZONTALCONSTRAINTPARAMETER
  2
AcDbBlockHorizontalConstraintParameter
  3
ObjectDBX Classes
 90
    33921
280
     0
281
     0
  0
CLASS
  1
BLOCKLINEARGRIP
  2
AcDbBlockLinearGrip
  3
ObjectDBX Classes
 90
    33921
280
     0
281
     0
  0
CLASS
  1
BLOCKVERTICALCONSTRAINTPARAMETER
  2
AcDbBlockVerticalConstraintParameter
  3
ObjectDBX Classes
 90
    33921
280
     0
281
     0
  0
CLASS
  1
DIMASSOC
  2
AcDbDimAssoc
  3
"AcDbDimAssoc|Product Desc:     AcDim ARX App For Dimension|Company:          Autodesk, Inc.|WEB Address:      www.autodesk.com"
 90
    32768
280
     0
281
     0
  0
CLASS
  1
ACAD_TABLE
  2
AcDbTable
  3
ObjectDBX Classes
 90
    33793
280
     0
281
     1
  0
CLASS
  1
TABLECONTENT
  2
AcDbTableContent
  3
ObjectDBX Classes
 90
    33920
280
     0
281
     0
  0
CLASS
  1
TABLEGEOMETRY
  2
AcDbTableGeometry
  3
ObjectDBX Classes
 90
    33920
280
     0
281
     0
  0
CLASS
  1
BLOCKLINEARPARAMETER
  2
AcDbBlockLinearParameter
  3
ObjectDBX Classes
 90
    33921
280
     0
281
     0
  0
CLASS
  1
BLOCKSCALEACTION
  2
AcDbBlockScaleAction
  3
ObjectDBX Classes
 90
    33921
280
     0
281
     0
  0
CLASS
  1
POINTPARAMETERENTITY
  2
AcDbBlockPointParameterEntity
  3
ObjectDBX Classes
 90
    33793
280
     0
281
     1
  0
CLASS
  1
ACAEEEMGROBJ
  2
AcAeEEMgrObj
  3
AcAeEEMgrObj
 90
    33792
280
     0
281
     0
  0
CLASS
  1
XYGRIPENTITY
  2
AcDbBlockXYGripEntity
  3
ObjectDBX Classes
 90
    33793
280
     0
281
     1
  0
CLASS
  1
VISIBILITYPARAMETERENTITY
  2
AcDbBlockVisibilityParameterEntity
  3
ObjectDBX Classes
 90
    33793
280
     0
281
     1
  0
CLASS
  1
VISIBILITYGRIPENTITY
  2
AcDbBlockVisibilityGripEntity
  3
ObjectDBX Classes
 90
    33793
280
     0
281
     1
  0
CLASS
  1
STDPART2D
  2
AmgStdPart
  3
AmgStdPart|Product Description: AutoCAD Mechanical|Company: Autodesk, Inc.
 90
    33792
280
     0
281
     1
  0
CLASS
  1
ACMDATAENTRYPART
  2
AcmDataEntryPart
  3
AcmSymBB|Product Description: AutoCAD Mechanical|Company: Autodesk, Inc.
 90
    33792
280
     0
281
     0
  0
CLASS
  1
ACMPARTREF
  2
AcmPartRef
  3
"AcmSymBB|Product Description: AutoCAD Mechanical|Company: Autodesk, Inc."
 90
    33792
280
     0
281
     1
  0
CLASS
  1
ACDBSTDPARTRES_LINE
  2
AcDbStdPartRes_Line
  3
AmgStdPart|Product Description: AutoCAD Mechanical|Company: Autodesk, Inc.
 90
    33792
280
     0
281
     0
  0
CLASS
  1
AMDTINTERNALREACTOR
  2
AmdtInternalReactor
  3
AcMeServices
 90
    33792
280
     0
281
     0
  0
CLASS
  1
ACMSTANDARDANSI
  2
AcmStandardANSI
  3
"Amdt_StdImp|Product Description: AutoCAD Mechanical|Company: Autodesk, Inc."
 90
    33792
280
     0
281
     0
  0
CLASS
  1
ACMSURFSTANDARDANSI
  2
AcmSurfTextStdANSI
  3
"Amdt_StdImp|Product Description: AutoCAD Mechanical|Company: Autodesk, Inc."
 90
    33792
280
     0
281
     0
  0
CLASS
  1
ACMFCFSTANDARDANSI
  2
AcmFCFStdANSI
  3
"Amdt_StdImp|Product Description: AutoCAD Mechanical|Company: Autodesk, Inc."
 90
    33792
280
     0
281
     0
  0
CLASS
  1
ACMWELDSTANDARDANSI
  2
AcmWeldingStdANSI
  3
"Amdt_StdImp|Product Description: AutoCAD Mechanical|Company: Autodesk, Inc."
 90
    33792
280
     0
281
     0
  0
CLASS
  1
ACMIDSTANDARDANSI
  2
AcmIdStdANSI
  3
"Amdt_StdImp|Product Description: AutoCAD Mechanical|Company: Autodesk, Inc."
 90
    33792
280
     0
281
     0
  0
CLASS
  1
ACMDATUMSTANDARDANSI
  2
AcmDatumStdANSI
  3
"Amdt_StdImp|Product Description: AutoCAD Mechanical|Company: Autodesk, Inc."
 90
    33792
280
     0
281
     0
  0
CLASS
  1
ACMBOMSTANDARDANSI
  2
AcmBOMStdANSI
  3
"Amdt_StdImp|Product Description: AutoCAD Mechanical|Company: Autodesk, Inc."
 90
    33792
280
     0
281
     0
  0
CLASS
  1
ACMDETAILSTANDARDANSI
  2
AmdtDetailSymStdANSI
  3
"Amdt_StdImp|Product Description: AutoCAD Mechanical|Company: Autodesk, Inc."
 90
    33792
280
     0
281
     0
  0
CLASS
  1
ACMSECTIONSTANDARDANSI
  2
AmdtSectionSymStdANSI
  3
"Amdt_StdImp|Product Description: AutoCAD Mechanical|Company: Autodesk, Inc."
 90
    33792
280
     0
281
     0
  0
CLASS
  1
ACMCENTERLINESTANDARDANSI
  2
AmdtCenterLineStdANSI
  3
"Amdt_StdImp|Product Description: AutoCAD Mechanical|Company: Autodesk, Inc."
 90
    33792
280
     0
281
     0
  0
CLASS
  1
ACMTHREADLINESTANDARDANSI
  2
AmdtThreadLineStdANSI
  3
"Amdt_StdImp|Product Description: AutoCAD Mechanical|Company: Autodesk, Inc."
 90
    33792
280
     0
281
     0
  0
CLASS
  1
ACMNOTESTANDARDANSI
  2
AmdtNoteStdANSI
  3
"Amdt_StdImp|Product Description: AutoCAD Mechanical|Company: Autodesk, Inc."
 90
    33792
280
     0
281
     0
  0
CLASS
  1
ACMTAPERSTANDARDANSI
  2
AcmTaperStdANSI
  3
"Amdt_StdImp|Product Description: AutoCAD Mechanical|Company: Autodesk, Inc."
 90
    33792
280
     0
281
     0
  0
CLASS
  1
ACMANOOTATIONVIEWSTANDARDANSI
  2
AmdtAnViewStdANSI
  3
"Amdt_StdImp|Product Description: AutoCAD Mechanical|Company: Autodesk, Inc."
 90
    33792
280
     0
281
     0
  0
CLASS
  1
ACAMGHOLECHARTSTDANSI
  2
AcAmgHoleChartStdANSI
  3
AmgDim|Product Description: AutoCAD Mechanical|Company: Autodesk, Inc.
 90
    33792
280
     0
281
     0
  0
CLASS
  1
AEC_REFEDIT_STATUS_TRACKER
  2
AecDbRefEditStatusTracker
  3
AecArchBase70|Product Desc: Autodesk Architectural Desktop 2007 |Company: Autodesk,Inc. |WEB Address: www.autodesk.com
 90
    32897
280
     1
281
     0
  0
CLASS
  1
SOLID_BACKGROUND
  2
AcDbSolidBackground
  3
SCENEOE
 90
    36863
280
     0
281
     0
  0
CLASS
  1
AMDTNOTE
  2
AmdtNote
  3
"AcmSymBB|Product Description: AutoCAD Mechanical|Company: Autodesk, Inc."
 90
    33792
280
     0
281
     1
  0
CLASS
  1
AMDTSECTIONSYM
  2
AmdtSectionSym
  3
"AcmSymBB|Product Description: AutoCAD Mechanical|Company: Autodesk, Inc."
 90
    33792
280
     0
281
     1
  0
CLASS
  1
AMDTSECTIONSYMLABEL
  2
AmdtSectionSymLabel
  3
"AcmSymBB|Product Description: AutoCAD Mechanical|Company: Autodesk, Inc."
 90
    33792
280
     0
281
     1
  0
CLASS
  1
ACSH_HISTORY_CLASS
  2
AcDbShHistory
  3
ObjectDBX Classes
 90
    33921
280
     0
281
     0
  0
CLASS
  1
ACSH_EXTRUSION_CLASS
  2
AcDbShExtrusion
  3
ObjectDBX Classes
 90
    33921
280
     0
281
     0
  0
CLASS
  1
ACSH_BOOLEAN_CLASS
  2
AcDbShBoolean
  3
ObjectDBX Classes
 90
    33921
280
     0
281
     0
  0
CLASS
  1
ACDBASSOCPERSSUBENTMANAGER
  2
AcDbAssocPersSubentManager
  3
ObjectDBX Classes
 90
    33792
280
     0
281
     0
  0
CLASS
  1
ACDBPERSSUBENTMANAGER
  2
AcDbPersSubentManager
  3
AcDbPersSubentManager
 90
    33792
280
     0
281
     0
  0
CLASS
  1
SURFACE
  2
AcDbSurface
  3
ObjectDBX Classes
 90
    36863
280
     0
281
     1
  0
ENDSEC
  0
SECTION
  2
TABLES
  0
TABLE
  2
VPORT
  5
2B
330
0
100
AcDbSymbolTable
 70
     1
  0
VPORT
  5
2C
330
2B
100
AcDbSymbolTableRecord
100
AcDbViewportTableRecord
  2
*Active
 70
     0
 10
0.0
 20
0.0
 11
1.0
 21
1.0
 12
31138.80671702209
 22
5212.347782598745
 13
0.0
 23
0.0
 14
10.0
 24
10.0
 15
10.0
 25
10.0
 16
0.0
 26
0.0
 36
1.0
 17
0.0
 27
0.0
 37
0.0
 40
3849.141406324214
 41
2.675105485232067
 42
50.0
 43
0.0
 44
0.0
 50
0.0
 51
0.0
 71
     0
 72
  1000
 73
     1
 74
     3
 75
     0
 76
     0
 77
     0
 78
     0
281
     0
 65
     1
110
0.0
120
0.0
130
0.0
111
1.0
121
0.0
131
0.0
112
0.0
122
1.0
132
0.0
 79
     0
146
0.0
1001
ACAD_NAV_VCDISPLAY
1070
     3
  0
ENDTAB
  0
TABLE
  2
LTYPE
  5
26
330
0
100
AcDbSymbolTable
 70
    15
  0
LTYPE
  5
27
330
26
100
AcDbSymbolTableRecord
100
AcDbLinetypeTableRecord
  2
ByBlock
 70
     0
  3

 72
    65
 73
     0
 40
0.0
  0
LTYPE
  5
28
330
26
100
AcDbSymbolTableRecord
100
AcDbLinetypeTableRecord
  2
ByLayer
 70
     0
  3

 72
    65
 73
     0
 40
0.0
  0
LTYPE
  5
20
330
26
100
AcDbSymbolTableRecord
100
AcDbLinetypeTableRecord
  2
Continuous
 70
     0
  3
Solid line
 72
    65
 73
     0
 40
0.0
  0
LTYPE
  5
1FC
330
26
100
AcDbSymbolTableRecord
100
AcDbLinetypeTableRecord
  2
Amconstr
 70
     0
  3
_______________________
 72
    65
 73
     2
 40
9999.0
 49
9999.0
 74
     0
 49
0.0
 74
     0
  0
LTYPE
  5
1FE
330
26
100
AcDbSymbolTableRecord
100
AcDbLinetypeTableRecord
  2
Amzigzag
 70
     0
  3
/\/-/\/-/\/-/\/-/\/-/\/
 72
    65
 73
     2
 40
11.0001
 49
0.0001
 74
     4
 75
   136
340
1FF
 46
0.04
 50
0.0
 44
0.0
 45
0.0
 49
-11.0
 74
     0
  0
LTYPE
  5
1F9
330
26
100
AcDbSymbolTableRecord
100
AcDbLinetypeTableRecord
  2
AM_DIN_F_W050
 70
     0
  3
__ __ __ __ __ __ __ __ __ __ __ __ __ __ __
 72
    65
 73
     2
 40
6.25
 49
4.75
 74
     0
 49
-1.5
 74
     0
  0
LTYPE
  5
1FA
330
26
100
AcDbSymbolTableRecord
100
AcDbLinetypeTableRecord
  2
AM_DIN_G_W050
 70
     0
  3
____ . ____ . ____ . ____ . ____ . ____ . ____
 72
    65
 73
     4
 40
13.75
 49
9.75
 74
     0
 49
-1.5
 74
     0
 49
1.0
 74
     0
 49
-1.5
 74
     0
  0
LTYPE
  5
1FB
330
26
100
AcDbSymbolTableRecord
100
AcDbLinetypeTableRecord
  2
AM_DIN_K_W050
 70
     0
  3
_____ . . _____ . . _____ . . ____ .. ____
 72
    65
 73
     6
 40
16.25
 49
9.75
 74
     0
 49
-1.5
 74
     0
 49
1.0
 74
     0
 49
-1.5
 74
     0
 49
1.0
 74
     0
 49
-1.5
 74
     0
  0
LTYPE
  5
84
330
26
100
AcDbSymbolTableRecord
100
AcDbLinetypeTableRecord
  2
AM_DIN_G_W050x2
 70
     0
  3
__ . __ . __ . __ . __ . __
 72
    65
 73
     4
 40
6.875
 49
4.75
 74
     0
 49
-0.875
 74
     0
 49
0.375
 74
     0
 49
-0.875
 74
     0
  0
LTYPE
  5
1FD
330
26
100
AcDbSymbolTableRecord
100
AcDbLinetypeTableRecord
  2
AM_DIN_F_W050x2
 70
     0
  3
 _ _ _ _ _ _ _ _ _ _ _ _
 72
    65
 73
     2
 40
3.125
 49
2.25
 74
     0
 49
-0.875
 74
     0
  0
LTYPE
  5
211
330
26
100
AcDbSymbolTableRecord
100
AcDbLinetypeTableRecord
  2
ACDINWELD
 70
     0
  3
_ _ _ _ _
 72
    65
 73
     2
 40
2.0
 49
2.0
 74
     0
 49
-1.0
 74
     0
  0
LTYPE
  5
273
330
26
100
AcDbSymbolTableRecord
100
AcDbLinetypeTableRecord
  2
ACDINTGL
 70
     0
  3
_ _ _ _ _
 72
    65
 73
     2
 40
3.0
 49
2.0
 74
     0
 49
-1.0
 74
     0
  0
LTYPE
  5
275
330
26
100
AcDbSymbolTableRecord
100
AcDbLinetypeTableRecord
  2
ACDINTGB
 70
     0
  3
__ . . __ . .
 72
    65
 73
     6
 40
9.0
 49
4.0
 74
     0
 49
-1.0
 74
     0
 49
1.0
 74
     0
 49
-1.0
 74
     0
 49
1.0
 74
     0
 49
-1.0
 74
     0
  0
LTYPE
  5
83
330
26
100
AcDbSymbolTableRecord
100
AcDbLinetypeTableRecord
  2
MITTE
 70
     0
  3
____ _ ____ _ ____ _ ____ _ ____ _ ____ _ ____
 72
    65
 73
     4
 40
2.0
 49
1.25
 74
     0
 49
-0.25
 74
     0
 49
0.25
 74
     0
 49
-0.25
 74
     0
  0
LTYPE
  5
11D
330
26
100
AcDbSymbolTableRecord
100
AcDbLinetypeTableRecord
  2
VERDECKT
 70
     0
  3
_ _ _ _ _ _ _ _ _ _ _ _ _ _ _ _ _ _ _ _ _ _ _
 72
    65
 73
     2
 40
0.375
 49
0.25
 74
     0
 49
-0.125
 74
     0
  0
LTYPE
  5
5D
330
26
100
AcDbSymbolTableRecord
100
AcDbLinetypeTableRecord
  2
AUSGEZOGEN
 70
     0
  3
____________________________________________
 72
    65
 73
     2
 40
2000.1
 49
2000.0
 74
     0
 49
-0.1
 74
     0
  0
LTYPE
  5
249
330
26
100
AcDbSymbolTableRecord
100
AcDbLinetypeTableRecord
  2
PHANTOM2
 70
     0
  3
Phantom (.5x) ___ _ _ ___ _ _ ___ _ _ ___ _ _
 72
    65
 73
     6
 40
1.25
 49
0.625
 74
     0
 49
-0.125
 74
     0
 49
0.125
 74
     0
 49
-0.125
 74
     0
 49
0.125
 74
     0
 49
-0.125
 74
     0
  0
ENDTAB
  0
TABLE
  2
LAYER
  5
12
102
{ACAD_XDICTIONARY
360
21
102
}
330
0
100
AcDbSymbolTable
 70
     6
  0
LAYER
  5
13
102
{ACAD_XDICTIONARY
360
14
102
}
330
12
100
AcDbSymbolTableRecord
100
AcDbLayerTableRecord
  2
0
 70
     0
 62
     7
  6
Continuous
370
    -3
390
15
  0
LAYER
  5
81
102
{ACAD_XDICTIONARY
360
82
102
}
330
12
100
AcDbSymbolTableRecord
100
AcDbLayerTableRecord
  2
-ACHSE
 70
     0
 62
     3
  6
MITTE
370
    -3
390
15
  0
LAYER
  5
5B
102
{ACAD_XDICTIONARY
360
5C
102
}
330
12
100
AcDbSymbolTableRecord
100
AcDbLayerTableRecord
  2
DEFPOINTS
 70
     0
 62
     5
  6
AUSGEZOGEN
290
     0
370
    -3
390
15
  0
LAYER
  5
13E
102
{ACAD_XDICTIONARY
360
13F
102
}
330
12
100
AcDbSymbolTableRecord
100
AcDbLayerTableRecord
  2
-TEXT
 70
     0
 62
     4
  6
AUSGEZOGEN
370
    -3
390
15
  0
LAYER
  5
43
330
12
100
AcDbSymbolTableRecord
100
AcDbLayerTableRecord
  2
-PROFILAUSSENKANTET
 70
     0
 62
     4
  6
Continuous
370
    -3
390
15
  0
LAYER
  5
63
330
12
100
AcDbSymbolTableRecord
100
AcDbLayerTableRecord
  2
AM_5
 70
     0
 62
     3
  6
Continuous
370
    25
390
15
1001
AcAecLayerStandard
1000

1000

  0
ENDTAB
  0
TABLE
  2
STYLE
  5
23
330
0
100
AcDbSymbolTable
 70
     3
  0
STYLE
  5
24
330
23
100
AcDbSymbolTableRecord
100
AcDbTextStyleTableRecord
  2
Standard
 70
     0
 40
0.0
 41
1.0
 50
0.0
 71
     0
 42
2.5
  3
arial.ttf
  4

1001
ACAD
1000
Arial
1071
       34
  0
STYLE
  5
1FF
330
23
100
AcDbSymbolTableRecord
100
AcDbTextStyleTableRecord
  2

 70
     1
 40
0.0
 41
1.0
 50
0.0
 71
     0
 42
2.5
  3
genltshp.shx
  4

  0
STYLE
  5
20F
330
23
100
AcDbSymbolTableRecord
100
AcDbTextStyleTableRecord
  2
ACDINGDT
 70
     0
 40
0.0
 41
1.0
 50
0.0
 71
     0
 42
2.5
  3
amgdt.shx
  4

  0
ENDTAB
  0
TABLE
  2
VIEW
  5
29
330
0
100
AcDbSymbolTable
 70
     0
  0
ENDTAB
  0
TABLE
  2
UCS
  5
2A
330
0
100
AcDbSymbolTable
 70
     0
  0
ENDTAB
  0
TABLE
  2
APPID
  5
30
330
0
100
AcDbSymbolTable
 70
    19
  0
APPID
  5
1F
330
30
100
AcDbSymbolTableRecord
100
AcDbRegAppTableRecord
  2
ACAD
 70
     0
  0
APPID
  5
B
330
30
100
AcDbSymbolTableRecord
100
AcDbRegAppTableRecord
  2
ACAD_PSEXT
 70
     0
  0
APPID
  5
33
330
30
100
AcDbSymbolTableRecord
100
AcDbRegAppTableRecord
  2
ACAD_DSTYLE_DIMJAG
 70
     0
  0
APPID
  5
2F
330
30
100
AcDbSymbolTableRecord
100
AcDbRegAppTableRecord
  2
ACAD_NAV_VCDISPLAY
 70
     0
  0
APPID
  5
34
330
30
100
AcDbSymbolTableRecord
100
AcDbRegAppTableRecord
  2
ACAD_DSTYLE_DIMBREAK
 70
     0
  0
APPID
  5
64
330
30
100
AcDbSymbolTableRecord
100
AcDbRegAppTableRecord
  2
AcAecLayerStandard
 70
     0
  0
APPID
  5
5E
330
30
100
AcDbSymbolTableRecord
100
AcDbRegAppTableRecord
  2
GENIUS_GENREC_14
 70
     0
  0
APPID
  5
5F
330
30
100
AcDbSymbolTableRecord
100
AcDbRegAppTableRecord
  2
GENIUS_GENODEF_13
 70
     0
  0
APPID
  5
60
330
30
100
AcDbSymbolTableRecord
100
AcDbRegAppTableRecord
  2
GENIUS_GENOBJ-N-REC_13
 70
     0
  0
APPID
  5
140
330
30
100
AcDbSymbolTableRecord
100
AcDbRegAppTableRecord
  2
GradientColor1ACI
 70
     0
  0
APPID
  5
141
330
30
100
AcDbSymbolTableRecord
100
AcDbRegAppTableRecord
  2
GradientColor2ACI
 70
     0
  0
APPID
  5
12F
330
30
100
AcDbSymbolTableRecord
100
AcDbRegAppTableRecord
  2
GENIUS_GENDTOL_13
 70
     0
  0
APPID
  5
72
330
30
100
AcDbSymbolTableRecord
100
AcDbRegAppTableRecord
  2
ACAD_DSTYLE_DIMINSPECT
 70
     0
  0
APPID
  5
85
330
30
100
AcDbSymbolTableRecord
100
AcDbRegAppTableRecord
  2
GENIUS_GENOREF_13
 70
     0
  0
APPID
  5
277
330
30
100
AcDbSymbolTableRecord
100
AcDbRegAppTableRecord
  2
ACATTRIBSERVICES
 70
     0
  0
APPID
  5
2A2
330
30
100
AcDbSymbolTableRecord
100
AcDbRegAppTableRecord
  2
ACAD_DSTYLE_DIMJOGGED_JOGANGLE_SYMBOL
 70
     0
  0
APPID
  5
2A3
330
30
100
AcDbSymbolTableRecord
100
AcDbRegAppTableRecord
  2
ACAD_DSTYLE_DIM_LINETYPE
 70
     0
  0
APPID
  5
2A4
330
30
100
AcDbSymbolTableRecord
100
AcDbRegAppTableRecord
  2
ACAD_DSTYLE_DIM_EXT1_LINETYPE
 70
     0
  0
APPID
  5
2A5
330
30
100
AcDbSymbolTableRecord
100
AcDbRegAppTableRecord
  2
ACAD_DSTYLE_DIM_EXT2_LINETYPE
 70
     0
  0
ENDTAB
  0
TABLE
  2
DIMSTYLE
  5
31
330
0
100
AcDbSymbolTable
 70
     9
100
AcDbDimStyleTable
 71
     1
340
32
  0
DIMSTYLE
105
32
102
{ACAD_REACTORS
330
20B
102
}
330
31
100
AcDbSymbolTableRecord
100
AcDbDimStyleTableRecord
  2
AM_DIN
 70
     0
  4
"
 41
3.5
 42
1.0
 43
10.0
 44
1.0
 47
0.1
 48
0.1
 73
     0
 74
     0
 77
     1
 78
     8
 79
     2
140
3.5
141
0.0
143
0.0393701
146
0.71
147
1.5
172
     1
176
   256
177
   256
178
     2
271
     2
272
     3
274
     4
283
     0
284
     8
340
24
371
    -1
372
    -1
1001
ACAD_DSTYLE_DIMJAG
1070
   388
1040
1.5
1001
ACAD_DSTYLE_DIMBREAK
1070
   391
1040
3.75
1001
ACAD_DSTYLE_DIMJOGGED_JOGANGLE_SYMBOL
1070
   384
1040
1.570796326794896
1001
ACAD_DSTYLE_DIM_LINETYPE
1070
   380
1005
27
1001
ACAD_DSTYLE_DIM_EXT1_LINETYPE
1070
   381
1005
27
1001
ACAD_DSTYLE_DIM_EXT2_LINETYPE
1070
   382
1005
27
  0
DIMSTYLE
105
266
330
31
100
AcDbSymbolTableRecord
100
AcDbDimStyleTableRecord
  2
AM_DIN$3
 70
     0
  4
"
 41
3.5
 42
1.0
 43
10.0
 44
1.0
 47
0.1
 48
0.1
 73
     0
 77
     1
 78
     8
 79
     2
140
3.5
141
0.0
143
0.0393701
146
0.71
147
1.5
176
   256
177
   256
178
     2
271
     2
272
     3
274
     4
283
     0
284
     8
288
     1
289
     0
340
24
371
    -1
372
    -1
1001
ACAD_DSTYLE_DIMBREAK
1070
   391
1040
3.75
1001
ACAD_DSTYLE_DIMJAG
1070
   388
1040
1.5
1001
ACAD_DSTYLE_DIMJOGGED_JOGANGLE_SYMBOL
1070
   384
1040
1.570796326794896
1001
ACAD_DSTYLE_DIM_LINETYPE
1070
   380
1005
27
1001
ACAD_DSTYLE_DIM_EXT1_LINETYPE
1070
   381
1005
27
1001
ACAD_DSTYLE_DIM_EXT2_LINETYPE
1070
   382
1005
27
  0
DIMSTYLE
105
267
330
31
100
AcDbSymbolTableRecord
100
AcDbDimStyleTableRecord
  2
AM_DIN$4
 70
     0
  4
"
 41
3.5
 42
1.0
 43
10.0
 44
1.0
 47
0.1
 48
0.1
 73
     0
 74
     0
 77
     1
 78
     8
 79
     2
140
3.5
141
0.0
143
0.0393701
146
0.71
147
1.5
172
     1
176
   256
177
   256
178
     2
271
     2
272
     3
274
     4
283
     0
284
     8
340
24
371
    -1
372
    -1
1001
ACAD_DSTYLE_DIMBREAK
1070
   391
1040
3.75
1001
ACAD_DSTYLE_DIMJAG
1070
   388
1040
1.5
1001
ACAD_DSTYLE_DIMJOGGED_JOGANGLE_SYMBOL
1070
   384
1040
1.570796326794896
1001
ACAD_DSTYLE_DIM_LINETYPE
1070
   380
1005
27
1001
ACAD_DSTYLE_DIM_EXT1_LINETYPE
1070
   381
1005
27
1001
ACAD_DSTYLE_DIM_EXT2_LINETYPE
1070
   382
1005
27
  0
DIMSTYLE
105
268
330
31
100
AcDbSymbolTableRecord
100
AcDbDimStyleTableRecord
  2
AM_DIN$6
 70
     0
  4
"
 41
3.5
 42
1.0
 43
10.0
 44
1.0
 47
0.1
 48
0.1
 73
     0
 74
     0
 78
     8
 79
     2
140
3.5
141
0.0
143
0.0393701
146
0.71
147
1.5
172
     1
176
   256
177
   256
178
     2
271
     2
272
     3
274
     4
283
     0
284
     8
340
24
371
    -1
372
    -1
1001
ACAD_DSTYLE_DIMBREAK
1070
   391
1040
3.75
1001
ACAD_DSTYLE_DIMJAG
1070
   388
1040
1.5
1001
ACAD_DSTYLE_DIMJOGGED_JOGANGLE_SYMBOL
1070
   384
1040
1.570796326794896
1001
ACAD_DSTYLE_DIM_LINETYPE
1070
   380
1005
27
1001
ACAD_DSTYLE_DIM_EXT1_LINETYPE
1070
   381
1005
27
1001
ACAD_DSTYLE_DIM_EXT2_LINETYPE
1070
   382
1005
27
  0
DIMSTYLE
105
269
330
31
100
AcDbSymbolTableRecord
100
AcDbDimStyleTableRecord
  2
AM_DIN$7
 70
     0
  4
"
 41
3.5
 42
1.0
 43
10.0
 44
1.0
 47
0.1
 48
0.1
 73
     0
 74
     0
 77
     1
 78
     8
 79
     2
140
3.5
141
0.0
143
0.0393701
146
0.71
147
1.5
172
     1
176
   256
177
   256
178
     2
271
     2
272
     3
274
     4
283
     0
284
     8
340
24
371
    -1
372
    -1
1001
ACAD_DSTYLE_DIMBREAK
1070
   391
1040
3.75
1001
ACAD_DSTYLE_DIMJAG
1070
   388
1040
1.5
1001
ACAD_DSTYLE_DIMJOGGED_JOGANGLE_SYMBOL
1070
   384
1040
1.570796326794896
1001
ACAD_DSTYLE_DIM_LINETYPE
1070
   380
1005
27
1001
ACAD_DSTYLE_DIM_EXT1_LINETYPE
1070
   381
1005
27
1001
ACAD_DSTYLE_DIM_EXT2_LINETYPE
1070
   382
1005
27
  0
DIMSTYLE
105
26A
330
31
100
AcDbSymbolTableRecord
100
AcDbDimStyleTableRecord
  2
AM_DIN$SF
 70
     0
  4
"
 41
3.5
 42
1.0
 43
10.0
 44
1.0
 47
0.1
 48
0.1
 73
     0
 74
     0
 75
     1
 76
     1
 77
     1
 78
     8
 79
     2
140
3.5
141
0.0
143
0.0393701
146
0.71
147
1.5
172
     1
176
   256
177
   256
178
     2
271
     2
272
     3
274
     4
283
     0
284
     8
340
24
371
    -1
372
    -1
1001
ACAD_DSTYLE_DIMBREAK
1070
   391
1040
3.75
1001
ACAD_DSTYLE_DIMJAG
1070
   388
1040
1.5
1001
ACAD_DSTYLE_DIMJOGGED_JOGANGLE_SYMBOL
1070
   384
1040
1.570796326794896
1001
ACAD_DSTYLE_DIM_LINETYPE
1070
   380
1005
27
1001
ACAD_DSTYLE_DIM_EXT1_LINETYPE
1070
   381
1005
27
1001
ACAD_DSTYLE_DIM_EXT2_LINETYPE
1070
   382
1005
27
  0
DIMSTYLE
105
26B
330
31
100
AcDbSymbolTableRecord
100
AcDbDimStyleTableRecord
  2
AM_DIN$SH
 70
     0
  4
"
 41
3.5
 42
1.0
 43
10.0
 44
1.0
 47
0.1
 48
0.1
 73
     0
 74
     0
 75
     1
 76
     1
 77
     1
 78
     8
 79
     2
140
3.5
141
0.0
143
0.0393701
144
2.0
146
0.71
147
1.5
172
     1
173
     1
176
   256
177
   256
178
     2
271
     2
272
     3
274
     4
283
     0
284
     8
340
24
343
26C
371
    -1
372
    -1
1001
ACAD_DSTYLE_DIMBREAK
1070
   391
1040
3.75
1001
ACAD_DSTYLE_DIMJAG
1070
   388
1040
1.5
1001
ACAD_DSTYLE_DIMJOGGED_JOGANGLE_SYMBOL
1070
   384
1040
1.570796326794896
1001
ACAD_DSTYLE_DIM_LINETYPE
1070
   380
1005
27
1001
ACAD_DSTYLE_DIM_EXT1_LINETYPE
1070
   381
1005
27
1001
ACAD_DSTYLE_DIM_EXT2_LINETYPE
1070
   382
1005
27
  0
DIMSTYLE
105
71
102
{ACAD_REACTORS
330
62
330
73
330
87
330
96
330
A3
330
B2
330
C1
330
CE
330
DB
330
EA
330
F9
330
108
330
122
330
130
102
}
330
31
100
AcDbSymbolTableRecord
100
AcDbDimStyleTableRecord
  2
AM_DIN$0
 70
     0
  4
"
 41
3.5
 42
1.0
 43
10.0
 44
1.0
 47
0.1
 48
0.1
 73
     0
 74
     0
 77
     1
 78
     8
 79
     2
140
3.5
141
0.0
143
0.0393701
146
0.71
147
1.5
172
     1
176
   256
177
   256
178
     2
271
     2
272
     3
274
     4
283
     0
284
     8
340
24
371
    -1
372
    -1
1001
ACAD_DSTYLE_DIMBREAK
1070
   391
1040
3.75
1001
ACAD_DSTYLE_DIMJAG
1070
   388
1040
1.5
1001
ACAD_DSTYLE_DIMJOGGED_JOGANGLE_SYMBOL
1070
   384
1040
1.570796326794896
1001
ACAD_DSTYLE_DIM_LINETYPE
1070
   380
1005
27
1001
ACAD_DSTYLE_DIM_EXT1_LINETYPE
1070
   381
1005
27
1001
ACAD_DSTYLE_DIM_EXT2_LINETYPE
1070
   382
1005
27
  0
DIMSTYLE
105
265
330
31
100
AcDbSymbolTableRecord
100
AcDbDimStyleTableRecord
  2
AM_DIN$2
 70
     0
  4
"
 41
3.5
 42
1.0
 43
10.0
 44
1.0
 47
0.1
 48
0.1
 73
     0
 74
     0
 77
     1
 78
     8
 79
     2
140
3.5
141
0.0
143
0.0393701
146
0.71
147
1.5
172
     1
176
   256
177
   256
178
     2
271
     2
272
     3
274
     4
283
     0
284
     8
340
24
371
    -1
372
    -1
1001
ACAD_DSTYLE_DIMBREAK
1070
   391
1040
3.75
1001
ACAD_DSTYLE_DIMJAG
1070
   388
1040
1.5
1001
ACAD_DSTYLE_DIMJOGGED_JOGANGLE_SYMBOL
1070
   384
1040
1.570796326794896
1001
ACAD_DSTYLE_DIM_LINETYPE
1070
   380
1005
27
1001
ACAD_DSTYLE_DIM_EXT1_LINETYPE
1070
   381
1005
27
1001
ACAD_DSTYLE_DIM_EXT2_LINETYPE
1070
   382
1005
27
  0
ENDTAB
  0
TABLE
  2
BLOCK_RECORD
  5
1
330
0
100
AcDbSymbolTable
 70
    17
  0
BLOCK_RECORD
  5
2
102
{ACAD_XDICTIONARY
360
3
102
}
330
1
100
AcDbSymbolTableRecord
100
AcDbBlockTableRecord
  2
*Model_Space
340
7
  0
BLOCK_RECORD
  5
C
102
{ACAD_XDICTIONARY
360
D
102
}
330
1
100
AcDbSymbolTableRecord
100
AcDbBlockTableRecord
  2
*Paper_Space
340
11
  0
BLOCK_RECORD
  5
26C
330
1
100
AcDbSymbolTableRecord
100
AcDbBlockTableRecord
  2
GENAXEH
340
0
  0
BLOCK_RECORD
  5
23D
330
1
100
AcDbSymbolTableRecord
100
AcDbBlockTableRecord
  2
_ACMFILLED30
340
0
  0
BLOCK_RECORD
  5
223
330
1
100
AcDbSymbolTableRecord
100
AcDbBlockTableRecord
  2
_ACMFILLEDHALF
340
0
  0
BLOCK_RECORD
  5
65
330
1
100
AcDbSymbolTableRecord
100
AcDbBlockTableRecord
  2
*D3
340
0
  0
BLOCK_RECORD
  5
74
330
1
100
AcDbSymbolTableRecord
100
AcDbBlockTableRecord
  2
*D4
340
0
  0
BLOCK_RECORD
  5
88
330
1
100
AcDbSymbolTableRecord
100
AcDbBlockTableRecord
  2
*D5
340
0
  0
BLOCK_RECORD
  5
97
330
1
100
AcDbSymbolTableRecord
100
AcDbBlockTableRecord
  2
*D6
340
0
  0
BLOCK_RECORD
  5
A4
330
1
100
AcDbSymbolTableRecord
100
AcDbBlockTableRecord
  2
*D7
340
0
  0
BLOCK_RECORD
  5
B3
330
1
100
AcDbSymbolTableRecord
100
AcDbBlockTableRecord
  2
*D8
340
0
  0
BLOCK_RECORD
  5
C2
330
1
100
AcDbSymbolTableRecord
100
AcDbBlockTableRecord
  2
*D9
340
0
  0
BLOCK_RECORD
  5
CF
330
1
100
AcDbSymbolTableRecord
100
AcDbBlockTableRecord
  2
*D10
340
0
  0
BLOCK_RECORD
  5
DC
330
1
100
AcDbSymbolTableRecord
100
AcDbBlockTableRecord
  2
*D11
340
0
  0
BLOCK_RECORD
  5
EB
330
1
100
AcDbSymbolTableRecord
100
AcDbBlockTableRecord
  2
*D12
340
0
  0
BLOCK_RECORD
  5
FA
330
1
100
AcDbSymbolTableRecord
100
AcDbBlockTableRecord
  2
*D13
340
0
  0
BLOCK_RECORD
  5
109
330
1
100
AcDbSymbolTableRecord
100
AcDbBlockTableRecord
  2
*D14
340
0
  0
BLOCK_RECORD
  5
123
330
1
100
AcDbSymbolTableRecord
100
AcDbBlockTableRecord
  2
*D15
340
0
  0
BLOCK_RECORD
  5
131
330
1
100
AcDbSymbolTableRecord
100
AcDbBlockTableRecord
  2
*D16
340
0
  0
ENDTAB
  0
ENDSEC
  0
SECTION
  2
BLOCKS
  0
BLOCK
  5
5
330
2
100
AcDbEntity
  8
0
100
AcDbBlockBegin
  2
*Model_Space
 70
     0
 10
0.0
 20
0.0
 30
0.0
  3
*Model_Space
  1

  0
ENDBLK
  5
6
330
2
100
AcDbEntity
  8
0
100
AcDbBlockEnd
  0
BLOCK
  5
F
330
C
100
AcDbEntity
 67
     1
  8
0
100
AcDbBlockBegin
  2
*Paper_Space
 70
     0
 10
0.0
 20
0.0
 30
0.0
  3
*Paper_Space
  1

  0
ENDBLK
  5
10
330
C
100
AcDbEntity
 67
     1
  8
0
100
AcDbBlockEnd
  0
BLOCK
  5
26D
330
26C
100
AcDbEntity
  8
0
100
AcDbBlockBegin
  2
GENAXEH
 70
     0
 10
0.0
 20
0.0
 30
0.0
  3
GENAXEH
  1

  0
LINE
  5
26E
330
26C
100
AcDbEntity
  8
0
100
AcDbLine
 10
-1.0
 20
0.0
 30
0.0
 11
1.0
 21
0.0
 31
0.0
  0
ENDBLK
  5
26F
330
26C
100
AcDbEntity
  8
0
100
AcDbBlockEnd
  0
BLOCK
  5
23E
330
23D
100
AcDbEntity
  8
0
100
AcDbBlockBegin
  2
_ACMFILLED30
 70
     0
 10
0.0
 20
0.0
 30
0.0
  3
_ACMFILLED30
  1

  0
TRACE
  5
23F
330
23D
100
AcDbEntity
  8
0
 62
     0
100
AcDbTrace
 10
-1.0
 20
-0.26794919
 30
0.0
 11
-1.0
 21
0.26794919
 31
0.0
 12
0.0
 22
0.0
 32
0.0
 13
0.0
 23
0.0
 33
0.0
  0
ENDBLK
  5
240
330
23D
100
AcDbEntity
  8
0
100
AcDbBlockEnd
  0
BLOCK
  5
224
330
223
100
AcDbEntity
  8
0
100
AcDbBlockBegin
  2
_ACMFILLEDHALF
 70
     0
 10
0.0
 20
0.0
 30
0.0
  3
_ACMFILLEDHALF
  1

  0
TRACE
  5
225
330
223
100
AcDbEntity
  8
-PROFILAUSSENKANTET
 62
     0
100
AcDbTrace
 10
-0.8
 20
0.0
 30
0.0
 11
-1.0
 21
0.166666666
 31
0.0
 12
0.0
 22
0.0
 32
0.0
 13
0.0
 23
0.0
 33
0.0
  0
LINE
  5
226
330
223
100
AcDbEntity
  8
-PROFILAUSSENKANTET
 62
     0
100
AcDbLine
 10
-1.0
 20
0.0
 30
0.0
 11
-0.8
 21
0.0
 31
0.0
  0
ENDBLK
  5
227
330
223
100
AcDbEntity
  8
0
100
AcDbBlockEnd
  0
BLOCK
  5
66
330
65
100
AcDbEntity
  8
0
100
AcDbBlockBegin
  2
*D3
 70
     1
 10
0.0
 20
0.0
 30
0.0
  3
*D3
  1

  0
LINE
  5
67
330
65
100
AcDbEntity
  8
AM_5
  6
ByBlock
100
AcDbLine
 10
32662.86666781084
 20
4636.847455243247
 30
0.0
 11
32662.86666781084
 21
4645.446978509244
 31
0.0
  0
LINE
  5
68
330
65
100
AcDbEntity
  8
AM_5
  6
ByBlock
100
AcDbLine
 10
32632.86666781084
 20
4637.147455243247
 30
0.0
 11
32632.86666781084
 21
4645.446978509244
 31
0.0
  0
LINE
  5
69
330
65
100
AcDbEntity
  8
AM_5
  6
ByBlock
100
AcDbLine
 10
32639.86666781084
 20
4643.446978509243
 30
0.0
 11
32655.86666781084
 21
4643.446978509243
 31
0.0
  0
SOLID
  5
6A
330
65
100
AcDbEntity
  8
AM_5
100
AcDbTrace
 10
32639.86666781084
 20
4644.61364517591
 30
0.0
 11
32639.86666781084
 21
4642.280311842576
 31
0.0
 12
32632.86666781084
 22
4643.446978509243
 32
0.0
 13
32632.86666781084
 23
4643.446978509243
 33
0.0
  0
SOLID
  5
6B
330
65
100
AcDbEntity
  8
AM_5
100
AcDbTrace
 10
32655.86666781084
 20
4644.61364517591
 30
0.0
 11
32655.86666781084
 21
4642.280311842576
 31
0.0
 12
32662.86666781084
 22
4643.446978509243
 32
0.0
 13
32662.86666781084
 23
4643.446978509243
 33
0.0
  0
MTEXT
  5
6C
330
65
100
AcDbEntity
  8
AM_5
 62
     2
100
AcDbMText
 10
32647.86666781084
 20
4650.023376872136
 30
0.0
 40
7.0
 41
0.0
 71
     5
 72
     1
  1
30
 73
     1
 44
1.0
1001
ACAD
1000
MTEXTBEGIN
1070
    73
1070
     1
1070
    44
1040
1.0
1070
    74
1070
     0
1000
MTEXTEND
  0
POINT
  5
6D
330
65
100
AcDbEntity
  8
DEFPOINTS
 62
     0
100
AcDbPoint
 10
32662.86666781084
 20
4634.847455243249
 30
0.0
  0
POINT
  5
6E
330
65
100
AcDbEntity
  8
DEFPOINTS
 62
     0
100
AcDbPoint
 10
32632.86666781084
 20
4635.147455243247
 30
0.0
  0
POINT
  5
6F
330
65
100
AcDbEntity
  8
DEFPOINTS
 62
     0
100
AcDbPoint
 10
32632.86666781084
 20
4643.446978509243
 30
0.0
  0
ENDBLK
  5
70
330
65
100
AcDbEntity
  8
0
100
AcDbBlockEnd
  0
BLOCK
  5
75
330
74
100
AcDbEntity
  8
0
100
AcDbBlockBegin
  2
*D4
 70
     1
 10
0.0
 20
0.0
 30
0.0
  3
*D4
  1

  0
LINE
  5
76
330
74
100
AcDbEntity
  8
AM_5
  6
ByBlock
100
AcDbLine
 10
32631.06666781085
 20
4635.347455243247
 30
0.0
 11
32618.42770218665
 21
4635.347455243247
 31
0.0
  0
LINE
  5
77
330
74
100
AcDbEntity
  8
AM_5
  6
ByBlock
100
AcDbLine
 10
32649.66666781084
 20
4578.347455243249
 30
0.0
 11
32618.42770218665
 21
4578.347455243249
 31
0.0
  0
LINE
  5
78
330
74
100
AcDbEntity
  8
AM_5
  6
ByBlock
100
AcDbLine
 10
32620.42770218665
 20
4628.347455243248
 30
0.0
 11
32620.42770218665
 21
4585.347455243248
 31
0.0
  0
SOLID
  5
79
330
74
100
AcDbEntity
  8
AM_5
100
AcDbTrace
 10
32619.26103551998
 20
4628.347455243248
 30
0.0
 11
32621.59436885331
 21
4628.347455243248
 31
0.0
 12
32620.42770218665
 22
4635.347455243247
 32
0.0
 13
32620.42770218665
 23
4635.347455243247
 33
0.0
  0
SOLID
  5
7A
330
74
100
AcDbEntity
  8
AM_5
100
AcDbTrace
 10
32619.26103551998
 20
4585.347455243248
 30
0.0
 11
32621.59436885331
 21
4585.347455243248
 31
0.0
 12
32620.42770218665
 22
4578.347455243249
 32
0.0
 13
32620.42770218665
 23
4578.347455243249
 33
0.0
  0
MTEXT
  5
7B
330
74
100
AcDbEntity
  8
AM_5
 62
     2
100
AcDbMText
 10
32613.86801596564
 20
4606.847455243254
 30
0.0
 40
7.0
 41
0.0
 71
     5
 72
     1
  1
57
 11
0.0000000000000001
 21
1.0
 31
0.0
 73
     1
 44
1.0
1001
ACAD
1000
MTEXTBEGIN
1070
    73
1070
     1
1070
    44
1040
1.0
1070
    74
1070
     0
1000
MTEXTEND
  0
POINT
  5
7C
330
74
100
AcDbEntity
  8
DEFPOINTS
 62
     0
100
AcDbPoint
 10
32633.06666781085
 20
4635.347455243247
 30
0.0
  0
POINT
  5
7D
330
74
100
AcDbEntity
  8
DEFPOINTS
 62
     0
100
AcDbPoint
 10
32651.66666781084
 20
4578.347455243249
 30
0.0
  0
POINT
  5
7E
330
74
100
AcDbEntity
  8
DEFPOINTS
 62
     0
100
AcDbPoint
 10
32620.42770218665
 20
4578.347455243249
 30
0.0
  0
ENDBLK
  5
7F
330
74
100
AcDbEntity
  8
0
100
AcDbBlockEnd
  0
BLOCK
  5
89
330
88
100
AcDbEntity
  8
0
100
AcDbBlockBegin
  2
*D5
 70
     1
 10
0.0
 20
0.0
 30
0.0
  3
*D5
  1

  0
LINE
  5
8A
330
88
100
AcDbEntity
  8
AM_5
  6
ByBlock
100
AcDbLine
 10
28845.32621773683
 20
4633.347455243248
 30
0.0
 11
28836.95457817772
 21
4633.347455243248
 31
0.0
  0
LINE
  5
8B
330
88
100
AcDbEntity
  8
AM_5
  6
ByBlock
100
AcDbLine
 10
28844.32621773683
 20
4629.347455243249
 30
0.0
 11
28836.95457817772
 21
4629.347455243249
 31
0.0
  0
LINE
  5
8C
330
88
100
AcDbEntity
  8
AM_5
  6
ByBlock
100
AcDbLine
 10
28837.45457817772
 20
4635.097455243249
 30
0.0
 11
28837.45457817772
 21
4636.847455243248
 31
0.0
  0
LINE
  5
8D
330
88
100
AcDbEntity
  8
AM_5
  6
ByBlock
100
AcDbLine
 10
28837.45457817772
 20
4627.597455243249
 30
0.0
 11
28837.45457817772
 21
4625.847455243248
 31
0.0
  0
LINE
  5
8E
330
88
100
AcDbEntity
  8
AM_5
  6
ByBlock
100
AcDbLine
 10
28837.45457817772
 20
4633.347455243248
 30
0.0
 11
28837.45457817772
 21
4629.347455243249
 31
0.0
  0
SOLID
  5
8F
330
88
100
AcDbEntity
  8
AM_5
100
AcDbTrace
 10
28837.16291151106
 20
4635.097455243249
 30
0.0
 11
28837.74624484439
 21
4635.097455243249
 31
0.0
 12
28837.45457817772
 22
4633.347455243248
 32
0.0
 13
28837.45457817772
 23
4633.347455243248
 33
0.0
  0
SOLID
  5
90
330
88
100
AcDbEntity
  8
AM_5
100
AcDbTrace
 10
28837.16291151106
 20
4627.597455243249
 30
0.0
 11
28837.74624484439
 21
4627.597455243249
 31
0.0
 12
28837.45457817772
 22
4629.347455243249
 32
0.0
 13
28837.45457817772
 23
4629.347455243249
 33
0.0
  0
MTEXT
  5
91
330
88
100
AcDbEntity
  8
AM_5
 62
     2
100
AcDbMText
 10
28835.82957817772
 20
4631.347455243253
 30
0.0
 40
1.75
 41
0.0
 71
     5
 72
     1
  1
4
 11
0.0000000000000001
 21
1.0
 31
0.0
 73
     1
 44
1.0
1001
ACAD
1000
MTEXTBEGIN
1070
    73
1070
     1
1070
    44
1040
1.0
1070
    74
1070
     0
1000
MTEXTEND
  0
POINT
  5
92
330
88
100
AcDbEntity
  8
DEFPOINTS
 62
     0
100
AcDbPoint
 10
28845.82621773683
 20
4633.347455243248
 30
0.0
  0
POINT
  5
93
330
88
100
AcDbEntity
  8
DEFPOINTS
 62
     0
100
AcDbPoint
 10
28844.82621773683
 20
4629.347455243249
 30
0.0
  0
POINT
  5
94
330
88
100
AcDbEntity
  8
DEFPOINTS
 62
     0
100
AcDbPoint
 10
28837.45457817772
 20
4629.347455243249
 30
0.0
  0
ENDBLK
  5
95
330
88
100
AcDbEntity
  8
0
100
AcDbBlockEnd
  0
BLOCK
  5
98
330
97
100
AcDbEntity
  8
0
100
AcDbBlockBegin
  2
*D6
 70
     1
 10
0.0
 20
0.0
 30
0.0
  3
*D6
  1

  0
LINE
  5
99
330
97
100
AcDbEntity
  8
AM_5
  6
ByBlock
100
AcDbLine
 10
28845.32621773683
 20
4635.347455243248
 30
0.0
 11
28845.32621773683
 21
4638.517379444987
 31
0.0
  0
LINE
  5
9A
330
97
100
AcDbEntity
  8
AM_5
  6
ByBlock
100
AcDbLine
 10
28875.32621773683
 20
4635.647455243248
 30
0.0
 11
28875.32621773683
 21
4638.517379444987
 31
0.0
  0
LINE
  5
9B
330
97
100
AcDbEntity
  8
AM_5
  6
ByBlock
100
AcDbLine
 10
28847.07621773683
 20
4638.017379444987
 30
0.0
 11
28873.57621773683
 21
4638.017379444987
 31
0.0
  0
SOLID
  5
9C
330
97
100
AcDbEntity
  8
AM_5
100
AcDbTrace
 10
28847.07621773683
 20
4638.309046111654
 30
0.0
 11
28847.07621773683
 21
4637.72571277832
 31
0.0
 12
28845.32621773683
 22
4638.017379444987
 32
0.0
 13
28845.32621773683
 23
4638.017379444987
 33
0.0
  0
SOLID
  5
9D
330
97
100
AcDbEntity
  8
AM_5
100
AcDbTrace
 10
28873.57621773683
 20
4638.309046111654
 30
0.0
 11
28873.57621773683
 21
4637.72571277832
 31
0.0
 12
28875.32621773683
 22
4638.017379444987
 32
0.0
 13
28875.32621773683
 23
4638.017379444987
 33
0.0
  0
MTEXT
  5
9E
330
97
100
AcDbEntity
  8
AM_5
 62
     2
100
AcDbMText
 10
28860.32621773683
 20
4639.66147903571
 30
0.0
 40
1.75
 41
0.0
 71
     5
 72
     1
  1
30
 73
     1
 44
1.0
1001
ACAD
1000
MTEXTBEGIN
1070
    73
1070
     1
1070
    44
1040
1.0
1070
    74
1070
     0
1000
MTEXTEND
  0
POINT
  5
9F
330
97
100
AcDbEntity
  8
DEFPOINTS
 62
     0
100
AcDbPoint
 10
28845.32621773683
 20
4634.847455243249
 30
0.0
  0
POINT
  5
A0
330
97
100
AcDbEntity
  8
DEFPOINTS
 62
     0
100
AcDbPoint
 10
28875.32621773683
 20
4635.147455243248
 30
0.0
  0
POINT
  5
A1
330
97
100
AcDbEntity
  8
DEFPOINTS
 62
     0
100
AcDbPoint
 10
28875.32621773683
 20
4638.017379444987
 30
0.0
  0
ENDBLK
  5
A2
330
97
100
AcDbEntity
  8
0
100
AcDbBlockEnd
  0
BLOCK
  5
A5
330
A4
100
AcDbEntity
  8
0
100
AcDbBlockBegin
  2
*D7
 70
     1
 10
0.0
 20
0.0
 30
0.0
  3
*D7
  1

  0
LINE
  5
A6
330
A4
100
AcDbEntity
  8
AM_5
  6
ByBlock
100
AcDbLine
 10
28843.82621773683
 20
4628.847455243248
 30
0.0
 11
28843.82621773683
 21
4638.517379444987
 31
0.0
  0
LINE
  5
A7
330
A4
100
AcDbEntity
  8
AM_5
  6
ByBlock
100
AcDbLine
 10
28845.32621773683
 20
4635.347455243248
 30
0.0
 11
28845.32621773683
 21
4638.517379444987
 31
0.0
  0
LINE
  5
A8
330
A4
100
AcDbEntity
  8
AM_5
  6
ByBlock
100
AcDbLine
 10
28847.07621773683
 20
4638.017379444987
 30
0.0
 11
28848.82621773683
 21
4638.017379444987
 31
0.0
  0
LINE
  5
A9
330
A4
100
AcDbEntity
  8
AM_5
  6
ByBlock
100
AcDbLine
 10
28842.07621773683
 20
4638.017379444987
 30
0.0
 11
28835.7917702607
 21
4638.017379444987
 31
0.0
  0
LINE
  5
AA
330
A4
100
AcDbEntity
  8
AM_5
  6
ByBlock
100
AcDbLine
 10
28845.32621773683
 20
4638.017379444987
 30
0.0
 11
28843.82621773683
 21
4638.017379444987
 31
0.0
  0
SOLID
  5
AB
330
A4
100
AcDbEntity
  8
AM_5
100
AcDbTrace
 10
28847.07621773683
 20
4638.309046111654
 30
0.0
 11
28847.07621773683
 21
4637.72571277832
 31
0.0
 12
28845.32621773683
 22
4638.017379444987
 32
0.0
 13
28845.32621773683
 23
4638.017379444987
 33
0.0
  0
SOLID
  5
AC
330
A4
100
AcDbEntity
  8
AM_5
100
AcDbTrace
 10
28842.07621773683
 20
4638.309046111654
 30
0.0
 11
28842.07621773683
 21
4637.72571277832
 31
0.0
 12
28843.82621773683
 22
4638.017379444987
 32
0.0
 13
28843.82621773683
 23
4638.017379444987
 33
0.0
  0
MTEXT
  5
AD
330
A4
100
AcDbEntity
  8
AM_5
 62
     2
100
AcDbMText
 10
28838.05899399876
 20
4639.6608821735
 30
0.0
 40
1.75
 41
0.0
 71
     5
 72
     1
  1
1.5
 73
     1
 44
1.0
1001
ACAD
1000
MTEXTBEGIN
1070
    73
1070
     1
1070
    44
1040
1.0
1070
    74
1070
     0
1000
MTEXTEND
  0
POINT
  5
AE
330
A4
100
AcDbEntity
  8
DEFPOINTS
 62
     0
100
AcDbPoint
 10
28843.82621773683
 20
4628.347455243249
 30
0.0
  0
POINT
  5
AF
330
A4
100
AcDbEntity
  8
DEFPOINTS
 62
     0
100
AcDbPoint
 10
28845.32621773683
 20
4634.847455243249
 30
0.0
  0
POINT
  5
B0
330
A4
100
AcDbEntity
  8
DEFPOINTS
 62
     0
100
AcDbPoint
 10
28845.32621773683
 20
4638.017379444987
 30
0.0
  0
ENDBLK
  5
B1
330
A4
100
AcDbEntity
  8
0
100
AcDbBlockEnd
  0
BLOCK
  5
B4
330
B3
100
AcDbEntity
  8
0
100
AcDbBlockBegin
  2
*D8
 70
     1
 10
0.0
 20
0.0
 30
0.0
  3
*D8
  1

  0
LINE
  5
B5
330
B3
100
AcDbEntity
  8
AM_5
  6
ByBlock
100
AcDbLine
 10
28875.62621773683
 20
4635.347455243248
 30
0.0
 11
28880.54726778965
 21
4635.347455243248
 31
0.0
  0
LINE
  5
B6
330
B3
100
AcDbEntity
  8
AM_5
  6
ByBlock
100
AcDbLine
 10
28875.62621773686
 20
4633.347455243248
 30
0.0
 11
28880.54726778965
 21
4633.347455243248
 31
0.0
  0
LINE
  5
B7
330
B3
100
AcDbEntity
  8
AM_5
  6
ByBlock
100
AcDbLine
 10
28880.04726778965
 20
4631.597455243249
 30
0.0
 11
28880.04726778965
 21
4629.847455243249
 31
0.0
  0
LINE
  5
B8
330
B3
100
AcDbEntity
  8
AM_5
  6
ByBlock
100
AcDbLine
 10
28880.04726778965
 20
4637.097455243249
 30
0.0
 11
28880.04726778965
 21
4641.506561655254
 31
0.0
  0
LINE
  5
B9
330
B3
100
AcDbEntity
  8
AM_5
  6
ByBlock
100
AcDbLine
 10
28880.04726778965
 20
4633.347455243248
 30
0.0
 11
28880.04726778965
 21
4635.347455243248
 31
0.0
  0
SOLID
  5
BA
330
B3
100
AcDbEntity
  8
AM_5
100
AcDbTrace
 10
28879.75560112298
 20
4631.597455243249
 30
0.0
 11
28880.33893445632
 21
4631.597455243249
 31
0.0
 12
28880.04726778965
 22
4633.347455243248
 32
0.0
 13
28880.04726778965
 23
4633.347455243248
 33
0.0
  0
SOLID
  5
BB
330
B3
100
AcDbEntity
  8
AM_5
100
AcDbTrace
 10
28879.75560112298
 20
4637.097455243249
 30
0.0
 11
28880.33893445632
 21
4637.097455243249
 31
0.0
 12
28880.04726778965
 22
4635.347455243248
 32
0.0
 13
28880.04726778965
 23
4635.347455243248
 33
0.0
  0
MTEXT
  5
BC
330
B3
100
AcDbEntity
  8
AM_5
 62
     2
100
AcDbMText
 10
28878.41868661639
 20
4640.177008449255
 30
0.0
 40
1.75
 41
0.0
 71
     5
 72
     1
  1
2
 11
0.0000000000000001
 21
1.0
 31
0.0
 73
     1
 44
1.0
1001
ACAD
1000
MTEXTBEGIN
1070
    73
1070
     1
1070
    44
1040
1.0
1070
    74
1070
     0
1000
MTEXTEND
  0
POINT
  5
BD
330
B3
100
AcDbEntity
  8
DEFPOINTS
 62
     0
100
AcDbPoint
 10
28875.12621773683
 20
4635.347455243248
 30
0.0
  0
POINT
  5
BE
330
B3
100
AcDbEntity
  8
DEFPOINTS
 62
     0
100
AcDbPoint
 10
28875.12621773686
 20
4633.347455243248
 30
0.0
  0
POINT
  5
BF
330
B3
100
AcDbEntity
  8
DEFPOINTS
 62
     0
100
AcDbPoint
 10
28880.04726778965
 20
4633.347455243248
 30
0.0
  0
ENDBLK
  5
C0
330
B3
100
AcDbEntity
  8
0
100
AcDbBlockEnd
  0
BLOCK
  5
C3
330
C2
100
AcDbEntity
  8
0
100
AcDbBlockBegin
  2
*D9
 70
     1
 10
0.0
 20
0.0
 30
0.0
  3
*D9
  1

  0
LINE
  5
C4
330
C2
100
AcDbEntity
  8
AM_5
  6
ByBlock
100
AcDbLine
 10
28875.62621773493
 20
4633.347455243248
 30
0.0
 11
28880.54726778965
 21
4633.347455243248
 31
0.0
  0
LINE
  5
C5
330
C2
100
AcDbEntity
  8
AM_5
  6
ByBlock
100
AcDbLine
 10
28857.02621773683
 20
4578.347455243249
 30
0.0
 11
28880.54726778965
 21
4578.347455243249
 31
0.0
  0
LINE
  5
C6
330
C2
100
AcDbEntity
  8
AM_5
  6
ByBlock
100
AcDbLine
 10
28880.04726778965
 20
4631.597455243249
 30
0.0
 11
28880.04726778965
 21
4580.097455243249
 31
0.0
  0
SOLID
  5
C7
330
C2
100
AcDbEntity
  8
AM_5
100
AcDbTrace
 10
28879.75560112298
 20
4631.597455243249
 30
0.0
 11
28880.33893445632
 21
4631.597455243249
 31
0.0
 12
28880.04726778965
 22
4633.347455243248
 32
0.0
 13
28880.04726778965
 23
4633.347455243248
 33
0.0
  0
SOLID
  5
C8
330
C2
100
AcDbEntity
  8
AM_5
100
AcDbTrace
 10
28879.75560112298
 20
4580.097455243249
 30
0.0
 11
28880.33893445632
 21
4580.097455243249
 31
0.0
 12
28880.04726778965
 22
4578.347455243249
 32
0.0
 13
28880.04726778965
 23
4578.347455243249
 33
0.0
  0
MTEXT
  5
C9
330
C2
100
AcDbEntity
  8
AM_5
 62
     2
100
AcDbMText
 10
28878.4073462344
 20
4605.847455243253
 30
0.0
 40
1.75
 41
0.0
 71
     5
 72
     1
  1
55
 11
0.0000000000000001
 21
1.0
 31
0.0
 73
     1
 44
1.0
1001
ACAD
1000
MTEXTBEGIN
1070
    73
1070
     1
1070
    44
1040
1.0
1070
    74
1070
     0
1000
MTEXTEND
  0
POINT
  5
CA
330
C2
100
AcDbEntity
  8
DEFPOINTS
 62
     0
100
AcDbPoint
 10
28875.12621773493
 20
4633.347455243248
 30
0.0
  0
POINT
  5
CB
330
C2
100
AcDbEntity
  8
DEFPOINTS
 62
     0
100
AcDbPoint
 10
28856.52621773683
 20
4578.347455243249
 30
0.0
  0
POINT
  5
CC
330
C2
100
AcDbEntity
  8
DEFPOINTS
 62
     0
100
AcDbPoint
 10
28880.04726778965
 20
4578.347455243249
 30
0.0
  0
ENDBLK
  5
CD
330
C2
100
AcDbEntity
  8
0
100
AcDbBlockEnd
  0
BLOCK
  5
D0
330
CF
100
AcDbEntity
  8
0
100
AcDbBlockBegin
  2
*D10
 70
     1
 10
0.0
 20
0.0
 30
0.0
  3
*D10
  1

  0
LINE
  5
D1
330
CF
100
AcDbEntity
  8
AM_5
  6
ByBlock
100
AcDbLine
 10
28875.62621773683
 20
4635.347455243248
 30
0.0
 11
28884.54726778965
 21
4635.347455243248
 31
0.0
  0
LINE
  5
D2
330
CF
100
AcDbEntity
  8
AM_5
  6
ByBlock
100
AcDbLine
 10
28857.02621773683
 20
4578.347455243249
 30
0.0
 11
28884.54726778965
 21
4578.347455243249
 31
0.0
  0
LINE
  5
D3
330
CF
100
AcDbEntity
  8
AM_5
  6
ByBlock
100
AcDbLine
 10
28884.04726778965
 20
4633.597455243249
 30
0.0
 11
28884.04726778965
 21
4580.097455243249
 31
0.0
  0
SOLID
  5
D4
330
CF
100
AcDbEntity
  8
AM_5
100
AcDbTrace
 10
28883.75560112298
 20
4633.597455243249
 30
0.0
 11
28884.33893445632
 21
4633.597455243249
 31
0.0
 12
28884.04726778965
 22
4635.347455243248
 32
0.0
 13
28884.04726778965
 23
4635.347455243248
 33
0.0
  0
SOLID
  5
D5
330
CF
100
AcDbEntity
  8
AM_5
100
AcDbTrace
 10
28883.75560112298
 20
4580.097455243249
 30
0.0
 11
28884.33893445632
 21
4580.097455243249
 31
0.0
 12
28884.04726778965
 22
4578.347455243249
 32
0.0
 13
28884.04726778965
 23
4578.347455243249
 33
0.0
  0
MTEXT
  5
D6
330
CF
100
AcDbEntity
  8
AM_5
 62
     2
100
AcDbMText
 10
28882.40734623439
 20
4606.847455243253
 30
0.0
 40
1.75
 41
0.0
 71
     5
 72
     1
  1
57
 11
0.0000000000000001
 21
1.0
 31
0.0
 73
     1
 44
1.0
1001
ACAD
1000
MTEXTBEGIN
1070
    73
1070
     1
1070
    44
1040
1.0
1070
    74
1070
     0
1000
MTEXTEND
  0
POINT
  5
D7
330
CF
100
AcDbEntity
  8
DEFPOINTS
 62
     0
100
AcDbPoint
 10
28875.12621773683
 20
4635.347455243248
 30
0.0
  0
POINT
  5
D8
330
CF
100
AcDbEntity
  8
DEFPOINTS
 62
     0
100
AcDbPoint
 10
28856.52621773683
 20
4578.347455243249
 30
0.0
  0
POINT
  5
D9
330
CF
100
AcDbEntity
  8
DEFPOINTS
 62
     0
100
AcDbPoint
 10
28884.04726778965
 20
4578.347455243249
 30
0.0
  0
ENDBLK
  5
DA
330
CF
100
AcDbEntity
  8
0
100
AcDbBlockEnd
  0
BLOCK
  5
DD
330
DC
100
AcDbEntity
  8
0
100
AcDbBlockBegin
  2
*D11
 70
     1
 10
0.0
 20
0.0
 30
0.0
  3
*D11
  1

  0
LINE
  5
DE
330
DC
100
AcDbEntity
  8
AM_5
  6
ByBlock
100
AcDbLine
 10
28845.32621773683
 20
4625.097455243248
 30
0.0
 11
28840.95457817772
 21
4625.097455243248
 31
0.0
  0
LINE
  5
DF
330
DC
100
AcDbEntity
  8
AM_5
  6
ByBlock
100
AcDbLine
 10
28845.32621773683
 20
4627.347455243248
 30
0.0
 11
28840.95457817772
 21
4627.347455243248
 31
0.0
  0
LINE
  5
E0
330
DC
100
AcDbEntity
  8
AM_5
  6
ByBlock
100
AcDbLine
 10
28841.45457817772
 20
4629.097455243249
 30
0.0
 11
28841.45457817772
 21
4630.847455243249
 31
0.0
  0
LINE
  5
E1
330
DC
100
AcDbEntity
  8
AM_5
  6
ByBlock
100
AcDbLine
 10
28841.45457817772
 20
4623.347455243249
 30
0.0
 11
28841.45457817772
 21
4616.106447033238
 31
0.0
  0
LINE
  5
E2
330
DC
100
AcDbEntity
  8
AM_5
  6
ByBlock
100
AcDbLine
 10
28841.45457817772
 20
4627.347455243248
 30
0.0
 11
28841.45457817772
 21
4625.097455243248
 31
0.0
  0
SOLID
  5
E3
330
DC
100
AcDbEntity
  8
AM_5
100
AcDbTrace
 10
28841.16291151105
 20
4629.097455243249
 30
0.0
 11
28841.74624484439
 21
4629.097455243249
 31
0.0
 12
28841.45457817772
 22
4627.347455243248
 32
0.0
 13
28841.45457817772
 23
4627.347455243248
 33
0.0
  0
SOLID
  5
E4
330
DC
100
AcDbEntity
  8
AM_5
100
AcDbTrace
 10
28841.16291151105
 20
4623.347455243249
 30
0.0
 11
28841.74624484439
 21
4623.347455243249
 31
0.0
 12
28841.45457817772
 22
4625.097455243248
 32
0.0
 13
28841.45457817772
 23
4625.097455243248
 33
0.0
  0
MTEXT
  5
E5
330
DC
100
AcDbEntity
  8
AM_5
 62
     2
100
AcDbMText
 10
28839.810478587
 20
4618.464393827239
 30
0.0
 40
1.75
 41
0.0
 71
     5
 72
     1
  1
2.3
 11
0.0000000000000001
 21
1.0
 31
0.0
 73
     1
 44
1.0
1001
ACAD
1000
MTEXTBEGIN
1070
    73
1070
     1
1070
    44
1040
1.0
1070
    74
1070
     0
1000
MTEXTEND
  0
POINT
  5
E6
330
DC
100
AcDbEntity
  8
DEFPOINTS
 62
     0
100
AcDbPoint
 10
28845.82621773683
 20
4625.097455243248
 30
0.0
  0
POINT
  5
E7
330
DC
100
AcDbEntity
  8
DEFPOINTS
 62
     0
100
AcDbPoint
 10
28845.82621773683
 20
4627.347455243248
 30
0.0
  0
POINT
  5
E8
330
DC
100
AcDbEntity
  8
DEFPOINTS
 62
     0
100
AcDbPoint
 10
28841.45457817772
 20
4627.347455243248
 30
0.0
  0
ENDBLK
  5
E9
330
DC
100
AcDbEntity
  8
0
100
AcDbBlockEnd
  0
BLOCK
  5
EC
330
EB
100
AcDbEntity
  8
0
100
AcDbBlockBegin
  2
*D12
 70
     1
 10
0.0
 20
0.0
 30
0.0
  3
*D12
  1

  0
LINE
  5
ED
330
EB
100
AcDbEntity
  8
AM_5
  6
ByBlock
100
AcDbLine
 10
28855.02621773683
 20
4579.932428107563
 30
0.0
 11
28855.02621773683
 21
4573.680264149817
 31
0.0
  0
LINE
  5
EE
330
EB
100
AcDbEntity
  8
AM_5
  6
ByBlock
100
AcDbLine
 10
28857.02621773683
 20
4578.347455243249
 30
0.0
 11
28857.02621773683
 21
4573.680264149817
 31
0.0
  0
LINE
  5
EF
330
EB
100
AcDbEntity
  8
AM_5
  6
ByBlock
100
AcDbLine
 10
28853.27621773683
 20
4574.180264149815
 30
0.0
 11
28851.52621773683
 21
4574.180264149815
 31
0.0
  0
LINE
  5
F0
330
EB
100
AcDbEntity
  8
AM_5
  6
ByBlock
100
AcDbLine
 10
28858.77621773683
 20
4574.180264149815
 30
0.0
 11
28863.18532414883
 21
4574.180264149815
 31
0.0
  0
LINE
  5
F1
330
EB
100
AcDbEntity
  8
AM_5
  6
ByBlock
100
AcDbLine
 10
28855.02621773683
 20
4574.180264149815
 30
0.0
 11
28857.02621773683
 21
4574.180264149815
 31
0.0
  0
SOLID
  5
F2
330
EB
100
AcDbEntity
  8
AM_5
100
AcDbTrace
 10
28853.27621773683
 20
4574.471930816483
 30
0.0
 11
28853.27621773683
 21
4573.888597483149
 31
0.0
 12
28855.02621773683
 22
4574.180264149815
 32
0.0
 13
28855.02621773683
 23
4574.180264149815
 33
0.0
  0
SOLID
  5
F3
330
EB
100
AcDbEntity
  8
AM_5
100
AcDbTrace
 10
28858.77621773683
 20
4574.471930816483
 30
0.0
 11
28858.77621773683
 21
4573.888597483149
 31
0.0
 12
28857.02621773683
 22
4574.180264149815
 32
0.0
 13
28857.02621773683
 23
4574.180264149815
 33
0.0
  0
MTEXT
  5
F4
330
EB
100
AcDbEntity
  8
AM_5
 62
     2
100
AcDbMText
 10
28861.85577094284
 20
4575.808845323076
 30
0.0
 40
1.75
 41
0.0
 71
     5
 72
     1
  1
2
 73
     1
 44
1.0
1001
ACAD
1000
MTEXTBEGIN
1070
    73
1070
     1
1070
    44
1040
1.0
1070
    74
1070
     0
1000
MTEXTEND
  0
POINT
  5
F5
330
EB
100
AcDbEntity
  8
DEFPOINTS
 62
     0
100
AcDbPoint
 10
28855.02621773683
 20
4580.432428107564
 30
0.0
  0
POINT
  5
F6
330
EB
100
AcDbEntity
  8
DEFPOINTS
 62
     0
100
AcDbPoint
 10
28857.02621773683
 20
4578.847455243248
 30
0.0
  0
POINT
  5
F7
330
EB
100
AcDbEntity
  8
DEFPOINTS
 62
     0
100
AcDbPoint
 10
28857.02621773683
 20
4574.180264149815
 30
0.0
  0
ENDBLK
  5
F8
330
EB
100
AcDbEntity
  8
0
100
AcDbBlockEnd
  0
BLOCK
  5
FB
330
FA
100
AcDbEntity
  8
0
100
AcDbBlockBegin
  2
*D13
 70
     1
 10
0.0
 20
0.0
 30
0.0
  3
*D13
  1

  0
LINE
  5
FC
330
FA
100
AcDbEntity
  8
AM_5
  6
ByBlock
100
AcDbLine
 10
28855.52621773683
 20
4610.847455243249
 30
0.0
 11
28855.52621773683
 21
4604.835947242842
 31
0.0
  0
LINE
  5
FD
330
FA
100
AcDbEntity
  8
AM_5
  6
ByBlock
100
AcDbLine
 10
28857.02621773683
 20
4609.347455243248
 30
0.0
 11
28857.02621773683
 21
4604.835947242842
 31
0.0
  0
LINE
  5
FE
330
FA
100
AcDbEntity
  8
AM_5
  6
ByBlock
100
AcDbLine
 10
28853.77621773683
 20
4605.335947242841
 30
0.0
 11
28852.02621773683
 21
4605.335947242841
 31
0.0
  0
LINE
  5
FF
330
FA
100
AcDbEntity
  8
AM_5
  6
ByBlock
100
AcDbLine
 10
28858.77621773683
 20
4605.335947242841
 30
0.0
 11
28865.06066521296
 21
4605.335947242841
 31
0.0
  0
LINE
  5
100
330
FA
100
AcDbEntity
  8
AM_5
  6
ByBlock
100
AcDbLine
 10
28855.52621773683
 20
4605.335947242841
 30
0.0
 11
28857.02621773683
 21
4605.335947242841
 31
0.0
  0
SOLID
  5
101
330
FA
100
AcDbEntity
  8
AM_5
100
AcDbTrace
 10
28853.77621773683
 20
4605.627613909509
 30
0.0
 11
28853.77621773683
 21
4605.044280576175
 31
0.0
 12
28855.52621773683
 22
4605.335947242841
 32
0.0
 13
28855.52621773683
 23
4605.335947242841
 33
0.0
  0
SOLID
  5
102
330
FA
100
AcDbEntity
  8
AM_5
100
AcDbTrace
 10
28858.77621773683
 20
4605.627613909509
 30
0.0
 11
28858.77621773683
 21
4605.044280576175
 31
0.0
 12
28857.02621773683
 22
4605.335947242841
 32
0.0
 13
28857.02621773683
 23
4605.335947242841
 33
0.0
  0
MTEXT
  5
103
330
FA
100
AcDbEntity
  8
AM_5
 62
     2
100
AcDbMText
 10
28862.79344147489
 20
4606.979449971355
 30
0.0
 40
1.75
 41
0.0
 71
     5
 72
     1
  1
1.5
 73
     1
 44
1.0
1001
ACAD
1000
MTEXTBEGIN
1070
    73
1070
     1
1070
    44
1040
1.0
1070
    74
1070
     0
1000
MTEXTEND
  0
POINT
  5
104
330
FA
100
AcDbEntity
  8
DEFPOINTS
 62
     0
100
AcDbPoint
 10
28855.52621773683
 20
4611.347455243249
 30
0.0
  0
POINT
  5
105
330
FA
100
AcDbEntity
  8
DEFPOINTS
 62
     0
100
AcDbPoint
 10
28857.02621773683
 20
4609.847455243249
 30
0.0
  0
POINT
  5
106
330
FA
100
AcDbEntity
  8
DEFPOINTS
 62
     0
100
AcDbPoint
 10
28857.02621773683
 20
4605.335947242841
 30
0.0
  0
ENDBLK
  5
107
330
FA
100
AcDbEntity
  8
0
100
AcDbBlockEnd
  0
BLOCK
  5
10A
330
109
100
AcDbEntity
  8
0
100
AcDbBlockBegin
  2
*D14
 70
     1
 10
0.0
 20
0.0
 30
0.0
  3
*D14
  1

  0
LINE
  5
10B
330
109
100
AcDbEntity
  8
AM_5
  6
ByBlock
100
AcDbLine
 10
28846.82621773683
 20
4623.59745524325
 30
0.0
 11
28846.82621773683
 21
4618.858862258504
 31
0.0
  0
LINE
  5
10C
330
109
100
AcDbEntity
  8
AM_5
  6
ByBlock
100
AcDbLine
 10
28857.32621773683
 20
4626.347455243249
 30
0.0
 11
28857.32621773683
 21
4618.858862258504
 31
0.0
  0
LINE
  5
10D
330
109
100
AcDbEntity
  8
AM_5
  6
ByBlock
100
AcDbLine
 10
28848.57621773683
 20
4619.358862258503
 30
0.0
 11
28855.57621773683
 21
4619.358862258503
 31
0.0
  0
SOLID
  5
10E
330
109
100
AcDbEntity
  8
AM_5
100
AcDbTrace
 10
28848.57621773683
 20
4619.650528925171
 30
0.0
 11
28848.57621773683
 21
4619.067195591837
 31
0.0
 12
28846.82621773683
 22
4619.358862258503
 32
0.0
 13
28846.82621773683
 23
4619.358862258503
 33
0.0
  0
SOLID
  5
10F
330
109
100
AcDbEntity
  8
AM_5
100
AcDbTrace
 10
28855.57621773683
 20
4619.650528925171
 30
0.0
 11
28855.57621773683
 21
4619.067195591837
 31
0.0
 12
28857.32621773683
 22
4619.358862258503
 32
0.0
 13
28857.32621773683
 23
4619.358862258503
 33
0.0
  0
MTEXT
  5
110
330
109
100
AcDbEntity
  8
AM_5
 62
     2
100
AcDbMText
 10
28852.07621773683
 20
4621.002364987017
 30
0.0
 40
1.75
 41
0.0
 71
     5
 72
     1
  1
10.5
 73
     1
 44
1.0
1001
ACAD
1000
MTEXTBEGIN
1070
    73
1070
     1
1070
    44
1040
1.0
1070
    74
1070
     0
1000
MTEXTEND
  0
POINT
  5
111
330
109
100
AcDbEntity
  8
DEFPOINTS
 62
     0
100
AcDbPoint
 10
28846.82621773683
 20
4624.09745524325
 30
0.0
  0
POINT
  5
112
330
109
100
AcDbEntity
  8
DEFPOINTS
 62
     0
100
AcDbPoint
 10
28857.32621773683
 20
4626.847455243249
 30
0.0
  0
POINT
  5
113
330
109
100
AcDbEntity
  8
DEFPOINTS
 62
     0
100
AcDbPoint
 10
28857.32621773683
 20
4619.358862258503
 30
0.0
  0
ENDBLK
  5
114
330
109
100
AcDbEntity
  8
0
100
AcDbBlockEnd
  0
BLOCK
  5
124
330
123
100
AcDbEntity
  8
0
100
AcDbBlockBegin
  2
*D15
 70
     1
 10
0.0
 20
0.0
 30
0.0
  3
*D15
  1

  0
LINE
  5
125
330
123
100
AcDbEntity
  8
AM_5
  6
ByBlock
100
AcDbLine
 10
29582.86704556862
 20
4576.347455243249
 30
0.0
 11
29582.86704556862
 21
4552.100801230789
 31
0.0
  0
LINE
  5
126
330
123
100
AcDbEntity
  8
AM_5
  6
ByBlock
100
AcDbLine
 10
32582.86666781084
 20
4576.347455243249
 30
0.0
 11
32582.86666781084
 21
4552.100801230789
 31
0.0
  0
LINE
  5
127
330
123
100
AcDbEntity
  8
AM_5
  6
ByBlock
100
AcDbLine
 10
32575.86666781084
 20
4554.100801230789
 30
0.0
 11
29589.86704556862
 21
4554.100801230789
 31
0.0
  0
SOLID
  5
128
330
123
100
AcDbEntity
  8
AM_5
100
AcDbTrace
 10
32575.86666781084
 20
4555.267467897456
 30
0.0
 11
32575.86666781084
 21
4552.934134564122
 31
0.0
 12
32582.86666781084
 22
4554.100801230789
 32
0.0
 13
32582.86666781084
 23
4554.100801230789
 33
0.0
  0
SOLID
  5
129
330
123
100
AcDbEntity
  8
AM_5
100
AcDbTrace
 10
29589.86704556862
 20
4555.267467897456
 30
0.0
 11
29589.86704556862
 21
4552.934134564122
 31
0.0
 12
29582.86704556862
 22
4554.100801230789
 32
0.0
 13
29582.86704556862
 23
4554.100801230789
 33
0.0
  0
MTEXT
  5
12A
330
123
100
AcDbEntity
  8
AM_5
 62
     2
100
AcDbMText
 10
29610.14609058908
 20
4563.067998820603
 30
0.0
 40
7.0
 41
0.0
 71
     5
 72
     1
  1
3000{}{\H0.71x;\C3;\S+3^  0;}
 73
     1
 44
1.0
1001
ACAD
1000
MTEXTBEGIN
1070
    73
1070
     1
1070
    44
1040
1.0
1070
    74
1070
     0
1000
MTEXTEND
  0
POINT
  5
12B
330
123
100
AcDbEntity
  8
DEFPOINTS
 62
     0
100
AcDbPoint
 10
29582.86704556862
 20
4578.347455243249
 30
0.0
  0
POINT
  5
12C
330
123
100
AcDbEntity
  8
DEFPOINTS
 62
     0
100
AcDbPoint
 10
32582.86666781084
 20
4578.347455243249
 30
0.0
  0
POINT
  5
12D
330
123
100
AcDbEntity
  8
DEFPOINTS
 62
     0
100
AcDbPoint
 10
32582.86666781084
 20
4554.100801230789
 30
0.0
  0
ENDBLK
  5
12E
330
123
100
AcDbEntity
  8
0
100
AcDbBlockEnd
  0
BLOCK
  5
132
330
131
100
AcDbEntity
  8
0
100
AcDbBlockBegin
  2
*D16
 70
     1
 10
0.0
 20
0.0
 30
0.0
  3
*D16
  1

  0
LINE
  5
133
330
131
100
AcDbEntity
  8
AM_5
  6
ByBlock
100
AcDbLine
 10
28843.82621773683
 20
4625.097455243251
 30
0.0
 11
28843.82621773683
 21
4614.858862258503
 31
0.0
  0
LINE
  5
134
330
131
100
AcDbEntity
  8
AM_5
  6
ByBlock
100
AcDbLine
 10
28858.82621773683
 20
4622.347455243249
 30
0.0
 11
28858.82621773683
 21
4614.858862258503
 31
0.0
  0
LINE
  5
135
330
131
100
AcDbEntity
  8
AM_5
  6
ByBlock
100
AcDbLine
 10
28845.57621773683
 20
4615.358862258504
 30
0.0
 11
28857.07621773683
 21
4615.358862258504
 31
0.0
  0
SOLID
  5
136
330
131
100
AcDbEntity
  8
AM_5
100
AcDbTrace
 10
28845.57621773683
 20
4615.650528925171
 30
0.0
 11
28845.57621773683
 21
4615.067195591836
 31
0.0
 12
28843.82621773683
 22
4615.358862258504
 32
0.0
 13
28843.82621773683
 23
4615.358862258504
 33
0.0
  0
SOLID
  5
137
330
131
100
AcDbEntity
  8
AM_5
100
AcDbTrace
 10
28857.07621773683
 20
4615.650528925171
 30
0.0
 11
28857.07621773683
 21
4615.067195591836
 31
0.0
 12
28858.82621773683
 22
4615.358862258504
 32
0.0
 13
28858.82621773683
 23
4615.358862258504
 33
0.0
  0
MTEXT
  5
138
330
131
100
AcDbEntity
  8
AM_5
 62
     2
100
AcDbMText
 10
28851.32621773683
 20
4617.002364987017
 30
0.0
 40
1.75
 41
0.0
 71
     5
 72
     1
  1
15
 73
     1
 44
1.0
1001
ACAD
1000
MTEXTBEGIN
1070
    73
1070
     1
1070
    44
1040
1.0
1070
    74
1070
     0
1000
MTEXTEND
  0
POINT
  5
139
330
131
100
AcDbEntity
  8
DEFPOINTS
 62
     0
100
AcDbPoint
 10
28843.82621773683
 20
4625.597455243251
 30
0.0
  0
POINT
  5
13A
330
131
100
AcDbEntity
  8
DEFPOINTS
 62
     0
100
AcDbPoint
 10
28858.82621773683
 20
4622.847455243248
 30
0.0
  0
POINT
  5
13B
330
131
100
AcDbEntity
  8
DEFPOINTS
 62
     0
100
AcDbPoint
 10
28858.82621773683
 20
4615.358862258504
 30
0.0
  0
ENDBLK
  5
13C
330
131
100
AcDbEntity
  8
0
100
AcDbBlockEnd
  0
ENDSEC
  0
SECTION
  2
ENTITIES
  0
LWPOLYLINE
  5
5A
330
2
100
AcDbEntity
  8
DEFPOINTS
100
AcDbPolyline
 90
        4
 70
     1
 43
0.0
 10
27904.37403655774
 20
4743.965539815083
 10
33545.99102362582
 20
4743.965539815083
 10
33545.99102362582
 20
4343.965539815083
 10
27904.37403655774
 20
4343.965539815084
1001
GENIUS_GENREC_14
1002
{
1000
PYDIR
1011
28549.06275107179
1021
4217.818083165403
1031
0.0
1002
}
1002
{
1000
PXDIR
1011
33158.43196148112
1021
4858.08236244974
1031
0.0
1002
}
1002
{
1000
PORI
1011
28549.06275107179
1021
4858.08236244974
1031
0.0
1002
}
1002
{
1000
PINS
1011
28549.06275107179
1021
4858.08236244974
1031
0.0
1002
}
1002
{
1000
PINS2
1011
33158.43196148112
1021
4217.818083165403
1031
0.0
1002
}
1002
{
1000
C
1070
     1
1002
}
1001
GENIUS_GENODEF_13
1002
{
1000
HIER
1070
     0
1002
}
1002
{
1000
MANEDIT
1070
     0
1002
}
1002
{
1000
NOSEL
1070
     0
1002
}
1002
{
1000
BEHIND
1070
     0
1002
}
1002
{
1000
OTHER
1070
     0
1002
}
1002
{
1000
REACTOR
1002
}
1001
GENIUS_GENOBJ-N-REC_13
1002
{
1000
OWNER
1000
GEN
1002
}
  0
LWPOLYLINE
  5
61
330
2
100
AcDbEntity
  8
-PROFILAUSSENKANTET
100
AcDbPolyline
 90
        4
 70
     1
 43
0.0
 10
29582.86704556862
 20
4578.347455243249
 10
32582.86666781084
 20
4578.347455243249
 10
32582.86666781084
 20
4635.347455243248
 10
29582.86704556862
 20
4635.347455243248
1001
GENIUS_GENREC_14
1002
{
1000
PYDIR
1011
29582.86704556862
1021
4635.347455243248
1031
0.0
1002
}
1002
{
1000
PXDIR
1011
32582.86666781084
1021
4600.347455243249
1031
0.0
1002
}
1002
{
1000
PORI
1011
29582.86704556862
1021
4600.347455243249
1031
0.0
1002
}
1002
{
1000
PINS
1011
29582.86704556862
1021
4600.347455243249
1031
0.0
1002
}
1002
{
1000
PINS2
1011
32582.86666781084
1021
4635.347455243248
1031
0.0
1002
}
1002
{
1000
C
1070
     1
1002
}
1001
GENIUS_GENOBJ-N-REC_13
1002
{
1000
OWNER
1000
GEN
1002
}
1001
GENIUS_GENODEF_13
1002
{
1000
HIER
1070
     0
1002
}
1002
{
1000
MANEDIT
1070
     0
1002
}
1002
{
1000
NOSEL
1070
     0
1002
}
1002
{
1000
BEHIND
1070
     0
1002
}
1002
{
1000
OTHER
1070
     0
1002
}
1002
{
1000
REACTOR
1002
}
  0
DIMENSION
  5
62
330
2
100
AcDbEntity
  8
AM_5
100
AcDbDimension
  2
*D3
 10
32632.86666781084
 20
4643.446978509243
 30
0.0
 11
32647.86666781084
 21
4650.023376872136
 31
0.0
  1
<>
 71
     5
 42
30.0
  3
AM_DIN$0
100
AcDbAlignedDimension
 13
32662.86666781084
 23
4634.847455243249
 33
0.0
 14
32632.86666781084
 24
4635.147455243247
 34
0.0
 50
180.0
100
AcDbRotatedDimension
1001
ACAD_DSTYLE_DIMINSPECT
1070
   396
1000
100%
1070
   395
1000

1070
   394
1070
    33
1070
   393
1070
     0
1001
ACAD
1000
DSTYLE
1002
{
1070
    40
1040
2.0
1070
    47
1040
3.0
1070
    48
1040
0.0
1070
   280
1070
     1
1002
}
  0
DIMENSION
  5
73
330
2
100
AcDbEntity
  8
AM_5
100
AcDbDimension
  2
*D4
 10
32620.42770218665
 20
4578.347455243249
 30
0.0
 11
32613.86801596564
 21
4606.847455243254
 31
0.0
  1
<>
 71
     5
 42
56.99999999999909
  3
AM_DIN$0
100
AcDbAlignedDimension
 13
32633.06666781085
 23
4635.347455243247
 33
0.0
 14
32651.66666781084
 24
4578.347455243249
 34
0.0
 50
90.0
100
AcDbRotatedDimension
1001
ACAD_DSTYLE_DIMINSPECT
1070
   396
1000
100%
1070
   395
1000

1070
   394
1070
    33
1070
   393
1070
     0
1001
ACAD
1000
DSTYLE
1002
{
1070
    40
1040
2.0
1070
    47
1040
3.0
1070
    48
1040
0.0
1070
   274
1070
     5
1002
}
  0
LINE
  5
80
330
2
100
AcDbEntity
  8
-ACHSE
  6
AM_DIN_G_W050x2
100
AcDbLine
 10
28855.32621773682
 20
4631.347455247508
 30
0.0
 11
28856.32621773682
 21
4631.347455247508
 31
0.0
1001
GENIUS_GENOREF_13
1005
0
  0
LINE
  5
86
330
2
100
AcDbEntity
  8
-ACHSE
  6
AM_DIN_G_W050x2
100
AcDbLine
 10
28855.82621773682
 20
4630.847455247508
 30
0.0
 11
28855.82621773682
 21
4631.847455247508
 31
0.0
1001
GENIUS_GENOREF_13
1005
0
  0
DIMENSION
  5
87
330
2
100
AcDbEntity
  8
AM_5
100
AcDbDimension
  2
*D5
 10
28837.45457817772
 20
4629.347455243249
 30
0.0
 11
28835.82957817772
 21
4631.347455243253
 31
0.0
  1
<>
 71
     5
 42
4.0
  3
AM_DIN$0
100
AcDbAlignedDimension
 13
28845.82621773683
 23
4633.347455243248
 33
0.0
 14
28844.82621773683
 24
4629.347455243249
 34
0.0
 50
90.0
100
AcDbRotatedDimension
1001
ACAD_DSTYLE_DIMINSPECT
1070
   396
1000
100%
1070
   395
1000

1070
   394
1070
    33
1070
   393
1070
     0
1001
ACAD
1000
DSTYLE
1002
{
1070
    40
1040
0.5
1070
   271
1070
     1
1002
}
  0
DIMENSION
  5
96
330
2
100
AcDbEntity
  8
AM_5
100
AcDbDimension
  2
*D6
 10
28875.32621773683
 20
4638.017379444987
 30
0.0
 11
28860.32621773683
 21
4639.66147903571
 31
0.0
  1
<>
 71
     5
 42
30.0
  3
AM_DIN$0
100
AcDbAlignedDimension
 13
28845.32621773683
 23
4634.847455243249
 33
0.0
 14
28875.32621773683
 24
4635.147455243248
 34
0.0
100
AcDbRotatedDimension
1001
ACAD_DSTYLE_DIMINSPECT
1070
   396
1000
100%
1070
   395
1000

1070
   394
1070
    33
1070
   393
1070
     0
1001
ACAD
1000
DSTYLE
1002
{
1070
    40
1040
0.5
1070
   271
1070
     1
1002
}
  0
DIMENSION
  5
A3
330
2
100
AcDbEntity
  8
AM_5
100
AcDbDimension
  2
*D7
 10
28845.32621773683
 20
4638.017379444987
 30
0.0
 11
28838.05899399876
 21
4638.017379444987
 31
0.0
 70
   128
  1
<>
 71
     5
 42
1.5
  3
AM_DIN$0
100
AcDbAlignedDimension
 13
28843.82621773683
 23
4628.347455243249
 33
0.0
 14
28845.32621773683
 24
4634.847455243249
 34
0.0
100
AcDbRotatedDimension
1001
ACAD_DSTYLE_DIMINSPECT
1070
   396
1000
100%
1070
   395
1000

1070
   394
1070
    33
1070
   393
1070
     0
1001
ACAD
1000
DSTYLE
1002
{
1070
    40
1040
0.5
1070
   271
1070
     1
1002
}
  0
DIMENSION
  5
B2
330
2
100
AcDbEntity
  8
AM_5
100
AcDbDimension
  2
*D8
 10
28880.04726778965
 20
4633.347455243248
 30
0.0
 11
28880.04726778965
 21
4640.177008449255
 31
0.0
 70
   128
  1
<>
 71
     5
 42
2.0
  3
AM_DIN$0
100
AcDbAlignedDimension
 13
28875.12621773683
 23
4635.347455243248
 33
0.0
 14
28875.12621773686
 24
4633.347455243248
 34
0.0
 50
90.0
100
AcDbRotatedDimension
1001
ACAD_DSTYLE_DIMINSPECT
1070
   396
1000
100%
1070
   395
1000

1070
   394
1070
    33
1070
   393
1070
     0
1001
ACAD
1000
DSTYLE
1002
{
1070
    40
1040
0.5
1070
   271
1070
     1
1002
}
  0
DIMENSION
  5
C1
330
2
100
AcDbEntity
  8
AM_5
100
AcDbDimension
  2
*D9
 10
28880.04726778965
 20
4578.347455243249
 30
0.0
 11
28878.4073462344
 21
4605.847455243253
 31
0.0
  1
<>
 71
     5
 42
55.0
  3
AM_DIN$0
100
AcDbAlignedDimension
 13
28875.12621773493
 23
4633.347455243248
 33
0.0
 14
28856.52621773683
 24
4578.347455243249
 34
0.0
 50
90.0
100
AcDbRotatedDimension
1001
ACAD_DSTYLE_DIMINSPECT
1070
   396
1000
100%
1070
   395
1000

1070
   394
1070
    33
1070
   393
1070
     0
1001
ACAD
1000
DSTYLE
1002
{
1070
     3
1000

1070
    40
1040
0.5
1070
   271
1070
     1
1002
}
  0
DIMENSION
  5
CE
330
2
100
AcDbEntity
  8
AM_5
100
AcDbDimension
  2
*D10
 10
28884.04726778965
 20
4578.347455243249
 30
0.0
 11
28882.40734623439
 21
4606.847455243253
 31
0.0
  1
<>
 71
     5
 42
57.0
  3
AM_DIN$0
100
AcDbAlignedDimension
 13
28875.12621773683
 23
4635.347455243248
 33
0.0
 14
28856.52621773683
 24
4578.347455243249
 34
0.0
 50
90.0
100
AcDbRotatedDimension
1001
ACAD_DSTYLE_DIMINSPECT
1070
   396
1000
100%
1070
   395
1000

1070
   394
1070
    33
1070
   393
1070
     0
1001
ACAD
1000
DSTYLE
1002
{
1070
    40
1040
0.5
1070
   271
1070
     1
1002
}
  0
DIMENSION
  5
DB
330
2
100
AcDbEntity
  8
AM_5
100
AcDbDimension
  2
*D11
 10
28841.45457817772
 20
4627.347455243248
 30
0.0
 11
28841.45457817772
 21
4618.464393827239
 31
0.0
 70
   128
  1
<>
 71
     5
 42
2.25
  3
AM_DIN$0
100
AcDbAlignedDimension
 13
28845.82621773683
 23
4625.097455243248
 33
0.0
 14
28845.82621773683
 24
4627.347455243248
 34
0.0
 50
90.0
100
AcDbRotatedDimension
1001
ACAD_DSTYLE_DIMINSPECT
1070
   396
1000
100%
1070
   395
1000

1070
   394
1070
    33
1070
   393
1070
     0
1001
ACAD
1000
DSTYLE
1002
{
1070
    40
1040
0.5
1070
   271
1070
     1
1002
}
  0
DIMENSION
  5
EA
330
2
100
AcDbEntity
  8
AM_5
100
AcDbDimension
  2
*D12
 10
28857.02621773683
 20
4574.180264149815
 30
0.0
 11
28861.85577094284
 21
4575.808845323076
 31
0.0
  1
<>
 71
     5
 42
2.0
  3
AM_DIN$0
100
AcDbAlignedDimension
 13
28855.02621773683
 23
4580.432428107564
 33
0.0
 14
28857.02621773683
 24
4578.847455243248
 34
0.0
100
AcDbRotatedDimension
1001
ACAD_DSTYLE_DIMINSPECT
1070
   396
1000
100%
1070
   395
1000

1070
   394
1070
    33
1070
   393
1070
     0
1001
ACAD
1000
DSTYLE
1002
{
1070
    40
1040
0.5
1070
   271
1070
     1
1002
}
  0
DIMENSION
  5
F9
330
2
100
AcDbEntity
  8
AM_5
100
AcDbDimension
  2
*D13
 10
28857.02621773683
 20
4605.335947242841
 30
0.0
 11
28862.79344147489
 21
4606.979449971355
 31
0.0
  1
<>
 71
     5
 42
1.5
  3
AM_DIN$0
100
AcDbAlignedDimension
 13
28855.52621773683
 23
4611.347455243249
 33
0.0
 14
28857.02621773683
 24
4609.847455243249
 34
0.0
100
AcDbRotatedDimension
1001
ACAD_DSTYLE_DIMINSPECT
1070
   396
1000
100%
1070
   395
1000

1070
   394
1070
    33
1070
   393
1070
     0
1001
ACAD
1000
DSTYLE
1002
{
1070
    40
1040
0.5
1070
   271
1070
     1
1002
}
  0
DIMENSION
  5
108
330
2
100
AcDbEntity
  8
AM_5
100
AcDbDimension
  2
*D14
 10
28857.32621773683
 20
4619.358862258503
 30
0.0
 11
28852.07621773683
 21
4621.002364987017
 31
0.0
  1
<>
 71
     5
 42
10.5
  3
AM_DIN$0
100
AcDbAlignedDimension
 13
28846.82621773683
 23
4624.09745524325
 33
0.0
 14
28857.32621773683
 24
4626.847455243249
 34
0.0
100
AcDbRotatedDimension
1001
ACAD_DSTYLE_DIMINSPECT
1070
   396
1000
100%
1070
   395
1000

1070
   394
1070
    33
1070
   393
1070
     0
1001
ACAD
1000
DSTYLE
1002
{
1070
    40
1040
0.5
1070
   271
1070
     1
1002
}
  0
LINE
  5
115
330
2
100
AcDbEntity
  8
-PROFILAUSSENKANTET
100
AcDbLine
 10
29582.86704556862
 20
4633.347455243248
 30
0.0
 11
32582.86666781084
 21
4633.347455243248
 31
0.0
  0
LINE
  5
116
330
2
100
AcDbEntity
  8
-PROFILAUSSENKANTET
100
AcDbLine
 10
29582.86704556862
 20
4629.347455243249
 30
0.0
 11
32582.86666781084
 21
4629.347455243249
 31
0.0
  0
LINE
  5
117
330
2
100
AcDbEntity
  8
-PROFILAUSSENKANTET
100
AcDbLine
 10
29582.86704556862
 20
4623.597455243251
 30
0.0
 11
32582.86666781084
 21
4623.597455243251
 31
0.0
  0
LINE
  5
118
330
2
100
AcDbEntity
  8
-PROFILAUSSENKANTET
100
AcDbLine
 10
29582.86704556862
 20
4611.847455243249
 30
0.0
 11
32582.86666781084
 21
4611.847455243249
 31
0.0
  0
LINE
  5
119
330
2
100
AcDbEntity
  8
-PROFILAUSSENKANTET
100
AcDbLine
 10
29582.86704556862
 20
4599.826612666999
 30
0.0
 11
32582.86666781084
 21
4599.826612666999
 31
0.0
  0
LINE
  5
11A
330
2
100
AcDbEntity
  8
-PROFILAUSSENKANTET
100
AcDbLine
 10
29582.86704556862
 20
4594.868297819499
 30
0.0
 11
32582.86666781084
 21
4594.868297819499
 31
0.0
  0
LINE
  5
11B
330
2
100
AcDbEntity
  8
-PROFILAUSSENKANTET
100
AcDbLine
 10
29582.86704556862
 20
4585.826612666997
 30
0.0
 11
32582.86666781084
 21
4585.826612666997
 31
0.0
  0
LINE
  5
11C
330
2
100
AcDbEntity
  8
-PROFILAUSSENKANTET
  6
VERDECKT
100
AcDbLine
 10
29582.86704556862
 20
4632.51168870915
 30
0.0
 11
32582.86666781084
 21
4632.51168870915
 31
0.0
  0
LINE
  5
11E
330
2
100
AcDbEntity
  8
-PROFILAUSSENKANTET
  6
VERDECKT
100
AcDbLine
 10
29582.86704556862
 20
4630.189697701299
 30
0.0
 11
32582.86666781084
 21
4630.189697701299
 31
0.0
  0
LINE
  5
11F
330
2
100
AcDbEntity
  8
-PROFILAUSSENKANTET
  6
VERDECKT
100
AcDbLine
 10
29582.86704556862
 20
4627.347455243248
 30
0.0
 11
32582.86666781084
 21
4627.347455243248
 31
0.0
  0
LINE
  5
120
330
2
100
AcDbEntity
  8
-PROFILAUSSENKANTET
  6
VERDECKT
100
AcDbLine
 10
29582.86704556862
 20
4625.097455243248
 30
0.0
 11
32582.86666781084
 21
4625.097455243248
 31
0.0
  0
LINE
  5
121
330
2
100
AcDbEntity
  8
-PROFILAUSSENKANTET
  6
VERDECKT
100
AcDbLine
 10
29582.86704556862
 20
4610.347455243249
 30
0.0
 11
32582.86666781084
 21
4610.347455243249
 31
0.0
  0
DIMENSION
  5
122
330
2
100
AcDbEntity
  8
AM_5
100
AcDbDimension
  2
*D15
 10
32582.86666781084
 20
4554.100801230789
 30
0.0
 11
29610.14609058908
 21
4563.067998820603
 31
0.0
  1
<>{}{\H0.71x;\C3;\S+3^  0;}
 71
     5
 42
2999.99962224222
  3
AM_DIN$0
100
AcDbAlignedDimension
 13
29582.86704556862
 23
4578.347455243249
 33
0.0
 14
32582.86666781084
 24
4578.347455243249
 34
0.0
100
AcDbRotatedDimension
1001
ACAD_DSTYLE_DIMINSPECT
1070
   396
1000
100%
1070
   395
1000

1070
   394
1070
    33
1070
   393
1070
     0
1001
ACAD
1000
DSTYLE
1002
{
1070
    40
1040
2.0
1070
    47
1040
3.0
1070
    48
1040
0.0
1070
   280
1070
     1
1002
}
1001
GENIUS_GENDTOL_13
1000
TolSmNrm
1000

1000
{\H0.71x;$2\S$+$P^ $-$M;}
1040
3000.0
  0
DIMENSION
  5
130
330
2
100
AcDbEntity
  8
AM_5
100
AcDbDimension
  2
*D16
 10
28858.82621773683
 20
4615.358862258504
 30
0.0
 11
28851.32621773683
 21
4617.002364987017
 31
0.0
  1
<>
 71
     5
 42
15.0
  3
AM_DIN$0
100
AcDbAlignedDimension
 13
28843.82621773683
 23
4625.597455243251
 33
0.0
 14
28858.82621773683
 24
4622.847455243248
 34
0.0
100
AcDbRotatedDimension
1001
ACAD_DSTYLE_DIMINSPECT
1070
   396
1000
100%
1070
   395
1000

1070
   394
1070
    33
1070
   393
1070
     0
1001
ACAD
1000
DSTYLE
1002
{
1070
    40
1040
0.5
1070
   271
1070
     1
1002
}
  0
HATCH
  5
13D
330
2
100
AcDbEntity
  8
-TEXT
100
AcDbHatch
 10
0.0
 20
0.0
 30
0.0
210
0.0
220
0.0
230
1.0
  2
ANSI31
 70
     0
 71
     1
 91
        1
 92
        1
 93
       86
 72
     2
 10
28858.32621773683
 20
4610.847455243248
 40
0.5
 50
270.0
 51
360.0
 73
     1
 72
     1
 10
28858.82621773683
 20
4610.847455243248
 11
28858.82621773683
 21
4629.326729346258
 72
     2
 10
28858.32621773683
 20
4629.326729346258
 40
0.5
 50
0.0
 51
59.99999999998969
 73
     1
 72
     1
 10
28858.57621773683
 20
4629.75974204815
 11
28857.94753810436
 21
4630.122710403191
 72
     2
 10
28857.69753810436
 20
4629.689697701301
 40
0.4999999999990565
 50
59.99999999993757
 51
138.4630417960311
 73
     1
 72
     2
 10
28855.82621773682
 20
4631.347455247513
 40
2.000000000003295
 50
41.53695820392814
 51
73.45061897614558
 73
     0
 72
     2
 10
28856.33893263281
 20
4629.622020973068
 40
0.2000000000013715
 50
73.45061897558331
 51
155.0650803287935
 73
     0
 72
     2
 10
28855.97621773682
 20
4629.453385555025
 40
0.1999999999955462
 50
24.93491967070074
 51
94.52806301381377
 73
     1
 72
     2
 10
28855.82621773682
 20
4631.347455247531
 40
1.700000000021199
 50
85.47193698619109
 51
94.52806301380892
 73
     0
 72
     2
 10
28855.67621773681
 20
4629.453385555025
 40
0.1999999999968603
 50
85.47193698618626
 51
155.0650803292992
 73
     1
 72
     2
 10
28855.31350284082
 20
4629.622020973068
 40
0.2000000000003787
 50
24.93491967120641
 51
106.5493810244167
 73
     0
 72
     2
 10
28855.82621773682
 20
4631.34745524751
 40
2.000000000000523
 50
106.5493810238766
 51
163.4506189760983
 73
     0
 72
     2
 10
28854.10078346238
 20
4630.834740351508
 40
0.2000000000003353
 50
163.4506189765823
 51
245.0650803297221
 73
     0
 72
     2
 10
28853.93214804433
 20
4631.197455247508
 40
0.1999999999991127
 50
294.9349196716624
 51
364.5280630142715
 73
     1
 72
     2
 10
28855.82621773682
 20
4631.347455247509
 40
1.700000000000202
 50
175.4719369861965
 51
184.5280630138035
 73
     0
 72
     2
 10
28853.93214804433
 20
4631.497455247511
 40
0.1999999999997238
 50
355.4719369857285
 51
425.0650803283376
 73
     1
 72
     2
 10
28854.10078346238
 20
4631.860170143512
 40
0.2000000000008779
 50
114.9349196702779
 51
196.5493810234177
 73
     0
 72
     2
 10
28855.82621773682
 20
4631.347455247509
 40
2.000000000000523
 50
196.5493810238766
 51
253.4506189761233
 73
     0
 72
     2
 10
28855.31350284082
 20
4633.072889521953
 40
0.2000000000004997
 50
253.4506189755091
 51
335.0650803288267
 73
     0
 72
     2
 10
28855.67621773681
 20
4633.241524939997
 40
0.1999999999999953
 50
204.9349196709701
 51
274.528063013752
 73
     1
 72
     2
 10
28855.82621773682
 20
4631.347455247489
 40
1.700000000021199
 50
265.471936986191
 51
274.5280630138089
 73
     0
 72
     2
 10
28855.97621773682
 20
4633.241524939995
 40
0.1999999999968603
 50
265.4719369861862
 51
335.0650803292993
 73
     1
 72
     2
 10
28856.33893263281
 20
4633.07288952195
 40
0.2000000000003787
 50
204.9349196712064
 51
286.5493810243425
 73
     0
 72
     2
 10
28855.82621773682
 20
4631.347455247512
 40
1.999999999998779
 50
286.5493810238915
 51
318.4630419688052
 73
     0
 72
     2
 10
28857.69753810936
 20
4633.005212788081
 40
0.4999999999997391
 50
221.5369580312143
 51
300.0000000000103
 73
     1
 72
     1
 10
28857.94753810936
 20
4632.572200086189
 11
28858.57621773683
 21
4632.935168438344
 72
     2
 10
28858.32621773683
 20
4633.368181140236
 40
0.4999999999990565
 50
300.0000000000624
 51
357.624306216
 73
     1
 72
     1
 10
28858.82578798924
 20
4633.347455240939
 11
28875.12621773686
 21
4633.347455243248
 72
     2
 10
28875.12621773683
 20
4633.547455243248
 40
0.1999999999998181
 50
270.0000000072955
 51
359.9999999997394
 73
     1
 72
     1
 10
28875.32621773683
 20
4633.547455243247
 11
28875.32621773683
 21
4635.147455243247
 72
     2
 10
28875.12621773683
 20
4635.147455243247
 40
0.1999999999970896
 50
0.0
 51
90.0000000010422
 73
     1
 72
     1
 10
28875.12621773683
 20
4635.347455243247
 11
28845.82621773683
 21
4635.347455243247
 72
     2
 10
28845.82621773683
 20
4634.847455243249
 40
0.5
 50
90.0
 51
180.0
 73
     1
 72
     1
 10
28845.32621773683
 20
4634.847455243249
 11
28845.32621773683
 21
4633.847455243247
 72
     2
 10
28845.82621773683
 20
4633.847455243247
 40
0.5
 50
180.0
 51
270.0
 73
     1
 72
     1
 10
28845.82621773683
 20
4633.347455243248
 11
28851.40078346237
 21
4633.347455243248
 72
     2
 10
28851.40078346237
 20
4632.847455243248
 40
0.5
 50
270.0
 51
360.0
 73
     0
 72
     1
 10
28851.90078346237
 20
4632.847455243248
 11
28851.90078346237
 21
4629.847455243248
 72
     2
 10
28851.40078346237
 20
4629.847455243248
 40
0.5
 50
360.0
 51
450.0
 73
     0
 72
     1
 10
28851.40078346237
 20
4629.347455243247
 11
28844.82621773683
 21
4629.347455243247
 72
     2
 10
28844.82621773683
 20
4628.347455243248
 40
1.0
 50
90.0
 51
180.0
 73
     1
 72
     1
 10
28843.82621773683
 20
4628.347455243248
 11
28843.82621773683
 21
4625.59745524325
 72
     2
 10
28845.82621773683
 20
4625.59745524325
 40
2.0
 50
180.0
 51
270.0
 73
     1
 72
     1
 10
28845.82621773683
 20
4623.59745524325
 11
28846.32621773683
 21
4623.59745524325
 72
     2
 10
28846.32621773683
 20
4624.09745524325
 40
0.5
 50
270.0
 51
360.0
 73
     1
 72
     1
 10
28846.82621773683
 20
4624.09745524325
 11
28846.82621773683
 21
4624.597455243248
 72
     2
 10
28846.32621773683
 20
4624.597455243248
 40
0.5
 50
0.0
 51
90.0
 73
     1
 72
     1
 10
28846.32621773683
 20
4625.097455243248
 11
28845.82621773683
 21
4625.097455243248
 72
     2
 10
28845.82621773683
 20
4625.597455243248
 40
0.5
 50
90.0
 51
180.0
 73
     0
 72
     1
 10
28845.32621773683
 20
4625.597455243248
 11
28845.32621773683
 21
4626.847455243248
 72
     2
 10
28845.82621773683
 20
4626.847455243248
 40
0.5
 50
180.0
 51
270.0
 73
     0
 72
     1
 10
28845.82621773683
 20
4627.347455243248
 11
28852.47621773683
 21
4627.347455243248
 72
     1
 10
28852.47621773683
 20
4627.347455243248
 11
28852.47621773683
 21
4627.647455243248
 72
     1
 10
28852.47621773683
 20
4627.647455243248
 11
28853.07621773683
 21
4627.647455243248
 72
     1
 10
28853.07621773683
 20
4627.647455243248
 11
28853.07621773683
 21
4627.347455243248
 72
     1
 10
28853.07621773683
 20
4627.347455243248
 11
28853.37621773683
 21
4627.347455243248
 72
     2
 10
28853.67621773683
 20
4627.347455243248
 40
0.3000000000029104
 50
180.0
 51
360.0
 73
     0
 72
     1
 10
28853.97621773683
 20
4627.347455243248
 11
28856.82621773683
 21
4627.347455243248
 72
     2
 10
28856.82621773683
 20
4626.847455243248
 40
0.5
 50
270.0
 51
360.0
 73
     0
 72
     1
 10
28857.32621773683
 20
4626.847455243248
 11
28857.32621773683
 21
4612.347455243248
 72
     2
 10
28856.82621773683
 20
4612.347455243248
 40
0.5
 50
360.0
 51
450.0
 73
     0
 72
     1
 10
28856.82621773683
 20
4611.847455243248
 11
28856.02621773683
 21
4611.847455243248
 72
     2
 10
28856.02621773683
 20
4611.347455243247
 40
0.5
 50
90.0
 51
180.0
 73
     1
 72
     1
 10
28855.52621773683
 20
4611.347455243247
 11
28855.52621773683
 21
4600.018275636498
 72
     2
 10
28855.32621773683
 20
4600.018275636499
 40
0.2000000000007276
 50
0.0000000005211021
 51
73.39845040125964
 73
     0
 72
     2
 10
28855.52621773683
 20
4599.34745524325
 40
0.4999999999983013
 50
106.6015495988297
 51
180.0000000002084
 73
     1
 72
     1
 10
28855.02621773683
 20
4599.347455243248
 11
28855.02621773683
 21
4595.347455243248
 72
     2
 10
28855.52621773683
 20
4595.347455243247
 40
0.4999999999963621
 50
179.9999999998957
 51
253.3984504011703
 73
     1
 72
     2
 10
28855.32621773683
 20
4594.676634849998
 40
0.2000000000003664
 50
286.6015495987404
 51
359.9999999997394
 73
     0
 72
     1
 10
28855.52621773683
 20
4594.676634849998
 11
28855.52621773683
 21
4586.018275636496
 72
     2
 10
28855.32621773683
 20
4586.018275636498
 40
0.2000000000007276
 50
0.0000000005211021
 51
73.39845040133408
 73
     0
 72
     2
 10
28855.52621773683
 20
4585.347455243248
 40
0.4999999999983013
 50
106.6015495988297
 51
180.0
 73
     1
 72
     1
 10
28855.02621773683
 20
4585.347455243248
 11
28855.02621773683
 21
4580.432428107564
 72
     2
 10
28855.52621773683
 20
4580.432428107561
 40
0.5
 50
179.9999999995831
 51
199.2900462188936
 73
     1
 72
     1
 10
28855.05428855865
 20
4580.267252895199
 11
28855.60902906116
 21
4578.682280030884
 72
     2
 10
28856.08095823934
 20
4578.847455243246
 40
0.4999999999969388
 50
199.2900462191297
 51
270.0
 73
     1
 72
     1
 10
28856.08095823934
 20
4578.347455243248
 11
28856.52621773683
 21
4578.347455243248
 72
     2
 10
28856.52621773683
 20
4578.847455243248
 40
0.5
 50
270.0
 51
360.0
 73
     1
 72
     1
 10
28857.02621773683
 20
4578.847455243248
 11
28857.02621773683
 21
4589.880788576574
 72
     2
 10
28856.82621773683
 20
4589.880788576572
 40
0.2000000000007276
 50
0.0000000005211021
 51
36.8698976462609
 73
     1
 72
     1
 10
28856.98621773683
 20
4590.000788576574
 11
28856.72621773683
 21
4590.347455243248
 72
     1
 10
28856.72621773683
 20
4590.347455243248
 11
28856.98621773683
 21
4590.694121909915
 72
     2
 10
28856.82621773683
 20
4590.814121909917
 40
0.2000000000009095
 50
323.1301023537391
 51
359.9999999994789
 73
     1
 72
     1
 10
28857.02621773683
 20
4590.814121909916
 11
28857.02621773683
 21
4609.847455243248
 72
     2
 10
28857.52621773683
 20
4609.847455243248
 40
0.5
 50
180.0
 51
270.0
 73
     0
 72
     1
 10
28857.52621773683
 20
4610.347455243248
 11
28858.32621773683
 21
4610.347455243248
 97
        1
330
142
 75
     1
 76
     1
 52
0.0
 41
0.5
 77
     0
 78
     1
 53
45.0
 43
21582.52383618707
 44
307.7465179899828
 45
-1.122532015133643
 46
1.122532015133644
 79
     0
 98
        1
 10
21582.52383618707
 20
307.7465179899828
1001
GradientColor1ACI
1070
     5
1001
GradientColor2ACI
1070
     2
1001
ACAD
1010
0.0
1020
0.0
1030
0.0
  0
POLYLINE
  5
142
102
{ACAD_REACTORS
330
13D
102
}
330
2
100
AcDbEntity
  8
-TEXT
100
AcDb2dPolyline
 66
     1
 10
0.0
 20
0.0
 30
0.0
 70
     1
  0
VERTEX
  5
143
330
142
100
AcDbEntity
  8
-TEXT
100
AcDbVertex
100
AcDb2dVertex
 10
28858.32621773683
 20
4610.347455243248
 30
0.0
 42
0.4142135623731076
  0
VERTEX
  5
144
330
142
100
AcDbEntity
  8
-TEXT
100
AcDbVertex
100
AcDb2dVertex
 10
28858.82621773683
 20
4610.847455243248
 30
0.0
  0
VERTEX
  5
145
330
142
100
AcDbEntity
  8
-TEXT
100
AcDbVertex
100
AcDb2dVertex
 10
28858.82621773683
 20
4629.326729346258
 30
0.0
 42
0.2679491924311
  0
VERTEX
  5
146
330
142
100
AcDbEntity
  8
-TEXT
100
AcDbVertex
100
AcDb2dVertex
 10
28858.57621773683
 20
4629.75974204815
 30
0.0
  0
VERTEX
  5
147
330
142
100
AcDbEntity
  8
-TEXT
100
AcDbVertex
100
AcDb2dVertex
 10
28857.94753810436
 20
4630.122710403191
 30
0.0
 42
0.356393962768876
  0
VERTEX
  5
148
330
142
100
AcDbEntity
  8
-TEXT
100
AcDbVertex
100
AcDb2dVertex
 10
28857.32327403085
 20
4630.021249210542
 30
0.0
 42
-0.1401566880856147
  0
VERTEX
  5
149
330
142
100
AcDbEntity
  8
-TEXT
100
AcDbVertex
100
AcDb2dVertex
 10
28856.39590095459
 20
4629.430306053686
 30
0.0
 42
-0.3719684947096967
  0
VERTEX
  5
14A
330
142
100
AcDbEntity
  8
-TEXT
100
AcDbVertex
100
AcDb2dVertex
 10
28856.15757518482
 20
4629.537703264045
 30
0.0
 42
0.3133481483899682
  0
VERTEX
  5
14B
330
142
100
AcDbEntity
  8
-TEXT
100
AcDbVertex
100
AcDb2dVertex
 10
28855.96042826314
 20
4629.652761312126
 30
0.0
 42
-0.0395353834161368
  0
VERTEX
  5
14C
330
142
100
AcDbEntity
  8
-TEXT
100
AcDbVertex
100
AcDb2dVertex
 10
28855.6920072105
 20
4629.652761312126
 30
0.0
 42
0.3133481483899587
  0
VERTEX
  5
14D
330
142
100
AcDbEntity
  8
-TEXT
100
AcDbVertex
100
AcDb2dVertex
 10
28855.49486028882
 20
4629.537703264045
 30
0.0
 42
-0.3719684947096899
  0
VERTEX
  5
14E
330
142
100
AcDbEntity
  8
-TEXT
100
AcDbVertex
100
AcDb2dVertex
 10
28855.25653451904
 20
4629.430306053686
 30
0.0
 42
-0.2535089710730798
  0
VERTEX
  5
14F
330
142
100
AcDbEntity
  8
-TEXT
100
AcDbVertex
100
AcDb2dVertex
 10
28853.90906854299
 20
4630.777772029731
 30
0.0
 42
-0.3719684947097016
  0
VERTEX
  5
150
330
142
100
AcDbEntity
  8
-TEXT
100
AcDbVertex
100
AcDb2dVertex
 10
28854.01646575335
 20
4631.01609779951
 30
0.0
 42
0.3133481483899696
  0
VERTEX
  5
151
330
142
100
AcDbEntity
  8
-TEXT
100
AcDbVertex
100
AcDb2dVertex
 10
28854.13152380143
 20
4631.213244721194
 30
0.0
 42
-0.0395353834161227
  0
VERTEX
  5
152
330
142
100
AcDbEntity
  8
-TEXT
100
AcDbVertex
100
AcDb2dVertex
 10
28854.13152380143
 20
4631.481665773825
 30
0.0
 42
0.3133481483899713
  0
VERTEX
  5
153
330
142
100
AcDbEntity
  8
-TEXT
100
AcDbVertex
100
AcDb2dVertex
 10
28854.01646575335
 20
4631.678812695509
 30
0.0
 42
-0.3719684947097273
  0
VERTEX
  5
154
330
142
100
AcDbEntity
  8
-TEXT
100
AcDbVertex
100
AcDb2dVertex
 10
28853.90906854299
 20
4631.917138465288
 30
0.0
 42
-0.2535089710730805
  0
VERTEX
  5
155
330
142
100
AcDbEntity
  8
-TEXT
100
AcDbVertex
100
AcDb2dVertex
 10
28855.25653451904
 20
4633.264604441335
 30
0.0
 42
-0.3719684947096791
  0
VERTEX
  5
156
330
142
100
AcDbEntity
  8
-TEXT
100
AcDbVertex
100
AcDb2dVertex
 10
28855.49486028882
 20
4633.157207230975
 30
0.0
 42
0.313348148389964
  0
VERTEX
  5
157
330
142
100
AcDbEntity
  8
-TEXT
100
AcDbVertex
100
AcDb2dVertex
 10
28855.6920072105
 20
4633.042149182894
 30
0.0
 42
-0.0395353834161382
  0
VERTEX
  5
158
330
142
100
AcDbEntity
  8
-TEXT
100
AcDbVertex
100
AcDb2dVertex
 10
28855.96042826314
 20
4633.042149182894
 30
0.0
 42
0.3133481483899559
  0
VERTEX
  5
159
330
142
100
AcDbEntity
  8
-TEXT
100
AcDbVertex
100
AcDb2dVertex
 10
28856.15757518482
 20
4633.157207230975
 30
0.0
 42
-0.3719684947096844
  0
VERTEX
  5
15A
330
142
100
AcDbEntity
  8
-TEXT
100
AcDbVertex
100
AcDb2dVertex
 10
28856.39590095459
 20
4633.264604441335
 30
0.0
 42
-0.1401566888538557
  0
VERTEX
  5
15B
330
142
100
AcDbEntity
  8
-TEXT
100
AcDbVertex
100
AcDb2dVertex
 10
28857.32327403485
 20
4632.673661279967
 30
0.0
 42
0.3563939636179941
  0
VERTEX
  5
15C
330
142
100
AcDbEntity
  8
-TEXT
100
AcDbVertex
100
AcDb2dVertex
 10
28857.94753810936
 20
4632.572200086189
 30
0.0
  0
VERTEX
  5
15D
330
142
100
AcDbEntity
  8
-TEXT
100
AcDbVertex
100
AcDb2dVertex
 10
28858.57621773683
 20
4632.935168438344
 30
0.0
 42
0.2568694109299137
  0
VERTEX
  5
15E
330
142
100
AcDbEntity
  8
-TEXT
100
AcDbVertex
100
AcDb2dVertex
 10
28858.82578798924
 20
4633.347455240939
 30
0.0
  0
VERTEX
  5
15F
330
142
100
AcDbEntity
  8
-TEXT
100
AcDbVertex
100
AcDb2dVertex
 10
28875.12621773686
 20
4633.347455243248
 30
0.0
 42
0.4142135623316288
  0
VERTEX
  5
160
330
142
100
AcDbEntity
  8
-TEXT
100
AcDbVertex
100
AcDb2dVertex
 10
28875.32621773683
 20
4633.547455243247
 30
0.0
  0
VERTEX
  5
161
330
142
100
AcDbEntity
  8
-TEXT
100
AcDbVertex
100
AcDb2dVertex
 10
28875.32621773683
 20
4635.147455243247
 30
0.0
 42
0.4142135623730951
  0
VERTEX
  5
162
330
142
100
AcDbEntity
  8
-TEXT
100
AcDbVertex
100
AcDb2dVertex
 10
28875.12621773683
 20
4635.347455243247
 30
0.0
  0
VERTEX
  5
163
330
142
100
AcDbEntity
  8
-TEXT
100
AcDbVertex
100
AcDb2dVertex
 10
28845.82621773683
 20
4635.347455243247
 30
0.0
 42
0.4142135623730951
  0
VERTEX
  5
164
330
142
100
AcDbEntity
  8
-TEXT
100
AcDbVertex
100
AcDb2dVertex
 10
28845.32621773683
 20
4634.847455243249
 30
0.0
  0
VERTEX
  5
165
330
142
100
AcDbEntity
  8
-TEXT
100
AcDbVertex
100
AcDb2dVertex
 10
28845.32621773683
 20
4633.847455243247
 30
0.0
 42
0.4142135623730951
  0
VERTEX
  5
166
330
142
100
AcDbEntity
  8
-TEXT
100
AcDbVertex
100
AcDb2dVertex
 10
28845.82621773683
 20
4633.347455243248
 30
0.0
  0
VERTEX
  5
167
330
142
100
AcDbEntity
  8
-TEXT
100
AcDbVertex
100
AcDb2dVertex
 10
28851.40078346237
 20
4633.347455243248
 30
0.0
 42
-0.4142135623730951
  0
VERTEX
  5
168
330
142
100
AcDbEntity
  8
-TEXT
100
AcDbVertex
100
AcDb2dVertex
 10
28851.90078346237
 20
4632.847455243248
 30
0.0
  0
VERTEX
  5
169
330
142
100
AcDbEntity
  8
-TEXT
100
AcDbVertex
100
AcDb2dVertex
 10
28851.90078346237
 20
4629.847455243248
 30
0.0
 42
-0.4142135623730951
  0
VERTEX
  5
16A
330
142
100
AcDbEntity
  8
-TEXT
100
AcDbVertex
100
AcDb2dVertex
 10
28851.40078346237
 20
4629.347455243247
 30
0.0
  0
VERTEX
  5
16B
330
142
100
AcDbEntity
  8
-TEXT
100
AcDbVertex
100
AcDb2dVertex
 10
28844.82621773683
 20
4629.347455243247
 30
0.0
 42
0.4142135623730951
  0
VERTEX
  5
16C
330
142
100
AcDbEntity
  8
-TEXT
100
AcDbVertex
100
AcDb2dVertex
 10
28843.82621773683
 20
4628.347455243248
 30
0.0
  0
VERTEX
  5
16D
330
142
100
AcDbEntity
  8
-TEXT
100
AcDbVertex
100
AcDb2dVertex
 10
28843.82621773683
 20
4625.59745524325
 30
0.0
 42
0.4142135623730951
  0
VERTEX
  5
16E
330
142
100
AcDbEntity
  8
-TEXT
100
AcDbVertex
100
AcDb2dVertex
 10
28845.82621773683
 20
4623.59745524325
 30
0.0
  0
VERTEX
  5
16F
330
142
100
AcDbEntity
  8
-TEXT
100
AcDbVertex
100
AcDb2dVertex
 10
28846.32621773683
 20
4623.59745524325
 30
0.0
 42
0.4142135623730951
  0
VERTEX
  5
170
330
142
100
AcDbEntity
  8
-TEXT
100
AcDbVertex
100
AcDb2dVertex
 10
28846.82621773683
 20
4624.09745524325
 30
0.0
  0
VERTEX
  5
171
330
142
100
AcDbEntity
  8
-TEXT
100
AcDbVertex
100
AcDb2dVertex
 10
28846.82621773683
 20
4624.597455243248
 30
0.0
 42
0.4142135623730951
  0
VERTEX
  5
172
330
142
100
AcDbEntity
  8
-TEXT
100
AcDbVertex
100
AcDb2dVertex
 10
28846.32621773683
 20
4625.097455243248
 30
0.0
  0
VERTEX
  5
173
330
142
100
AcDbEntity
  8
-TEXT
100
AcDbVertex
100
AcDb2dVertex
 10
28845.82621773683
 20
4625.097455243248
 30
0.0
 42
-0.4142135623730951
  0
VERTEX
  5
174
330
142
100
AcDbEntity
  8
-TEXT
100
AcDbVertex
100
AcDb2dVertex
 10
28845.32621773683
 20
4625.597455243248
 30
0.0
  0
VERTEX
  5
175
330
142
100
AcDbEntity
  8
-TEXT
100
AcDbVertex
100
AcDb2dVertex
 10
28845.32621773683
 20
4626.847455243248
 30
0.0
 42
-0.4142135623730951
  0
VERTEX
  5
176
330
142
100
AcDbEntity
  8
-TEXT
100
AcDbVertex
100
AcDb2dVertex
 10
28845.82621773683
 20
4627.347455243248
 30
0.0
  0
VERTEX
  5
177
330
142
100
AcDbEntity
  8
-TEXT
100
AcDbVertex
100
AcDb2dVertex
 10
28852.47621773683
 20
4627.347455243248
 30
0.0
  0
VERTEX
  5
178
330
142
100
AcDbEntity
  8
-TEXT
100
AcDbVertex
100
AcDb2dVertex
 10
28852.47621773683
 20
4627.647455243248
 30
0.0
  0
VERTEX
  5
179
330
142
100
AcDbEntity
  8
-TEXT
100
AcDbVertex
100
AcDb2dVertex
 10
28853.07621773683
 20
4627.647455243248
 30
0.0
  0
VERTEX
  5
17A
330
142
100
AcDbEntity
  8
-TEXT
100
AcDbVertex
100
AcDb2dVertex
 10
28853.07621773683
 20
4627.347455243248
 30
0.0
  0
VERTEX
  5
17B
330
142
100
AcDbEntity
  8
-TEXT
100
AcDbVertex
100
AcDb2dVertex
 10
28853.37621773683
 20
4627.347455243248
 30
0.0
 42
-1.0
  0
VERTEX
  5
17C
330
142
100
AcDbEntity
  8
-TEXT
100
AcDbVertex
100
AcDb2dVertex
 10
28853.97621773683
 20
4627.347455243248
 30
0.0
  0
VERTEX
  5
17D
330
142
100
AcDbEntity
  8
-TEXT
100
AcDbVertex
100
AcDb2dVertex
 10
28856.82621773683
 20
4627.347455243248
 30
0.0
 42
-0.4142135623731186
  0
VERTEX
  5
17E
330
142
100
AcDbEntity
  8
-TEXT
100
AcDbVertex
100
AcDb2dVertex
 10
28857.32621773683
 20
4626.847455243248
 30
0.0
  0
VERTEX
  5
17F
330
142
100
AcDbEntity
  8
-TEXT
100
AcDbVertex
100
AcDb2dVertex
 10
28857.32621773683
 20
4612.347455243248
 30
0.0
 42
-0.4142135623730951
  0
VERTEX
  5
180
330
142
100
AcDbEntity
  8
-TEXT
100
AcDbVertex
100
AcDb2dVertex
 10
28856.82621773683
 20
4611.847455243248
 30
0.0
  0
VERTEX
  5
181
330
142
100
AcDbEntity
  8
-TEXT
100
AcDbVertex
100
AcDb2dVertex
 10
28856.02621773683
 20
4611.847455243248
 30
0.0
 42
0.4142135623730951
  0
VERTEX
  5
182
330
142
100
AcDbEntity
  8
-TEXT
100
AcDbVertex
100
AcDb2dVertex
 10
28855.52621773683
 20
4611.347455243247
 30
0.0
  0
VERTEX
  5
183
330
142
100
AcDbEntity
  8
-TEXT
100
AcDbVertex
100
AcDb2dVertex
 10
28855.52621773683
 20
4600.018275636498
 30
0.0
 42
-0.3316792665684002
  0
VERTEX
  5
184
330
142
100
AcDbEntity
  8
-TEXT
100
AcDbVertex
100
AcDb2dVertex
 10
28855.38336059397
 20
4599.826612666999
 30
0.0
 42
0.3316792665683956
  0
VERTEX
  5
185
330
142
100
AcDbEntity
  8
-TEXT
100
AcDbVertex
100
AcDb2dVertex
 10
28855.02621773683
 20
4599.347455243248
 30
0.0
  0
VERTEX
  5
186
330
142
100
AcDbEntity
  8
-TEXT
100
AcDbVertex
100
AcDb2dVertex
 10
28855.02621773683
 20
4595.347455243248
 30
0.0
 42
0.3316792665685715
  0
VERTEX
  5
187
330
142
100
AcDbEntity
  8
-TEXT
100
AcDbVertex
100
AcDb2dVertex
 10
28855.38336059397
 20
4594.868297819498
 30
0.0
 42
-0.3316792665685686
  0
VERTEX
  5
188
330
142
100
AcDbEntity
  8
-TEXT
100
AcDbVertex
100
AcDb2dVertex
 10
28855.52621773683
 20
4594.676634849998
 30
0.0
  0
VERTEX
  5
189
330
142
100
AcDbEntity
  8
-TEXT
100
AcDbVertex
100
AcDb2dVertex
 10
28855.52621773683
 20
4586.018275636496
 30
0.0
 42
-0.3316792665687082
  0
VERTEX
  5
18A
330
142
100
AcDbEntity
  8
-TEXT
100
AcDbVertex
100
AcDb2dVertex
 10
28855.38336059397
 20
4585.826612666997
 30
0.0
 42
0.3316792665687068
  0
VERTEX
  5
18B
330
142
100
AcDbEntity
  8
-TEXT
100
AcDbVertex
100
AcDb2dVertex
 10
28855.02621773683
 20
4585.347455243248
 30
0.0
  0
VERTEX
  5
18C
330
142
100
AcDbEntity
  8
-TEXT
100
AcDbVertex
100
AcDb2dVertex
 10
28855.02621773683
 20
4580.432428107564
 30
0.0
 42
0.0843680304782565
  0
VERTEX
  5
18D
330
142
100
AcDbEntity
  8
-TEXT
100
AcDbVertex
100
AcDb2dVertex
 10
28855.05428855865
 20
4580.267252895199
 30
0.0
  0
VERTEX
  5
18E
330
142
100
AcDbEntity
  8
-TEXT
100
AcDbVertex
100
AcDb2dVertex
 10
28855.60902906116
 20
4578.682280030884
 30
0.0
 42
0.3187078456301044
  0
VERTEX
  5
18F
330
142
100
AcDbEntity
  8
-TEXT
100
AcDbVertex
100
AcDb2dVertex
 10
28856.08095823934
 20
4578.347455243248
 30
0.0
  0
VERTEX
  5
190
330
142
100
AcDbEntity
  8
-TEXT
100
AcDbVertex
100
AcDb2dVertex
 10
28856.52621773683
 20
4578.347455243248
 30
0.0
 42
0.4142135623730951
  0
VERTEX
  5
191
330
142
100
AcDbEntity
  8
-TEXT
100
AcDbVertex
100
AcDb2dVertex
 10
28857.02621773683
 20
4578.847455243248
 30
0.0
  0
VERTEX
  5
192
330
142
100
AcDbEntity
  8
-TEXT
100
AcDbVertex
100
AcDb2dVertex
 10
28857.02621773683
 20
4589.880788576574
 30
0.0
 42
0.1622776601678206
  0
VERTEX
  5
193
330
142
100
AcDbEntity
  8
-TEXT
100
AcDbVertex
100
AcDb2dVertex
 10
28856.98621773683
 20
4590.000788576574
 30
0.0
  0
VERTEX
  5
194
330
142
100
AcDbEntity
  8
-TEXT
100
AcDbVertex
100
AcDb2dVertex
 10
28856.72621773683
 20
4590.347455243248
 30
0.0
  0
VERTEX
  5
195
330
142
100
AcDbEntity
  8
-TEXT
100
AcDbVertex
100
AcDb2dVertex
 10
28856.98621773683
 20
4590.694121909915
 30
0.0
 42
0.1622776601679521
  0
VERTEX
  5
196
330
142
100
AcDbEntity
  8
-TEXT
100
AcDbVertex
100
AcDb2dVertex
 10
28857.02621773683
 20
4590.814121909916
 30
0.0
  0
VERTEX
  5
197
330
142
100
AcDbEntity
  8
-TEXT
100
AcDbVertex
100
AcDb2dVertex
 10
28857.02621773683
 20
4609.847455243248
 30
0.0
 42
-0.4142135623730395
  0
VERTEX
  5
198
330
142
100
AcDbEntity
  8
-TEXT
100
AcDbVertex
100
AcDb2dVertex
 10
28857.52621773683
 20
4610.347455243248
 30
0.0
  0
SEQEND
  5
199
330
142
100
AcDbEntity
  8
-TEXT
  0
LINE
  5
19A
330
2
100
AcDbEntity
  8
-PROFILAUSSENKANTET
100
AcDbLine
 10
29582.86704556862
 20
4580.348656361405
 30
0.0
 11
32582.86666781084
 21
4580.348656361405
 31
0.0
  0
HATCH
  5
19B
330
2
100
AcDbEntity
  8
-PROFILAUSSENKANTET
100
AcDbHatch
 10
0.0
 20
0.0
 30
0.0
210
0.0
220
0.0
230
1.0
  2
SOLID
 70
     1
 71
     1
 91
        1
 92
        1
 93
       86
 72
     2
 10
32649.86666781084
 20
4610.847455243248
 40
0.5
 50
90.0
 51
180.0
 73
     0
 72
     1
 10
32649.36666781084
 20
4610.847455243248
 11
32649.36666781084
 21
4629.326729346258
 72
     2
 10
32649.86666781084
 20
4629.326729346258
 40
0.5
 50
180.0
 51
239.9999999999896
 73
     0
 72
     1
 10
32649.61666781085
 20
4629.75974204815
 11
32650.24534744331
 21
4630.122710403191
 72
     2
 10
32650.49534744331
 20
4629.689697701301
 40
0.4999999999990565
 50
239.9999999999375
 51
318.4630417960311
 73
     0
 72
     2
 10
32652.36666781086
 20
4631.347455247513
 40
2.000000000003295
 50
221.5369582039282
 51
253.4506189761456
 73
     1
 72
     2
 10
32651.85395291486
 20
4629.622020973068
 40
0.2000000000013715
 50
253.4506189755833
 51
335.0650803287936
 73
     1
 72
     2
 10
32652.21666781086
 20
4629.453385555025
 40
0.1999999999955462
 50
204.9349196707007
 51
274.5280630138138
 73
     0
 72
     2
 10
32652.36666781086
 20
4631.347455247531
 40
1.700000000021199
 50
265.471936986191
 51
274.5280630138089
 73
     1
 72
     2
 10
32652.51666781086
 20
4629.453385555025
 40
0.1999999999968603
 50
265.4719369861862
 51
335.0650803292993
 73
     0
 72
     2
 10
32652.87938270685
 20
4629.622020973068
 40
0.2000000000003787
 50
204.9349196712064
 51
286.5493810244167
 73
     1
 72
     2
 10
32652.36666781086
 20
4631.34745524751
 40
2.000000000000523
 50
286.5493810238767
 51
343.4506189760983
 73
     1
 72
     2
 10
32654.0921020853
 20
4630.834740351508
 40
0.2000000000003353
 50
343.4506189765823
 51
425.065080329722
 73
     1
 72
     2
 10
32654.26073750334
 20
4631.197455247508
 40
0.1999999999991127
 50
114.9349196716624
 51
184.5280630142715
 73
     0
 72
     2
 10
32652.36666781086
 20
4631.347455247509
 40
1.700000000000202
 50
355.4719369861965
 51
364.5280630138035
 73
     1
 72
     2
 10
32654.26073750334
 20
4631.497455247511
 40
0.1999999999997238
 50
175.4719369857285
 51
245.0650803283376
 73
     0
 72
     2
 10
32654.0921020853
 20
4631.860170143512
 40
0.2000000000008779
 50
294.934919670278
 51
376.5493810234177
 73
     1
 72
     2
 10
32652.36666781086
 20
4631.347455247509
 40
2.000000000000523
 50
16.54938102387667
 51
73.45061897612332
 73
     1
 72
     2
 10
32652.87938270685
 20
4633.072889521953
 40
0.2000000000004997
 50
73.45061897550907
 51
155.0650803288267
 73
     1
 72
     2
 10
32652.51666781086
 20
4633.241524939997
 40
0.1999999999999953
 50
24.93491967097013
 51
94.52806301375202
 73
     0
 72
     2
 10
32652.36666781086
 20
4631.347455247489
 40
1.700000000021199
 50
85.47193698619109
 51
94.52806301380894
 73
     1
 72
     2
 10
32652.21666781086
 20
4633.241524939995
 40
0.1999999999968603
 50
85.47193698618624
 51
155.0650803292992
 73
     0
 72
     2
 10
32651.85395291486
 20
4633.07288952195
 40
0.2000000000003787
 50
24.93491967120642
 51
106.5493810243425
 73
     1
 72
     2
 10
32652.36666781086
 20
4631.347455247512
 40
1.999999999998779
 50
106.5493810238915
 51
138.4630419688052
 73
     1
 72
     2
 10
32650.49534743832
 20
4633.005212788081
 40
0.4999999999997391
 50
41.53695803121431
 51
120.0000000000103
 73
     0
 72
     1
 10
32650.24534743832
 20
4632.572200086189
 11
32649.61666781085
 21
4632.935168438344
 72
     2
 10
32649.86666781084
 20
4633.368181140236
 40
0.4999999999990565
 50
120.0000000000624
 51
177.6243062159999
 73
     0
 72
     1
 10
32649.36709755843
 20
4633.347455240939
 11
32633.06666781081
 21
4633.347455243248
 72
     2
 10
32633.06666781084
 20
4633.547455243248
 40
0.1999999999998181
 50
90.00000000729542
 51
179.9999999997394
 73
     0
 72
     1
 10
32632.86666781084
 20
4633.547455243247
 11
32632.86666781084
 21
4635.147455243247
 72
     2
 10
32633.06666781084
 20
4635.147455243247
 40
0.1999999999970896
 50
180.0
 51
270.0000000010422
 73
     0
 72
     1
 10
32633.06666781085
 20
4635.347455243247
 11
32662.36666781084
 21
4635.347455243247
 72
     2
 10
32662.36666781084
 20
4634.847455243249
 40
0.5
 50
270.0
 51
360.0
 73
     0
 72
     1
 10
32662.86666781084
 20
4634.847455243249
 11
32662.86666781084
 21
4633.847455243247
 72
     2
 10
32662.36666781084
 20
4633.847455243247
 40
0.5
 50
360.0
 51
450.0
 73
     0
 72
     1
 10
32662.36666781084
 20
4633.347455243248
 11
32656.7921020853
 21
4633.347455243248
 72
     2
 10
32656.7921020853
 20
4632.847455243248
 40
0.5
 50
90.0
 51
180.0
 73
     1
 72
     1
 10
32656.2921020853
 20
4632.847455243248
 11
32656.2921020853
 21
4629.847455243248
 72
     2
 10
32656.7921020853
 20
4629.847455243248
 40
0.5
 50
180.0
 51
270.0
 73
     1
 72
     1
 10
32656.7921020853
 20
4629.347455243247
 11
32663.36666781084
 21
4629.347455243247
 72
     2
 10
32663.36666781084
 20
4628.347455243248
 40
1.0
 50
270.0
 51
360.0
 73
     0
 72
     1
 10
32664.36666781084
 20
4628.347455243248
 11
32664.36666781084
 21
4625.59745524325
 72
     2
 10
32662.36666781084
 20
4625.59745524325
 40
2.0
 50
360.0
 51
450.0
 73
     0
 72
     1
 10
32662.36666781084
 20
4623.59745524325
 11
32661.86666781084
 21
4623.59745524325
 72
     2
 10
32661.86666781084
 20
4624.09745524325
 40
0.5
 50
90.0
 51
180.0
 73
     0
 72
     1
 10
32661.36666781084
 20
4624.09745524325
 11
32661.36666781084
 21
4624.597455243248
 72
     2
 10
32661.86666781084
 20
4624.597455243248
 40
0.5
 50
180.0
 51
270.0
 73
     0
 72
     1
 10
32661.86666781084
 20
4625.097455243248
 11
32662.36666781084
 21
4625.097455243248
 72
     2
 10
32662.36666781084
 20
4625.597455243248
 40
0.5
 50
270.0
 51
360.0
 73
     1
 72
     1
 10
32662.86666781084
 20
4625.597455243248
 11
32662.86666781084
 21
4626.847455243248
 72
     2
 10
32662.36666781084
 20
4626.847455243248
 40
0.5
 50
0.0
 51
90.0
 73
     1
 72
     1
 10
32662.36666781084
 20
4627.347455243248
 11
32655.71666781085
 21
4627.347455243248
 72
     1
 10
32655.71666781085
 20
4627.347455243248
 11
32655.71666781085
 21
4627.647455243248
 72
     1
 10
32655.71666781085
 20
4627.647455243248
 11
32655.11666781085
 21
4627.647455243248
 72
     1
 10
32655.11666781085
 20
4627.647455243248
 11
32655.11666781085
 21
4627.347455243248
 72
     1
 10
32655.11666781085
 20
4627.347455243248
 11
32654.81666781085
 21
4627.347455243248
 72
     2
 10
32654.51666781085
 20
4627.347455243248
 40
0.3000000000029104
 50
0.0
 51
180.0
 73
     1
 72
     1
 10
32654.21666781084
 20
4627.347455243248
 11
32651.36666781084
 21
4627.347455243248
 72
     2
 10
32651.36666781084
 20
4626.847455243248
 40
0.5
 50
90.0
 51
180.0
 73
     1
 72
     1
 10
32650.86666781084
 20
4626.847455243248
 11
32650.86666781084
 21
4612.347455243248
 72
     2
 10
32651.36666781084
 20
4612.347455243248
 40
0.5
 50
180.0
 51
270.0
 73
     1
 72
     1
 10
32651.36666781084
 20
4611.847455243248
 11
32652.16666781084
 21
4611.847455243248
 72
     2
 10
32652.16666781084
 20
4611.347455243247
 40
0.5
 50
270.0
 51
360.0
 73
     0
 72
     1
 10
32652.66666781084
 20
4611.347455243247
 11
32652.66666781084
 21
4600.018275636498
 72
     2
 10
32652.86666781084
 20
4600.018275636499
 40
0.2000000000007276
 50
180.0000000005211
 51
253.3984504012596
 73
     1
 72
     2
 10
32652.66666781085
 20
4599.34745524325
 40
0.4999999999983013
 50
286.6015495988296
 51
360.0000000002085
 73
     0
 72
     1
 10
32653.16666781084
 20
4599.347455243248
 11
32653.16666781084
 21
4595.347455243248
 72
     2
 10
32652.66666781085
 20
4595.347455243247
 40
0.4999999999963621
 50
359.9999999998958
 51
433.3984504011703
 73
     0
 72
     2
 10
32652.86666781084
 20
4594.676634849998
 40
0.2000000000003664
 50
106.6015495987403
 51
179.9999999997394
 73
     1
 72
     1
 10
32652.66666781084
 20
4594.676634849998
 11
32652.66666781084
 21
4586.018275636496
 72
     2
 10
32652.86666781084
 20
4586.018275636498
 40
0.2000000000007276
 50
180.0000000005211
 51
253.3984504013341
 73
     1
 72
     2
 10
32652.66666781085
 20
4585.347455243248
 40
0.4999999999983013
 50
286.6015495988296
 51
360.0
 73
     0
 72
     1
 10
32653.16666781084
 20
4585.347455243248
 11
32653.16666781084
 21
4580.432428107564
 72
     2
 10
32652.66666781084
 20
4580.432428107561
 40
0.5
 50
359.9999999995831
 51
379.2900462188936
 73
     0
 72
     1
 10
32653.13859698903
 20
4580.267252895199
 11
32652.58385648651
 21
4578.682280030884
 72
     2
 10
32652.11192730833
 20
4578.847455243246
 40
0.4999999999969388
 50
19.29004621912973
 51
90.0
 73
     0
 72
     1
 10
32652.11192730833
 20
4578.347455243248
 11
32651.66666781084
 21
4578.347455243248
 72
     2
 10
32651.66666781084
 20
4578.847455243248
 40
0.5
 50
90.0
 51
180.0
 73
     0
 72
     1
 10
32651.16666781084
 20
4578.847455243248
 11
32651.16666781084
 21
4589.880788576574
 72
     2
 10
32651.36666781084
 20
4589.880788576572
 40
0.2000000000007276
 50
180.0000000005211
 51
216.8698976462609
 73
     0
 72
     1
 10
32651.20666781085
 20
4590.000788576574
 11
32651.46666781085
 21
4590.347455243248
 72
     1
 10
32651.46666781085
 20
4590.347455243248
 11
32651.20666781085
 21
4590.694121909915
 72
     2
 10
32651.36666781085
 20
4590.814121909917
 40
0.2000000000009095
 50
143.1301023537391
 51
179.9999999994789
 73
     0
 72
     1
 10
32651.16666781084
 20
4590.814121909916
 11
32651.16666781084
 21
4609.847455243248
 72
     2
 10
32650.66666781084
 20
4609.847455243248
 40
0.5
 50
0.0
 51
90.0
 73
     1
 72
     1
 10
32650.66666781084
 20
4610.347455243248
 11
32649.86666781084
 21
4610.347455243248
 97
        1
330
19C
 75
     1
 76
     1
 98
        1
 10
39925.66904936061
 20
307.7465179899828
1001
GradientColor1ACI
1070
     5
1001
GradientColor2ACI
1070
     2
1001
ACAD
1010
0.0
1020
0.0
1030
0.0
  0
POLYLINE
  5
19C
102
{ACAD_REACTORS
330
19B
102
}
330
2
100
AcDbEntity
  8
-TEXT
100
AcDb2dPolyline
 66
     1
 10
0.0
 20
0.0
 30
0.0
 70
     1
  0
VERTEX
  5
19D
330
19C
100
AcDbEntity
  8
-TEXT
100
AcDbVertex
100
AcDb2dVertex
 10
32649.86666781084
 20
4610.347455243248
 30
0.0
 42
-0.4142135623731076
  0
VERTEX
  5
19E
330
19C
100
AcDbEntity
  8
-TEXT
100
AcDbVertex
100
AcDb2dVertex
 10
32649.36666781084
 20
4610.847455243248
 30
0.0
  0
VERTEX
  5
19F
330
19C
100
AcDbEntity
  8
-TEXT
100
AcDbVertex
100
AcDb2dVertex
 10
32649.36666781084
 20
4629.326729346258
 30
0.0
 42
-0.2679491924311
  0
VERTEX
  5
1A0
330
19C
100
AcDbEntity
  8
-TEXT
100
AcDbVertex
100
AcDb2dVertex
 10
32649.61666781085
 20
4629.75974204815
 30
0.0
  0
VERTEX
  5
1A1
330
19C
100
AcDbEntity
  8
-TEXT
100
AcDbVertex
100
AcDb2dVertex
 10
32650.24534744331
 20
4630.122710403191
 30
0.0
 42
-0.356393962768876
  0
VERTEX
  5
1A2
330
19C
100
AcDbEntity
  8
-TEXT
100
AcDbVertex
100
AcDb2dVertex
 10
32650.86961151682
 20
4630.021249210542
 30
0.0
 42
0.1401566880856147
  0
VERTEX
  5
1A3
330
19C
100
AcDbEntity
  8
-TEXT
100
AcDbVertex
100
AcDb2dVertex
 10
32651.79698459308
 20
4629.430306053686
 30
0.0
 42
0.3719684947096967
  0
VERTEX
  5
1A4
330
19C
100
AcDbEntity
  8
-TEXT
100
AcDbVertex
100
AcDb2dVertex
 10
32652.03531036286
 20
4629.537703264045
 30
0.0
 42
-0.3133481483899682
  0
VERTEX
  5
1A5
330
19C
100
AcDbEntity
  8
-TEXT
100
AcDbVertex
100
AcDb2dVertex
 10
32652.23245728454
 20
4629.652761312126
 30
0.0
 42
0.0395353834161368
  0
VERTEX
  5
1A6
330
19C
100
AcDbEntity
  8
-TEXT
100
AcDbVertex
100
AcDb2dVertex
 10
32652.50087833718
 20
4629.652761312126
 30
0.0
 42
-0.3133481483899587
  0
VERTEX
  5
1A7
330
19C
100
AcDbEntity
  8
-TEXT
100
AcDbVertex
100
AcDb2dVertex
 10
32652.69802525886
 20
4629.537703264045
 30
0.0
 42
0.3719684947096899
  0
VERTEX
  5
1A8
330
19C
100
AcDbEntity
  8
-TEXT
100
AcDbVertex
100
AcDb2dVertex
 10
32652.93635102864
 20
4629.430306053686
 30
0.0
 42
0.2535089710730798
  0
VERTEX
  5
1A9
330
19C
100
AcDbEntity
  8
-TEXT
100
AcDbVertex
100
AcDb2dVertex
 10
32654.28381700468
 20
4630.777772029731
 30
0.0
 42
0.3719684947097016
  0
VERTEX
  5
1AA
330
19C
100
AcDbEntity
  8
-TEXT
100
AcDbVertex
100
AcDb2dVertex
 10
32654.17641979432
 20
4631.01609779951
 30
0.0
 42
-0.3133481483899696
  0
VERTEX
  5
1AB
330
19C
100
AcDbEntity
  8
-TEXT
100
AcDbVertex
100
AcDb2dVertex
 10
32654.06136174624
 20
4631.213244721194
 30
0.0
 42
0.0395353834161227
  0
VERTEX
  5
1AC
330
19C
100
AcDbEntity
  8
-TEXT
100
AcDbVertex
100
AcDb2dVertex
 10
32654.06136174624
 20
4631.481665773825
 30
0.0
 42
-0.3133481483899713
  0
VERTEX
  5
1AD
330
19C
100
AcDbEntity
  8
-TEXT
100
AcDbVertex
100
AcDb2dVertex
 10
32654.17641979432
 20
4631.678812695509
 30
0.0
 42
0.3719684947097273
  0
VERTEX
  5
1AE
330
19C
100
AcDbEntity
  8
-TEXT
100
AcDbVertex
100
AcDb2dVertex
 10
32654.28381700468
 20
4631.917138465288
 30
0.0
 42
0.2535089710730805
  0
VERTEX
  5
1AF
330
19C
100
AcDbEntity
  8
-TEXT
100
AcDbVertex
100
AcDb2dVertex
 10
32652.93635102864
 20
4633.264604441335
 30
0.0
 42
0.3719684947096791
  0
VERTEX
  5
1B0
330
19C
100
AcDbEntity
  8
-TEXT
100
AcDbVertex
100
AcDb2dVertex
 10
32652.69802525886
 20
4633.157207230975
 30
0.0
 42
-0.313348148389964
  0
VERTEX
  5
1B1
330
19C
100
AcDbEntity
  8
-TEXT
100
AcDbVertex
100
AcDb2dVertex
 10
32652.50087833718
 20
4633.042149182894
 30
0.0
 42
0.0395353834161382
  0
VERTEX
  5
1B2
330
19C
100
AcDbEntity
  8
-TEXT
100
AcDbVertex
100
AcDb2dVertex
 10
32652.23245728454
 20
4633.042149182894
 30
0.0
 42
-0.3133481483899559
  0
VERTEX
  5
1B3
330
19C
100
AcDbEntity
  8
-TEXT
100
AcDbVertex
100
AcDb2dVertex
 10
32652.03531036286
 20
4633.157207230975
 30
0.0
 42
0.3719684947096844
  0
VERTEX
  5
1B4
330
19C
100
AcDbEntity
  8
-TEXT
100
AcDbVertex
100
AcDb2dVertex
 10
32651.79698459308
 20
4633.264604441335
 30
0.0
 42
0.1401566888538557
  0
VERTEX
  5
1B5
330
19C
100
AcDbEntity
  8
-TEXT
100
AcDbVertex
100
AcDb2dVertex
 10
32650.86961151283
 20
4632.673661279967
 30
0.0
 42
-0.3563939636179941
  0
VERTEX
  5
1B6
330
19C
100
AcDbEntity
  8
-TEXT
100
AcDbVertex
100
AcDb2dVertex
 10
32650.24534743832
 20
4632.572200086189
 30
0.0
  0
VERTEX
  5
1B7
330
19C
100
AcDbEntity
  8
-TEXT
100
AcDbVertex
100
AcDb2dVertex
 10
32649.61666781085
 20
4632.935168438344
 30
0.0
 42
-0.2568694109299137
  0
VERTEX
  5
1B8
330
19C
100
AcDbEntity
  8
-TEXT
100
AcDbVertex
100
AcDb2dVertex
 10
32649.36709755843
 20
4633.347455240939
 30
0.0
  0
VERTEX
  5
1B9
330
19C
100
AcDbEntity
  8
-TEXT
100
AcDbVertex
100
AcDb2dVertex
 10
32633.06666781081
 20
4633.347455243248
 30
0.0
 42
-0.4142135623316288
  0
VERTEX
  5
1BA
330
19C
100
AcDbEntity
  8
-TEXT
100
AcDbVertex
100
AcDb2dVertex
 10
32632.86666781084
 20
4633.547455243247
 30
0.0
  0
VERTEX
  5
1BB
330
19C
100
AcDbEntity
  8
-TEXT
100
AcDbVertex
100
AcDb2dVertex
 10
32632.86666781084
 20
4635.147455243247
 30
0.0
 42
-0.4142135623730951
  0
VERTEX
  5
1BC
330
19C
100
AcDbEntity
  8
-TEXT
100
AcDbVertex
100
AcDb2dVertex
 10
32633.06666781085
 20
4635.347455243247
 30
0.0
  0
VERTEX
  5
1BD
330
19C
100
AcDbEntity
  8
-TEXT
100
AcDbVertex
100
AcDb2dVertex
 10
32662.36666781084
 20
4635.347455243247
 30
0.0
 42
-0.4142135623730951
  0
VERTEX
  5
1BE
330
19C
100
AcDbEntity
  8
-TEXT
100
AcDbVertex
100
AcDb2dVertex
 10
32662.86666781084
 20
4634.847455243249
 30
0.0
  0
VERTEX
  5
1BF
330
19C
100
AcDbEntity
  8
-TEXT
100
AcDbVertex
100
AcDb2dVertex
 10
32662.86666781084
 20
4633.847455243247
 30
0.0
 42
-0.4142135623730951
  0
VERTEX
  5
1C0
330
19C
100
AcDbEntity
  8
-TEXT
100
AcDbVertex
100
AcDb2dVertex
 10
32662.36666781084
 20
4633.347455243248
 30
0.0
  0
VERTEX
  5
1C1
330
19C
100
AcDbEntity
  8
-TEXT
100
AcDbVertex
100
AcDb2dVertex
 10
32656.7921020853
 20
4633.347455243248
 30
0.0
 42
0.4142135623730951
  0
VERTEX
  5
1C2
330
19C
100
AcDbEntity
  8
-TEXT
100
AcDbVertex
100
AcDb2dVertex
 10
32656.2921020853
 20
4632.847455243248
 30
0.0
  0
VERTEX
  5
1C3
330
19C
100
AcDbEntity
  8
-TEXT
100
AcDbVertex
100
AcDb2dVertex
 10
32656.2921020853
 20
4629.847455243248
 30
0.0
 42
0.4142135623730951
  0
VERTEX
  5
1C4
330
19C
100
AcDbEntity
  8
-TEXT
100
AcDbVertex
100
AcDb2dVertex
 10
32656.7921020853
 20
4629.347455243247
 30
0.0
  0
VERTEX
  5
1C5
330
19C
100
AcDbEntity
  8
-TEXT
100
AcDbVertex
100
AcDb2dVertex
 10
32663.36666781084
 20
4629.347455243247
 30
0.0
 42
-0.4142135623730951
  0
VERTEX
  5
1C6
330
19C
100
AcDbEntity
  8
-TEXT
100
AcDbVertex
100
AcDb2dVertex
 10
32664.36666781084
 20
4628.347455243248
 30
0.0
  0
VERTEX
  5
1C7
330
19C
100
AcDbEntity
  8
-TEXT
100
AcDbVertex
100
AcDb2dVertex
 10
32664.36666781084
 20
4625.59745524325
 30
0.0
 42
-0.4142135623730951
  0
VERTEX
  5
1C8
330
19C
100
AcDbEntity
  8
-TEXT
100
AcDbVertex
100
AcDb2dVertex
 10
32662.36666781084
 20
4623.59745524325
 30
0.0
  0
VERTEX
  5
1C9
330
19C
100
AcDbEntity
  8
-TEXT
100
AcDbVertex
100
AcDb2dVertex
 10
32661.86666781084
 20
4623.59745524325
 30
0.0
 42
-0.4142135623730951
  0
VERTEX
  5
1CA
330
19C
100
AcDbEntity
  8
-TEXT
100
AcDbVertex
100
AcDb2dVertex
 10
32661.36666781084
 20
4624.09745524325
 30
0.0
  0
VERTEX
  5
1CB
330
19C
100
AcDbEntity
  8
-TEXT
100
AcDbVertex
100
AcDb2dVertex
 10
32661.36666781084
 20
4624.597455243248
 30
0.0
 42
-0.4142135623730951
  0
VERTEX
  5
1CC
330
19C
100
AcDbEntity
  8
-TEXT
100
AcDbVertex
100
AcDb2dVertex
 10
32661.86666781084
 20
4625.097455243248
 30
0.0
  0
VERTEX
  5
1CD
330
19C
100
AcDbEntity
  8
-TEXT
100
AcDbVertex
100
AcDb2dVertex
 10
32662.36666781084
 20
4625.097455243248
 30
0.0
 42
0.4142135623730951
  0
VERTEX
  5
1CE
330
19C
100
AcDbEntity
  8
-TEXT
100
AcDbVertex
100
AcDb2dVertex
 10
32662.86666781084
 20
4625.597455243248
 30
0.0
  0
VERTEX
  5
1CF
330
19C
100
AcDbEntity
  8
-TEXT
100
AcDbVertex
100
AcDb2dVertex
 10
32662.86666781084
 20
4626.847455243248
 30
0.0
 42
0.4142135623730951
  0
VERTEX
  5
1D0
330
19C
100
AcDbEntity
  8
-TEXT
100
AcDbVertex
100
AcDb2dVertex
 10
32662.36666781084
 20
4627.347455243248
 30
0.0
  0
VERTEX
  5
1D1
330
19C
100
AcDbEntity
  8
-TEXT
100
AcDbVertex
100
AcDb2dVertex
 10
32655.71666781085
 20
4627.347455243248
 30
0.0
  0
VERTEX
  5
1D2
330
19C
100
AcDbEntity
  8
-TEXT
100
AcDbVertex
100
AcDb2dVertex
 10
32655.71666781085
 20
4627.647455243248
 30
0.0
  0
VERTEX
  5
1D3
330
19C
100
AcDbEntity
  8
-TEXT
100
AcDbVertex
100
AcDb2dVertex
 10
32655.11666781085
 20
4627.647455243248
 30
0.0
  0
VERTEX
  5
1D4
330
19C
100
AcDbEntity
  8
-TEXT
100
AcDbVertex
100
AcDb2dVertex
 10
32655.11666781085
 20
4627.347455243248
 30
0.0
  0
VERTEX
  5
1D5
330
19C
100
AcDbEntity
  8
-TEXT
100
AcDbVertex
100
AcDb2dVertex
 10
32654.81666781085
 20
4627.347455243248
 30
0.0
 42
1.0
  0
VERTEX
  5
1D6
330
19C
100
AcDbEntity
  8
-TEXT
100
AcDbVertex
100
AcDb2dVertex
 10
32654.21666781084
 20
4627.347455243248
 30
0.0
  0
VERTEX
  5
1D7
330
19C
100
AcDbEntity
  8
-TEXT
100
AcDbVertex
100
AcDb2dVertex
 10
32651.36666781084
 20
4627.347455243248
 30
0.0
 42
0.4142135623731186
  0
VERTEX
  5
1D8
330
19C
100
AcDbEntity
  8
-TEXT
100
AcDbVertex
100
AcDb2dVertex
 10
32650.86666781084
 20
4626.847455243248
 30
0.0
  0
VERTEX
  5
1D9
330
19C
100
AcDbEntity
  8
-TEXT
100
AcDbVertex
100
AcDb2dVertex
 10
32650.86666781084
 20
4612.347455243248
 30
0.0
 42
0.4142135623730951
  0
VERTEX
  5
1DA
330
19C
100
AcDbEntity
  8
-TEXT
100
AcDbVertex
100
AcDb2dVertex
 10
32651.36666781084
 20
4611.847455243248
 30
0.0
  0
VERTEX
  5
1DB
330
19C
100
AcDbEntity
  8
-TEXT
100
AcDbVertex
100
AcDb2dVertex
 10
32652.16666781084
 20
4611.847455243248
 30
0.0
 42
-0.4142135623730951
  0
VERTEX
  5
1DC
330
19C
100
AcDbEntity
  8
-TEXT
100
AcDbVertex
100
AcDb2dVertex
 10
32652.66666781084
 20
4611.347455243247
 30
0.0
  0
VERTEX
  5
1DD
330
19C
100
AcDbEntity
  8
-TEXT
100
AcDbVertex
100
AcDb2dVertex
 10
32652.66666781084
 20
4600.018275636498
 30
0.0
 42
0.3316792665684002
  0
VERTEX
  5
1DE
330
19C
100
AcDbEntity
  8
-TEXT
100
AcDbVertex
100
AcDb2dVertex
 10
32652.8095249537
 20
4599.826612666999
 30
0.0
 42
-0.3316792665683956
  0
VERTEX
  5
1DF
330
19C
100
AcDbEntity
  8
-TEXT
100
AcDbVertex
100
AcDb2dVertex
 10
32653.16666781084
 20
4599.347455243248
 30
0.0
  0
VERTEX
  5
1E0
330
19C
100
AcDbEntity
  8
-TEXT
100
AcDbVertex
100
AcDb2dVertex
 10
32653.16666781084
 20
4595.347455243248
 30
0.0
 42
-0.3316792665685715
  0
VERTEX
  5
1E1
330
19C
100
AcDbEntity
  8
-TEXT
100
AcDbVertex
100
AcDb2dVertex
 10
32652.8095249537
 20
4594.868297819498
 30
0.0
 42
0.3316792665685686
  0
VERTEX
  5
1E2
330
19C
100
AcDbEntity
  8
-TEXT
100
AcDbVertex
100
AcDb2dVertex
 10
32652.66666781084
 20
4594.676634849998
 30
0.0
  0
VERTEX
  5
1E3
330
19C
100
AcDbEntity
  8
-TEXT
100
AcDbVertex
100
AcDb2dVertex
 10
32652.66666781084
 20
4586.018275636496
 30
0.0
 42
0.3316792665687082
  0
VERTEX
  5
1E4
330
19C
100
AcDbEntity
  8
-TEXT
100
AcDbVertex
100
AcDb2dVertex
 10
32652.8095249537
 20
4585.826612666997
 30
0.0
 42
-0.3316792665687068
  0
VERTEX
  5
1E5
330
19C
100
AcDbEntity
  8
-TEXT
100
AcDbVertex
100
AcDb2dVertex
 10
32653.16666781084
 20
4585.347455243248
 30
0.0
  0
VERTEX
  5
1E6
330
19C
100
AcDbEntity
  8
-TEXT
100
AcDbVertex
100
AcDb2dVertex
 10
32653.16666781084
 20
4580.432428107564
 30
0.0
 42
-0.0843680304782565
  0
VERTEX
  5
1E7
330
19C
100
AcDbEntity
  8
-TEXT
100
AcDbVertex
100
AcDb2dVertex
 10
32653.13859698903
 20
4580.267252895199
 30
0.0
  0
VERTEX
  5
1E8
330
19C
100
AcDbEntity
  8
-TEXT
100
AcDbVertex
100
AcDb2dVertex
 10
32652.58385648651
 20
4578.682280030884
 30
0.0
 42
-0.3187078456301044
  0
VERTEX
  5
1E9
330
19C
100
AcDbEntity
  8
-TEXT
100
AcDbVertex
100
AcDb2dVertex
 10
32652.11192730833
 20
4578.347455243248
 30
0.0
  0
VERTEX
  5
1EA
330
19C
100
AcDbEntity
  8
-TEXT
100
AcDbVertex
100
AcDb2dVertex
 10
32651.66666781084
 20
4578.347455243248
 30
0.0
 42
-0.4142135623730951
  0
VERTEX
  5
1EB
330
19C
100
AcDbEntity
  8
-TEXT
100
AcDbVertex
100
AcDb2dVertex
 10
32651.16666781084
 20
4578.847455243248
 30
0.0
  0
VERTEX
  5
1EC
330
19C
100
AcDbEntity
  8
-TEXT
100
AcDbVertex
100
AcDb2dVertex
 10
32651.16666781084
 20
4589.880788576574
 30
0.0
 42
-0.1622776601678206
  0
VERTEX
  5
1ED
330
19C
100
AcDbEntity
  8
-TEXT
100
AcDbVertex
100
AcDb2dVertex
 10
32651.20666781085
 20
4590.000788576574
 30
0.0
  0
VERTEX
  5
1EE
330
19C
100
AcDbEntity
  8
-TEXT
100
AcDbVertex
100
AcDb2dVertex
 10
32651.46666781085
 20
4590.347455243248
 30
0.0
  0
VERTEX
  5
1EF
330
19C
100
AcDbEntity
  8
-TEXT
100
AcDbVertex
100
AcDb2dVertex
 10
32651.20666781085
 20
4590.694121909915
 30
0.0
 42
-0.1622776601679521
  0
VERTEX
  5
1F0
330
19C
100
AcDbEntity
  8
-TEXT
100
AcDbVertex
100
AcDb2dVertex
 10
32651.16666781084
 20
4590.814121909916
 30
0.0
  0
VERTEX
  5
1F1
330
19C
100
AcDbEntity
  8
-TEXT
100
AcDbVertex
100
AcDb2dVertex
 10
32651.16666781084
 20
4609.847455243248
 30
0.0
 42
0.4142135623730395
  0
VERTEX
  5
1F2
330
19C
100
AcDbEntity
  8
-TEXT
100
AcDbVertex
100
AcDb2dVertex
 10
32650.66666781084
 20
4610.347455243248
 30
0.0
  0
SEQEND
  5
1F3
330
19C
100
AcDbEntity
  8
-TEXT
  0
MTEXT
  5
1F4
102
{ACAD_XDICTIONARY
360
1F5
102
}
330
2
100
AcDbEntity
  8
DEFPOINTS
100
AcDbMText
 10
28556.3478664835
 20
4735.906743370782
 30
0.0
 40
20.0
 41
605.5221171637931
 71
     1
 72
     5
  1
{\W9.0285;  }BALARDO Anschlussprofil\P{\W8.20015; }mit Schenkelh\U+00F6he 2 mm f\U+00FCr core Top 4
 73
     1
 44
1.0
1001
ACAD
1000
ACAD_MTEXT_COLUMN_INFO_BEGIN
1070
    75
1070
     2
1070
    79
1070
     0
1070
    76
1070
     1
1070
    78
1070
     0
1070
    48
1040
605.5221171637931
1070
    49
1040
12.5
1070
    50
1070
     1
1040
0.0
1000
ACAD_MTEXT_COLUMN_INFO_END
1000
MTEXTBEGIN
1070
    73
1070
     1
1070
    44
1040
1.0
1070
    74
1070
     0
1000
MTEXTEND
  0
ENDSEC
  0
SECTION
  2
OBJECTS
  0
DICTIONARY
  5
9
330
0
100
AcDbDictionary
281
     1
  3
ACAD_2007HEADERVARS_RT
350
28F
  3
ACAD_COLOR
350
3F
  3
ACAD_DETAILVIEWSTYLE
350
215
  3
ACAD_FIELDLIST
350
276
  3
ACAD_GROUP
350
36
  3
ACAD_LAYOUT
350
8
  3
ACAD_MATERIAL
350
18
  3
ACAD_MLEADERSTYLE
350
42
  3
ACAD_MLINESTYLE
350
37
  3
ACAD_PLOTSETTINGS
350
38
  3
ACAD_PLOTSTYLENAME
350
16
  3
ACAD_SCALELIST
350
40
  3
ACAD_SECTIONVIEWSTYLE
350
237
  3
ACAD_TABLESTYLE
350
41
  3
ACAD_VISUALSTYLE
350
2E
  3
ACDB_RECOMPOSE_DATA
350
28E
  3
AcDbVariableDictionary
350
27B
  3
AcDsDecomposeData
350
299
  3
AcmDictionary
350
209
  3
AcmSystemVariableManager
350
2A6
  3
AMG
350
1F8
  0
DICTIONARY
  5
21
330
12
100
AcDbDictionary
280
     1
281
     1
  3
ACAD_LAYERSTATES
360
22
  0
DICTIONARY
  5
14
330
13
100
AcDbDictionary
280
     1
281
     1
  0
DICTIONARY
  5
82
330
81
100
AcDbDictionary
280
     1
281
     1
  0
DICTIONARY
  5
5C
330
5B
100
AcDbDictionary
280
     1
281
     1
  0
DICTIONARY
  5
13F
330
13E
100
AcDbDictionary
280
     1
281
     1
  0
DICTIONARY
  5
3
330
2
100
AcDbDictionary
280
     1
281
     1
  3
ACAD_SORTENTS
360
1F6
  0
DICTIONARY
  5
D
330
C
100
AcDbDictionary
280
     1
281
     1
  3
ACAD_SORTENTS
360
E
  0
DICTIONARY
  5
1F5
330
1F4
100
AcDbDictionary
280
     1
281
     1
  3
ACAD_MTEXT_2008_RT
360
28D
  3
ACAD_MTEXT_RT
360
2AF
  0
DICTIONARY
  5
28F
102
{ACAD_REACTORS
330
9
102
}
330
9
100
AcDbDictionary
281
     1
  3
DIMJOGANG
350
290
  3
DIMLTEX1
350
292
  3
DIMLTEX2
350
293
  3
DIMLTYPE
350
291
  0
DICTIONARY
  5
3F
102
{ACAD_REACTORS
330
9
102
}
330
9
100
AcDbDictionary
281
     1
  0
DICTIONARY
  5
215
102
{ACAD_REACTORS
330
9
102
}
330
9
100
AcDbDictionary
281
     1
  3
ASME Y14.35 - 1987(1)
350
21C
  3
DIN 6(1)
350
229
  3
Imperial24
350
230
  3
Metric50
350
233
  0
FIELDLIST
  5
276
102
{ACAD_REACTORS
330
9
102
}
330
9
100
AcDbIdSet
 90
       20
330
218
330
219
330
21A
330
21F
330
220
330
221
330
222
330
22C
330
22D
330
22E
330
23A
330
23B
330
23C
330
245
330
246
330
247
330
248
330
24E
330
24F
330
250
100
AcDbFieldList
  0
DICTIONARY
  5
36
102
{ACAD_REACTORS
330
9
102
}
330
9
100
AcDbDictionary
281
     1
  0
DICTIONARY
  5
8
102
{ACAD_REACTORS
330
9
102
}
330
9
100
AcDbDictionary
281
     1
  3
Anschlussprofile
350
11
  3
Model
350
7
  0
DICTIONARY
  5
18
102
{ACAD_REACTORS
330
9
102
}
330
9
100
AcDbDictionary
281
     1
  3
ByBlock
350
3C
  3
ByLayer
350
39
  3
Global
350
17
  0
DICTIONARY
  5
42
102
{ACAD_REACTORS
330
9
102
}
330
9
100
AcDbDictionary
281
     1
  0
DICTIONARY
  5
37
102
{ACAD_REACTORS
330
9
102
}
330
9
100
AcDbDictionary
281
     1
  3
Standard
350
44
  0
DICTIONARY
  5
38
102
{ACAD_REACTORS
330
9
102
}
330
9
100
AcDbDictionary
281
     1
  0
ACDBDICTIONARYWDFLT
  5
16
102
{ACAD_REACTORS
330
9
102
}
330
9
100
AcDbDictionary
281
     1
  3
Normal
350
15
100
AcDbDictionaryWithDefault
340
15
  0
DICTIONARY
  5
40
102
{ACAD_REACTORS
330
9
102
}
330
9
100
AcDbDictionary
281
     1
  3
A0
350
49
  3
A1
350
4A
  3
A2
350
4B
  3
A3
350
4C
  3
A4
350
4D
  3
A5
350
4E
  3
A6
350
4F
  3
A7
350
50
  3
A8
350
51
  3
A9
350
52
  3
B0
350
53
  3
B1
350
54
  3
B2
350
55
  3
B3
350
56
  3
B4
350
57
  3
B5
350
58
  3
B6
350
59
  0
DICTIONARY
  5
237
102
{ACAD_REACTORS
330
9
102
}
330
9
100
AcDbDictionary
281
     1
  3
ASME Y14.3 - 2003(1)
350
242
  3
DIN ISO 128-40_2002-05(1)
350
24B
  3
Imperial24
350
252
  3
Metric50
350
255
  0
DICTIONARY
  5
41
102
{ACAD_REACTORS
330
9
102
}
330
9
100
AcDbDictionary
281
     1
  3
Standard
350
45
  0
DICTIONARY
  5
2E
102
{ACAD_REACTORS
330
9
102
}
330
9
100
AcDbDictionary
281
     1
  3
2dWireframe
350
2D
  3
Realistic
350
47
  3
Wireframe
350
48
  0
XRECORD
  5
28E
102
{ACAD_REACTORS
330
9
102
}
330
9
100
AcDbXrecord
280
     1
 90
        1
330
45
330
1F4
  0
DICTIONARY
  5
27B
102
{ACAD_REACTORS
330
9
102
}
330
9
100
AcDbDictionary
281
     1
  3
CANNOSCALE
350
281
  3
CMLEADERSTYLE
350
27D
  3
CTABLESTYLE
350
27C
  3
CVIEWDETAILSTYLE
350
27E
  3
CVIEWSECTIONSTYLE
350
27F
  3
DIMASSOC
350
288
  3
HIDETEXT
350
287
  3
INDEXCTL
350
286
  3
LAYEREVAL
350
283
  3
LAYERNOTIFY
350
284
  3
LIGHTINGUNITS
350
282
  3
MSLTSCALE
350
280
  3
PSOLHEIGHT
350
28A
  3
PSOLWIDTH
350
289
  3
SORTENTS
350
285
  3
XCLIPFRAME
350
28B
  0
DICTIONARY
  5
299
102
{ACAD_REACTORS
330
9
102
}
330
9
100
AcDbDictionary
281
     1
  3
AcDsRecords
350
29B
  3
AcDsSchemas
350
29A
1001
ACAD
1070
     2
  0
DICTIONARY
  5
209
102
{ACAD_REACTORS
330
9
102
}
330
9
100
AcDbDictionary
281
     1
  3
AcmStdDictionary
350
20A
  0
DICTIONARY
  5
1F8
102
{ACAD_REACTORS
330
9
102
}
330
9
100
AcDbDictionary
281
     1
  3
AcMgSettings
350
201
  0
DICTIONARY
  5
22
102
{ACAD_REACTORS
330
21
102
}
330
21
100
AcDbDictionary
281
     1
  0
SORTENTSTABLE
  5
1F6
102
{ACAD_REACTORS
330
3
102
}
330
3
100
AcDbSortentsTable
330
2
  0
SORTENTSTABLE
  5
E
102
{ACAD_REACTORS
330
D
102
}
330
D
100
AcDbSortentsTable
330
C
  0
XRECORD
  5
28D
102
{ACAD_REACTORS
330
1F5
102
}
330
1F5
100
AcDbXrecord
280
     1
 40
301875.0
  1
\pxqc;BALARDO Anschlussprofil\Pmit Schenkelhöhe 2 mm für core Top 4
  0
XRECORD
  5
2AF
102
{ACAD_REACTORS
330
1F5
102
}
330
1F5
100
AcDbXrecord
280
     1
 40
392248.0
  1
\pi140.17;BALARDO Anschlussprofil\P\pi63.655;mit Schenkelhöhe 2 mm für core Top 4
  0
XRECORD
  5
290
102
{ACAD_REACTORS
330
28F
102
}
330
28F
100
AcDbXrecord
280
     1
 40
1.570796326794896
  0
XRECORD
  5
292
102
{ACAD_REACTORS
330
28F
102
}
330
28F
100
AcDbXrecord
280
     1
340
27
  0
XRECORD
  5
293
102
{ACAD_REACTORS
330
28F
102
}
330
28F
100
AcDbXrecord
280
     1
340
27
  0
XRECORD
  5
291
102
{ACAD_REACTORS
330
28F
102
}
330
28F
100
AcDbXrecord
280
     1
340
27
  0
ACDBDETAILVIEWSTYLE
  5
21C
102
{ACAD_XDICTIONARY
360
21D
102
}
102
{ACAD_REACTORS
330
21B
330
215
102
}
330
215
100
AcDbModelDocViewStyle
 70
     0
  3

290
     0
100
AcDbDetailViewStyle
 70
     0
 71
     0
 90
        3
 71
     1
340
24
 40
0.24
340
223
 40
0.24
300

 40
0.0
280
     2
 71
     2
340
20
 90
       25
 71
     3
340
24
 40
0.24
 90
        1
 40
0.0
 90
        1
300
%<\AcVar ViewType \f "%tc1">% %<\AcVar ViewDetailId>%\PMASSSTAB %<\AcVar ViewScale \f "%sn">%
 71
     4
340
20
 90
       25
340
20
 90
       25
280
     0
  0
ACDBDETAILVIEWSTYLE
  5
229
102
{ACAD_XDICTIONARY
360
22A
102
}
102
{ACAD_REACTORS
330
228
330
215
102
}
330
215
100
AcDbModelDocViewStyle
 70
     0
  3

290
     0
100
AcDbDetailViewStyle
 70
     0
 71
     0
 90
        3
 71
     1
340
24
 40
5.0
340
0
 40
5.0
300

 40
0.0
280
     0
 71
     2
340
20
 90
       25
 71
     3
340
24
 40
5.0
 90
        0
 40
0.0
 90
        1
300
%<\AcVar ViewDetailId>% %<\AcVar ViewScale \f "%sn">%
 71
     4
340
20
 90
       25
340
20
 90
       25
280
     0
  0
ACDBDETAILVIEWSTYLE
  5
230
102
{ACAD_XDICTIONARY
360
231
102
}
102
{ACAD_REACTORS
330
215
330
22F
102
}
330
215
100
AcDbModelDocViewStyle
 70
     0
  3
Imperial24
290
     0
100
AcDbDetailViewStyle
 70
     0
 71
     0
 90
        3
 71
     1
340
24
 40
0.24
340
0
 40
0.24
300

 40
0.36
280
     3
 71
     2
340
20
 90
       25
 71
     3
340
24
 40
0.24
 90
        1
 40
0.75
 90
        1
300
%<\AcVar ViewType \f "%tc1">% %<\AcVar ViewDetailId>%\PVARIA %<\AcVar ViewScale \f "%sn">%
 71
     4
340
20
 90
       25
340
20
 90
       25
280
     0
  0
ACDBDETAILVIEWSTYLE
  5
233
102
{ACAD_XDICTIONARY
360
234
102
}
102
{ACAD_REACTORS
330
215
330
232
102
}
330
215
100
AcDbModelDocViewStyle
 70
     0
  3
Metric50
290
     0
100
AcDbDetailViewStyle
 70
     0
 71
     0
 90
        3
 71
     1
340
24
 40
5.0
340
0
 40
5.0
300

 40
0.0
280
     1
 71
     2
340
20
 90
       25
 71
     3
340
24
 40
5.0
 90
        0
 40
15.0
 90
        1
300
%<\AcVar ViewDetailId>% (%<\AcVar ViewScale \f "%sn">%)
 71
     4
340
20
 90
       25
340
20
 90
       25
280
     0
  0
LAYOUT
  5
11
102
{ACAD_XDICTIONARY
360
29D
102
}
102
{ACAD_REACTORS
330
8
102
}
330
8
100
AcDbPlotSettings
  1

  2
Kein
  4
ISO_A4_(210.00_x_297.00_MM)
  6

 40
7.5
 41
20.0
 42
7.5
 43
20.0
 44
210.0
 45
297.0
 46
0.0
 47
0.0
 48
0.0
 49
0.0
140
0.0
141
0.0
142
1.0
143
1.0
 70
   688
 72
     1
 73
     1
 74
     5
  7

 75
    16
147
1.0
148
0.0
149
0.0
100
AcDbLayout
  1
Anschlussprofile
 70
     1
 71
     6
 10
0.0
 20
0.0
 11
12.0
 21
9.0
 12
0.0
 22
0.0
 32
0.0
 14
-322.1742980710169
 24
134.9306855640593
 34
-0.0000000000000153
 15
5138.158953882495
 25
435.7703254471215
 35
0.0000000000000153
146
0.0
 13
0.0
 23
0.0
 33
0.0
 16
1.0
 26
0.0
 36
0.0
 17
0.0
 27
1.0
 37
0.0
 76
     0
330
C
1001
ACAD_PSEXT
1000
Kein
1000
Kein
1000
Nicht anwendbar
1000
Das Layout wird erst geplottet, wenn ein neuer Plotter-Konfigurationsname ausgewählt wird.
1070
     0
  0
LAYOUT
  5
7
102
{ACAD_XDICTIONARY
360
A
102
}
102
{ACAD_REACTORS
330
8
102
}
330
8
100
AcDbPlotSettings
  1

  2
none_device
  4
ISO_A4_(210.00_x_297.00_MM)
  6

 40
7.5
 41
20.0
 42
7.5
 43
20.0
 44
210.0
 45
297.0
 46
11.54999923706054
 47
-13.65000009536743
 48
0.0
 49
0.0
140
0.0
141
0.0
142
1.0
143
8.704084754739808
 70
 11952
 72
     1
 73
     0
 74
     0
  7

 75
     0
147
0.1148885871608098
148
0.0
149
0.0
100
AcDbLayout
  1
Model
 70
     1
 71
     0
 10
0.0
 20
0.0
 11
12.0
 21
9.0
 12
0.0
 22
0.0
 32
0.0
 14
0.0
 24
0.0
 34
0.0
 15
0.0
 25
0.0
 35
0.0
146
0.0
 13
0.0
 23
0.0
 33
0.0
 16
1.0
 26
0.0
 36
0.0
 17
0.0
 27
1.0
 37
0.0
 76
     0
330
2
331
2C
1001
ACAD_PSEXT
1000
None
1000
None
1000
Not applicable
1000
The layout will not be plotted unless a new plotter configuration name is selected.
1070
     0
  0
MATERIAL
  5
3C
102
{ACAD_XDICTIONARY
360
3D
102
}
102
{ACAD_REACTORS
330
18
102
}
330
18
100
AcDbMaterial
  1
ByBlock
  0
MATERIAL
  5
39
102
{ACAD_XDICTIONARY
360
3A
102
}
102
{ACAD_REACTORS
330
18
102
}
330
18
100
AcDbMaterial
  1
ByLayer
  0
MATERIAL
  5
17
102
{ACAD_XDICTIONARY
360
19
102
}
102
{ACAD_REACTORS
330
18
102
}
330
18
100
AcDbMaterial
  1
Global
 43
0.0007999999797903
 43
0.0
 43
0.0
 43
0.0
 43
0.0
 43
0.0007999999797903
 43
0.0
 43
0.0
 43
0.0
 43
0.0
 43
1.0
 43
0.0
 43
0.0
 43
0.0
 43
0.0
 43
1.0
 49
0.0007999999797903
 49
0.0
 49
0.0
 49
0.0
 49
0.0
 49
0.0007999999797903
 49
0.0
 49
0.0
 49
0.0
 49
0.0
 49
1.0
 49
0.0
 49
0.0
 49
0.0
 49
0.0
 49
1.0
142
0.0007999999797903
142
0.0
142
0.0
142
0.0
142
0.0
142
0.0007999999797903
142
0.0
142
0.0
142
0.0
142
0.0
142
1.0
142
0.0
142
0.0
142
0.0
142
0.0
142
1.0
144
0.0007999999797903
144
0.0
144
0.0
144
0.0
144
0.0
144
0.0007999999797903
144
0.0
144
0.0
144
0.0
144
0.0
144
1.0
144
0.0
144
0.0
144
0.0
144
0.0
144
1.0
1001
ACAD
1070
    -1
1070
     3
1070
     0
1000

1071
        0
1070
     0
  0
MLINESTYLE
  5
44
102
{ACAD_REACTORS
330
37
102
}
330
37
100
AcDbMlineStyle
  2
STANDARD
 70
     0
  3

 62
   256
 51
90.0
 52
90.0
 71
     2
 49
0.5
 62
   256
  6
BYLAYER
 49
-0.5
 62
   256
  6
BYLAYER
  0
ACDBPLACEHOLDER
  5
15
102
{ACAD_REACTORS
330
16
102
}
330
16
  0
SCALE
  5
49
102
{ACAD_REACTORS
330
40
102
}
330
40
100
AcDbScale
 70
     0
300
1:1
140
1.0
141
1.0
290
     1
  0
SCALE
  5
4A
102
{ACAD_REACTORS
330
40
102
}
330
40
100
AcDbScale
 70
     0
300
1:2
140
1.0
141
2.0
290
     0
  0
SCALE
  5
4B
102
{ACAD_REACTORS
330
40
102
}
330
40
100
AcDbScale
 70
     0
300
1:4
140
1.0
141
4.0
290
     0
  0
SCALE
  5
4C
102
{ACAD_REACTORS
330
40
102
}
330
40
100
AcDbScale
 70
     0
300
1:5
140
1.0
141
5.0
290
     0
  0
SCALE
  5
4D
102
{ACAD_REACTORS
330
40
102
}
330
40
100
AcDbScale
 70
     0
300
1:8
140
1.0
141
8.0
290
     0
  0
SCALE
  5
4E
102
{ACAD_REACTORS
330
40
102
}
330
40
100
AcDbScale
 70
     0
300
1:10
140
1.0
141
10.0
290
     0
  0
SCALE
  5
4F
102
{ACAD_REACTORS
330
40
102
}
330
40
100
AcDbScale
 70
     0
300
1:16
140
1.0
141
16.0
290
     0
  0
SCALE
  5
50
102
{ACAD_REACTORS
330
40
102
}
330
40
100
AcDbScale
 70
     0
300
1:20
140
1.0
141
20.0
290
     0
  0
SCALE
  5
51
102
{ACAD_REACTORS
330
40
102
}
330
40
100
AcDbScale
 70
     0
300
1:30
140
1.0
141
30.0
290
     0
  0
SCALE
  5
52
102
{ACAD_REACTORS
330
40
102
}
330
40
100
AcDbScale
 70
     0
300
1:40
140
1.0
141
40.0
290
     0
  0
SCALE
  5
53
102
{ACAD_REACTORS
330
40
102
}
330
40
100
AcDbScale
 70
     0
300
1:50
140
1.0
141
50.0
290
     0
  0
SCALE
  5
54
102
{ACAD_REACTORS
330
40
102
}
330
40
100
AcDbScale
 70
     0
300
1:100
140
1.0
141
100.0
290
     0
  0
SCALE
  5
55
102
{ACAD_REACTORS
330
40
102
}
330
40
100
AcDbScale
 70
     0
300
2:1
140
2.0
141
1.0
290
     0
  0
SCALE
  5
56
102
{ACAD_REACTORS
330
40
102
}
330
40
100
AcDbScale
 70
     0
300
4:1
140
4.0
141
1.0
290
     0
  0
SCALE
  5
57
102
{ACAD_REACTORS
330
40
102
}
330
40
100
AcDbScale
 70
     0
300
8:1
140
8.0
141
1.0
290
     0
  0
SCALE
  5
58
102
{ACAD_REACTORS
330
40
102
}
330
40
100
AcDbScale
 70
     0
300
10:1
140
10.0
141
1.0
290
     0
  0
SCALE
  5
59
102
{ACAD_REACTORS
330
40
102
}
330
40
100
AcDbScale
 70
     0
300
100:1
140
100.0
141
1.0
290
     0
  0
ACDBSECTIONVIEWSTYLE
  5
242
102
{ACAD_XDICTIONARY
360
243
102
}
102
{ACAD_REACTORS
330
241
330
237
102
}
330
237
100
AcDbModelDocViewStyle
 70
     0
  3

290
     0
100
AcDbSectionViewStyle
 70
     0
 71
     0
 90
       78
 71
     1
340
24
 40
0.24
340
0
340
0
 40
0.24
300
I,O,Q,S,X,Z
 40
10.0
 90
        3
 40
0.12
 90
        1
 71
     2
340
249
 90
       30
340
249
 90
       30
 40
10.0
 40
0.0
 40
10.0
 71
     3
340
24
 40
0.24
 90
        0
 40
0.18
 90
        1
300
%<\AcVar ViewType \f "%tc1">% %<\AcVar ViewSectionStartId>%-%<\AcVar ViewSectionEndId>%
 71
     4
300
ANSI31
 40
1.0
 90
        0
290
     0
290
     0
 90
        6
 40
0.0
 40
1.570796326794896
 40
0.2617993877991494
 40
1.308996938995747
 40
-0.2617993877991494
 40
1.832595714594046
  0
ACDBSECTIONVIEWSTYLE
  5
24B
102
{ACAD_XDICTIONARY
360
24C
102
}
102
{ACAD_REACTORS
330
24A
330
237
102
}
330
237
100
AcDbModelDocViewStyle
 70
     0
  3

290
     0
100
AcDbSectionViewStyle
 70
     0
 71
     0
 90
      102
 71
     1
340
24
 40
5.0
340
23D
340
23D
 40
5.0
300
I,O,Q,S,X,Z
 40
10.0
 90
        0
 40
2.5
 90
        0
 71
     2
340
1FA
 90
       50
340
1FA
 90
       50
 40
10.0
 40
5.0
 40
25.0
 71
     3
340
24
 40
5.0
 90
        0
 40
5.25
 90
        1
300
%<\AcVar ViewSectionStartId>%-%<\AcVar ViewSectionEndId>%
 71
     4
300
ANSI31
 40
1.0
 90
        0
290
     0
290
     0
 90
        6
 40
0.0
 40
1.570796326794896
 40
0.2617993877991494
 40
1.308996938995747
 40
-0.2617993877991494
 40
1.832595714594046
  0
ACDBSECTIONVIEWSTYLE
  5
252
102
{ACAD_XDICTIONARY
360
253
102
}
102
{ACAD_REACTORS
330
237
330
251
102
}
330
237
100
AcDbModelDocViewStyle
 70
     0
  3
Imperial24
290
     0
100
AcDbSectionViewStyle
 70
     0
 71
     0
 90
       78
 71
     1
340
24
 40
0.24
340
0
340
0
 40
0.24
300
I, O, Q, S, X, Z
 40
0.48
 90
        3
 40
0.18
 90
        1
 71
     2
340
20
 90
       25
340
20
 90
       50
 40
0.24
 40
0.0
 40
0.24
 71
     3
340
24
 40
0.24
 90
        1
 40
0.75
 90
        1
300
%<\AcVar ViewType \f "%tc1">% %<\AcVar ViewSectionStartId>%-%<\AcVar ViewSectionEndId>%\PVARIA %<\AcVar ViewScale \f "%sn">%
 71
     4
300
ANSI31
 40
1.0
 90
        0
290
     0
290
     0
 90
        6
 40
0.0
 40
1.570796326794896
 40
0.2617993877991494
 40
1.308996938995747
 40
-0.2617993877991494
 40
1.832595714594046
  0
ACDBSECTIONVIEWSTYLE
  5
255
102
{ACAD_XDICTIONARY
360
256
102
}
102
{ACAD_REACTORS
330
237
330
254
102
}
330
237
100
AcDbModelDocViewStyle
 70
     0
  3
Metric50
290
     0
100
AcDbSectionViewStyle
 70
     0
 71
     0
 90
      102
 71
     1
340
24
 40
5.0
340
0
340
0
 40
5.0
300
I, O, Q, S, X, Z
 40
10.0
 90
        0
 40
2.5
 90
        0
 71
     2
340
20
 90
       25
340
20
 90
       50
 40
5.0
 40
2.5
 40
5.0
 71
     3
340
24
 40
5.0
 90
        0
 40
15.0
 90
        1
300
%<\AcVar ViewSectionStartId>%-%<\AcVar ViewSectionEndId>% (%<\AcVar ViewScale \f "%sn">%)
 71
     4
300
ANSI31
 40
1.0
 90
        0
290
     0
290
     0
 90
        6
 40
0.0
 40
1.570796326794896
 40
0.2617993877991494
 40
1.308996938995747
 40
-0.2617993877991494
 40
1.832595714594046
  0
TABLESTYLE
  5
45
102
{ACAD_XDICTIONARY
360
46
102
}
102
{ACAD_REACTORS
330
41
102
}
330
41
100
AcDbTableStyle
  3
Standard
 70
     0
 71
     0
 40
1.5
 41
1.5
280
     0
281
     0
  7
Standard
140
4.5
170
     2
 62
     0
 63
     7
283
     0
274
    -2
284
     1
 64
     0
275
    -2
285
     1
 65
     0
276
    -2
286
     1
 66
     0
277
    -2
287
     1
 67
     0
278
    -2
288
     1
 68
     0
279
    -2
289
     1
 69
     0
  7
Standard
140
6.0
170
     5
 62
     0
 63
     7
283
     0
274
    -2
284
     1
 64
     0
275
    -2
285
     1
 65
     0
276
    -2
286
     1
 66
     0
277
    -2
287
     1
 67
     0
278
    -2
288
     1
 68
     0
279
    -2
289
     1
 69
     0
  7
Standard
140
4.5
170
     5
 62
     0
 63
     7
283
     0
274
    -2
284
     1
 64
     0
275
    -2
285
     1
 65
     0
276
    -2
286
     1
 66
     0
277
    -2
287
     1
 67
     0
278
    -2
288
     1
 68
     0
279
    -2
289
     1
 69
     0
  0
VISUALSTYLE
  5
2D
102
{ACAD_XDICTIONARY
360
2A0
102
}
102
{ACAD_REACTORS
330
2E
102
}
330
2E
100
AcDbVisualStyle
  2
2dWireframe
 70
     4
 71
     0
 72
     2
 73
     1
 90
        0
 40
-0.6
 41
-30.0
 62
     5
 63
     7
 74
     1
 91
        4
 64
     7
 65
   257
 75
     1
175
     1
 42
1.0
 92
        0
 66
   257
 43
1.0
 76
     1
 77
     6
 78
     2
 67
     7
 79
     5
170
     0
171
     0
290
     0
174
     0
 93
        1
 44
0.0
173
     0
291
     0
 45
0.0
1001
ACAD
1000
AcDbSavedByObjectVersion
1070
     0
  0
VISUALSTYLE
  5
47
102
{ACAD_XDICTIONARY
360
2AB
102
}
102
{ACAD_REACTORS
330
2E
102
}
330
2E
100
AcDbVisualStyle
  2
Realistic
 70
     8
 71
     2
 72
     3
 73
     0
 90
        2
 40
-0.6
 41
30.0
 62
     5
 63
     7
 74
     0
 91
        0
 64
     7
 65
   257
 75
     1
175
     1
 42
1.0
 92
        8
 66
   257
 43
1.0
 76
     1
 77
     6
 78
     2
 67
     7
 79
     3
170
     0
171
     0
290
     0
174
     0
 93
       13
 44
0.0
173
     0
291
     0
 45
0.0
1001
ACAD
1000
AcDbSavedByObjectVersion
1070
     0
  0
VISUALSTYLE
  5
48
102
{ACAD_XDICTIONARY
360
2AD
102
}
102
{ACAD_REACTORS
330
2E
102
}
330
2E
100
AcDbVisualStyle
  2
Wireframe
 70
     5
 71
     0
 72
     2
 73
     0
 90
        0
 40
-0.6
 41
-30.0
 62
     5
 63
     7
 74
     1
 91
        4
 64
     7
 65
   257
 75
     1
175
     1
 42
1.0
 92
        0
 66
   257
 43
1.0
 76
     1
 77
     6
 78
     2
 67
     7
 79
     3
170
     0
171
     0
290
     0
174
     0
 93
        1
 44
0.0
173
     0
291
     0
 45
0.0
1001
ACAD
1000
AcDbSavedByObjectVersion
1070
     0
  0
DICTIONARYVAR
  5
281
102
{ACAD_REACTORS
330
27B
102
}
330
27B
100
DictionaryVariables
280
     0
  1
1:1
  0
DICTIONARYVAR
  5
27D
102
{ACAD_REACTORS
330
27B
102
}
330
27B
100
DictionaryVariables
280
     0
  1
STANDARD
  0
DICTIONARYVAR
  5
27C
102
{ACAD_REACTORS
330
27B
102
}
330
27B
100
DictionaryVariables
280
     0
  1
STANDARD
  0
DICTIONARYVAR
  5
27E
102
{ACAD_REACTORS
330
27B
102
}
330
27B
100
DictionaryVariables
280
     0
  1

  0
DICTIONARYVAR
  5
27F
102
{ACAD_REACTORS
330
27B
102
}
330
27B
100
DictionaryVariables
280
     0
  1

  0
DICTIONARYVAR
  5
288
102
{ACAD_REACTORS
330
27B
102
}
330
27B
100
DictionaryVariables
280
     0
  1
2
  0
DICTIONARYVAR
  5
287
102
{ACAD_REACTORS
330
27B
102
}
330
27B
100
DictionaryVariables
280
     0
  1
1
  0
DICTIONARYVAR
  5
286
102
{ACAD_REACTORS
330
27B
102
}
330
27B
100
DictionaryVariables
280
     0
  1
0
  0
DICTIONARYVAR
  5
283
102
{ACAD_REACTORS
330
27B
102
}
330
27B
100
DictionaryVariables
280
     0
  1
0
  0
DICTIONARYVAR
  5
284
102
{ACAD_REACTORS
330
27B
102
}
330
27B
100
DictionaryVariables
280
     0
  1
0
  0
DICTIONARYVAR
  5
282
102
{ACAD_REACTORS
330
27B
102
}
330
27B
100
DictionaryVariables
280
     0
  1
2
  0
DICTIONARYVAR
  5
280
102
{ACAD_REACTORS
330
27B
102
}
330
27B
100
DictionaryVariables
280
     0
  1
1
  0
DICTIONARYVAR
  5
28A
102
{ACAD_REACTORS
330
27B
102
}
330
27B
100
DictionaryVariables
280
     0
  1
80.000000
  0
DICTIONARYVAR
  5
289
102
{ACAD_REACTORS
330
27B
102
}
330
27B
100
DictionaryVariables
280
     0
  1
5.000000
  0
DICTIONARYVAR
  5
285
102
{ACAD_REACTORS
330
27B
102
}
330
27B
100
DictionaryVariables
280
     0
  1
127
  0
DICTIONARYVAR
  5
28B
102
{ACAD_REACTORS
330
27B
102
}
330
27B
100
DictionaryVariables
280
     0
  1
2
  0
DICTIONARY
  5
29B
102
{ACAD_REACTORS
330
299
102
}
330
299
100
AcDbDictionary
281
     1
  0
DICTIONARY
  5
29A
102
{ACAD_REACTORS
330
299
102
}
330
299
100
AcDbDictionary
281
     1
  3
140688168764352
350
294
  3
140688168764368
350
295
  3
140688168764384
350
296
  3
140688168764400
350
297
  3
140688168764416
350
298
  0
DICTIONARY
  5
20A
102
{ACAD_REACTORS
330
209
102
}
330
209
100
AcDbDictionary
281
     1
  0
DICTIONARY
  5
201
102
{ACAD_REACTORS
330
1F8
102
}
330
1F8
100
AcDbDictionary
281
     1
  3
Behind
350
200
  3
DWGSETTINGS
350
202
  3
Shaft
350
203
  3
TRANSSETTINGS
350
204
  0
DICTIONARY
  5
21D
330
21C
100
AcDbDictionary
280
     1
281
     1
  3
ACAD_FIELD
360
21E
  3
ACAD_XREC_ROUNDTRIP
360
2B0
  0
DICTIONARY
  5
22A
330
229
100
AcDbDictionary
280
     1
281
     1
  3
ACAD_FIELD
360
22B
  3
ACAD_XREC_ROUNDTRIP
360
2B1
  0
DICTIONARY
  5
231
330
230
100
AcDbDictionary
280
     1
281
     1
  3
ACAD_XREC_ROUNDTRIP
360
2B2
  0
DICTIONARY
  5
234
330
233
100
AcDbDictionary
280
     1
281
     1
  3
ACAD_XREC_ROUNDTRIP
360
2B3
  0
DICTIONARY
  5
29D
330
11
100
AcDbDictionary
280
     1
281
     1
  3
ACAD_XREC_ROUNDTRIP
360
29E
  0
DICTIONARY
  5
A
330
7
100
AcDbDictionary
280
     1
281
     1
  3
ACAD_XREC_ROUNDTRIP
360
29C
  0
DICTIONARY
  5
3D
330
3C
100
AcDbDictionary
280
     1
281
     1
  3
ACAD_XREC_ROUNDTRIP
360
2A9
  3
FBXASSET
360
3E
  0
DICTIONARY
  5
3A
330
39
100
AcDbDictionary
280
     1
281
     1
  3
ACAD_XREC_ROUNDTRIP
360
2A8
  3
FBXASSET
360
3B
  0
DICTIONARY
  5
19
330
17
100
AcDbDictionary
280
     1
281
     1
  3
ACAD_XREC_ROUNDTRIP
360
29F
  3
BUMPTILE
360
1A
  3
DIFFUSETILE
360
1B
  3
FBXASSET
360
1C
  3
OPACITYTILE
360
1D
  3
REFLECTIONTILE
360
1E
  0
DICTIONARY
  5
243
330
242
100
AcDbDictionary
280
     1
281
     1
  3
ACAD_FIELD
360
244
  3
ACAD_XREC_ROUNDTRIP
360
2B4
  0
DICTIONARY
  5
24C
330
24B
100
AcDbDictionary
280
     1
281
     1
  3
ACAD_FIELD
360
24D
  3
ACAD_XREC_ROUNDTRIP
360
2B5
  0
DICTIONARY
  5
253
330
252
100
AcDbDictionary
280
     1
281
     1
  3
ACAD_XREC_ROUNDTRIP
360
2B6
  0
DICTIONARY
  5
256
330
255
100
AcDbDictionary
280
     1
281
     1
  3
ACAD_XREC_ROUNDTRIP
360
2B7
  0
DICTIONARY
  5
46
330
45
100
AcDbDictionary
280
     1
281
     1
  3
ACAD_ROUNDTRIP_2008_TABLESTYLE_CELLSTYLEMAP
360
28C
  3
ACAD_XREC_ROUNDTRIP
360
2AA
  0
DICTIONARY
  5
2A0
330
2D
100
AcDbDictionary
280
     1
281
     1
  3
ACAD_XREC_ROUNDTRIP
360
2A1
  0
DICTIONARY
  5
2AB
330
47
100
AcDbDictionary
280
     1
281
     1
  3
ACAD_XREC_ROUNDTRIP
360
2AC
  0
DICTIONARY
  5
2AD
330
48
100
AcDbDictionary
280
     1
281
     1
  3
ACAD_XREC_ROUNDTRIP
360
2AE
  0
XRECORD
  5
294
102
{ACAD_REACTORS
330
29A
102
}
330
29A
100
AcDbXrecord
280
     1
  1
AcDb_Thumbnail_Schema
102
{ATTRRECORD
341
295
  2
AcDbDs::TreatedAsObjectData
280
     1
291
     1
102
ATTRRECORD}
102
{ATTRRECORD
341
296
  2
AcDbDs::Legacy
280
     1
291
     1
102
ATTRRECORD}
  2
AcDbDs::ID
280
    10
 91
        8
102
{ATTRRECORD
341
297
  2
AcDs:Indexable
280
     1
291
     1
102
ATTRRECORD}
102
{ATTRRECORD
341
298
  2
AcDbDs::HandleAttribute
280
     7
282
     1
102
ATTRRECORD}
  2
Thumbnail_Data
280
    15
 91
        0
  0
XRECORD
  5
295
102
{ACAD_REACTORS
330
29A
102
}
330
29A
100
AcDbXrecord
280
     1
  1
AcDbDs::TreatedAsObjectDataSchema
  2
AcDbDs::TreatedAsObjectData
280
     1
 91
        0
  0
XRECORD
  5
296
102
{ACAD_REACTORS
330
29A
102
}
330
29A
100
AcDbXrecord
280
     1
  1
AcDbDs::LegacySchema
  2
AcDbDs::Legacy
280
     1
 91
        0
  0
XRECORD
  5
297
102
{ACAD_REACTORS
330
29A
102
}
330
29A
100
AcDbXrecord
280
     1
  1
AcDbDs::IndexedPropertySchema
  2
AcDs:Indexable
280
     1
 91
        0
  0
XRECORD
  5
298
102
{ACAD_REACTORS
330
29A
102
}
330
29A
100
AcDbXrecord
280
     1
  1
AcDbDs::HandleAttributeSchema
  2
AcDbDs::HandleAttribute
280
     7
 91
        1
284
     1
  0
DICTIONARY
  5
21E
102
{ACAD_REACTORS
330
21D
102
}
330
21D
100
AcDbDictionary
280
     1
281
     1
  3
TEXT
360
21F
  0
XRECORD
  5
2B0
102
{ACAD_REACTORS
330
21D
102
}
330
21D
100
AcDbXrecord
280
     1
102
DISPLAYNAME
  1
ASME Y14.35 - 1987(1)
102
FLAGS
 90
        0
  0
DICTIONARY
  5
22B
102
{ACAD_REACTORS
330
22A
102
}
330
22A
100
AcDbDictionary
280
     1
281
     1
  3
TEXT
360
22C
  0
XRECORD
  5
2B1
102
{ACAD_REACTORS
330
22A
102
}
330
22A
100
AcDbXrecord
280
     1
102
DISPLAYNAME
  1
DIN 6(1)
102
FLAGS
 90
        0
  0
XRECORD
  5
2B2
102
{ACAD_REACTORS
330
231
102
}
330
231
100
AcDbXrecord
280
     1
102
DISPLAYNAME
  1
Imperial24
102
FLAGS
 90
        0
  0
XRECORD
  5
2B3
102
{ACAD_REACTORS
330
234
102
}
330
234
100
AcDbXrecord
280
     1
102
DISPLAYNAME
  1
Metric50
102
FLAGS
 90
        0
  0
XRECORD
  5
29E
102
{ACAD_REACTORS
330
29D
102
}
330
29D
100
AcDbXrecord
280
     1
102
SHADEPLOT
 70
     0
102
SHADEPLOTRESLEVEL
 70
     2
102
SHADEPLOTCUSTOMDPI
 70
   300
  0
XRECORD
  5
29C
102
{ACAD_REACTORS
330
A
102
}
330
A
100
AcDbXrecord
280
     1
102
SHADEPLOT
 70
     0
102
SHADEPLOTRESLEVEL
 70
     2
102
SHADEPLOTCUSTOMDPI
 70
   300
  0
XRECORD
  5
2A9
102
{ACAD_REACTORS
330
3D
102
}
330
3D
100
AcDbXrecord
280
     1
102
MATERIAL
148
0.0
149
0.0
149
0.0
 93
        0
 94
       63
282
     0
 72
     1
 77
     1
171
     1
175
     1
179
     1
273
     0
  0
XRECORD
  5
3E
102
{ACAD_REACTORS
330
3D
102
}
330
3D
100
AcDbXrecord
280
     1
 70
     1
 90
429727718
  1
D62C5603-E3A1-4AEA-B7FB-FE5D8D0755AF
310
504B03040A0000080000CC70623B3DEE336E79000000790000001B0000006175746F6465736B2D64657369676E2D7061636B6167652E786D6C3C3F786D6C2076657273696F6E3D22312E302220656E636F64696E673D227574662D3822203F3E3C666F726D6174733E3C666F726D61743E687474703A2F2F736368656D612E
310
6175746F6465736B2E636F6D2F64657369676E2D7061636B6167652F323030393C2F666F726D61743E3C2F666F726D6174733E504B0304140006080800CC70623BD486FD9CA0000000F4000000130000005B436F6E74656E745F54797065735D2E786D6C7D8EC10E82300C865F65E91D8A1E8C310C0EEA1BF002731658846E
310
D98AC1B77784ABF1D8FE5FBFBF75BBCE937A534CCEB38643598122B6FEE978D0B0485F9C41B54DDD7D022595594E1A469170414C76A4D9A4D207E29CF43ECE46F218070CC6BECC4078ACAA135ACF422C856C0E68EA1BF5669944DDD7BCDE7B1F8E415D77AECB980613C2E4AC91FC167A2B244592486606FC29C8FD7F045B9A
310
EF7053A7E60B504B0304140006080800CC70623B853B8169EB0000007C01000008000000636F72652E786D6C8D90416EC3201045AF62CDB6C206821CC7C244919D9CA01740401C94182C03558F5F9C3852BBEB6A467FFE9B197D7EFC9E1EC5975982F5AE035262288C535E5B377690E21535501C055FBC8FBF6C503839990E
310
5619041F179FE64D52DE45E362569DD7661365082642A11EB9E920A89B99642953CC8E702F67A9EE7234257977194EC9EAE275C4EABCCF5EAD5940D4AC6F0E35A568B8F43562CD7046CD199FD07E60174276A7BE677B5EADB0E0D14EEFFB6A31321A0D82627C4084204C3F096B71DD52F6819B16635EADF63F509AF53FA164
310
5DDCD1EDDD17164090FCC8732078B56691CB33A85CD7DCC40F504B0304140006080800CC70623B55019EA25F0000007C00000007000000636E782E786D6C4DCB3B0E80201045D1AD90E915ED2CF8AC45050C11660C8261F98AB1B07AC9C97D42D718D865D3E909258CFD00CCE24AC6E326A164D74DC0B4128928FF32603847
310
2BA13128B1252AC747C6BAB984FC68F0B87FE8960A5C09FE86CFB69FBA01504B0304140006080800CC70623BDBABAAF470010000D40300000C0000006662782F636F72652E786D6CC553D16E823014FD95A6AF4B694182CC941A83FA05FB810A9511A125A5257EFE2E82712ECEB8A7F100CD39F7F69E734AF9FADC366850B6
310
AF8DCE7018308C942E4C59EB2AC3DE1D498AD15A706B8CFB56869196ADCAF00863C12B6B7C374385D14E6907A836A59A41D9F7CA615434B0C8705F7CAA5606D23BA8E84F41278B93AC54100640439DE0BDB320004D43C63716C7C399D30917DCFBBA9CD9BA8469F5B156168B24CED3F7248AC8769F27244EB73B92EED8862C
310
B7F13E0C179B3C8F979C8ECD82BBBABDAA2BAC924E9558448CBD9330242CFA08E3154B5651FCC6D215639C8EE5774DBE2B5F6CF2B5768B68963BB5F5588420E442FC700B1139D4CB01F450C1E918227C2E09DF070D8140C84E1E9AAB8F1340832A9CB13130A5F1376A908D57309505ECF2A0DF179C4E9D30F5B239B87E3823
310
7A79C6F31DE1A8A5AEC08474B03C7837EAE4938639B44E5932B833D2C6B6B279CDC613877FA26EE21F4A2A4C63EC7F29A2F301D1F9F7A0E37D145F504B0304140006080800CC70623B9C113CC27E0000009D0000000B0000006662782F636E782E786D6C4DCCDF0A83201C86E15B91DFB94BFB330DD428C8FB886521330DA7
310
6397BF1A1DECE883878F57749FCDA1B7892F1BBC047A23808C7F84D9FA55424E0BE6803A256208E9EF06C84F9B91703228B1C690F78B66B34CD9A5439DF5CF0BFBF65E35BCA1B8D6A5C6F540381E886698B5741C695F9503EBA150A2F8958E3DC3EA0B504B0304140006080800CC70623B7DF2F77C2A010000120200003100
310
00006662782F41393633353835312D344632462D344230382D423046372D3739314545314133324237412F636F72652E786D6C8D51DB8EC22014FC15C2939B0D2DB4B45643319AE817EC0F6041255A68B86CFCFC856D4D76DF7CE190393373060EDB3DC707F856CE6B6B7A480A0C81328395DA5C7B18C3057510EC3873D686
310
3F34088C18550F330C39BB3A1BA7051AAC09CA84841A2BD5020AEF55806078A44B0FFD7053A328440C89E1EFC52486BBB8AA8214A99D789CF9E05200300FC927E4FB4D5B375D43103D5527440FB843077C5AA3F5861C8F645F5787F59E95B390B318B55CE45AA638FAA2957BD7248B390B7A7CC51F9C124149C82B8C378810
310
84AB2F42B7B8DD56F413775B8C5999E9FF4471926F8AA236A1AE96B8B3CC434E5839373893369E1FAF30EA395917409EB7F26AF8801C171837A4A6AC9C89E9F9C9B1A58BA30FD6A5EF5DDDCF894B9AD9B6A59C957943A9FCAE2FD5BC4DFE03504B0304140006080800CC70623BAD7543B64E01000033030000300000006662
310
782F41393633353835312D344632462D344230382D423046372D3739314545314133324237412F636E782E786D6CD593CD6EC32010845F0571AD6CE3D48AD20813A9873E410FBD12D82434182C7EAAE6EDBB2424CD25871E7B41D6EC30B3FA84F9E67BB2E40B4234DE8DB46F1925E094D7C6ED479AD3AE5951B2113C789FEE
310
6C943839C1488B4C05DF079FE72A69D8C96C13AAD6B8631503449F83828872B949AC57D26200B826A308D316B4064D6E46FCDA41C05550DC9E483A00797BFD207EFB092A45DE9514C1BBD22178396BD39D891265658C238DEA00936C654E5E433CB65A26D9F6EDB5EBC14EBF49A45CB856E66048291F6939A9A81BB5C89177
310
38143CA680F4AA299D66A042CEB3354A2684DC9D8D178FE0D9B8B41CAAD720F880EE7EF93C0C18769E099ECC04D5A102C8049A8A05632F4DDF376CF1DE0F6BB65C2F8627B65A33C6BB62177CEBBDAD973006829F89F22E814B54F4BC2BE347F8AA8F681390B50FA73F804400B5F542E796F19FF974E7F78DB802FE05E20750
310
4B0304140006080800CC70623BE75B7789680500003C100000340000006662782F41393633353835312D344632462D344230382D423046372D3739314545314133324237412F6F626A656374732E786D6CAD575B8F9B3818FD2B887D06C22499CB8AA1CA655245D5B455A356FB305264C061D8018C6C3393D95FBFC7600890
310
A4CD5EF210B0B1BFEBF98E3F7B1FF6596ABC522E1296DF9BAE3D320D9A872C4AF2F8DE2CE5CEBA358D0FBEC719939D65A691938CDE9B6ADAF4BD98B3B2D05311DD91329583D9D5FC0F438434A7A611A644887B5384CF34233629258BA878B12322891DEFF6B66BD70BFB62634E8AE781D082709A4B588AF91C528CDA28B73F
310
1C998EEF39EABBEFA97FBD6A7C7E9553F9D3D79FE442923C3C523610337627CB87ABE99D359D4CC6D6E4FACAB5E6ABF9D2726FC6A3C5F56271377BB88362213924694B38DD99FE47C48627A1E7D49F5A8BB5E1A74C0A599ED3B0F21F1E56366B89112D681E218F0915D0D6F17AD41FBA2A369DCF6335D62ABBD39779D5DDD1
310
11D4D8DE3CBB96B2E04FB8202E41051754A1AA8E8F76B4C6DFE810B580B1547F4B84911149794252234D024EF8BBE963A95AE27B3D310A9D5C215C7960FAEE415ED75694C6AFB17BCACA5D99A60A9AA65F217B0BFC53292ACB92BF283FAD0D3621576592CB5BED907C2FA8E9DF794E35E97BEA31BED21FEB401ABB94C44839
310
DCACBF0E1C5DA8DA5B2F4DFFD32AD86F543D9E565E7056502E157C00AD2671CD534549AB752FCA9CDA00677A313F04E51B22FF19E57B300579E3C97EB29F682D92935CEC18CF901B7B54FD8C51F362B56FC72FE0B3C1EAE335EDCCBF5AEC39ADB17DC238973F804BA5E6F6BFE7AF1FB32E523BE9F3BD571418E3631DCA4D48
310
5250CF639223210A9446CA30052EDF057BD35F8329C1ECD84552BF0DC8D18BE7BCE23BFE6BD960AB4A7DE79923A103BEBD80F911CBAA2C60DB19B01CF164A5583B772EE6D3FFA56666CBCDA74DC97724A48F9A58967497E489C4D979006FD7A05E227A1EBDD0F737C623387A9C844D3709995625106D157315F8B8392CD4E0
310
A0B9A720C4BE9829CEF37EA1E13111214D53925356365ADA634861B52519DD27A00AEB808EAF0628E6F435519D446F45CF2C9CF5214F0A15B2F6D06B79DA3EE3CBF7F56780D2F4E7EF73A0F5E5B02A38D07DC852C6B7C1FBB6664213E0C39E3EBA7FF4E1AD23EA2829407C85E586727488B751B2DB9502BC7B228A3FD68B6E
310
A65A22397E690AA8D158D7E404EC8CDA235CC3B7D1898680131CEC2CDF2638C65196279577750F15884AEE19F94199155B92B13297978469D4F8D358DF0AEF7631E28DC8F0D9F437D5D39A83B2231A1D52D543813A824EF8D44BCFF2FA6A31BD1E8DAD87F1CCB526B3879935BF59CDADD5C37479BB1CDD4CA7B3556B516589
310
EF352754B706114D9C885EC9131DE6EFEB43D99AFE2391C2F958179413D7CFEF6B1B6DB1E7600F00DE6E5C67454A339A4BA2E0FBA85ED26F045D454F463DBFCE484C2F90F2E5E3666003662ED8F755951A7D1BECD5B30B550B2785C8E7320B7292A4838DDA71BBC863ED7613CAF659337A3354231D4FF4A182A54904C2898C
310
98B28C4AD0CE056CCF332A80986E571EE9DBC305BB5FEB7E509220A58D25CF042D712A806AC0AD0C657FDEF80D2D9CEAA2EE4D1C76F60BFE74219A06527D6F82DF6412526107381E55E353090704D085B52408A8913C4ED159D79BDA71BB4BC506F4831350EB6F975CD22D69BF7AC49B91A2C0A9DDA3D5CA36AD20FC478E37
310
E61844E2352865EBCB61A275A65283CAAA9DD27703B4102F5AF51EF5F573B75CBB5AD38BC845F7A49F82A0966A49C2E3EA5EA0ECD326CD965F1DB402C6FA8B51A4658C5C5E2EC9E214602E55810345408596591009A82E7E7FFACA19EEA299B14A0081A705CB3296EBC14CDF658DCD336EA6D1136881AAEB87B81AB9EE53D5
310
F5EB8BC8362082DA24122F98680A4E7930C01A0079749CEA14382A0783E5EBA5A10F8C098456A03D6A4AEB6BB881E2513747552A5DB22C7EDAF83BD5528081A365F7FF06504B0304140006080000CC70623B000000000000000000000000350000006662782F41393633353835312D344632462D344230382D423046372D37
310
39314545314133324237412F76657274696365732E62696E504B0304140006080800CC70623BF270F1330600000004000000360000006662782F41393633353835312D344632462D344230382D423046372D3739314545314133324237412F747269616E676C65732E62696E636660600000504B0304140006080000CC7062
310
3B000000000000000000000000370000006662782F41393633353835312D344632462D344230382D423046372D3739314545314133324237412F617474726962757465732E62696E504B0304140006080800CC70623B08DA0BD19000000041010000360000006662782F41393633353835312D344632462D344230382D4230
310
46372D3739314545314133324237412F6469726563746F72792E786D6C858F410AC3201045AF22B36F53E9A60B35CBEEBAE80D244E44489C6234F4F835464A48035D0DF398FF9F8AF63D0E6CC63039F212F8F9020C7D47C6792B21C5FE7403D62A1188E2E60C98D7234A5830286103A55745067B9D86B8A3CF9C7F90C11DE6
310
07FB144396D7B6A82D282E9A152AD114D5EF2CB866EEE831B8EEA07A7BB5A8D7D61A2BAAEB7FD5F70921FF497D00504B0304140006080800CC70623BEDD1DC58FD000000A00100003B0000006662782F41393633353835312D344632462D344230382D423046372D3739314545314133324237412F7265736F75726365732F
310
636F72652E786D6C8D504B6E833010BD0A9A6D65B00922041947112427E8052C33A156828DFCA97AFC9A40A576D7CDCCE87D344F8F9FBFE667F689CE6B6B3A6039850C8DB2A336530731DC4903D95970676DF82583CCC8193B5861107C72362E3BA4AC096842428D1D7107A5F7182053CF7474E0D507CE32973124857FE48B
310
540F3961CEF244279DE03EB81420DB9EAC1384436FA353E879B1B182C7A8C75DA3C7F453DF353A1075D537A7BA6464B8F535A99AE14A9A2BBD90E350DD183B5CFABE3AF262350B1EF4FC9351399401471025A527C218A1E53BAB5A5AB765F5469B96525EACF23FA6B88CFF34456DC2A1DCE36E360F82A5202F42F062ED2BAD
310
579969AFDD8A6F504B010214000A0000080000CC70623B3DEE336E79000000790000001B00000000000000000000000000000000006175746F6465736B2D64657369676E2D7061636B6167652E786D6C504B01021400140006080800CC70623BD486FD9CA0000000F40000001300000000000000000000000000B20000005B
310
436F6E74656E745F54797065735D2E786D6C504B01021400140006080800CC70623B853B8169EB0000007C010000080000000000000000000000000083010000636F72652E786D6C504B01021400140006080800CC70623B55019EA25F0000007C000000070000000000000000000000000094020000636E782E786D6C504B
310
01021400140006080800CC70623BDBABAAF470010000D40300000C00000000000000000000000000180300006662782F636F72652E786D6C504B01021400140006080800CC70623B9C113CC27E0000009D0000000B00000000000000000000000000B20400006662782F636E782E786D6C504B01021400140006080800CC70
310
623B7DF2F77C2A010000120200003100000000000000000000000000590500006662782F41393633353835312D344632462D344230382D423046372D3739314545314133324237412F636F72652E786D6C504B01021400140006080800CC70623BAD7543B64E010000330300003000000000000000000000000000D2060000
310
6662782F41393633353835312D344632462D344230382D423046372D3739314545314133324237412F636E782E786D6C504B01021400140006080800CC70623BE75B7789680500003C10000034000000000000000000000000006E0800006662782F41393633353835312D344632462D344230382D423046372D3739314545
310
314133324237412F6F626A656374732E786D6C504B01021400140006080000CC70623B0000000000000000000000003500000000000000000000000000280E00006662782F41393633353835312D344632462D344230382D423046372D3739314545314133324237412F76657274696365732E62696E504B01021400140006
310
080800CC70623BF270F133060000000400000036000000000000000000000000007B0E00006662782F41393633353835312D344632462D344230382D423046372D3739314545314133324237412F747269616E676C65732E62696E504B01021400140006080000CC70623B0000000000000000000000003700000000000000
310
000000000000D50E00006662782F41393633353835312D344632462D344230382D423046372D3739314545314133324237412F617474726962757465732E62696E504B01021400140006080800CC70623B08DA0BD1900000004101000036000000000000000000000000002A0F00006662782F41393633353835312D344632
310
462D344230382D423046372D3739314545314133324237412F6469726563746F72792E786D6C504B01021400140006080800CC70623BEDD1DC58FD000000A00100003B000000000000000000000000000E1000006662782F41393633353835312D344632462D344230382D423046372D3739314545314133324237412F7265
310
736F75726365732F636F72652E786D6C504B0506000000000E000E0080040000641100000000
  0
XRECORD
  5
2A8
102
{ACAD_REACTORS
330
3A
102
}
330
3A
100
AcDbXrecord
280
     1
102
MATERIAL
148
0.0
149
0.0
149
0.0
 93
        0
 94
       63
282
     0
 72
     1
 77
     1
171
     1
175
     1
179
     1
273
     0
  0
XRECORD
  5
3B
102
{ACAD_REACTORS
330
3A
102
}
330
3A
100
AcDbXrecord
280
     1
 70
     1
 90
429727718
  1
30362254-06B7-45E0-A893-8CFA70E3D6BC
310
504B03040A0000080000CC70623B3DEE336E79000000790000001B0000006175746F6465736B2D64657369676E2D7061636B6167652E786D6C3C3F786D6C2076657273696F6E3D22312E302220656E636F64696E673D227574662D3822203F3E3C666F726D6174733E3C666F726D61743E687474703A2F2F736368656D612E
310
6175746F6465736B2E636F6D2F64657369676E2D7061636B6167652F323030393C2F666F726D61743E3C2F666F726D6174733E504B0304140006080800CC70623BD486FD9CA0000000F4000000130000005B436F6E74656E745F54797065735D2E786D6C7D8EC10E82300C865F65E91D8A1E8C310C0EEA1BF002731658846E
310
D98AC1B77784ABF1D8FE5FBFBF75BBCE937A534CCEB38643598122B6FEE978D0B0485F9C41B54DDD7D022595594E1A469170414C76A4D9A4D207E29CF43ECE46F218070CC6BECC4078ACAA135ACF422C856C0E68EA1BF5669944DDD7BCDE7B1F8E415D77AECB980613C2E4AC91FC167A2B244592486606FC29C8FD7F045B9A
310
EF7053A7E60B504B0304140006080800CC70623B1EC5D7A3EB0000007C01000008000000636F72652E786D6C8D90416EC3201045AF82665B6103C6756C6122AB4D4ED00B204C5C94182C03558F5F9C3852BBEB6A467FFE9B197D71FC9E6FE8CBACC17AD7032D0820E3B41FAD9B7A48F1820F808E52ACDEC75F36404ECDA687
310
4D0629A6D5A76597B477D1B89855E747B38B2A041301E95B6E7A08FAD3CCAA50296647B8168BD2573599823EBB0CA76447F43862C7BCCF5EAC59410E4DDD9C7973C2755553CCCFA4C603E3040F1565ED3B1FDE4E432BCA0D9622DAF9795FAF464533826484B498524CD807E51D79ED187F21878E10516EF63F505AC67F42C9
310
BA58B1FDDD071640D2FCC87D2045B96591CB3DA85CB7DCE40F504B0304140006080800CC70623B55019EA25F0000007C00000007000000636E782E786D6C4DCB3B0E80201045D1AD90E915ED2CF8AC45050C11660C8261F98AB1B07AC9C97D42D718D865D3E909258CFD00CCE24AC6E326A164D74DC0B4128928FF32603847
310
2BA13128B1252AC747C6BAB984FC68F0B87FE8960A5C09FE86CFB69FBA01504B0304140006080800CC70623B8C9102E971010000D40300000C0000006662782F636F72652E786D6CC5535B6E833010BC8AE5DF0A6C08340F1947A84D4ED00B38C6A128602363A31CBFCB234A53A551FA553EC09AD9F5CE8C31DB9E9B1AF5CA
310
7695D1198E428A91D2D214952E33ECDD315861B4E5CC1AE3BE9561A445A3323CC098B3D21ADFCE9034DA29ED00D5A6503328BA4E398C640D8B0C77F253352214DE4145770A5B214FA2546114020D759C75CE8200340D19DE981F0F6746269C33EFAB6266AB02A655C74A59CCF365BADC27CB5D902ED22848F6340DF238A141
310
BE88E2F57B92BFEDF23523433367AE6A2EEAA455C2A902F398D2751045018D3FA264435F3771F242571B4A1919CA6F9A7C5B3CD9E42BED16F12C776AEB308F40C848FC700B1139D4891EF410CEC810227CC6846F8386402064270EF5C5C709A05E49676C024C61FC95EA45ED154CA5211D1FF4FB8291A913A68E9B83EBBB33
310
E2A7673CDE118E5AE8124C0807CB8377834E366998436B950D7A7746DAD846D4CFD978E0F04FD455FC5D49D2D4C6FE9722321F10997F0F32DC47FE05504B0304140006080800CC70623BFFEA85907E0000009D0000000B0000006662782F636E782E786D6C4DCCD10A83201886E15B91FFDC95D95A811AB6F23E625948A6C3
310
E9D8E5AF46073BFAE0E1E365ED67B3E8ADC3CB78C7815C7240DA3DFC64DCC221C519D7805AC182F7F1EF06C88D9BE6703008B6049F9E274D7A1E938DBB5AE3D6131B2589BA0D3D965551E0B2EA732C9B9A624AAEB41E3A557677029960D9AFB4EF11165F504B0304140006080800CC70623B4FEEA4082C0100001202000031
310
0000006662782F39464131463745442D413632322D343644302D413938332D3331353338454246344243312F636F72652E786D6C8D515B6EC32010BC0AE2AB55850DD871ED0813254D72825EC00192A2C460F1A872FC42ED48ED5F7E00CDCECCCEB26C731F6FE05B39AFADE921293004CA082BB5B9F43086336A21D870E6AC
310
0D7F68109861543DCC30E4ECE26C9C164858139409093556AA051CBC570102714B8F1E7AF1A5C6A11862480C7F2DA6415C878B2A4891CA89C7990F2E050073937C42DE1DB7E4F87ED8A36D4329AA9B3D46DBAEAD504556557BD81DEBDD0761E52CE42C462D17B996298E3E6BE59E35C962CE821E1FF18553435012728A7187
310
0841987E927A8D9B35ADDF70BBC6989599FE4F1427F9A4286A132ABAC49D651EF234CD5CE04CDA78BA3DC2A8FB645D00B9DF8B57E215725C60BCA2A463E54C4CE327C7A65E1C7DB02E7DEFCBF594B864C5CA6CDBD49C957943E9FA5D5FBAF336F90F504B0304140006080800CC70623BAD7543B64E01000033030000300000
310
006662782F39464131463745442D413632322D343644302D413938332D3331353338454246344243312F636E782E786D6CD593CD6EC32010845F0571AD6CE3D48AD20813A9873E410FBD12D82434182C7EAAE6EDBB2424CD25871E7B41D6EC30B3FA84F9E67BB2E40B4234DE8DB46F1925E094D7C6ED479AD3AE5951B2113C
310
789FEE6C943839C1488B4C05DF079FE72A69D8C96C13AAD6B8631503449F83828872B949AC57D26200B826A308D316B4064D6E46FCDA41C05550DC9E483A00797BFD207EFB092A45DE9514C1BBD22178396BD39D891265658C238DEA00936C654E5E433CB65A26D9F6EDB5EBC14EBF49A45CB856E66048291F6939A9A81BB5
310
C8917738143CA680F4AA299D66A042CEB3354A2684DC9D8D178FE0D9B8B41CAAD720F880EE7EF93C0C18769E099ECC04D5A102C8049A8A05632F4DDF376CF1DE0F6BB65C2F8627B65A33C6BB62177CEBBDAD973006829F89F22E814B54F4BC2BE347F8AA8F681390B50FA73F804400B5F542E796F19FF974E7F78DB802FE05
310
E207504B0304140006080800CC70623B16AB87BA640500003C100000340000006662782F39464131463745442D413632322D343644302D413938332D3331353338454246344243312F6F626A656374732E786D6CAD575B6FA33818FD2B887DE6924B3BED8A326A92B68A663B534DD4D13E548A0C38942D60649B369D5FBFC7
310
600890A493BDE42160637FD7F31D7FF63E6FB3D478A55C242CBF3247B66B1A340F5994E4F19559CA8D75611A9F7D8F33263BCB4C232719BD32D5B4E97B316765A1A722BA21652A07B3B7B33F0D11D29C9A46981221AE4C113ED38CD8A4942CA2E2C58E882476BCD9DA23BB5ED8171B73523C0F841684D35CC252CCE79062D4
310
468DFA43D7747CCF51DF7D4FFDEB5593E3AB9CCA9FBEFE241792E4E19EB28198C968BAB8199F5D5A67D3E9C49A9E8F47D6EC76B6B0469F26EEFC7C3EBFBCBEB98462213924694B38DD98FE1D62C393D073EA4FADC5DAF04326852CCF6958F90F0F2B9BB5C48816348F90C7840A68EB78EDF68723159BCEE7891A6B95DDE9D3
310
BCEAEEE8086A6C6F9E5D4B59F0175C10A7A0820BAA5055C7473B5AE3CFDD452D602CD5DF12616444529E90D448938013FE6EFA58AA96F85E4F8C42275708571E98FE6827AF6B2B4AE3D7D83D64E5A64C53054DD3AF90BD06FEA9149565C94FCA0F6B834DC85599E4F2423B24DF0B6AFA979E534DFA9E7A4CC6FA631D486393
310
921829879BF5D781A373557BCB85E97FB90DB62B558F8795179C15944B051F40AB495CF35451D26A4727654E6D8033BD98EF82F21D91FF8AF2DD9982BCF1643BDD4EB516C9492E368C67C88DED563FC36D5EACF66DFF057C3658BDBFA69DF9578B3DA735B64F18C7F20770A9D45CFCF7FCF563D6456A277DBEF78A02637CA2
310
43B90A490AEAB94F72244481D24819A6C0E59B606BFA4B3025981DBB48EAB701D97BF19C577CC77F2D1B6C55A9EF3C732474C0B727303F625995056C3B02963D9EAC146BE78EC5FCEC7FA999EBC5EACBAAE41B12D27B4D2C0BBA49F244E2ECDC81B76B502F113D8F5EE8FB1BE3111CDD4FC2AA9B844CAB1288B68AB90A7CDC
310
1C166AB0D3DC5310625FCC14E779BFD0709F8890A629C9292B1B2DED31A4B0DA928CEE135085754027E3018A397D4D5427D15BD1330B677DC8934285AC3DF45A9EB68FF8F2B8FC0A509AFEECFD0FF2DE25CC6047F7214B195F07EFEB9A094D800F7BFAE8FED187B78EA8A3A400F115961BCAD1215E47C966530AF0EE8128FE
310
58CEBB996A8964FFA529A046635D9353B0336A8F700DDF46271A024E70B0B37C9DE01847591E54DED53D54202AB947E4076556AC49C6CA5C9E1226B7F1A7B1BE15DEED62C41B91E1B3E9AFAAA735036547343A925075041DF0A9979E893B391F8FCFA6967B3EFB644DCF6E5CEBFAE272625DCC6FAF3FB93793C5F90CE1EF57
310
407342756B10D1C489E8953CD1617E5CEECAD6F4EF8914CE5D5D504E5C3F1F9736DA62CFC11E00BCDDB8CC8A9466349744C1F75EBDA4DF09BA8A9E8C7A7E9991989E20E5DBDD6A6003664ED8F7A04A8DBE0DF6EAD9B9AA858342E47399053949D2C146EDB85DE4B176BB0965FBAC19BD19AA918E27FA50C1D22402E144464C
310
59462568E704B6E71915404CB72B8FF4EDE184DDAF753F284990D2C6926782963815403548A70C657FDEF80D2D9CEAA2AE4C1C76F60BFE74219A06527D6582DF6412526107381E55E353090704D085B52408D0933C4ED159D79BDA71BB4BC506F4831350EB6F979CD22D69BF7AC49B91A2C0A9DDA3D5CA36AD20FC478E37E6
310
1844E2352865EBCB6EA275A652E3836BE04EFB400BF1A2556F515F1FBB35B2AB35BD889C744FFA1004B5544B121E57F70215746DD2F5E2C1412B602CBF19455AC6C8E5E9922C4E01E65215385004546899059180EAFCF7A707CE7017CD8CDB0410789AB32C63B91E5CEBBBACB17AC6CD347A022D5075FD106377347AAABA7E
310
7D11590744509B44E205134DC1290F06580320F78E537D3D73540E06CB970B431F185308AD40BBD794D6D77003C5A36E8EAA54BA64597CD8F83BD552A080A365F7FF06504B0304140006080000CC70623B000000000000000000000000350000006662782F39464131463745442D413632322D343644302D413938332D3331
310
353338454246344243312F76657274696365732E62696E504B0304140006080800CC70623BF270F1330600000004000000360000006662782F39464131463745442D413632322D343644302D413938332D3331353338454246344243312F747269616E676C65732E62696E636660600000504B0304140006080000CC70623B
310
000000000000000000000000370000006662782F39464131463745442D413632322D343644302D413938332D3331353338454246344243312F617474726962757465732E62696E504B0304140006080800CC70623B08DA0BD19000000041010000360000006662782F39464131463745442D413632322D343644302D413938
310
332D3331353338454246344243312F6469726563746F72792E786D6C858F410AC3201045AF22B36F53E9A60B35CBEEBAE80D244E44489C6234F4F835464A48035D0DF398FF9F8AF63D0E6CC63039F212F8F9020C7D47C6792B21C5FE7403D62A1188E2E60C98D7234A5830286103A55745067B9D86B8A3CF9C7F90C11DE607
310
FB144396D7B6A82D282E9A152AD114D5EF2CB866EEE831B8EEA07A7BB5A8D7D61A2BAAEB7FD5F70921FF497D00504B0304140006080800CC70623B0D6EF93BFE000000A00100003B0000006662782F39464131463745442D413632322D343644302D413938332D3331353338454246344243312F7265736F75726365732F63
310
6F72652E786D6C8D50596E833010BD0A9ADFCA60B334011947A8694ED00B586642AC041B79A97AFC9A40A5F6AF3F33A3B7689E1E3F7DCD8FEC139DD7D6F4C0720A191A65476DA61E62B892236427C19DB5E1970C322367EC618541F0C9D9B8EC90B226A009093576C41D94DE63804C3DD2D18357379C652E63480A7FCF17A9
310
EE72C29CE5894E3AC17D702940B63D59270887DE46A7D0F36263058F518FBB468FE9A7BE6A7420864373B8D4873369AA8691FA421B3294352543C5CAF65C0F6FEF43CB8BD52C78D0F34F46E550061C419494B6843142CB0F5677F4B52BEB177AEC28E5C52AFF638ACBF84F53D42654E51E77B379102C05791282176B5F693D
310
CB4C7BED567C03504B010214000A0000080000CC70623B3DEE336E79000000790000001B00000000000000000000000000000000006175746F6465736B2D64657369676E2D7061636B6167652E786D6C504B01021400140006080800CC70623BD486FD9CA0000000F40000001300000000000000000000000000B20000005B
310
436F6E74656E745F54797065735D2E786D6C504B01021400140006080800CC70623B1EC5D7A3EB0000007C010000080000000000000000000000000083010000636F72652E786D6C504B01021400140006080800CC70623B55019EA25F0000007C000000070000000000000000000000000094020000636E782E786D6C504B
310
01021400140006080800CC70623B8C9102E971010000D40300000C00000000000000000000000000180300006662782F636F72652E786D6C504B01021400140006080800CC70623BFFEA85907E0000009D0000000B00000000000000000000000000B30400006662782F636E782E786D6C504B01021400140006080800CC70
310
623B4FEEA4082C0100001202000031000000000000000000000000005A0500006662782F39464131463745442D413632322D343644302D413938332D3331353338454246344243312F636F72652E786D6C504B01021400140006080800CC70623BAD7543B64E010000330300003000000000000000000000000000D5060000
310
6662782F39464131463745442D413632322D343644302D413938332D3331353338454246344243312F636E782E786D6C504B01021400140006080800CC70623B16AB87BA640500003C1000003400000000000000000000000000710800006662782F39464131463745442D413632322D343644302D413938332D3331353338
310
454246344243312F6F626A656374732E786D6C504B01021400140006080000CC70623B0000000000000000000000003500000000000000000000000000270E00006662782F39464131463745442D413632322D343644302D413938332D3331353338454246344243312F76657274696365732E62696E504B01021400140006
310
080800CC70623BF270F133060000000400000036000000000000000000000000007A0E00006662782F39464131463745442D413632322D343644302D413938332D3331353338454246344243312F747269616E676C65732E62696E504B01021400140006080000CC70623B0000000000000000000000003700000000000000
310
000000000000D40E00006662782F39464131463745442D413632322D343644302D413938332D3331353338454246344243312F617474726962757465732E62696E504B01021400140006080800CC70623B08DA0BD190000000410100003600000000000000000000000000290F00006662782F39464131463745442D413632
310
322D343644302D413938332D3331353338454246344243312F6469726563746F72792E786D6C504B01021400140006080800CC70623B0D6EF93BFE000000A00100003B000000000000000000000000000D1000006662782F39464131463745442D413632322D343644302D413938332D3331353338454246344243312F7265
310
736F75726365732F636F72652E786D6C504B0506000000000E000E0080040000641100000000
  0
XRECORD
  5
29F
102
{ACAD_REACTORS
330
19
102
}
330
19
100
AcDbXrecord
280
     1
102
MATERIAL
148
0.0
149
0.0
149
0.0
 93
        0
 94
       63
282
     0
 72
     1
 77
     1
171
     1
175
     1
179
     1
273
     0
  0
XRECORD
  5
1A
102
{ACAD_REACTORS
330
19
102
}
330
19
100
AcDbXrecord
280
     1
270
     1
271
     1
  0
XRECORD
  5
1B
102
{ACAD_REACTORS
330
19
102
}
330
19
100
AcDbXrecord
280
     1
270
     1
271
     1
  0
XRECORD
  5
1C
102
{ACAD_REACTORS
330
19
102
}
330
19
100
AcDbXrecord
280
     1
 70
     0
 90
1673772943
  1
ECE7A1D2-D628-4531-984C-D00F80459256
310
504B03040A0000080000CC70623B3DEE336E79000000790000001B0000006175746F6465736B2D64657369676E2D7061636B6167652E786D6C3C3F786D6C2076657273696F6E3D22312E302220656E636F64696E673D227574662D3822203F3E3C666F726D6174733E3C666F726D61743E687474703A2F2F736368656D612E
310
6175746F6465736B2E636F6D2F64657369676E2D7061636B6167652F323030393C2F666F726D61743E3C2F666F726D6174733E504B0304140006080800CC70623BD486FD9CA0000000F4000000130000005B436F6E74656E745F54797065735D2E786D6C7D8EC10E82300C865F65E91D8A1E8C310C0EEA1BF002731658846E
310
D98AC1B77784ABF1D8FE5FBFBF75BBCE937A534CCEB38643598122B6FEE978D0B0485F9C41B54DDD7D022595594E1A469170414C76A4D9A4D207E29CF43ECE46F218070CC6BECC4078ACAA135ACF422C856C0E68EA1BF5669944DDD7BCDE7B1F8E415D77AECB980613C2E4AC91FC167A2B244592486606FC29C8FD7F045B9A
310
EF7053A7E60B504B0304140006080800CC70623BD9DDAED0EC0000007C01000008000000636F72652E786D6C8D90416EC3201045AF82665B61836D9CD8C2444DD39CA01740405C94182C03558F5F9C3852BBEB6A467FFE9B197D7EF89E6EE8CB2CC17A37002D0820E394D7D68D03A478C17B4007C117EFE32F1B20272733C0
310
2A83E0E3E2D3BC49CABB685CCCAAF3DA6CA20CC14440EA969B0182FA34932C648AD911AEC52CD5558EA6A0CF2EC329598D1E47ACCEFBECC59A050463A7EA5833865FEBDD0E37353BE3EE8DBDE3F6786A48D375FBF6CC78B9C282473B3DEFABC5C86834888A900E538A49F5419B9EB47DD5BC907D4F082F57FB1F28CDFA9F50
310
B22ED6D5F6EE030B20687EE43E10BC5CB3C8E51E54AE6B6EE207504B0304140006080800CC70623B55019EA25F0000007C00000007000000636E782E786D6C4DCB3B0E80201045D1AD90E915ED2CF8AC45050C11660C8261F98AB1B07AC9C97D42D718D865D3E909258CFD00CCE24AC6E326A164D74DC0B4128928FF326038
310
472BA13128B1252AC747C6BAB984FC68F0B87FE8960A5C09FE86CFB69FBA01504B0304140006080800CC70623BA24EB22D72010000D40300000C0000006662782F636F72652E786D6CC5535B6E833010BC8AE5DF0A6C5E49888CA3A6694ED00B38E05014B091B1518EDFE511A5A9D228FD2A1F60CDEC7A67C6986DCE4D8D7A
310
69BA4AAB0C073EC548AA5C17952A33ECECD15B61B4E1CC686DBF9561A44423333CC098B3D268D7CE50AE9595CA02AA74216750749DB418E5352C32DCE59FB211BE70162ABA93DF8AFC244AE9073ED050C759670D0840D390E18DF9F1706664C23973AE2A66B62A605A75ACA4C13C4976E1364A12EF355A2EBD384AF65EFA96
310
BC7B8BED2EA6719AAE16FB8491A199335B351775B991C2CA02F390D2D40B028F861F41BCA68B7518BFD0D59A524686F29B26D7164F36B94AD9289CE54E6D1DE6010819891F6E21228B3AD1831EC219194284CF98F06DD01008846CC5A1BEF83801D4CBDC6A1303536877A57A513B0953A94FC707FDBE6064EA84A9E3E6E0FA
310
EE8CF0E9198F7784A316AA0413C2C2F2E0ECA0934D1AE6D05A69BCDE9E91D2A611F573361E38FC1375157F5752AE6B6DFE4B11990F88CCBF0719EE23FF02504B0304140006080800CC70623B408A7D3B7C0000009D0000000B0000006662782F636E782E786D6C4DCCD10A83201886E15B91FFDC552A92A0064DBC8F581632
310
D3703A76F9ABD1C18E3E78F878E5F0D9027ABBFCF2292AE86E2D20171F69F6715550CB827B40839639A5F2770314A7CD293819B45C73AAFB45B35BA61ACAA1C1C7E7855C58C15BC331339661262CC762340413D68D77DA5B42298546CBE6573AF60CEB2F504B0304140006080800CC70623B449FB9BD290100001202000031
310
0000006662782F36394639363044362D344446342D343946362D394244322D3234314243333846323333332F636F72652E786D6C8D515B6EC32010BC0AE22B55850D98B871848994463E412FE002495162B07854397EA176A4F62F3F2C9A9D991D587EB84F37F0AD7D30CEF6905418026DA553C65E7A98E219ED203808EE9D
310
8B7F6810D871D23D2C3014FCE25D9A57483A1BB58D19B54EE9151C43D0110279CB971E06F9A5A7B11A53CC8C70ADE6515EC78BAE4895DB992778883E0700CB907242D17643D7E2538BD869608875438BBAE38922CAC8F1BDD90DB4691A5E2F42C153326A951B95E398B3D1FE599322163C9AE9115F7A3D46ADA0A018778810
310
84E907617BDCEE297BC5BB3DC6BC2EF47FA234AB2745C9D8D8D035EE220B50105E2F0DC1954B9FB747187D9F9D8FA0CCDB042D5FA0C015C65B42DF78BD10F3F3B363CB56C7109DCFDFBBB97E662ED92EB62D13BC2E1BCAE5777DB9966D8A1F504B0304140006080800CC70623BAD7543B64E01000033030000300000006662
310
782F36394639363044362D344446342D343946362D394244322D3234314243333846323333332F636E782E786D6CD593CD6EC32010845F0571AD6CE3D48AD20813A9873E410FBD12D82434182C7EAAE6EDBB2424CD25871E7B41D6EC30B3FA84F9E67BB2E40B4234DE8DB46F1925E094D7C6ED479AD3AE5951B2113C789FEE
310
6C943839C1488B4C05DF079FE72A69D8C96C13AAD6B8631503449F83828872B949AC57D26200B826A308D316B4064D6E46FCDA41C05550DC9E483A00797BFD207EFB092A45DE9514C1BBD22178396BD39D891265658C238DEA00936C654E5E433CB65A26D9F6EDB5EBC14EBF49A45CB856E66048291F6939A9A81BB5C89177
310
38143CA680F4AA299D66A042CEB3354A2684DC9D8D178FE0D9B8B41CAAD720F880EE7EF93C0C18769E099ECC04D5A102C8049A8A05632F4DDF376CF1DE0F6BB65C2F8627B65A33C6BB62177CEBBDAD973006829F89F22E814B54F4BC2BE347F8AA8F681390B50FA73F804400B5F542E796F19FF974E7F78DB802FE05E20750
310
4B0304140006080800CC70623B8D05915C650500003B100000340000006662782F36394639363044362D344446342D343946362D394244322D3234314243333846323333332F6F626A656374732E786D6CAD575B6FA33814FE2B887D06429276DA1565D4266D158D3A339A6846FB502932E050B66023DB74D2FDF5FB190C01
310
9276B2973C046C8ECFF53B17071F77456EBD502133CEAE6CDF9DD81665314F32965ED995DA3A17B6F5310C04E7AA47665B8C14F4CAD6DB7618A48257A5D94AE89654B91AEDDEDDFC61C998326A5B714EA4BCB265FC440BE2924AF184CA6737218AB8E976E7FA6E4338649B0A523E8D98964450A6A029F619B8588D52FE7039
310
B1BD30F0F4F730D0FF866AF6369557DB33949F31A9088B0F848DD8CCFCF9F2767A76E99CCDE733677E3EF59D9BBB9BA5E37F984D16E78BC5E5F5ED25044B25C0C96822E8D60EEFE11B91C581D77CEA34368A1F5329E68CD1B8B61F16D63A1B8E092D294B10C78C4A48EB593D192E7DED9BDEE7995E1B91FDEDD3ACEA9FE831
310
6A756F9F7D4D79F4274C90A7A04248AA51D5F8C718DAE06FB2F75AC4796EBE65D22A88A22223B995679120E2D50E41AA49C260C046A35368846B0BECD0DFF3EBEB8AD4F835768F69B9ADF25C43D30E6B646F807FAA64AD59F61715C7A54127C4AACA98BA3006A9D792DAE165E0D59B61A01FB3A9F9D838D2DAE62445C86166
310
F37564E842E7DE6A69879FEEA2DD5AE7E371E1A5E025154AC307D06A03D73EB5978C58FFA4C8E9033066E0F3BD53BEC1F39F91BE7B55103791EDE6BBB991A2046172CB4581D8B893FA674DDA17A77B3B7C413D1B511FD2743BFF8A38F03A658705E3ADF8015C3A3417FF3D7E439FF591DA0B5F18BC20C1B8981957AE6392A3
310
F43C640C01D1A0B4728E2DD4F26DB4B3C3152A252A3B4E913CEC1C72F012782FF88EFF8637AA552DBEF76408E8A8DE9E50F9E1CB3A2DA0DB1B6039A893B56063DC5B3E3FFB5F72E67AB9FEB4AEC496C4F4C1149625DD662C53E89D7BF0F6151A046260D1337DFDC94502430F83B0EE07A130A224BCAD7DAE1D9FB6CD422FF6
310
920702629C4BB9AE79C12F243C6432A6794E18E5552BA56B431AAB5D91317302B2B071E86C3A42B1A02F999E24061403B5D0EB639195DA655DD3EBEAB4FB862DDF579F014AD0E73C22F99E28DA57FB98E75C6CA2D74D53086D600F4786E0FE3144B771A8A7B900F03594DB8A633CBC49B2EDB69228BB479CF863B5E807AAAB
310
23872F6DFEB4129B949CA33823F58830E86D65621E10047D9DB34D862E8EAC3C2ABC2F7B2C40D67CDFE01F5545B92105AF983AC54D93D69E56FB8E797F88913F898A9FEC705D3F9D1B54EC8426FB500D40A03BD0119B06E1B95DDC7EB8F6975367793EBD70E66733DFB9BC982F9CE564727731999F5D4ECFCE3B8D6A4DC2A0
310
6D50FD148437D110834A64C6CDDF57FBACB5C307A2A477DFE4939736CFEF2B175371E0E10CF0DD1D5C15654E0BCA14D1E87DD02FF93782A162C0A3D95F1524A52770F972BF1EE9809D13CE7DD599467F8ECE9ADD85CE85A34CD45355448C64F9E8A031DC2D596ACC6E5DD93D9B82DE2EF5CAF81363A8E47996A0DE24564A79
310
4115AACE09C55E14540231FDA13C319787134EBF34E3A022514E5B4D9E0826E25C02D5805B15ABE1BEF51B26383D445DD9E875EE33FE4C22DA16427D65A3BCA92CA6D28DD01DF5DC53330704308475351050232CCD31583787BA75774AFB06E5070DD0C8EF484E19968C5D83BA5B90B244D31E54D55A372320FE4786B7EA58
310
44E135AA5467CB7EA333A61683CC6A8C3257034C10CF46F40EF9F5BE59BE5BD30C3C72D235E95D10345C1D45445A5F0BB47E46A5EBE5570F9380B5FA629579952296A773720405982B9DE04011506178964401AA8BDF1FBF0A8EAB6861DD6580C0E38217056766716DAEB2D6FA0917D3E4116581EADB879C4E7CFFB11EFACD
310
3D641311495D92C8676CB409A72D18610D803CE8A626049E8EC1887CB5B44CC39883690DDA8399B4B9855B481E7D71D4A9D22F96E5BB73BF5793020C02137BF837504B0304140006080000CC70623B000000000000000000000000350000006662782F36394639363044362D344446342D343946362D394244322D32343142
310
43333846323333332F76657274696365732E62696E504B0304140006080800CC70623BF270F1330600000004000000360000006662782F36394639363044362D344446342D343946362D394244322D3234314243333846323333332F747269616E676C65732E62696E636660600000504B0304140006080000CC70623B0000
310
00000000000000000000370000006662782F36394639363044362D344446342D343946362D394244322D3234314243333846323333332F617474726962757465732E62696E504B0304140006080800CC70623B08DA0BD19000000041010000360000006662782F36394639363044362D344446342D343946362D394244322D
310
3234314243333846323333332F6469726563746F72792E786D6C858F410AC3201045AF22B36F53E9A60B35CBEEBAE80D244E44489C6234F4F835464A48035D0DF398FF9F8AF63D0E6CC63039F212F8F9020C7D47C6792B21C5FE7403D62A1188E2E60C98D7234A5830286103A55745067B9D86B8A3CF9C7F90C11DE607FB14
310
4396D7B6A82D282E9A152AD114D5EF2CB866EEE831B8EEA07A7BB5A8D7D61A2BAAEB7FD5F70921FF497D00504B0304140006080800CC70623BCA768048FE000000A00100003B0000006662782F36394639363044362D344446342D343946362D394244322D3234314243333846323333332F7265736F75726365732F636F72
310
652E786D6C8D50596E833010BD0A9ADFCA60D600328E9AA639412F609909B1126CE4A5EAF16B0295DABFFECC8CDEA2797AECF8353F924FB44E193D409E5248504B332A3D0D10FC95B4901C39B3C6F85F3248B49871801506CE266BC2B243D2688FDA47549B11775038871E12F988C7004EDE7016A9083E2ADC3D5D84BC8B09
310
D33C8D74D471E6BC8D0192EDC93A815B742658898E651BCB59086ADC356A8C3FD555A1055ED7E7E254D615792D0F075295F585746FF53B694EE78A565DD736979A65AB9933AFE69F8CD2A2F038022F28ED489E135A7CE4554F9BBEA85E68DB53CAB255FEC71496F19FA6A0B42F8B3DEE6673C0F318E4497096AD7DC5F52C33
310
EEB55BFE0D504B010214000A0000080000CC70623B3DEE336E79000000790000001B00000000000000000000000000000000006175746F6465736B2D64657369676E2D7061636B6167652E786D6C504B01021400140006080800CC70623BD486FD9CA0000000F40000001300000000000000000000000000B20000005B436F
310
6E74656E745F54797065735D2E786D6C504B01021400140006080800CC70623BD9DDAED0EC0000007C010000080000000000000000000000000083010000636F72652E786D6C504B01021400140006080800CC70623B55019EA25F0000007C000000070000000000000000000000000095020000636E782E786D6C504B0102
310
1400140006080800CC70623BA24EB22D72010000D40300000C00000000000000000000000000190300006662782F636F72652E786D6C504B01021400140006080800CC70623B408A7D3B7C0000009D0000000B00000000000000000000000000B50400006662782F636E782E786D6C504B01021400140006080800CC70623B
310
449FB9BD290100001202000031000000000000000000000000005A0500006662782F36394639363044362D344446342D343946362D394244322D3234314243333846323333332F636F72652E786D6C504B01021400140006080800CC70623BAD7543B64E010000330300003000000000000000000000000000D20600006662
310
782F36394639363044362D344446342D343946362D394244322D3234314243333846323333332F636E782E786D6C504B01021400140006080800CC70623B8D05915C650500003B10000034000000000000000000000000006E0800006662782F36394639363044362D344446342D343946362D394244322D32343142433338
310
46323333332F6F626A656374732E786D6C504B01021400140006080000CC70623B0000000000000000000000003500000000000000000000000000250E00006662782F36394639363044362D344446342D343946362D394244322D3234314243333846323333332F76657274696365732E62696E504B010214001400060808
310
00CC70623BF270F13306000000040000003600000000000000000000000000780E00006662782F36394639363044362D344446342D343946362D394244322D3234314243333846323333332F747269616E676C65732E62696E504B01021400140006080000CC70623B00000000000000000000000037000000000000000000
310
00000000D20E00006662782F36394639363044362D344446342D343946362D394244322D3234314243333846323333332F617474726962757465732E62696E504B01021400140006080800CC70623B08DA0BD190000000410100003600000000000000000000000000270F00006662782F36394639363044362D344446342D
310
343946362D394244322D3234314243333846323333332F6469726563746F72792E786D6C504B01021400140006080800CC70623BCA768048FE000000A00100003B000000000000000000000000000B1000006662782F36394639363044362D344446342D343946362D394244322D3234314243333846323333332F7265736F
310
75726365732F636F72652E786D6C504B0506000000000E000E0080040000621100000000
  0
XRECORD
  5
1D
102
{ACAD_REACTORS
330
19
102
}
330
19
100
AcDbXrecord
280
     1
270
     1
271
     1
  0
XRECORD
  5
1E
102
{ACAD_REACTORS
330
19
102
}
330
19
100
AcDbXrecord
280
     1
270
     1
271
     1
  0
DICTIONARY
  5
244
102
{ACAD_REACTORS
330
243
102
}
330
243
100
AcDbDictionary
280
     1
281
     1
  3
TEXT
360
245
  0
XRECORD
  5
2B4
102
{ACAD_REACTORS
330
243
102
}
330
243
100
AcDbXrecord
280
     1
102
DISPLAYNAME
  1
ASME Y14.3 - 2003(1)
102
FLAGS
 90
        0
  0
DICTIONARY
  5
24D
102
{ACAD_REACTORS
330
24C
102
}
330
24C
100
AcDbDictionary
280
     1
281
     1
  3
TEXT
360
24E
  0
XRECORD
  5
2B5
102
{ACAD_REACTORS
330
24C
102
}
330
24C
100
AcDbXrecord
280
     1
102
DISPLAYNAME
  1
DIN ISO 128-40:2002-05(1)
102
FLAGS
 90
        0
  0
XRECORD
  5
2B6
102
{ACAD_REACTORS
330
253
102
}
330
253
100
AcDbXrecord
280
     1
102
DISPLAYNAME
  1
Imperial24
102
FLAGS
 90
        0
  0
XRECORD
  5
2B7
102
{ACAD_REACTORS
330
256
102
}
330
256
100
AcDbXrecord
280
     1
102
DISPLAYNAME
  1
Metric50
102
FLAGS
 90
        0
  0
CELLSTYLEMAP
  5
28C
102
{ACAD_REACTORS
330
46
102
}
330
46
100
AcDbCellStyleMap
 90
        3
300
CELLSTYLE
  1
TABLEFORMAT_BEGIN
 90
        5
170
     1
 91
        0
 92
    32768
 62
   257
 93
        1
300
CONTENTFORMAT
  1
CONTENTFORMAT_BEGIN
 90
        0
 91
        0
 92
      512
 93
        0
300

 40
0.0
140
1.0
 94
        5
 62
     0
340
24
144
6.0
309
CONTENTFORMAT_END
171
     1
301
MARGIN
  1
CELLMARGIN_BEGIN
 40
1.5
 40
1.5
 40
1.5
 40
1.5
 40
4.5
 40
4.5
309
CELLMARGIN_END
 94
        6
 95
        1
302
GRIDFORMAT
  1
GRIDFORMAT_BEGIN
 90
        0
 91
        1
 62
     0
 92
       -2
340
27
 93
        0
 40
1.125
309
GRIDFORMAT_END
 95
        2
302
GRIDFORMAT
  1
GRIDFORMAT_BEGIN
 90
        0
 91
        1
 62
     0
 92
       -2
340
27
 93
        0
 40
1.125
309
GRIDFORMAT_END
 95
        4
302
GRIDFORMAT
  1
GRIDFORMAT_BEGIN
 90
        0
 91
        1
 62
     0
 92
       -2
340
27
 93
        0
 40
1.125
309
GRIDFORMAT_END
 95
        8
302
GRIDFORMAT
  1
GRIDFORMAT_BEGIN
 90
        0
 91
        1
 62
     0
 92
       -2
340
27
 93
        0
 40
1.125
309
GRIDFORMAT_END
 95
       16
302
GRIDFORMAT
  1
GRIDFORMAT_BEGIN
 90
        0
 91
        1
 62
     0
 92
       -2
340
27
 93
        0
 40
1.125
309
GRIDFORMAT_END
 95
       32
302
GRIDFORMAT
  1
GRIDFORMAT_BEGIN
 90
        0
 91
        1
 62
     0
 92
       -2
340
27
 93
        0
 40
1.125
309
GRIDFORMAT_END
309
TABLEFORMAT_END
  1
CELLSTYLE_BEGIN
 90
        1
 91
        1
300
_TITLE
309
CELLSTYLE_END
300
CELLSTYLE
  1
TABLEFORMAT_BEGIN
 90
        5
170
     1
 91
        0
 92
        0
 62
   257
 93
        1
300
CONTENTFORMAT
  1
CONTENTFORMAT_BEGIN
 90
        0
 91
        0
 92
      512
 93
        0
300

 40
0.0
140
1.0
 94
        5
 62
     0
340
24
144
4.5
309
CONTENTFORMAT_END
171
     1
301
MARGIN
  1
CELLMARGIN_BEGIN
 40
1.5
 40
1.5
 40
1.5
 40
1.5
 40
4.5
 40
4.5
309
CELLMARGIN_END
 94
        6
 95
        1
302
GRIDFORMAT
  1
GRIDFORMAT_BEGIN
 90
        0
 91
        1
 62
     0
 92
       -2
340
27
 93
        0
 40
1.125
309
GRIDFORMAT_END
 95
        2
302
GRIDFORMAT
  1
GRIDFORMAT_BEGIN
 90
        0
 91
        1
 62
     0
 92
       -2
340
27
 93
        0
 40
1.125
309
GRIDFORMAT_END
 95
        4
302
GRIDFORMAT
  1
GRIDFORMAT_BEGIN
 90
        0
 91
        1
 62
     0
 92
       -2
340
27
 93
        0
 40
1.125
309
GRIDFORMAT_END
 95
        8
302
GRIDFORMAT
  1
GRIDFORMAT_BEGIN
 90
        0
 91
        1
 62
     0
 92
       -2
340
27
 93
        0
 40
1.125
309
GRIDFORMAT_END
 95
       16
302
GRIDFORMAT
  1
GRIDFORMAT_BEGIN
 90
        0
 91
        1
 62
     0
 92
       -2
340
27
 93
        0
 40
1.125
309
GRIDFORMAT_END
 95
       32
302
GRIDFORMAT
  1
GRIDFORMAT_BEGIN
 90
        0
 91
        1
 62
     0
 92
       -2
340
27
 93
        0
 40
1.125
309
GRIDFORMAT_END
309
TABLEFORMAT_END
  1
CELLSTYLE_BEGIN
 90
        2
 91
        1
300
_HEADER
309
CELLSTYLE_END
300
CELLSTYLE
  1
TABLEFORMAT_BEGIN
 90
        5
170
     1
 91
        0
 92
        0
 62
   257
 93
        1
300
CONTENTFORMAT
  1
CONTENTFORMAT_BEGIN
 90
        0
 91
        0
 92
      512
 93
        0
300

 40
0.0
140
1.0
 94
        2
 62
     0
340
24
144
4.5
309
CONTENTFORMAT_END
171
     1
301
MARGIN
  1
CELLMARGIN_BEGIN
 40
1.5
 40
1.5
 40
1.5
 40
1.5
 40
4.5
 40
4.5
309
CELLMARGIN_END
 94
        6
 95
        1
302
GRIDFORMAT
  1
GRIDFORMAT_BEGIN
 90
        0
 91
        1
 62
     0
 92
       -2
340
27
 93
        0
 40
1.125
309
GRIDFORMAT_END
 95
        2
302
GRIDFORMAT
  1
GRIDFORMAT_BEGIN
 90
        0
 91
        1
 62
     0
 92
       -2
340
27
 93
        0
 40
1.125
309
GRIDFORMAT_END
 95
        4
302
GRIDFORMAT
  1
GRIDFORMAT_BEGIN
 90
        0
 91
        1
 62
     0
 92
       -2
340
27
 93
        0
 40
1.125
309
GRIDFORMAT_END
 95
        8
302
GRIDFORMAT
  1
GRIDFORMAT_BEGIN
 90
        0
 91
        1
 62
     0
 92
       -2
340
27
 93
        0
 40
1.125
309
GRIDFORMAT_END
 95
       16
302
GRIDFORMAT
  1
GRIDFORMAT_BEGIN
 90
        0
 91
        1
 62
     0
 92
       -2
340
27
 93
        0
 40
1.125
309
GRIDFORMAT_END
 95
       32
302
GRIDFORMAT
  1
GRIDFORMAT_BEGIN
 90
        0
 91
        1
 62
     0
 92
       -2
340
27
 93
        0
 40
1.125
309
GRIDFORMAT_END
309
TABLEFORMAT_END
  1
CELLSTYLE_BEGIN
 90
        3
 91
        2
300
_DATA
309
CELLSTYLE_END
  0
XRECORD
  5
2AA
102
{ACAD_REACTORS
330
46
102
}
330
46
100
AcDbXrecord
280
     1
102
ACAD_ROUNDTRIP_PRE2007_TABLESTYLE
 90
      512
 91
        0
  1

 92
      512
 93
        0
  2

 94
      512
 95
        0
  3

  0
XRECORD
  5
2A1
102
{ACAD_REACTORS
330
2A0
102
}
330
2A0
100
AcDbXrecord
280
     1
102
RTVSPost2010Prop28
280
     1
102
RTVSPost2010PropOp28
 70
     1
102
RTVSPost2010Prop29
280
     1
102
RTVSPost2010PropOp29
 70
     1
102
RTVSPost2010Prop30
280
     0
102
RTVSPost2010PropOp30
 70
     1
102
RTVSPost2010Prop31
280
     0
102
RTVSPost2010PropOp31
 70
     1
102
RTVSPost2010Prop32
280
     0
102
RTVSPost2010PropOp32
 70
     1
102
RTVSPost2010Prop33
280
     0
102
RTVSPost2010PropOp33
 70
     1
102
RTVSPost2010Prop34
280
     0
102
RTVSPost2010PropOp34
 70
     1
102
RTVSPost2010Prop35
280
     0
102
RTVSPost2010PropOp35
 70
     1
102
RTVSPost2010Prop36
280
     0
102
RTVSPost2010PropOp36
 70
     1
102
RTVSPost2010Prop37
 90
       50
102
RTVSPost2010PropOp37
 70
     1
102
RTVSPost2010Prop38
140
0.0
102
RTVSPost2010PropOp38
 70
     1
102
RTVSPost2010Prop39
140
1.0
102
RTVSPost2010PropOp39
 70
     1
102
RTVSPost2010Prop40
 90
        0
102
RTVSPost2010PropOp40
 70
     1
102
RTVSPost2010Prop41ColorIndex
 90
       18
102
RTVSPost2010Prop41ColorRGB
 90
        0
102
RTVSPost2010PropOp41
 70
     1
102
RTVSPost2010Prop42
 90
       50
102
RTVSPost2010PropOp42
 70
     1
102
RTVSPost2010Prop43
 90
        3
102
RTVSPost2010PropOp43
 70
     1
102
RTVSPost2010Prop44ColorIndex
 90
        5
102
RTVSPost2010Prop44ColorRGB
 90
      255
102
RTVSPost2010PropOp44
 70
     1
102
RTVSPost2010Prop45
280
     0
102
RTVSPost2010PropOp45
 70
     1
102
RTVSPost2010Prop46
 90
       50
102
RTVSPost2010PropOp46
 70
     1
102
RTVSPost2010Prop47
 90
       50
102
RTVSPost2010PropOp47
 70
     1
102
RTVSPost2010Prop48
 90
       50
102
RTVSPost2010PropOp48
 70
     1
102
RTVSPost2010Prop49
280
     0
102
RTVSPost2010PropOp49
 70
     1
102
RTVSPost2010Prop50
 90
       50
102
RTVSPost2010PropOp50
 70
     1
102
RTVSPost2010Prop51ColorIndex
 90
      256
102
RTVSPost2010Prop51ColorRGB
 90
-16777216
102
RTVSPost2010PropOp51
 70
     0
102
RTVSPost2010Prop52
140
1.0
102
RTVSPost2010PropOp52
 70
     0
102
RTVSPost2010Prop53
 90
        2
102
RTVSPost2010PropOp53
 70
     1
102
RTVSPost2010Prop54
  1
strokes_ogs.tif
102
RTVSPost2010PropOp54
 70
     1
102
RTVSPost2010Prop55
280
     0
102
RTVSPost2010PropOp55
 70
     1
102
RTVSPost2010Prop56
140
1.0
102
RTVSPost2010PropOp56
 70
     1
102
RTVSPost2010Prop57
140
1.0
102
RTVSPost2010PropOp57
 70
     1
102
RTVSPropertyOp0
 70
     1
102
RTVSPropertyOp1
 70
     1
102
RTVSPropertyOp2
 70
     1
102
RTVSPropertyOp3
 70
     1
102
RTVSPropertyOp4
 70
     1
102
RTVSPropertyOp5
 70
     1
102
RTVSPropertyOp6
 70
     1
102
RTVSPropertyOp7
 70
     1
102
RTVSPropertyOp8
 70
     1
102
RTVSPropertyOp9
 70
     1
102
RTVSPropertyOp10
 70
     1
102
RTVSPropertyOp11
 70
     1
102
RTVSPropertyOp12
 70
     1
102
RTVSPropertyOp13
 70
     1
102
RTVSPropertyOp14
 70
     1
102
RTVSPropertyOp15
 70
     1
102
RTVSPropertyOp16
 70
     1
102
RTVSPropertyOp17
 70
     1
102
RTVSPropertyOp18
 70
     1
102
RTVSPropertyOp19
 70
     1
102
RTVSPropertyOp20
 70
     1
102
RTVSPropertyOp21
 70
     1
102
RTVSPropertyOp22
 70
     1
102
RTVSPropertyOp23
 70
     1
102
RTVSPropertyOp24
 70
     1
102
RTVSPropertyOp25
 70
     1
102
RTVSPropertyOp26
 70
     1
102
RTVSPropertyOp27
 70
     1
102
RTVSPropertyOp28
 70
     1
102
RTVSPropertyOp29
 70
     1
102
RTVSPropertyOp30
 70
     1
102
RTVSPropertyOp31
 70
     1
102
RTVSPropertyOp32
 70
     1
102
RTVSPropertyOp33
 70
     1
102
RTVSPropertyOp34
 70
     1
102
RTVSPropertyOp35
 70
     1
102
RTVSPropertyOp36
 70
     1
102
RTVSPropertyOp37
 70
     1
102
RTVSPropertyOp38
 70
     1
102
RTVSPropertyOp39
 70
     1
102
RTVSPropertyOp40
 70
     1
102
RTVSPropertyOp41
 70
     1
102
RTVSPropertyOp42
 70
     1
102
RTVSPropertyOp43
 70
     1
102
RTVSPropertyOp44
 70
     1
102
RTVSPropertyOp45
 70
     1
102
RTVSPropertyOp46
 70
     1
102
RTVSPropertyOp47
 70
     1
102
RTVSPropertyOp48
 70
     1
102
RTVSPropertyOp49
 70
     1
102
RTVSPropertyOp50
 70
     1
102
RTVSPropertyOp51
 70
     0
102
RTVSPropertyOp52
 70
     0
102
RTVSPropertyOp53
 70
     1
102
RTVSPropertyOp54
 70
     1
102
RTVSPropertyOp55
 70
     1
102
RTVSPropertyOp56
 70
     1
102
RTVSPropertyOp57
 70
     1
102
RTVSPropertyOp58
 70
     1
102
RTVSPropertyOp59
 70
     1
102
RTVSPropertyOp60
 70
     1
102
RTVSPropertyOp61
 70
     1
102
RTVSPropertyOp62
 70
     1
  0
XRECORD
  5
2AC
102
{ACAD_REACTORS
330
2AB
102
}
330
2AB
100
AcDbXrecord
280
     1
102
RTVSPost2010Prop28
280
     0
102
RTVSPost2010PropOp28
 70
     1
102
RTVSPost2010Prop29
280
     1
102
RTVSPost2010PropOp29
 70
     1
102
RTVSPost2010Prop30
280
     1
102
RTVSPost2010PropOp30
 70
     1
102
RTVSPost2010Prop31
280
     0
102
RTVSPost2010PropOp31
 70
     1
102
RTVSPost2010Prop32
280
     0
102
RTVSPost2010PropOp32
 70
     1
102
RTVSPost2010Prop33
280
     0
102
RTVSPost2010PropOp33
 70
     1
102
RTVSPost2010Prop34
280
     0
102
RTVSPost2010PropOp34
 70
     1
102
RTVSPost2010Prop35
280
     0
102
RTVSPost2010PropOp35
 70
     1
102
RTVSPost2010Prop36
280
     0
102
RTVSPost2010PropOp36
 70
     1
102
RTVSPost2010Prop37
 90
       50
102
RTVSPost2010PropOp37
 70
     1
102
RTVSPost2010Prop38
140
0.0
102
RTVSPost2010PropOp38
 70
     1
102
RTVSPost2010Prop39
140
1.0
102
RTVSPost2010PropOp39
 70
     1
102
RTVSPost2010Prop40
 90
        0
102
RTVSPost2010PropOp40
 70
     1
102
RTVSPost2010Prop41ColorIndex
 90
       18
102
RTVSPost2010Prop41ColorRGB
 90
        0
102
RTVSPost2010PropOp41
 70
     1
102
RTVSPost2010Prop42
 90
       50
102
RTVSPost2010PropOp42
 70
     1
102
RTVSPost2010Prop43
 90
        3
102
RTVSPost2010PropOp43
 70
     1
102
RTVSPost2010Prop44ColorIndex
 90
        5
102
RTVSPost2010Prop44ColorRGB
 90
      255
102
RTVSPost2010PropOp44
 70
     1
102
RTVSPost2010Prop45
280
     0
102
RTVSPost2010PropOp45
 70
     1
102
RTVSPost2010Prop46
 90
       50
102
RTVSPost2010PropOp46
 70
     1
102
RTVSPost2010Prop47
 90
       50
102
RTVSPost2010PropOp47
 70
     1
102
RTVSPost2010Prop48
 90
       50
102
RTVSPost2010PropOp48
 70
     1
102
RTVSPost2010Prop49
280
     0
102
RTVSPost2010PropOp49
 70
     1
102
RTVSPost2010Prop50
 90
       50
102
RTVSPost2010PropOp50
 70
     1
102
RTVSPost2010Prop51ColorIndex
 90
      256
102
RTVSPost2010Prop51ColorRGB
 90
-16777216
102
RTVSPost2010PropOp51
 70
     0
102
RTVSPost2010Prop52
140
1.0
102
RTVSPost2010PropOp52
 70
     0
102
RTVSPost2010Prop53
 90
        2
102
RTVSPost2010PropOp53
 70
     1
102
RTVSPost2010Prop54
  1
strokes_ogs.tif
102
RTVSPost2010PropOp54
 70
     1
102
RTVSPost2010Prop55
280
     0
102
RTVSPost2010PropOp55
 70
     1
102
RTVSPost2010Prop56
140
1.0
102
RTVSPost2010PropOp56
 70
     1
102
RTVSPost2010Prop57
140
1.0
102
RTVSPost2010PropOp57
 70
     1
102
RTVSPropertyOp0
 70
     1
102
RTVSPropertyOp1
 70
     1
102
RTVSPropertyOp2
 70
     1
102
RTVSPropertyOp3
 70
     1
102
RTVSPropertyOp4
 70
     1
102
RTVSPropertyOp5
 70
     1
102
RTVSPropertyOp6
 70
     1
102
RTVSPropertyOp7
 70
     1
102
RTVSPropertyOp8
 70
     1
102
RTVSPropertyOp9
 70
     1
102
RTVSPropertyOp10
 70
     1
102
RTVSPropertyOp11
 70
     1
102
RTVSPropertyOp12
 70
     1
102
RTVSPropertyOp13
 70
     1
102
RTVSPropertyOp14
 70
     1
102
RTVSPropertyOp15
 70
     1
102
RTVSPropertyOp16
 70
     1
102
RTVSPropertyOp17
 70
     1
102
RTVSPropertyOp18
 70
     1
102
RTVSPropertyOp19
 70
     1
102
RTVSPropertyOp20
 70
     1
102
RTVSPropertyOp21
 70
     1
102
RTVSPropertyOp22
 70
     1
102
RTVSPropertyOp23
 70
     1
102
RTVSPropertyOp24
 70
     1
102
RTVSPropertyOp25
 70
     1
102
RTVSPropertyOp26
 70
     1
102
RTVSPropertyOp27
 70
     1
102
RTVSPropertyOp28
 70
     1
102
RTVSPropertyOp29
 70
     1
102
RTVSPropertyOp30
 70
     1
102
RTVSPropertyOp31
 70
     1
102
RTVSPropertyOp32
 70
     1
102
RTVSPropertyOp33
 70
     1
102
RTVSPropertyOp34
 70
     1
102
RTVSPropertyOp35
 70
     1
102
RTVSPropertyOp36
 70
     1
102
RTVSPropertyOp37
 70
     1
102
RTVSPropertyOp38
 70
     1
102
RTVSPropertyOp39
 70
     1
102
RTVSPropertyOp40
 70
     1
102
RTVSPropertyOp41
 70
     1
102
RTVSPropertyOp42
 70
     1
102
RTVSPropertyOp43
 70
     1
102
RTVSPropertyOp44
 70
     1
102
RTVSPropertyOp45
 70
     1
102
RTVSPropertyOp46
 70
     1
102
RTVSPropertyOp47
 70
     1
102
RTVSPropertyOp48
 70
     1
102
RTVSPropertyOp49
 70
     1
102
RTVSPropertyOp50
 70
     1
102
RTVSPropertyOp51
 70
     0
102
RTVSPropertyOp52
 70
     0
102
RTVSPropertyOp53
 70
     1
102
RTVSPropertyOp54
 70
     1
102
RTVSPropertyOp55
 70
     1
102
RTVSPropertyOp56
 70
     1
102
RTVSPropertyOp57
 70
     1
102
RTVSPropertyOp58
 70
     1
102
RTVSPropertyOp59
 70
     1
102
RTVSPropertyOp60
 70
     1
102
RTVSPropertyOp61
 70
     1
102
RTVSPropertyOp62
 70
     1
  0
XRECORD
  5
2AE
102
{ACAD_REACTORS
330
2AD
102
}
330
2AD
100
AcDbXrecord
280
     1
102
RTVSPost2010Prop28
280
     0
102
RTVSPost2010PropOp28
 70
     1
102
RTVSPost2010Prop29
280
     1
102
RTVSPost2010PropOp29
 70
     1
102
RTVSPost2010Prop30
280
     1
102
RTVSPost2010PropOp30
 70
     1
102
RTVSPost2010Prop31
280
     0
102
RTVSPost2010PropOp31
 70
     1
102
RTVSPost2010Prop32
280
     0
102
RTVSPost2010PropOp32
 70
     1
102
RTVSPost2010Prop33
280
     0
102
RTVSPost2010PropOp33
 70
     1
102
RTVSPost2010Prop34
280
     0
102
RTVSPost2010PropOp34
 70
     1
102
RTVSPost2010Prop35
280
     0
102
RTVSPost2010PropOp35
 70
     1
102
RTVSPost2010Prop36
280
     0
102
RTVSPost2010PropOp36
 70
     1
102
RTVSPost2010Prop37
 90
       50
102
RTVSPost2010PropOp37
 70
     1
102
RTVSPost2010Prop38
140
0.0
102
RTVSPost2010PropOp38
 70
     1
102
RTVSPost2010Prop39
140
1.0
102
RTVSPost2010PropOp39
 70
     1
102
RTVSPost2010Prop40
 90
        0
102
RTVSPost2010PropOp40
 70
     1
102
RTVSPost2010Prop41ColorIndex
 90
       18
102
RTVSPost2010Prop41ColorRGB
 90
        0
102
RTVSPost2010PropOp41
 70
     1
102
RTVSPost2010Prop42
 90
       50
102
RTVSPost2010PropOp42
 70
     1
102
RTVSPost2010Prop43
 90
        3
102
RTVSPost2010PropOp43
 70
     1
102
RTVSPost2010Prop44ColorIndex
 90
        5
102
RTVSPost2010Prop44ColorRGB
 90
      255
102
RTVSPost2010PropOp44
 70
     1
102
RTVSPost2010Prop45
280
     0
102
RTVSPost2010PropOp45
 70
     1
102
RTVSPost2010Prop46
 90
       50
102
RTVSPost2010PropOp46
 70
     1
102
RTVSPost2010Prop47
 90
       50
102
RTVSPost2010PropOp47
 70
     1
102
RTVSPost2010Prop48
 90
       50
102
RTVSPost2010PropOp48
 70
     1
102
RTVSPost2010Prop49
280
     0
102
RTVSPost2010PropOp49
 70
     1
102
RTVSPost2010Prop50
 90
       50
102
RTVSPost2010PropOp50
 70
     1
102
RTVSPost2010Prop51ColorIndex
 90
      256
102
RTVSPost2010Prop51ColorRGB
 90
-16777216
102
RTVSPost2010PropOp51
 70
     0
102
RTVSPost2010Prop52
140
1.0
102
RTVSPost2010PropOp52
 70
     0
102
RTVSPost2010Prop53
 90
        2
102
RTVSPost2010PropOp53
 70
     1
102
RTVSPost2010Prop54
  1
strokes_ogs.tif
102
RTVSPost2010PropOp54
 70
     1
102
RTVSPost2010Prop55
280
     0
102
RTVSPost2010PropOp55
 70
     1
102
RTVSPost2010Prop56
140
1.0
102
RTVSPost2010PropOp56
 70
     1
102
RTVSPost2010Prop57
140
1.0
102
RTVSPost2010PropOp57
 70
     1
102
RTVSPropertyOp0
 70
     1
102
RTVSPropertyOp1
 70
     1
102
RTVSPropertyOp2
 70
     1
102
RTVSPropertyOp3
 70
     1
102
RTVSPropertyOp4
 70
     1
102
RTVSPropertyOp5
 70
     1
102
RTVSPropertyOp6
 70
     1
102
RTVSPropertyOp7
 70
     1
102
RTVSPropertyOp8
 70
     1
102
RTVSPropertyOp9
 70
     1
102
RTVSPropertyOp10
 70
     1
102
RTVSPropertyOp11
 70
     1
102
RTVSPropertyOp12
 70
     1
102
RTVSPropertyOp13
 70
     1
102
RTVSPropertyOp14
 70
     1
102
RTVSPropertyOp15
 70
     1
102
RTVSPropertyOp16
 70
     1
102
RTVSPropertyOp17
 70
     1
102
RTVSPropertyOp18
 70
     1
102
RTVSPropertyOp19
 70
     1
102
RTVSPropertyOp20
 70
     1
102
RTVSPropertyOp21
 70
     1
102
RTVSPropertyOp22
 70
     1
102
RTVSPropertyOp23
 70
     1
102
RTVSPropertyOp24
 70
     1
102
RTVSPropertyOp25
 70
     1
102
RTVSPropertyOp26
 70
     1
102
RTVSPropertyOp27
 70
     1
102
RTVSPropertyOp28
 70
     1
102
RTVSPropertyOp29
 70
     1
102
RTVSPropertyOp30
 70
     1
102
RTVSPropertyOp31
 70
     1
102
RTVSPropertyOp32
 70
     1
102
RTVSPropertyOp33
 70
     1
102
RTVSPropertyOp34
 70
     1
102
RTVSPropertyOp35
 70
     1
102
RTVSPropertyOp36
 70
     1
102
RTVSPropertyOp37
 70
     1
102
RTVSPropertyOp38
 70
     1
102
RTVSPropertyOp39
 70
     1
102
RTVSPropertyOp40
 70
     1
102
RTVSPropertyOp41
 70
     1
102
RTVSPropertyOp42
 70
     1
102
RTVSPropertyOp43
 70
     1
102
RTVSPropertyOp44
 70
     1
102
RTVSPropertyOp45
 70
     1
102
RTVSPropertyOp46
 70
     1
102
RTVSPropertyOp47
 70
     1
102
RTVSPropertyOp48
 70
     1
102
RTVSPropertyOp49
 70
     1
102
RTVSPropertyOp50
 70
     1
102
RTVSPropertyOp51
 70
     0
102
RTVSPropertyOp52
 70
     0
102
RTVSPropertyOp53
 70
     1
102
RTVSPropertyOp54
 70
     1
102
RTVSPropertyOp55
 70
     1
102
RTVSPropertyOp56
 70
     1
102
RTVSPropertyOp57
 70
     1
102
RTVSPropertyOp58
 70
     1
102
RTVSPropertyOp59
 70
     1
102
RTVSPropertyOp60
 70
     1
102
RTVSPropertyOp61
 70
     1
102
RTVSPropertyOp62
 70
     1
  0
FIELD
  5
21F
102
{ACAD_REACTORS
330
21E
102
}
330
21E
100
AcDbField
  1
_text
  2
%<\_FldIdx 0>% %<\_FldIdx 1>%\PMASSSTAB %<\_FldIdx 2>%
 90
        3
360
220
360
221
360
222
 97
        0
  4

 91
       63
 92
        0
 94
        9
 95
        2
 96
        0
300

 93
        0
  7
ACFD_FIELD_VALUE
 90
        0
 91
        0
301

 98
        0
  0
FIELD
  5
22C
102
{ACAD_REACTORS
330
22B
102
}
330
22B
100
AcDbField
  1
_text
  2
%<\_FldIdx 0>% %<\_FldIdx 1>%
 90
        2
360
22D
360
22E
 97
        0
  4

 91
       63
 92
        0
 94
        9
 95
        2
 96
        0
300

 93
        0
  7
ACFD_FIELD_VALUE
 90
        0
 91
        0
301

 98
        0
  0
FIELD
  5
245
102
{ACAD_REACTORS
330
244
102
}
330
244
100
AcDbField
  1
_text
  2
%<\_FldIdx 0>% %<\_FldIdx 1>%-%<\_FldIdx 2>%
 90
        3
360
246
360
247
360
248
 97
        0
  4

 91
       63
 92
        0
 94
        9
 95
        2
 96
        0
300

 93
        0
  7
ACFD_FIELD_VALUE
 90
        0
 91
        0
301

 98
        0
  0
FIELD
  5
24E
102
{ACAD_REACTORS
330
24D
102
}
330
24D
100
AcDbField
  1
_text
  2
%<\_FldIdx 0>%-%<\_FldIdx 1>%
 90
        2
360
24F
360
250
 97
        0
  4

 91
       63
 92
        0
 94
        9
 95
        2
 96
        0
300

 93
        0
  7
ACFD_FIELD_VALUE
 90
        0
 91
        0
301

 98
        0
  0
FIELD
  5
220
330
21F
100
AcDbField
  1
AcVar
  2
\AcVar ViewType \f "%tc1"
 90
        0
 97
        0
  4
%tc1
 91
       63
 92
        0
 94
       43
 95
        2
 96
        0
300

 93
        1
  6
Variable
 90
        4
  1
ViewType
  7
ACFD_FIELD_VALUE
 90
        0
 91
        0
301
----
 98
        4
  0
FIELD
  5
221
330
21F
100
AcDbField
  1
AcVar
  2
\AcVar ViewDetailId
 90
        0
 97
        0
  4

 91
       63
 92
        0
 94
       43
 95
        2
 96
        0
300

 93
        1
  6
Variable
 90
        4
  1
ViewDetailId
  7
ACFD_FIELD_VALUE
 90
        0
 91
        0
301
----
 98
        4
  0
FIELD
  5
222
330
21F
100
AcDbField
  1
AcVar
  2
\AcVar ViewScale \f "%sn"
 90
        0
 97
        0
  4
%sn
 91
       63
 92
        0
 94
       43
 95
        2
 96
        0
300

 93
        1
  6
Variable
 90
        4
  1
ViewScale
  7
ACFD_FIELD_VALUE
 90
        0
 91
        0
301
----
 98
        4
  0
FIELD
  5
22D
330
22C
100
AcDbField
  1
AcVar
  2
\AcVar ViewDetailId
 90
        0
 97
        0
  4

 91
       63
 92
        0
 94
       43
 95
        2
 96
        0
300

 93
        1
  6
Variable
 90
        4
  1
ViewDetailId
  7
ACFD_FIELD_VALUE
 90
        0
 91
        0
301
----
 98
        4
  0
FIELD
  5
22E
330
22C
100
AcDbField
  1
AcVar
  2
\AcVar ViewScale \f "%sn"
 90
        0
 97
        0
  4
%sn
 91
       63
 92
        0
 94
       43
 95
        2
 96
        0
300

 93
        1
  6
Variable
 90
        4
  1
ViewScale
  7
ACFD_FIELD_VALUE
 90
        0
 91
        0
301
----
 98
        4
  0
FIELD
  5
246
330
245
100
AcDbField
  1
AcVar
  2
\AcVar ViewType \f "%tc1"
 90
        0
 97
        0
  4
%tc1
 91
       63
 92
        0
 94
       43
 95
        2
 96
        0
300

 93
        1
  6
Variable
 90
        4
  1
ViewType
  7
ACFD_FIELD_VALUE
 90
        0
 91
        0
301
----
 98
        4
  0
FIELD
  5
247
330
245
100
AcDbField
  1
AcVar
  2
\AcVar ViewSectionStartId
 90
        0
 97
        0
  4

 91
       63
 92
        0
 94
       43
 95
        2
 96
        0
300

 93
        1
  6
Variable
 90
        4
  1
ViewSectionStartId
  7
ACFD_FIELD_VALUE
 90
        0
 91
        0
301
----
 98
        4
  0
FIELD
  5
248
330
245
100
AcDbField
  1
AcVar
  2
\AcVar ViewSectionEndId
 90
        0
 97
        0
  4

 91
       63
 92
        0
 94
       43
 95
        2
 96
        0
300

 93
        1
  6
Variable
 90
        4
  1
ViewSectionEndId
  7
ACFD_FIELD_VALUE
 90
        0
 91
        0
301
----
 98
        4
  0
FIELD
  5
24F
330
24E
100
AcDbField
  1
AcVar
  2
\AcVar ViewSectionStartId
 90
        0
 97
        0
  4

 91
       63
 92
        0
 94
       43
 95
        2
 96
        0
300

 93
        1
  6
Variable
 90
        4
  1
ViewSectionStartId
  7
ACFD_FIELD_VALUE
 90
        0
 91
        0
301
----
 98
        4
  0
FIELD
  5
250
330
24E
100
AcDbField
  1
AcVar
  2
\AcVar ViewSectionEndId
 90
        0
 97
        0
  4

 91
       63
 92
        0
 94
       43
 95
        2
 96
        0
300

 93
        1
  6
Variable
 90
        4
  1
ViewSectionEndId
  7
ACFD_FIELD_VALUE
 90
        0
 91
        0
301
----
 98
        4
  0
ENDSEC
  0
EOF
