  0
SECTION
  2
HEADER
  9
$ACADVER
  1
AC1018
  9
$ACADMAINTVER
 70
    76
  9
$DWGCODEPAGE
  3
ANSI_1252
  9
$LASTSAVEDBY
  1
Schatterny
  9
$INSBASE
 10
0.0
 20
0.0
 30
0.0
  9
$EXTMIN
 10
1575.098628128853
 20
-2671.263596764759
 30
-275.1079800331245
  9
$EXTMAX
 10
5151.65252142926
 20
-149.0619584374799
 30
1100.021571507544
  9
$LIMMIN
 10
0.0
 20
0.0
  9
$LIMMAX
 10
420.0
 20
297.0
  9
$ORTHOMODE
 70
     1
  9
$REGENMODE
 70
     1
  9
$FILLMODE
 70
     1
  9
$QTEXTMODE
 70
     0
  9
$MIRRTEXT
 70
     1
  9
$LTSCALE
 40
1.0
  9
$ATTMODE
 70
     1
  9
$TEXTSIZE
 40
2.5
  9
$TRACEWID
 40
1.0
  9
$TEXTSTYLE
  7
Standard
  9
$CLAYER
  8
-TEXT3
  9
$CELTYPE
  6
ByLayer
  9
$CECOLOR
 62
   256
  9
$CELTSCALE
 40
1.0
  9
$DISPSILH
 70
     0
  9
$DIMSCALE
 40
3.5
  9
$DIMASZ
 40
8.0
  9
$DIMEXO
 40
3.0
  9
$DIMDLI
 40
10.0
  9
$DIMRND
 40
0.0
  9
$DIMDLE
 40
0.0
  9
$DIMEXE
 40
1.0
  9
$DIMTP
 40
0.0
  9
$DIMTM
 40
0.5
  9
$DIMTXT
 40
8.0
  9
$DIMCEN
 40
0.09
  9
$DIMTSZ
 40
0.0
  9
$DIMTOL
 70
     0
  9
$DIMLIM
 70
     0
  9
$DIMTIH
 70
     0
  9
$DIMTOH
 70
     0
  9
$DIMSE1
 70
     0
  9
$DIMSE2
 70
     0
  9
$DIMTAD
 70
     1
  9
$DIMZIN
 70
     9
  9
$DIMBLK
  1

  9
$DIMASO
 70
     1
  9
$DIMSHO
 70
     1
  9
$DIMPOST
  1

  9
$DIMAPOST
  1

  9
$DIMALT
 70
     0
  9
$DIMALTD
 70
     2
  9
$DIMALTF
 40
25.4
  9
$DIMLFAC
 40
1.0
  9
$DIMTOFL
 70
     1
  9
$DIMTVP
 40
0.0
  9
$DIMTIX
 70
     0
  9
$DIMSOXD
 70
     0
  9
$DIMSAH
 70
     0
  9
$DIMBLK1
  1

  9
$DIMBLK2
  1

  9
$DIMSTYLE
  2
Kopie von 1-1
  9
$DIMCLRD
 70
   256
  9
$DIMCLRE
 70
   256
  9
$DIMCLRT
 70
   256
  9
$DIMTFAC
 40
0.75
  9
$DIMGAP
 40
3.0
  9
$DIMJUST
 70
     0
  9
$DIMSD1
 70
     0
  9
$DIMSD2
 70
     0
  9
$DIMTOLJ
 70
     0
  9
$DIMTZIN
 70
     0
  9
$DIMALTZ
 70
     0
  9
$DIMALTTZ
 70
     0
  9
$DIMUPT
 70
     0
  9
$DIMDEC
 70
     0
  9
$DIMTDEC
 70
     0
  9
$DIMALTU
 70
     2
  9
$DIMALTTD
 70
     2
  9
$DIMTXSTY
  7
Standard
  9
$DIMAUNIT
 70
     0
  9
$DIMADEC
 70
     0
  9
$DIMALTRND
 40
0.0
  9
$DIMAZIN
 70
     0
  9
$DIMDSEP
 70
    46
  9
$DIMATFIT
 70
     3
  9
$DIMFRAC
 70
     0
  9
$DIMLDRBLK
  1

  9
$DIMLUNIT
 70
     2
  9
$DIMLWD
 70
    -2
  9
$DIMLWE
 70
    -2
  9
$DIMTMOVE
 70
     0
  9
$LUNITS
 70
     2
  9
$LUPREC
 70
     4
  9
$SKETCHINC
 40
1.0
  9
$FILLETRAD
 40
0.0
  9
$AUNITS
 70
     0
  9
$AUPREC
 70
     0
  9
$MENU
  1
.
  9
$ELEVATION
 40
0.0
  9
$PELEVATION
 40
0.0
  9
$THICKNESS
 40
0.0
  9
$LIMCHECK
 70
     0
  9
$CHAMFERA
 40
10.0
  9
$CHAMFERB
 40
10.0
  9
$CHAMFERC
 40
20.0
  9
$CHAMFERD
 40
0.0
  9
$SKPOLY
 70
     0
  9
$TDCREATE
 40
2455581.417946968
  9
$TDUCREATE
 40
2455581.376280301
  9
$TDUPDATE
 40
2457696.677237245
  9
$TDUUPDATE
 40
2457696.635570579
  9
$TDINDWG
 40
9.1053763426
  9
$TDUSRTIMER
 40
9.1053763426
  9
$USRTIMER
 70
     1
  9
$ANGBASE
 50
0.0
  9
$ANGDIR
 70
     0
  9
$PDMODE
 70
     0
  9
$PDSIZE
 40
0.0
  9
$PLINEWID
 40
0.0
  9
$SPLFRAME
 70
     0
  9
$SPLINETYPE
 70
     6
  9
$SPLINESEGS
 70
     8
  9
$HANDSEED
  5
19651
  9
$SURFTAB1
 70
     6
  9
$SURFTAB2
 70
     6
  9
$SURFTYPE
 70
     6
  9
$SURFU
 70
     6
  9
$SURFV
 70
     6
  9
$UCSBASE
  2

  9
$UCSNAME
  2

  9
$UCSORG
 10
0.0
 20
0.0
 30
0.0
  9
$UCSXDIR
 10
1.0
 20
0.0
 30
0.0
  9
$UCSYDIR
 10
0.0
 20
1.0
 30
0.0
  9
$UCSORTHOREF
  2

  9
$UCSORTHOVIEW
 70
     0
  9
$UCSORGTOP
 10
0.0
 20
0.0
 30
0.0
  9
$UCSORGBOTTOM
 10
0.0
 20
0.0
 30
0.0
  9
$UCSORGLEFT
 10
0.0
 20
0.0
 30
0.0
  9
$UCSORGRIGHT
 10
0.0
 20
0.0
 30
0.0
  9
$UCSORGFRONT
 10
0.0
 20
0.0
 30
0.0
  9
$UCSORGBACK
 10
0.0
 20
0.0
 30
0.0
  9
$PUCSBASE
  2

  9
$PUCSNAME
  2

  9
$PUCSORG
 10
0.0
 20
0.0
 30
0.0
  9
$PUCSXDIR
 10
1.0
 20
0.0
 30
0.0
  9
$PUCSYDIR
 10
0.0
 20
1.0
 30
0.0
  9
$PUCSORTHOREF
  2

  9
$PUCSORTHOVIEW
 70
     0
  9
$PUCSORGTOP
 10
0.0
 20
0.0
 30
0.0
  9
$PUCSORGBOTTOM
 10
0.0
 20
0.0
 30
0.0
  9
$PUCSORGLEFT
 10
0.0
 20
0.0
 30
0.0
  9
$PUCSORGRIGHT
 10
0.0
 20
0.0
 30
0.0
  9
$PUCSORGFRONT
 10
0.0
 20
0.0
 30
0.0
  9
$PUCSORGBACK
 10
0.0
 20
0.0
 30
0.0
  9
$USERI1
 70
     0
  9
$USERI2
 70
     0
  9
$USERI3
 70
     0
  9
$USERI4
 70
     0
  9
$USERI5
 70
     0
  9
$USERR1
 40
0.0
  9
$USERR2
 40
0.0
  9
$USERR3
 40
0.0
  9
$USERR4
 40
0.0
  9
$USERR5
 40
0.0
  9
$WORLDVIEW
 70
     0
  9
$SHADEDGE
 70
     3
  9
$SHADEDIF
 70
    70
  9
$TILEMODE
 70
     1
  9
$MAXACTVP
 70
    64
  9
$PINSBASE
 10
0.0
 20
0.0
 30
0.0
  9
$PLIMCHECK
 70
     0
  9
$PEXTMIN
 10
0.0
 20
0.0
 30
0.0
  9
$PEXTMAX
 10
420.0
 20
297.0
 30
0.0
  9
$PLIMMIN
 10
0.0
 20
0.0
  9
$PLIMMAX
 10
420.0
 20
297.0
  9
$UNITMODE
 70
     0
  9
$VISRETAIN
 70
     1
  9
$PLINEGEN
 70
     0
  9
$PSLTSCALE
 70
     1
  9
$TREEDEPTH
 70
  3020
  9
$CMLSTYLE
  2
Standard
  9
$CMLJUST
 70
     0
  9
$CMLSCALE
 40
20.0
  9
$PROXYGRAPHICS
 70
     1
  9
$MEASUREMENT
 70
     1
  9
$CELWEIGHT
370
    -1
  9
$ENDCAPS
280
     0
  9
$JOINSTYLE
280
     0
  9
$LWDISPLAY
290
     0
  9
$INSUNITS
 70
     4
  9
$HYPERLINKBASE
  1

  9
$STYLESHEET
  1
brüstung.ctb
  9
$XEDIT
290
     1
  9
$CEPSNTYPE
380
     0
  9
$PSTYLEMODE
290
     1
  9
$FINGERPRINTGUID
  2
{B2DF4339-73A4-4EEF-B482-1DB72221CEAF}
  9
$VERSIONGUID
  2
{42B10929-AA60-43CF-AFA1-684073C5B867}
  9
$EXTNAMES
290
     1
  9
$PSVPSCALE
 40
0.0
  9
$OLESTARTUP
290
     0
  9
$SORTENTS
280
   127
  9
$INDEXCTL
280
     0
  9
$HIDETEXT
280
     0
  9
$XCLIPFRAME
290
     0
  9
$HALOGAP
280
     0
  9
$OBSCOLOR
 70
   257
  9
$OBSLTYPE
280
     0
  9
$INTERSECTIONDISPLAY
280
     0
  9
$INTERSECTIONCOLOR
 70
   257
  9
$DIMASSOC
280
     1
  9
$PROJECTNAME
  1

  0
ENDSEC
  0
SECTION
  2
CLASSES
  0
CLASS
  1
ACDBDICTIONARYWDFLT
  2
AcDbDictionaryWithDefault
  3
ObjectDBX Classes
 90
        0
 91
        1
280
     0
281
     0
  0
CLASS
  1
VISUALSTYLE
  2
AcDbVisualStyle
  3
ObjectDBX Classes
 90
     4095
 91
       16
280
     0
281
     0
  0
CLASS
  1
SCALE
  2
AcDbScale
  3
ObjectDBX Classes
 90
     1153
 91
       33
280
     0
281
     0
  0
CLASS
  1
DICTIONARYVAR
  2
AcDbDictionaryVar
  3
ObjectDBX Classes
 90
        0
 91
        9
280
     0
281
     0
  0
CLASS
  1
ACDBPLACEHOLDER
  2
AcDbPlaceHolder
  3
ObjectDBX Classes
 90
        0
 91
        1
280
     0
281
     0
  0
CLASS
  1
LAYOUT
  2
AcDbLayout
  3
ObjectDBX Classes
 90
        0
 91
        2
280
     0
281
     0
  0
CLASS
  1
MATERIAL
  2
AcDbMaterial
  3
ObjectDBX Classes
 90
        0
 91
        3
280
     0
281
     0
  0
CLASS
  1
TABLESTYLE
  2
AcDbTableStyle
  3
ObjectDBX Classes
 90
     2047
 91
        1
280
     0
281
     0
  0
CLASS
  1
MLEADERSTYLE
  2
AcDbMLeaderStyle
  3
ACDB_MLEADERSTYLE_CLASS
 90
     4095
 91
        1
280
     0
281
     0
  0
CLASS
  1
Ks_BoltStyle
  2
Ks_BoltStyle
  3
Pro_Stahl_3d
 90
        0
 91
       31
280
     0
281
     0
  0
CLASS
  1
Ks_WeldStyle
  2
Ks_WeldStyle
  3
Pro_Stahl_3d
 90
        0
 91
       18
280
     0
281
     0
  0
CLASS
  1
Ks_KoteflagStyle
  2
Ks_KoteflagStyle
  3
Pro_Stahl_3d
 90
        0
 91
        2
280
     0
281
     0
  0
CLASS
  1
Ks_PosflagStyle
  2
Ks_PosflagStyle
  3
Pro_Stahl_3d
 90
        0
 91
       15
280
     0
281
     0
  0
CLASS
  1
CELLSTYLEMAP
  2
AcDbCellStyleMap
  3
ObjectDBX Classes
 90
     1152
 91
        1
280
     0
281
     0
  0
CLASS
  1
SORTENTSTABLE
  2
AcDbSortentsTable
  3
ObjectDBX Classes
 90
        0
 91
        2
280
     0
281
     0
  0
CLASS
  1
AEC_REFEDIT_STATUS_TRACKER
  2
AecDbRefEditStatusTracker
  3
AecArchBase50|Product Desc: Autodesk Architectural Desktop 2007 |Company: Autodesk,Inc. |WEB Address: www.autodesk.com
 90
      129
 91
        0
280
     0
281
     0
  0
CLASS
  1
NPOCOLLECTION
  2
AcDbImpNonPersistentObjectsCollection
  3
ObjectDBX Classes
 90
     1153
 91
        0
280
     0
281
     0
  0
CLASS
  1
IMAGE
  2
AcDbRasterImage
  3
ISM
 90
      127
 91
        9
280
     0
281
     1
  0
CLASS
  1
IMAGEDEF_REACTOR
  2
AcDbRasterImageDefReactor
  3
ISM
 90
        1
 91
        9
280
     0
281
     0
  0
CLASS
  1
IMAGEDEF
  2
AcDbRasterImageDef
  3
ISM
 90
        0
 91
        1
280
     0
281
     0
  0
CLASS
  1
RASTERVARIABLES
  2
AcDbRasterVariables
  3
ISM
 90
        0
 91
        1
280
     0
281
     0
  0
ENDSEC
  0
SECTION
  2
TABLES
  0
TABLE
  2
VPORT
  5
8
102
{ACAD_XDICTIONARY
360
526
102
}
330
0
100
AcDbSymbolTable
 70
     6
  0
VPORT
  5
19650
330
8
100
AcDbSymbolTableRecord
100
AcDbViewportTableRecord
  2
*Active
 70
     0
 10
0.0
 20
0.0
 11
1.0
 21
1.0
 12
3363.375574779057
 22
-1410.162777601119
 13
0.0
 23
0.0
 14
10.0
 24
10.0
 15
10.0
 25
10.0
 16
0.0
 26
0.0
 36
1.0
 17
0.0
 27
0.0
 37
0.0
 40
2540.303563961206
 41
1.893413173652694
 42
50.0
 43
0.0
 44
0.0
 50
0.0
 51
0.0
 71
     0
 72
   100
 73
     1
 74
     3
 75
     0
 76
     0
 77
     0
 78
     0
281
     0
 65
     1
110
0.0
120
0.0
130
0.0
111
1.0
121
0.0
131
0.0
112
0.0
122
1.0
132
0.0
 79
     0
146
0.0
  0
ENDTAB
  0
TABLE
  2
LTYPE
  5
5
330
0
100
AcDbSymbolTable
 70
     4
  0
LTYPE
  5
14
330
5
100
AcDbSymbolTableRecord
100
AcDbLinetypeTableRecord
  2
ByBlock
 70
     0
  3

 72
    65
 73
     0
 40
0.0
  0
LTYPE
  5
15
330
5
100
AcDbSymbolTableRecord
100
AcDbLinetypeTableRecord
  2
ByLayer
 70
     0
  3

 72
    65
 73
     0
 40
0.0
  0
LTYPE
  5
16
330
5
100
AcDbSymbolTableRecord
100
AcDbLinetypeTableRecord
  2
Continuous
 70
     0
  3
Solid line
 72
    65
 73
     0
 40
0.0
  0
LTYPE
  5
63F7
330
5
100
AcDbSymbolTableRecord
100
AcDbLinetypeTableRecord
  2
STRICHLINIEX2
 70
     0
  3
Strichlinie (2x) ____  ____  ____  ____  ____  
 72
    65
 73
     2
 40
1.5
 49
1.0
 74
     0
 49
-0.5
 74
     0
  0
LTYPE
  5
63F8
330
5
100
AcDbSymbolTableRecord
100
AcDbLinetypeTableRecord
  2
MITTEX2
 70
     0
  3
Mitte (2x) ________  __  ________  __  _____
 72
    65
 73
     4
 40
4.0
 49
2.5
 74
     0
 49
-0.5
 74
     0
 49
0.5
 74
     0
 49
-0.5
 74
     0
  0
LTYPE
  5
17971
330
5
100
AcDbSymbolTableRecord
100
AcDbLinetypeTableRecord
  2
AUSGEZOGEN
 70
     0
  3
AUSGEZOGEN
 72
    65
 73
     2
 40
2.0
 49
1.0
 74
     0
 49
1.0
 74
     0
  0
ENDTAB
  0
TABLE
  2
LAYER
  5
2
102
{ACAD_XDICTIONARY
360
7C6
102
}
330
0
100
AcDbSymbolTable
 70
    14
  0
LAYER
  5
10
102
{ACAD_XDICTIONARY
360
4F0
102
}
330
2
100
AcDbSymbolTableRecord
100
AcDbLayerTableRecord
  2
0
 70
     0
 62
     7
  6
Continuous
370
    -3
390
F
  0
LAYER
  5
74
102
{ACAD_XDICTIONARY
360
4F6
102
}
330
2
100
AcDbSymbolTableRecord
100
AcDbLayerTableRecord
  2
SR24972
 70
     0
 62
     7
  6
Continuous
370
    -3
390
F
  0
LAYER
  5
7BC
330
2
100
AcDbSymbolTableRecord
100
AcDbLayerTableRecord
  2
Defpoints
 70
     0
 62
     7
  6
Continuous
290
     0
370
    -3
390
F
  0
LAYER
  5
14EC
330
2
100
AcDbSymbolTableRecord
100
AcDbLayerTableRecord
  2
-TEXT3
 70
     0
 62
     2
  6
Continuous
370
    -3
390
F
  0
LAYER
  5
63FA
330
2
100
AcDbSymbolTableRecord
100
AcDbLayerTableRecord
  2
-TEXT2
 70
     0
 62
     3
  6
Continuous
370
    -3
390
F
  0
LAYER
  5
63FB
330
2
100
AcDbSymbolTableRecord
100
AcDbLayerTableRecord
  2
-SYSTEM
 70
     0
 62
     2
  6
MITTEX2
370
    -3
390
F
  0
LAYER
  5
63FC
330
2
100
AcDbSymbolTableRecord
100
AcDbLayerTableRecord
  2
-NORMTEIL_VERDECKT
 70
     0
 62
     9
  6
STRICHLINIEX2
370
    -3
390
F
  0
LAYER
  5
63FE
330
2
100
AcDbSymbolTableRecord
100
AcDbLayerTableRecord
  2
-GLAS
 70
     0
 62
     1
  6
Continuous
370
    -3
390
F
  0
LAYER
  5
6400
102
{ACAD_XDICTIONARY
360
6401
102
}
330
2
100
AcDbSymbolTableRecord
100
AcDbLayerTableRecord
  2
BALARDO-Profil
 70
     0
 62
     4
  6
Continuous
370
    18
390
F
  0
LAYER
  5
6409
330
2
100
AcDbSymbolTableRecord
100
AcDbLayerTableRecord
  2
-DICHTUNG
 70
     0
 62
     3
  6
Continuous
370
    -3
390
F
1001
AVE_FINISH
1002
{
1070
     0
1005
0
1002
}
  0
LAYER
  5
640C
330
2
100
AcDbSymbolTableRecord
100
AcDbLayerTableRecord
  2
--KLEMMSCHUH
 70
     0
 62
    40
  6
Continuous
370
    -3
390
F
  0
LAYER
  5
17972
330
2
100
AcDbSymbolTableRecord
100
AcDbLayerTableRecord
  2
-TEXT
 70
     0
 62
     7
  6
AUSGEZOGEN
370
    -3
390
F
  0
LAYER
  5
17973
330
2
100
AcDbSymbolTableRecord
100
AcDbLayerTableRecord
  2
-ZEICHNUNGSRAND-INNEN
 70
     0
 62
     7
  6
Continuous
370
    -3
390
F
  0
ENDTAB
  0
TABLE
  2
STYLE
  5
3
330
0
100
AcDbSymbolTable
 70
     3
  0
STYLE
  5
11
330
3
100
AcDbSymbolTableRecord
100
AcDbTextStyleTableRecord
  2
Standard
 70
     0
 40
0.0
 41
1.0
 50
0.0
 71
     0
 42
2.5
  3
ARIAL.TTF
  4

1001
ACAD
1000
Arial
1071
       34
  0
STYLE
  5
17974
330
3
100
AcDbSymbolTableRecord
100
AcDbTextStyleTableRecord
  2
LOGOCAD
 70
     0
 40
0.0
 41
1.0
 50
0.0
 71
     0
 42
3.5
  3
TXT8
  4

  0
ENDTAB
  0
TABLE
  2
VIEW
  5
6
330
0
100
AcDbSymbolTable
 70
     0
  0
ENDTAB
  0
TABLE
  2
UCS
  5
7
330
0
100
AcDbSymbolTable
 70
     0
  0
ENDTAB
  0
TABLE
  2
APPID
  5
9
330
0
100
AcDbSymbolTable
 70
    28
  0
APPID
  5
12
330
9
100
AcDbSymbolTableRecord
100
AcDbRegAppTableRecord
  2
ACAD
 70
     0
  0
APPID
  5
484
330
9
100
AcDbSymbolTableRecord
100
AcDbRegAppTableRecord
  2
ACAD_MLEADERVER
 70
     0
  0
APPID
  5
49E
330
9
100
AcDbSymbolTableRecord
100
AcDbRegAppTableRecord
  2
ProSteel3d_Bg
 70
     0
  0
APPID
  5
49F
330
9
100
AcDbSymbolTableRecord
100
AcDbRegAppTableRecord
  2
ProSteel3d_Sp
 70
     0
  0
APPID
  5
4A0
330
9
100
AcDbSymbolTableRecord
100
AcDbRegAppTableRecord
  2
ProSteel3d_DetDimEed
 70
     0
  0
APPID
  5
536
330
9
100
AcDbSymbolTableRecord
100
AcDbRegAppTableRecord
  2
ACAD_PSEXT
 70
     0
  0
APPID
  5
7C2
330
9
100
AcDbSymbolTableRecord
100
AcDbRegAppTableRecord
  2
ACAD_DSTYLE_DIMJAG
 70
     0
  0
APPID
  5
7C3
330
9
100
AcDbSymbolTableRecord
100
AcDbRegAppTableRecord
  2
ACAD_DSTYLE_DIMBREAK
 70
     0
  0
APPID
  5
7C4
330
9
100
AcDbSymbolTableRecord
100
AcDbRegAppTableRecord
  2
ACAD_DSTYLE_DIMTALN
 70
     0
  0
APPID
  5
7C5
330
9
100
AcDbSymbolTableRecord
100
AcDbRegAppTableRecord
  2
ACAD_DSTYLE_DIMRADIAL_EXTENSION
 70
     0
  0
APPID
  5
E07
330
9
100
AcDbSymbolTableRecord
100
AcDbRegAppTableRecord
  2
AcDbDynamicBlockGUID
 70
     0
  0
APPID
  5
E08
330
9
100
AcDbSymbolTableRecord
100
AcDbRegAppTableRecord
  2
AcDbBlockRepETag
 70
     0
  0
APPID
  5
131C
330
9
100
AcDbSymbolTableRecord
100
AcDbRegAppTableRecord
  2
ACAD_EXEMPT_FROM_CAD_STANDARDS
 70
     0
  0
APPID
  5
311D
330
9
100
AcDbSymbolTableRecord
100
AcDbRegAppTableRecord
  2
AcadAnnotative
 70
     0
  0
APPID
  5
311E
330
9
100
AcDbSymbolTableRecord
100
AcDbRegAppTableRecord
  2
AcAecLayerStandard
 70
     0
  0
APPID
  5
311F
330
9
100
AcDbSymbolTableRecord
100
AcDbRegAppTableRecord
  2
GENIUS_GENODEF_13
 70
     0
  0
APPID
  5
3120
330
9
100
AcDbSymbolTableRecord
100
AcDbRegAppTableRecord
  2
GENIUS_GENOBJ-N-CEN_13
 70
     0
  0
APPID
  5
3121
330
9
100
AcDbSymbolTableRecord
100
AcDbRegAppTableRecord
  2
GENIUS_GENCEN_19
 70
     0
  0
APPID
  5
640E
330
9
100
AcDbSymbolTableRecord
100
AcDbRegAppTableRecord
  2
AVE_FINISH
 70
     0
  0
APPID
  5
640F
330
9
100
AcDbSymbolTableRecord
100
AcDbRegAppTableRecord
  2
ACAD_DSTYLE_DIMEXT_LENGTH
 70
     0
  0
APPID
  5
6410
330
9
100
AcDbSymbolTableRecord
100
AcDbRegAppTableRecord
  2
ACAD_DSTYLE_DIMEXT_ENABLED
 70
     0
  0
APPID
  5
6411
330
9
100
AcDbSymbolTableRecord
100
AcDbRegAppTableRecord
  2
ACAD_DSTYLE_DIMJOGGED_JOGANGLE_SYMBOL
 70
     0
  0
APPID
  5
6412
330
9
100
AcDbSymbolTableRecord
100
AcDbRegAppTableRecord
  2
ACAD_DSTYLE_DIMARC_LENGTH_SYMBOL
 70
     0
  0
APPID
  5
6A34
330
9
100
AcDbSymbolTableRecord
100
AcDbRegAppTableRecord
  2
ACAD_DSTYLE_DIMTEXT_FILL
 70
     0
  0
APPID
  5
6A37
330
9
100
AcDbSymbolTableRecord
100
AcDbRegAppTableRecord
  2
ACAD_DSTYLE_DIM_LINETYPE
 70
     0
  0
APPID
  5
6A38
330
9
100
AcDbSymbolTableRecord
100
AcDbRegAppTableRecord
  2
ACAD_DSTYLE_DIM_EXT1_LINETYPE
 70
     0
  0
APPID
  5
6A39
330
9
100
AcDbSymbolTableRecord
100
AcDbRegAppTableRecord
  2
ACAD_DSTYLE_DIM_EXT2_LINETYPE
 70
     0
  0
APPID
  5
114A8
330
9
100
AcDbSymbolTableRecord
100
AcDbRegAppTableRecord
  2
DCO15
 70
     0
  0
ENDTAB
  0
TABLE
  2
DIMSTYLE
  5
A
330
0
100
AcDbSymbolTable
 70
     5
100
AcDbDimStyleTable
 71
     2
340
EC53
340
13A1B
  0
DIMSTYLE
105
3118
330
A
100
AcDbSymbolTableRecord
100
AcDbDimStyleTableRecord
  2
Standard
 70
     0
340
11
  0
DIMSTYLE
105
EC53
102
{ACAD_REACTORS
330
EA4A
330
EA3D
330
EA30
330
EA23
330
EA58
330
EA57
330
EA99
330
EA59
330
EA9B
330
EA9A
330
EADC
330
EADB
330
EADD
330
EDDB
330
EDEA
330
F4B1
330
F4B0
330
F4AE
330
141A4
102
}
330
A
100
AcDbSymbolTableRecord
100
AcDbDimStyleTableRecord
  2
Kopie von 1-1
 70
     0
 40
3.5
 41
8.0
 42
3.0
 43
10.0
 44
1.0
 48
0.5
 73
     0
 74
     0
 77
     1
 78
     9
140
8.0
146
0.75
147
3.0
172
     1
176
   256
177
   256
178
   256
271
     0
272
     0
283
     0
340
11
1001
ACAD_DSTYLE_DIMEXT_LENGTH
1070
   378
1040
1.0
1001
ACAD_DSTYLE_DIMEXT_ENABLED
1070
   383
1070
     0
1001
ACAD_DSTYLE_DIMARC_LENGTH_SYMBOL
1070
   379
1070
     0
1001
ACAD_DSTYLE_DIMJOGGED_JOGANGLE_SYMBOL
1070
   384
1040
0.7853981633974483
  0
DIMSTYLE
105
13A1B
102
{ACAD_REACTORS
330
F296
102
}
330
A
100
AcDbSymbolTableRecord
100
AcDbDimStyleTableRecord
  2
Kopie(2) von 1-1
 70
     0
 40
3.5
 41
8.0
 42
3.0
 43
10.0
 44
1.0
 47
3.0
 48
0.000000001
 71
     1
 73
     0
 74
     0
 77
     1
 78
     9
140
8.0
146
0.5
147
3.0
172
     1
176
   256
177
   256
178
   256
271
     1
272
     1
283
     0
340
11
1001
ACAD_DSTYLE_DIMEXT_LENGTH
1070
   378
1040
1.0
1001
ACAD_DSTYLE_DIMEXT_ENABLED
1070
   383
1070
     0
1001
ACAD_DSTYLE_DIMARC_LENGTH_SYMBOL
1070
   379
1070
     0
1001
ACAD_DSTYLE_DIMJOGGED_JOGANGLE_SYMBOL
1070
   384
1040
0.7853981633974483
  0
ENDTAB
  0
TABLE
  2
BLOCK_RECORD
  5
1
330
0
100
AcDbSymbolTable
 70
   358
  0
BLOCK_RECORD
  5
1F
102
{ACAD_XDICTIONARY
360
1324
102
}
330
1
100
AcDbSymbolTableRecord
100
AcDbBlockTableRecord
  2
*Model_Space
340
22
  0
BLOCK_RECORD
  5
1B
330
1
100
AcDbSymbolTableRecord
100
AcDbBlockTableRecord
  2
*Paper_Space
340
1E
  0
BLOCK_RECORD
  5
D3BE
330
1
100
AcDbSymbolTableRecord
100
AcDbBlockTableRecord
  2
Innendichtung 04
340
0
310
2800000020000000200000000100080000000000000400000000000000000000000000000000000000000000000080000080000000808000800000008000800080800000C0C0C000C0DCC000F0CAA6000020400000206000002080000020A0000020C0000020E00000400000004020000040400000406000004080000040A0
310
000040C0000040E00000600000006020000060400000606000006080000060A0000060C0000060E00000800000008020000080400000806000008080000080A0000080C0000080E00000A0000000A0200000A0400000A0600000A0800000A0A00000A0C00000A0E00000C0000000C0200000C0400000C0600000C0800000C0
310
A00000C0C00000C0E00000E0000000E0200000E0400000E0600000E0800000E0A00000E0C00000E0E00040000000400020004000400040006000400080004000A0004000C0004000E00040200000402020004020400040206000402080004020A0004020C0004020E000404000004040200040404000404060004040800040
310
40A0004040C0004040E00040600000406020004060400040606000406080004060A0004060C0004060E00040800000408020004080400040806000408080004080A0004080C0004080E00040A0000040A0200040A0400040A0600040A0800040A0A00040A0C00040A0E00040C0000040C0200040C0400040C0600040C08000
310
40C0A00040C0C00040C0E00040E0000040E0200040E0400040E0600040E0800040E0A00040E0C00040E0E00080000000800020008000400080006000800080008000A0008000C0008000E00080200000802020008020400080206000802080008020A0008020C0008020E00080400000804020008040400080406000804080
310
008040A0008040C0008040E00080600000806020008060400080606000806080008060A0008060C0008060E00080800000808020008080400080806000808080008080A0008080C0008080E00080A0000080A0200080A0400080A0600080A0800080A0A00080A0C00080A0E00080C0000080C0200080C0400080C0600080C0
310
800080C0A00080C0C00080C0E00080E0000080E0200080E0400080E0600080E0800080E0A00080E0C00080E0E000C0000000C0002000C0004000C0006000C0008000C000A000C000C000C000E000C0200000C0202000C0204000C0206000C0208000C020A000C020C000C020E000C0400000C0402000C0404000C0406000C0
310
408000C040A000C040C000C040E000C0600000C0602000C0604000C0606000C0608000C060A000C060C000C060E000C0800000C0802000C0804000C0806000C0808000C080A000C080C000C080E000C0A00000C0A02000C0A04000C0A06000C0A08000C0A0A000C0A0C000C0A0E000C0C00000C0C02000C0C04000C0C06000
310
C0C08000C0C0A000F0FBFF00A4A0A000808080000000FF0000FF000000FFFF00FF000000FF00FF00FFFF0000FFFFFF0000000000000000000000000000000000000000000000000000000000000000000000000000000000000000000000000000000000000000000000000000000000000000000000000000000000000000
310
0000000000000000000000000000000000000000000000000000000000000000FAFAFA00000000000000000000000000000000000000000000000000000000FA000000FAFAFAFA0000000000000000000000000000000000000000000000FA000000000000FAFA000000000000000000000000000000000000000000FAFA00
310
0000000000FA0000000000000000000000000000FAFA000000000000FA0000000000000000FA000000000000000000000000000000FAFAFAFA0000FA00000000000000000000FA0000000000000000000000000000FA000000FAFA0000000000000000000000FA000000000000000000000000000000FA0000000000000000
310
0000000000000000FA0000000000000000000000000000FA00000000000000000000000000000000FA0000000000000000000000000000FA0000000000000000000000000000000000FA0000000000000000000000000000FA00000000000000000000000000000000FA0000000000000000000000000000FA000000000000
310
0000000000000000000000FA000000000000000000000000FAFA0000000000000000000000000000000000FA000000000000000000FAFAFA00000000000000000000000000000000000000000000000000FA00000000FAFAFAFAFA000000000000000000000000000000000000000000FAFA0000000000000000FA00000000
310
000000000000000000000000000000FAFA00000000000000000000FA00000000000000000000000000000000FAFAFA00000000000000000000000000FA00000000000000000000000000FAFA000000000000000000000000000000FAFA00000000000000000000FAFAFA00000000000000000000000000000000FA00000000
310
000000000000FAFA000000000000000000000000000000000000FA000000000000000000FAFA0000000000000000000000000000000000000000FA000000000000FAFAFA000000000000000000000000000000000000000000FA0000000000FAFA0000000000000000000000000000000000000000000000FA000000FAFAFA
310
00000000000000000000000000000000000000000000000000FA00FAFA00000000000000000000000000000000000000000000000000000000FAFA0000000000000000000000000000000000000000000000000000000000000000000000000000000000000000000000000000000000000000000000000000000000000000
310
0000000000000000000000000000000000000000000000000000000000000000000000000000000000000000000000000000000000000000
102
{BLKREFS
331
F4B9
331
189C3
102
}
1001
ACAD
1000
DesignCenter Data
1002
{
1070
     1
1070
     4
1002
}
  0
BLOCK_RECORD
  5
EA24
330
1
100
AcDbSymbolTableRecord
100
AcDbBlockTableRecord
  2
*D1
340
0
  0
BLOCK_RECORD
  5
EA31
330
1
100
AcDbSymbolTableRecord
100
AcDbBlockTableRecord
  2
*D2
340
0
  0
BLOCK_RECORD
  5
EA3E
330
1
100
AcDbSymbolTableRecord
100
AcDbBlockTableRecord
  2
*D3
340
0
  0
BLOCK_RECORD
  5
EA4B
330
1
100
AcDbSymbolTableRecord
100
AcDbBlockTableRecord
  2
*D4
340
0
  0
BLOCK_RECORD
  5
EA5A
330
1
100
AcDbSymbolTableRecord
100
AcDbBlockTableRecord
  2
*D5
340
0
  0
BLOCK_RECORD
  5
EA66
330
1
100
AcDbSymbolTableRecord
100
AcDbBlockTableRecord
  2
*D6
340
0
  0
BLOCK_RECORD
  5
EA72
330
1
100
AcDbSymbolTableRecord
100
AcDbBlockTableRecord
  2
*D7
340
0
  0
BLOCK_RECORD
  5
EA9C
330
1
100
AcDbSymbolTableRecord
100
AcDbBlockTableRecord
  2
*D8
340
0
  0
BLOCK_RECORD
  5
EAA8
330
1
100
AcDbSymbolTableRecord
100
AcDbBlockTableRecord
  2
*D9
340
0
  0
BLOCK_RECORD
  5
EAB4
330
1
100
AcDbSymbolTableRecord
100
AcDbBlockTableRecord
  2
*D10
340
0
  0
BLOCK_RECORD
  5
EADE
330
1
100
AcDbSymbolTableRecord
100
AcDbBlockTableRecord
  2
*D11
340
0
  0
BLOCK_RECORD
  5
EAEA
330
1
100
AcDbSymbolTableRecord
100
AcDbBlockTableRecord
  2
*D12
340
0
  0
BLOCK_RECORD
  5
EAF6
330
1
100
AcDbSymbolTableRecord
100
AcDbBlockTableRecord
  2
*D13
340
0
  0
BLOCK_RECORD
  5
EDDC
330
1
100
AcDbSymbolTableRecord
100
AcDbBlockTableRecord
  2
*D14
340
0
  0
BLOCK_RECORD
  5
EDEB
330
1
100
AcDbSymbolTableRecord
100
AcDbBlockTableRecord
  2
*D15
340
0
  0
BLOCK_RECORD
  5
F297
330
1
100
AcDbSymbolTableRecord
100
AcDbBlockTableRecord
  2
*D16
340
0
  0
BLOCK_RECORD
  5
F4BF
330
1
100
AcDbSymbolTableRecord
100
AcDbBlockTableRecord
  2
*D17
340
0
  0
BLOCK_RECORD
  5
F4D9
330
1
100
AcDbSymbolTableRecord
100
AcDbBlockTableRecord
  2
*D18
340
0
  0
BLOCK_RECORD
  5
F4E5
330
1
100
AcDbSymbolTableRecord
100
AcDbBlockTableRecord
  2
*D19
340
0
  0
BLOCK_RECORD
  5
141A5
330
1
100
AcDbSymbolTableRecord
100
AcDbBlockTableRecord
  2
*D128
340
0
  0
ENDTAB
  0
ENDSEC
  0
SECTION
  2
BLOCKS
  0
BLOCK
  5
20
330
1F
100
AcDbEntity
  8
0
100
AcDbBlockBegin
  2
*Model_Space
 70
     0
 10
0.0
 20
0.0
 30
0.0
  3
*Model_Space
  1

  0
ENDBLK
  5
21
330
1F
100
AcDbEntity
  8
0
100
AcDbBlockEnd
  0
BLOCK
  5
1C
330
1B
100
AcDbEntity
 67
     1
  8
0
100
AcDbBlockBegin
  2
*Paper_Space
 70
     0
 10
0.0
 20
0.0
 30
0.0
  3
*Paper_Space
  1

  0
ENDBLK
  5
1D
330
1B
100
AcDbEntity
 67
     1
  8
0
100
AcDbBlockEnd
  0
BLOCK
  5
D3BF
330
D3BE
100
AcDbEntity
  8
0
100
AcDbBlockBegin
  2
Innendichtung 04
 70
     0
 10
0.0
 20
0.0
 30
0.0
  3
Innendichtung 04
  1

  0
LWPOLYLINE
  5
D3C1
330
D3BE
100
AcDbEntity
  8
-DICHTUNG
  6
Continuous
100
AcDbPolyline
 90
        6
 70
     0
 43
0.0
 38
-275.000137499999
 10
-9.782797480916542
 20
-0.3322568619942103
 10
-11.26770985777102
 20
-0.0787982494048265
 42
-0.5724208788922952
 10
-10.91415272524818
 20
0.40095743427446
 10
-9.618616788475719
 20
0.3582503068791993
 42
0.2887962013780596
 10
-9.346205686936173
 20
0.5714922485203715
 10
-9.109650853949915
 20
1.922367023295009
  0
ARC
  5
D3C2
330
D3BE
100
AcDbEntity
  8
-DICHTUNG
  6
Continuous
100
AcDbCircle
 10
9.307742428500205
 20
1.894803857791885
 30
-825.0004124999971
 40
0.2000000000014688
210
0.0
220
0.0
230
-1.0
100
AcDbArc
 50
107.0540072894333
 51
172.0785227537071
  0
ARC
  5
D3C3
330
D3BE
100
AcDbEntity
  8
-DICHTUNG
  6
Continuous
100
AcDbCircle
 10
8.424008996805696
 20
4.802447305934038
 30
-1100.000549999996
 40
2.838976727562089
210
0.0
220
0.0
230
-1.0
100
AcDbArc
 50
286.8954033301625
 51
348.2166886860034
  0
ARC
  5
D3C4
330
D3BE
100
AcDbEntity
  8
-DICHTUNG
  6
Continuous
100
AcDbCircle
 10
0.0726391652988241
 20
0.1836214982563433
 30
0.0
 40
0.1693971972261249
100
AcDbArc
 50
258.7901591599124
 51
66.02510059312111
  0
LINE
  5
D3C5
330
D3BE
100
AcDbEntity
  8
-DICHTUNG
  6
Continuous
100
AcDbLine
 10
-2.359996167860117
 20
-0.5000002499991752
 30
0.0
 11
-3.964950671138012
 21
-4.333310239860111
 31
0.0
  0
ARC
  5
D3C6
330
D3BE
100
AcDbEntity
  8
-DICHTUNG
  6
Continuous
100
AcDbCircle
 10
-3.764950671137285
 20
-4.333310239860111
 30
0.0
 40
0.2000000000007276
100
AcDbArc
 50
180.0
 51
269.9999999997394
  0
LINE
  5
D3C7
330
D3BE
100
AcDbEntity
  8
-DICHTUNG
  6
Continuous
100
AcDbLine
 10
-3.764950671138194
 20
-4.533310239860838
 30
0.0
 11
-3.419389612701706
 21
-4.519214562625165
 31
0.0
  0
ARC
  5
D3C8
330
D3BE
100
AcDbEntity
  8
-DICHTUNG
  6
Continuous
100
AcDbCircle
 10
-3.419389612703525
 20
-4.719214562625893
 30
0.0
 40
0.2000000000007276
100
AcDbArc
 50
17.89785793150524
 51
89.9999999994789
  0
ARC
  5
D3C9
330
D3BE
100
AcDbEntity
  8
-DICHTUNG
  6
Continuous
100
AcDbCircle
 10
-3.419389612708073
 20
-4.71921456263044
 30
0.0
 40
0.2000000000008675
100
AcDbArc
 50
311.5558467490785
 51
318.4896507934926
  0
LINE
  5
D3CA
330
D3BE
100
AcDbEntity
  8
-DICHTUNG
  6
Continuous
100
AcDbLine
 10
-3.286719663166877
 20
-4.868876463223386
 30
0.0
 11
-5.546221736508869
 21
-5.33061780236585
 31
0.0
  0
LWPOLYLINE
  5
D3CB
330
D3BE
100
AcDbEntity
  8
-DICHTUNG
  6
Continuous
100
AcDbPolyline
 90
        6
 70
     0
 43
0.0
 10
-5.546221736508869
 20
-5.33061780236585
 42
0.2777619530324257
 10
-8.676532078817672
 20
-2.907080014434995
 10
-10.99418074900814
 20
-3.927700595550049
 42
-0.8794022829753497
 10
-11.23387881641747
 20
-3.611581672007559
 10
-10.11104970335646
 20
-2.305264344056467
 42
0.5165878794320993
 10
-9.782797480916542
 20
-0.3322568619942103
  0
ARC
  5
D3CC
330
D3BE
100
AcDbEntity
  8
-DICHTUNG
  6
Continuous
100
AcDbCircle
 10
-10.96892129913021
 20
4.454521434518028
 30
-275.000137499999
 40
0.3295604547601254
100
AcDbArc
 50
89.71781063377243
 51
224.7032083598759
  0
ARC
  5
D3CD
330
D3BE
100
AcDbEntity
  8
-DICHTUNG
  6
Continuous
100
AcDbCircle
 10
-10.96892129913021
 20
4.454521434517118
 30
-275.000137499999
 40
0.3295604547595057
100
AcDbArc
 50
89.71781063340765
 51
224.7032083598759
  0
LINE
  5
D3CE
330
D3BE
100
AcDbEntity
  8
-DICHTUNG
100
AcDbLine
 10
-10.96729817643609
 20
4.784077892220466
 30
-275.000137499999
 11
0.1414714110246678
 21
0.3384037077521498
 31
0.0
  0
ENDBLK
  5
D3C0
330
D3BE
100
AcDbEntity
  8
0
100
AcDbBlockEnd
  0
BLOCK
  5
EA2E
330
EA24
100
AcDbEntity
  8
0
100
AcDbBlockBegin
  2
*D1
 70
     1
 10
0.0
 20
0.0
 30
0.0
  3
*D1
  1

  0
LINE
  5
141BE
330
EA24
100
AcDbEntity
  8
-TEXT3
370
    -2
100
AcDbLine
 10
2039.953472395471
 20
-1433.236383368637
 30
0.0
 11
2039.953472395471
 21
-1508.469385162824
 31
0.0
  0
LINE
  5
141BF
330
EA24
100
AcDbEntity
  8
-TEXT3
370
    -2
100
AcDbLine
 10
2164.953472395471
 20
-1439.736383368637
 30
0.0
 11
2164.953472395471
 21
-1508.469385162824
 31
0.0
  0
LINE
  5
141C0
330
EA24
100
AcDbEntity
  8
-TEXT3
370
    -2
100
AcDbLine
 10
2067.953472395471
 20
-1504.969385162824
 30
0.0
 11
2136.953472395471
 21
-1504.969385162824
 31
0.0
  0
SOLID
  5
141C1
330
EA24
100
AcDbEntity
  8
-TEXT3
100
AcDbTrace
 10
2067.953472395471
 20
-1500.302718496158
 30
0.0
 11
2067.953472395471
 21
-1509.636051829491
 31
0.0
 12
2039.953472395471
 22
-1504.969385162824
 32
0.0
 13
2039.953472395471
 23
-1504.969385162824
 33
0.0
  0
SOLID
  5
141C2
330
EA24
100
AcDbEntity
  8
-TEXT3
100
AcDbTrace
 10
2136.953472395471
 20
-1500.302718496158
 30
0.0
 11
2136.953472395471
 21
-1509.636051829491
 31
0.0
 12
2164.953472395471
 22
-1504.969385162824
 32
0.0
 13
2164.953472395471
 23
-1504.969385162824
 33
0.0
  0
MTEXT
  5
141C3
330
EA24
100
AcDbEntity
  8
-TEXT3
100
AcDbMText
 10
2102.453472395471
 20
-1480.173341506617
 30
0.0
 40
28.0
 41
0.0
 71
     5
 72
     1
  1
125
 73
     1
 44
1.0
  0
POINT
  5
141C4
330
EA24
100
AcDbEntity
  8
Defpoints
 62
     0
100
AcDbPoint
 10
2039.953472395471
 20
-1422.736383368637
 30
0.0
  0
POINT
  5
141C5
330
EA24
100
AcDbEntity
  8
Defpoints
 62
     0
100
AcDbPoint
 10
2164.953472395471
 20
-1429.236383368636
 30
0.0
  0
POINT
  5
141C6
330
EA24
100
AcDbEntity
  8
Defpoints
 62
     0
100
AcDbPoint
 10
2164.953472395471
 20
-1504.969385162824
 30
0.0
  0
ENDBLK
  5
EA2F
330
EA24
100
AcDbEntity
  8
0
100
AcDbBlockEnd
  0
BLOCK
  5
EA3B
330
EA31
100
AcDbEntity
  8
0
100
AcDbBlockBegin
  2
*D2
 70
     1
 10
0.0
 20
0.0
 30
0.0
  3
*D2
  1

  0
LINE
  5
141C7
330
EA31
100
AcDbEntity
  8
-TEXT3
370
    -2
100
AcDbLine
 10
2164.953472395471
 20
-1439.736383368637
 30
0.0
 11
2164.953472395471
 21
-1508.469385162824
 31
0.0
  0
LINE
  5
141C8
330
EA31
100
AcDbEntity
  8
-TEXT3
370
    -2
100
AcDbLine
 10
2414.953472395471
 20
-1439.736383368637
 30
0.0
 11
2414.953472395471
 21
-1508.469385162824
 31
0.0
  0
LINE
  5
141C9
330
EA31
100
AcDbEntity
  8
-TEXT3
370
    -2
100
AcDbLine
 10
2192.953472395471
 20
-1504.969385162824
 30
0.0
 11
2386.953472395471
 21
-1504.969385162824
 31
0.0
  0
SOLID
  5
141CA
330
EA31
100
AcDbEntity
  8
-TEXT3
100
AcDbTrace
 10
2192.953472395471
 20
-1500.302718496158
 30
0.0
 11
2192.953472395471
 21
-1509.636051829491
 31
0.0
 12
2164.953472395471
 22
-1504.969385162824
 32
0.0
 13
2164.953472395471
 23
-1504.969385162824
 33
0.0
  0
SOLID
  5
141CB
330
EA31
100
AcDbEntity
  8
-TEXT3
100
AcDbTrace
 10
2386.953472395471
 20
-1500.302718496158
 30
0.0
 11
2386.953472395471
 21
-1509.636051829491
 31
0.0
 12
2414.953472395471
 22
-1504.969385162824
 32
0.0
 13
2414.953472395471
 23
-1504.969385162824
 33
0.0
  0
MTEXT
  5
141CC
330
EA31
100
AcDbEntity
  8
-TEXT3
100
AcDbMText
 10
2289.953472395471
 20
-1480.173341506617
 30
0.0
 40
28.0
 41
0.0
 71
     5
 72
     1
  1
250
 73
     1
 44
1.0
  0
POINT
  5
141CD
330
EA31
100
AcDbEntity
  8
Defpoints
 62
     0
100
AcDbPoint
 10
2164.953472395471
 20
-1429.236383368636
 30
0.0
  0
POINT
  5
141CE
330
EA31
100
AcDbEntity
  8
Defpoints
 62
     0
100
AcDbPoint
 10
2414.953472395471
 20
-1429.236383368636
 30
0.0
  0
POINT
  5
141CF
330
EA31
100
AcDbEntity
  8
Defpoints
 62
     0
100
AcDbPoint
 10
2414.953472395471
 20
-1504.969385162824
 30
0.0
  0
ENDBLK
  5
EA3C
330
EA31
100
AcDbEntity
  8
0
100
AcDbBlockEnd
  0
BLOCK
  5
EA48
330
EA3E
100
AcDbEntity
  8
0
100
AcDbBlockBegin
  2
*D3
 70
     1
 10
0.0
 20
0.0
 30
0.0
  3
*D3
  1

  0
LINE
  5
141D0
330
EA3E
100
AcDbEntity
  8
-TEXT3
370
    -2
100
AcDbLine
 10
2414.953472395471
 20
-1439.736383368637
 30
0.0
 11
2414.953472395471
 21
-1508.469385162824
 31
0.0
  0
LINE
  5
141D1
330
EA3E
100
AcDbEntity
  8
-TEXT3
370
    -2
100
AcDbLine
 10
2664.953472395471
 20
-1439.736383368637
 30
0.0
 11
2664.953472395471
 21
-1508.469385162824
 31
0.0
  0
LINE
  5
141D2
330
EA3E
100
AcDbEntity
  8
-TEXT3
370
    -2
100
AcDbLine
 10
2442.953472395471
 20
-1504.969385162824
 30
0.0
 11
2636.953472395471
 21
-1504.969385162824
 31
0.0
  0
SOLID
  5
141D3
330
EA3E
100
AcDbEntity
  8
-TEXT3
100
AcDbTrace
 10
2442.953472395471
 20
-1500.302718496158
 30
0.0
 11
2442.953472395471
 21
-1509.636051829491
 31
0.0
 12
2414.953472395471
 22
-1504.969385162824
 32
0.0
 13
2414.953472395471
 23
-1504.969385162824
 33
0.0
  0
SOLID
  5
141D4
330
EA3E
100
AcDbEntity
  8
-TEXT3
100
AcDbTrace
 10
2636.953472395471
 20
-1500.302718496158
 30
0.0
 11
2636.953472395471
 21
-1509.636051829491
 31
0.0
 12
2664.953472395471
 22
-1504.969385162824
 32
0.0
 13
2664.953472395471
 23
-1504.969385162824
 33
0.0
  0
MTEXT
  5
141D5
330
EA3E
100
AcDbEntity
  8
-TEXT3
100
AcDbMText
 10
2539.953472395471
 20
-1480.173341506617
 30
0.0
 40
28.0
 41
0.0
 71
     5
 72
     1
  1
250
 73
     1
 44
1.0
  0
POINT
  5
141D6
330
EA3E
100
AcDbEntity
  8
Defpoints
 62
     0
100
AcDbPoint
 10
2414.953472395471
 20
-1429.236383368636
 30
0.0
  0
POINT
  5
141D7
330
EA3E
100
AcDbEntity
  8
Defpoints
 62
     0
100
AcDbPoint
 10
2664.953472395471
 20
-1429.236383368636
 30
0.0
  0
POINT
  5
141D8
330
EA3E
100
AcDbEntity
  8
Defpoints
 62
     0
100
AcDbPoint
 10
2664.953472395471
 20
-1504.969385162824
 30
0.0
  0
ENDBLK
  5
EA49
330
EA3E
100
AcDbEntity
  8
0
100
AcDbBlockEnd
  0
BLOCK
  5
EA55
330
EA4B
100
AcDbEntity
  8
0
100
AcDbBlockBegin
  2
*D4
 70
     1
 10
0.0
 20
0.0
 30
0.0
  3
*D4
  1

  0
LINE
  5
141D9
330
EA4B
100
AcDbEntity
  8
-TEXT3
370
    -2
100
AcDbLine
 10
2664.953472395471
 20
-1439.736383368637
 30
0.0
 11
2664.953472395471
 21
-1508.469385162824
 31
0.0
  0
LINE
  5
141DA
330
EA4B
100
AcDbEntity
  8
-TEXT3
370
    -2
100
AcDbLine
 10
2914.953472395471
 20
-1439.736383368637
 30
0.0
 11
2914.953472395471
 21
-1508.469385162824
 31
0.0
  0
LINE
  5
141DB
330
EA4B
100
AcDbEntity
  8
-TEXT3
370
    -2
100
AcDbLine
 10
2692.953472395471
 20
-1504.969385162824
 30
0.0
 11
2886.953472395471
 21
-1504.969385162824
 31
0.0
  0
SOLID
  5
141DC
330
EA4B
100
AcDbEntity
  8
-TEXT3
100
AcDbTrace
 10
2692.953472395471
 20
-1500.302718496158
 30
0.0
 11
2692.953472395471
 21
-1509.636051829491
 31
0.0
 12
2664.953472395471
 22
-1504.969385162824
 32
0.0
 13
2664.953472395471
 23
-1504.969385162824
 33
0.0
  0
SOLID
  5
141DD
330
EA4B
100
AcDbEntity
  8
-TEXT3
100
AcDbTrace
 10
2886.953472395471
 20
-1500.302718496158
 30
0.0
 11
2886.953472395471
 21
-1509.636051829491
 31
0.0
 12
2914.953472395471
 22
-1504.969385162824
 32
0.0
 13
2914.953472395471
 23
-1504.969385162824
 33
0.0
  0
MTEXT
  5
141DE
330
EA4B
100
AcDbEntity
  8
-TEXT3
100
AcDbMText
 10
2789.953472395471
 20
-1480.173341506617
 30
0.0
 40
28.0
 41
0.0
 71
     5
 72
     1
  1
250
 73
     1
 44
1.0
  0
POINT
  5
141DF
330
EA4B
100
AcDbEntity
  8
Defpoints
 62
     0
100
AcDbPoint
 10
2664.953472395471
 20
-1429.236383368636
 30
0.0
  0
POINT
  5
141E0
330
EA4B
100
AcDbEntity
  8
Defpoints
 62
     0
100
AcDbPoint
 10
2914.953472395471
 20
-1429.236383368636
 30
0.0
  0
POINT
  5
141E1
330
EA4B
100
AcDbEntity
  8
Defpoints
 62
     0
100
AcDbPoint
 10
2914.953472395471
 20
-1504.969385162824
 30
0.0
  0
ENDBLK
  5
EA56
330
EA4B
100
AcDbEntity
  8
0
100
AcDbBlockEnd
  0
BLOCK
  5
EA64
330
EA5A
100
AcDbEntity
  8
0
100
AcDbBlockBegin
  2
*D5
 70
     1
 10
0.0
 20
0.0
 30
0.0
  3
*D5
  1

  0
LINE
  5
141E2
330
EA5A
100
AcDbEntity
  8
-TEXT3
370
    -2
100
AcDbLine
 10
2914.953472395471
 20
-1439.736383368637
 30
0.0
 11
2914.953472395471
 21
-1508.469385162824
 31
0.0
  0
LINE
  5
141E3
330
EA5A
100
AcDbEntity
  8
-TEXT3
370
    -2
100
AcDbLine
 10
3164.953472395471
 20
-1439.736383368637
 30
0.0
 11
3164.953472395471
 21
-1508.469385162824
 31
0.0
  0
LINE
  5
141E4
330
EA5A
100
AcDbEntity
  8
-TEXT3
370
    -2
100
AcDbLine
 10
2942.953472395471
 20
-1504.969385162824
 30
0.0
 11
3136.953472395471
 21
-1504.969385162824
 31
0.0
  0
SOLID
  5
141E5
330
EA5A
100
AcDbEntity
  8
-TEXT3
100
AcDbTrace
 10
2942.953472395471
 20
-1500.302718496158
 30
0.0
 11
2942.953472395471
 21
-1509.636051829491
 31
0.0
 12
2914.953472395471
 22
-1504.969385162824
 32
0.0
 13
2914.953472395471
 23
-1504.969385162824
 33
0.0
  0
SOLID
  5
141E6
330
EA5A
100
AcDbEntity
  8
-TEXT3
100
AcDbTrace
 10
3136.953472395471
 20
-1500.302718496158
 30
0.0
 11
3136.953472395471
 21
-1509.636051829491
 31
0.0
 12
3164.953472395471
 22
-1504.969385162824
 32
0.0
 13
3164.953472395471
 23
-1504.969385162824
 33
0.0
  0
MTEXT
  5
141E7
330
EA5A
100
AcDbEntity
  8
-TEXT3
100
AcDbMText
 10
3039.953472395471
 20
-1480.173341506617
 30
0.0
 40
28.0
 41
0.0
 71
     5
 72
     1
  1
250
 73
     1
 44
1.0
  0
POINT
  5
141E8
330
EA5A
100
AcDbEntity
  8
Defpoints
 62
     0
100
AcDbPoint
 10
2914.953472395471
 20
-1429.236383368636
 30
0.0
  0
POINT
  5
141E9
330
EA5A
100
AcDbEntity
  8
Defpoints
 62
     0
100
AcDbPoint
 10
3164.953472395471
 20
-1429.236383368636
 30
0.0
  0
POINT
  5
141EA
330
EA5A
100
AcDbEntity
  8
Defpoints
 62
     0
100
AcDbPoint
 10
3164.953472395471
 20
-1504.969385162824
 30
0.0
  0
ENDBLK
  5
EA65
330
EA5A
100
AcDbEntity
  8
0
100
AcDbBlockEnd
  0
BLOCK
  5
EA70
330
EA66
100
AcDbEntity
  8
0
100
AcDbBlockBegin
  2
*D6
 70
     1
 10
0.0
 20
0.0
 30
0.0
  3
*D6
  1

  0
LINE
  5
141EB
330
EA66
100
AcDbEntity
  8
-TEXT3
370
    -2
100
AcDbLine
 10
3164.953472395471
 20
-1439.736383368637
 30
0.0
 11
3164.953472395471
 21
-1508.469385162824
 31
0.0
  0
LINE
  5
141EC
330
EA66
100
AcDbEntity
  8
-TEXT3
370
    -2
100
AcDbLine
 10
3414.953472395472
 20
-1439.736383368637
 30
0.0
 11
3414.953472395472
 21
-1508.469385162824
 31
0.0
  0
LINE
  5
141ED
330
EA66
100
AcDbEntity
  8
-TEXT3
370
    -2
100
AcDbLine
 10
3192.953472395471
 20
-1504.969385162824
 30
0.0
 11
3386.953472395472
 21
-1504.969385162824
 31
0.0
  0
SOLID
  5
141EE
330
EA66
100
AcDbEntity
  8
-TEXT3
100
AcDbTrace
 10
3192.953472395471
 20
-1500.302718496158
 30
0.0
 11
3192.953472395471
 21
-1509.636051829491
 31
0.0
 12
3164.953472395471
 22
-1504.969385162824
 32
0.0
 13
3164.953472395471
 23
-1504.969385162824
 33
0.0
  0
SOLID
  5
141EF
330
EA66
100
AcDbEntity
  8
-TEXT3
100
AcDbTrace
 10
3386.953472395472
 20
-1500.302718496158
 30
0.0
 11
3386.953472395472
 21
-1509.636051829491
 31
0.0
 12
3414.953472395472
 22
-1504.969385162824
 32
0.0
 13
3414.953472395472
 23
-1504.969385162824
 33
0.0
  0
MTEXT
  5
141F0
330
EA66
100
AcDbEntity
  8
-TEXT3
100
AcDbMText
 10
3289.953472395472
 20
-1480.173341506617
 30
0.0
 40
28.0
 41
0.0
 71
     5
 72
     1
  1
250
 73
     1
 44
1.0
  0
POINT
  5
141F1
330
EA66
100
AcDbEntity
  8
Defpoints
 62
     0
100
AcDbPoint
 10
3164.953472395471
 20
-1429.236383368636
 30
0.0
  0
POINT
  5
141F2
330
EA66
100
AcDbEntity
  8
Defpoints
 62
     0
100
AcDbPoint
 10
3414.953472395472
 20
-1429.236383368636
 30
0.0
  0
POINT
  5
141F3
330
EA66
100
AcDbEntity
  8
Defpoints
 62
     0
100
AcDbPoint
 10
3414.953472395472
 20
-1504.969385162824
 30
0.0
  0
ENDBLK
  5
EA71
330
EA66
100
AcDbEntity
  8
0
100
AcDbBlockEnd
  0
BLOCK
  5
EA7C
330
EA72
100
AcDbEntity
  8
0
100
AcDbBlockBegin
  2
*D7
 70
     1
 10
0.0
 20
0.0
 30
0.0
  3
*D7
  1

  0
LINE
  5
141F4
330
EA72
100
AcDbEntity
  8
-TEXT3
370
    -2
100
AcDbLine
 10
3414.953472395472
 20
-1439.736383368637
 30
0.0
 11
3414.953472395472
 21
-1508.469385162824
 31
0.0
  0
LINE
  5
141F5
330
EA72
100
AcDbEntity
  8
-TEXT3
370
    -2
100
AcDbLine
 10
3664.953472395472
 20
-1439.736383368637
 30
0.0
 11
3664.953472395472
 21
-1508.469385162824
 31
0.0
  0
LINE
  5
141F6
330
EA72
100
AcDbEntity
  8
-TEXT3
370
    -2
100
AcDbLine
 10
3442.953472395471
 20
-1504.969385162824
 30
0.0
 11
3636.953472395472
 21
-1504.969385162824
 31
0.0
  0
SOLID
  5
141F7
330
EA72
100
AcDbEntity
  8
-TEXT3
100
AcDbTrace
 10
3442.953472395471
 20
-1500.302718496158
 30
0.0
 11
3442.953472395471
 21
-1509.636051829491
 31
0.0
 12
3414.953472395472
 22
-1504.969385162824
 32
0.0
 13
3414.953472395472
 23
-1504.969385162824
 33
0.0
  0
SOLID
  5
141F8
330
EA72
100
AcDbEntity
  8
-TEXT3
100
AcDbTrace
 10
3636.953472395472
 20
-1500.302718496158
 30
0.0
 11
3636.953472395472
 21
-1509.636051829491
 31
0.0
 12
3664.953472395472
 22
-1504.969385162824
 32
0.0
 13
3664.953472395472
 23
-1504.969385162824
 33
0.0
  0
MTEXT
  5
141F9
330
EA72
100
AcDbEntity
  8
-TEXT3
100
AcDbMText
 10
3539.953472395472
 20
-1480.173341506617
 30
0.0
 40
28.0
 41
0.0
 71
     5
 72
     1
  1
250
 73
     1
 44
1.0
  0
POINT
  5
141FA
330
EA72
100
AcDbEntity
  8
Defpoints
 62
     0
100
AcDbPoint
 10
3414.953472395472
 20
-1429.236383368636
 30
0.0
  0
POINT
  5
141FB
330
EA72
100
AcDbEntity
  8
Defpoints
 62
     0
100
AcDbPoint
 10
3664.953472395472
 20
-1429.236383368636
 30
0.0
  0
POINT
  5
141FC
330
EA72
100
AcDbEntity
  8
Defpoints
 62
     0
100
AcDbPoint
 10
3664.953472395472
 20
-1504.969385162824
 30
0.0
  0
ENDBLK
  5
EA7D
330
EA72
100
AcDbEntity
  8
0
100
AcDbBlockEnd
  0
BLOCK
  5
EAA6
330
EA9C
100
AcDbEntity
  8
0
100
AcDbBlockBegin
  2
*D8
 70
     1
 10
0.0
 20
0.0
 30
0.0
  3
*D8
  1

  0
LINE
  5
141FD
330
EA9C
100
AcDbEntity
  8
-TEXT3
370
    -2
100
AcDbLine
 10
3664.953472395472
 20
-1439.736383368637
 30
0.0
 11
3664.953472395472
 21
-1508.469385162824
 31
0.0
  0
LINE
  5
141FE
330
EA9C
100
AcDbEntity
  8
-TEXT3
370
    -2
100
AcDbLine
 10
3914.953472395472
 20
-1439.736383368637
 30
0.0
 11
3914.953472395472
 21
-1508.469385162824
 31
0.0
  0
LINE
  5
141FF
330
EA9C
100
AcDbEntity
  8
-TEXT3
370
    -2
100
AcDbLine
 10
3692.953472395471
 20
-1504.969385162824
 30
0.0
 11
3886.953472395472
 21
-1504.969385162824
 31
0.0
  0
SOLID
  5
14200
330
EA9C
100
AcDbEntity
  8
-TEXT3
100
AcDbTrace
 10
3692.953472395471
 20
-1500.302718496158
 30
0.0
 11
3692.953472395471
 21
-1509.636051829491
 31
0.0
 12
3664.953472395472
 22
-1504.969385162824
 32
0.0
 13
3664.953472395472
 23
-1504.969385162824
 33
0.0
  0
SOLID
  5
14201
330
EA9C
100
AcDbEntity
  8
-TEXT3
100
AcDbTrace
 10
3886.953472395472
 20
-1500.302718496158
 30
0.0
 11
3886.953472395472
 21
-1509.636051829491
 31
0.0
 12
3914.953472395472
 22
-1504.969385162824
 32
0.0
 13
3914.953472395472
 23
-1504.969385162824
 33
0.0
  0
MTEXT
  5
14202
330
EA9C
100
AcDbEntity
  8
-TEXT3
100
AcDbMText
 10
3789.953472395472
 20
-1480.173341506617
 30
0.0
 40
28.0
 41
0.0
 71
     5
 72
     1
  1
250
 73
     1
 44
1.0
  0
POINT
  5
14203
330
EA9C
100
AcDbEntity
  8
Defpoints
 62
     0
100
AcDbPoint
 10
3664.953472395472
 20
-1429.236383368636
 30
0.0
  0
POINT
  5
14204
330
EA9C
100
AcDbEntity
  8
Defpoints
 62
     0
100
AcDbPoint
 10
3914.953472395472
 20
-1429.236383368636
 30
0.0
  0
POINT
  5
14205
330
EA9C
100
AcDbEntity
  8
Defpoints
 62
     0
100
AcDbPoint
 10
3914.953472395472
 20
-1504.969385162824
 30
0.0
  0
ENDBLK
  5
EAA7
330
EA9C
100
AcDbEntity
  8
0
100
AcDbBlockEnd
  0
BLOCK
  5
EAB2
330
EAA8
100
AcDbEntity
  8
0
100
AcDbBlockBegin
  2
*D9
 70
     1
 10
0.0
 20
0.0
 30
0.0
  3
*D9
  1

  0
LINE
  5
14206
330
EAA8
100
AcDbEntity
  8
-TEXT3
370
    -2
100
AcDbLine
 10
3914.953472395472
 20
-1439.736383368637
 30
0.0
 11
3914.953472395472
 21
-1508.469385162824
 31
0.0
  0
LINE
  5
14207
330
EAA8
100
AcDbEntity
  8
-TEXT3
370
    -2
100
AcDbLine
 10
4164.953472395471
 20
-1439.736383368637
 30
0.0
 11
4164.953472395471
 21
-1508.469385162824
 31
0.0
  0
LINE
  5
14208
330
EAA8
100
AcDbEntity
  8
-TEXT3
370
    -2
100
AcDbLine
 10
3942.953472395471
 20
-1504.969385162824
 30
0.0
 11
4136.953472395471
 21
-1504.969385162824
 31
0.0
  0
SOLID
  5
14209
330
EAA8
100
AcDbEntity
  8
-TEXT3
100
AcDbTrace
 10
3942.953472395471
 20
-1500.302718496158
 30
0.0
 11
3942.953472395471
 21
-1509.636051829491
 31
0.0
 12
3914.953472395472
 22
-1504.969385162824
 32
0.0
 13
3914.953472395472
 23
-1504.969385162824
 33
0.0
  0
SOLID
  5
1420A
330
EAA8
100
AcDbEntity
  8
-TEXT3
100
AcDbTrace
 10
4136.953472395471
 20
-1500.302718496158
 30
0.0
 11
4136.953472395471
 21
-1509.636051829491
 31
0.0
 12
4164.953472395471
 22
-1504.969385162824
 32
0.0
 13
4164.953472395471
 23
-1504.969385162824
 33
0.0
  0
MTEXT
  5
1420B
330
EAA8
100
AcDbEntity
  8
-TEXT3
100
AcDbMText
 10
4039.953472395471
 20
-1480.173341506617
 30
0.0
 40
28.0
 41
0.0
 71
     5
 72
     1
  1
250
 73
     1
 44
1.0
  0
POINT
  5
1420C
330
EAA8
100
AcDbEntity
  8
Defpoints
 62
     0
100
AcDbPoint
 10
3914.953472395472
 20
-1429.236383368636
 30
0.0
  0
POINT
  5
1420D
330
EAA8
100
AcDbEntity
  8
Defpoints
 62
     0
100
AcDbPoint
 10
4164.953472395471
 20
-1429.236383368636
 30
0.0
  0
POINT
  5
1420E
330
EAA8
100
AcDbEntity
  8
Defpoints
 62
     0
100
AcDbPoint
 10
4164.953472395471
 20
-1504.969385162824
 30
0.0
  0
ENDBLK
  5
EAB3
330
EAA8
100
AcDbEntity
  8
0
100
AcDbBlockEnd
  0
BLOCK
  5
EABE
330
EAB4
100
AcDbEntity
  8
0
100
AcDbBlockBegin
  2
*D10
 70
     1
 10
0.0
 20
0.0
 30
0.0
  3
*D10
  1

  0
LINE
  5
1420F
330
EAB4
100
AcDbEntity
  8
-TEXT3
370
    -2
100
AcDbLine
 10
4164.953472395471
 20
-1439.736383368637
 30
0.0
 11
4164.953472395471
 21
-1508.469385162824
 31
0.0
  0
LINE
  5
14210
330
EAB4
100
AcDbEntity
  8
-TEXT3
370
    -2
100
AcDbLine
 10
4414.953472395471
 20
-1439.736383368637
 30
0.0
 11
4414.953472395471
 21
-1508.469385162824
 31
0.0
  0
LINE
  5
14211
330
EAB4
100
AcDbEntity
  8
-TEXT3
370
    -2
100
AcDbLine
 10
4192.953472395471
 20
-1504.969385162824
 30
0.0
 11
4386.953472395471
 21
-1504.969385162824
 31
0.0
  0
SOLID
  5
14212
330
EAB4
100
AcDbEntity
  8
-TEXT3
100
AcDbTrace
 10
4192.953472395471
 20
-1500.302718496158
 30
0.0
 11
4192.953472395471
 21
-1509.636051829491
 31
0.0
 12
4164.953472395471
 22
-1504.969385162824
 32
0.0
 13
4164.953472395471
 23
-1504.969385162824
 33
0.0
  0
SOLID
  5
14213
330
EAB4
100
AcDbEntity
  8
-TEXT3
100
AcDbTrace
 10
4386.953472395471
 20
-1500.302718496158
 30
0.0
 11
4386.953472395471
 21
-1509.636051829491
 31
0.0
 12
4414.953472395471
 22
-1504.969385162824
 32
0.0
 13
4414.953472395471
 23
-1504.969385162824
 33
0.0
  0
MTEXT
  5
14214
330
EAB4
100
AcDbEntity
  8
-TEXT3
100
AcDbMText
 10
4289.953472395471
 20
-1480.173341506617
 30
0.0
 40
28.0
 41
0.0
 71
     5
 72
     1
  1
250
 73
     1
 44
1.0
  0
POINT
  5
14215
330
EAB4
100
AcDbEntity
  8
Defpoints
 62
     0
100
AcDbPoint
 10
4164.953472395471
 20
-1429.236383368636
 30
0.0
  0
POINT
  5
14216
330
EAB4
100
AcDbEntity
  8
Defpoints
 62
     0
100
AcDbPoint
 10
4414.953472395471
 20
-1429.236383368636
 30
0.0
  0
POINT
  5
14217
330
EAB4
100
AcDbEntity
  8
Defpoints
 62
     0
100
AcDbPoint
 10
4414.953472395471
 20
-1504.969385162824
 30
0.0
  0
ENDBLK
  5
EABF
330
EAB4
100
AcDbEntity
  8
0
100
AcDbBlockEnd
  0
BLOCK
  5
EAE8
330
EADE
100
AcDbEntity
  8
0
100
AcDbBlockBegin
  2
*D11
 70
     1
 10
0.0
 20
0.0
 30
0.0
  3
*D11
  1

  0
LINE
  5
14218
330
EADE
100
AcDbEntity
  8
-TEXT3
370
    -2
100
AcDbLine
 10
4414.953472395471
 20
-1439.736383368637
 30
0.0
 11
4414.953472395471
 21
-1508.469385162824
 31
0.0
  0
LINE
  5
14219
330
EADE
100
AcDbEntity
  8
-TEXT3
370
    -2
100
AcDbLine
 10
4664.953472395471
 20
-1439.736383368637
 30
0.0
 11
4664.953472395471
 21
-1508.469385162824
 31
0.0
  0
LINE
  5
1421A
330
EADE
100
AcDbEntity
  8
-TEXT3
370
    -2
100
AcDbLine
 10
4442.953472395471
 20
-1504.969385162824
 30
0.0
 11
4636.953472395471
 21
-1504.969385162824
 31
0.0
  0
SOLID
  5
1421B
330
EADE
100
AcDbEntity
  8
-TEXT3
100
AcDbTrace
 10
4442.953472395471
 20
-1500.302718496158
 30
0.0
 11
4442.953472395471
 21
-1509.636051829491
 31
0.0
 12
4414.953472395471
 22
-1504.969385162824
 32
0.0
 13
4414.953472395471
 23
-1504.969385162824
 33
0.0
  0
SOLID
  5
1421C
330
EADE
100
AcDbEntity
  8
-TEXT3
100
AcDbTrace
 10
4636.953472395471
 20
-1500.302718496158
 30
0.0
 11
4636.953472395471
 21
-1509.636051829491
 31
0.0
 12
4664.953472395471
 22
-1504.969385162824
 32
0.0
 13
4664.953472395471
 23
-1504.969385162824
 33
0.0
  0
MTEXT
  5
1421D
330
EADE
100
AcDbEntity
  8
-TEXT3
100
AcDbMText
 10
4539.953472395471
 20
-1480.173341506617
 30
0.0
 40
28.0
 41
0.0
 71
     5
 72
     1
  1
250
 73
     1
 44
1.0
  0
POINT
  5
1421E
330
EADE
100
AcDbEntity
  8
Defpoints
 62
     0
100
AcDbPoint
 10
4414.953472395471
 20
-1429.236383368636
 30
0.0
  0
POINT
  5
1421F
330
EADE
100
AcDbEntity
  8
Defpoints
 62
     0
100
AcDbPoint
 10
4664.953472395471
 20
-1429.236383368636
 30
0.0
  0
POINT
  5
14220
330
EADE
100
AcDbEntity
  8
Defpoints
 62
     0
100
AcDbPoint
 10
4664.953472395471
 20
-1504.969385162824
 30
0.0
  0
ENDBLK
  5
EAE9
330
EADE
100
AcDbEntity
  8
0
100
AcDbBlockEnd
  0
BLOCK
  5
EAF4
330
EAEA
100
AcDbEntity
  8
0
100
AcDbBlockBegin
  2
*D12
 70
     1
 10
0.0
 20
0.0
 30
0.0
  3
*D12
  1

  0
LINE
  5
14221
330
EAEA
100
AcDbEntity
  8
-TEXT3
370
    -2
100
AcDbLine
 10
4664.953472395471
 20
-1439.736383368637
 30
0.0
 11
4664.953472395471
 21
-1508.469385162824
 31
0.0
  0
LINE
  5
14222
330
EAEA
100
AcDbEntity
  8
-TEXT3
370
    -2
100
AcDbLine
 10
4914.953472395471
 20
-1439.736383368637
 30
0.0
 11
4914.953472395471
 21
-1508.469385162824
 31
0.0
  0
LINE
  5
14223
330
EAEA
100
AcDbEntity
  8
-TEXT3
370
    -2
100
AcDbLine
 10
4692.953472395471
 20
-1504.969385162824
 30
0.0
 11
4886.953472395472
 21
-1504.969385162824
 31
0.0
  0
SOLID
  5
14224
330
EAEA
100
AcDbEntity
  8
-TEXT3
100
AcDbTrace
 10
4692.953472395471
 20
-1500.302718496158
 30
0.0
 11
4692.953472395471
 21
-1509.636051829491
 31
0.0
 12
4664.953472395471
 22
-1504.969385162824
 32
0.0
 13
4664.953472395471
 23
-1504.969385162824
 33
0.0
  0
SOLID
  5
14225
330
EAEA
100
AcDbEntity
  8
-TEXT3
100
AcDbTrace
 10
4886.953472395472
 20
-1500.302718496158
 30
0.0
 11
4886.953472395472
 21
-1509.636051829491
 31
0.0
 12
4914.953472395471
 22
-1504.969385162824
 32
0.0
 13
4914.953472395471
 23
-1504.969385162824
 33
0.0
  0
MTEXT
  5
14226
330
EAEA
100
AcDbEntity
  8
-TEXT3
100
AcDbMText
 10
4789.953472395471
 20
-1480.173341506617
 30
0.0
 40
28.0
 41
0.0
 71
     5
 72
     1
  1
250
 73
     1
 44
1.0
  0
POINT
  5
14227
330
EAEA
100
AcDbEntity
  8
Defpoints
 62
     0
100
AcDbPoint
 10
4664.953472395471
 20
-1429.236383368636
 30
0.0
  0
POINT
  5
14228
330
EAEA
100
AcDbEntity
  8
Defpoints
 62
     0
100
AcDbPoint
 10
4914.953472395471
 20
-1429.236383368636
 30
0.0
  0
POINT
  5
14229
330
EAEA
100
AcDbEntity
  8
Defpoints
 62
     0
100
AcDbPoint
 10
4914.953472395471
 20
-1504.969385162824
 30
0.0
  0
ENDBLK
  5
EAF5
330
EAEA
100
AcDbEntity
  8
0
100
AcDbBlockEnd
  0
BLOCK
  5
EB00
330
EAF6
100
AcDbEntity
  8
0
100
AcDbBlockBegin
  2
*D13
 70
     1
 10
0.0
 20
0.0
 30
0.0
  3
*D13
  1

  0
LINE
  5
1422A
330
EAF6
100
AcDbEntity
  8
-TEXT3
370
    -2
100
AcDbLine
 10
4914.953472395471
 20
-1439.736383368637
 30
0.0
 11
4914.953472395471
 21
-1508.469385162824
 31
0.0
  0
LINE
  5
1422B
330
EAF6
100
AcDbEntity
  8
-TEXT3
370
    -2
100
AcDbLine
 10
5039.953472395471
 20
-1433.236383368637
 30
0.0
 11
5039.953472395471
 21
-1508.469385162824
 31
0.0
  0
LINE
  5
1422C
330
EAF6
100
AcDbEntity
  8
-TEXT3
370
    -2
100
AcDbLine
 10
4942.953472395471
 20
-1504.969385162824
 30
0.0
 11
5011.953472395472
 21
-1504.969385162824
 31
0.0
  0
SOLID
  5
1422D
330
EAF6
100
AcDbEntity
  8
-TEXT3
100
AcDbTrace
 10
4942.953472395471
 20
-1500.302718496158
 30
0.0
 11
4942.953472395471
 21
-1509.636051829491
 31
0.0
 12
4914.953472395471
 22
-1504.969385162824
 32
0.0
 13
4914.953472395471
 23
-1504.969385162824
 33
0.0
  0
SOLID
  5
1422E
330
EAF6
100
AcDbEntity
  8
-TEXT3
100
AcDbTrace
 10
5011.953472395472
 20
-1500.302718496158
 30
0.0
 11
5011.953472395472
 21
-1509.636051829491
 31
0.0
 12
5039.953472395471
 22
-1504.969385162824
 32
0.0
 13
5039.953472395471
 23
-1504.969385162824
 33
0.0
  0
MTEXT
  5
1422F
330
EAF6
100
AcDbEntity
  8
-TEXT3
100
AcDbMText
 10
4977.453472395471
 20
-1480.173341506617
 30
0.0
 40
28.0
 41
0.0
 71
     5
 72
     1
  1
125
 73
     1
 44
1.0
  0
POINT
  5
14230
330
EAF6
100
AcDbEntity
  8
Defpoints
 62
     0
100
AcDbPoint
 10
4914.953472395471
 20
-1429.236383368636
 30
0.0
  0
POINT
  5
14231
330
EAF6
100
AcDbEntity
  8
Defpoints
 62
     0
100
AcDbPoint
 10
5039.953472395471
 20
-1422.736383368637
 30
0.0
  0
POINT
  5
14232
330
EAF6
100
AcDbEntity
  8
Defpoints
 62
     0
100
AcDbPoint
 10
5039.953472395471
 20
-1504.969385162824
 30
0.0
  0
ENDBLK
  5
EB01
330
EAF6
100
AcDbEntity
  8
0
100
AcDbBlockEnd
  0
BLOCK
  5
EDE8
330
EDDC
100
AcDbEntity
  8
0
100
AcDbBlockBegin
  2
*D14
 70
     1
 10
0.0
 20
0.0
 30
0.0
  3
*D14
  1

  0
LINE
  5
14233
330
EDDC
100
AcDbEntity
  8
-TEXT3
370
    -2
100
AcDbLine
 10
2029.453472395471
 20
-1422.736383368637
 30
0.0
 11
2010.167319787306
 21
-1422.736383368637
 31
0.0
  0
LINE
  5
14234
330
EDDC
100
AcDbEntity
  8
-TEXT3
370
    -2
100
AcDbLine
 10
2029.453472395471
 20
-1415.736383368637
 30
0.0
 11
2010.167319787306
 21
-1415.736383368637
 31
0.0
  0
LINE
  5
14235
330
EDDC
100
AcDbEntity
  8
-TEXT3
370
    -2
100
AcDbLine
 10
2013.667319787306
 20
-1387.736383368637
 30
0.0
 11
2013.667319787306
 21
-1359.736383368637
 31
0.0
  0
LINE
  5
14236
330
EDDC
100
AcDbEntity
  8
-TEXT3
370
    -2
100
AcDbLine
 10
2013.667319787306
 20
-1450.736383368637
 30
0.0
 11
2013.667319787306
 21
-1517.861894964817
 31
0.0
  0
LINE
  5
14237
330
EDDC
100
AcDbEntity
  8
-TEXT3
370
    -2
100
AcDbLine
 10
2013.667319787306
 20
-1415.736383368637
 30
0.0
 11
2013.667319787306
 21
-1422.736383368637
 31
0.0
  0
SOLID
  5
14238
330
EDDC
100
AcDbEntity
  8
-TEXT3
100
AcDbTrace
 10
2009.00065312064
 20
-1387.736383368637
 30
0.0
 11
2018.333986453973
 21
-1387.736383368637
 31
0.0
 12
2013.667319787306
 22
-1415.736383368637
 32
0.0
 13
2013.667319787306
 23
-1415.736383368637
 33
0.0
  0
SOLID
  5
14239
330
EDDC
100
AcDbEntity
  8
-TEXT3
100
AcDbTrace
 10
2009.00065312064
 20
-1450.736383368637
 30
0.0
 11
2018.333986453973
 21
-1450.736383368637
 31
0.0
 12
2013.667319787306
 22
-1422.736383368637
 32
0.0
 13
2013.667319787306
 23
-1422.736383368637
 33
0.0
  0
MTEXT
  5
1423A
330
EDDC
100
AcDbEntity
  8
-TEXT3
100
AcDbMText
 10
1989.167319787306
 20
-1498.299139166726
 30
0.0
 40
28.0
 41
0.0
 71
     5
 72
     1
  1
7
 11
0.0000000000000001
 21
1.0
 31
0.0
 73
     1
 44
1.0
  0
POINT
  5
1423B
330
EDDC
100
AcDbEntity
  8
Defpoints
 62
     0
100
AcDbPoint
 10
2039.953472395471
 20
-1422.736383368637
 30
0.0
  0
POINT
  5
1423C
330
EDDC
100
AcDbEntity
  8
Defpoints
 62
     0
100
AcDbPoint
 10
2039.953472395471
 20
-1415.736383368637
 30
0.0
  0
POINT
  5
1423D
330
EDDC
100
AcDbEntity
  8
Defpoints
 62
     0
100
AcDbPoint
 10
2013.667319787306
 20
-1415.736383368637
 30
0.0
  0
ENDBLK
  5
EDE9
330
EDDC
100
AcDbEntity
  8
0
100
AcDbBlockEnd
  0
BLOCK
  5
EDF5
330
EDEB
100
AcDbEntity
  8
0
100
AcDbBlockBegin
  2
*D15
 70
     1
 10
0.0
 20
0.0
 30
0.0
  3
*D15
  1

  0
LINE
  5
1423E
330
EDEB
100
AcDbEntity
  8
-TEXT3
370
    -2
100
AcDbLine
 10
2002.167319787307
 20
-1422.736383368637
 30
0.0
 11
1932.698078136425
 21
-1422.736383368637
 31
0.0
  0
LINE
  5
1423F
330
EDEB
100
AcDbEntity
  8
-TEXT3
370
    -2
100
AcDbLine
 10
2029.453472395471
 20
-1314.736383368637
 30
0.0
 11
1932.698078136425
 21
-1314.736383368637
 31
0.0
  0
LINE
  5
14240
330
EDEB
100
AcDbEntity
  8
-TEXT3
370
    -2
100
AcDbLine
 10
1936.198078136425
 20
-1394.736383368637
 30
0.0
 11
1936.198078136425
 21
-1342.736383368636
 31
0.0
  0
SOLID
  5
14241
330
EDEB
100
AcDbEntity
  8
-TEXT3
100
AcDbTrace
 10
1931.531411469759
 20
-1394.736383368637
 30
0.0
 11
1940.864744803092
 21
-1394.736383368637
 31
0.0
 12
1936.198078136425
 22
-1422.736383368637
 32
0.0
 13
1936.198078136425
 23
-1422.736383368637
 33
0.0
  0
SOLID
  5
14242
330
EDEB
100
AcDbEntity
  8
-TEXT3
100
AcDbTrace
 10
1931.531411469759
 20
-1342.736383368636
 30
0.0
 11
1940.864744803092
 21
-1342.736383368636
 31
0.0
 12
1936.198078136425
 22
-1314.736383368637
 32
0.0
 13
1936.198078136425
 23
-1314.736383368637
 33
0.0
  0
MTEXT
  5
14243
330
EDEB
100
AcDbEntity
  8
-TEXT3
100
AcDbMText
 10
1911.402034480218
 20
-1368.736383368636
 30
0.0
 40
28.0
 41
0.0
 71
     5
 72
     1
  1
108
 11
0.0000000000000001
 21
1.0
 31
0.0
 73
     1
 44
1.0
  0
POINT
  5
14244
330
EDEB
100
AcDbEntity
  8
Defpoints
 62
     0
100
AcDbPoint
 10
2012.667319787306
 20
-1422.736383368637
 30
0.0
  0
POINT
  5
14245
330
EDEB
100
AcDbEntity
  8
Defpoints
 62
     0
100
AcDbPoint
 10
2039.953472395471
 20
-1314.736383368637
 30
0.0
  0
POINT
  5
14246
330
EDEB
100
AcDbEntity
  8
Defpoints
 62
     0
100
AcDbPoint
 10
1936.198078136425
 20
-1314.736383368637
 30
0.0
  0
ENDBLK
  5
EDF6
330
EDEB
100
AcDbEntity
  8
0
100
AcDbBlockEnd
  0
BLOCK
  5
F2A1
330
F297
100
AcDbEntity
  8
0
100
AcDbBlockBegin
  2
*D16
 70
     1
 10
0.0
 20
0.0
 30
0.0
  3
*D16
  1

  0
LINE
  5
14247
330
F297
100
AcDbEntity
  8
-TEXT3
370
    -2
100
AcDbLine
 10
2039.953472395471
 20
-1517.469385162824
 30
0.0
 11
2039.953472395471
 21
-1596.66579023171
 31
0.0
  0
LINE
  5
14248
330
F297
100
AcDbEntity
  8
-TEXT3
370
    -2
100
AcDbLine
 10
5039.953472395471
 20
-1517.469385162824
 30
0.0
 11
5039.953472395471
 21
-1596.66579023171
 31
0.0
  0
LINE
  5
14249
330
F297
100
AcDbEntity
  8
-TEXT3
370
    -2
100
AcDbLine
 10
2067.953472395471
 20
-1593.16579023171
 30
0.0
 11
5011.953472395472
 21
-1593.16579023171
 31
0.0
  0
SOLID
  5
1424A
330
F297
100
AcDbEntity
  8
-TEXT3
100
AcDbTrace
 10
2067.953472395471
 20
-1588.499123565043
 30
0.0
 11
2067.953472395471
 21
-1597.832456898377
 31
0.0
 12
2039.953472395471
 22
-1593.16579023171
 32
0.0
 13
2039.953472395471
 23
-1593.16579023171
 33
0.0
  0
SOLID
  5
1424B
330
F297
100
AcDbEntity
  8
-TEXT3
100
AcDbTrace
 10
5011.953472395472
 20
-1588.499123565043
 30
0.0
 11
5011.953472395472
 21
-1597.832456898377
 31
0.0
 12
5039.953472395471
 22
-1593.16579023171
 32
0.0
 13
5039.953472395471
 23
-1593.16579023171
 33
0.0
  0
MTEXT
  5
1424C
330
F297
100
AcDbEntity
  8
-TEXT3
100
AcDbMText
 10
3539.953472395472
 20
-1565.783343665089
 30
0.0
 40
28.0
 41
0.0
 71
     5
 72
     1
  1
3000{\H14.000000;\S+3.0^ -0.0;}
 73
     1
 44
1.0
  0
POINT
  5
1424D
330
F297
100
AcDbEntity
  8
Defpoints
 62
     0
100
AcDbPoint
 10
2039.953472395471
 20
-1506.969385162824
 30
0.0
  0
POINT
  5
1424E
330
F297
100
AcDbEntity
  8
Defpoints
 62
     0
100
AcDbPoint
 10
5039.953472395471
 20
-1506.969385162824
 30
0.0
  0
POINT
  5
1424F
330
F297
100
AcDbEntity
  8
Defpoints
 62
     0
100
AcDbPoint
 10
5039.953472395471
 20
-1593.16579023171
 30
0.0
  0
ENDBLK
  5
F2A2
330
F297
100
AcDbEntity
  8
0
100
AcDbBlockEnd
  0
BLOCK
  5
F4C9
330
F4BF
100
AcDbEntity
  8
0
100
AcDbBlockBegin
  2
*D17
 70
     1
 10
0.0
 20
0.0
 30
0.0
  3
*D17
  1

  0
LINE
  5
1638A
330
F4BF
100
AcDbEntity
  8
-TEXT3
370
    -2
100
AcDbLine
 10
1657.339041225946
 20
-1518.969385162824
 30
0.0
 11
1657.339041225946
 21
-1596.66579023171
 31
0.0
  0
LINE
  5
1638B
330
F4BF
100
AcDbEntity
  8
-TEXT3
370
    -2
100
AcDbLine
 10
1781.339041225946
 20
-1518.969385162824
 30
0.0
 11
1781.339041225946
 21
-1596.66579023171
 31
0.0
  0
LINE
  5
1638C
330
F4BF
100
AcDbEntity
  8
-TEXT3
370
    -2
100
AcDbLine
 10
1685.339041225946
 20
-1593.16579023171
 30
0.0
 11
1753.339041225946
 21
-1593.16579023171
 31
0.0
  0
SOLID
  5
1638D
330
F4BF
100
AcDbEntity
  8
-TEXT3
100
AcDbTrace
 10
1685.339041225946
 20
-1588.499123565043
 30
0.0
 11
1685.339041225946
 21
-1597.832456898377
 31
0.0
 12
1657.339041225946
 22
-1593.16579023171
 32
0.0
 13
1657.339041225946
 23
-1593.16579023171
 33
0.0
  0
SOLID
  5
1638E
330
F4BF
100
AcDbEntity
  8
-TEXT3
100
AcDbTrace
 10
1753.339041225946
 20
-1588.499123565043
 30
0.0
 11
1753.339041225946
 21
-1597.832456898377
 31
0.0
 12
1781.339041225946
 22
-1593.16579023171
 32
0.0
 13
1781.339041225946
 23
-1593.16579023171
 33
0.0
  0
MTEXT
  5
1638F
330
F4BF
100
AcDbEntity
  8
-TEXT3
100
AcDbMText
 10
1719.339041225946
 20
-1568.608491459541
 30
0.0
 40
28.0
 41
0.0
 71
     5
 72
     1
  1
{\fArial|b0|i0|c238|p34;124}
 73
     1
 44
1.0
  0
POINT
  5
16390
330
F4BF
100
AcDbEntity
  8
Defpoints
 62
     0
100
AcDbPoint
 10
1657.339041225946
 20
-1508.469385162824
 30
0.0
  0
POINT
  5
16391
330
F4BF
100
AcDbEntity
  8
Defpoints
 62
     0
100
AcDbPoint
 10
1781.339041225946
 20
-1508.469385162824
 30
0.0
  0
POINT
  5
16392
330
F4BF
100
AcDbEntity
  8
Defpoints
 62
     0
100
AcDbPoint
 10
1781.339041225946
 20
-1593.16579023171
 30
0.0
  0
ENDBLK
  5
F4CA
330
F4BF
100
AcDbEntity
  8
0
100
AcDbBlockEnd
  0
BLOCK
  5
F4E3
330
F4D9
100
AcDbEntity
  8
0
100
AcDbBlockBegin
  2
*D18
 70
     1
 10
0.0
 20
0.0
 30
0.0
  3
*D18
  1

  0
LINE
  5
14259
330
F4D9
100
AcDbEntity
  8
-TEXT3
370
    -2
100
AcDbLine
 10
1657.339041225946
 20
-1432.337991753952
 30
0.0
 11
1657.339041225946
 21
-1508.469385162824
 31
0.0
  0
LINE
  5
1425A
330
F4D9
100
AcDbEntity
  8
-TEXT3
370
    -2
100
AcDbLine
 10
1745.339041225946
 20
-1438.424693160085
 30
0.0
 11
1745.339041225946
 21
-1508.469385162824
 31
0.0
  0
LINE
  5
1425B
330
F4D9
100
AcDbEntity
  8
-TEXT3
370
    -2
100
AcDbLine
 10
1685.339041225946
 20
-1504.969385162824
 30
0.0
 11
1717.339041225946
 21
-1504.969385162824
 31
0.0
  0
SOLID
  5
1425C
330
F4D9
100
AcDbEntity
  8
-TEXT3
100
AcDbTrace
 10
1685.339041225946
 20
-1500.302718496158
 30
0.0
 11
1685.339041225946
 21
-1509.636051829491
 31
0.0
 12
1657.339041225946
 22
-1504.969385162824
 32
0.0
 13
1657.339041225946
 23
-1504.969385162824
 33
0.0
  0
SOLID
  5
1425D
330
F4D9
100
AcDbEntity
  8
-TEXT3
100
AcDbTrace
 10
1717.339041225946
 20
-1500.302718496158
 30
0.0
 11
1717.339041225946
 21
-1509.636051829491
 31
0.0
 12
1745.339041225946
 22
-1504.969385162824
 32
0.0
 13
1745.339041225946
 23
-1504.969385162824
 33
0.0
  0
MTEXT
  5
1425E
330
F4D9
100
AcDbEntity
  8
-TEXT3
100
AcDbMText
 10
1701.339041225946
 20
-1480.173341506617
 30
0.0
 40
28.0
 41
0.0
 71
     5
 72
     1
  1
88
 73
     1
 44
1.0
  0
POINT
  5
1425F
330
F4D9
100
AcDbEntity
  8
Defpoints
 62
     0
100
AcDbPoint
 10
1657.339041225946
 20
-1421.837991753952
 30
0.0
  0
POINT
  5
14260
330
F4D9
100
AcDbEntity
  8
Defpoints
 62
     0
100
AcDbPoint
 10
1745.339041225946
 20
-1427.924693160085
 30
0.0
  0
POINT
  5
14261
330
F4D9
100
AcDbEntity
  8
Defpoints
 62
     0
100
AcDbPoint
 10
1745.339041225946
 20
-1504.969385162824
 30
0.0
  0
ENDBLK
  5
F4E4
330
F4D9
100
AcDbEntity
  8
0
100
AcDbBlockEnd
  0
BLOCK
  5
F4EF
330
F4E5
100
AcDbEntity
  8
0
100
AcDbBlockBegin
  2
*D19
 70
     1
 10
0.0
 20
0.0
 30
0.0
  3
*D19
  1

  0
LINE
  5
14262
330
F4E5
100
AcDbEntity
  8
-TEXT3
370
    -2
100
AcDbLine
 10
1745.339041225946
 20
-1438.424693160085
 30
0.0
 11
1745.339041225946
 21
-1508.469385162824
 31
0.0
  0
LINE
  5
14263
330
F4E5
100
AcDbEntity
  8
-TEXT3
370
    -2
100
AcDbLine
 10
1781.339041225946
 20
-1432.736671424932
 30
0.0
 11
1781.339041225946
 21
-1508.469385162824
 31
0.0
  0
LINE
  5
14264
330
F4E5
100
AcDbEntity
  8
-TEXT3
370
    -2
100
AcDbLine
 10
1717.339041225946
 20
-1504.969385162824
 30
0.0
 11
1689.339041225946
 21
-1504.969385162824
 31
0.0
  0
LINE
  5
14265
330
F4E5
100
AcDbEntity
  8
-TEXT3
370
    -2
100
AcDbLine
 10
1809.339041225946
 20
-1504.969385162824
 30
0.0
 11
1898.409982562918
 21
-1504.969385162824
 31
0.0
  0
LINE
  5
14266
330
F4E5
100
AcDbEntity
  8
-TEXT3
370
    -2
100
AcDbLine
 10
1745.339041225946
 20
-1504.969385162824
 30
0.0
 11
1781.339041225946
 21
-1504.969385162824
 31
0.0
  0
SOLID
  5
14267
330
F4E5
100
AcDbEntity
  8
-TEXT3
100
AcDbTrace
 10
1717.339041225946
 20
-1500.302718496158
 30
0.0
 11
1717.339041225946
 21
-1509.636051829491
 31
0.0
 12
1745.339041225946
 22
-1504.969385162824
 32
0.0
 13
1745.339041225946
 23
-1504.969385162824
 33
0.0
  0
SOLID
  5
14268
330
F4E5
100
AcDbEntity
  8
-TEXT3
100
AcDbTrace
 10
1809.339041225946
 20
-1500.302718496158
 30
0.0
 11
1809.339041225946
 21
-1509.636051829491
 31
0.0
 12
1781.339041225946
 22
-1504.969385162824
 32
0.0
 13
1781.339041225946
 23
-1504.969385162824
 33
0.0
  0
MTEXT
  5
14269
330
F4E5
100
AcDbEntity
  8
-TEXT3
100
AcDbMText
 10
1867.874511894432
 20
-1480.163791711255
 30
0.0
 40
28.0
 41
0.0
 71
     5
 72
     1
  1
36
 73
     1
 44
1.0
  0
POINT
  5
1426A
330
F4E5
100
AcDbEntity
  8
Defpoints
 62
     0
100
AcDbPoint
 10
1745.339041225946
 20
-1427.924693160085
 30
0.0
  0
POINT
  5
1426B
330
F4E5
100
AcDbEntity
  8
Defpoints
 62
     0
100
AcDbPoint
 10
1781.339041225946
 20
-1422.236671424932
 30
0.0
  0
POINT
  5
1426C
330
F4E5
100
AcDbEntity
  8
Defpoints
 62
     0
100
AcDbPoint
 10
1781.339041225946
 20
-1504.969385162824
 30
0.0
  0
ENDBLK
  5
F4F0
330
F4E5
100
AcDbEntity
  8
0
100
AcDbBlockEnd
  0
BLOCK
  5
141B1
330
141A5
100
AcDbEntity
  8
0
100
AcDbBlockBegin
  2
*D128
 70
     1
 10
0.0
 20
0.0
 30
0.0
  3
*D128
  1

  0
LINE
  5
1426D
330
141A5
100
AcDbEntity
  8
-TEXT3
370
    -2
100
AcDbLine
 10
3407.953472395472
 20
-1405.236383368636
 30
0.0
 11
3407.953472395472
 21
-1378.035062781726
 31
0.0
  0
LINE
  5
1426E
330
141A5
100
AcDbEntity
  8
-TEXT3
370
    -2
100
AcDbLine
 10
3421.953472395472
 20
-1405.236383368636
 30
0.0
 11
3421.953472395472
 21
-1378.035062781726
 31
0.0
  0
LINE
  5
1426F
330
141A5
100
AcDbEntity
  8
-TEXT3
370
    -2
100
AcDbLine
 10
3379.953472395472
 20
-1381.535062781726
 30
0.0
 11
3351.953472395472
 21
-1381.535062781726
 31
0.0
  0
LINE
  5
14270
330
141A5
100
AcDbEntity
  8
-TEXT3
370
    -2
100
AcDbLine
 10
3449.953472395471
 20
-1381.535062781726
 30
0.0
 11
3569.411862572825
 21
-1381.535062781726
 31
0.0
  0
LINE
  5
14271
330
141A5
100
AcDbEntity
  8
-TEXT3
370
    -2
100
AcDbLine
 10
3407.953472395472
 20
-1381.535062781726
 30
0.0
 11
3421.953472395472
 21
-1381.535062781726
 31
0.0
  0
SOLID
  5
14272
330
141A5
100
AcDbEntity
  8
-TEXT3
100
AcDbTrace
 10
3379.953472395472
 20
-1376.868396115059
 30
0.0
 11
3379.953472395472
 21
-1386.201729448393
 31
0.0
 12
3407.953472395472
 22
-1381.535062781726
 32
0.0
 13
3407.953472395472
 23
-1381.535062781726
 33
0.0
  0
SOLID
  5
14273
330
141A5
100
AcDbEntity
  8
-TEXT3
100
AcDbTrace
 10
3449.953472395471
 20
-1376.868396115059
 30
0.0
 11
3449.953472395471
 21
-1386.201729448393
 31
0.0
 12
3421.953472395472
 22
-1381.535062781726
 32
0.0
 13
3421.953472395472
 23
-1381.535062781726
 33
0.0
  0
MTEXT
  5
14274
330
141A5
100
AcDbEntity
  8
-TEXT3
100
AcDbMText
 10
3523.682667484148
 20
-1355.955935905873
 30
0.0
 40
28.0
 41
0.0
 71
     5
 72
     1
  1
%%C14
 73
     1
 44
1.0
  0
POINT
  5
14275
330
141A5
100
AcDbEntity
  8
Defpoints
 62
     0
100
AcDbPoint
 10
3407.953472395472
 20
-1415.736383368637
 30
0.0
  0
POINT
  5
14276
330
141A5
100
AcDbEntity
  8
Defpoints
 62
     0
100
AcDbPoint
 10
3421.953472395472
 20
-1415.736383368637
 30
0.0
  0
POINT
  5
14277
330
141A5
100
AcDbEntity
  8
Defpoints
 62
     0
100
AcDbPoint
 10
3421.953472395472
 20
-1381.535062781726
 30
0.0
  0
ENDBLK
  5
141B2
330
141A5
100
AcDbEntity
  8
0
100
AcDbBlockEnd
  0
ENDSEC
  0
SECTION
  2
ENTITIES
  0
LWPOLYLINE
  5
E9F7
330
1F
100
AcDbEntity
  8
BALARDO-Profil
 48
2.0
100
AcDbPolyline
 90
        4
 70
     1
 43
0.0
 10
2039.953472395471
 20
-1314.736383368637
 10
5039.953472395471
 20
-1314.736383368637
 10
5039.953472395471
 20
-1422.736383368637
 10
2039.953472395471
 20
-1422.736383368637
  0
LINE
  5
E9F8
330
1F
100
AcDbEntity
  8
BALARDO-Profil
 48
2.0
100
AcDbLine
 10
2039.953472395471
 20
-1415.736383368637
 30
0.0
 11
5039.953472395471
 21
-1415.736383368637
 31
0.0
  0
LINE
  5
E9F9
330
1F
100
AcDbEntity
  8
-SYSTEM
100
AcDbLine
 10
2164.953472395471
 20
-1409.236383368637
 30
0.0
 11
2164.953472395471
 21
-1429.236383368636
 31
0.0
  0
LINE
  5
E9FA
330
1F
100
AcDbEntity
  8
-NORMTEIL_VERDECKT
  6
STRICHLINIEX2
 62
     9
 48
2.0
100
AcDbLine
 10
2157.953472395471
 20
-1422.736383368637
 30
0.0
 11
2157.953472395471
 21
-1415.736383368637
 31
0.0
  0
LINE
  5
E9FB
330
1F
100
AcDbEntity
  8
-NORMTEIL_VERDECKT
  6
STRICHLINIEX2
 62
     9
 48
2.0
100
AcDbLine
 10
2171.953472395471
 20
-1422.736383368637
 30
0.0
 11
2171.953472395471
 21
-1415.736383368637
 31
0.0
  0
LINE
  5
EA02
330
1F
100
AcDbEntity
  8
-SYSTEM
100
AcDbLine
 10
2414.953472395471
 20
-1409.236383368637
 30
0.0
 11
2414.953472395471
 21
-1429.236383368636
 31
0.0
  0
LINE
  5
EA03
330
1F
100
AcDbEntity
  8
-NORMTEIL_VERDECKT
  6
STRICHLINIEX2
 62
     9
 48
2.0
100
AcDbLine
 10
2421.953472395471
 20
-1422.736383368637
 30
0.0
 11
2421.953472395471
 21
-1415.736383368637
 31
0.0
  0
LINE
  5
EA04
330
1F
100
AcDbEntity
  8
-NORMTEIL_VERDECKT
  6
STRICHLINIEX2
 62
     9
 48
2.0
100
AcDbLine
 10
2407.953472395471
 20
-1422.736383368637
 30
0.0
 11
2407.953472395471
 21
-1415.736383368637
 31
0.0
  0
LINE
  5
EA05
330
1F
100
AcDbEntity
  8
-SYSTEM
100
AcDbLine
 10
2664.953472395471
 20
-1409.236383368637
 30
0.0
 11
2664.953472395471
 21
-1429.236383368636
 31
0.0
  0
LINE
  5
EA06
330
1F
100
AcDbEntity
  8
-NORMTEIL_VERDECKT
  6
STRICHLINIEX2
 62
     9
 48
2.0
100
AcDbLine
 10
2671.953472395471
 20
-1422.736383368637
 30
0.0
 11
2671.953472395471
 21
-1415.736383368637
 31
0.0
  0
LINE
  5
EA07
330
1F
100
AcDbEntity
  8
-NORMTEIL_VERDECKT
  6
STRICHLINIEX2
 62
     9
 48
2.0
100
AcDbLine
 10
2657.953472395471
 20
-1422.736383368637
 30
0.0
 11
2657.953472395471
 21
-1415.736383368637
 31
0.0
  0
LINE
  5
EA08
330
1F
100
AcDbEntity
  8
-SYSTEM
100
AcDbLine
 10
2914.953472395471
 20
-1409.236383368637
 30
0.0
 11
2914.953472395471
 21
-1429.236383368636
 31
0.0
  0
LINE
  5
EA09
330
1F
100
AcDbEntity
  8
-NORMTEIL_VERDECKT
  6
STRICHLINIEX2
 62
     9
 48
2.0
100
AcDbLine
 10
2921.953472395471
 20
-1422.736383368637
 30
0.0
 11
2921.953472395471
 21
-1415.736383368637
 31
0.0
  0
LINE
  5
EA0A
330
1F
100
AcDbEntity
  8
-NORMTEIL_VERDECKT
  6
STRICHLINIEX2
 62
     9
 48
2.0
100
AcDbLine
 10
2907.953472395471
 20
-1422.736383368637
 30
0.0
 11
2907.953472395471
 21
-1415.736383368637
 31
0.0
  0
LINE
  5
EA0B
330
1F
100
AcDbEntity
  8
-SYSTEM
100
AcDbLine
 10
3164.953472395471
 20
-1409.236383368637
 30
0.0
 11
3164.953472395471
 21
-1429.236383368636
 31
0.0
  0
LINE
  5
EA0C
330
1F
100
AcDbEntity
  8
-NORMTEIL_VERDECKT
  6
STRICHLINIEX2
 62
     9
 48
2.0
100
AcDbLine
 10
3171.953472395471
 20
-1422.736383368637
 30
0.0
 11
3171.953472395471
 21
-1415.736383368637
 31
0.0
  0
LINE
  5
EA0D
330
1F
100
AcDbEntity
  8
-NORMTEIL_VERDECKT
  6
STRICHLINIEX2
 62
     9
 48
2.0
100
AcDbLine
 10
3157.953472395471
 20
-1422.736383368637
 30
0.0
 11
3157.953472395471
 21
-1415.736383368637
 31
0.0
  0
LINE
  5
EA0E
330
1F
100
AcDbEntity
  8
-SYSTEM
100
AcDbLine
 10
4914.953472395471
 20
-1409.236383368637
 30
0.0
 11
4914.953472395471
 21
-1429.236383368636
 31
0.0
  0
LINE
  5
EA0F
330
1F
100
AcDbEntity
  8
-NORMTEIL_VERDECKT
  6
STRICHLINIEX2
 62
     9
 48
2.0
100
AcDbLine
 10
4907.953472395472
 20
-1422.736383368637
 30
0.0
 11
4907.953472395472
 21
-1415.736383368637
 31
0.0
  0
LINE
  5
EA10
330
1F
100
AcDbEntity
  8
-NORMTEIL_VERDECKT
  6
STRICHLINIEX2
 62
     9
 48
2.0
100
AcDbLine
 10
4921.953472395472
 20
-1422.736383368637
 30
0.0
 11
4921.953472395472
 21
-1415.736383368637
 31
0.0
  0
LINE
  5
EA11
330
1F
100
AcDbEntity
  8
-SYSTEM
100
AcDbLine
 10
4664.953472395471
 20
-1409.236383368637
 30
0.0
 11
4664.953472395471
 21
-1429.236383368636
 31
0.0
  0
LINE
  5
EA12
330
1F
100
AcDbEntity
  8
-NORMTEIL_VERDECKT
  6
STRICHLINIEX2
 62
     9
 48
2.0
100
AcDbLine
 10
4657.953472395472
 20
-1422.736383368637
 30
0.0
 11
4657.953472395472
 21
-1415.736383368637
 31
0.0
  0
LINE
  5
EA13
330
1F
100
AcDbEntity
  8
-NORMTEIL_VERDECKT
  6
STRICHLINIEX2
 62
     9
 48
2.0
100
AcDbLine
 10
4671.953472395471
 20
-1422.736383368637
 30
0.0
 11
4671.953472395471
 21
-1415.736383368637
 31
0.0
  0
LINE
  5
EA14
330
1F
100
AcDbEntity
  8
-SYSTEM
100
AcDbLine
 10
4414.953472395471
 20
-1409.236383368637
 30
0.0
 11
4414.953472395471
 21
-1429.236383368636
 31
0.0
  0
LINE
  5
EA15
330
1F
100
AcDbEntity
  8
-NORMTEIL_VERDECKT
  6
STRICHLINIEX2
 62
     9
 48
2.0
100
AcDbLine
 10
4407.953472395472
 20
-1422.736383368637
 30
0.0
 11
4407.953472395472
 21
-1415.736383368637
 31
0.0
  0
LINE
  5
EA16
330
1F
100
AcDbEntity
  8
-NORMTEIL_VERDECKT
  6
STRICHLINIEX2
 62
     9
 48
2.0
100
AcDbLine
 10
4421.953472395471
 20
-1422.736383368637
 30
0.0
 11
4421.953472395471
 21
-1415.736383368637
 31
0.0
  0
LINE
  5
EA17
330
1F
100
AcDbEntity
  8
-SYSTEM
100
AcDbLine
 10
4164.953472395471
 20
-1409.236383368637
 30
0.0
 11
4164.953472395471
 21
-1429.236383368636
 31
0.0
  0
LINE
  5
EA18
330
1F
100
AcDbEntity
  8
-NORMTEIL_VERDECKT
  6
STRICHLINIEX2
 62
     9
 48
2.0
100
AcDbLine
 10
4157.953472395472
 20
-1422.736383368637
 30
0.0
 11
4157.953472395472
 21
-1415.736383368637
 31
0.0
  0
LINE
  5
EA19
330
1F
100
AcDbEntity
  8
-NORMTEIL_VERDECKT
  6
STRICHLINIEX2
 62
     9
 48
2.0
100
AcDbLine
 10
4171.953472395471
 20
-1422.736383368637
 30
0.0
 11
4171.953472395471
 21
-1415.736383368637
 31
0.0
  0
LINE
  5
EA1A
330
1F
100
AcDbEntity
  8
-SYSTEM
100
AcDbLine
 10
3914.953472395472
 20
-1409.236383368637
 30
0.0
 11
3914.953472395472
 21
-1429.236383368636
 31
0.0
  0
LINE
  5
EA1B
330
1F
100
AcDbEntity
  8
-NORMTEIL_VERDECKT
  6
STRICHLINIEX2
 62
     9
 48
2.0
100
AcDbLine
 10
3907.953472395472
 20
-1422.736383368637
 30
0.0
 11
3907.953472395472
 21
-1415.736383368637
 31
0.0
  0
LINE
  5
EA1C
330
1F
100
AcDbEntity
  8
-NORMTEIL_VERDECKT
  6
STRICHLINIEX2
 62
     9
 48
2.0
100
AcDbLine
 10
3921.953472395472
 20
-1422.736383368637
 30
0.0
 11
3921.953472395472
 21
-1415.736383368637
 31
0.0
  0
LINE
  5
EA1D
330
1F
100
AcDbEntity
  8
-SYSTEM
100
AcDbLine
 10
3414.953472395472
 20
-1409.236383368637
 30
0.0
 11
3414.953472395472
 21
-1429.236383368636
 31
0.0
  0
LINE
  5
EA1E
330
1F
100
AcDbEntity
  8
-NORMTEIL_VERDECKT
  6
STRICHLINIEX2
 62
     9
 48
2.0
100
AcDbLine
 10
3421.953472395472
 20
-1422.736383368637
 30
0.0
 11
3421.953472395472
 21
-1415.736383368637
 31
0.0
  0
LINE
  5
EA1F
330
1F
100
AcDbEntity
  8
-NORMTEIL_VERDECKT
  6
STRICHLINIEX2
 62
     9
 48
2.0
100
AcDbLine
 10
3407.953472395472
 20
-1422.736383368637
 30
0.0
 11
3407.953472395472
 21
-1415.736383368637
 31
0.0
  0
LINE
  5
EA20
330
1F
100
AcDbEntity
  8
-SYSTEM
100
AcDbLine
 10
3664.953472395472
 20
-1409.236383368637
 30
0.0
 11
3664.953472395472
 21
-1429.236383368636
 31
0.0
  0
LINE
  5
EA21
330
1F
100
AcDbEntity
  8
-NORMTEIL_VERDECKT
  6
STRICHLINIEX2
 62
     9
 48
2.0
100
AcDbLine
 10
3671.953472395472
 20
-1422.736383368637
 30
0.0
 11
3671.953472395472
 21
-1415.736383368637
 31
0.0
  0
LINE
  5
EA22
330
1F
100
AcDbEntity
  8
-NORMTEIL_VERDECKT
  6
STRICHLINIEX2
 62
     9
 48
2.0
100
AcDbLine
 10
3657.953472395472
 20
-1422.736383368637
 30
0.0
 11
3657.953472395472
 21
-1415.736383368637
 31
0.0
  0
DIMENSION
  5
EA23
330
1F
100
AcDbEntity
  8
-TEXT3
100
AcDbDimension
  2
*D1
 10
2164.953472395471
 20
-1504.969385162824
 30
0.0
 11
2102.453472395471
 21
-1480.173341506617
 31
0.0
 70
    32
 71
     5
 42
125.0
  3
Kopie von 1-1
100
AcDbAlignedDimension
 13
2039.953472395471
 23
-1422.736383368637
 33
0.0
 14
2164.953472395471
 24
-1429.236383368636
 34
0.0
100
AcDbRotatedDimension
  0
DIMENSION
  5
EA30
330
1F
100
AcDbEntity
  8
-TEXT3
100
AcDbDimension
  2
*D2
 10
2414.953472395471
 20
-1504.969385162824
 30
0.0
 11
2289.953472395471
 21
-1480.173341506617
 31
0.0
 70
    32
 71
     5
 42
250.0
  3
Kopie von 1-1
100
AcDbAlignedDimension
 13
2164.953472395471
 23
-1429.236383368636
 33
0.0
 14
2414.953472395471
 24
-1429.236383368636
 34
0.0
100
AcDbRotatedDimension
  0
DIMENSION
  5
EA3D
330
1F
100
AcDbEntity
  8
-TEXT3
100
AcDbDimension
  2
*D3
 10
2664.953472395471
 20
-1504.969385162824
 30
0.0
 11
2539.953472395471
 21
-1480.173341506617
 31
0.0
 70
    32
 71
     5
 42
250.0
  3
Kopie von 1-1
100
AcDbAlignedDimension
 13
2414.953472395471
 23
-1429.236383368636
 33
0.0
 14
2664.953472395471
 24
-1429.236383368636
 34
0.0
100
AcDbRotatedDimension
  0
DIMENSION
  5
EA4A
330
1F
100
AcDbEntity
  8
-TEXT3
100
AcDbDimension
  2
*D4
 10
2914.953472395471
 20
-1504.969385162824
 30
0.0
 11
2789.953472395471
 21
-1480.173341506617
 31
0.0
 70
    32
 71
     5
 42
250.0
  3
Kopie von 1-1
100
AcDbAlignedDimension
 13
2664.953472395471
 23
-1429.236383368636
 33
0.0
 14
2914.953472395471
 24
-1429.236383368636
 34
0.0
100
AcDbRotatedDimension
  0
DIMENSION
  5
EA57
330
1F
100
AcDbEntity
  8
-TEXT3
100
AcDbDimension
  2
*D5
 10
3164.953472395471
 20
-1504.969385162824
 30
0.0
 11
3039.953472395471
 21
-1480.173341506617
 31
0.0
 70
    32
 71
     5
 42
250.0
  3
Kopie von 1-1
100
AcDbAlignedDimension
 13
2914.953472395471
 23
-1429.236383368636
 33
0.0
 14
3164.953472395471
 24
-1429.236383368636
 34
0.0
100
AcDbRotatedDimension
  0
DIMENSION
  5
EA58
330
1F
100
AcDbEntity
  8
-TEXT3
100
AcDbDimension
  2
*D6
 10
3414.953472395472
 20
-1504.969385162824
 30
0.0
 11
3289.953472395472
 21
-1480.173341506617
 31
0.0
 70
    32
 71
     5
 42
250.0
  3
Kopie von 1-1
100
AcDbAlignedDimension
 13
3164.953472395471
 23
-1429.236383368636
 33
0.0
 14
3414.953472395472
 24
-1429.236383368636
 34
0.0
100
AcDbRotatedDimension
  0
DIMENSION
  5
EA59
330
1F
100
AcDbEntity
  8
-TEXT3
100
AcDbDimension
  2
*D7
 10
3664.953472395472
 20
-1504.969385162824
 30
0.0
 11
3539.953472395472
 21
-1480.173341506617
 31
0.0
 70
    32
 71
     5
 42
250.0
  3
Kopie von 1-1
100
AcDbAlignedDimension
 13
3414.953472395472
 23
-1429.236383368636
 33
0.0
 14
3664.953472395472
 24
-1429.236383368636
 34
0.0
100
AcDbRotatedDimension
  0
DIMENSION
  5
EA99
330
1F
100
AcDbEntity
  8
-TEXT3
100
AcDbDimension
  2
*D8
 10
3914.953472395472
 20
-1504.969385162824
 30
0.0
 11
3789.953472395472
 21
-1480.173341506617
 31
0.0
 70
    32
 71
     5
 42
250.0
  3
Kopie von 1-1
100
AcDbAlignedDimension
 13
3664.953472395472
 23
-1429.236383368636
 33
0.0
 14
3914.953472395472
 24
-1429.236383368636
 34
0.0
100
AcDbRotatedDimension
  0
DIMENSION
  5
EA9A
330
1F
100
AcDbEntity
  8
-TEXT3
100
AcDbDimension
  2
*D9
 10
4164.953472395471
 20
-1504.969385162824
 30
0.0
 11
4039.953472395471
 21
-1480.173341506617
 31
0.0
 70
    32
 71
     5
 42
250.0
  3
Kopie von 1-1
100
AcDbAlignedDimension
 13
3914.953472395472
 23
-1429.236383368636
 33
0.0
 14
4164.953472395471
 24
-1429.236383368636
 34
0.0
100
AcDbRotatedDimension
  0
DIMENSION
  5
EA9B
330
1F
100
AcDbEntity
  8
-TEXT3
100
AcDbDimension
  2
*D10
 10
4414.953472395471
 20
-1504.969385162824
 30
0.0
 11
4289.953472395471
 21
-1480.173341506617
 31
0.0
 70
    32
 71
     5
 42
250.0
  3
Kopie von 1-1
100
AcDbAlignedDimension
 13
4164.953472395471
 23
-1429.236383368636
 33
0.0
 14
4414.953472395471
 24
-1429.236383368636
 34
0.0
100
AcDbRotatedDimension
  0
DIMENSION
  5
EADB
330
1F
100
AcDbEntity
  8
-TEXT3
100
AcDbDimension
  2
*D11
 10
4664.953472395471
 20
-1504.969385162824
 30
0.0
 11
4539.953472395471
 21
-1480.173341506617
 31
0.0
 70
    32
 71
     5
 42
250.0
  3
Kopie von 1-1
100
AcDbAlignedDimension
 13
4414.953472395471
 23
-1429.236383368636
 33
0.0
 14
4664.953472395471
 24
-1429.236383368636
 34
0.0
100
AcDbRotatedDimension
  0
DIMENSION
  5
EADC
330
1F
100
AcDbEntity
  8
-TEXT3
100
AcDbDimension
  2
*D12
 10
4914.953472395471
 20
-1504.969385162824
 30
0.0
 11
4789.953472395471
 21
-1480.173341506617
 31
0.0
 70
    32
 71
     5
 42
250.0
  3
Kopie von 1-1
100
AcDbAlignedDimension
 13
4664.953472395471
 23
-1429.236383368636
 33
0.0
 14
4914.953472395471
 24
-1429.236383368636
 34
0.0
100
AcDbRotatedDimension
  0
DIMENSION
  5
EADD
330
1F
100
AcDbEntity
  8
-TEXT3
100
AcDbDimension
  2
*D13
 10
5039.953472395471
 20
-1504.969385162824
 30
0.0
 11
4977.453472395471
 21
-1480.173341506617
 31
0.0
 70
    32
 71
     5
 42
125.0
  3
Kopie von 1-1
100
AcDbAlignedDimension
 13
4914.953472395471
 23
-1429.236383368636
 33
0.0
 14
5039.953472395471
 24
-1422.736383368637
 34
0.0
100
AcDbRotatedDimension
  0
DIMENSION
  5
EDDB
330
1F
100
AcDbEntity
  8
-TEXT3
100
AcDbDimension
  2
*D14
 10
2013.667319787306
 20
-1415.736383368637
 30
0.0
 11
2013.667319787307
 21
-1498.299139166726
 31
0.0
 70
   160
 71
     5
 42
7.0
  3
Kopie von 1-1
100
AcDbAlignedDimension
 13
2039.953472395471
 23
-1422.736383368637
 33
0.0
 14
2039.953472395471
 24
-1415.736383368637
 34
0.0
 50
90.0
100
AcDbRotatedDimension
  0
DIMENSION
  5
EDEA
330
1F
100
AcDbEntity
  8
-TEXT3
100
AcDbDimension
  2
*D15
 10
1936.198078136425
 20
-1314.736383368637
 30
0.0
 11
1911.402034480218
 21
-1368.736383368636
 31
0.0
 70
    32
 71
     5
 42
108.0
  3
Kopie von 1-1
100
AcDbAlignedDimension
 13
2012.667319787306
 23
-1422.736383368637
 33
0.0
 14
2039.953472395471
 24
-1314.736383368637
 34
0.0
 50
90.0
100
AcDbRotatedDimension
  0
DIMENSION
  5
F296
330
1F
100
AcDbEntity
  8
-TEXT3
100
AcDbDimension
  2
*D16
 10
5039.953472395471
 20
-1593.16579023171
 30
0.0
 11
3539.953472395472
 21
-1565.783343665089
 31
0.0
 70
    32
 71
     5
 42
3000.0
  3
Kopie(2) von 1-1
100
AcDbAlignedDimension
 13
2039.953472395471
 23
-1506.969385162824
 33
0.0
 14
5039.953472395471
 24
-1506.969385162824
 34
0.0
100
AcDbRotatedDimension
  0
LINE
  5
F4A9
330
1F
100
AcDbEntity
  8
SR24972
  6
Continuous
 62
     1
100
AcDbLine
 10
1680.821895679849
 20
-1414.73666767493
 30
0.0
 11
1681.056210372057
 21
-1414.73666767493
 31
0.0
  0
LWPOLYLINE
  5
F4AA
330
1F
100
AcDbEntity
  8
BALARDO-Profil
100
AcDbPolyline
 90
       34
 70
     0
 43
0.0
 10
1702.998968966516
 20
-1314.736617674901
 10
1704.858964884376
 20
-1314.736617674902
 42
-0.5069410358786716
 10
1705.33906522596
 20
-1315.236617924901
 10
1705.33906522596
 20
-1407.924602780213
 42
0.3388979972732135
 10
1711.135291453092
 20
-1415.736668174928
 10
1780.839040975946
 20
-1415.73666817493
 42
-0.4142135623730951
 10
1781.339041225946
 20
-1416.23666842493
 10
1781.339041225946
 20
-1422.236671424932
 42
-0.5138594936449924
 10
1780.839040975946
 20
-1422.736383368637
 10
1658.141895052787
 20
-1422.752365705074
 42
-0.3693011134363653
 10
1657.339041225946
 20
-1421.837991753952
 10
1657.339041225946
 20
-1315.227327873295
 42
-0.4563549496973895
 10
1657.792776898922
 20
-1314.736617674899
 10
1662.296777006227
 20
-1314.736617674899
 42
-0.4931214049006166
 10
1662.796777256227
 20
-1315.236617924899
 10
1664.469800516901
 20
-1340.397189254766
 42
-0.3456922038625663
 10
1664.196798736014
 20
-1340.859946209991
 10
1663.035644293542
 20
-1341.198703500675
 42
0.2866522993631568
 10
1661.195949369194
 20
-1344.288944971456
 10
1664.094122452414
 20
-1387.847493158088
 10
1665.544393372545
 20
-1408.173215098621
 42
0.3559715428340717
 10
1671.684995184002
 20
-1414.73666767493
 10
1680.256209972057
 20
-1414.73666767493
 10
1690.993111267903
 20
-1414.73666767493
 42
0.3505478011239961
 10
1697.133713079361
 20
-1408.17321509862
 10
1698.581627222469
 20
-1387.847493158088
 10
1701.33893769785
 20
-1347.501523979913
 42
0.0742831303482951
 10
1701.280555893126
 20
-1346.478031927643
 10
1700.914643744756
 20
-1344.018825254151
 10
1700.023421041409
 20
-1341.811561494301
 42
0.1609829403306843
 10
1696.133526097918
 20
-1336.791236824502
 10
1700.638972798656
 20
-1315.2366179249
 42
-0.4474934053984886
 10
1701.138973048657
 20
-1314.736617674899
 10
1703.009028686666
 20
-1314.736617674901
  0
LWPOLYLINE
  5
F4AB
330
1F
100
AcDbEntity
  8
-SYSTEM
100
AcDbPolyline
 90
        2
 70
     0
 43
0.0
 10
1745.339041225946
 20
-1410.548358383461
 10
1745.339041225946
 20
-1427.924693160085
  0
LWPOLYLINE
  5
F4AC
330
1F
100
AcDbEntity
  8
-NORMTEIL_VERDECKT
  6
STRICHLINIEX2
 62
     9
100
AcDbPolyline
 90
        3
 70
     0
 43
0.0
 10
1738.338532733448
 20
-1422.74480868425
 10
1738.338532733448
 20
-1422.74480868425
 10
1738.339037725946
 20
-1415.736668174918
  0
LWPOLYLINE
  5
F4AD
330
1F
100
AcDbEntity
  8
-NORMTEIL_VERDECKT
  6
STRICHLINIEX2
 62
     9
100
AcDbPolyline
 90
        3
 70
     0
 43
0.0
 10
1752.338539171518
 20
-1422.742003863013
 10
1752.338539171518
 20
-1422.742003863013
 10
1752.339044725946
 20
-1415.736668174918
  0
DIMENSION
  5
F4AE
330
1F
100
AcDbEntity
  8
-TEXT3
100
AcDbDimension
  2
*D17
 10
1781.339041225946
 20
-1593.16579023171
 30
0.0
 11
1719.339041225946
 21
-1568.608491459541
 31
0.0
 70
    32
  1
{\fArial|b0|i0|c238|p34;<>}
 71
     5
 42
124.0
  3
Kopie von 1-1
100
AcDbAlignedDimension
 13
1657.339041225946
 23
-1508.469385162824
 33
0.0
 14
1781.339041225946
 24
-1508.469385162824
 34
0.0
100
AcDbRotatedDimension
  0
DIMENSION
  5
F4B0
330
1F
100
AcDbEntity
  8
-TEXT3
100
AcDbDimension
  2
*D18
 10
1745.339041225946
 20
-1504.969385162824
 30
0.0
 11
1701.339041225946
 21
-1480.173341506617
 31
0.0
 70
    32
 71
     5
 42
88.0
  3
Kopie von 1-1
100
AcDbAlignedDimension
 13
1657.339041225946
 23
-1421.837991753952
 33
0.0
 14
1745.339041225946
 24
-1427.924693160085
 34
0.0
100
AcDbRotatedDimension
  0
DIMENSION
  5
F4B1
330
1F
100
AcDbEntity
  8
-TEXT3
100
AcDbDimension
  2
*D19
 10
1781.339041225946
 20
-1504.969385162824
 30
0.0
 11
1867.874511894432
 21
-1480.163791711255
 31
0.0
 70
    32
 71
     5
 42
36.0
  3
Kopie von 1-1
100
AcDbAlignedDimension
 13
1745.339041225946
 23
-1427.924693160085
 33
0.0
 14
1781.339041225946
 24
-1422.236671424932
 34
0.0
100
AcDbRotatedDimension
  0
LWPOLYLINE
  5
F4B3
330
1F
100
AcDbEntity
  8
-GLAS
100
AcDbPolyline
 90
        6
 70
   128
 43
0.0
 10
1670.179053025952
 20
-1260.240531960543
 10
1670.179053025952
 20
-1408.240531960543
 10
1672.179053025953
 20
-1410.240531960543
 10
1689.699053025953
 20
-1410.240531960543
 10
1691.699053025953
 20
-1408.240531960543
 10
1691.699053025953
 20
-1260.240531960543
  0
LINE
  5
F4B4
330
1F
100
AcDbEntity
  8
-GLAS
100
AcDbLine
 10
1681.699053025953
 20
-1410.240531960543
 30
0.0
 11
1681.699053025953
 21
-1260.240531960543
 31
0.0
  0
LINE
  5
F4B5
330
1F
100
AcDbEntity
  8
-GLAS
100
AcDbLine
 10
1680.179053025953
 20
-1260.240531960543
 30
0.0
 11
1680.179053025953
 21
-1410.240531960543
 31
0.0
  0
LWPOLYLINE
  5
F4B6
330
1F
100
AcDbEntity
  8
-DICHTUNG
100
AcDbPolyline
 90
       12
 70
     0
 43
0.0
 10
1663.74082134435
 20
-1329.434082584287
 10
1670.179053025952
 20
-1329.434082584287
 10
1670.179053025952
 20
-1319.275876716303
 42
0.4522402936801287
 10
1669.319564509225
 20
-1318.436379666697
 10
1665.920591928732
 20
-1318.684445337882
 42
-0.77519030129796
 10
1665.875598447459
 20
-1318.007789058199
 10
1670.091163316374
 20
-1312.973117957295
 42
0.9186907316229586
 10
1669.738929029868
 20
-1312.493906539761
 10
1667.337681290146
 20
-1313.947414653074
 42
-0.9289229613802632
 10
1666.958046784099
 20
-1313.361561763436
 10
1670.179053025952
 20
-1309.934082584287
 10
1659.265960706653
 20
-1314.736617674899
  0
LWPOLYLINE
  5
F4B7
330
1F
100
AcDbEntity
  8
--KLEMMSCHUH
100
AcDbPolyline
 90
       12
 70
     1
 43
0.0
 10
1691.699053025953
 20
-1408.240531960543
 10
1691.699053025953
 20
-1388.115372337844
 10
1698.562544699637
 20
-1388.115372337844
 10
1697.133713079361
 20
-1408.17321509862
 42
-0.3505478011239961
 10
1690.993111267903
 20
-1414.73666767493
 10
1671.684995184002
 20
-1414.73666767493
 42
-0.3559715428340553
 10
1665.544393372545
 20
-1408.173215098621
 10
1664.113236035963
 20
-1388.115372337844
 10
1670.179053025952
 20
-1388.115372337844
 10
1670.179053025952
 20
-1408.240531960543
 10
1672.179053025953
 20
-1410.240531960543
 10
1689.699053025953
 20
-1410.240531960543
  0
CIRCLE
  5
F4B8
330
1F
100
AcDbEntity
  8
-TEXT3
100
AcDbCircle
 10
1695.199053025953
 20
-1324.170343168192
 30
0.0
 40
3.5
  0
INSERT
  5
F4B9
330
1F
100
AcDbEntity
  8
-TEXT3
100
AcDbBlockReference
  2
Innendichtung 04
 10
1702.998968966516
 20
-1314.736617674901
 30
0.0
  0
LWPOLYLINE
  5
F4BA
330
1F
100
AcDbEntity
  8
BALARDO-Profil
 48
2.0
100
AcDbPolyline
 90
       12
 70
     1
 43
0.0
 38
-275.000137499999
 10
1692.939053025954
 20
-1246.629649317195
 10
1692.939053025951
 20
-1224.629649317195
 42
0.4142135623727076
 10
1690.939053025954
 20
-1222.629649317195
 10
1670.939053025955
 20
-1222.629649317166
 42
0.4142135623730951
 10
1668.939053025955
 20
-1224.629649317166
 10
1668.939053025955
 20
-1246.629649317195
 10
1665.939053025955
 20
-1246.629649317195
 10
1665.939053025958
 20
-1224.629649317195
 42
-0.4142135623730951
 10
1670.939053025958
 20
-1219.629649317195
 10
1690.939053025954
 20
-1219.629649317195
 42
-0.4142135623730951
 10
1695.939053025955
 20
-1224.629649317195
 10
1695.939053025955
 20
-1246.629649317195
  0
MTEXT
  5
1227B
330
1F
100
AcDbEntity
  8
-TEXT2
100
AcDbMText
 10
3564.476637199847
 20
-731.9704112136869
 30
0.0
 40
100.0
 41
724.6738926319373
 71
     2
 72
     5
  1
Top 1
 73
     1
 44
1.0
1001
ACAD
1000
ACAD_MTEXT_DEFINED_HEIGHT_BEGIN
1070
    46
1040
125.6610970359991
1000
ACAD_MTEXT_DEFINED_HEIGHT_END
  0
MTEXT
  5
1227D
330
1F
100
AcDbEntity
  8
-TEXT2
100
AcDbMText
 10
3579.114639465826
 20
-1108.612160890013
 30
0.0
 40
50.0
 41
738.4528344039142
 71
     5
 72
     5
  1
Bohrbild %%C14 mm
 73
     1
 44
1.0
1001
ACAD
1000
ACAD_MTEXT_DEFINED_HEIGHT_BEGIN
1070
    46
1040
102.1387822706275
1000
ACAD_MTEXT_DEFINED_HEIGHT_END
  0
LWPOLYLINE
  5
1394B
330
1F
100
AcDbEntity
  8
-TEXT
100
AcDbPolyline
 90
        4
 70
     1
 43
0.0
 10
1575.488486746188
 20
-2669.995408765089
 10
5151.488486746188
 20
-2669.995408765089
 10
5151.488486746188
 20
-149.9954087650885
 10
1575.488486746188
 20
-149.9954087650885
  0
DIMENSION
  5
141A4
330
1F
100
AcDbEntity
  8
-TEXT3
100
AcDbDimension
  2
*D128
 10
3421.953472395472
 20
-1381.535062781726
 30
0.0
 11
3523.682667484148
 21
-1355.955935905873
 31
0.0
 70
    32
  1
%%C<>
 71
     5
 42
14.0
  3
Kopie von 1-1
100
AcDbAlignedDimension
 13
3407.953472395472
 23
-1415.736383368637
 33
0.0
 14
3421.953472395472
 24
-1415.736383368637
 34
0.0
100
AcDbRotatedDimension
  0
LWPOLYLINE
  5
179B3
330
1F
100
AcDbEntity
  8
-TEXT
100
AcDbPolyline
 90
        5
 70
     0
 43
0.0
 10
3200.408695406427
 20
-2669.995408765089
 10
5151.488486746188
 20
-2669.995408765089
 10
5151.488486746188
 20
-2089.944659988402
 10
3200.408695406427
 20
-2089.944659988402
 10
3200.408695406427
 20
-2669.995408765089
  0
LINE
  5
179B4
330
1F
100
AcDbEntity
  8
-ZEICHNUNGSRAND-INNEN
100
AcDbLine
 10
3200.408695406427
 20
-2432.701920629171
 30
0.0
 11
5151.488486746188
 21
-2432.701920629171
 31
0.0
  0
LINE
  5
179B5
330
1F
100
AcDbEntity
  8
-ZEICHNUNGSRAND-INNEN
100
AcDbLine
 10
3200.408695406427
 20
-2511.79975000781
 30
0.0
 11
5151.488486746188
 21
-2511.79975000781
 31
0.0
  0
MTEXT
  5
179B6
330
1F
100
AcDbEntity
  8
-TEXT2
100
AcDbMText
 10
4396.466519081331
 20
-2475.541698737102
 30
0.0
 40
30.0
 41
1497.554942463246
 71
     5
 72
     5
  1
Geländersystem BALARDO ALU
 73
     1
 44
1.0
1001
ACAD
1000
ACAD_MTEXT_DEFINED_HEIGHT_BEGIN
1070
    46
1040
0.0
1000
ACAD_MTEXT_DEFINED_HEIGHT_END
  0
TEXT
  5
179B7
330
1F
100
AcDbEntity
  8
-TEXT3
100
AcDbText
 10
3206.420130439197
 20
-2541.856925171692
 30
0.0
 40
18.78573447742676
  1
(Benennung)
 41
0.8
  7
LOGOCAD
100
AcDbText
  0
LINE
  5
179B8
330
1F
100
AcDbEntity
  8
-TEXT3
100
AcDbLine
 10
3200.408695406427
 20
-2471.880064243279
 30
0.0
 11
3639.994882178231
 21
-2471.880064243279
 31
0.0
  0
TEXT
  5
179B9
330
1F
100
AcDbEntity
  8
-TEXT3
100
AcDbText
 10
3206.420130439219
 20
-2501.937239407161
 30
0.0
 40
18.78573447742676
  1
Bearb.
 41
0.8
  7
LOGOCAD
100
AcDbText
  0
MTEXT
  5
179BA
330
1F
100
AcDbEntity
  8
-TEXT2
100
AcDbMText
 10
3821.330459623962
 20
-2596.213352905717
 30
0.0
 40
30.0
 41
1139.138175864111
 71
     5
 72
     5
  1
Zur Bodenmontage
 73
     1
 44
1.0
1001
ACAD
1000
ACAD_MTEXT_DEFINED_HEIGHT_BEGIN
1070
    46
1040
0.0
1000
ACAD_MTEXT_DEFINED_HEIGHT_END
  0
MTEXT
  5
179BB
330
1F
100
AcDbEntity
  8
-TEXT3
100
AcDbMText
 10
3309.106726254576
 20
-2489.682680946396
 30
0.0
 40
23.7293488135917
 41
324.0414358610254
 71
     4
 72
     5
  1
03.11.16     Mall
 73
     1
 44
1.0
1001
ACAD
1000
ACAD_MTEXT_DEFINED_HEIGHT_BEGIN
1070
    46
1040
0.0
1000
ACAD_MTEXT_DEFINED_HEIGHT_END
  0
TEXT
  5
179BC
330
1F
100
AcDbEntity
  8
-TEXT3
100
AcDbText
 10
3304.105949721823
 20
-2462.017553642628
 30
0.0
 40
18.78573447742676
  1
Datum
 41
0.8
  7
LOGOCAD
100
AcDbText
  0
LINE
  5
179BD
330
1F
100
AcDbEntity
  8
-TEXT3
100
AcDbLine
 10
3298.094514689037
 20
-2431.960378478748
 30
0.0
 11
3298.094514689037
 21
-2511.79975000781
 31
0.0
  0
LINE
  5
179BE
330
1F
100
AcDbEntity
  8
-TEXT3
100
AcDbLine
 10
3444.62324361298
 20
-2431.960378478748
 30
0.0
 11
3444.62324361298
 21
-2511.79975000781
 31
0.0
  0
TEXT
  5
179BF
330
1F
100
AcDbEntity
  8
-TEXT3
100
AcDbText
 10
3450.634678645766
 20
-2462.017553642628
 30
0.0
 40
18.78573447742676
  1
Name
 41
0.8
  7
LOGOCAD
100
AcDbText
  0
LINE
  5
179C0
330
1F
100
AcDbEntity
  8
-TEXT
100
AcDbLine
 10
3639.994882178231
 20
-2511.79975000781
 30
0.0
 11
3639.994882178231
 21
-2432.701920629171
 31
0.0
  0
LINE
  5
179C1
330
1F
100
AcDbEntity
  8
-ZEICHNUNGSRAND-INNEN
100
AcDbLine
 10
4142.08476976418
 20
-2089.944659988402
 30
0.0
 11
4142.08476976418
 21
-2432.701920629171
 31
0.0
  0
LINE
  5
179C2
330
1F
100
AcDbEntity
  8
-TEXT2
100
AcDbLine
 10
4321.159022843931
 20
-2511.79975000781
 30
0.0
 11
4321.159022843931
 21
-2669.995408765089
 31
0.0
  0
MTEXT
  5
179C3
330
1F
100
AcDbEntity
  8
-TEXT2
100
AcDbMText
 10
4737.73317704594
 20
-2596.47233624884
 30
0.0
 40
30.0
 41
383.8302073133182
 71
     5
 72
     5
  1
Systemprofil Top 1
 73
     1
 44
1.0
1001
ACAD
1000
ACAD_MTEXT_DEFINED_HEIGHT_BEGIN
1070
    46
1040
0.0
1000
ACAD_MTEXT_DEFINED_HEIGHT_END
  0
MTEXT
  5
179C6
330
1F
100
AcDbEntity
  8
-TEXT2
100
AcDbMText
 10
4411.218445035578
 20
-2101.113530656655
 30
0.0
 40
58.1580886400464
 41
1096.061878032474
 71
     1
 72
     5
  1
{\fCentury Gothic|b0|i0|c0|p34;\P\fArial|b0|i0|c0|p34;\H0.625x;Industriestraße 7-8\P74740 Adelsheim\P\H0.8x;\C2;Tel.: 06291-6259-0\PFax: 06291-6259-11}
 73
     1
 44
1.0
1001
ACAD
1000
ACAD_MTEXT_DEFINED_HEIGHT_BEGIN
1070
    46
1040
0.0
1000
ACAD_MTEXT_DEFINED_HEIGHT_END
  0
IMAGE
  5
179C7
330
1F
100
AcDbEntity
  8
-TEXT3
 92
      140
310
8C00000001000000840000000600000005000000608C6BBD3C21B1405A79F2E46E2EA1C00000000000000000608C6BBD3C21B140B4C788A16158A0C00000000000000000AA72BDCA941CB340B4C788A16158A0C00000000000000000AA72BDCA941CB3405A79F2E46E2EA1C00000000000000000608C6BBD3C21B1405A79F2
310
E46E2EA1C00000000000000000
100
AcDbRasterImage
 90
        0
 10
4385.237265321513
 20
-2199.216590478243
 30
0.0
 11
1.0290952398496
 21
0.0
 31
0.0
 12
0.0000000000000001
 22
1.0290952398496
 32
0.0
 13
493.0
 23
104.0
340
17996
 70
     7
280
     0
281
    50
282
    50
283
     0
360
179C8
 71
     1
 91
        2
 14
-0.5
 24
-0.5
 14
492.4999999999999
 24
103.5
  0
MTEXT
  5
179CA
330
1F
100
AcDbEntity
  8
-TEXT2
100
AcDbMText
 10
3226.286814916031
 20
-2260.270673343875
 30
0.0
 40
31.6391317514556
 41
1018.170453773077
 71
     4
 72
     5
  1
Alle Rechte vorbehalten, einschließlich des\PVervielfälltigens, Einlesens auf elektronischen\PDatenträgern und die Weitergabe an dritte\PPersonen nur nach ausdrücklicher\PGenehmigung der Firma Glassline GmbH
 73
     1
 44
1.0
1001
ACAD
1000
ACAD_MTEXT_DEFINED_HEIGHT_BEGIN
1070
    46
1040
0.0
1000
ACAD_MTEXT_DEFINED_HEIGHT_END
  0
MTEXT
  5
179CB
330
1F
100
AcDbEntity
  8
-TEXT2
100
AcDbMText
 10
1801.853507492254
 20
-2408.16276056543
 30
0.0
 40
40.0
 41
1445.765655579647
 71
     4
 72
     5
  1
Material:^IAluminium\POberflächen:^I"natur" unbehandelt\P^I^IEdelstahleffekt (E6/EV1)\P^I^IPremium Edelstahloptik geschliffen
 73
     1
 44
1.0
1001
ACAD
1000
ACAD_MTEXT_DEFINED_HEIGHT_BEGIN
1070
    46
1040
0.0
1000
ACAD_MTEXT_DEFINED_HEIGHT_END
  0
ENDSEC
  0
SECTION
  2
OBJECTS
  0
DICTIONARY
  5
C
330
0
100
AcDbDictionary
281
     1
  3
ACAD_COLOR
350
480
  3
ACAD_GROUP
350
D
  3
ACAD_IMAGE_DICT
350
17995
  3
ACAD_IMAGE_VARS
350
17998
  3
ACAD_LAYOUT
350
1A
  3
ACAD_MATERIAL
350
467
  3
ACAD_MLEADERSTYLE
350
462
  3
ACAD_MLINESTYLE
350
17
  3
ACAD_PLOTSETTINGS
350
19
  3
ACAD_PLOTSTYLENAME
350
E
  3
ACAD_SCALELIST
350
3B
  3
ACAD_TABLESTYLE
350
481
  3
ACAD_VISUALSTYLE
350
2A
  3
ACDB_RECOMPOSE_DATA
350
525
  3
AcDbVariableDictionary
350
460
  3
AEC_CLASSIFICATION_SYSTEM_DEFS
350
24F0
  3
AEC_PROPERTY_SET_DEFS
350
893
  3
ASE_INDEX_DICTIONARY
350
114E4
  3
Ks_BoltRefDictionary
350
4A1
  3
Ks_HoleDisplayRefDictionary
350
4EB
  3
Ks_KoteFlagRefDictionary
350
4D8
  3
Ks_PartFamilyDictionary
350
890
  3
Ks_PosFlagRefDictionary
350
4DB
  3
Ks_ShapeRefDictionary
350
4EF
  3
Ks_WeldRefDictionary
350
4C8
  3
Ks_XRecordDictionary
350
4EC
  3
PsLizControl
350
488
  0
DICTIONARY
  5
526
330
8
100
AcDbDictionary
280
     1
281
     1
  3
ACAD_XREC_ROUNDTRIP
360
2286
  0
DICTIONARY
  5
7C6
330
2
100
AcDbDictionary
280
     1
281
     1
  3
ACAD_LAYERSTATES
360
7C7
  0
DICTIONARY
  5
4F0
330
10
100
AcDbDictionary
280
     1
281
     1
  3
ADSK_XREC_LAYER_RECONCILED
360
4F1
  0
DICTIONARY
  5
4F6
330
74
100
AcDbDictionary
280
     1
281
     1
  3
ADSK_XREC_LAYER_RECONCILED
360
4F7
  0
DICTIONARY
  5
6401
330
6400
100
AcDbDictionary
280
     1
281
     1
  3
ACAD_XREC_ROUNDTRIP
360
6402
  0
DICTIONARY
  5
1324
330
1F
100
AcDbDictionary
280
     1
281
     1
  3
ACAD_SORTENTS
360
137B
  0
IMAGEDEF_REACTOR
  5
179C8
330
179C7
100
AcDbRasterImageDefReactor
 90
        2
330
179C7
  0
DICTIONARY
  5
480
102
{ACAD_REACTORS
330
C
102
}
330
C
100
AcDbDictionary
281
     1
  0
DICTIONARY
  5
D
102
{ACAD_REACTORS
330
C
102
}
330
C
100
AcDbDictionary
281
     1
  0
DICTIONARY
  5
17995
102
{ACAD_REACTORS
330
C
102
}
330
C
100
AcDbDictionary
281
     1
  3
Glassline_Logo_RGB_72dpi
350
17996
  0
RASTERVARIABLES
  5
17998
102
{ACAD_REACTORS
330
C
102
}
330
C
100
AcDbRasterVariables
 90
        0
 70
     0
 71
     1
 72
     1
  0
DICTIONARY
  5
1A
102
{ACAD_REACTORS
330
C
102
}
330
C
100
AcDbDictionary
281
     1
  3
Layout1
350
1E
  3
Model
350
22
  0
DICTIONARY
  5
467
102
{ACAD_REACTORS
330
C
102
}
330
C
100
AcDbDictionary
281
     1
  3
ByBlock
350
470
  3
ByLayer
350
468
  3
Global
350
478
  0
DICTIONARY
  5
462
102
{ACAD_REACTORS
330
C
102
}
330
C
100
AcDbDictionary
281
     1
  3
Standard
350
483
  0
DICTIONARY
  5
17
102
{ACAD_REACTORS
330
C
102
}
330
C
100
AcDbDictionary
281
     1
  3
Standard
350
18
  0
DICTIONARY
  5
19
102
{ACAD_REACTORS
330
C
102
}
330
C
100
AcDbDictionary
281
     1
  0
ACDBDICTIONARYWDFLT
  5
E
102
{ACAD_REACTORS
330
C
102
}
330
C
100
AcDbDictionary
281
     1
  3
Normal
350
F
100
AcDbDictionaryWithDefault
340
F
  0
DICTIONARY
  5
3B
102
{ACAD_REACTORS
330
C
102
}
330
C
100
AcDbDictionary
281
     1
  3
A0
350
3C
  3
A1
350
3D
  3
A2
350
3E
  3
A3
350
3F
  3
A4
350
40
  3
A5
350
41
  3
A6
350
42
  3
A7
350
43
  3
A8
350
44
  3
A9
350
45
  3
B0
350
46
  3
B1
350
47
  3
B2
350
48
  3
B3
350
49
  3
B4
350
4A
  3
B5
350
4B
  3
B6
350
4C
  3
B7
350
4D
  3
B8
350
4E
  3
B9
350
4F
  3
C0
350
50
  3
C1
350
51
  3
C2
350
52
  3
C3
350
53
  3
C4
350
54
  3
C5
350
55
  3
C6
350
56
  3
C7
350
57
  3
C8
350
58
  3
C9
350
59
  3
D0
350
5A
  3
D1
350
5B
  3
D2
350
5C
  0
DICTIONARY
  5
481
102
{ACAD_REACTORS
330
C
102
}
330
C
100
AcDbDictionary
281
     1
  3
Standard
350
482
  0
DICTIONARY
  5
2A
102
{ACAD_REACTORS
330
C
102
}
330
C
100
AcDbDictionary
281
     1
  3
2dWireframe
350
2F
  3
3D Hidden
350
31
  3
3dWireframe
350
30
  3
Basic
350
32
  3
Brighten
350
36
  3
ColorChange
350
3A
  3
Conceptual
350
34
  3
Dim
350
35
  3
Facepattern
350
39
  3
Flat
350
2B
  3
FlatWithEdges
350
2C
  3
Gouraud
350
2D
  3
GouraudWithEdges
350
2E
  3
Linepattern
350
38
  3
Realistic
350
33
  3
Thicken
350
37
  0
XRECORD
  5
525
102
{ACAD_REACTORS
330
C
102
}
330
C
100
AcDbXrecord
280
     1
 90
        1
330
482
  0
DICTIONARY
  5
460
102
{ACAD_REACTORS
330
C
102
}
330
C
100
AcDbDictionary
281
     1
  3
CANNOSCALE
350
465
  3
CMLEADERSTYLE
350
52D
  3
CTABLESTYLE
350
52C
  3
LAYEREVAL
350
224A
  3
LAYERNOTIFY
350
224B
  3
LIGHTINGUNITS
350
2249
  3
MSLTSCALE
350
2248
  3
PSOLHEIGHT
350
228C
  3
PSOLWIDTH
350
228B
  0
DICTIONARY
  5
24F0
102
{ACAD_REACTORS
330
C
102
}
330
C
100
AcDbDictionary
281
     1
  0
DICTIONARY
  5
893
102
{ACAD_REACTORS
330
C
102
}
330
C
100
AcDbDictionary
281
     1
  0
DICTIONARY
  5
114E4
102
{ACAD_REACTORS
330
C
102
}
330
C
100
AcDbDictionary
281
     1
  3
ASEBlockHierarchyIndexRecord
350
114E5
1001
DCO15
1040
1746859877.692
  0
DICTIONARY
  5
4A1
102
{ACAD_REACTORS
330
C
102
}
330
C
100
AcDbDictionary
280
     1
281
     1
  3
4.6S
360
4AF
  3
4.6S-GALV
360
4B0
  3
8.8S
360
4B1
  3
8.8S-GALV
360
4B7
  3
8.8TB
360
4B2
  3
8.8TB-GALV
360
4B3
  3
8.8TF
360
4B4
  3
8.8TF-GALV
360
4B5
  3
A307 FIELD
360
4B8
  3
A307 SHOP
360
4B9
  3
A325 FIELD
360
4BA
  3
A325 SHOP
360
4BB
  3
A490 FIELD
360
4BC
  3
A490 SHOP
360
4BD
  3
CN_B
360
4BE
  3
CN_C
360
4BF
  3
CN_GQ8.8
360
4C1
  3
DIN558
360
4AB
  3
DIN601
360
4AC
  3
DIN6914
360
4A3
  3
DIN7968
360
4A7
  3
DIN7969
360
4A8
  3
DIN7984
360
4AA
  3
DIN7990
360
4A2
  3
DIN7991
360
4A6
  3
DIN7999
360
4A9
  3
DIN912
360
4AD
  3
DIN931
360
4A4
  3
DIN933
360
4A5
  3
DIN965
360
4AE
  3
Gewindestange
360
4B6
  0
DICTIONARY
  5
4EB
102
{ACAD_REACTORS
330
C
102
}
330
C
100
AcDbDictionary
280
     1
281
     1
  0
DICTIONARY
  5
4D8
102
{ACAD_REACTORS
330
C
102
}
330
C
100
AcDbDictionary
280
     1
281
     1
  3
Dreiecke
360
4DA
  3
Standard
360
4D9
  0
DICTIONARY
  5
890
102
{ACAD_REACTORS
330
C
102
}
330
C
100
AcDbDictionary
280
     1
281
     1
  0
DICTIONARY
  5
4DB
102
{ACAD_REACTORS
330
C
102
}
330
C
100
AcDbDictionary
280
     1
281
     1
  3
Assembly
360
4E9
  3
Baugruppe
360
4EA
  3
Baugruppenhauptteil
360
4DD
  3
Baugruppennebenteil
360
4E0
  3
Baugruppenteil
360
4E5
  3
BG-Übersicht
360
4E6
  3
Einzelteil
360
4E7
  3
Einzelteile
360
4DC
  3
Kurzposition
360
4E1
  3
Montage
360
4E3
  3
Polyplatten
360
4DF
  3
Schraube
360
4E2
  3
Sonderprofile
360
4DE
  3
Standard
360
4E4
  3
SubGruppe
360
4E8
  0
DICTIONARY
  5
4EF
102
{ACAD_REACTORS
330
C
102
}
330
C
100
AcDbDictionary
280
     1
281
     1
  0
DICTIONARY
  5
4C8
102
{ACAD_REACTORS
330
C
102
}
330
C
100
AcDbDictionary
280
     1
281
     1
  3
HU-Naht
360
1AD4
  3
HV-Naht
360
4CB
  3
HY-Naht
360
4CC
  3
I-Naht
360
4CD
  3
K-Naht
360
1AD5
  3
Kehl 3mm
360
4CE
  3
Kehl 4mm
360
4CF
  3
Kehl 5mm
360
4D0
  3
Kehl-Naht
360
1AD6
  3
Kehlnaht
360
4C9
  3
Linien-Naht
360
4D1
  3
Loch-Naht
360
4D2
  3
Punkt-Naht
360
4D3
  3
Standard
360
4D4
  3
U- Naht
360
4D5
  3
V-Naht
360
4CA
  3
X-Naht
360
4D6
  3
Y-Naht
360
4D7
  0
DICTIONARY
  5
4EC
102
{ACAD_REACTORS
330
C
102
}
330
C
100
AcDbDictionary
281
     1
  3
KS_MEASUREMENT
350
4ED
  3
PsAreaDictionary_17
350
891
  3
PsHideDictionary_17
350
892
  3
PsSCreenSettings
350
522
  0
DICTIONARY
  5
488
102
{ACAD_REACTORS
330
C
102
}
330
C
100
AcDbDictionary
281
     1
  3
0
350
489
  0
XRECORD
  5
2286
102
{ACAD_REACTORS
330
526
102
}
330
526
100
AcDbXrecord
280
     1
102
VTR_0.000_0.000_1.000_1.000_VISUALSTYLE
340
2F
102
VTR_0.000_0.000_1.000_1.000_GRIDDISPLAY
 70
     3
102
VTR_0.000_0.000_1.000_1.000_GRIDMAJOR
 70
     5
102
VTR_0.000_0.000_1.000_1.000_DEFAULTLIGHTING
280
     1
102
VTR_0.000_0.000_1.000_1.000_DEFAULTLIGHTINGTYPE
 70
     1
102
VTR_0.000_0.000_1.000_1.000_BRIGHTNESS
141
0.0
102
VTR_0.000_0.000_1.000_1.000_CONTRAST
142
0.0
  0
DICTIONARY
  5
7C7
102
{ACAD_REACTORS
330
7C6
102
}
330
7C6
100
AcDbDictionary
281
     1
  0
XRECORD
  5
4F1
102
{ACAD_REACTORS
330
4F0
102
}
330
4F0
100
AcDbXrecord
280
     1
290
     1
  0
XRECORD
  5
4F7
102
{ACAD_REACTORS
330
4F6
102
}
330
4F6
100
AcDbXrecord
280
     1
290
     1
  0
XRECORD
  5
6402
102
{ACAD_REACTORS
330
6401
102
}
330
6401
100
AcDbXrecord
280
     1
102
MATERIAL
340
478
  0
SORTENTSTABLE
  5
137B
102
{ACAD_REACTORS
330
1324
102
}
330
1324
100
AcDbSortentsTable
330
1F
331
F4B5
  5
F4B5
331
E9F8
  5
E9F8
331
EA16
  5
EA16
331
EA3D
  5
EA3D
331
EA1F
  5
EA1F
331
F4AD
  5
F4AD
331
EADB
  5
EADB
331
EA0A
  5
EA0A
331
F4B6
  5
F4B6
331
EA57
  5
EA57
331
E9F9
  5
E9F9
331
EA17
  5
EA17
331
EA20
  5
EA20
331
EA02
  5
EA02
331
F4AE
  5
F4AE
331
EADC
  5
EADC
331
EA0B
  5
EA0B
331
F4B7
  5
F4B7
331
EDDB
  5
EDDB
331
EA18
  5
EA18
331
E9FA
  5
E9FC
331
EA03
  5
EA03
331
EA21
  5
EA21
331
EADD
  5
EADD
331
EA0C
  5
EA0C
331
F4B8
  5
F4B8
331
EA10
  5
EA10
331
EA19
  5
EA19
331
E9FB
  5
E9FA
331
EA22
  5
EA22
331
EA04
  5
EA04
331
F4B0
  5
F4B0
331
EA0D
  5
EA0D
331
F4B9
  5
F4B9
331
EA11
  5
EA11
331
EA1A
  5
EA1A
331
EA23
  5
EA23
331
EA05
  5
EA05
331
F4B1
  5
F4B1
331
EA0E
  5
EA0E
331
EA30
  5
EA30
331
F4BA
  5
F4BA
331
EA12
  5
EA12
331
EDEA
  5
EDEA
331
EA1B
  5
EA1B
331
F4A9
  5
F4A9
331
EA4A
  5
EA4A
331
EA06
  5
EA06
331
EA0F
  5
EA0F
331
EA13
  5
EA13
331
EA1C
  5
EA1C
331
EA99
  5
EA99
331
EA07
  5
EA07
331
F4AA
  5
F4AA
331
F4B3
  5
F4B3
331
EA14
  5
EA14
331
EA58
  5
EA58
331
EA1D
  5
EA1D
331
EA9A
  5
EA9A
331
EA08
  5
EA08
331
F4AB
  5
F4AB
331
F296
  5
F296
331
F4B4
  5
F4B4
331
E9F7
  5
E9F7
331
EA15
  5
EA15
331
EA59
  5
EA59
331
EA1E
  5
EA1E
331
EA9B
  5
EA9B
331
EA09
  5
EA09
331
F4AC
  5
F4AC
  0
IMAGEDEF
  5
17996
102
{ACAD_REACTORS
330
17995
330
179C8
330
179E1
330
179FA
330
17A13
330
17A2C
330
17A45
330
17A5E
330
17A77
330
18F6E
102
}
330
17995
100
AcDbRasterImageDef
 90
        0
  1
T:\Marketing\Öffentlich\Logo\Glassline_Logo_RGB_72dpi.jpg
 10
493.0
 20
104.0
 11
0.3527777777777778
 21
0.3527777777777778
280
     1
281
     5
  0
LAYOUT
  5
1E
102
{ACAD_REACTORS
330
1A
102
}
330
1A
100
AcDbPlotSettings
  1

  2
none_device
  4

  6

 40
0.0
 41
0.0
 42
0.0
 43
0.0
 44
0.0
 45
0.0
 46
0.0
 47
0.0
 48
0.0
 49
0.0
140
0.0
141
0.0
142
1.0
143
1.0
 70
   688
 72
     0
 73
     0
 74
     5
  7
brüstung.ctb
 75
    16
147
1.0
 76
     0
 77
     2
 78
   300
148
0.0
149
0.0
100
AcDbLayout
  1
Layout1
 70
     1
 71
     1
 10
0.0
 20
0.0
 11
420.0
 21
297.0
 12
0.0
 22
0.0
 32
0.0
 14
0.0
 24
0.0
 34
0.0
 15
420.0
 25
297.0
 35
0.0
146
0.0
 13
0.0
 23
0.0
 33
0.0
 16
1.0
 26
0.0
 36
0.0
 17
0.0
 27
1.0
 37
0.0
 76
     0
330
1B
  0
LAYOUT
  5
22
102
{ACAD_REACTORS
330
1A
102
}
330
1A
100
AcDbPlotSettings
  1

  2
Adobe PDF
  4
A4
  6

 40
3.174999952316284
 41
3.174999952316284
 42
3.175003051757812
 43
3.17498779296875
 44
209.9098358154297
 45
297.0318298339844
 46
0.0
 47
73.61681887927471
 48
2075.510975939371
 49
357.1149598522916
140
2390.510975939371
141
804.1149598522915
142
1.0
143
2.195914556553241
 70
 11956
 72
     1
 73
     1
 74
     4
  7
brüstung.ctb
 75
     0
147
0.4553911248576189
 76
     0
 77
     2
 78
   300
148
-2075.510975939371
149
-357.1149598522916
100
AcDbLayout
  1
Model
 70
     1
 71
     0
 10
0.0
 20
0.0
 11
420.0
 21
297.0
 12
0.0
 22
0.0
 32
0.0
 14
0.0
 24
0.0
 34
0.0
 15
420.0
 25
297.0
 35
0.0
146
0.0
 13
0.0
 23
0.0
 33
0.0
 16
1.0
 26
0.0
 36
0.0
 17
0.0
 27
1.0
 37
0.0
 76
     0
330
1F
1001
ACAD_PSEXT
1000
Adobe PDF
1000
Adobe PDF Converter
1000
Eigene Dateien
1000

1070
     0
  0
MATERIAL
  5
470
102
{ACAD_XDICTIONARY
360
471
102
}
102
{ACAD_REACTORS
330
467
102
}
330
467
100
AcDbMaterial
  1
ByBlock
 72
     0
 73
     2
 43
0.0008202099737533
 43
0.0
 43
0.0
 43
0.0
 43
0.0
 43
0.0008202099737533
 43
0.0
 43
0.0
 43
0.0
 43
0.0
 43
1.0
 43
0.0
 43
0.0
 43
0.0
 43
0.0
 43
1.0
 77
     0
 78
     2
 47
0.0008202099737533
 47
0.0
 47
0.0
 47
0.0
 47
0.0
 47
0.0008202099737533
 47
0.0
 47
0.0
 47
0.0
 47
0.0
 47
1.0
 47
0.0
 47
0.0
 47
0.0
 47
0.0
 47
1.0
171
     0
172
     2
 49
0.0008202099737533
 49
0.0
 49
0.0
 49
0.0
 49
0.0
 49
0.0008202099737533
 49
0.0
 49
0.0
 49
0.0
 49
0.0
 49
1.0
 49
0.0
 49
0.0
 49
0.0
 49
0.0
 49
1.0
175
     0
176
     2
142
0.0008202099737533
142
0.0
142
0.0
142
0.0
142
0.0
142
0.0008202099737533
142
0.0
142
0.0
142
0.0
142
0.0
142
1.0
142
0.0
142
0.0
142
0.0
142
0.0
142
1.0
179
     0
270
     2
144
0.0008202099737533
144
0.0
144
0.0
144
0.0
144
0.0
144
0.0008202099737533
144
0.0
144
0.0
144
0.0
144
0.0
144
1.0
144
0.0
144
0.0
144
0.0
144
0.0
144
1.0
274
     2
147
0.0008202099737533
147
0.0
147
0.0
147
0.0
147
0.0
147
0.0008202099737533
147
0.0
147
0.0
147
0.0
147
0.0
147
1.0
147
0.0
147
0.0
147
0.0
147
0.0
147
1.0
  0
MATERIAL
  5
468
102
{ACAD_XDICTIONARY
360
469
102
}
102
{ACAD_REACTORS
330
467
102
}
330
467
100
AcDbMaterial
  1
ByLayer
 72
     0
 73
     2
 43
0.0008202099737533
 43
0.0
 43
0.0
 43
0.0
 43
0.0
 43
0.0008202099737533
 43
0.0
 43
0.0
 43
0.0
 43
0.0
 43
1.0
 43
0.0
 43
0.0
 43
0.0
 43
0.0
 43
1.0
 77
     0
 78
     2
 47
0.0008202099737533
 47
0.0
 47
0.0
 47
0.0
 47
0.0
 47
0.0008202099737533
 47
0.0
 47
0.0
 47
0.0
 47
0.0
 47
1.0
 47
0.0
 47
0.0
 47
0.0
 47
0.0
 47
1.0
171
     0
172
     2
 49
0.0008202099737533
 49
0.0
 49
0.0
 49
0.0
 49
0.0
 49
0.0008202099737533
 49
0.0
 49
0.0
 49
0.0
 49
0.0
 49
1.0
 49
0.0
 49
0.0
 49
0.0
 49
0.0
 49
1.0
175
     0
176
     2
142
0.0008202099737533
142
0.0
142
0.0
142
0.0
142
0.0
142
0.0008202099737533
142
0.0
142
0.0
142
0.0
142
0.0
142
1.0
142
0.0
142
0.0
142
0.0
142
0.0
142
1.0
179
     0
270
     2
144
0.0008202099737533
144
0.0
144
0.0
144
0.0
144
0.0
144
0.0008202099737533
144
0.0
144
0.0
144
0.0
144
0.0
144
1.0
144
0.0
144
0.0
144
0.0
144
0.0
144
1.0
274
     2
147
0.0008202099737533
147
0.0
147
0.0
147
0.0
147
0.0
147
0.0008202099737533
147
0.0
147
0.0
147
0.0
147
0.0
147
1.0
147
0.0
147
0.0
147
0.0
147
0.0
147
1.0
  0
MATERIAL
  5
478
102
{ACAD_XDICTIONARY
360
479
102
}
102
{ACAD_REACTORS
330
467
102
}
330
467
100
AcDbMaterial
  1
Global
 72
     0
 73
     2
 43
0.0008202099737533
 43
0.0
 43
0.0
 43
0.0
 43
0.0
 43
0.0008202099737533
 43
0.0
 43
0.0
 43
0.0
 43
0.0
 43
1.0
 43
0.0
 43
0.0
 43
0.0
 43
0.0
 43
1.0
 77
     0
 78
     2
 47
0.0008202099737533
 47
0.0
 47
0.0
 47
0.0
 47
0.0
 47
0.0008202099737533
 47
0.0
 47
0.0
 47
0.0
 47
0.0
 47
1.0
 47
0.0
 47
0.0
 47
0.0
 47
0.0
 47
1.0
171
     0
172
     2
 49
0.0008202099737533
 49
0.0
 49
0.0
 49
0.0
 49
0.0
 49
0.0008202099737533
 49
0.0
 49
0.0
 49
0.0
 49
0.0
 49
1.0
 49
0.0
 49
0.0
 49
0.0
 49
0.0
 49
1.0
175
     0
176
     2
142
0.0008202099737533
142
0.0
142
0.0
142
0.0
142
0.0
142
0.0008202099737533
142
0.0
142
0.0
142
0.0
142
0.0
142
1.0
142
0.0
142
0.0
142
0.0
142
0.0
142
1.0
179
     0
270
     2
144
0.0008202099737533
144
0.0
144
0.0
144
0.0
144
0.0
144
0.0008202099737533
144
0.0
144
0.0
144
0.0
144
0.0
144
1.0
144
0.0
144
0.0
144
0.0
144
0.0
144
1.0
274
     2
147
0.0008202099737533
147
0.0
147
0.0
147
0.0
147
0.0
147
0.0008202099737533
147
0.0
147
0.0
147
0.0
147
0.0
147
1.0
147
0.0
147
0.0
147
0.0
147
0.0
147
1.0
  0
ACAD_PROXY_OBJECT
  5
483
102
{ACAD_REACTORS
330
462
102
}
330
462
100
AcDbProxyObject
 90
      499
 91
      508
 95
  4980761
 70
     0
 93
      744
310
40901902A40600000030400FEFFFFFF8000000000000008102B5E8DC0F42B5CFD095374616E646172640000000000000004102405064068000000C1000000000000000410000000000000004102000000304015D90000000000000C03F00
340
14
340
0
340
11
340
0
 94
        0
1001
ACAD_MLEADERVER
1070
     2
  0
MLINESTYLE
  5
18
102
{ACAD_REACTORS
330
17
102
}
330
17
100
AcDbMlineStyle
  2
STANDARD
 70
     0
  3

 62
   256
 51
90.0
 52
90.0
 71
     2
 49
0.5
 62
   256
  6
BYLAYER
 49
-0.5
 62
   256
  6
BYLAYER
  0
ACDBPLACEHOLDER
  5
F
102
{ACAD_REACTORS
330
E
102
}
330
E
  0
ACAD_PROXY_OBJECT
  5
3C
102
{ACAD_REACTORS
330
3B
102
}
330
3B
100
AcDbProxyObject
 90
      499
 91
      502
 95
  4980761
 70
     0
 93
       49
310
904313A3100598
 94
        0
  0
ACAD_PROXY_OBJECT
  5
3D
102
{ACAD_REACTORS
330
3B
102
}
330
3B
100
AcDbProxyObject
 90
      499
 91
      502
 95
  4980761
 70
     0
 93
      113
310
904313A32004000000000000004004
 94
        0
  0
ACAD_PROXY_OBJECT
  5
3E
102
{ACAD_REACTORS
330
3B
102
}
330
3B
100
AcDbProxyObject
 90
      499
 91
      502
 95
  4980761
 70
     0
 93
      113
310
904313A34004000000000000104074
 94
        0
  0
ACAD_PROXY_OBJECT
  5
3F
102
{ACAD_REACTORS
330
3B
102
}
330
3B
100
AcDbProxyObject
 90
      499
 91
      502
 95
  4980761
 70
     0
 93
      113
310
904313A35004000000000000144004
 94
        0
  0
ACAD_PROXY_OBJECT
  5
40
102
{ACAD_REACTORS
330
3B
102
}
330
3B
100
AcDbProxyObject
 90
      499
 91
      502
 95
  4980761
 70
     0
 93
      113
310
904313A38004000000000000204074
 94
        0
  0
ACAD_PROXY_OBJECT
  5
41
102
{ACAD_REACTORS
330
3B
102
}
330
3B
100
AcDbProxyObject
 90
      499
 91
      502
 95
  4980761
 70
     0
 93
      121
310
905313A3130004000000000000244009
 94
        0
  0
ACAD_PROXY_OBJECT
  5
42
102
{ACAD_REACTORS
330
3B
102
}
330
3B
100
AcDbProxyObject
 90
      499
 91
      502
 95
  4980761
 70
     0
 93
      121
310
905313A3136004000000000000304009
 94
        0
  0
ACAD_PROXY_OBJECT
  5
43
102
{ACAD_REACTORS
330
3B
102
}
330
3B
100
AcDbProxyObject
 90
      499
 91
      502
 95
  4980761
 70
     0
 93
      121
310
905313A3230004000000000000344009
 94
        0
  0
ACAD_PROXY_OBJECT
  5
44
102
{ACAD_REACTORS
330
3B
102
}
330
3B
100
AcDbProxyObject
 90
      499
 91
      502
 95
  4980761
 70
     0
 93
      121
310
905313A33300040000000000003E4009
 94
        0
  0
ACAD_PROXY_OBJECT
  5
45
102
{ACAD_REACTORS
330
3B
102
}
330
3B
100
AcDbProxyObject
 90
      499
 91
      502
 95
  4980761
 70
     0
 93
      121
310
905313A3430004000000000000444009
 94
        0
  0
ACAD_PROXY_OBJECT
  5
46
102
{ACAD_REACTORS
330
3B
102
}
330
3B
100
AcDbProxyObject
 90
      499
 91
      502
 95
  4980761
 70
     0
 93
      121
310
905313A3530004000000000000494009
 94
        0
  0
ACAD_PROXY_OBJECT
  5
47
102
{ACAD_REACTORS
330
3B
102
}
330
3B
100
AcDbProxyObject
 90
      499
 91
      502
 95
  4980761
 70
     0
 93
      129
310
906313A313030004000000000000594002
 94
        0
  0
ACAD_PROXY_OBJECT
  5
48
102
{ACAD_REACTORS
330
3B
102
}
330
3B
100
AcDbProxyObject
 90
      499
 91
      502
 95
  4980761
 70
     0
 93
      113
310
904323A31000000000000000010140
 94
        0
  0
ACAD_PROXY_OBJECT
  5
49
102
{ACAD_REACTORS
330
3B
102
}
330
3B
100
AcDbProxyObject
 90
      499
 91
      502
 95
  4980761
 70
     0
 93
      113
310
904343A31000000000000000410140
 94
        0
  0
ACAD_PROXY_OBJECT
  5
4A
102
{ACAD_REACTORS
330
3B
102
}
330
3B
100
AcDbProxyObject
 90
      499
 91
      502
 95
  4980761
 70
     0
 93
      113
310
904383A31000000000000000810100
 94
        0
  0
ACAD_PROXY_OBJECT
  5
4B
102
{ACAD_REACTORS
330
3B
102
}
330
3B
100
AcDbProxyObject
 90
      499
 91
      502
 95
  4980761
 70
     0
 93
      121
310
90531303A31000000000000000910109
 94
        0
  0
ACAD_PROXY_OBJECT
  5
4C
102
{ACAD_REACTORS
330
3B
102
}
330
3B
100
AcDbProxyObject
 90
      499
 91
      502
 95
  4980761
 70
     0
 93
      129
310
9063130303A31000000000000001650100
 94
        0
  0
ACAD_PROXY_OBJECT
  5
4D
102
{ACAD_REACTORS
330
3B
102
}
330
3B
100
AcDbProxyObject
 90
      499
 91
      502
 95
  4980761
 70
     0
 93
      265
310
90F312F31323822203D2031272D302200000000000000200FC000000000000284002
 94
        0
  0
ACAD_PROXY_OBJECT
  5
4E
102
{ACAD_REACTORS
330
3B
102
}
330
3B
100
AcDbProxyObject
 90
      499
 91
      502
 95
  4980761
 70
     0
 93
      257
310
90E312F363422203D2031272D302200000000000000240FC000000000000284000
 94
        0
  0
ACAD_PROXY_OBJECT
  5
4F
102
{ACAD_REACTORS
330
3B
102
}
330
3B
100
AcDbProxyObject
 90
      499
 91
      502
 95
  4980761
 70
     0
 93
      257
310
90E312F333222203D2031272D302200000000000000280FC000000000000284040
 94
        0
  0
ACAD_PROXY_OBJECT
  5
50
102
{ACAD_REACTORS
330
3B
102
}
330
3B
100
AcDbProxyObject
 90
      499
 91
      502
 95
  4980761
 70
     0
 93
      257
310
90E312F313622203D2031272D3022000000000000002C0FC000000000000284000
 94
        0
  0
ACAD_PROXY_OBJECT
  5
51
102
{ACAD_REACTORS
330
3B
102
}
330
3B
100
AcDbProxyObject
 90
      499
 91
      502
 95
  4980761
 70
     0
 93
      257
310
90E332F333222203D2031272D3022000000000000002E0FC000000000000284040
 94
        0
  0
ACAD_PROXY_OBJECT
  5
52
102
{ACAD_REACTORS
330
3B
102
}
330
3B
100
AcDbProxyObject
 90
      499
 91
      502
 95
  4980761
 70
     0
 93
      249
310
90D312F3822203D2031272D302200000000000000300FC000000000000284040
 94
        0
  0
ACAD_PROXY_OBJECT
  5
53
102
{ACAD_REACTORS
330
3B
102
}
330
3B
100
AcDbProxyObject
 90
      499
 91
      502
 95
  4980761
 70
     0
 93
      257
310
90E332F313622203D2031272D302200000000000000320FC000000000000284040
 94
        0
  0
ACAD_PROXY_OBJECT
  5
54
102
{ACAD_REACTORS
330
3B
102
}
330
3B
100
AcDbProxyObject
 90
      499
 91
      502
 95
  4980761
 70
     0
 93
      249
310
90D312F3422203D2031272D302200000000000000340FC000000000000284040
 94
        0
  0
ACAD_PROXY_OBJECT
  5
55
102
{ACAD_REACTORS
330
3B
102
}
330
3B
100
AcDbProxyObject
 90
      499
 91
      502
 95
  4980761
 70
     0
 93
      249
310
90D332F3822203D2031272D302200000000000000360FC000000000000284040
 94
        0
  0
ACAD_PROXY_OBJECT
  5
56
102
{ACAD_REACTORS
330
3B
102
}
330
3B
100
AcDbProxyObject
 90
      499
 91
      502
 95
  4980761
 70
     0
 93
      249
310
90D312F3222203D2031272D302200000000000000380FC000000000000284040
 94
        0
  0
ACAD_PROXY_OBJECT
  5
57
102
{ACAD_REACTORS
330
3B
102
}
330
3B
100
AcDbProxyObject
 90
      499
 91
      502
 95
  4980761
 70
     0
 93
      249
310
90D332F3422203D2031272D3022000000000000003A0FC000000000000284040
 94
        0
  0
ACAD_PROXY_OBJECT
  5
58
102
{ACAD_REACTORS
330
3B
102
}
330
3B
100
AcDbProxyObject
 90
      499
 91
      502
 95
  4980761
 70
     0
 93
      169
310
90B3122203D2031272D3022004000000000000284000
 94
        0
  0
ACAD_PROXY_OBJECT
  5
59
102
{ACAD_REACTORS
330
3B
102
}
330
3B
100
AcDbProxyObject
 90
      499
 91
      502
 95
  4980761
 70
     0
 93
      265
310
90F312D312F3222203D2031272D3022000000000000003E0FC000000000000284002
 94
        0
  0
ACAD_PROXY_OBJECT
  5
5A
102
{ACAD_REACTORS
330
3B
102
}
330
3B
100
AcDbProxyObject
 90
      499
 91
      502
 95
  4980761
 70
     0
 93
      233
310
90B3322203D2031272D30220000000000000002100000000000000284028
 94
        0
  0
ACAD_PROXY_OBJECT
  5
5B
102
{ACAD_REACTORS
330
3B
102
}
330
3B
100
AcDbProxyObject
 90
      499
 91
      502
 95
  4980761
 70
     0
 93
      233
310
90B3622203D2031272D30220000000000000006100000000000000284000
 94
        0
  0
ACAD_PROXY_OBJECT
  5
5C
102
{ACAD_REACTORS
330
3B
102
}
330
3B
100
AcDbProxyObject
 90
      499
 91
      502
 95
  4980761
 70
     0
 93
      257
310
90E31272D3022203D2031272D3022000000000000000A100000000000000284000
 94
        0
  0
TABLESTYLE
  5
482
102
{ACAD_XDICTIONARY
360
523
102
}
102
{ACAD_REACTORS
330
481
102
}
330
481
100
AcDbTableStyle
  3
Standard
 70
     0
 71
     0
 40
1.5
 41
1.5
280
     0
281
     0
  7
Standard
140
4.5
170
     2
 62
     0
 63
     7
283
     0
274
    -2
284
     1
 64
     0
275
    -2
285
     1
 65
     0
276
    -2
286
     1
 66
     0
277
    -2
287
     1
 67
     0
278
    -2
288
     1
 68
     0
279
    -2
289
     1
 69
     0
  7
Standard
140
6.0
170
     5
 62
     0
 63
     7
283
     0
274
    -2
284
     1
 64
     0
275
    -2
285
     1
 65
     0
276
    -2
286
     1
 66
     0
277
    -2
287
     1
 67
     0
278
    -2
288
     1
 68
     0
279
    -2
289
     1
 69
     0
  7
Standard
140
4.5
170
     5
 62
     0
 63
     7
283
     0
274
    -2
284
     1
 64
     0
275
    -2
285
     1
 65
     0
276
    -2
286
     1
 66
     0
277
    -2
287
     1
 67
     0
278
    -2
288
     1
 68
     0
279
    -2
289
     1
 69
     0
  0
ACAD_PROXY_OBJECT
  5
2F
102
{ACAD_REACTORS
330
2A
102
}
330
2A
100
AcDbProxyObject
 90
      499
 91
      501
 95
  4980761
 70
     0
 93
      598
310
430C9915DA5C99599C985B59401049028333333333333E3BF0000000000000FB0201C00030C02405048070000C3008000000C800405A000000320014050640A01C00030C010500920280D0
 94
        0
1001
ACAD
1000
AcDbSavedByObjectVersion
1070
     0
  0
ACAD_PROXY_OBJECT
  5
31
102
{ACAD_REACTORS
330
2A
102
}
330
2A
100
AcDbProxyObject
 90
      499
 91
      501
 95
  4980761
 70
     0
 93
      662
310
428CD108121A5919195B8010640502408333333333333E3BF0000000000000FB0201C00030C02409028070000C3008000000C8004080000000000004440A000000320014050640A01C00030C010300920280D0
 94
        0
1001
ACAD
1000
AcDbSavedByObjectVersion
1070
     0
  0
ACAD_PROXY_OBJECT
  5
30
102
{ACAD_REACTORS
330
2A
102
}
330
2A
100
AcDbProxyObject
 90
      499
 91
      501
 95
  4980761
 70
     0
 93
      598
310
430CD915DA5C99599C985B59401059028333333333333E3BF0000000000000FB0201C00030C02405048070000C3008000000C800405A000000320014050640A01C00030C010500920280D3
 94
        0
1001
ACAD
1000
AcDbSavedByObjectVersion
1070
     0
  0
ACAD_PROXY_OBJECT
  5
32
102
{ACAD_REACTORS
330
2A
102
}
330
2A
100
AcDbProxyObject
 90
      499
 91
      501
 95
  4980761
 70
     0
 93
      558
310
4190985CDA58C0107406404333333333333E3BF0000000000000FB0201C00030C029048070000C3008000000C80040542201C00030C014050640A01C00030C010500920280D5
 94
        0
1001
ACAD
1000
AcDbSavedByObjectVersion
1070
     0
  0
ACAD_PROXY_OBJECT
  5
36
102
{ACAD_REACTORS
330
2A
102
}
330
2A
100
AcDbProxyObject
 90
      499
 91
      501
 95
  4980761
 70
     0
 93
      598
310
42509C9A59DA1D195B8010C409028333333333333E3BF0000000000000FB0201C00030C02405048070000C3008000000C80040542201C00030C014050640A01C00030C010500920280A654
 94
        0
1001
ACAD
1000
AcDbSavedByObjectVersion
1070
     0
  0
ACAD_PROXY_OBJECT
  5
3A
102
{ACAD_REACTORS
330
2A
102
}
330
2A
100
AcDbProxyObject
 90
      499
 91
      501
 95
  4980761
 70
     0
 93
      622
310
4310DBDB1BDC90DA185B99D9401104090240C333333333333E3BF0000000000000FB0202000030C02405048070000C3008000000C80040542202000030C014050640A01C00030C010500920280D4
 94
        0
1001
ACAD
1000
AcDbSavedByObjectVersion
1070
     0
  0
ACAD_PROXY_OBJECT
  5
34
102
{ACAD_REACTORS
330
2A
102
}
330
2A
100
AcDbProxyObject
 90
      499
 91
      501
 95
  4980761
 70
     0
 93
      670
310
42D0DBDB98D95C1D1D585B0010940D028333333333333E3BF0000000000000FB0201C00030C02409028070000C3008000000C800404000000000000444042201C00030C014050640A01C00030C010300920280D0
 94
        0
1001
ACAD
1000
AcDbSavedByObjectVersion
1070
     0
  0
ACAD_PROXY_OBJECT
  5
35
102
{ACAD_REACTORS
330
2A
102
}
330
2A
100
AcDbProxyObject
 90
      499
 91
      501
 95
  4980761
 70
     0
 93
      582
310
41111A5B4010B409028333333333333E3BF0000000000000FB0201C00030C02405048070000C3008000000C80040542201C00030C014050640A01C00030C01050092028099DFFFFFF6
 94
        0
1001
ACAD
1000
AcDbSavedByObjectVersion
1070
     0
  0
ACAD_PROXY_OBJECT
  5
39
102
{ACAD_REACTORS
330
2A
102
}
330
2A
100
AcDbProxyObject
 90
      499
 91
      501
 95
  4980761
 70
     0
 93
      614
310
43119858D95C185D1D195C9B8010F409028333333333333E3BF0000000000000FB0201C00030C02405048070000C3008000000C80040542201C00030C014050640A01C00030C010500920280D4
 94
        0
1001
ACAD
1000
AcDbSavedByObjectVersion
1070
     0
  0
ACAD_PROXY_OBJECT
  5
2B
102
{ACAD_REACTORS
330
2A
102
}
330
2A
100
AcDbProxyObject
 90
      499
 91
      501
 95
  4980761
 70
     0
 93
      558
310
41519B185D00240901404333333333333E3BF0000000000000F90201C00030C01029048070000C3008000000C80040542201C00030C014050640A01C00030C010500920286D4
 94
        0
1001
ACAD
1000
AcDbSavedByObjectVersion
1070
     0
  0
ACAD_PROXY_OBJECT
  5
2C
102
{ACAD_REACTORS
330
2A
102
}
330
2A
100
AcDbProxyObject
 90
      499
 91
      501
 95
  4980761
 70
     0
 93
      638
310
43919B185D15DA5D1A115919D95CC010140901404333333333333E3BF0000000000000F90201C00030C0102405048070000C3008000000C800405A000000320014050640A01C00030C010500920286D4
 94
        0
1001
ACAD
1000
AcDbSavedByObjectVersion
1070
     0
  0
ACAD_PROXY_OBJECT
  5
2D
102
{ACAD_REACTORS
330
2A
102
}
330
2A
100
AcDbProxyObject
 90
      499
 91
      501
 95
  4980761
 70
     0
 93
      582
310
4211DBDD5C985D590010240902404333333333333E3BF0000000000000F90201C00030C01029048070000C3008000000C800405A01C00030C014050640A01C00030C010500920286D4
 94
        0
1001
ACAD
1000
AcDbSavedByObjectVersion
1070
     0
  0
ACAD_PROXY_OBJECT
  5
2E
102
{ACAD_REACTORS
330
2A
102
}
330
2A
100
AcDbProxyObject
 90
      499
 91
      501
 95
  4980761
 70
     0
 93
      662
310
4451DBDD5C985D5915DA5D1A115919D95CC010340902404333333333333E3BF0000000000000F90201C00030C0102405048070000C3008000000C800405A000000320014050640A01C00030C010500920286D4
 94
        0
1001
ACAD
1000
AcDbSavedByObjectVersion
1070
     0
  0
ACAD_PROXY_OBJECT
  5
38
102
{ACAD_REACTORS
330
2A
102
}
330
2A
100
AcDbProxyObject
 90
      499
 91
      501
 95
  4980761
 70
     0
 93
      614
310
43131A5B995C185D1D195C9B8010E409028333333333333E3BF0000000000000FB0201C00030C02405048070000C3008000000C80041D42201C00030C014050640A01C00030C010500920E80D4
 94
        0
1001
ACAD
1000
AcDbSavedByObjectVersion
1070
     0
  0
ACAD_PROXY_OBJECT
  5
33
102
{ACAD_REACTORS
330
2A
102
}
330
2A
100
AcDbProxyObject
 90
      499
 91
      501
 95
  4980761
 70
     0
 93
      590
310
429499585B1A5CDD1A58C0108409028333333333333E3BF0000000000000FB0201C00030C024068070000C3008000000C80040542202000030C014050640A01C00030C010500920286D0
 94
        0
1001
ACAD
1000
AcDbSavedByObjectVersion
1070
     0
  0
ACAD_PROXY_OBJECT
  5
37
102
{ACAD_REACTORS
330
2A
102
}
330
2A
100
AcDbProxyObject
 90
      499
 91
      501
 95
  4980761
 70
     0
 93
      582
310
42151A1A58DAD95B8010D409028333333333333E3BF0000000000000FB0201C00030C02405048070000C3008000000C80040543201C00030C014050640A01C00030C010500920280D6
 94
        0
1001
ACAD
1000
AcDbSavedByObjectVersion
1070
     0
  0
DICTIONARYVAR
  5
465
102
{ACAD_REACTORS
330
460
102
}
330
460
100
DictionaryVariables
280
     0
  1
1:1
  0
DICTIONARYVAR
  5
52D
102
{ACAD_REACTORS
330
460
102
}
330
460
100
DictionaryVariables
280
     0
  1
STANDARD
  0
DICTIONARYVAR
  5
52C
102
{ACAD_REACTORS
330
460
102
}
330
460
100
DictionaryVariables
280
     0
  1
STANDARD
  0
DICTIONARYVAR
  5
224A
102
{ACAD_REACTORS
330
460
102
}
330
460
100
DictionaryVariables
280
     0
  1
1
  0
DICTIONARYVAR
  5
224B
102
{ACAD_REACTORS
330
460
102
}
330
460
100
DictionaryVariables
280
     0
  1
15
  0
DICTIONARYVAR
  5
2249
102
{ACAD_REACTORS
330
460
102
}
330
460
100
DictionaryVariables
280
     0
  1
0
  0
DICTIONARYVAR
  5
2248
102
{ACAD_REACTORS
330
460
102
}
330
460
100
DictionaryVariables
280
     0
  1
0
  0
DICTIONARYVAR
  5
228C
102
{ACAD_REACTORS
330
460
102
}
330
460
100
DictionaryVariables
280
     0
  1
80.000000
  0
DICTIONARYVAR
  5
228B
102
{ACAD_REACTORS
330
460
102
}
330
460
100
DictionaryVariables
280
     0
  1
5.000000
  0
XRECORD
  5
114E5
102
{ACAD_REACTORS
330
114E4
102
}
330
114E4
100
AcDbXrecord
280
     1
330
0
330
0
330
0
330
0
330
0
330
0
330
0
330
0
330
0
330
0
330
0
330
F4B9
330
0
  0
ACAD_PROXY_OBJECT
  5
4AF
102
{ACAD_REACTORS
330
4A1
102
}
330
4A1
100
AcDbProxyObject
 90
      499
 91
      509
 95
  4980761
 70
     0
 93
     2328
310
40C2C0006002C0000011541535F426F6C745374796C65477265792E626D7000414D0B8D94C011041535F426F6C745F3436532E6462660090444D3490A110A481E08090A130A480D0B8D8BD4C011124284429204469612E20576173686572004293490A110A48139D5D002A44D3490A110A481E08090A130A480D0B8D8BD4C0
310
1075761736865720041139D5D002A42890A110A48111A584B8010D426C61636B2057617368657200AA43D054D7D39D5D17CD0D9CCB9918998010F41535F4E75745F3436732E64626600449054D7D5D85CDA195C97CD0D9CCB9918998011241535F5761736865725F3436732E646266004554D8DA195A58994D0CCD0B8D0CCD
310
5D5A4B99189980115536368656962653433342E34333575692E6462660041D0641906AA90600
 94
        0
  0
ACAD_PROXY_OBJECT
  5
4B0
102
{ACAD_REACTORS
330
4A1
102
}
330
4A1
100
AcDbProxyObject
 90
      499
 91
      509
 95
  4980761
 70
     0
 93
     1888
310
40C1C0802002C0000011541535F426F6C745374796C65477265792E626D7000428D0B8D94CB51D053158011041535F426F6C745F3436532E646266009044613490A110A481E08090A130A480D0B8D8BD4C811D053158010A24284429204469612E004293490A110A48139D5D002A4613490A110A481E08090A130A480D0B8D
310
8BD4C811D053158011247616C76616E69736564205761736865720041139D5D002A42890A110A48111A584B8011247616C76616E697365642057617368657200AA43D054D7D39D5D17CD0D9CCB991899802449054D7D5D85CDA195C97CD0D9CCB991899802A41D0641906AA90657
 94
        0
  0
ACAD_PROXY_OBJECT
  5
4B1
102
{ACAD_REACTORS
330
4A1
102
}
330
4A1
100
AcDbProxyObject
 90
      499
 91
      509
 95
  4980761
 70
     0
 93
     1760
310
40C1C0006002C0000011641535F426F6C745374796C654C426C75652E626D7000414E0B8E14C011041535F426F6C745F3838732E6462660090444D3490A110A481E08090A130A480E0B8E0BD4C01124D24284429204469612E20576173686572004293490A110A48139555002A44D3490A110A481E08090A130A480E0B8E0B
310
D4C0107576173686572004293490A110A48139555002A42890A110A48111A584B8010D426C61636B2057617368657200AA43D054D7D39D5D17CE0E1CCB991899802449054D7D5D85CDA195C97CE0E1CCB991899802A4110841D07AA907CC
 94
        0
  0
ACAD_PROXY_OBJECT
  5
4B7
102
{ACAD_REACTORS
330
4A1
102
}
330
4A1
100
AcDbProxyObject
 90
      499
 91
      509
 95
  4980761
 70
     0
 93
     1960
310
40C1C0802002C0000011641535F426F6C745374796C654C426C75652E626D7000428E0B8E14CB51D053158011041535F426F6C745F3838732E646266009044613490A110A481E08090A130A480E0B8E0BD4C811D05315801124D24284429204469612E20576173686572004293490A110A48139555002A4613490A110A481E
310
08090A130A480E0B8E0BD4C811D053158011247616C76616E69736564205761736865720041139555002A42890A110A48111A584B8011247616C76616E697365642057617368657200AA43D054D7D39D5D17CE0E1CCB991899802449054D7D5D85CDA195C97CE0E1CCB991899802A4110841D07AA90700
 94
        0
  0
ACAD_PROXY_OBJECT
  5
4B2
102
{ACAD_REACTORS
330
4A1
102
}
330
4A1
100
AcDbProxyObject
 90
      499
 91
      509
 95
  4980761
 70
     0
 93
     2328
310
40C1C0006002C0000011641535F426F6C745374796C6544426C75652E626D7000418E0B8E15108011041535F426F6C745F3838732E646266009044513490A110A481E08090A130A480E0B8E0BD5108011D4D24284429204C4F414420494E4449434154494E4720574153484552004293490A110A48139555002A4513490A11
310
0A481E08090A130A480E0B8E0BD5108011D4D24284429204C4F414420494E4449434154494E4720574153484552004293490A110A48139555002A4753490A110A481313D051081253911250D055125391C815D054D211548011D4D24284429204C4F414420494E4449434154494E472057415348455200AA43D054D7D39D5D
310
17CE0E1CCB991899802449054D7D5D85CDA195C97CE0E1CCB991899802A4150841D07AA90700
 94
        0
  0
ACAD_PROXY_OBJECT
  5
4B3
102
{ACAD_REACTORS
330
4A1
102
}
330
4A1
100
AcDbProxyObject
 90
      499
 91
      509
 95
  4980761
 70
     0
 93
     2528
310
40C1C0806002C0000011641535F426F6C745374796C6544426C75652E626D700042CE0B8E15108B51D053158011041535F426F6C745F3838732E646266009044653490A110A481E08090A130A480E0B8E0BD5108811D053158011D4D24284429204C4F414420494E4449434154494E47205741534845520043D3490A110A48
310
1395550811D05315802A4653490A110A481E08090A130A480E0B8E0BD5108811D053158011D4D24284429204C4F414420494E4449434154494E47205741534845520043D3490A110A481395550811D05315802A4753490A110A481313D051081253911250D055125391C815D054D211548011D4D24284429204C4F41442049
310
4E4449434154494E472057415348455200AA43D054D7D39D5D17CE0E1CCB991899802449054D7D5D85CDA195C97CE0E1CCB991899802A4150841D07AA90759
 94
        0
  0
ACAD_PROXY_OBJECT
  5
4B4
102
{ACAD_REACTORS
330
4A1
102
}
330
4A1
100
AcDbProxyObject
 90
      499
 91
      509
 95
  4980761
 70
     0
 93
     2344
310
40C1C0006002C0000011841535F426F6C745374796C654D6167656E74612E626D7000418E0B8E15118011041535F426F6C745F3838732E646266009044513490A110A481E08090A130A480E0B8E0BD5118011D4D24284429204C4F414420494E4449434154494E4720574153484552004293490A110A48139555002A451349
310
0A110A481E08090A130A480E0B8E0BD5118011D4D24284429204C4F414420494E4449434154494E4720574153484552004293490A110A48139555002A4753490A110A481313D051081253911250D055125391C815D054D211548011D4D24284429204C4F414420494E4449434154494E472057415348455200AA43D054D7D3
310
9D5D17CE0E1CCB991899802449054D7D5D85CDA195C97CE0E1CCB991899802A4190841D07AA9072E
 94
        0
  0
ACAD_PROXY_OBJECT
  5
4B5
102
{ACAD_REACTORS
330
4A1
102
}
330
4A1
100
AcDbProxyObject
 90
      499
 91
      509
 95
  4980761
 70
     0
 93
     2464
310
40C1C0806002C0000011841535F426F6C745374796C654D6167656E74612E626D700042CE0B8E15118B51D053158011041535F426F6C745F3838732E646266009044653490A110A481E08090A130A480E0B8E0BD5118811D053158011D4D24284429204C4F414420494E4449434154494E4720574153484552004293490A11
310
0A48139555002A4653490A110A481E08090A130A480E0B8E0BD5118811D053158011D4D24284429204C4F414420494E4449434154494E4720574153484552004293490A110A48139555002A4753490A110A481313D051081253911250D055125391C815D054D211548011D4D24284429204C4F414420494E4449434154494E
310
472057415348455200AA43D054D7D39D5D17CE0E1CCB991899802449054D7D5D85CDA195C97CE0E1CCB991899802A4190841D07AA90700
 94
        0
  0
ACAD_PROXY_OBJECT
  5
4B8
102
{ACAD_REACTORS
330
4A1
102
}
330
4A1
100
AcDbProxyObject
 90
      499
 91
      509
 95
  4980761
 70
     0
 93
     2536
310
40C2C0006002C00000115424F4C545354594C4559454C4C4F57312E626D700042D04CCC0DC811925153110010D613330375F6865782E646266004050447119251531108109BDB1D08090A110A5E090A130A48104CCC0DCB53801165761736865722024284429204153544D20463433360044D39D5D08090A110A481054D513
310
48104D4D8CC02A47119251531108109BDB1D08090A110A5E090A130A48104CCC0DCB53801165761736865722024284429204153544D20463433360044D39D5D08090A110A481054D51348104D4D8CC02A4595D85CDA195C88090A110A481054D51348118D0CCD80117536368656962652024284429204153544D2046343336
310
00AA451554D7D84D4D8CD7DA195E08139D5D0B991899802471554D7D98D0CCD8810DA5C98DD5B185C8815D85CDA195C8B991899802A4098360D8358D09A90900
 94
        0
  0
ACAD_PROXY_OBJECT
  5
4B9
102
{ACAD_REACTORS
330
4A1
102
}
330
4A1
100
AcDbProxyObject
 90
      499
 91
      509
 95
  4980761
 70
     0
 93
     2496
310
40C2C0002002C00000113424F4C545354594C45424C5545312E626D700042904CCC0DC814D213D40010D613330375F6865782E646266004050446D4D213D408109BDB1D08090A110A5E090A130A48104CCC0DCB53801165761736865722024284429204153544D20463433360044D39D5D08090A110A481054D51348104D4D
310
8CC02A46D4D213D408109BDB1D08090A110A5E090A130A48104CCC0DCB53801165761736865722024284429204153544D20463433360044D39D5D08090A110A481054D51348104D4D8CC02A4595D85CDA195C88090A110A481054D51348118D0CCD80117536368656962652024284429204153544D204634333600AA451554
310
D7D84D4D8CD7DA195E08139D5D0B991899802471554D7D98D0CCD8810DA5C98DD5B185C8815D85CDA195C8B991899802A4118360D8358D09A90900
 94
        0
  0
ACAD_PROXY_OBJECT
  5
4BA
102
{ACAD_REACTORS
330
4A1
102
}
330
4A1
100
AcDbProxyObject
 90
      499
 91
      509
 95
  4980761
 70
     0
 93
     2520
310
40C2C0006002C00000113424F4C545354594C4547524559312E626D700042D04CCC8D4811925153110010D613332355F6865782E646266004050447119251531108109BDB1D08090A110A5E090A130A48104CCC8D4B53801165761736865722024284429204153544D20463433360044D39D5D08090A110A481054D5134810
310
4D4D8CC02A47119251531108109BDB1D08090A110A5E090A130A48104CCC8D4B53801165761736865722024284429204153544D20463433360044D39D5D08090A110A481054D51348104D4D8CC02A45D4D8DA195A589948090A110A481054D51348118D0CCD801165761736865722024284429204153544D204634333600AA
310
451554D7D84D4D8CD7DA195E08139D5D0B991899802471554D7D98D0CCD8810DA5C98DD5B185C8815D85CDA195C8B991899802A41D846118458D09A90900
 94
        0
  0
ACAD_PROXY_OBJECT
  5
4BB
102
{ACAD_REACTORS
330
4A1
102
}
330
4A1
100
AcDbProxyObject
 90
      499
 91
      509
 95
  4980761
 70
     0
 93
     2488
310
40C2C0002002C00000112424F4C545354594C45524544312E626D700042904CCC8D4814D213D40010D613332355F6865782E646266004050446D4D213D408109BDB1D08090A110A5E090A130A48104CCC8D4B53801165761736865722024284429204153544D20463433360044D39D5D08090A110A481054D51348104D4D8C
310
C02A46D4D213D408109BDB1D08090A110A5E090A130A48104CCC8D4B53801165761736865722024284429204153544D20463433360044D39D5D08090A110A481054D51348104D4D8CC02A45D4D8DA195A589948090A110A481054D51348118D0CCD801165761736865722024284429204153544D204634333600AA451554D7
310
D84D4D8CD7DA195E08139D5D0B991899802471554D7D98D0CCD8810DA5C98DD5B185C8815D85CDA195C8B991899802A451846118458D09A90900
 94
        0
  0
ACAD_PROXY_OBJECT
  5
4BC
102
{ACAD_REACTORS
330
4A1
102
}
330
4A1
100
AcDbProxyObject
 90
      499
 91
      509
 95
  4980761
 70
     0
 93
     2584
310
40C2C0006002C00000114424F4C545354594C45475245454E312E626D700042D04D0E4C0811925153110010D613439305F6865782E646266004050448919251531108109BDB1D08090A110A5E090A130A48104D0E4C0B5388119A595B19001165761736865722024284429204153544D20463433360044D39D5D08090A110A
310
481054D51348104D4D8CC02A47119251531108109BDB1D08090A110A5E090A130A48104D0E4C0B53801165761736865722024284429204153544D20463433360044D39D5D08090A110A481054D51348104D4D8CC02A45D4D8DA195A589948090A110A481054D51348118D0CCD8011753636865696265202428442920415354
310
4D204634333600AA451554D7D84D4D8CD7DA195E08139D5D0B991899802471554D7D98D0CCD8810DA5C98DD5B185C8815D85CDA195C8B991899802A5798D6358D58D09A90900
 94
        0
  0
ACAD_PROXY_OBJECT
  5
4BD
102
{ACAD_REACTORS
330
4A1
102
}
330
4A1
100
AcDbProxyObject
 90
      499
 91
      509
 95
  4980761
 70
     0
 93
     2520
310
40C2C0002002C00000115424F4C545354594C45505552504C45312E626D700042904D0E4C0814D213D40010D613439305F6865782E646266004050446D4D213D408109BDB1D08090A110A5E090A130A48104D0E4C0B53801165761736865722024284429204153544D20463433360044D39D5D08090A110A481054D5134810
310
4D4D8CC02A46D4D213D408109BDB1D08090A110A5E090A130A48104D0E4C0B53801165761736865722024284429204153544D20463433360044D39D5D08090A110A481054D51348104D4D8CC02A45D4D8DA195A589948090A110A481054D51348118D0CCD80117536368656962652024284429204153544D204634333600AA
310
451554D7D84D4D8CD7DA195E08139D5D0B991899802471554D7D98D0CCD8810DA5C98DD5B185C8815D85CDA195C8B991899802A7298D6358D58D09A90900
 94
        0
  0
ACAD_PROXY_OBJECT
  5
4BE
102
{ACAD_REACTORS
330
4A1
102
}
330
4A1
100
AcDbProxyObject
 90
      499
 91
      509
 95
  4980761
 70
     0
 93
     1496
310
40C940002002C00000108434E422E626D70004150D397D080109434E5F422E6462660090444D3490A110A5E090A130A4810AF2DB0B772EA0010AB5E6C8A620242844290042B0B7712E08090A110A402A44D3490A110A5E090A130A4810AF2DB0B772EA0010AB5E6C8A620242844290042B0B7712E08090A110A402A42AD79B
310
22988090A110A4010AB5E6C8A6202428442900AA4350D397D0509395550B9918998024410D397D05095D054D211548B991899802A411C771DC7AA90700
 94
        0
  0
ACAD_PROXY_OBJECT
  5
4BF
102
{ACAD_REACTORS
330
4A1
102
}
330
4A1
100
AcDbProxyObject
 90
      499
 91
      509
 95
  4980761
 70
     0
 93
     1480
310
40C940002002C00000108434E432E626D70004150D397D0C0109434E5F432E6462660090444D3490A110A5E090A130A4810EF2DB0B772EA0010AB5E6C8A620242844290042B0B7712E08090A110A402A44D3490A110A5E090A130A4810EF2DB0B772EA0010AB5E6C8A620242844290042B0B7712E08090A110A402A42AD79B
310
22988090A110A4010AB5E6C8A6202428442900AA4310D397D0D395550B99189980243D0D397D0D5D054D211548B991899802A411C771DC7AA90700
 94
        0
  0
ACAD_PROXY_OBJECT
  5
4C1
102
{ACAD_REACTORS
330
4A1
102
}
330
4A1
100
AcDbProxyObject
 90
      499
 91
      509
 95
  4980761
 70
     0
 93
     2176
310
40C940002002C00000109434E38382E626D70004250D397D1D44E0B8E00115636E5F676A6779677164646C6A746C732E646266009044653490A110A5E090A130A482E37F1EFF0B772EA0E0B8E2F2D80112B8DFC7BFC2DDCBA8B5E6C8A620242844290044AE37F1EFF0B772EA30B7712E08090A110A402A4653490A110A5E09
310
0A130A482E37F1EFF0B772EA0E0B8E2F2D80112B8DFC7BFC2DDCBA8B5E6C8A620242844290044AE37F1EFF0B772EA30B7712E08090A110A402A44AE37F1EFF0B772EA2D79B22988090A110A40112B8DFC7BFC2DDCBA8B5E6C8A6202428442900AA4450D397D1D4511312951395550B9918998024510D397D1D45113129515D
310
054D211548B991899802A411CD735CDAA90700
 94
        0
  0
ACAD_PROXY_OBJECT
  5
4AB
102
{ACAD_REACTORS
330
4A1
102
}
330
4A1
100
AcDbProxyObject
 90
      499
 91
      509
 95
  4980761
 70
     0
 93
     2872
310
40CFC0002002C0000010B44494E3535382E626D700041D112538D4D4E0010B5343483535382E64626600904451348090A110A5E090A130A481254D3CD0C0C4E0011753636865696265204120242844292044494E373938390044135D48090A110A481254D3CD0C0CCD001114D7520242844292044494E20373936370045D54
310
B54D8DA195A589948090A110A48111253880D0CCD00117492D5363686569626520242844292044494E2034333500448D0C0C4E0B53490A110A5E090A130A53554010C373938392D53242844292D00448D0C0CCC8B5355490A110A4B504C8BCD4C00113373936372D4D55242844292D4653542D5A4E00438D0CCD0B54C90A11
310
0A504B54D50010E3433352D5324284429412D5354004594D8DA195A5899481048090A110A481112538C4C8D4010D3132352D53242844292D413200AA43935D5D1D195C8D4D4D4B9918998024414D8DA195A58994DCE4E0E4B991899802A4150624804920141D06A90800
 94
        0
  0
ACAD_PROXY_OBJECT
  5
4AC
102
{ACAD_REACTORS
330
4A1
102
}
330
4A1
100
AcDbProxyObject
 90
      499
 91
      509
 95
  4980761
 70
     0
 93
     2904
310
40CFC0002002C0000010B44494E3630312E626D700041D112538D8C0C4010B5343483630312E64626600904451348090A110A5E090A130A481254D3CD0C0C4D8011653636865696265204120242844292044494E3133370044135D48090A110A481254D3CD0C0CCD001114D7520242844292044494E20373936370045D54B5
310
4D8DA195A589948090A110A48111253880D0CCD00117492D5363686569626520242844292044494E2034333500440D0C0C4D8B53490A110A5E090A130A4010D3133372D53242844292D413200448D0C0CCD0B5355490A110A4B504C8BCD4C00113373936372D4D55242844292D4653542D5A4E00438D0CCD0B54C90A110A50
310
4B54D50010E3433352D5324284429412D5354004594D8DA195A5899481048090A110A481112538C4C8D4010D3132352D53242844292D413200AA43935D5D1D195C8D4D4D4B9918998024594D8DA195A58994C4CCDC8119BDC9B48104B991899802A4150624804920141D06A90829
 94
        0
  0
ACAD_PROXY_OBJECT
  5
4A3
102
{ACAD_REACTORS
330
4A1
102
}
330
4A1
100
AcDbProxyObject
 90
      499
 91
      509
 95
  4980761
 70
     0
 93
     4640
310
40DFCC022013C0000010C44494E363931342E626D7000421112538D8E4C4D0010C534348363931342E64626600904451348090A110A5E090A130A481112538D8E4C4D0011753636865696265204120242844292044494E363931360044135D48090A110A481112538D8E4C4D401114D7520242844292044494E20363931350
310
046154B54D8DA195A589948090A110A48111253880D8E4C4E00118492D5363686569626520242844292044494E203639313700474D8E4C4D0B53490A110A5E090A130A53554C94CB4C4C0B8E4B5516938010F363931362D53242844292D4334350044CD8E4C4D4B5355490A110A4B4C4C0B55169380113363931352D4D5524
310
2844292D31302D545A4E00440D8E4C4E0B54C90A110A504B50CD0D40110363931372D5324284429412D4334350045D4D8DA195A5899481048090A110A481112538D8E4C4D8010F363931362D53242844292D4334350046154B54D8DA195A589948090A110A48111253880D8E4C4E00118492D5363686569626520242844292
310
044494E203639313700440D8E4C4E0B54C90A110A504B50CD0D40110363931372D5324284429412D4334350043D35D5D1D195C8D8E4C4D4B9918998010F4D7574746572363931352E646266004414D8DA195A58994D8E4C4D8B9918998011053636865696265363931362E6462660045D4D8DA195A58994D8E4C4DCB8D8E4C
310
4E1D5A4B9918998011753636865696265363931372E3639313875692E6462660041909254049501424950125404000000000000594090900000000141ABE10000000000A06AF840A00
 94
        0
  0
ACAD_PROXY_OBJECT
  5
4A7
102
{ACAD_REACTORS
330
4A1
102
}
330
4A1
100
AcDbProxyObject
 90
      499
 91
      509
 95
  4980761
 70
     0
 93
     3192
310
40DFC400200AC0000010C44494E373936382E626D7000421112538DCE4D8E0010C534348373936382E64626600904451348090A110A5E090A130A481112538DCE4D8E0011753636865696265204120242844292044494E373938390044135D48090A110A481254D3CD0C0CCD001114D7520242844292044494E20363931350
310
046154B54D8DA195A589948090A110A48111253880D8E4C4E00118492D5363686569626520242844292044494E203639313700450DCE4D8E0B53490A110A5E090A130A53554C94C010B373938392D532428442900430D0C0CCD0B5355490A110A40113363931352D4D55242844292D31302D545A4E00440D8E4C4E0B54C90A
310
110A504B50CD0D40110363931372D5324284429412D4334350045D4D8DA195A5899481048090A110A481112538D8E4C4D8010F363931362D53242844292D43343500AA43935D5D1D195C8D4D4D4B9918998024414D8DA195A58994DCE4E0E4B99189980245D4D8DA195A58994D8E4C4DCB8D8E4C4E1D5A4B99189980241906
310
2480492014249201800000000000059409034C
 94
        0
  0
ACAD_PROXY_OBJECT
  5
4A8
102
{ACAD_REACTORS
330
4A1
102
}
330
4A1
100
AcDbProxyObject
 90
      499
 91
      509
 95
  4980761
 70
     0
 93
     4096
310
40CFC400200AC0000010C44494E373936392E626D7000421112538DCE4D8E4010C534348373936392E6462660090445D348090A110A5E090A130A48135D481112538DCE4D8E4011753636865696265204120242844292044494E373938390044135D48090A110A481254D3CD0C0CCD001104D7520242844292044494E20353
310
5350045D54B54D8DA195A589948090A110A48111253880D0CCD00117492D5363686569626520242844292044494E2034333500470DCE4D8E4B53490A110A56090A130A53554C54CB4D0B8D8B5516938010E373938392D53242844292D53540043CD0C0CCD0B5355490A110A4B4D4B4011032343033342D4D55242844292D35
310
2D00438D0CCD0B54C90A110A504B54D50010E3433352D5324284429412D53540045D4D8DA195A5899481048090A110A481112538DCE4E0E4010E373938392D53242844292D53540045D54B54D8DA195A589948090A110A48111253880D0CCD00117492D5363686569626520242844292044494E2034333500438D0CCD0B54C
310
90A110A504B54D500243935D5D1D195C8D4D4D4B9918998010E4D75747465723535352E646266004414D8DA195A58994DCE4E0E4B9918998011053636865696265373938392E646266004554D8DA195A58994D0CCD0B8D0CCD5D5A4B99189980115536368656962653433342E34333575692E6462660041506248049201418
310
9201A906A3
 94
        0
  0
ACAD_PROXY_OBJECT
  5
4AA
102
{ACAD_REACTORS
330
4A1
102
}
330
4A1
100
AcDbProxyObject
 90
      499
 91
      509
 95
  4980761
 70
     0
 93
     2456
310
40DFC0002002C0000010C44494E373938342E626D7000421112538DCE4E0D0010C534348373938342E64626600904451348090A110A5E090A130A481112538DCE4E0D0011653636865696265204120242844292044494E3132350044135D48090A110A48111253880E4CCD001114D7520242844292044494E203639313500A
310
448DCE4E0D0B53490A110A5E090A130A53554010D3132352D53242844292D41320044CC8D0C0CCC8B5355490A110A4B504C8BCD4C00113363931352D4D55242844292D31302D545A4E00A4594D8DA195A5899481048090A110A481112538C4C8D4010D3132352D53242844292D413200AA43935D5D1D195C8E4CCD0B991899
310
80243D4D8DA195A58994C4C8D4B9918998010F536368656962653132352E64626600A4190824C0493014268000000000000594090800
 94
        0
  0
ACAD_PROXY_OBJECT
  5
4A2
102
{ACAD_REACTORS
330
4A1
102
}
330
4A1
100
AcDbProxyObject
 90
      499
 91
      509
 95
  4980761
 70
     0
 93
     4264
310
40DBCC402002C0000010C44494E373939302E626D7000421112538DCE4E4C0010C534348373939302E6462660090445D348090A110A5E090A130A48135D481112538DCE4E4C0011753636865696265204120242844292044494E373938390044135D48090A110A481254D3CD0C0CCD001114D7520242844292044494E20373
310
936370045D54B54D8DA195A589948090A110A48111253880D0CCD00117492D5363686569626520242844292044494E2034333500470DCE4E4C0B53490A110A56090A130A53554C54CB4D0B8D8B5516938010E373938392D53242844292D53540043CD0C0CCD0B5355490A110A4B4D4B40113373936372D4D55242844292D46
310
53542D5A4E00438D0CCD0B54C90A110A504B54D50010E3433352D5324284429412D53540045D4D8DA195A5899481048090A110A481112538DCE4E0E4010E373938392D53242844292D53540045D54B54D8DA195A589948090A110A48111253880D0CCD00117492D5363686569626520242844292044494E2034333500438D0
310
CCD0B54C90A110A504B54D50010E3433352D5324284429412D53540043935D5D1D195C8D4D4D4B9918998010E4D75747465723535352E646266004414D8DA195A58994DCE4E0E4B9918998011053636865696265373938392E646266004554D8DA195A58994D0CCD0B8D0CCD5D5A4B99189980115536368656962653433342
310
E34333575692E646266004110624804920141C9101244069073F
 94
        0
  0
ACAD_PROXY_OBJECT
  5
4A6
102
{ACAD_REACTORS
330
4A1
102
}
330
4A1
100
AcDbProxyObject
 90
      499
 91
      509
 95
  4980761
 70
     0
 93
     3288
310
40CBC500200AC0000010C44494E373939312E626D7000421112538DCE4E4C4010C534348373939312E64626600904461348090A110A5E090A130A48135D481254D3CC4C0D8D0C8011753636865696265204120242844292049534F373039320044135D48090A110A481254D3CD0C0CCD001114D7520242844292044494E203
310
73936370045D54B54D8DA195A589948090A110A48111253880D0CCD00117492D5363686569626520242844292044494E2034333500474C4C0D8D0C8B53490A110A56090A130A53554C54CB4D4B8D8B5516938010E373039322D53242844292D53540043CD0C0CCD0B5355490A110A4B4D4B40113373936372D4D5524284429
310
2D4653542D5A4E00438D0CCD0B54C90A110A504B54D50010E3433352D5324284429412D5354004594D8DA195A5899481048090A110A481112538D0CCCC010D3433332D53242844292D535400AA43935D5D1D195C8D4D4D4B99189980243D4D8DA195A58994D0CCCCB9918998010B53636865696265343333004554D8DA195A
310
58994D0CCD0B8D0CCD5D5A4B99189980241D0724804920141C920141E90772
 94
        0
  0
ACAD_PROXY_OBJECT
  5
4A9
102
{ACAD_REACTORS
330
4A1
102
}
330
4A1
100
AcDbProxyObject
 90
      499
 91
      509
 95
  4980761
 70
     0
 93
     1928
310
40C2C0002002C0000010C44494E373939392E626D7000421112538DCE4E4E4010C534348373939392E64626600904451348090A110A5E090A130A481112538DCE4E4E4011753636865696265204120242844292044494E363931390044135D48090A110A481112538D8E4C4D402A440DCE4E4E4B53490A110A56090A130A40
310
10E363931392D53242844292D535400430D8E4C4D4B5355490A110A402A45D4D8DA195A5899481048090A110A481112538D8E4C4E4010E363931392D53242844292D535400AA43D35D5D1D195C8D8E4C4D4B9918998024414D8DA195A58994D8E4C4D8B991899802A909254049501AA895011F
 94
        0
  0
ACAD_PROXY_OBJECT
  5
4AD
102
{ACAD_REACTORS
330
4A1
102
}
330
4A1
100
AcDbProxyObject
 90
      499
 91
      509
 95
  4980761
 70
     0
 93
     3032
310
40DFC600200140000010B44494E3931322E626D700041D112538E4C4C8010B5343483931322E64626600904451348090A110A5E090A130A481254D3CD0DCD8C8011753636865696265204120242844292049534F373038390044135D48090A110A481112538D0C0CCC80246154B54D8DA195A589948090A110A48111253880
310
D8E4C4E00118492D5363686569626520242844292044494E203639313700450D0DCD8C8B53490A110A5E090A130A53554C94C010E373038392D53242844292D413200448D0C0CCC8B5355490A110A4B504C8BCD4C002440D8E4C4E0B54C90A110A504B50CD0D40110363931372D5324284429412D433435004594D8DA195A5
310
899481048090A110A481112538C4C8D4010D3132352D53242844292D413200AA43935D5D1D195C8E4CCD0B99189980243D4D8DA195A58994C4C8D4B9918998010F536368656962653132352E6462660045D4D8DA195A58994D8E4C4DCB8D8E4C4E1D5A4B9918998024190925404950142495018000000000000594090800
 94
        0
  0
ACAD_PROXY_OBJECT
  5
4A4
102
{ACAD_REACTORS
330
4A1
102
}
330
4A1
100
AcDbProxyObject
 90
      499
 91
      509
 95
  4980761
 70
     0
 93
     3056
310
40CBC480200140000010B44494E3933312E626D700041D112538E4CCC4010B5343483933312E64626600904451348090A110A5E090A130A481254D3CD0C0C4D0011753636865696265204120242844292049534F373038390044535D48090A110A481254D3C80D0C0CCC801114D7520242844292044494E203739363700445
310
54B54D8DA195A5899481112538D0CCD00111492D536368656962652044494E34333500458D0C0C4D0B53490A110A56090A130A4B504C8BCD4C0010E373038392D53242844292D413200448D0C0CCC8B5355490A110A4B504C8BCD4C00113373936372D4D55242844292D4653542D5A4E00438D0CCD0B54C90A110A504B54D5
310
00245D4D8DA195A5899481048090A110A481254D3CDCC0E0E4010E373038392D53242844292D413200AA43935D5D1D195C8E4CCD0B99189980243D4D8DA195A58994C4C8D4B9918998010F536368656962653132352E6462660045D4D8DA195A58994D8E4C4DCB8D8E4C4E1D5A4B9918998024090824C04950141C930141E9
310
0841
 94
        0
  0
ACAD_PROXY_OBJECT
  5
4A5
102
{ACAD_REACTORS
330
4A1
102
}
330
4A1
100
AcDbProxyObject
 90
      499
 91
      509
 95
  4980761
 70
     0
 93
     3448
310
40CFC400200140000010B44494E3933332E626D700041D112538E4CCCC010B5343483933332E64626600904451348090A110A5E090A130A481254D3CD0C0C4DC011753636865696265204120242844292049534F373038390044135D48090A110A481254D3CD0C0CCC801114D7520242844292044494E20373936370045D54
310
B54D8DA195A589948090A110A48111253880D0CCD00117492D5363686569626520242844292044494E2034333500460D0C0C4DCB53490A110A56090A130A4B4E0B8E081516938010E373038392D53242844292D413200448D0C0CCC8B5355490A110A4B504C8BCD4C00113373936372D4D55242844292D4653542D5A4E0043
310
8D0CCD0B54C90A110A504B54D50010E3433352D5324284429412D5354004594D8DA195A5899481048090A110A481112538C4C8D4010D3132352D53242844292D413200AA43935D5D1D195C8E4CCD0B99189980119536963686572756E67736D7574746572373936372E6462660043D4D8DA195A58994C4C8D4B9918998010F
310
536368656962653132352E646266004554D8DA195A58994D0CCD0B8D0CCD5D5A4B9918998024150824C04930141C9301A908FF
 94
        0
  0
ACAD_PROXY_OBJECT
  5
4AE
102
{ACAD_REACTORS
330
4A1
102
}
330
4A1
100
AcDbProxyObject
 90
      499
 91
      509
 95
  4980761
 70
     0
 93
     2768
310
40DFC1002002C00000114424F4C545354594C45475245454E342E626D700041D112538E4D8D4010B5343483936352E64626600904451348090A110A5E090A130A481254D3CDCC0D0D8011753636865696265204120242844292049534F373038390044135D48090A110A481254D3CD0C0CCC80246154B54D8DA195A5899480
310
90A110A48111253880D8E4C4E00118492D5363686569626520242844292044494E20363931370044CDCC0D0D8B53490A110A5E090A130A535554C010E373038392D53242844292D413200448D0C0CCC8B5355490A110A4B504C8BCD4C002440D8E4C4E0B54C90A110A504B50CD0D40110363931372D5324284429412D43343
310
5004594D8DA195A5899481048090A110A481112538C4C8D4010D3132352D53242844292D413200AA43935D5D1D195C8E4CCD0B99189980243D4D8DA195A58994C4C8D4B991899802A41907248049201425038000000000000594090300
 94
        0
  0
ACAD_PROXY_OBJECT
  5
4B6
102
{ACAD_REACTORS
330
4A1
102
}
330
4A1
100
AcDbProxyObject
 90
      499
 91
      509
 95
  4980761
 70
     0
 93
     4480
310
40DBC0402003C00000113424F4C545354594C45424C5545312E626D70004391D95DDA5B99195CDD185B99D94010C534348373939302E646266009044951D95DDA5B99195CDD185B99D9481348090A110A5E090A130A48135D481112538DCE4E4C0011753636865696265204120242844292044494E373938390044135D4809
310
0A110A48111253880D4D4D401114D7520242844292044494E20373936370045D54B54D8DA195A589948090A110A48111253880D0CCD00117492D5363686569626520242844292044494E2034333500470DCE4E4C0B53490A110A56090A130A53554C54CB4D0B8D8B5516938010E373938392D53242844292D535400440C8D0
310
C0CCD0B5355490A110A4B4D4B40113373936372D4D55242844292D4653542D5A4E00438D0CCD0B54C90A110A504B54D50010E3433352D5324284429412D53540045D4D8DA195A5899481048090A110A481112538DCE4E0E4010E373938392D53242844292D53540045D54B54D8DA195A589948090A110A48111253880D0CCD
310
00117492D5363686569626520242844292044494E2034333500438D0CCD0B54C90A110A504B54D50010E3433352D5324284429412D53540043935D5D1D195C8D4D4D4B9918998010E4D75747465723535352E646266004414D8DA195A58994DCE4E0E4B9918998011053636865696265373938392E646266004554D8DA195A
310
58994D0CCD0B8D0CCD5D5A4B99189980115536368656962653433342E34333575692E646266004110824C04930141D0741E8930133
 94
        0
  0
ACAD_PROXY_OBJECT
  5
4DA
102
{ACAD_REACTORS
330
4D8
102
}
330
4D8
100
AcDbProxyObject
 90
      499
 91
      511
 95
  4980761
 70
     0
 93
      692
310
40C180002000000000117456C65766174696F6E5374796C65526564322E626D700042511C995A5958DAD9401094472656965636B650090280000000000000C4000000000000003102405034254DD185B99185C99002AA0
 94
        0
  0
ACAD_PROXY_OBJECT
  5
4D9
102
{ACAD_REACTORS
330
4D8
102
}
330
4D8
100
AcDbProxyObject
 90
      499
 91
      511
 95
  4980761
 70
     0
 93
      700
310
40C180002000000000117456C65766174696F6E5374796C65526564312E626D70004254DD185B99185C99001095374616E64617264009024040000000000000C4000000000000003102405034254DD185B99185C99002AA2
 94
        0
  0
ACAD_PROXY_OBJECT
  5
4E9
102
{ACAD_REACTORS
330
4DB
102
}
330
4DB
100
AcDbProxyObject
 90
      499
 91
      512
 95
  4980761
 70
     0
 93
      818
310
40C140002006400000111506F73466C6167426C7565312E626D700042505CDCD95B589B1E40109417373656D626C790040504409018000000000000104000000000000005100FFFF3FFFCFFFF3FFFD0244141BDCDA5D1A5BDB9CD9985A1B995B802AA9022F00A9
 94
        0
  0
ACAD_PROXY_OBJECT
  5
4EA
102
{ACAD_REACTORS
330
4DB
102
}
330
4DB
100
AcDbProxyObject
 90
      499
 91
      512
 95
  4980761
 70
     0
 93
      818
310
40C040002004400000111506F73466C6167426C7565312E626D70004290985D59DC9D5C1C194010A4261756772757070650040504409028000000000000104000000000000005100FFFF3FFFCFFFF3FFFD024254DD185B99185C9900290442472D00A9022F00AF
 94
        0
  0
ACAD_PROXY_OBJECT
  5
4DD
102
{ACAD_REACTORS
330
4DB
102
}
330
4DB
100
AcDbProxyObject
 90
      499
 91
      512
 95
  4980761
 70
     0
 93
      994
310
40C000002006400000111506F73466C6167426C7565312E626D70004510985D59DC9D5C1C195B9A185D5C1D1D195A5B001144261756772757070656E68617570747465696C0040504409028000000000000104000000000000005100FFFF3FFFCFFFF3FFFD0244141BDCDA5D1A5BDB9CD9985A1B995B802AA9022F0080
 94
        0
  0
ACAD_PROXY_OBJECT
  5
4E0
102
{ACAD_REACTORS
330
4DB
102
}
330
4DB
100
AcDbProxyObject
 90
      499
 91
      512
 95
  4980761
 70
     0
 93
      938
310
40C040002006400000111506F73466C6167426C7565312E626D70004510985D59DC9D5C1C195B9B9958995B9D195A5B001144261756772757070656E6E6562656E7465696C0040504409038000000000000104000000000000005100FFFF3FFFCFFFF3FFFD024254DD185B99185C99002AA9022F0080
 94
        0
  0
ACAD_PROXY_OBJECT
  5
4E5
102
{ACAD_REACTORS
330
4DB
102
}
330
4DB
100
AcDbProxyObject
 90
      499
 91
      512
 95
  4980761
 70
     0
 93
      850
310
40C000002006400000110506F73466C6167526564332E626D700043D0985D59DC9D5C1C195B9D195A5B0010F4261756772757070656E7465696C0040504409028000000000000104000000000000005100FFFF3FFFCFFFF3FFFD024254DD185B99185C99002AA9022F00A9
 94
        0
  0
ACAD_PROXY_OBJECT
  5
4E6
102
{ACAD_REACTORS
330
4DB
102
}
330
4DB
100
AcDbProxyObject
 90
      499
 91
      512
 95
  4980761
 70
     0
 93
      922
310
40C040002004000000111506F73466C6167426C7565312E626D7000435091CB7718995C9CDA58DA1D0010D42472DDC62657273696368740040504409038000000000000104000000000000004100FFFF3FFFCFFFF3FFFD0244141BDCDA5D1A5BDB9CD9985A1B995B80290442472D00A9022F00AF
 94
        0
  0
ACAD_PROXY_OBJECT
  5
4E7
102
{ACAD_REACTORS
330
4DB
102
}
330
4DB
100
AcDbProxyObject
 90
      499
 91
      512
 95
  4980761
 70
     0
 93
      794
310
40C000002006400000111506F73466C6167426C7565312E626D700042D15A5B9E995B1D195A5B0010B45696E7A656C7465696C004050440D018000000000000104000000000000005100FFFF3FFFCFFFF3FFFD024254DD185B99185C99002AA9022F0099
 94
        0
  0
ACAD_PROXY_OBJECT
  5
4DC
102
{ACAD_REACTORS
330
4DB
102
}
330
4DB
100
AcDbProxyObject
 90
      499
 91
      512
 95
  4980761
 70
     0
 93
      866
310
40C040002006400000111506F73466C6167426C7565312E626D700043115A5B9E995B1D195A5B194010C45696E7A656C7465696C650040504409018000000000000104000000000000005100FFFF3FFFCFFFF3FFFD0244141BDCDA5D1A5BDB9CD9985A1B995B802AA9022F0082
 94
        0
  0
ACAD_PROXY_OBJECT
  5
4E1
102
{ACAD_REACTORS
330
4DB
102
}
330
4DB
100
AcDbProxyObject
 90
      499
 91
      512
 95
  4980761
 70
     0
 93
      882
310
40C000002004000000111506F73466C6167426C7565312E626D70004352DD5C9E9C1BDCDA5D1A5BDB8010D4B75727A706F736974696F6E0040504409018000000000000104000000000000005100FFFF3FFFCFFFF3FFFD0244141BDCDA5D1A5BDB9CD9985A1B995B802AA9022F009B
 94
        0
  0
ACAD_PROXY_OBJECT
  5
4E3
102
{ACAD_REACTORS
330
4DB
102
}
330
4DB
100
AcDbProxyObject
 90
      499
 91
      512
 95
  4980761
 70
     0
 93
      802
310
40C000002004000000111506F73466C6167426C7565312E626D700042135BDB9D1859D9401084D6F6E746167650040504409048000000000000104000000000000005100FFFF3FFFCFFFF3FFFD0244141BDCDA5D1A5BDB9CD9985A1B995B802AA9022F009A
 94
        0
  0
ACAD_PROXY_OBJECT
  5
4DF
102
{ACAD_REACTORS
330
4DB
102
}
330
4DB
100
AcDbProxyObject
 90
      499
 91
      512
 95
  4980761
 70
     0
 93
      866
310
40C04000200E400000111506F73466C6167426C7565312E626D700043141BDB1E5C1B185D1D195B8010C506F6C79706C617474656E0040504409018000000000000104000000000000005100FFFF3FFFCFFFF3FFFD0244141BDCDA5D1A5BDB9CD9985A1B995B802AA9022F009A
 94
        0
  0
ACAD_PROXY_OBJECT
  5
4E2
102
{ACAD_REACTORS
330
4DB
102
}
330
4DB
100
AcDbProxyObject
 90
      499
 91
      512
 95
  4980761
 70
     0
 93
      810
310
40C000002000400000111506F73466C6167426C7565312E626D70004254D8DA1C985D5899401095363687261756265004050440A8000000000000104000000000000005100FFFF3FFFCFFFF3FFFD0244141BDCDA5D1A5BDB9CD9985A1B995B802AA9022F0082
 94
        0
  0
ACAD_PROXY_OBJECT
  5
4DE
102
{ACAD_REACTORS
330
4DB
102
}
330
4DB
100
AcDbProxyObject
 90
      499
 91
      512
 95
  4980761
 70
     0
 93
      898
310
40C04000200E400000111506F73466C6167426C7565312E626D70004394DBDB99195C9C1C9BD99A5B194010E536F6E64657270726F66696C650040504409018000000000000104000000000000005100FFFF3FFFCFFFF3FFFD0244141BDCDA5D1A5BDB9CD9985A1B995B802AA9022F009A
 94
        0
  0
ACAD_PROXY_OBJECT
  5
4E4
102
{ACAD_REACTORS
330
4DB
102
}
330
4DB
100
AcDbProxyObject
 90
      499
 91
      512
 95
  4980761
 70
     0
 93
      762
310
40C000002006400000111506F73466C6167426C7565312E626D70004254DD185B99185C99001095374616E64617264004050440D018000000000000104000000000000005100FFFF3FFFCFFFF3FFFD024254DD185B99185C99002AA9022F0080
 94
        0
  0
ACAD_PROXY_OBJECT
  5
4E8
102
{ACAD_REACTORS
330
4DB
102
}
330
4DB
100
AcDbProxyObject
 90
      499
 91
      512
 95
  4980761
 70
     0
 93
      834
310
40C140002006400000111506F73466C6167426C7565312E626D70004294DD5891DC9D5C1C194010A5375624772757070650040504409018000000000000104000000000000005100FFFF3FFFCFFFF3FFFD0244141BDCDA5D1A5BDB9CD9985A1B995B802AA9022F0080
 94
        0
  0
ACAD_PROXY_OBJECT
  5
1AD4
102
{ACAD_REACTORS
330
4C8
102
}
330
4C8
100
AcDbProxyObject
 90
      499
 91
      510
 95
  4980761
 70
     0
 93
      854
310
40C00000200002400011377656C647374796C65626C7565312E626D70004212154B53985A1D0010848552D4E616874009034080000000000000C40000000000000031014050440D095374616E6461726400AAA00000000000002102A422AA00000000000002102A406A419
 94
        0
  0
ACAD_PROXY_OBJECT
  5
4CB
102
{ACAD_REACTORS
330
4C8
102
}
330
4C8
100
AcDbProxyObject
 90
      499
 91
      510
 95
  4980761
 70
     0
 93
      854
310
40C00000200002400011377656C647374796C65626C7565312E626D70004212158B53985A1D0010848562D4E616874009034080000000000000C40000000000000031014050440D095374616E6461726400AAA00000000000002102A41AAA00000000000002102A406A41A
 94
        0
  0
ACAD_PROXY_OBJECT
  5
4CC
102
{ACAD_REACTORS
330
4C8
102
}
330
4C8
100
AcDbProxyObject
 90
      499
 91
      510
 95
  4980761
 70
     0
 93
     1518
310
40C000002000024000166633A5C70726F6772616D6D655C6B69776920736F66747761726520676D62685C70726F737465656C2033645C7231372E315C6175746F63616420323030365C7374696C655C73636877656973737374696C655C77656C647374796C65626C7565312E626D70004212164B53985A1D0010848592D4E
310
616874009034080000000000000C40000000000000031014050440D095374616E6461726400AAA00000000000002102A41EAA00000000000002102A406A41B
 94
        0
  0
ACAD_PROXY_OBJECT
  5
4CD
102
{ACAD_REACTORS
330
4C8
102
}
330
4C8
100
AcDbProxyObject
 90
      499
 91
      510
 95
  4980761
 70
     0
 93
      838
310
40C00000200002400011377656C647374796C65626C7565312E626D700041D24B53985A1D00107492D4E616874009034080000000000000C400000000000000310140503411095374616E6461726400AAA00000000000002102A416AA00000000000002102A406A41A
 94
        0
  0
ACAD_PROXY_OBJECT
  5
1AD5
102
{ACAD_REACTORS
330
4C8
102
}
330
4C8
100
AcDbProxyObject
 90
      499
 91
      510
 95
  4980761
 70
     0
 93
      838
310
40C00000200002424011377656C647374796C65626C7565312E626D700041D2CB53985A1D001074B2D4E616874009034080000000000000C400000000000000310140503411095374616E6461726400AAA00000000000002102A41AAA00000000000002102A41AA41A
 94
        0
  0
ACAD_PROXY_OBJECT
  5
4CE
102
{ACAD_REACTORS
330
4C8
102
}
330
4C8
100
AcDbProxyObject
 90
      499
 91
      510
 95
  4980761
 70
     0
 93
      870
310
40C00000201002424011357656C645374796C65426C7565312E626D70004252D95A1B080CDB5B401094B65686C20336D6D009034080000000000000C400000000000000310140503411095374616E6461726400AAA00000000000002102A406AA00000000000002102A406A41A
 94
        0
  0
ACAD_PROXY_OBJECT
  5
4CF
102
{ACAD_REACTORS
330
4C8
102
}
330
4C8
100
AcDbProxyObject
 90
      499
 91
      510
 95
  4980761
 70
     0
 93
      870
310
40C00000201002424011357656C645374796C65426C7565312E626D70004252D95A1B080D1B5B401094B65686C20346D6D009034080000000000000C40000000000000031014050440D095374616E6461726400AAA00000000000004102A406AA00000000000004102A406A418
 94
        0
  0
ACAD_PROXY_OBJECT
  5
4D0
102
{ACAD_REACTORS
330
4C8
102
}
330
4C8
100
AcDbProxyObject
 90
      499
 91
      510
 95
  4980761
 70
     0
 93
      870
310
40C00000201002424011357656C645374796C65426C7565312E626D70004252D95A1B080D5B5B401094B65686C20356D6D009034080000000000000C400000000000000310140503411095374616E6461726400AAA00000000000005102A406AA00000000000005102A406A41A
 94
        0
  0
ACAD_PROXY_OBJECT
  5
1AD6
102
{ACAD_REACTORS
330
4C8
102
}
330
4C8
100
AcDbProxyObject
 90
      499
 91
      510
 95
  4980761
 70
     0
 93
      886
310
40C00000200002400011377656C647374796C65626C7565312E626D70004292D95A1B0B53985A1D0010A4B65686C2D4E616874009034080000000000000C400000000000000310140503411095374616E6461726400AAA00000000000002102A406AA00000000000002102A406A418
 94
        0
  0
ACAD_PROXY_OBJECT
  5
4C9
102
{ACAD_REACTORS
330
4C8
102
}
330
4C8
100
AcDbProxyObject
 90
      499
 91
      510
 95
  4980761
 70
     0
 93
      870
310
40C00000200042400011377656C647374796C65626C7565312E626D70004252D95A1B1B985A1D001094B65686C6E616874009034080000000000000C40000000000000031014050440D095374616E6461726400AAA00000000000004102A406AA00000000000002102A406A418
 94
        0
  0
ACAD_PROXY_OBJECT
  5
4D1
102
{ACAD_REACTORS
330
4C8
102
}
330
4C8
100
AcDbProxyObject
 90
      499
 91
      510
 95
  4980761
 70
     0
 93
      918
310
40C00000200002400011377656C647374796C65626C7565312E626D700043131A5B9A595B8B53985A1D0010C4C696E69656E2D4E616874009034080000000000000C400000000000000310140503411095374616E6461726400AAA00000000000002102A432AA00000000000002102A406A41B
 94
        0
  0
ACAD_PROXY_OBJECT
  5
4D2
102
{ACAD_REACTORS
330
4C8
102
}
330
4C8
100
AcDbProxyObject
 90
      499
 91
      510
 95
  4980761
 70
     0
 93
      886
310
40C00000200002400011377656C647374796C65626C7565312E626D700042931BD8DA0B53985A1D0010A4C6F63682D4E616874009034080000000000000C400000000000000310140503411095374616E6461726400AAA00000000000002102A42AAA00000000000002102A406A41B
 94
        0
  0
ACAD_PROXY_OBJECT
  5
4D3
102
{ACAD_REACTORS
330
4C8
102
}
330
4C8
100
AcDbProxyObject
 90
      499
 91
      510
 95
  4980761
 70
     0
 93
      902
310
40C00000200002400011377656C647374796C65626C7565312E626D700042D41D5B9ADD0B53985A1D0010B50756E6B742D4E616874009034080000000000000C40000000000000031014050440D095374616E6461726400AAA00000000000002102A42EAA00000000000002102A406A41A
 94
        0
  0
ACAD_PROXY_OBJECT
  5
4D4
102
{ACAD_REACTORS
330
4C8
102
}
330
4C8
100
AcDbProxyObject
 90
      499
 91
      510
 95
  4980761
 70
     0
 93
      870
310
40C00000201002424011357656C645374796C65426C7565312E626D70004254DD185B99185C99001095374616E64617264009034080000000000000C40000000000000031014050440D095374616E6461726400AAA00000000000002102A406AA00000000000002102A406A41A
 94
        0
  0
ACAD_PROXY_OBJECT
  5
4D5
102
{ACAD_REACTORS
330
4C8
102
}
330
4C8
100
AcDbProxyObject
 90
      499
 91
      510
 95
  4980761
 70
     0
 93
      854
310
40C00000200002400011377656C647374796C65626C7565312E626D700042154B4813985A1D00108552D204E616874009034080000000000000C400000000000000310140503411095374616E6461726400AAA00000000000002102A412AA00000000000002102A406A418
 94
        0
  0
ACAD_PROXY_OBJECT
  5
4CA
102
{ACAD_REACTORS
330
4C8
102
}
330
4C8
100
AcDbProxyObject
 90
      499
 91
      510
 95
  4980761
 70
     0
 93
      854
310
40C000002000C2400011477656C647374796C65677265656E312E626D700041D58B53985A1D00107562D4E616874009034080000000000000C400000000000000310140503411095374616E6461726400AAA00000000000005102A40901AA00000000000002102A406A41A
 94
        0
  0
ACAD_PROXY_OBJECT
  5
4D6
102
{ACAD_REACTORS
330
4C8
102
}
330
4C8
100
AcDbProxyObject
 90
      499
 91
      510
 95
  4980761
 70
     0
 93
      838
310
40C00000200002424011377656C647374796C65626C7565312E626D700041D60B53985A1D00107582D4E616874009034080000000000000C40000000000000031014050440D095374616E6461726400AAA00000000000002102A40AAA00000000000002102A40AA41A
 94
        0
  0
ACAD_PROXY_OBJECT
  5
4D7
102
{ACAD_REACTORS
330
4C8
102
}
330
4C8
100
AcDbProxyObject
 90
      499
 91
      510
 95
  4980761
 70
     0
 93
      838
310
40C00000200002400011377656C647374796C65626C7565312E626D700041D64B53985A1D00107592D4E616874009034080000000000000C400000000000000310140503411095374616E6461726400AAA00000000000002102A40EAA00000000000002102A406A41A
 94
        0
  0
XRECORD
  5
4ED
102
{ACAD_REACTORS
330
4EC
102
}
330
4EC
100
AcDbXrecord
280
     1
 70
     1
  0
XRECORD
  5
891
102
{ACAD_REACTORS
330
4EC
102
}
330
4EC
100
AcDbXrecord
280
     1
 70
     1
  1

 70
     0
  1

 70
     0
  1

 70
     0
  1

 70
     0
  1

 70
     0
  1

 70
     0
  1

 70
     0
  1

 70
     0
  1

 70
     0
  1

 70
     0
  1

 70
     0
  1

 70
     0
  1

 70
     0
  1

 70
     0
  1

 70
     0
  1

 70
     0
  1

 70
     0
  1

 70
     0
  1

 70
     0
  1

 70
     0
  1

 70
     0
  1

 70
     0
  1

 70
     0
  1

 70
     0
  1

 70
     0
  1

 70
     0
  1

 70
     0
  1

 70
     0
  1

 70
     0
  1

 70
     0
  1

 70
     0
  1

 70
     0
  1

 70
     0
  1

 70
     0
  1

 70
     0
  1

 70
     0
  1

 70
     0
  1

 70
     0
  1

 70
     0
  1

 70
     0
  1

 70
     0
  1

 70
     0
  1

 70
     0
  1

 70
     0
  1

 70
     0
  1

 70
     0
  1

 70
     0
  1

 70
     0
  1

 70
     0
  1

 70
     0
  1

 70
     0
  1

 70
     0
  1

 70
     0
  1

 70
     0
  1

 70
     0
  1

 70
     0
  1

 70
     0
  1

 70
     0
  1

 70
     0
  1

 70
     0
  1

 70
     0
  1

 70
     0
  1

 70
     0
  1

 70
     0
  1

 70
     0
  1

 70
     0
  1

 70
     0
  1

 70
     0
  1

 70
     0
  1

 70
     0
  1

 70
     0
  1

 70
     0
  1

 70
     0
  1

 70
     0
  1

 70
     0
  1

 70
     0
  1

 70
     0
  1

 70
     0
  1

 70
     0
  1

 70
     0
  1

 70
     0
  1

 70
     0
  1

 70
     0
  1

 70
     0
  1

 70
     0
  1

 70
     0
  1

 70
     0
  1

 70
     0
  1

 70
     0
  1

 70
     0
  1

 70
     0
  1

 70
     0
  1

 70
     0
  1

 70
     0
  1

 70
     0
  1

 70
     0
  1

 70
     0
  1

 70
     0
  1

 70
     0
  1

 70
     0
  1

 70
     0
  1

 70
     0
  1

 70
     0
  1

 70
     0
  1

 70
     0
  1

 70
     0
  1

 70
     0
  1

 70
     0
  1

 70
     0
  1

 70
     0
  1

 70
     0
  1

 70
     0
  1

 70
     0
  1

 70
     0
  1

 70
     0
  1

 70
     0
  1

 70
     0
  1

 70
     0
  1

 70
     0
  1

 70
     0
  1

 70
     0
  1

 70
     0
  1

 70
     0
  1

 70
     0
  1

 70
     0
  1

 70
     0
  1

 70
     0
  1

 70
     0
  0
XRECORD
  5
892
102
{ACAD_REACTORS
330
4EC
102
}
330
4EC
100
AcDbXrecord
280
     1
 70
     2
 70
   256
  1

 70
     0
  1

 70
     0
  1

 70
     0
  1

 70
     0
  1

 70
     0
  1

 70
     0
  1

 70
     0
  1

 70
     0
  1

 70
     0
  1

 70
     0
  1

 70
     0
  1

 70
     0
  1

 70
     0
  1

 70
     0
  1

 70
     0
  1

 70
     0
  1

 70
     0
  1

 70
     0
  1

 70
     0
  1

 70
     0
  1

 70
     0
  1

 70
     0
  1

 70
     0
  1

 70
     0
  1

 70
     0
  1

 70
     0
  1

 70
     0
  1

 70
     0
  1

 70
     0
  1

 70
     0
  1

 70
     0
  1

 70
     0
  1

 70
     0
  1

 70
     0
  1

 70
     0
  1

 70
     0
  1

 70
     0
  1

 70
     0
  1

 70
     0
  1

 70
     0
  1

 70
     0
  1

 70
     0
  1

 70
     0
  1

 70
     0
  1

 70
     0
  1

 70
     0
  1

 70
     0
  1

 70
     0
  1

 70
     0
  1

 70
     0
  1

 70
     0
  1

 70
     0
  1

 70
     0
  1

 70
     0
  1

 70
     0
  1

 70
     0
  1

 70
     0
  1

 70
     0
  1

 70
     0
  1

 70
     0
  1

 70
     0
  1

 70
     0
  1

 70
     0
  1

 70
     0
  1

 70
     0
  1

 70
     0
  1

 70
     0
  1

 70
     0
  1

 70
     0
  1

 70
     0
  1

 70
     0
  1

 70
     0
  1

 70
     0
  1

 70
     0
  1

 70
     0
  1

 70
     0
  1

 70
     0
  1

 70
     0
  1

 70
     0
  1

 70
     0
  1

 70
     0
  1

 70
     0
  1

 70
     0
  1

 70
     0
  1

 70
     0
  1

 70
     0
  1

 70
     0
  1

 70
     0
  1

 70
     0
  1

 70
     0
  1

 70
     0
  1

 70
     0
  1

 70
     0
  1

 70
     0
  1

 70
     0
  1

 70
     0
  1

 70
     0
  1

 70
     0
  1

 70
     0
  1

 70
     0
  1

 70
     0
  1

 70
     0
  1

 70
     0
  1

 70
     0
  1

 70
     0
  1

 70
     0
  1

 70
     0
  1

 70
     0
  1

 70
     0
  1

 70
     0
  1

 70
     0
  1

 70
     0
  1

 70
     0
  1

 70
     0
  1

 70
     0
  1

 70
     0
  1

 70
     0
  1

 70
     0
  1

 70
     0
  1

 70
     0
  1

 70
     0
  1

 70
     0
  1

 70
     0
  1

 70
     0
  1

 70
     0
  1

 70
     0
  1

 70
     0
  1

 70
     0
  1

 70
     0
  1

 70
     0
  1

 70
     0
  1

 70
     0
  1

 70
     0
  1

 70
     0
  1

 70
     0
  1

 70
     0
  1

 70
     0
  1

 70
     0
  1

 70
     0
  1

 70
     0
  1

 70
     0
  1

 70
     0
  1

 70
     0
  1

 70
     0
  1

 70
     0
  1

 70
     0
  1

 70
     0
  1

 70
     0
  1

 70
     0
  1

 70
     0
  1

 70
     0
  1

 70
     0
  1

 70
     0
  1

 70
     0
  1

 70
     0
  1

 70
     0
  1

 70
     0
  1

 70
     0
  1

 70
     0
  1

 70
     0
  1

 70
     0
  1

 70
     0
  1

 70
     0
  1

 70
     0
  1

 70
     0
  1

 70
     0
  1

 70
     0
  1

 70
     0
  1

 70
     0
  1

 70
     0
  1

 70
     0
  1

 70
     0
  1

 70
     0
  1

 70
     0
  1

 70
     0
  1

 70
     0
  1

 70
     0
  1

 70
     0
  1

 70
     0
  1

 70
     0
  1

 70
     0
  1

 70
     0
  1

 70
     0
  1

 70
     0
  1

 70
     0
  1

 70
     0
  1

 70
     0
  1

 70
     0
  1

 70
     0
  1

 70
     0
  1

 70
     0
  1

 70
     0
  1

 70
     0
  1

 70
     0
  1

 70
     0
  1

 70
     0
  1

 70
     0
  1

 70
     0
  1

 70
     0
  1

 70
     0
  1

 70
     0
  1

 70
     0
  1

 70
     0
  1

 70
     0
  1

 70
     0
  1

 70
     0
  1

 70
     0
  1

 70
     0
  1

 70
     0
  1

 70
     0
  1

 70
     0
  1

 70
     0
  1

 70
     0
  1

 70
     0
  1

 70
     0
  1

 70
     0
  1

 70
     0
  1

 70
     0
  1

 70
     0
  1

 70
     0
  1

 70
     0
  1

 70
     0
  1

 70
     0
  1

 70
     0
  1

 70
     0
  1

 70
     0
  1

 70
     0
  1

 70
     0
  1

 70
     0
  1

 70
     0
  1

 70
     0
  1

 70
     0
  1

 70
     0
  1

 70
     0
  1

 70
     0
  1

 70
     0
  1

 70
     0
  1

 70
     0
  1

 70
     0
  1

 70
     0
  1

 70
     0
  1

 70
     0
  1

 70
     0
  1

 70
     0
  1

 70
     0
  1

 70
     0
  1

 70
     0
  1

 70
     0
  1

 70
     0
  1

 70
     0
  1

 70
     0
  1

 70
     0
  1

 70
     0
  1

 70
     0
  1

 70
     0
  1

 70
     0
  0
XRECORD
  5
522
102
{ACAD_REACTORS
330
4EC
102
}
330
4EC
100
AcDbXrecord
280
     1
 90
1393298577
 90
     3615
 90
       51
 90
       52
 90
        3
 90
      256
  1
Standard
  1
Standard
  1

  1

140
0.0
140
0.0
140
0.0
140
0.0
 70
    31
 70
     9
 70
    23
 70
    63
 70
    31
 70
     1
 70
     1
 70
     2
 70
     2
 70
     7
 70
     2
 70
     1
 70
     1
 70
     1
 70
     1
 70
     1
 70
     1
 70
     0
 70
     1
140
0.000001
140
1.0
 70
     1
140
1.0
140
1.0
140
1.0
140
100.0
140
50.0
140
0.0
 70
     8
 70
   210
 70
     1
 70
     1
140
250.0
140
5.0
 70
     5
 70
     2
 70
     1
 70
     4
 70
     3
 70
     2
 70
     2
 70
     3
 70
     2
 70
    80
 70
     1
140
5.0
140
1.0
 70
     1
 70
     0
 70
     0
140
5.0
140
1.0
 70
     1
 70
     0
 70
     0
 70
     0
 70
     0
140
25.0
  1

  1
$(N) $(L)x$(W)x$(T)
 70
     1
 70
     0
  1
$(N) $(T)x$(W)
 70
     1
 70
     0
140
2.0
  1
$(N) $(T)x$(W)
 70
     0
 70
     0
 70
     0
 70
     0
 70
     0
 70
     5
 70
     1
 70
     7
 70
     2
 70
     0
 70
     1
 70
     0
 70
     0
 70
     1
 70
     1
 70
     4
 70
     7
 70
     1
 70
     1
 70
     2
 70
     8
 70
     2
 70
     1
 70
     7
 70
     0
 70
     0
140
10.0
140
0.0
140
10.0
140
0.2
140
0.0
140
0.0
140
1.0
140
500.0
140
7865.0
140
0.0
  1
RD $(D)
  1
RO $(D)x$(T)
  1
RQ $(D)x$(T)
  1
RR $(W)x$(H)x$(T)
  1
4KT $(D)
  1
BLECH $(W)x$(H)
 70
     0
 70
    -1
 70
    -1
 70
    -1
 70
  1025
 70
  1025
 70
  1025
 70
  1025
 70
  1025
 70
     3
 70
     1
 70
     1
 70
     0
 70
     0
 70
     0
 70
     0
 70
     0
 70
     0
 70
     0
 70
     0
 70
     0
 70
     0
 70
     0
 70
     0
 70
     0
 70
     0
 70
     0
 70
     0
 70
     0
 70
     0
 70
     0
 70
     0
 70
     0
 70
     0
 70
     0
 70
     0
 70
    34
 70
    34
 70
   100
 70
  6000
 70
     0
 70
   253
 70
   253
 70
   253
 90
        4
 70
     0
 70
     1
 70
     1
 70
     0
 70
     0
 70
     0
 70
     0
 70
     0
 90
       56
140
3.149999999999999
140
1.0
140
1.0
 70
     0
 70
     0
 70
     0
 70
     1
 70
     2
 70
    11
 70
    17
 70
    12
 70
   256
 70
   256
 70
   128
 90
        1
140
200.0
  1

  1

  1

  1

  1

  1

  0
XRECORD
  5
489
102
{ACAD_REACTORS
330
488
102
}
330
488
100
AcDbXrecord
280
     1
  1
13.20.0307
  1
2:2:2011 by PS 18.0
  0
DICTIONARY
  5
471
330
470
100
AcDbDictionary
280
     1
281
     1
  3
ACAD_XREC_ROUNDTRIP
360
2288
  3
BUMPTILE
360
473
  3
DIFFUSETILE
360
472
  3
OPACITYTILE
360
476
  3
REFLECTIONTILE
360
475
  3
REFRACTIONTILE
360
477
  3
SPECULARTILE
360
474
  0
DICTIONARY
  5
469
330
468
100
AcDbDictionary
280
     1
281
     1
  3
ACAD_XREC_ROUNDTRIP
360
2287
  3
BUMPTILE
360
46B
  3
DIFFUSETILE
360
46A
  3
OPACITYTILE
360
46E
  3
REFLECTIONTILE
360
46D
  3
REFRACTIONTILE
360
46F
  3
SPECULARTILE
360
46C
  0
DICTIONARY
  5
479
330
478
100
AcDbDictionary
280
     1
281
     1
  3
ACAD_XREC_ROUNDTRIP
360
2289
  3
BUMPTILE
360
47B
  3
DIFFUSETILE
360
47A
  3
OPACITYTILE
360
47E
  3
REFLECTIONTILE
360
47D
  3
REFRACTIONTILE
360
47F
  3
SPECULARTILE
360
47C
  0
DICTIONARY
  5
523
330
482
100
AcDbDictionary
280
     1
281
     1
  3
ACAD_ROUNDTRIP_2008_TABLESTYLE_CELLSTYLEMAP
360
2285
  3
ACAD_XREC_ROUNDTRIP
360
228A
  0
XRECORD
  5
2288
102
{ACAD_REACTORS
330
471
102
}
330
471
100
AcDbXrecord
280
     1
102
MATERIAL
148
0.0
149
0.0
149
0.0
 93
        0
 94
      127
282
     0
 72
     0
 77
     0
171
     0
175
     0
179
     0
273
     0
  0
XRECORD
  5
473
102
{ACAD_REACTORS
330
471
102
}
330
471
100
AcDbXrecord
280
     1
270
     1
271
     1
  0
XRECORD
  5
472
102
{ACAD_REACTORS
330
471
102
}
330
471
100
AcDbXrecord
280
     1
270
     1
271
     1
  0
XRECORD
  5
476
102
{ACAD_REACTORS
330
471
102
}
330
471
100
AcDbXrecord
280
     1
270
     1
271
     1
  0
XRECORD
  5
475
102
{ACAD_REACTORS
330
471
102
}
330
471
100
AcDbXrecord
280
     1
270
     1
271
     1
  0
XRECORD
  5
477
102
{ACAD_REACTORS
330
471
102
}
330
471
100
AcDbXrecord
280
     1
270
     1
271
     1
  0
XRECORD
  5
474
102
{ACAD_REACTORS
330
471
102
}
330
471
100
AcDbXrecord
280
     1
270
     1
271
     1
  0
XRECORD
  5
2287
102
{ACAD_REACTORS
330
469
102
}
330
469
100
AcDbXrecord
280
     1
102
MATERIAL
148
0.0
149
0.0
149
0.0
 93
        0
 94
      127
282
     0
 72
     0
 77
     0
171
     0
175
     0
179
     0
273
     0
  0
XRECORD
  5
46B
102
{ACAD_REACTORS
330
469
102
}
330
469
100
AcDbXrecord
280
     1
270
     1
271
     1
  0
XRECORD
  5
46A
102
{ACAD_REACTORS
330
469
102
}
330
469
100
AcDbXrecord
280
     1
270
     1
271
     1
  0
XRECORD
  5
46E
102
{ACAD_REACTORS
330
469
102
}
330
469
100
AcDbXrecord
280
     1
270
     1
271
     1
  0
XRECORD
  5
46D
102
{ACAD_REACTORS
330
469
102
}
330
469
100
AcDbXrecord
280
     1
270
     1
271
     1
  0
XRECORD
  5
46F
102
{ACAD_REACTORS
330
469
102
}
330
469
100
AcDbXrecord
280
     1
270
     1
271
     1
  0
XRECORD
  5
46C
102
{ACAD_REACTORS
330
469
102
}
330
469
100
AcDbXrecord
280
     1
270
     1
271
     1
  0
XRECORD
  5
2289
102
{ACAD_REACTORS
330
479
102
}
330
479
100
AcDbXrecord
280
     1
102
MATERIAL
148
0.0
149
0.0
149
0.0
 93
        0
 94
      127
282
     0
 72
     0
 77
     0
171
     0
175
     0
179
     0
273
     0
  0
XRECORD
  5
47B
102
{ACAD_REACTORS
330
479
102
}
330
479
100
AcDbXrecord
280
     1
270
     1
271
     1
  0
XRECORD
  5
47A
102
{ACAD_REACTORS
330
479
102
}
330
479
100
AcDbXrecord
280
     1
270
     1
271
     1
  0
XRECORD
  5
47E
102
{ACAD_REACTORS
330
479
102
}
330
479
100
AcDbXrecord
280
     1
270
     1
271
     1
  0
XRECORD
  5
47D
102
{ACAD_REACTORS
330
479
102
}
330
479
100
AcDbXrecord
280
     1
270
     1
271
     1
  0
XRECORD
  5
47F
102
{ACAD_REACTORS
330
479
102
}
330
479
100
AcDbXrecord
280
     1
270
     1
271
     1
  0
XRECORD
  5
47C
102
{ACAD_REACTORS
330
479
102
}
330
479
100
AcDbXrecord
280
     1
270
     1
271
     1
  0
ACAD_PROXY_OBJECT
  5
2285
102
{ACAD_REACTORS
330
523
102
}
330
523
100
AcDbProxyObject
 90
      499
 91
      513
 95
  4980761
 70
     0
 93
     5304
310
40D054060020000020000003200101A000080002A5058000000C10000000000000006101010000000000003E0FC000000000000F83F0000000000003E0FC000000000000F83F000000000000049000000000000001240419019018000000C1003FBFFFFFE0000000000003C8FD029018000000C1003FBFFFFFE00000000000
310
03C8FD049018000000C1003FBFFFFFE0000000000003C8FD089018000000C1003FBFFFFFE0000000000003C8FD109018000000C1003FBFFFFFE0000000000003C8FD209018000000C1003FBFFFFFE0000000000003C8FD01405075F5449544C450041501A8000000C800406800020000A94160000003040000000000000012
310
40404000000000000F83F0000000000003E0FC000000000000F83F0000000000003E0FC0000000000001240000000000000049010640640600000030400FEFFFFFF8000000000000F23F40A40600000030400FEFFFFFF8000000000000F23F41240600000030400FEFFFFFF8000000000000F23F42240600000030400FEFFF
310
FFF8000000000000F23F44240600000030400FEFFFFFF8000000000000F23F48240600000030400FEFFFFFF8000000000000F23F409014217D2115051115480105406A0000003200101A000080002A5028000000C10000000000000004901010000000000003E0FC000000000000F83F0000000000003E0FC000000000000F
310
83F000000000000049000000000000001240419019018000000C1003FBFFFFFE0000000000003C8FD029018000000C1003FBFFFFFE0000000000003C8FD049018000000C1003FBFFFFFE0000000000003C8FD089018000000C1003FBFFFFFE0000000000003C8FD109018000000C1003FBFFFFFE0000000000003C8FD20901
310
8000000C1003FBFFFFFE0000000000003C8FD03409065F444154410043
340
11
340
0
340
0
340
0
340
0
340
0
340
0
340
11
340
0
340
0
340
0
340
0
340
0
340
0
340
11
340
0
340
0
340
0
340
0
340
0
340
0
 94
        0
  0
XRECORD
  5
228A
102
{ACAD_REACTORS
330
523
102
}
330
523
100
AcDbXrecord
280
     1
102
ACAD_ROUNDTRIP_PRE2007_TABLESTYLE
 90
      512
 91
        0
  1

 92
      512
 93
        0
  2

 94
      512
 95
        0
  3

  0
ENDSEC
  0
EOF
