  0
SECTION
  2
HEADER
  9
$ACADVER
  1
AC1018
  9
$ACADMAINTVER
 70
    76
  9
$DWGCODEPAGE
  3
ANSI_1252
  9
$LASTSAVEDBY
  1
Schatterny
  9
$INSBASE
 10
0.0
 20
0.0
 30
0.0
  9
$EXTMIN
 10
-7399.045391803575
 20
-6360.352008953283
 30
-0.0083916979057221
  9
$EXTMAX
 10
-6765.905949300446
 20
-5459.337147075808
 30
275.0085304784739
  9
$LIMMIN
 10
0.0
 20
0.0
  9
$LIMMAX
 10
420.0
 20
297.0
  9
$ORTHOMODE
 70
     1
  9
$REGENMODE
 70
     1
  9
$FILLMODE
 70
     1
  9
$QTEXTMODE
 70
     0
  9
$MIRRTEXT
 70
     1
  9
$LTSCALE
 40
1.0
  9
$ATTMODE
 70
     1
  9
$TEXTSIZE
 40
2.5
  9
$TRACEWID
 40
1.0
  9
$TEXTSTYLE
  7
Standard
  9
$CLAYER
  8
-TEXT3
  9
$CELTYPE
  6
ByLayer
  9
$CECOLOR
 62
   256
  9
$CELTSCALE
 40
1.0
  9
$DISPSILH
 70
     0
  9
$DIMSCALE
 40
1.0
  9
$DIMASZ
 40
8.0
  9
$DIMEXO
 40
3.0
  9
$DIMDLI
 40
10.0
  9
$DIMRND
 40
0.0
  9
$DIMDLE
 40
0.0
  9
$DIMEXE
 40
1.0
  9
$DIMTP
 40
0.0
  9
$DIMTM
 40
0.5
  9
$DIMTXT
 40
8.0
  9
$DIMCEN
 40
0.09
  9
$DIMTSZ
 40
0.0
  9
$DIMTOL
 70
     0
  9
$DIMLIM
 70
     0
  9
$DIMTIH
 70
     0
  9
$DIMTOH
 70
     0
  9
$DIMSE1
 70
     0
  9
$DIMSE2
 70
     0
  9
$DIMTAD
 70
     1
  9
$DIMZIN
 70
     9
  9
$DIMBLK
  1

  9
$DIMASO
 70
     1
  9
$DIMSHO
 70
     1
  9
$DIMPOST
  1

  9
$DIMAPOST
  1

  9
$DIMALT
 70
     0
  9
$DIMALTD
 70
     2
  9
$DIMALTF
 40
25.4
  9
$DIMLFAC
 40
1.0
  9
$DIMTOFL
 70
     1
  9
$DIMTVP
 40
0.0
  9
$DIMTIX
 70
     0
  9
$DIMSOXD
 70
     0
  9
$DIMSAH
 70
     0
  9
$DIMBLK1
  1

  9
$DIMBLK2
  1

  9
$DIMSTYLE
  2
1-1
  9
$DIMCLRD
 70
   256
  9
$DIMCLRE
 70
   256
  9
$DIMCLRT
 70
   256
  9
$DIMTFAC
 40
0.75
  9
$DIMGAP
 40
3.0
  9
$DIMJUST
 70
     0
  9
$DIMSD1
 70
     0
  9
$DIMSD2
 70
     0
  9
$DIMTOLJ
 70
     0
  9
$DIMTZIN
 70
     0
  9
$DIMALTZ
 70
     0
  9
$DIMALTTZ
 70
     0
  9
$DIMUPT
 70
     0
  9
$DIMDEC
 70
     0
  9
$DIMTDEC
 70
     0
  9
$DIMALTU
 70
     2
  9
$DIMALTTD
 70
     2
  9
$DIMTXSTY
  7
Standard
  9
$DIMAUNIT
 70
     0
  9
$DIMADEC
 70
     0
  9
$DIMALTRND
 40
0.0
  9
$DIMAZIN
 70
     0
  9
$DIMDSEP
 70
    46
  9
$DIMATFIT
 70
     3
  9
$DIMFRAC
 70
     0
  9
$DIMLDRBLK
  1

  9
$DIMLUNIT
 70
     2
  9
$DIMLWD
 70
    -2
  9
$DIMLWE
 70
    -2
  9
$DIMTMOVE
 70
     0
  9
$LUNITS
 70
     2
  9
$LUPREC
 70
     4
  9
$SKETCHINC
 40
1.0
  9
$FILLETRAD
 40
0.0
  9
$AUNITS
 70
     0
  9
$AUPREC
 70
     0
  9
$MENU
  1
.
  9
$ELEVATION
 40
0.0
  9
$PELEVATION
 40
0.0
  9
$THICKNESS
 40
0.0
  9
$LIMCHECK
 70
     0
  9
$CHAMFERA
 40
10.0
  9
$CHAMFERB
 40
10.0
  9
$CHAMFERC
 40
20.0
  9
$CHAMFERD
 40
0.0
  9
$SKPOLY
 70
     0
  9
$TDCREATE
 40
2455581.417946968
  9
$TDUCREATE
 40
2455581.376280301
  9
$TDUPDATE
 40
2457711.446903368
  9
$TDUUPDATE
 40
2457711.405236702
  9
$TDINDWG
 40
12.0001383333
  9
$TDUSRTIMER
 40
12.0001383333
  9
$USRTIMER
 70
     1
  9
$ANGBASE
 50
0.0
  9
$ANGDIR
 70
     0
  9
$PDMODE
 70
     0
  9
$PDSIZE
 40
0.0
  9
$PLINEWID
 40
0.0
  9
$SPLFRAME
 70
     0
  9
$SPLINETYPE
 70
     6
  9
$SPLINESEGS
 70
     8
  9
$HANDSEED
  5
19E9B
  9
$SURFTAB1
 70
     6
  9
$SURFTAB2
 70
     6
  9
$SURFTYPE
 70
     6
  9
$SURFU
 70
     6
  9
$SURFV
 70
     6
  9
$UCSBASE
  2

  9
$UCSNAME
  2

  9
$UCSORG
 10
0.0
 20
0.0
 30
0.0
  9
$UCSXDIR
 10
1.0
 20
0.0
 30
0.0
  9
$UCSYDIR
 10
0.0
 20
1.0
 30
0.0
  9
$UCSORTHOREF
  2

  9
$UCSORTHOVIEW
 70
     0
  9
$UCSORGTOP
 10
0.0
 20
0.0
 30
0.0
  9
$UCSORGBOTTOM
 10
0.0
 20
0.0
 30
0.0
  9
$UCSORGLEFT
 10
0.0
 20
0.0
 30
0.0
  9
$UCSORGRIGHT
 10
0.0
 20
0.0
 30
0.0
  9
$UCSORGFRONT
 10
0.0
 20
0.0
 30
0.0
  9
$UCSORGBACK
 10
0.0
 20
0.0
 30
0.0
  9
$PUCSBASE
  2

  9
$PUCSNAME
  2

  9
$PUCSORG
 10
0.0
 20
0.0
 30
0.0
  9
$PUCSXDIR
 10
1.0
 20
0.0
 30
0.0
  9
$PUCSYDIR
 10
0.0
 20
1.0
 30
0.0
  9
$PUCSORTHOREF
  2

  9
$PUCSORTHOVIEW
 70
     0
  9
$PUCSORGTOP
 10
0.0
 20
0.0
 30
0.0
  9
$PUCSORGBOTTOM
 10
0.0
 20
0.0
 30
0.0
  9
$PUCSORGLEFT
 10
0.0
 20
0.0
 30
0.0
  9
$PUCSORGRIGHT
 10
0.0
 20
0.0
 30
0.0
  9
$PUCSORGFRONT
 10
0.0
 20
0.0
 30
0.0
  9
$PUCSORGBACK
 10
0.0
 20
0.0
 30
0.0
  9
$USERI1
 70
     0
  9
$USERI2
 70
     0
  9
$USERI3
 70
     0
  9
$USERI4
 70
     0
  9
$USERI5
 70
     0
  9
$USERR1
 40
0.0
  9
$USERR2
 40
0.0
  9
$USERR3
 40
0.0
  9
$USERR4
 40
0.0
  9
$USERR5
 40
0.0
  9
$WORLDVIEW
 70
     0
  9
$SHADEDGE
 70
     3
  9
$SHADEDIF
 70
    70
  9
$TILEMODE
 70
     1
  9
$MAXACTVP
 70
    64
  9
$PINSBASE
 10
0.0
 20
0.0
 30
0.0
  9
$PLIMCHECK
 70
     0
  9
$PEXTMIN
 10
0.0
 20
0.0
 30
0.0
  9
$PEXTMAX
 10
420.0
 20
297.0
 30
0.0
  9
$PLIMMIN
 10
0.0
 20
0.0
  9
$PLIMMAX
 10
420.0
 20
297.0
  9
$UNITMODE
 70
     0
  9
$VISRETAIN
 70
     1
  9
$PLINEGEN
 70
     0
  9
$PSLTSCALE
 70
     1
  9
$TREEDEPTH
 70
  3020
  9
$CMLSTYLE
  2
Standard
  9
$CMLJUST
 70
     0
  9
$CMLSCALE
 40
20.0
  9
$PROXYGRAPHICS
 70
     1
  9
$MEASUREMENT
 70
     1
  9
$CELWEIGHT
370
    -1
  9
$ENDCAPS
280
     0
  9
$JOINSTYLE
280
     0
  9
$LWDISPLAY
290
     0
  9
$INSUNITS
 70
     4
  9
$HYPERLINKBASE
  1

  9
$STYLESHEET
  1
brüstung.ctb
  9
$XEDIT
290
     1
  9
$CEPSNTYPE
380
     0
  9
$PSTYLEMODE
290
     1
  9
$FINGERPRINTGUID
  2
{B2DF4339-73A4-4EEF-B482-1DB72221CEAF}
  9
$VERSIONGUID
  2
{0A45D828-14C2-4BF9-9C0E-30817926395B}
  9
$EXTNAMES
290
     1
  9
$PSVPSCALE
 40
0.0
  9
$OLESTARTUP
290
     0
  9
$SORTENTS
280
   127
  9
$INDEXCTL
280
     0
  9
$HIDETEXT
280
     0
  9
$XCLIPFRAME
290
     0
  9
$HALOGAP
280
     0
  9
$OBSCOLOR
 70
   257
  9
$OBSLTYPE
280
     0
  9
$INTERSECTIONDISPLAY
280
     0
  9
$INTERSECTIONCOLOR
 70
   257
  9
$DIMASSOC
280
     1
  9
$PROJECTNAME
  1

  0
ENDSEC
  0
SECTION
  2
CLASSES
  0
CLASS
  1
ACDBDICTIONARYWDFLT
  2
AcDbDictionaryWithDefault
  3
ObjectDBX Classes
 90
        0
 91
        1
280
     0
281
     0
  0
CLASS
  1
VISUALSTYLE
  2
AcDbVisualStyle
  3
ObjectDBX Classes
 90
     4095
 91
       16
280
     0
281
     0
  0
CLASS
  1
SCALE
  2
AcDbScale
  3
ObjectDBX Classes
 90
     1153
 91
       33
280
     0
281
     0
  0
CLASS
  1
DICTIONARYVAR
  2
AcDbDictionaryVar
  3
ObjectDBX Classes
 90
        0
 91
        9
280
     0
281
     0
  0
CLASS
  1
ACDBPLACEHOLDER
  2
AcDbPlaceHolder
  3
ObjectDBX Classes
 90
        0
 91
        1
280
     0
281
     0
  0
CLASS
  1
LAYOUT
  2
AcDbLayout
  3
ObjectDBX Classes
 90
        0
 91
        2
280
     0
281
     0
  0
CLASS
  1
MATERIAL
  2
AcDbMaterial
  3
ObjectDBX Classes
 90
        0
 91
        3
280
     0
281
     0
  0
CLASS
  1
TABLESTYLE
  2
AcDbTableStyle
  3
ObjectDBX Classes
 90
     2047
 91
        1
280
     0
281
     0
  0
CLASS
  1
MLEADERSTYLE
  2
AcDbMLeaderStyle
  3
ACDB_MLEADERSTYLE_CLASS
 90
     4095
 91
        1
280
     0
281
     0
  0
CLASS
  1
Ks_BoltStyle
  2
Ks_BoltStyle
  3
Pro_Stahl_3d
 90
        0
 91
       31
280
     0
281
     0
  0
CLASS
  1
Ks_WeldStyle
  2
Ks_WeldStyle
  3
Pro_Stahl_3d
 90
        0
 91
       18
280
     0
281
     0
  0
CLASS
  1
Ks_KoteflagStyle
  2
Ks_KoteflagStyle
  3
Pro_Stahl_3d
 90
        0
 91
        2
280
     0
281
     0
  0
CLASS
  1
Ks_PosflagStyle
  2
Ks_PosflagStyle
  3
Pro_Stahl_3d
 90
        0
 91
       15
280
     0
281
     0
  0
CLASS
  1
CELLSTYLEMAP
  2
AcDbCellStyleMap
  3
ObjectDBX Classes
 90
     1152
 91
        1
280
     0
281
     0
  0
CLASS
  1
SORTENTSTABLE
  2
AcDbSortentsTable
  3
ObjectDBX Classes
 90
        0
 91
        1
280
     0
281
     0
  0
CLASS
  1
AEC_REFEDIT_STATUS_TRACKER
  2
AecDbRefEditStatusTracker
  3
AecArchBase50|Product Desc: Autodesk Architectural Desktop 2007 |Company: Autodesk,Inc. |WEB Address: www.autodesk.com
 90
      129
 91
        0
280
     0
281
     0
  0
CLASS
  1
NPOCOLLECTION
  2
AcDbImpNonPersistentObjectsCollection
  3
ObjectDBX Classes
 90
     1153
 91
        0
280
     0
281
     0
  0
CLASS
  1
DIMASSOC
  2
AcDbDimAssoc
  3
"AcDbDimAssoc|Product Desc:     AcDim ARX App For Dimension|Company:          Autodesk, Inc.|WEB Address:      www.autodesk.com"
 90
        0
 91
        0
280
     0
281
     0
  0
CLASS
  1
IMAGE
  2
AcDbRasterImage
  3
ISM
 90
      127
 91
       16
280
     0
281
     1
  0
CLASS
  1
IMAGEDEF_REACTOR
  2
AcDbRasterImageDefReactor
  3
ISM
 90
        1
 91
       16
280
     0
281
     0
  0
CLASS
  1
IMAGEDEF
  2
AcDbRasterImageDef
  3
ISM
 90
        0
 91
        1
280
     0
281
     0
  0
CLASS
  1
RASTERVARIABLES
  2
AcDbRasterVariables
  3
ISM
 90
        0
 91
        1
280
     0
281
     0
  0
ENDSEC
  0
SECTION
  2
TABLES
  0
TABLE
  2
VPORT
  5
8
102
{ACAD_XDICTIONARY
360
526
102
}
330
0
100
AcDbSymbolTable
 70
     5
  0
VPORT
  5
19E9A
330
8
100
AcDbSymbolTableRecord
100
AcDbViewportTableRecord
  2
*Active
 70
     0
 10
0.0
 20
0.0
 11
1.0
 21
1.0
 12
-7082.47567055201
 22
-5909.844578014546
 13
0.0
 23
0.0
 14
10.0
 24
10.0
 15
10.0
 25
10.0
 16
0.0
 26
0.0
 36
1.0
 17
0.0
 27
0.0
 37
0.0
 40
907.4814757187013
 41
1.893413173652694
 42
50.0
 43
0.0
 44
0.0
 50
0.0
 51
0.0
 71
     0
 72
   100
 73
     1
 74
     3
 75
     0
 76
     0
 77
     0
 78
     0
281
     0
 65
     1
110
0.0
120
0.0
130
0.0
111
1.0
121
0.0
131
0.0
112
0.0
122
1.0
132
0.0
 79
     0
146
0.0
  0
ENDTAB
  0
TABLE
  2
LTYPE
  5
5
330
0
100
AcDbSymbolTable
 70
     5
  0
LTYPE
  5
14
330
5
100
AcDbSymbolTableRecord
100
AcDbLinetypeTableRecord
  2
ByBlock
 70
     0
  3

 72
    65
 73
     0
 40
0.0
  0
LTYPE
  5
15
330
5
100
AcDbSymbolTableRecord
100
AcDbLinetypeTableRecord
  2
ByLayer
 70
     0
  3

 72
    65
 73
     0
 40
0.0
  0
LTYPE
  5
16
330
5
100
AcDbSymbolTableRecord
100
AcDbLinetypeTableRecord
  2
Continuous
 70
     0
  3
Solid line
 72
    65
 73
     0
 40
0.0
  0
LTYPE
  5
63F7
330
5
100
AcDbSymbolTableRecord
100
AcDbLinetypeTableRecord
  2
STRICHLINIEX2
 70
     0
  3
Strichlinie (2x) ____  ____  ____  ____  ____  
 72
    65
 73
     2
 40
1.5
 49
1.0
 74
     0
 49
-0.5
 74
     0
  0
LTYPE
  5
63F8
330
5
100
AcDbSymbolTableRecord
100
AcDbLinetypeTableRecord
  2
MITTEX2
 70
     0
  3
Mitte (2x) ________  __  ________  __  _____
 72
    65
 73
     4
 40
4.0
 49
2.5
 74
     0
 49
-0.5
 74
     0
 49
0.5
 74
     0
 49
-0.5
 74
     0
  0
LTYPE
  5
14C02
330
5
100
AcDbSymbolTableRecord
100
AcDbLinetypeTableRecord
  2
AUSGEZOGEN
 70
     0
  3
AUSGEZOGEN
 72
    65
 73
     2
 40
2.0
 49
1.0
 74
     0
 49
1.0
 74
     0
  0
LTYPE
  5
15264
330
5
100
AcDbSymbolTableRecord
100
AcDbLinetypeTableRecord
  2
DASHDOT2
 70
     0
  3
Dash dot (.5x) _._._._._._._._._._._._._._._.
 72
    65
 73
     4
 40
12.7
 49
6.349999999999999
 74
     4
 75
     0
340
0
 46
0.0
 50
0.0
 44
0.0
 45
0.0
 49
-3.174999999999999
 74
     4
 75
     0
340
0
 46
0.0
 50
0.0
 44
0.0
 45
0.0
 49
0.0
 74
     4
 75
     0
340
0
 46
0.0
 50
0.0
 44
0.0
 45
0.0
 49
-3.174999999999999
 74
     4
 75
     0
340
0
 46
0.0
 50
0.0
 44
0.0
 45
0.0
  0
ENDTAB
  0
TABLE
  2
LAYER
  5
2
102
{ACAD_XDICTIONARY
360
7C6
102
}
330
0
100
AcDbSymbolTable
 70
     9
  0
LAYER
  5
10
102
{ACAD_XDICTIONARY
360
4F0
102
}
330
2
100
AcDbSymbolTableRecord
100
AcDbLayerTableRecord
  2
0
 70
     0
 62
     7
  6
Continuous
370
    -3
390
F
  0
LAYER
  5
7BC
330
2
100
AcDbSymbolTableRecord
100
AcDbLayerTableRecord
  2
Defpoints
 70
     0
 62
     7
  6
Continuous
290
     0
370
    -3
390
F
  0
LAYER
  5
14EC
330
2
100
AcDbSymbolTableRecord
100
AcDbLayerTableRecord
  2
-TEXT3
 70
     0
 62
     2
  6
Continuous
370
    -3
390
F
  0
LAYER
  5
63FA
330
2
100
AcDbSymbolTableRecord
100
AcDbLayerTableRecord
  2
-TEXT2
 70
     0
 62
     3
  6
Continuous
370
    -3
390
F
  0
LAYER
  5
63FB
330
2
100
AcDbSymbolTableRecord
100
AcDbLayerTableRecord
  2
-SYSTEM
 70
     0
 62
     2
  6
MITTEX2
370
    -3
390
F
  0
LAYER
  5
63FC
330
2
100
AcDbSymbolTableRecord
100
AcDbLayerTableRecord
  2
-NORMTEIL_VERDECKT
 70
     0
 62
     9
  6
STRICHLINIEX2
370
    -3
390
F
  0
LAYER
  5
6406
102
{ACAD_XDICTIONARY
360
6407
102
}
330
2
100
AcDbSymbolTableRecord
100
AcDbLayerTableRecord
  2
GRUNDPROFIL
 70
     0
 62
     4
  6
Continuous
370
    -3
390
F
  0
LAYER
  5
14C06
330
2
100
AcDbSymbolTableRecord
100
AcDbLayerTableRecord
  2
-TEXT
 70
     0
 62
     7
  6
AUSGEZOGEN
370
    -3
390
F
  0
LAYER
  5
14C07
330
2
100
AcDbSymbolTableRecord
100
AcDbLayerTableRecord
  2
-ZEICHNUNGSRAND-INNEN
 70
     0
 62
     7
  6
Continuous
370
    -3
390
F
  0
ENDTAB
  0
TABLE
  2
STYLE
  5
3
330
0
100
AcDbSymbolTable
 70
     3
  0
STYLE
  5
11
330
3
100
AcDbSymbolTableRecord
100
AcDbTextStyleTableRecord
  2
Standard
 70
     0
 40
0.0
 41
1.0
 50
0.0
 71
     0
 42
2.5
  3
ARIAL.TTF
  4

1001
ACAD
1000
Arial
1071
       34
  0
STYLE
  5
14C08
330
3
100
AcDbSymbolTableRecord
100
AcDbTextStyleTableRecord
  2
LOGOCAD
 70
     0
 40
0.0
 41
1.0
 50
0.0
 71
     0
 42
3.5
  3
TXT8
  4

  0
ENDTAB
  0
TABLE
  2
VIEW
  5
6
330
0
100
AcDbSymbolTable
 70
     0
  0
ENDTAB
  0
TABLE
  2
UCS
  5
7
330
0
100
AcDbSymbolTable
 70
     0
  0
ENDTAB
  0
TABLE
  2
APPID
  5
9
330
0
100
AcDbSymbolTable
 70
    34
  0
APPID
  5
12
330
9
100
AcDbSymbolTableRecord
100
AcDbRegAppTableRecord
  2
ACAD
 70
     0
  0
APPID
  5
484
330
9
100
AcDbSymbolTableRecord
100
AcDbRegAppTableRecord
  2
ACAD_MLEADERVER
 70
     0
  0
APPID
  5
49E
330
9
100
AcDbSymbolTableRecord
100
AcDbRegAppTableRecord
  2
ProSteel3d_Bg
 70
     0
  0
APPID
  5
49F
330
9
100
AcDbSymbolTableRecord
100
AcDbRegAppTableRecord
  2
ProSteel3d_Sp
 70
     0
  0
APPID
  5
4A0
330
9
100
AcDbSymbolTableRecord
100
AcDbRegAppTableRecord
  2
ProSteel3d_DetDimEed
 70
     0
  0
APPID
  5
536
330
9
100
AcDbSymbolTableRecord
100
AcDbRegAppTableRecord
  2
ACAD_PSEXT
 70
     0
  0
APPID
  5
7C2
330
9
100
AcDbSymbolTableRecord
100
AcDbRegAppTableRecord
  2
ACAD_DSTYLE_DIMJAG
 70
     0
  0
APPID
  5
7C3
330
9
100
AcDbSymbolTableRecord
100
AcDbRegAppTableRecord
  2
ACAD_DSTYLE_DIMBREAK
 70
     0
  0
APPID
  5
7C4
330
9
100
AcDbSymbolTableRecord
100
AcDbRegAppTableRecord
  2
ACAD_DSTYLE_DIMTALN
 70
     0
  0
APPID
  5
7C5
330
9
100
AcDbSymbolTableRecord
100
AcDbRegAppTableRecord
  2
ACAD_DSTYLE_DIMRADIAL_EXTENSION
 70
     0
  0
APPID
  5
E07
330
9
100
AcDbSymbolTableRecord
100
AcDbRegAppTableRecord
  2
AcDbDynamicBlockGUID
 70
     0
  0
APPID
  5
E08
330
9
100
AcDbSymbolTableRecord
100
AcDbRegAppTableRecord
  2
AcDbBlockRepETag
 70
     0
  0
APPID
  5
131C
330
9
100
AcDbSymbolTableRecord
100
AcDbRegAppTableRecord
  2
ACAD_EXEMPT_FROM_CAD_STANDARDS
 70
     0
  0
APPID
  5
311D
330
9
100
AcDbSymbolTableRecord
100
AcDbRegAppTableRecord
  2
AcadAnnotative
 70
     0
  0
APPID
  5
311E
330
9
100
AcDbSymbolTableRecord
100
AcDbRegAppTableRecord
  2
AcAecLayerStandard
 70
     0
  0
APPID
  5
311F
330
9
100
AcDbSymbolTableRecord
100
AcDbRegAppTableRecord
  2
GENIUS_GENODEF_13
 70
     0
  0
APPID
  5
3120
330
9
100
AcDbSymbolTableRecord
100
AcDbRegAppTableRecord
  2
GENIUS_GENOBJ-N-CEN_13
 70
     0
  0
APPID
  5
3121
330
9
100
AcDbSymbolTableRecord
100
AcDbRegAppTableRecord
  2
GENIUS_GENCEN_19
 70
     0
  0
APPID
  5
640E
330
9
100
AcDbSymbolTableRecord
100
AcDbRegAppTableRecord
  2
AVE_FINISH
 70
     0
  0
APPID
  5
640F
330
9
100
AcDbSymbolTableRecord
100
AcDbRegAppTableRecord
  2
ACAD_DSTYLE_DIMEXT_LENGTH
 70
     0
  0
APPID
  5
6410
330
9
100
AcDbSymbolTableRecord
100
AcDbRegAppTableRecord
  2
ACAD_DSTYLE_DIMEXT_ENABLED
 70
     0
  0
APPID
  5
6411
330
9
100
AcDbSymbolTableRecord
100
AcDbRegAppTableRecord
  2
ACAD_DSTYLE_DIMJOGGED_JOGANGLE_SYMBOL
 70
     0
  0
APPID
  5
6412
330
9
100
AcDbSymbolTableRecord
100
AcDbRegAppTableRecord
  2
ACAD_DSTYLE_DIMARC_LENGTH_SYMBOL
 70
     0
  0
APPID
  5
6A34
330
9
100
AcDbSymbolTableRecord
100
AcDbRegAppTableRecord
  2
ACAD_DSTYLE_DIMTEXT_FILL
 70
     0
  0
APPID
  5
6A37
330
9
100
AcDbSymbolTableRecord
100
AcDbRegAppTableRecord
  2
ACAD_DSTYLE_DIM_LINETYPE
 70
     0
  0
APPID
  5
6A38
330
9
100
AcDbSymbolTableRecord
100
AcDbRegAppTableRecord
  2
ACAD_DSTYLE_DIM_EXT1_LINETYPE
 70
     0
  0
APPID
  5
6A39
330
9
100
AcDbSymbolTableRecord
100
AcDbRegAppTableRecord
  2
ACAD_DSTYLE_DIM_EXT2_LINETYPE
 70
     0
  0
APPID
  5
114A8
330
9
100
AcDbSymbolTableRecord
100
AcDbRegAppTableRecord
  2
DCO15
 70
     0
  0
APPID
  5
18E7D
330
9
100
AcDbSymbolTableRecord
100
AcDbRegAppTableRecord
  2
ACAD_DSTYLE_DIMINSPECT
 70
     0
  0
APPID
  5
18E7E
330
9
100
AcDbSymbolTableRecord
100
AcDbRegAppTableRecord
  2
ACCMTRANSPARENCY
 70
     0
  0
APPID
  5
18E7F
330
9
100
AcDbSymbolTableRecord
100
AcDbRegAppTableRecord
  2
GRADIENTCOLOR1ACI
 70
     0
  0
APPID
  5
18E80
330
9
100
AcDbSymbolTableRecord
100
AcDbRegAppTableRecord
  2
GRADIENTCOLOR2ACI
 70
     0
  0
APPID
  5
18E81
330
9
100
AcDbSymbolTableRecord
100
AcDbRegAppTableRecord
  2
AEC_XDATA_BOUND_SPACE
 70
     0
  0
APPID
  5
18E82
330
9
100
AcDbSymbolTableRecord
100
AcDbRegAppTableRecord
  2
GENIUS_GENDTOL_13
 70
     0
  0
ENDTAB
  0
TABLE
  2
DIMSTYLE
  5
A
330
0
100
AcDbSymbolTable
 70
     3
100
AcDbDimStyleTable
 71
     1
340
640D
  0
DIMSTYLE
105
3118
330
A
100
AcDbSymbolTableRecord
100
AcDbDimStyleTableRecord
  2
Standard
 70
     0
340
11
  0
DIMSTYLE
105
640D
102
{ACAD_REACTORS
330
17146
330
17147
330
17148
330
1715E
330
1725E
330
1725F
330
17260
330
17261
102
}
330
A
100
AcDbSymbolTableRecord
100
AcDbDimStyleTableRecord
  2
1-1
 70
     0
 41
8.0
 42
3.0
 43
10.0
 44
1.0
 48
0.5
 73
     0
 74
     0
 77
     1
 78
     9
140
8.0
146
0.75
147
3.0
172
     1
176
   256
177
   256
178
   256
271
     0
272
     0
283
     0
340
11
1001
ACAD_DSTYLE_DIMEXT_LENGTH
1070
   378
1040
1.0
1001
ACAD_DSTYLE_DIMEXT_ENABLED
1070
   383
1070
     0
1001
ACAD_DSTYLE_DIMARC_LENGTH_SYMBOL
1070
   379
1070
     0
1001
ACAD_DSTYLE_DIMJOGGED_JOGANGLE_SYMBOL
1070
   384
1040
0.7853981633974483
  0
ENDTAB
  0
TABLE
  2
BLOCK_RECORD
  5
1
330
0
100
AcDbSymbolTable
 70
   123
  0
BLOCK_RECORD
  5
1F
102
{ACAD_XDICTIONARY
360
1324
102
}
330
1
100
AcDbSymbolTableRecord
100
AcDbBlockTableRecord
  2
*Model_Space
340
22
  0
BLOCK_RECORD
  5
1B
330
1
100
AcDbSymbolTableRecord
100
AcDbBlockTableRecord
  2
*Paper_Space
340
1E
  0
BLOCK_RECORD
  5
1716F
330
1
100
AcDbSymbolTableRecord
100
AcDbBlockTableRecord
  2
*D61
340
0
  0
BLOCK_RECORD
  5
1717B
330
1
100
AcDbSymbolTableRecord
100
AcDbBlockTableRecord
  2
*D62
340
0
  0
BLOCK_RECORD
  5
17187
330
1
100
AcDbSymbolTableRecord
100
AcDbBlockTableRecord
  2
*D63
340
0
  0
BLOCK_RECORD
  5
171AB
330
1
100
AcDbSymbolTableRecord
100
AcDbBlockTableRecord
  2
*D64
340
0
  0
BLOCK_RECORD
  5
17262
330
1
100
AcDbSymbolTableRecord
100
AcDbBlockTableRecord
  2
*D65
340
0
  0
BLOCK_RECORD
  5
1726E
330
1
100
AcDbSymbolTableRecord
100
AcDbBlockTableRecord
  2
*D66
340
0
  0
BLOCK_RECORD
  5
1727A
330
1
100
AcDbSymbolTableRecord
100
AcDbBlockTableRecord
  2
*D67
340
0
  0
BLOCK_RECORD
  5
17286
330
1
100
AcDbSymbolTableRecord
100
AcDbBlockTableRecord
  2
*D68
340
0
  0
ENDTAB
  0
ENDSEC
  0
SECTION
  2
BLOCKS
  0
BLOCK
  5
20
330
1F
100
AcDbEntity
  8
0
100
AcDbBlockBegin
  2
*Model_Space
 70
     0
 10
0.0
 20
0.0
 30
0.0
  3
*Model_Space
  1

  0
ENDBLK
  5
21
330
1F
100
AcDbEntity
  8
0
100
AcDbBlockEnd
  0
BLOCK
  5
1C
330
1B
100
AcDbEntity
 67
     1
  8
0
100
AcDbBlockBegin
  2
*Paper_Space
 70
     0
 10
0.0
 20
0.0
 30
0.0
  3
*Paper_Space
  1

  0
ENDBLK
  5
1D
330
1B
100
AcDbEntity
 67
     1
  8
0
100
AcDbBlockEnd
  0
BLOCK
  5
17179
330
1716F
100
AcDbEntity
  8
0
100
AcDbBlockBegin
  2
*D61
 70
     1
 10
0.0
 20
0.0
 30
0.0
  3
*D61
  1

  0
LINE
  5
171CC
330
1716F
100
AcDbEntity
  8
-TEXT3
370
    -2
100
AcDbLine
 10
-7023.827322818694
 20
-5799.366071212254
 30
0.0
 11
-7035.207236389638
 21
-5799.366071212254
 31
0.0
  0
LINE
  5
171CD
330
1716F
100
AcDbEntity
  8
-TEXT3
370
    -2
100
AcDbLine
 10
-7067.827322818693
 20
-5849.366071212255
 30
0.0
 11
-7033.207236389637
 21
-5849.366071212255
 31
0.0
  0
LINE
  5
171CE
330
1716F
100
AcDbEntity
  8
-TEXT3
370
    -2
100
AcDbLine
 10
-7034.207236389637
 20
-5807.366071212254
 30
0.0
 11
-7034.207236389637
 21
-5841.366071212255
 31
0.0
  0
SOLID
  5
171CF
330
1716F
100
AcDbEntity
  8
-TEXT3
100
AcDbTrace
 10
-7035.540569722972
 20
-5807.366071212254
 30
0.0
 11
-7032.873903056304
 21
-5807.366071212254
 31
0.0
 12
-7034.207236389637
 22
-5799.366071212254
 32
0.0
 13
-7034.207236389637
 23
-5799.366071212254
 33
0.0
  0
SOLID
  5
171D0
330
1716F
100
AcDbEntity
  8
-TEXT3
100
AcDbTrace
 10
-7035.540569722972
 20
-5841.366071212255
 30
0.0
 11
-7032.873903056304
 21
-5841.366071212255
 31
0.0
 12
-7034.207236389637
 22
-5849.366071212255
 32
0.0
 13
-7034.207236389637
 23
-5849.366071212255
 33
0.0
  0
MTEXT
  5
171D1
330
1716F
100
AcDbEntity
  8
-TEXT3
100
AcDbMText
 10
-7041.291820291411
 20
-5824.366071212256
 30
0.0
 40
8.0
 41
0.0
 71
     5
 72
     1
  1
50
 11
0.0000000000000001
 21
1.0
 31
0.0
 73
     1
 44
1.0
  0
POINT
  5
171D2
330
1716F
100
AcDbEntity
  8
Defpoints
 62
     0
100
AcDbPoint
 10
-7020.827322818694
 20
-5799.366071212254
 30
0.0
  0
POINT
  5
171D3
330
1716F
100
AcDbEntity
  8
Defpoints
 62
     0
100
AcDbPoint
 10
-7070.827322818693
 20
-5849.366071212255
 30
0.0
  0
POINT
  5
171D4
330
1716F
100
AcDbEntity
  8
Defpoints
 62
     0
100
AcDbPoint
 10
-7034.207236389637
 20
-5849.366071212255
 30
0.0
  0
ENDBLK
  5
1717A
330
1716F
100
AcDbEntity
  8
0
100
AcDbBlockEnd
  0
BLOCK
  5
17185
330
1717B
100
AcDbEntity
  8
0
100
AcDbBlockBegin
  2
*D62
 70
     1
 10
0.0
 20
0.0
 30
0.0
  3
*D62
  1

  0
LINE
  5
171D5
330
1717B
100
AcDbEntity
  8
-TEXT3
370
    -2
100
AcDbLine
 10
-7220.827322818694
 20
-5796.366071212254
 30
0.0
 11
-7220.827322818694
 21
-5752.782362216748
 31
0.0
  0
LINE
  5
171D6
330
1717B
100
AcDbEntity
  8
-TEXT3
370
    -2
100
AcDbLine
 10
-7020.827322818694
 20
-5796.366071212254
 30
0.0
 11
-7020.827322818694
 21
-5752.782362216748
 31
0.0
  0
LINE
  5
171D7
330
1717B
100
AcDbEntity
  8
-TEXT3
370
    -2
100
AcDbLine
 10
-7212.827322818694
 20
-5753.782362216749
 30
0.0
 11
-7028.827322818694
 21
-5753.782362216749
 31
0.0
  0
SOLID
  5
171D8
330
1717B
100
AcDbEntity
  8
-TEXT3
100
AcDbTrace
 10
-7212.827322818694
 20
-5752.449028883416
 30
0.0
 11
-7212.827322818694
 21
-5755.115695550082
 31
0.0
 12
-7220.827322818694
 22
-5753.782362216749
 32
0.0
 13
-7220.827322818694
 23
-5753.782362216749
 33
0.0
  0
SOLID
  5
171D9
330
1717B
100
AcDbEntity
  8
-TEXT3
100
AcDbTrace
 10
-7028.827322818694
 20
-5752.449028883416
 30
0.0
 11
-7028.827322818694
 21
-5755.115695550082
 31
0.0
 12
-7020.827322818694
 22
-5753.782362216749
 32
0.0
 13
-7020.827322818694
 23
-5753.782362216749
 33
0.0
  0
MTEXT
  5
171DA
330
1717B
100
AcDbEntity
  8
-TEXT3
100
AcDbMText
 10
-7120.827322818694
 20
-5746.697778314975
 30
0.0
 40
8.0
 41
0.0
 71
     5
 72
     1
  1
200
 73
     1
 44
1.0
  0
POINT
  5
171DB
330
1717B
100
AcDbEntity
  8
Defpoints
 62
     0
100
AcDbPoint
 10
-7220.827322818694
 20
-5799.366071212254
 30
0.0
  0
POINT
  5
171DC
330
1717B
100
AcDbEntity
  8
Defpoints
 62
     0
100
AcDbPoint
 10
-7020.827322818694
 20
-5799.366071212254
 30
0.0
  0
POINT
  5
171DD
330
1717B
100
AcDbEntity
  8
Defpoints
 62
     0
100
AcDbPoint
 10
-7020.827322818694
 20
-5753.782362216749
 30
0.0
  0
ENDBLK
  5
17186
330
1717B
100
AcDbEntity
  8
0
100
AcDbBlockEnd
  0
BLOCK
  5
17191
330
17187
100
AcDbEntity
  8
0
100
AcDbBlockBegin
  2
*D63
 70
     1
 10
0.0
 20
0.0
 30
0.0
  3
*D63
  1

  0
LINE
  5
171DE
330
17187
100
AcDbEntity
  8
-TEXT3
370
    -2
100
AcDbLine
 10
-7020.827322818694
 20
-5796.366071212254
 30
0.0
 11
-7020.827322818694
 21
-5775.263034224954
 31
0.0
  0
LINE
  5
171DF
330
17187
100
AcDbEntity
  8
-TEXT3
370
    -2
100
AcDbLine
 10
-7070.827322818693
 20
-5846.366071212255
 30
0.0
 11
-7070.827322818693
 21
-5775.263034224954
 31
0.0
  0
LINE
  5
171E0
330
17187
100
AcDbEntity
  8
-TEXT3
370
    -2
100
AcDbLine
 10
-7028.827322818694
 20
-5776.263034224954
 30
0.0
 11
-7062.827322818694
 21
-5776.263034224954
 31
0.0
  0
SOLID
  5
171E1
330
17187
100
AcDbEntity
  8
-TEXT3
100
AcDbTrace
 10
-7028.827322818694
 20
-5774.929700891621
 30
0.0
 11
-7028.827322818694
 21
-5777.596367558287
 31
0.0
 12
-7020.827322818694
 22
-5776.263034224954
 32
0.0
 13
-7020.827322818694
 23
-5776.263034224954
 33
0.0
  0
SOLID
  5
171E2
330
17187
100
AcDbEntity
  8
-TEXT3
100
AcDbTrace
 10
-7062.827322818694
 20
-5774.929700891621
 30
0.0
 11
-7062.827322818694
 21
-5777.596367558287
 31
0.0
 12
-7070.827322818693
 22
-5776.263034224954
 32
0.0
 13
-7070.827322818693
 23
-5776.263034224954
 33
0.0
  0
MTEXT
  5
171E3
330
17187
100
AcDbEntity
  8
-TEXT3
100
AcDbMText
 10
-7045.827322818694
 20
-5769.17845032318
 30
0.0
 40
8.0
 41
0.0
 71
     5
 72
     1
  1
50
 73
     1
 44
1.0
  0
POINT
  5
171E4
330
17187
100
AcDbEntity
  8
Defpoints
 62
     0
100
AcDbPoint
 10
-7020.827322818694
 20
-5799.366071212254
 30
0.0
  0
POINT
  5
171E5
330
17187
100
AcDbEntity
  8
Defpoints
 62
     0
100
AcDbPoint
 10
-7070.827322818693
 20
-5849.366071212255
 30
0.0
  0
POINT
  5
171E6
330
17187
100
AcDbEntity
  8
Defpoints
 62
     0
100
AcDbPoint
 10
-7070.827322818693
 20
-5776.263034224954
 30
0.0
  0
ENDBLK
  5
17192
330
17187
100
AcDbEntity
  8
0
100
AcDbBlockEnd
  0
BLOCK
  5
171B5
330
171AB
100
AcDbEntity
  8
0
100
AcDbBlockBegin
  2
*D64
 70
     1
 10
0.0
 20
0.0
 30
0.0
  3
*D64
  1

  0
LINE
  5
17253
330
171AB
100
AcDbEntity
  8
-TEXT3
370
    -2
100
AcDbLine
 10
-7017.827322818694
 20
-6049.366071212254
 30
0.0
 11
-6972.372493664487
 21
-6049.366071212254
 31
0.0
  0
LINE
  5
17254
330
171AB
100
AcDbEntity
  8
-TEXT3
370
    -2
100
AcDbLine
 10
-7017.827322818694
 20
-5799.366071212254
 30
0.0
 11
-6972.372493664487
 21
-5799.366071212254
 31
0.0
  0
LINE
  5
17255
330
171AB
100
AcDbEntity
  8
-TEXT3
370
    -2
100
AcDbLine
 10
-6973.372493664488
 20
-6041.366071212255
 30
0.0
 11
-6973.372493664488
 21
-5807.366071212254
 31
0.0
  0
SOLID
  5
17256
330
171AB
100
AcDbEntity
  8
-TEXT3
100
AcDbTrace
 10
-6974.705826997821
 20
-6041.366071212255
 30
0.0
 11
-6972.039160331154
 21
-6041.366071212255
 31
0.0
 12
-6973.372493664488
 22
-6049.366071212254
 32
0.0
 13
-6973.372493664488
 23
-6049.366071212254
 33
0.0
  0
SOLID
  5
17257
330
171AB
100
AcDbEntity
  8
-TEXT3
100
AcDbTrace
 10
-6974.705826997821
 20
-5807.366071212254
 30
0.0
 11
-6972.039160331154
 21
-5807.366071212254
 31
0.0
 12
-6973.372493664488
 22
-5799.366071212254
 32
0.0
 13
-6973.372493664488
 23
-5799.366071212254
 33
0.0
  0
MTEXT
  5
17258
330
171AB
100
AcDbEntity
  8
-TEXT3
100
AcDbMText
 10
-6980.457077566261
 20
-5935.382119224239
 30
0.0
 40
8.0
 41
0.0
 71
     5
 72
     1
  1
250
 11
0.0000000000000001
 21
1.0
 31
0.0
 73
     1
 44
1.0
  0
POINT
  5
17259
330
171AB
100
AcDbEntity
  8
Defpoints
 62
     0
100
AcDbPoint
 10
-7020.827322818694
 20
-6049.366071212254
 30
0.0
  0
POINT
  5
1725A
330
171AB
100
AcDbEntity
  8
Defpoints
 62
     0
100
AcDbPoint
 10
-7020.827322818694
 20
-5799.366071212254
 30
0.0
  0
POINT
  5
1725B
330
171AB
100
AcDbEntity
  8
Defpoints
 62
     0
100
AcDbPoint
 10
-6973.372493664488
 20
-5799.366071212254
 30
0.0
  0
ENDBLK
  5
171B6
330
171AB
100
AcDbEntity
  8
0
100
AcDbBlockEnd
  0
BLOCK
  5
1726C
330
17262
100
AcDbEntity
  8
0
100
AcDbBlockBegin
  2
*D65
 70
     1
 10
0.0
 20
0.0
 30
0.0
  3
*D65
  1

  0
LINE
  5
17292
330
17262
100
AcDbEntity
  8
-TEXT3
370
    -2
100
AcDbLine
 10
-7270.827322818693
 20
-6046.366071212253
 30
0.0
 11
-7270.827322818693
 21
-6034.986157641309
 31
0.0
  0
LINE
  5
17293
330
17262
100
AcDbEntity
  8
-TEXT3
370
    -2
100
AcDbLine
 10
-7220.827322818692
 20
-6002.366071212253
 30
0.0
 11
-7220.827322818692
 21
-6036.986157641309
 31
0.0
  0
LINE
  5
17294
330
17262
100
AcDbEntity
  8
-TEXT3
370
    -2
100
AcDbLine
 10
-7262.827322818691
 20
-6035.98615764131
 30
0.0
 11
-7228.827322818692
 21
-6035.98615764131
 31
0.0
  0
SOLID
  5
17295
330
17262
100
AcDbEntity
  8
-TEXT3
100
AcDbTrace
 10
-7262.827322818691
 20
-6034.652824307976
 30
0.0
 11
-7262.827322818691
 21
-6037.319490974642
 31
0.0
 12
-7270.827322818693
 22
-6035.98615764131
 32
0.0
 13
-7270.827322818693
 23
-6035.98615764131
 33
0.0
  0
SOLID
  5
17296
330
17262
100
AcDbEntity
  8
-TEXT3
100
AcDbTrace
 10
-7228.827322818692
 20
-6034.652824307976
 30
0.0
 11
-7228.827322818692
 21
-6037.319490974642
 31
0.0
 12
-7220.827322818692
 22
-6035.98615764131
 32
0.0
 13
-7220.827322818692
 23
-6035.98615764131
 33
0.0
  0
MTEXT
  5
17297
330
17262
100
AcDbEntity
  8
-TEXT3
100
AcDbMText
 10
-7245.827322818691
 20
-6028.901573739536
 30
0.0
 40
8.0
 41
0.0
 71
     5
 72
     1
  1
50
 73
     1
 44
1.0
  0
POINT
  5
17298
330
17262
100
AcDbEntity
  8
Defpoints
 62
     0
100
AcDbPoint
 10
-7270.827322818693
 20
-6049.366071212253
 30
0.0
  0
POINT
  5
17299
330
17262
100
AcDbEntity
  8
Defpoints
 62
     0
100
AcDbPoint
 10
-7220.827322818692
 20
-5999.366071212253
 30
0.0
  0
POINT
  5
1729A
330
17262
100
AcDbEntity
  8
Defpoints
 62
     0
100
AcDbPoint
 10
-7220.827322818692
 20
-6035.98615764131
 30
0.0
  0
ENDBLK
  5
1726D
330
17262
100
AcDbEntity
  8
0
100
AcDbBlockEnd
  0
BLOCK
  5
17278
330
1726E
100
AcDbEntity
  8
0
100
AcDbBlockBegin
  2
*D66
 70
     1
 10
0.0
 20
0.0
 30
0.0
  3
*D66
  1

  0
LINE
  5
1729B
330
1726E
100
AcDbEntity
  8
-TEXT3
370
    -2
100
AcDbLine
 10
-7273.827322818691
 20
-5849.366071212252
 30
0.0
 11
-7317.411031814197
 21
-5849.366071212252
 31
0.0
  0
LINE
  5
1729C
330
1726E
100
AcDbEntity
  8
-TEXT3
370
    -2
100
AcDbLine
 10
-7273.827322818691
 20
-6049.366071212253
 30
0.0
 11
-7317.411031814197
 21
-6049.366071212253
 31
0.0
  0
LINE
  5
1729D
330
1726E
100
AcDbEntity
  8
-TEXT3
370
    -2
100
AcDbLine
 10
-7316.411031814197
 20
-5857.366071212253
 30
0.0
 11
-7316.411031814197
 21
-6041.366071212252
 31
0.0
  0
SOLID
  5
1729E
330
1726E
100
AcDbEntity
  8
-TEXT3
100
AcDbTrace
 10
-7317.74436514753
 20
-5857.366071212253
 30
0.0
 11
-7315.077698480864
 21
-5857.366071212253
 31
0.0
 12
-7316.411031814197
 22
-5849.366071212252
 32
0.0
 13
-7316.411031814197
 23
-5849.366071212252
 33
0.0
  0
SOLID
  5
1729F
330
1726E
100
AcDbEntity
  8
-TEXT3
100
AcDbTrace
 10
-7317.74436514753
 20
-6041.366071212252
 30
0.0
 11
-7315.077698480864
 21
-6041.366071212252
 31
0.0
 12
-7316.411031814197
 22
-6049.366071212253
 32
0.0
 13
-7316.411031814197
 23
-6049.366071212253
 33
0.0
  0
MTEXT
  5
172A0
330
1726E
100
AcDbEntity
  8
-TEXT3
100
AcDbMText
 10
-7323.49561571597
 20
-5949.366071212255
 30
0.0
 40
8.0
 41
0.0
 71
     5
 72
     1
  1
200
 11
0.0000000000000001
 21
1.0
 31
0.0
 73
     1
 44
1.0
  0
POINT
  5
172A1
330
1726E
100
AcDbEntity
  8
Defpoints
 62
     0
100
AcDbPoint
 10
-7270.827322818693
 20
-5849.366071212252
 30
0.0
  0
POINT
  5
172A2
330
1726E
100
AcDbEntity
  8
Defpoints
 62
     0
100
AcDbPoint
 10
-7270.827322818693
 20
-6049.366071212253
 30
0.0
  0
POINT
  5
172A3
330
1726E
100
AcDbEntity
  8
Defpoints
 62
     0
100
AcDbPoint
 10
-7316.411031814197
 20
-6049.366071212253
 30
0.0
  0
ENDBLK
  5
17279
330
1726E
100
AcDbEntity
  8
0
100
AcDbBlockEnd
  0
BLOCK
  5
17284
330
1727A
100
AcDbEntity
  8
0
100
AcDbBlockBegin
  2
*D67
 70
     1
 10
0.0
 20
0.0
 30
0.0
  3
*D67
  1

  0
LINE
  5
172A4
330
1727A
100
AcDbEntity
  8
-TEXT3
370
    -2
100
AcDbLine
 10
-7273.827322818691
 20
-6049.366071212253
 30
0.0
 11
-7294.930359805992
 21
-6049.366071212253
 31
0.0
  0
LINE
  5
172A5
330
1727A
100
AcDbEntity
  8
-TEXT3
370
    -2
100
AcDbLine
 10
-7223.827322818691
 20
-5999.366071212253
 30
0.0
 11
-7294.930359805992
 21
-5999.366071212253
 31
0.0
  0
LINE
  5
172A6
330
1727A
100
AcDbEntity
  8
-TEXT3
370
    -2
100
AcDbLine
 10
-7293.930359805992
 20
-6041.366071212252
 30
0.0
 11
-7293.930359805992
 21
-6007.366071212253
 31
0.0
  0
SOLID
  5
172A7
330
1727A
100
AcDbEntity
  8
-TEXT3
100
AcDbTrace
 10
-7295.263693139325
 20
-6041.366071212252
 30
0.0
 11
-7292.59702647266
 21
-6041.366071212252
 31
0.0
 12
-7293.930359805992
 22
-6049.366071212253
 32
0.0
 13
-7293.930359805992
 23
-6049.366071212253
 33
0.0
  0
SOLID
  5
172A8
330
1727A
100
AcDbEntity
  8
-TEXT3
100
AcDbTrace
 10
-7295.263693139325
 20
-6007.366071212253
 30
0.0
 11
-7292.59702647266
 21
-6007.366071212253
 31
0.0
 12
-7293.930359805992
 22
-5999.366071212253
 32
0.0
 13
-7293.930359805992
 23
-5999.366071212253
 33
0.0
  0
MTEXT
  5
172A9
330
1727A
100
AcDbEntity
  8
-TEXT3
100
AcDbMText
 10
-7301.014943707766
 20
-6024.366071212255
 30
0.0
 40
8.0
 41
0.0
 71
     5
 72
     1
  1
50
 11
0.0000000000000001
 21
1.0
 31
0.0
 73
     1
 44
1.0
  0
POINT
  5
172AA
330
1727A
100
AcDbEntity
  8
Defpoints
 62
     0
100
AcDbPoint
 10
-7270.827322818693
 20
-6049.366071212253
 30
0.0
  0
POINT
  5
172AB
330
1727A
100
AcDbEntity
  8
Defpoints
 62
     0
100
AcDbPoint
 10
-7220.827322818692
 20
-5999.366071212253
 30
0.0
  0
POINT
  5
172AC
330
1727A
100
AcDbEntity
  8
Defpoints
 62
     0
100
AcDbPoint
 10
-7293.930359805992
 20
-5999.366071212253
 30
0.0
  0
ENDBLK
  5
17285
330
1727A
100
AcDbEntity
  8
0
100
AcDbBlockEnd
  0
BLOCK
  5
17290
330
17286
100
AcDbEntity
  8
0
100
AcDbBlockBegin
  2
*D68
 70
     1
 10
0.0
 20
0.0
 30
0.0
  3
*D68
  1

  0
LINE
  5
172AD
330
17286
100
AcDbEntity
  8
-TEXT3
370
    -2
100
AcDbLine
 10
-7020.827322818693
 20
-6052.366071212253
 30
0.0
 11
-7020.827322818693
 21
-6097.82090036646
 31
0.0
  0
LINE
  5
172AE
330
17286
100
AcDbEntity
  8
-TEXT3
370
    -2
100
AcDbLine
 10
-7270.827322818693
 20
-6052.366071212253
 30
0.0
 11
-7270.827322818693
 21
-6097.82090036646
 31
0.0
  0
LINE
  5
172AF
330
17286
100
AcDbEntity
  8
-TEXT3
370
    -2
100
AcDbLine
 10
-7028.827322818692
 20
-6096.820900366459
 30
0.0
 11
-7262.827322818691
 21
-6096.820900366459
 31
0.0
  0
SOLID
  5
172B0
330
17286
100
AcDbEntity
  8
-TEXT3
100
AcDbTrace
 10
-7028.827322818692
 20
-6095.487567033127
 30
0.0
 11
-7028.827322818692
 21
-6098.154233699792
 31
0.0
 12
-7020.827322818693
 22
-6096.820900366459
 32
0.0
 13
-7020.827322818693
 23
-6096.820900366459
 33
0.0
  0
SOLID
  5
172B1
330
17286
100
AcDbEntity
  8
-TEXT3
100
AcDbTrace
 10
-7262.827322818691
 20
-6095.487567033127
 30
0.0
 11
-7262.827322818691
 21
-6098.154233699792
 31
0.0
 12
-7270.827322818693
 22
-6096.820900366459
 32
0.0
 13
-7270.827322818693
 23
-6096.820900366459
 33
0.0
  0
MTEXT
  5
172B2
330
17286
100
AcDbEntity
  8
-TEXT3
100
AcDbMText
 10
-7134.811274806707
 20
-6089.736316464686
 30
0.0
 40
8.0
 41
0.0
 71
     5
 72
     1
  1
250
 73
     1
 44
1.0
  0
POINT
  5
172B3
330
17286
100
AcDbEntity
  8
Defpoints
 62
     0
100
AcDbPoint
 10
-7020.827322818693
 20
-6049.366071212253
 30
0.0
  0
POINT
  5
172B4
330
17286
100
AcDbEntity
  8
Defpoints
 62
     0
100
AcDbPoint
 10
-7270.827322818693
 20
-6049.366071212253
 30
0.0
  0
POINT
  5
172B5
330
17286
100
AcDbEntity
  8
Defpoints
 62
     0
100
AcDbPoint
 10
-7270.827322818693
 20
-6096.820900366459
 30
0.0
  0
ENDBLK
  5
17291
330
17286
100
AcDbEntity
  8
0
100
AcDbBlockEnd
  0
ENDSEC
  0
SECTION
  2
ENTITIES
  0
LWPOLYLINE
  5
17110
330
1F
100
AcDbEntity
  8
-ZEICHNUNGSRAND-INNEN
100
AcDbPolyline
 90
        4
 70
     0
 43
0.0
 10
-7163.226373251953
 20
-5581.248813993498
 10
-7161.62144815895
 20
-5573.570652195151
 42
-0.4474934053984886
 10
-7161.12144790895
 20
-5573.070651945149
 10
-7159.25139227094
 20
-5573.070651945151
  0
LINE
  5
17111
330
1F
100
AcDbEntity
  8
-ZEICHNUNGSRAND-INNEN
100
AcDbLine
 10
-7151.82327180647
 20
-5799.366071212254
 30
0.0
 11
-7151.82327180647
 21
-5918.370122224477
 31
0.0
  0
LINE
  5
17112
330
1F
100
AcDbEntity
  8
-ZEICHNUNGSRAND-INNEN
100
AcDbLine
 10
-7020.827322818694
 20
-6049.366071212254
 30
0.0
 11
-7020.827322818694
 21
-5799.366071212254
 31
0.0
  0
LINE
  5
17113
330
1F
100
AcDbEntity
  8
-ZEICHNUNGSRAND-INNEN
100
AcDbLine
 10
-7020.827322818694
 20
-5799.366071212254
 30
0.0
 11
-7220.827322818694
 21
-5799.366071212254
 31
0.0
  0
LINE
  5
17114
330
1F
100
AcDbEntity
  8
-ZEICHNUNGSRAND-INNEN
100
AcDbLine
 10
-7220.827322818694
 20
-5799.366071212254
 30
0.0
 11
-7220.827322818694
 21
-5849.366071212254
 31
0.0
  0
LINE
  5
17115
330
1F
100
AcDbEntity
  8
-ZEICHNUNGSRAND-INNEN
100
AcDbLine
 10
-7208.718501572405
 20
-5799.366071212254
 30
0.0
 11
-7208.718501572405
 21
-5861.474892458544
 31
0.0
  0
LINE
  5
17116
330
1F
100
AcDbEntity
  8
-ZEICHNUNGSRAND-INNEN
100
AcDbLine
 10
-7166.100744186744
 20
-5799.366071212254
 30
0.0
 11
-7166.100744186744
 21
-5904.092649844203
 31
0.0
  0
CIRCLE
  5
17117
330
1F
100
AcDbEntity
  8
-ZEICHNUNGSRAND-INNEN
100
AcDbCircle
 10
-7070.827322818693
 20
-5849.366071212255
 30
0.0
 40
7.0
  0
LWPOLYLINE
  5
17118
330
1F
100
AcDbEntity
  8
-ZEICHNUNGSRAND-INNEN
100
AcDbPolyline
 90
        4
 70
     1
 43
0.0
 10
-7399.023362539107
 20
-5459.742523194562
 10
-7399.023362539107
 20
-6359.927155656357
 10
-6765.93413667512
 20
-6359.927155656357
 10
-6765.93413667512
 20
-5459.742523194562
  0
LINE
  5
17119
330
1F
100
AcDbEntity
  8
-ZEICHNUNGSRAND-INNEN
100
AcDbLine
 10
-7399.023362539107
 20
-6229.717376229439
 30
0.0
 11
-6765.93413667512
 21
-6229.717376229439
 31
0.0
  0
LINE
  5
1711A
330
1F
100
AcDbEntity
  8
-ZEICHNUNGSRAND-INNEN
100
AcDbLine
 10
-7399.023362539107
 20
-6255.383155656357
 30
0.0
 11
-6765.93413667512
 21
-6255.383155656357
 31
0.0
  0
LWPOLYLINE
  5
1711B
330
1F
100
AcDbEntity
  8
-TEXT
100
AcDbPolyline
 90
        5
 70
     0
 43
0.0
 10
-7399.023362539107
 20
-6359.927155656357
 10
-6765.93413667512
 20
-6359.927155656357
 10
-6765.93413667512
 20
-6118.498998712792
 10
-7399.023362539107
 20
-6118.498998712792
 10
-7399.023362539107
 20
-6359.927155656357
  0
MTEXT
  5
17121
330
1F
100
AcDbEntity
  8
-TEXT3
100
AcDbMText
 10
-7365.656173578108
 20
-6248.206576721646
 30
0.0
 40
7.699733828075522
 41
105.1454263412471
 71
     4
 72
     5
  1
27.03.13  Mall
 73
     1
 44
1.0
1001
ACAD
1000
ACAD_MTEXT_DEFINED_HEIGHT_BEGIN
1070
    46
1040
0.0
1000
ACAD_MTEXT_DEFINED_HEIGHT_END
  0
TEXT
  5
17122
330
1F
100
AcDbEntity
  8
-TEXT3
100
AcDbText
 10
-7365.375525710412
 20
-6239.229755729541
 30
0.0
 40
6.09562261389312
  1
Datum
 41
0.8
  7
LOGOCAD
100
AcDbText
  0
LINE
  5
17123
330
1F
100
AcDbEntity
  8
-TEXT3
100
AcDbLine
 10
-7399.023362539107
 20
-6242.429957601832
 30
0.0
 11
-7256.385793374005
 21
-6242.429957601832
 31
0.0
  0
LINE
  5
17124
330
1F
100
AcDbEntity
  8
-TEXT3
100
AcDbLine
 10
-7367.326124946863
 20
-6229.476759547313
 30
0.0
 11
-7367.326124946863
 21
-6255.383155656357
 31
0.0
  0
TEXT
  5
17125
330
1F
100
AcDbEntity
  8
-TEXT3
100
AcDbText
 10
-7397.072763302659
 20
-6252.182953784062
 30
0.0
 40
6.09562261389312
  1
Bearb.
 41
0.8
  7
LOGOCAD
100
AcDbText
  0
LINE
  5
17126
330
1F
100
AcDbEntity
  8
-TEXT3
100
AcDbLine
 10
-7319.780268558495
 20
-6229.476759547313
 30
0.0
 11
-7319.780268558495
 21
-6255.383155656357
 31
0.0
  0
TEXT
  5
17127
330
1F
100
AcDbEntity
  8
-TEXT3
100
AcDbText
 10
-7317.829669322046
 20
-6239.229755729541
 30
0.0
 40
6.09562261389312
  1
Name
 41
0.8
  7
LOGOCAD
100
AcDbText
  0
LINE
  5
17128
330
1F
100
AcDbEntity
  8
-TEXT
100
AcDbLine
 10
-7256.385793374005
 20
-6255.383155656357
 30
0.0
 11
-7256.385793374005
 21
-6229.717376229439
 31
0.0
  0
LINE
  5
17129
330
1F
100
AcDbEntity
  8
-TEXT2
100
AcDbLine
 10
-7399.023362539107
 20
-6285.795955656358
 30
0.0
 11
-6765.93413667512
 21
-6285.795955656358
 31
0.0
  0
LINE
  5
1712B
330
1F
100
AcDbEntity
  8
-ZEICHNUNGSRAND-INNEN
100
AcDbLine
 10
-7099.783153332523
 20
-6118.498998712792
 30
0.0
 11
-7099.783153332523
 21
-6229.717376229439
 31
0.0
  0
LINE
  5
1712C
330
1F
100
AcDbEntity
  8
-TEXT2
100
AcDbLine
 10
-7082.478749607114
 20
-6255.383155656357
 30
0.0
 11
-7082.478749607114
 21
-6360.148864392368
 31
0.0
  0
LINE
  5
1712D
330
1F
100
AcDbEntity
  8
-TEXT3
100
AcDbLine
 10
-6814.602511906848
 20
-6285.795955656358
 30
0.0
 11
-6814.602511906848
 21
-6360.148864392368
 31
0.0
  0
MTEXT
  5
1712E
330
1F
100
AcDbEntity
  8
-TEXT2
100
AcDbMText
 10
-7046.523446176585
 20
-6243.61809012075
 30
0.0
 40
10.26631177076736
 41
485.9289171155867
 71
     5
 72
     5
  1
Ecke
 73
     1
 44
1.0
1001
ACAD
1000
ACAD_MTEXT_DEFINED_HEIGHT_BEGIN
1070
    46
1040
0.0
1000
ACAD_MTEXT_DEFINED_HEIGHT_END
  0
LINE
  5
1712F
330
1F
100
AcDbEntity
  8
-TEXT2
100
AcDbLine
 10
-7240.751056073111
 20
-6255.383155656357
 30
0.0
 11
-7240.751056073111
 21
-6360.148864392368
 31
0.0
  0
LINE
  5
17130
330
1F
100
AcDbEntity
  8
-TEXT2
100
AcDbLine
 10
-6924.206443141118
 20
-6255.383155656357
 30
0.0
 11
-6924.206443141118
 21
-6360.148864392368
 31
0.0
  0
MTEXT
  5
17131
330
1F
100
AcDbEntity
  8
-TEXT2
100
AcDbMText
 10
-7325.483863503596
 20
-6271.674984866071
 30
0.0
 40
7.983360000000001
 41
485.9289171155867
 71
     5
 72
     5
  1
Bezeichnung
 73
     1
 44
1.0
1001
ACAD
1000
ACAD_MTEXT_DEFINED_HEIGHT_BEGIN
1070
    46
1040
0.0
1000
ACAD_MTEXT_DEFINED_HEIGHT_END
  0
MTEXT
  5
17132
330
1F
100
AcDbEntity
  8
-TEXT2
100
AcDbMText
 10
-7164.687159307603
 20
-6271.674984866071
 30
0.0
 40
7.983360000000001
 41
485.9289171155867
 71
     5
 72
     5
  1
Oberfläche
 73
     1
 44
1.0
1001
ACAD
1000
ACAD_MTEXT_DEFINED_HEIGHT_BEGIN
1070
    46
1040
0.0
1000
ACAD_MTEXT_DEFINED_HEIGHT_END
  0
MTEXT
  5
17133
330
1F
100
AcDbEntity
  8
-TEXT2
100
AcDbMText
 10
-7002.822042397167
 20
-6271.674984866071
 30
0.0
 40
7.983360000000001
 41
485.9289171155867
 71
     5
 72
     5
  1
Art.Nr. / Zeichnungsnr.
 73
     1
 44
1.0
1001
ACAD
1000
ACAD_MTEXT_DEFINED_HEIGHT_BEGIN
1070
    46
1040
0.0
1000
ACAD_MTEXT_DEFINED_HEIGHT_END
  0
LINE
  5
17134
330
1F
100
AcDbEntity
  8
-TEXT2
100
AcDbLine
 10
-6814.602511906848
 20
-6255.383155656357
 30
0.0
 11
-6814.602511906848
 21
-6360.148864392368
 31
0.0
  0
MTEXT
  5
17135
330
1F
100
AcDbEntity
  8
-TEXT2
100
AcDbMText
 10
-6873.757313954595
 20
-6271.674984866071
 30
0.0
 40
7.983360000000001
 41
485.9289171155867
 71
     5
 72
     5
  1
Stück
 73
     1
 44
1.0
1001
ACAD
1000
ACAD_MTEXT_DEFINED_HEIGHT_BEGIN
1070
    46
1040
0.0
1000
ACAD_MTEXT_DEFINED_HEIGHT_END
  0
MTEXT
  5
17136
330
1F
100
AcDbEntity
  8
-TEXT2
100
AcDbMText
 10
-7325.483863503596
 20
-6321.533710162323
 30
0.0
 40
11.4048
 41
485.9289171155867
 71
     5
 72
     5
  1
Innenecke\PTop 1 HD
 73
     1
 44
1.0
1001
ACAD
1000
ACAD_MTEXT_DEFINED_HEIGHT_BEGIN
1070
    46
1040
0.0
1000
ACAD_MTEXT_DEFINED_HEIGHT_END
  0
MTEXT
  5
17137
330
1F
100
AcDbEntity
  8
-TEXT2
100
AcDbMText
 10
-7162.94002852692
 20
-6297.672142201713
 30
0.0
 40
7.983360000000001
 41
485.9289171155867
 71
     5
 72
     5
  1
Natur
 73
     1
 44
1.0
1001
ACAD
1000
ACAD_MTEXT_DEFINED_HEIGHT_BEGIN
1070
    46
1040
0.0
1000
ACAD_MTEXT_DEFINED_HEIGHT_END
  0
LINE
  5
17138
330
1F
100
AcDbEntity
  8
-TEXT2
100
AcDbLine
 10
-7240.751056073111
 20
-6310.506355656358
 30
0.0
 11
-6814.602511906848
 21
-6310.506355656358
 31
0.0
  0
LINE
  5
17139
330
1F
100
AcDbEntity
  8
-TEXT2
100
AcDbLine
 10
-7240.751056073111
 20
-6335.216755656358
 30
0.0
 11
-6814.602511906848
 21
-6335.216755656358
 31
0.0
  0
MTEXT
  5
1713A
330
1F
100
AcDbEntity
  8
-TEXT2
100
AcDbMText
 10
-6790.596204588533
 20
-6271.674984866071
 30
0.0
 40
7.983360000000001
 41
485.9289171155867
 71
     5
 72
     5
  1
Blatt
 73
     1
 44
1.0
1001
ACAD
1000
ACAD_MTEXT_DEFINED_HEIGHT_BEGIN
1070
    46
1040
0.0
1000
ACAD_MTEXT_DEFINED_HEIGHT_END
  0
MTEXT
  5
1713B
330
1F
100
AcDbEntity
  8
-TEXT2
100
AcDbMText
 10
-6788.606128684628
 20
-6324.342424440097
 30
0.0
 40
10.26631177076736
 41
175.339381405225
 71
     5
 72
     5
  1
12
 73
     1
 44
1.0
1001
ACAD
1000
ACAD_MTEXT_DEFINED_HEIGHT_BEGIN
1070
    46
1040
5.53963317940024
1000
ACAD_MTEXT_DEFINED_HEIGHT_END
  0
MTEXT
  5
1713C
330
1F
100
AcDbEntity
  8
-TEXT2
100
AcDbMText
 10
-7162.94002852692
 20
-6347.092942201714
 30
0.0
 40
7.983360000000001
 41
485.9289171155867
 71
     5
 72
     5
  1
Alanox
 73
     1
 44
1.0
1001
ACAD
1000
ACAD_MTEXT_DEFINED_HEIGHT_BEGIN
1070
    46
1040
0.0
1000
ACAD_MTEXT_DEFINED_HEIGHT_END
  0
MTEXT
  5
1713D
330
1F
100
AcDbEntity
  8
-TEXT2
100
AcDbMText
 10
-7162.94002852692
 20
-6322.382542201714
 30
0.0
 40
7.983360000000001
 41
485.9289171155867
 71
     5
 72
     5
  1
E6EV1
 73
     1
 44
1.0
1001
ACAD
1000
ACAD_MTEXT_DEFINED_HEIGHT_BEGIN
1070
    46
1040
0.0
1000
ACAD_MTEXT_DEFINED_HEIGHT_END
  0
MTEXT
  5
17141
330
1F
100
AcDbEntity
  8
-TEXT2
100
AcDbMText
 10
-7368.589011259117
 20
-5480.885093272646
 30
0.0
 40
8.407618560000001
 41
338.9390331611755
 71
     1
 72
     5
  3
{\fArial|b0|i0|c238|p34;\H1.667x;Hinweis:\P\H0.6x;Oberfl\fArial|b0|i0|c0|p34;ä\fArial|b0|i0|c238|p34;chen sind vor Besch\fArial|b0|i0|c0|p34;ä\fArial|b0|i0|c238|p34;digungen\P(z.B. Kratzer) zu sch\fArial|b0|i0|c0|p34;ü\fArial|b0|i0|c238|p34;tzen!\P\H
  1
0.4521x;\P\H2.212x;Alle Kanten 100% entgratet!}
 73
     1
 44
1.0
1001
ACAD
1000
ACAD_MTEXT_DEFINED_HEIGHT_BEGIN
1070
    46
1040
3.561391541609822
1000
ACAD_MTEXT_DEFINED_HEIGHT_END
  0
MTEXT
  5
17142
330
1F
100
AcDbEntity
  8
-TEXT2
100
AcDbMText
 10
-7083.025489594726
 20
-5668.7143621643
 30
0.0
 40
8.0
 41
282.4491943009796
 71
     1
 72
     5
  1
{\fArial|b0|i0|c238|p34;%%C 14}
 73
     1
 44
1.0
1001
ACAD
1000
ACAD_MTEXT_DEFINED_HEIGHT_BEGIN
1070
    46
1040
3.561391541609822
1000
ACAD_MTEXT_DEFINED_HEIGHT_END
  0
MTEXT
  5
17143
330
1F
100
AcDbEntity
  8
-TEXT2
100
AcDbMText
 10
-7179.28586722968
 20
-5552.075180990907
 30
0.0
 40
8.0
 41
282.4491943009796
 71
     1
 72
     5
  1
{\fArial|b0|i0|c238|p34;Rillung}
 73
     1
 44
1.0
1001
ACAD
1000
ACAD_MTEXT_DEFINED_HEIGHT_BEGIN
1070
    46
1040
3.561391541609822
1000
ACAD_MTEXT_DEFINED_HEIGHT_END
  0
LINE
  5
17144
330
1F
100
AcDbEntity
  8
-TEXT3
100
AcDbLine
 10
-7163.173450206556
 20
-5585.868671738065
 30
0.0
 11
-7174.40723952994
 21
-5564.497867636971
 31
0.0
  0
DIMENSION
  5
17146
330
1F
100
AcDbEntity
  8
-TEXT3
100
AcDbDimension
  2
*D61
 10
-7034.207236389637
 20
-5849.366071212255
 30
0.0
 11
-7034.207236389637
 21
-5824.366071212256
 31
0.0
 70
   160
 71
     5
 42
50.0
  3
1-1
100
AcDbAlignedDimension
 13
-7020.827322818694
 23
-5799.366071212254
 33
0.0
 14
-7070.827322818693
 24
-5849.366071212255
 34
0.0
 50
90.0
100
AcDbRotatedDimension
  0
DIMENSION
  5
17147
330
1F
100
AcDbEntity
  8
-TEXT3
100
AcDbDimension
  2
*D62
 10
-7020.827322818694
 20
-5753.782362216749
 30
0.0
 11
-7120.827322818694
 21
-5746.697778314975
 31
0.0
 70
    32
 71
     5
 42
200.0
  3
1-1
100
AcDbAlignedDimension
 13
-7220.827322818694
 23
-5799.366071212254
 33
0.0
 14
-7020.827322818694
 24
-5799.366071212254
 34
0.0
100
AcDbRotatedDimension
  0
DIMENSION
  5
17148
330
1F
100
AcDbEntity
  8
-TEXT3
100
AcDbDimension
  2
*D63
 10
-7070.827322818693
 20
-5776.263034224954
 30
0.0
 11
-7045.827322818694
 21
-5769.17845032318
 31
0.0
 70
    32
 71
     5
 42
50.0
  3
1-1
100
AcDbAlignedDimension
 13
-7020.827322818694
 23
-5799.366071212254
 33
0.0
 14
-7070.827322818693
 24
-5849.366071212255
 34
0.0
100
AcDbRotatedDimension
  0
ARC
  5
17149
330
1F
100
AcDbEntity
  8
-ZEICHNUNGSRAND-INNEN
100
AcDbCircle
 10
-7167.049470508539
 20
-5590.808662368285
 30
0.0
 40
2.997015099132113
100
AcDbArc
 50
294.7783660729281
 51
23.07697853700819
  0
ARC
  5
1714A
330
1F
100
AcDbEntity
  8
-ZEICHNUNGSRAND-INNEN
100
AcDbCircle
 10
-7165.902904691918
 20
-5587.106483402563
 30
0.0
 40
2.997015099132113
100
AcDbArc
 50
302.5074871947717
 51
24.39436258070723
  0
ARC
  5
1714B
330
1F
100
AcDbEntity
  8
-ZEICHNUNGSRAND-INNEN
100
AcDbCircle
 10
-7165.109139202609
 20
-5583.580614130619
 30
0.0
 40
2.997015099132113
100
AcDbArc
 50
310.2311080917053
 51
51.08154466817758
  0
LWPOLYLINE
  5
1714F
330
1F
100
AcDbEntity
  8
-ZEICHNUNGSRAND-INNEN
100
AcDbPolyline
 90
       34
 70
     0
 43
0.0
 10
-7165.793393635296
 20
-5593.529759645659
 10
-7166.100744186744
 20
-5595.000163014087
 42
-0.2045995768989306
 10
-7159.698558528116
 20
-5599.045187782916
 10
-7158.39463998078
 20
-5601.807536624565
 10
-7157.951738973451
 20
-5605.220896850902
 42
-0.0771276986346922
 10
-7157.966125897243
 20
-5605.883504130207
 10
-7158.231802621525
 20
-5608.423457444931
 10
-7163.696153051167
 20
-5657.608516483428
 10
-7166.325413044609
 20
-5676.746868804408
 42
-0.3758788905422538
 10
-7175.246367931652
 20
-5684.556673902988
 10
-7197.406367931652
 20
-5684.556673902988
 42
-0.3758788905422541
 10
-7206.327322818694
 20
-5676.746868804408
 10
-7208.872807297639
 20
-5657.66751283073
 10
-7214.076645124724
 20
-5611.829462846689
 10
-7214.561888116915
 20
-5606.769198529184
 42
-0.0277594903265165
 10
-7214.63673818426
 20
-5605.989888229975
 42
-0.432976119796289
 10
-7209.21491397145
 20
-5599.204291586001
 42
0.3072246202103954
 10
-7208.718501572405
 20
-5598.72995732555
 10
-7210.965457553071
 20
-5573.561266648025
 42
0.4139203013949816
 10
-7211.469803602726
 20
-5573.069459707397
 10
-7220.375251994522
 20
-5573.076536693777
 42
0.4533883609382827
 10
-7220.827322818694
 20
-5573.568780620043
 10
-7220.827322818694
 20
-5698.056673902987
 42
0.4530244162747242
 10
-7220.327322818694
 20
-5698.556673902988
 10
-7020.827322818694
 20
-5698.556673902988
 10
-7020.827322818694
 20
-5686.556673902988
 10
-7139.825413044609
 20
-5686.556673902988
 42
-0.4166755917761515
 10
-7151.823271806472
 20
-5674.556673902987
 10
-7151.82327180647
 20
-5573.577546816925
 42
0.4045211461493509
 10
-7152.320789917879
 20
-5573.075077187173
 10
-7159.943422891746
 20
-5573.075077187173
 10
-7161.12144815895
 20
-5573.07065219515
 42
0.4474934053989843
 10
-7161.62144815895
 20
-5573.570652195151
 10
-7163.226373251953
 20
-5581.248813993497
  0
LINE
  5
17150
330
1F
100
AcDbEntity
  8
-SYSTEM
100
AcDbLine
 10
-7070.327322818695
 20
-5703.739363200059
 30
275.000137499999
 11
-7070.327322818695
 21
-5681.373984605904
 31
275.000137499999
  0
LINE
  5
17151
330
1F
100
AcDbEntity
  8
-NORMTEIL_VERDECKT
  6
STRICHLINIEX2
 62
     9
100
AcDbLine
 10
-7063.327322818693
 20
-5698.556673902988
 30
0.0
 11
-7063.327322818693
 21
-5686.556673902988
 31
0.0
  0
LINE
  5
17152
330
1F
100
AcDbEntity
  8
-NORMTEIL_VERDECKT
  6
STRICHLINIEX2
 62
     9
100
AcDbLine
 10
-7077.327322818693
 20
-5698.556673902988
 30
0.0
 11
-7077.327322818693
 21
-5686.556673902988
 31
0.0
  0
LINE
  5
17153
330
1F
100
AcDbEntity
  8
-TEXT3
100
AcDbLine
 10
-7161.500744186743
 20
-5799.366071212254
 30
0.0
 11
-7161.500744186743
 21
-5908.692649844204
 31
0.0
  0
LINE
  5
17154
330
1F
100
AcDbEntity
  8
-TEXT3
100
AcDbLine
 10
-7156.900744186744
 20
-5799.366071212254
 30
0.0
 11
-7156.900744186744
 21
-5913.292649844204
 31
0.0
  0
DIMENSION
  5
1715E
330
1F
100
AcDbEntity
  8
-TEXT3
100
AcDbDimension
  2
*D64
 10
-6973.372493664488
 20
-5799.366071212254
 30
0.0
 11
-6973.372493664486
 21
-5935.382119224239
 31
0.0
 70
   160
 71
     5
 42
250.0
  3
1-1
100
AcDbAlignedDimension
 13
-7020.827322818694
 23
-6049.366071212254
 33
0.0
 14
-7020.827322818694
 24
-5799.366071212254
 34
0.0
 50
90.0
100
AcDbRotatedDimension
  0
LINE
  5
17160
330
1F
100
AcDbEntity
  8
-ZEICHNUNGSRAND-INNEN
100
AcDbLine
 10
-7270.827322818693
 20
-6049.366071212254
 30
0.0
 11
-7020.827322818694
 21
-6049.366071212254
 31
0.0
  0
LINE
  5
17232
330
1F
100
AcDbEntity
  8
-ZEICHNUNGSRAND-INNEN
100
AcDbLine
 10
-7020.827322818694
 20
-6049.366071212254
 30
0.0
 11
-7220.827322818694
 21
-5849.366071212254
 31
0.0
  0
LINE
  5
1723A
330
1F
100
AcDbEntity
  8
-ZEICHNUNGSRAND-INNEN
100
AcDbLine
 10
-7270.827322818693
 20
-5918.370122224477
 30
0.0
 11
-7151.82327180647
 21
-5918.370122224477
 31
0.0
  0
LINE
  5
1723B
330
1F
100
AcDbEntity
  8
-ZEICHNUNGSRAND-INNEN
100
AcDbLine
 10
-7270.827322818693
 20
-5861.474892458542
 30
0.0
 11
-7208.718501572403
 21
-5861.474892458542
 31
0.0
  0
LINE
  5
1723C
330
1F
100
AcDbEntity
  8
-ZEICHNUNGSRAND-INNEN
100
AcDbLine
 10
-7270.827322818693
 20
-5904.092649844203
 30
0.0
 11
-7166.100744186744
 21
-5904.092649844203
 31
0.0
  0
LINE
  5
1723D
330
1F
100
AcDbEntity
  8
-TEXT3
100
AcDbLine
 10
-7270.827322818693
 20
-5908.692649844204
 30
0.0
 11
-7161.500744186743
 21
-5908.692649844204
 31
0.0
  0
LINE
  5
1723E
330
1F
100
AcDbEntity
  8
-TEXT3
100
AcDbLine
 10
-7270.827322818693
 20
-5913.292649844204
 30
0.0
 11
-7156.900744186744
 21
-5913.292649844203
 31
0.0
  0
LINE
  5
1723F
330
1F
100
AcDbEntity
  8
-ZEICHNUNGSRAND-INNEN
100
AcDbLine
 10
-7270.827322818693
 20
-5849.366071212259
 30
0.0
 11
-7220.827322818694
 21
-5849.366071212254
 31
0.0
  0
LINE
  5
17252
330
1F
100
AcDbEntity
  8
-ZEICHNUNGSRAND-INNEN
100
AcDbLine
 10
-7270.827322818693
 20
-5849.366071212259
 30
0.0
 11
-7270.827322818693
 21
-6049.366071212254
 31
0.0
  0
LINE
  5
1725C
330
1F
100
AcDbEntity
  8
-ZEICHNUNGSRAND-INNEN
100
AcDbLine
 10
-7020.827322818693
 20
-6049.366071212253
 30
0.0
 11
-7270.827322818693
 21
-6049.366071212253
 31
0.0
  0
CIRCLE
  5
1725D
330
1F
100
AcDbEntity
  8
-ZEICHNUNGSRAND-INNEN
100
AcDbCircle
 10
-7220.827322818692
 20
-5999.366071212253
 30
0.0
 40
7.0
  0
DIMENSION
  5
1725E
330
1F
100
AcDbEntity
  8
-TEXT3
100
AcDbDimension
  2
*D65
 10
-7220.827322818692
 20
-6035.98615764131
 30
0.0
 11
-7245.827322818691
 21
-6035.98615764131
 31
0.0
 70
   160
 71
     5
 42
50.0
  3
1-1
100
AcDbAlignedDimension
 13
-7270.827322818693
 23
-6049.366071212253
 33
0.0
 14
-7220.827322818692
 24
-5999.366071212253
 34
0.0
 50
180.0
100
AcDbRotatedDimension
  0
DIMENSION
  5
1725F
330
1F
100
AcDbEntity
  8
-TEXT3
100
AcDbDimension
  2
*D66
 10
-7316.411031814197
 20
-6049.366071212253
 30
0.0
 11
-7323.49561571597
 21
-5949.366071212255
 31
0.0
 70
    32
 71
     5
 42
200.0
  3
1-1
100
AcDbAlignedDimension
 13
-7270.827322818693
 23
-5849.366071212252
 33
0.0
 14
-7270.827322818693
 24
-6049.366071212253
 34
0.0
 50
270.0
100
AcDbRotatedDimension
  0
DIMENSION
  5
17260
330
1F
100
AcDbEntity
  8
-TEXT3
100
AcDbDimension
  2
*D67
 10
-7293.930359805992
 20
-5999.366071212253
 30
0.0
 11
-7301.014943707766
 21
-6024.366071212255
 31
0.0
 70
    32
 71
     5
 42
50.0
  3
1-1
100
AcDbAlignedDimension
 13
-7270.827322818693
 23
-6049.366071212253
 33
0.0
 14
-7220.827322818692
 24
-5999.366071212253
 34
0.0
 50
270.0
100
AcDbRotatedDimension
  0
DIMENSION
  5
17261
330
1F
100
AcDbEntity
  8
-TEXT3
100
AcDbDimension
  2
*D68
 10
-7270.827322818693
 20
-6096.820900366459
 30
0.0
 11
-7134.811274806707
 21
-6096.820900366459
 31
0.0
 70
   160
 71
     5
 42
250.0
  3
1-1
100
AcDbAlignedDimension
 13
-7020.827322818693
 23
-6049.366071212253
 33
0.0
 14
-7270.827322818693
 24
-6049.366071212253
 34
0.0
 50
180.0
100
AcDbRotatedDimension
  0
MTEXT
  5
173B3
330
1F
100
AcDbEntity
  8
-TEXT2
100
AcDbMText
 10
-7173.340488037735
 20
-5939.585162852223
 30
0.0
 40
8.0
 41
282.4491943009796
 71
     1
 72
     5
  1
{\fArial|b0|i0|c238|p34;Rillung}
 73
     1
 44
1.0
1001
ACAD
1000
ACAD_MTEXT_DEFINED_HEIGHT_BEGIN
1070
    46
1040
3.561391541609822
1000
ACAD_MTEXT_DEFINED_HEIGHT_END
  0
LINE
  5
173B4
330
1F
100
AcDbEntity
  8
-TEXT3
100
AcDbLine
 10
-7169.00648876227
 20
-5936.664113734258
 30
0.0
 11
-7180.240278085651
 21
-5915.293309633164
 31
0.0
  0
LINE
  5
17C03
330
1F
100
AcDbEntity
  8
GRUNDPROFIL
  6
DASHDOT2
100
AcDbLine
 10
-7370.530886422523
 20
-5584.228431979594
 30
0.0
 11
-7325.768592032336
 21
-5584.228431979594
 31
0.0
  0
MTEXT
  5
17C04
330
1F
100
AcDbEntity
  8
-TEXT2
100
AcDbMText
 10
-7316.013813347774
 20
-5577.660318550315
 30
0.0
 40
8.407618560000001
 41
338.9390331611755
 71
     1
 72
     5
  1
{\fArial|b0|i0|c238|p34;Sichtseiten}
 73
     1
 44
1.0
1001
ACAD
1000
ACAD_MTEXT_DEFINED_HEIGHT_BEGIN
1070
    46
1040
3.561391541609822
1000
ACAD_MTEXT_DEFINED_HEIGHT_END
  0
LWPOLYLINE
  5
17C05
330
1F
100
AcDbEntity
  8
GRUNDPROFIL
  6
DASHDOT2
100
AcDbPolyline
 90
        6
 70
     0
 43
0.0
 10
-7210.965457553071
 20
-5571.119625311605
 42
0.0517070370855743
 10
-7211.478365193658
 20
-5571.06946587961
 10
-7220.36236461933
 20
-5571.076525820915
 42
0.4306379009160397
 10
-7222.827322818694
 20
-5573.633624153935
 10
-7222.827322818694
 20
-5698.016977306772
 42
0.0549651964301374
 10
-7222.783339370066
 20
-5698.556673902988
  0
LWPOLYLINE
  5
17C06
330
1F
100
AcDbEntity
  8
GRUNDPROFIL
  6
DASHDOT2
100
AcDbPolyline
 90
        9
 70
     0
 43
0.0
 10
-7018.827322818694
 20
-5698.556673902988
 10
-7018.827322818694
 20
-5684.556673902988
 10
-7139.829711197506
 20
-5684.556673902988
 42
-0.4169119620232337
 10
-7149.823271806472
 20
-5674.561158675587
 10
-7149.82327180647
 20
-5573.570312527152
 42
0.4098415575348436
 10
-7152.307406567908
 20
-5571.075077187174
 10
-7159.939666625525
 20
-5571.075077187174
 10
-7161.082037411532
 20
-5571.070786123343
 42
0.0548572930941093
 10
-7161.62144815895
 20
-5571.115616929579
 42
0.0548572930941093
  0
MTEXT
  5
189BA
330
1F
100
AcDbEntity
  8
-TEXT2
100
AcDbMText
 10
-7002.967851179555
 20
-6297.672142201713
 30
0.0
 40
7.983360000000001
 41
485.9289171155867
 71
     5
 72
     5
  1
BA-2-T1-HD-I-NA
 73
     1
 44
1.0
1001
ACAD
1000
ACAD_MTEXT_DEFINED_HEIGHT_BEGIN
1070
    46
1040
0.0
1000
ACAD_MTEXT_DEFINED_HEIGHT_END
  0
MTEXT
  5
189BB
330
1F
100
AcDbEntity
  8
-TEXT2
100
AcDbMText
 10
-7002.967851179555
 20
-6322.382542201714
 30
0.0
 40
7.983360000000001
 41
485.9289171155867
 71
     5
 72
     5
  1
BA-2-T1-HD-I-EE
 73
     1
 44
1.0
1001
ACAD
1000
ACAD_MTEXT_DEFINED_HEIGHT_BEGIN
1070
    46
1040
0.0
1000
ACAD_MTEXT_DEFINED_HEIGHT_END
  0
MTEXT
  5
189BC
330
1F
100
AcDbEntity
  8
-TEXT2
100
AcDbMText
 10
-7002.967851179555
 20
-6347.092942201714
 30
0.0
 40
7.983360000000001
 41
485.9289171155867
 71
     5
 72
     5
  1
BA-2-T1-HD-I-EO
 73
     1
 44
1.0
1001
ACAD
1000
ACAD_MTEXT_DEFINED_HEIGHT_BEGIN
1070
    46
1040
0.0
1000
ACAD_MTEXT_DEFINED_HEIGHT_END
  0
MTEXT
  5
19E63
330
1F
100
AcDbEntity
  8
-TEXT2
100
AcDbMText
 10
-7030.186711915884
 20
-6122.138375220043
 30
0.0
 40
18.95081318335911
 41
357.1517629568815
 71
     1
 72
     5
  1
{\fCentury Gothic|b0|i0|c0|p34;\P\fArial|b0|i0|c0|p34;\H0.625x;Industriestraße 7-8\P74740 Adelsheim\P\H0.8x;\C2;Tel.: 06291-6259-0\PFax: 06291-6259-11}
 73
     1
 44
1.0
1001
ACAD
1000
ACAD_MTEXT_DEFINED_HEIGHT_BEGIN
1070
    46
1040
0.0
1000
ACAD_MTEXT_DEFINED_HEIGHT_END
  0
IMAGE
  5
19E64
330
1F
100
AcDbEntity
  8
-TEXT3
 92
      140
310
8C00000001000000840000000600000005000000B406FE15A77EBBC0D9D523F21A0AB8C00000000000000000B406FE15A77EBBC0410B0B1A3BE7B7C000000000000000001995C3AB55D9BAC0410B0B1A3BE7B7C000000000000000001995C3AB55D9BAC0D9D523F21A0AB8C00000000000000000B406FE15A77EBBC0D9D523
310
F21A0AB8C00000000000000000
100
AcDbRasterImage
 90
        0
 10
-7038.652679325711
 20
-6154.105257262906
 30
0.0
 11
0.3353306839049921
 21
0.0
 31
0.0
 12
0.0
 22
0.3353306839049921
 32
0.0
 13
493.0
 23
104.0
340
19E21
 70
     7
280
     0
281
    50
282
    50
283
     0
360
19E65
 71
     1
 91
        2
 14
-0.5
 24
-0.5
 14
492.4999999999999
 24
103.5
  0
MTEXT
  5
19E66
330
1F
100
AcDbEntity
  8
-TEXT2
100
AcDbMText
 10
-7394.680856639689
 20
-6173.999730164673
 30
0.0
 40
10.3096110812118
 41
331.7708423619573
 71
     4
 72
     5
  1
Alle Rechte vorbehalten, einschließlich des\PVervielfälltigens, Einlesens auf elektronischen\PDatenträgern und die Weitergabe an dritte\PPersonen nur nach ausdrücklicher\PGenehmigung der Firma Glassline GmbH
 73
     1
 44
1.0
1001
ACAD
1000
ACAD_MTEXT_DEFINED_HEIGHT_BEGIN
1070
    46
1040
0.0
1000
ACAD_MTEXT_DEFINED_HEIGHT_END
  0
ENDSEC
  0
SECTION
  2
OBJECTS
  0
DICTIONARY
  5
C
330
0
100
AcDbDictionary
281
     1
  3
ACAD_COLOR
350
480
  3
ACAD_GROUP
350
D
  3
ACAD_IMAGE_DICT
350
19E20
  3
ACAD_IMAGE_VARS
350
19E23
  3
ACAD_LAYOUT
350
1A
  3
ACAD_MATERIAL
350
467
  3
ACAD_MLEADERSTYLE
350
462
  3
ACAD_MLINESTYLE
350
17
  3
ACAD_PLOTSETTINGS
350
19
  3
ACAD_PLOTSTYLENAME
350
E
  3
ACAD_SCALELIST
350
3B
  3
ACAD_TABLESTYLE
350
481
  3
ACAD_VISUALSTYLE
350
2A
  3
ACDB_RECOMPOSE_DATA
350
525
  3
AcDbVariableDictionary
350
460
  3
AEC_CLASSIFICATION_SYSTEM_DEFS
350
24F0
  3
AEC_PROPERTY_SET_DEFS
350
893
  3
ASE_INDEX_DICTIONARY
350
114E4
  3
Ks_BoltRefDictionary
350
4A1
  3
Ks_HoleDisplayRefDictionary
350
4EB
  3
Ks_KoteFlagRefDictionary
350
4D8
  3
Ks_PartFamilyDictionary
350
890
  3
Ks_PosFlagRefDictionary
350
4DB
  3
Ks_ShapeRefDictionary
350
4EF
  3
Ks_WeldRefDictionary
350
4C8
  3
Ks_XRecordDictionary
350
4EC
  3
PsLizControl
350
488
  0
DICTIONARY
  5
526
330
8
100
AcDbDictionary
280
     1
281
     1
  3
ACAD_XREC_ROUNDTRIP
360
2286
  0
DICTIONARY
  5
7C6
330
2
100
AcDbDictionary
280
     1
281
     1
  3
ACAD_LAYERSTATES
360
7C7
  0
DICTIONARY
  5
4F0
330
10
100
AcDbDictionary
280
     1
281
     1
  3
ADSK_XREC_LAYER_RECONCILED
360
4F1
  0
DICTIONARY
  5
6407
330
6406
100
AcDbDictionary
280
     1
281
     1
  3
ACAD_XREC_ROUNDTRIP
360
6408
  0
DICTIONARY
  5
1324
330
1F
100
AcDbDictionary
280
     1
281
     1
  3
ACAD_SORTENTS
360
137B
  0
IMAGEDEF_REACTOR
  5
19E65
330
19E64
100
AcDbRasterImageDefReactor
 90
        2
330
19E64
  0
DICTIONARY
  5
480
102
{ACAD_REACTORS
330
C
102
}
330
C
100
AcDbDictionary
281
     1
  0
DICTIONARY
  5
D
102
{ACAD_REACTORS
330
C
102
}
330
C
100
AcDbDictionary
281
     1
  0
DICTIONARY
  5
19E20
102
{ACAD_REACTORS
330
C
102
}
330
C
100
AcDbDictionary
281
     1
  3
Glassline_Logo_RGB_72dpi
350
19E21
  0
RASTERVARIABLES
  5
19E23
102
{ACAD_REACTORS
330
C
102
}
330
C
100
AcDbRasterVariables
 90
        0
 70
     0
 71
     1
 72
     1
  0
DICTIONARY
  5
1A
102
{ACAD_REACTORS
330
C
102
}
330
C
100
AcDbDictionary
281
     1
  3
Layout1
350
1E
  3
Model
350
22
  0
DICTIONARY
  5
467
102
{ACAD_REACTORS
330
C
102
}
330
C
100
AcDbDictionary
281
     1
  3
ByBlock
350
470
  3
ByLayer
350
468
  3
Global
350
478
  0
DICTIONARY
  5
462
102
{ACAD_REACTORS
330
C
102
}
330
C
100
AcDbDictionary
281
     1
  3
Standard
350
483
  0
DICTIONARY
  5
17
102
{ACAD_REACTORS
330
C
102
}
330
C
100
AcDbDictionary
281
     1
  3
Standard
350
18
  0
DICTIONARY
  5
19
102
{ACAD_REACTORS
330
C
102
}
330
C
100
AcDbDictionary
281
     1
  0
ACDBDICTIONARYWDFLT
  5
E
102
{ACAD_REACTORS
330
C
102
}
330
C
100
AcDbDictionary
281
     1
  3
Normal
350
F
100
AcDbDictionaryWithDefault
340
F
  0
DICTIONARY
  5
3B
102
{ACAD_REACTORS
330
C
102
}
330
C
100
AcDbDictionary
281
     1
  3
A0
350
3C
  3
A1
350
3D
  3
A2
350
3E
  3
A3
350
3F
  3
A4
350
40
  3
A5
350
41
  3
A6
350
42
  3
A7
350
43
  3
A8
350
44
  3
A9
350
45
  3
B0
350
46
  3
B1
350
47
  3
B2
350
48
  3
B3
350
49
  3
B4
350
4A
  3
B5
350
4B
  3
B6
350
4C
  3
B7
350
4D
  3
B8
350
4E
  3
B9
350
4F
  3
C0
350
50
  3
C1
350
51
  3
C2
350
52
  3
C3
350
53
  3
C4
350
54
  3
C5
350
55
  3
C6
350
56
  3
C7
350
57
  3
C8
350
58
  3
C9
350
59
  3
D0
350
5A
  3
D1
350
5B
  3
D2
350
5C
  0
DICTIONARY
  5
481
102
{ACAD_REACTORS
330
C
102
}
330
C
100
AcDbDictionary
281
     1
  3
Standard
350
482
  0
DICTIONARY
  5
2A
102
{ACAD_REACTORS
330
C
102
}
330
C
100
AcDbDictionary
281
     1
  3
2dWireframe
350
2F
  3
3D Hidden
350
31
  3
3dWireframe
350
30
  3
Basic
350
32
  3
Brighten
350
36
  3
ColorChange
350
3A
  3
Conceptual
350
34
  3
Dim
350
35
  3
Facepattern
350
39
  3
Flat
350
2B
  3
FlatWithEdges
350
2C
  3
Gouraud
350
2D
  3
GouraudWithEdges
350
2E
  3
Linepattern
350
38
  3
Realistic
350
33
  3
Thicken
350
37
  0
XRECORD
  5
525
102
{ACAD_REACTORS
330
C
102
}
330
C
100
AcDbXrecord
280
     1
 90
        1
330
482
  0
DICTIONARY
  5
460
102
{ACAD_REACTORS
330
C
102
}
330
C
100
AcDbDictionary
281
     1
  3
CANNOSCALE
350
465
  3
CMLEADERSTYLE
350
52D
  3
CTABLESTYLE
350
52C
  3
LAYEREVAL
350
224A
  3
LAYERNOTIFY
350
224B
  3
LIGHTINGUNITS
350
2249
  3
MSLTSCALE
350
2248
  3
PSOLHEIGHT
350
228C
  3
PSOLWIDTH
350
228B
  0
DICTIONARY
  5
24F0
102
{ACAD_REACTORS
330
C
102
}
330
C
100
AcDbDictionary
281
     1
  0
DICTIONARY
  5
893
102
{ACAD_REACTORS
330
C
102
}
330
C
100
AcDbDictionary
281
     1
  0
DICTIONARY
  5
114E4
102
{ACAD_REACTORS
330
C
102
}
330
C
100
AcDbDictionary
281
     1
  3
ASEBlockHierarchyIndexRecord
350
114E5
1001
DCO15
1040
1746859877.692
  0
DICTIONARY
  5
4A1
102
{ACAD_REACTORS
330
C
102
}
330
C
100
AcDbDictionary
280
     1
281
     1
  3
4.6S
360
4AF
  3
4.6S-GALV
360
4B0
  3
8.8S
360
4B1
  3
8.8S-GALV
360
4B7
  3
8.8TB
360
4B2
  3
8.8TB-GALV
360
4B3
  3
8.8TF
360
4B4
  3
8.8TF-GALV
360
4B5
  3
A307 FIELD
360
4B8
  3
A307 SHOP
360
4B9
  3
A325 FIELD
360
4BA
  3
A325 SHOP
360
4BB
  3
A490 FIELD
360
4BC
  3
A490 SHOP
360
4BD
  3
CN_B
360
4BE
  3
CN_C
360
4BF
  3
CN_GQ8.8
360
4C1
  3
DIN558
360
4AB
  3
DIN601
360
4AC
  3
DIN6914
360
4A3
  3
DIN7968
360
4A7
  3
DIN7969
360
4A8
  3
DIN7984
360
4AA
  3
DIN7990
360
4A2
  3
DIN7991
360
4A6
  3
DIN7999
360
4A9
  3
DIN912
360
4AD
  3
DIN931
360
4A4
  3
DIN933
360
4A5
  3
DIN965
360
4AE
  3
Gewindestange
360
4B6
  0
DICTIONARY
  5
4EB
102
{ACAD_REACTORS
330
C
102
}
330
C
100
AcDbDictionary
280
     1
281
     1
  0
DICTIONARY
  5
4D8
102
{ACAD_REACTORS
330
C
102
}
330
C
100
AcDbDictionary
280
     1
281
     1
  3
Dreiecke
360
4DA
  3
Standard
360
4D9
  0
DICTIONARY
  5
890
102
{ACAD_REACTORS
330
C
102
}
330
C
100
AcDbDictionary
280
     1
281
     1
  0
DICTIONARY
  5
4DB
102
{ACAD_REACTORS
330
C
102
}
330
C
100
AcDbDictionary
280
     1
281
     1
  3
Assembly
360
4E9
  3
Baugruppe
360
4EA
  3
Baugruppenhauptteil
360
4DD
  3
Baugruppennebenteil
360
4E0
  3
Baugruppenteil
360
4E5
  3
BG-Übersicht
360
4E6
  3
Einzelteil
360
4E7
  3
Einzelteile
360
4DC
  3
Kurzposition
360
4E1
  3
Montage
360
4E3
  3
Polyplatten
360
4DF
  3
Schraube
360
4E2
  3
Sonderprofile
360
4DE
  3
Standard
360
4E4
  3
SubGruppe
360
4E8
  0
DICTIONARY
  5
4EF
102
{ACAD_REACTORS
330
C
102
}
330
C
100
AcDbDictionary
280
     1
281
     1
  0
DICTIONARY
  5
4C8
102
{ACAD_REACTORS
330
C
102
}
330
C
100
AcDbDictionary
280
     1
281
     1
  3
HU-Naht
360
1AD4
  3
HV-Naht
360
4CB
  3
HY-Naht
360
4CC
  3
I-Naht
360
4CD
  3
K-Naht
360
1AD5
  3
Kehl 3mm
360
4CE
  3
Kehl 4mm
360
4CF
  3
Kehl 5mm
360
4D0
  3
Kehl-Naht
360
1AD6
  3
Kehlnaht
360
4C9
  3
Linien-Naht
360
4D1
  3
Loch-Naht
360
4D2
  3
Punkt-Naht
360
4D3
  3
Standard
360
4D4
  3
U- Naht
360
4D5
  3
V-Naht
360
4CA
  3
X-Naht
360
4D6
  3
Y-Naht
360
4D7
  0
DICTIONARY
  5
4EC
102
{ACAD_REACTORS
330
C
102
}
330
C
100
AcDbDictionary
281
     1
  3
KS_MEASUREMENT
350
4ED
  3
PsAreaDictionary_17
350
891
  3
PsHideDictionary_17
350
892
  3
PsSCreenSettings
350
522
  0
DICTIONARY
  5
488
102
{ACAD_REACTORS
330
C
102
}
330
C
100
AcDbDictionary
281
     1
  3
0
350
489
  0
XRECORD
  5
2286
102
{ACAD_REACTORS
330
526
102
}
330
526
100
AcDbXrecord
280
     1
102
VTR_0.000_0.000_1.000_1.000_VISUALSTYLE
340
2F
102
VTR_0.000_0.000_1.000_1.000_GRIDDISPLAY
 70
     3
102
VTR_0.000_0.000_1.000_1.000_GRIDMAJOR
 70
     5
102
VTR_0.000_0.000_1.000_1.000_DEFAULTLIGHTING
280
     1
102
VTR_0.000_0.000_1.000_1.000_DEFAULTLIGHTINGTYPE
 70
     1
102
VTR_0.000_0.000_1.000_1.000_BRIGHTNESS
141
0.0
102
VTR_0.000_0.000_1.000_1.000_CONTRAST
142
0.0
  0
DICTIONARY
  5
7C7
102
{ACAD_REACTORS
330
7C6
102
}
330
7C6
100
AcDbDictionary
281
     1
  0
XRECORD
  5
4F1
102
{ACAD_REACTORS
330
4F0
102
}
330
4F0
100
AcDbXrecord
280
     1
290
     1
  0
XRECORD
  5
6408
102
{ACAD_REACTORS
330
6407
102
}
330
6407
100
AcDbXrecord
280
     1
102
MATERIAL
340
478
  0
SORTENTSTABLE
  5
137B
102
{ACAD_REACTORS
330
1324
102
}
330
1324
100
AcDbSortentsTable
330
1F
331
1723A
  5
174B9
331
1723B
  5
174BB
331
1723C
  5
174BC
331
1723D
  5
17522
331
1723E
  5
17523
331
1723F
  5
17524
331
17C03
  5
17C10
331
17C04
  5
17C11
331
17C05
  5
17C12
331
17C06
  5
17C13
331
17110
  5
1725E
331
17111
  5
1725F
331
17130
  5
172D9
331
17150
  5
173C2
331
17112
  5
17260
331
17131
  5
172DA
331
17151
  5
173C3
331
17113
  5
17261
331
17132
  5
172DB
331
17152
  5
173C6
331
17114
  5
172B6
331
17133
  5
172DC
331
17134
  5
172DD
331
17115
  5
172B7
331
17153
  5
173C7
331
17135
  5
172DE
331
17116
  5
172BF
331
17154
  5
173C9
331
17136
  5
172DF
331
17117
  5
172C0
331
17137
  5
172E0
331
17118
  5
172C1
331
17138
  5
172E1
331
17119
  5
172C2
331
1711A
  5
172C3
331
17139
  5
172E2
331
1711B
  5
172C4
331
1713A
  5
172E3
331
1713B
  5
172E4
331
1713C
  5
172E5
331
1713D
  5
172E6
331
17252
  5
17525
331
1715E
  5
174B6
331
17121
  5
172CA
331
17160
  5
174B7
331
17141
  5
172EB
331
17122
  5
172CB
331
17123
  5
172CC
331
17142
  5
172F0
331
17124
  5
172CD
331
17143
  5
172F1
331
17125
  5
172CE
331
17144
  5
172F2
331
17126
  5
172CF
331
17146
  5
173B3
331
17127
  5
172D0
331
17147
  5
173B4
331
17128
  5
172D1
331
17148
  5
173B5
331
17129
  5
172D2
331
1725C
  5
17526
331
17149
  5
173B8
331
1725D
  5
17527
331
1714A
  5
173BF
331
1712B
  5
172D4
331
1725E
  5
17528
331
1714B
  5
173C0
331
1712C
  5
172D5
331
1725F
  5
17529
331
1712D
  5
172D6
331
173B3
  5
175B0
331
17260
  5
1752A
331
1712E
  5
172D7
331
173B4
  5
175B1
331
17261
  5
1752B
331
17232
  5
174B8
331
1712F
  5
172D8
331
1714F
  5
173C1
  0
IMAGEDEF
  5
19E21
102
{ACAD_REACTORS
330
19E20
330
19E38
330
19E3D
330
19E41
330
19E45
330
19E49
330
19E4D
330
19E51
330
19E55
330
19E59
330
19E5D
330
19E61
330
19E65
330
19E69
330
19E6D
330
19E71
330
19E75
102
}
330
19E20
100
AcDbRasterImageDef
 90
        0
  1
T:\Marketing\Öffentlich\Logo\Glassline_Logo_RGB_72dpi.jpg
 10
493.0
 20
104.0
 11
0.3527777777777778
 21
0.3527777777777778
280
     1
281
     5
  0
LAYOUT
  5
1E
102
{ACAD_REACTORS
330
1A
102
}
330
1A
100
AcDbPlotSettings
  1

  2
none_device
  4

  6

 40
0.0
 41
0.0
 42
0.0
 43
0.0
 44
0.0
 45
0.0
 46
0.0
 47
0.0
 48
0.0
 49
0.0
140
0.0
141
0.0
142
1.0
143
1.0
 70
   688
 72
     0
 73
     0
 74
     5
  7
brüstung.ctb
 75
    16
147
1.0
 76
     0
 77
     2
 78
   300
148
0.0
149
0.0
100
AcDbLayout
  1
Layout1
 70
     1
 71
     1
 10
0.0
 20
0.0
 11
420.0
 21
297.0
 12
0.0
 22
0.0
 32
0.0
 14
0.0
 24
0.0
 34
0.0
 15
420.0
 25
297.0
 35
0.0
146
0.0
 13
0.0
 23
0.0
 33
0.0
 16
1.0
 26
0.0
 36
0.0
 17
0.0
 27
1.0
 37
0.0
 76
     0
330
1B
  0
LAYOUT
  5
22
102
{ACAD_REACTORS
330
1A
102
}
330
1A
100
AcDbPlotSettings
  1

  2
Adobe PDF
  4
A4
  6

 40
3.174999952316284
 41
3.174999952316284
 42
3.175003051757812
 43
3.17498779296875
 44
209.9098358154297
 45
297.0318298339844
 46
0.0
 47
0.910373002006878
 48
2075.510975939371
 49
357.1149598522916
140
2390.510975939371
141
804.1149598522915
142
1.0
143
1.547456566698593
 70
 11956
 72
     1
 73
     0
 74
     4
  7
brüstung.ctb
 75
     0
147
0.646221691464621
 76
     0
 77
     2
 78
   300
148
-2075.510975939371
149
-357.1149598522916
100
AcDbLayout
  1
Model
 70
     1
 71
     0
 10
0.0
 20
0.0
 11
420.0
 21
297.0
 12
0.0
 22
0.0
 32
0.0
 14
0.0
 24
0.0
 34
0.0
 15
420.0
 25
297.0
 35
0.0
146
0.0
 13
0.0
 23
0.0
 33
0.0
 16
1.0
 26
0.0
 36
0.0
 17
0.0
 27
1.0
 37
0.0
 76
     0
330
1F
1001
ACAD_PSEXT
1000
Adobe PDF
1000
Adobe PDF Converter
1000
Eigene Dateien
1000

1070
     0
  0
MATERIAL
  5
470
102
{ACAD_XDICTIONARY
360
471
102
}
102
{ACAD_REACTORS
330
467
102
}
330
467
100
AcDbMaterial
  1
ByBlock
 72
     0
 73
     2
 43
0.0008202099737533
 43
0.0
 43
0.0
 43
0.0
 43
0.0
 43
0.0008202099737533
 43
0.0
 43
0.0
 43
0.0
 43
0.0
 43
1.0
 43
0.0
 43
0.0
 43
0.0
 43
0.0
 43
1.0
 77
     0
 78
     2
 47
0.0008202099737533
 47
0.0
 47
0.0
 47
0.0
 47
0.0
 47
0.0008202099737533
 47
0.0
 47
0.0
 47
0.0
 47
0.0
 47
1.0
 47
0.0
 47
0.0
 47
0.0
 47
0.0
 47
1.0
171
     0
172
     2
 49
0.0008202099737533
 49
0.0
 49
0.0
 49
0.0
 49
0.0
 49
0.0008202099737533
 49
0.0
 49
0.0
 49
0.0
 49
0.0
 49
1.0
 49
0.0
 49
0.0
 49
0.0
 49
0.0
 49
1.0
175
     0
176
     2
142
0.0008202099737533
142
0.0
142
0.0
142
0.0
142
0.0
142
0.0008202099737533
142
0.0
142
0.0
142
0.0
142
0.0
142
1.0
142
0.0
142
0.0
142
0.0
142
0.0
142
1.0
179
     0
270
     2
144
0.0008202099737533
144
0.0
144
0.0
144
0.0
144
0.0
144
0.0008202099737533
144
0.0
144
0.0
144
0.0
144
0.0
144
1.0
144
0.0
144
0.0
144
0.0
144
0.0
144
1.0
274
     2
147
0.0008202099737533
147
0.0
147
0.0
147
0.0
147
0.0
147
0.0008202099737533
147
0.0
147
0.0
147
0.0
147
0.0
147
1.0
147
0.0
147
0.0
147
0.0
147
0.0
147
1.0
  0
MATERIAL
  5
468
102
{ACAD_XDICTIONARY
360
469
102
}
102
{ACAD_REACTORS
330
467
102
}
330
467
100
AcDbMaterial
  1
ByLayer
 72
     0
 73
     2
 43
0.0008202099737533
 43
0.0
 43
0.0
 43
0.0
 43
0.0
 43
0.0008202099737533
 43
0.0
 43
0.0
 43
0.0
 43
0.0
 43
1.0
 43
0.0
 43
0.0
 43
0.0
 43
0.0
 43
1.0
 77
     0
 78
     2
 47
0.0008202099737533
 47
0.0
 47
0.0
 47
0.0
 47
0.0
 47
0.0008202099737533
 47
0.0
 47
0.0
 47
0.0
 47
0.0
 47
1.0
 47
0.0
 47
0.0
 47
0.0
 47
0.0
 47
1.0
171
     0
172
     2
 49
0.0008202099737533
 49
0.0
 49
0.0
 49
0.0
 49
0.0
 49
0.0008202099737533
 49
0.0
 49
0.0
 49
0.0
 49
0.0
 49
1.0
 49
0.0
 49
0.0
 49
0.0
 49
0.0
 49
1.0
175
     0
176
     2
142
0.0008202099737533
142
0.0
142
0.0
142
0.0
142
0.0
142
0.0008202099737533
142
0.0
142
0.0
142
0.0
142
0.0
142
1.0
142
0.0
142
0.0
142
0.0
142
0.0
142
1.0
179
     0
270
     2
144
0.0008202099737533
144
0.0
144
0.0
144
0.0
144
0.0
144
0.0008202099737533
144
0.0
144
0.0
144
0.0
144
0.0
144
1.0
144
0.0
144
0.0
144
0.0
144
0.0
144
1.0
274
     2
147
0.0008202099737533
147
0.0
147
0.0
147
0.0
147
0.0
147
0.0008202099737533
147
0.0
147
0.0
147
0.0
147
0.0
147
1.0
147
0.0
147
0.0
147
0.0
147
0.0
147
1.0
  0
MATERIAL
  5
478
102
{ACAD_XDICTIONARY
360
479
102
}
102
{ACAD_REACTORS
330
467
102
}
330
467
100
AcDbMaterial
  1
Global
 72
     0
 73
     2
 43
0.0008202099737533
 43
0.0
 43
0.0
 43
0.0
 43
0.0
 43
0.0008202099737533
 43
0.0
 43
0.0
 43
0.0
 43
0.0
 43
1.0
 43
0.0
 43
0.0
 43
0.0
 43
0.0
 43
1.0
 77
     0
 78
     2
 47
0.0008202099737533
 47
0.0
 47
0.0
 47
0.0
 47
0.0
 47
0.0008202099737533
 47
0.0
 47
0.0
 47
0.0
 47
0.0
 47
1.0
 47
0.0
 47
0.0
 47
0.0
 47
0.0
 47
1.0
171
     0
172
     2
 49
0.0008202099737533
 49
0.0
 49
0.0
 49
0.0
 49
0.0
 49
0.0008202099737533
 49
0.0
 49
0.0
 49
0.0
 49
0.0
 49
1.0
 49
0.0
 49
0.0
 49
0.0
 49
0.0
 49
1.0
175
     0
176
     2
142
0.0008202099737533
142
0.0
142
0.0
142
0.0
142
0.0
142
0.0008202099737533
142
0.0
142
0.0
142
0.0
142
0.0
142
1.0
142
0.0
142
0.0
142
0.0
142
0.0
142
1.0
179
     0
270
     2
144
0.0008202099737533
144
0.0
144
0.0
144
0.0
144
0.0
144
0.0008202099737533
144
0.0
144
0.0
144
0.0
144
0.0
144
1.0
144
0.0
144
0.0
144
0.0
144
0.0
144
1.0
274
     2
147
0.0008202099737533
147
0.0
147
0.0
147
0.0
147
0.0
147
0.0008202099737533
147
0.0
147
0.0
147
0.0
147
0.0
147
1.0
147
0.0
147
0.0
147
0.0
147
0.0
147
1.0
  0
ACAD_PROXY_OBJECT
  5
483
102
{ACAD_REACTORS
330
462
102
}
330
462
100
AcDbProxyObject
 90
      499
 91
      508
 95
  4980761
 70
     0
 93
      744
310
40901902A40600000030400FEFFFFFF8000000000000008102B5E8DC0F42B5CFD095374616E646172640000000000000004102405064068000000C1000000000000000410000000000000004102000000304015D90000000000000C03F00
340
14
340
0
340
11
340
0
 94
        0
1001
ACAD_MLEADERVER
1070
     2
  0
MLINESTYLE
  5
18
102
{ACAD_REACTORS
330
17
102
}
330
17
100
AcDbMlineStyle
  2
STANDARD
 70
     0
  3

 62
   256
 51
90.0
 52
90.0
 71
     2
 49
0.5
 62
   256
  6
BYLAYER
 49
-0.5
 62
   256
  6
BYLAYER
  0
ACDBPLACEHOLDER
  5
F
102
{ACAD_REACTORS
330
E
102
}
330
E
  0
ACAD_PROXY_OBJECT
  5
3C
102
{ACAD_REACTORS
330
3B
102
}
330
3B
100
AcDbProxyObject
 90
      499
 91
      502
 95
  4980761
 70
     0
 93
       49
310
904313A3100598
 94
        0
  0
ACAD_PROXY_OBJECT
  5
3D
102
{ACAD_REACTORS
330
3B
102
}
330
3B
100
AcDbProxyObject
 90
      499
 91
      502
 95
  4980761
 70
     0
 93
      113
310
904313A32004000000000000004004
 94
        0
  0
ACAD_PROXY_OBJECT
  5
3E
102
{ACAD_REACTORS
330
3B
102
}
330
3B
100
AcDbProxyObject
 90
      499
 91
      502
 95
  4980761
 70
     0
 93
      113
310
904313A34004000000000000104074
 94
        0
  0
ACAD_PROXY_OBJECT
  5
3F
102
{ACAD_REACTORS
330
3B
102
}
330
3B
100
AcDbProxyObject
 90
      499
 91
      502
 95
  4980761
 70
     0
 93
      113
310
904313A35004000000000000144004
 94
        0
  0
ACAD_PROXY_OBJECT
  5
40
102
{ACAD_REACTORS
330
3B
102
}
330
3B
100
AcDbProxyObject
 90
      499
 91
      502
 95
  4980761
 70
     0
 93
      113
310
904313A38004000000000000204074
 94
        0
  0
ACAD_PROXY_OBJECT
  5
41
102
{ACAD_REACTORS
330
3B
102
}
330
3B
100
AcDbProxyObject
 90
      499
 91
      502
 95
  4980761
 70
     0
 93
      121
310
905313A3130004000000000000244009
 94
        0
  0
ACAD_PROXY_OBJECT
  5
42
102
{ACAD_REACTORS
330
3B
102
}
330
3B
100
AcDbProxyObject
 90
      499
 91
      502
 95
  4980761
 70
     0
 93
      121
310
905313A3136004000000000000304009
 94
        0
  0
ACAD_PROXY_OBJECT
  5
43
102
{ACAD_REACTORS
330
3B
102
}
330
3B
100
AcDbProxyObject
 90
      499
 91
      502
 95
  4980761
 70
     0
 93
      121
310
905313A3230004000000000000344009
 94
        0
  0
ACAD_PROXY_OBJECT
  5
44
102
{ACAD_REACTORS
330
3B
102
}
330
3B
100
AcDbProxyObject
 90
      499
 91
      502
 95
  4980761
 70
     0
 93
      121
310
905313A33300040000000000003E4009
 94
        0
  0
ACAD_PROXY_OBJECT
  5
45
102
{ACAD_REACTORS
330
3B
102
}
330
3B
100
AcDbProxyObject
 90
      499
 91
      502
 95
  4980761
 70
     0
 93
      121
310
905313A3430004000000000000444009
 94
        0
  0
ACAD_PROXY_OBJECT
  5
46
102
{ACAD_REACTORS
330
3B
102
}
330
3B
100
AcDbProxyObject
 90
      499
 91
      502
 95
  4980761
 70
     0
 93
      121
310
905313A3530004000000000000494009
 94
        0
  0
ACAD_PROXY_OBJECT
  5
47
102
{ACAD_REACTORS
330
3B
102
}
330
3B
100
AcDbProxyObject
 90
      499
 91
      502
 95
  4980761
 70
     0
 93
      129
310
906313A313030004000000000000594002
 94
        0
  0
ACAD_PROXY_OBJECT
  5
48
102
{ACAD_REACTORS
330
3B
102
}
330
3B
100
AcDbProxyObject
 90
      499
 91
      502
 95
  4980761
 70
     0
 93
      113
310
904323A31000000000000000010100
 94
        0
  0
ACAD_PROXY_OBJECT
  5
49
102
{ACAD_REACTORS
330
3B
102
}
330
3B
100
AcDbProxyObject
 90
      499
 91
      502
 95
  4980761
 70
     0
 93
      113
310
904343A31000000000000000410159
 94
        0
  0
ACAD_PROXY_OBJECT
  5
4A
102
{ACAD_REACTORS
330
3B
102
}
330
3B
100
AcDbProxyObject
 90
      499
 91
      502
 95
  4980761
 70
     0
 93
      113
310
904383A31000000000000000810100
 94
        0
  0
ACAD_PROXY_OBJECT
  5
4B
102
{ACAD_REACTORS
330
3B
102
}
330
3B
100
AcDbProxyObject
 90
      499
 91
      502
 95
  4980761
 70
     0
 93
      121
310
90531303A31000000000000000910140
 94
        0
  0
ACAD_PROXY_OBJECT
  5
4C
102
{ACAD_REACTORS
330
3B
102
}
330
3B
100
AcDbProxyObject
 90
      499
 91
      502
 95
  4980761
 70
     0
 93
      129
310
9063130303A31000000000000001650100
 94
        0
  0
ACAD_PROXY_OBJECT
  5
4D
102
{ACAD_REACTORS
330
3B
102
}
330
3B
100
AcDbProxyObject
 90
      499
 91
      502
 95
  4980761
 70
     0
 93
      265
310
90F312F31323822203D2031272D302200000000000000200FC000000000000284002
 94
        0
  0
ACAD_PROXY_OBJECT
  5
4E
102
{ACAD_REACTORS
330
3B
102
}
330
3B
100
AcDbProxyObject
 90
      499
 91
      502
 95
  4980761
 70
     0
 93
      257
310
90E312F363422203D2031272D302200000000000000240FC000000000000284000
 94
        0
  0
ACAD_PROXY_OBJECT
  5
4F
102
{ACAD_REACTORS
330
3B
102
}
330
3B
100
AcDbProxyObject
 90
      499
 91
      502
 95
  4980761
 70
     0
 93
      257
310
90E312F333222203D2031272D302200000000000000280FC000000000000284040
 94
        0
  0
ACAD_PROXY_OBJECT
  5
50
102
{ACAD_REACTORS
330
3B
102
}
330
3B
100
AcDbProxyObject
 90
      499
 91
      502
 95
  4980761
 70
     0
 93
      257
310
90E312F313622203D2031272D3022000000000000002C0FC000000000000284000
 94
        0
  0
ACAD_PROXY_OBJECT
  5
51
102
{ACAD_REACTORS
330
3B
102
}
330
3B
100
AcDbProxyObject
 90
      499
 91
      502
 95
  4980761
 70
     0
 93
      257
310
90E332F333222203D2031272D3022000000000000002E0FC000000000000284040
 94
        0
  0
ACAD_PROXY_OBJECT
  5
52
102
{ACAD_REACTORS
330
3B
102
}
330
3B
100
AcDbProxyObject
 90
      499
 91
      502
 95
  4980761
 70
     0
 93
      249
310
90D312F3822203D2031272D302200000000000000300FC000000000000284040
 94
        0
  0
ACAD_PROXY_OBJECT
  5
53
102
{ACAD_REACTORS
330
3B
102
}
330
3B
100
AcDbProxyObject
 90
      499
 91
      502
 95
  4980761
 70
     0
 93
      257
310
90E332F313622203D2031272D302200000000000000320FC000000000000284040
 94
        0
  0
ACAD_PROXY_OBJECT
  5
54
102
{ACAD_REACTORS
330
3B
102
}
330
3B
100
AcDbProxyObject
 90
      499
 91
      502
 95
  4980761
 70
     0
 93
      249
310
90D312F3422203D2031272D302200000000000000340FC000000000000284040
 94
        0
  0
ACAD_PROXY_OBJECT
  5
55
102
{ACAD_REACTORS
330
3B
102
}
330
3B
100
AcDbProxyObject
 90
      499
 91
      502
 95
  4980761
 70
     0
 93
      249
310
90D332F3822203D2031272D302200000000000000360FC000000000000284040
 94
        0
  0
ACAD_PROXY_OBJECT
  5
56
102
{ACAD_REACTORS
330
3B
102
}
330
3B
100
AcDbProxyObject
 90
      499
 91
      502
 95
  4980761
 70
     0
 93
      249
310
90D312F3222203D2031272D302200000000000000380FC000000000000284040
 94
        0
  0
ACAD_PROXY_OBJECT
  5
57
102
{ACAD_REACTORS
330
3B
102
}
330
3B
100
AcDbProxyObject
 90
      499
 91
      502
 95
  4980761
 70
     0
 93
      249
310
90D332F3422203D2031272D3022000000000000003A0FC000000000000284040
 94
        0
  0
ACAD_PROXY_OBJECT
  5
58
102
{ACAD_REACTORS
330
3B
102
}
330
3B
100
AcDbProxyObject
 90
      499
 91
      502
 95
  4980761
 70
     0
 93
      169
310
90B3122203D2031272D3022004000000000000284000
 94
        0
  0
ACAD_PROXY_OBJECT
  5
59
102
{ACAD_REACTORS
330
3B
102
}
330
3B
100
AcDbProxyObject
 90
      499
 91
      502
 95
  4980761
 70
     0
 93
      265
310
90F312D312F3222203D2031272D3022000000000000003E0FC000000000000284002
 94
        0
  0
ACAD_PROXY_OBJECT
  5
5A
102
{ACAD_REACTORS
330
3B
102
}
330
3B
100
AcDbProxyObject
 90
      499
 91
      502
 95
  4980761
 70
     0
 93
      233
310
90B3322203D2031272D30220000000000000002100000000000000284028
 94
        0
  0
ACAD_PROXY_OBJECT
  5
5B
102
{ACAD_REACTORS
330
3B
102
}
330
3B
100
AcDbProxyObject
 90
      499
 91
      502
 95
  4980761
 70
     0
 93
      233
310
90B3622203D2031272D30220000000000000006100000000000000284000
 94
        0
  0
ACAD_PROXY_OBJECT
  5
5C
102
{ACAD_REACTORS
330
3B
102
}
330
3B
100
AcDbProxyObject
 90
      499
 91
      502
 95
  4980761
 70
     0
 93
      257
310
90E31272D3022203D2031272D3022000000000000000A100000000000000284000
 94
        0
  0
TABLESTYLE
  5
482
102
{ACAD_XDICTIONARY
360
523
102
}
102
{ACAD_REACTORS
330
481
102
}
330
481
100
AcDbTableStyle
  3
Standard
 70
     0
 71
     0
 40
1.5
 41
1.5
280
     0
281
     0
  7
Standard
140
4.5
170
     2
 62
     0
 63
     7
283
     0
274
    -2
284
     1
 64
     0
275
    -2
285
     1
 65
     0
276
    -2
286
     1
 66
     0
277
    -2
287
     1
 67
     0
278
    -2
288
     1
 68
     0
279
    -2
289
     1
 69
     0
  7
Standard
140
6.0
170
     5
 62
     0
 63
     7
283
     0
274
    -2
284
     1
 64
     0
275
    -2
285
     1
 65
     0
276
    -2
286
     1
 66
     0
277
    -2
287
     1
 67
     0
278
    -2
288
     1
 68
     0
279
    -2
289
     1
 69
     0
  7
Standard
140
4.5
170
     5
 62
     0
 63
     7
283
     0
274
    -2
284
     1
 64
     0
275
    -2
285
     1
 65
     0
276
    -2
286
     1
 66
     0
277
    -2
287
     1
 67
     0
278
    -2
288
     1
 68
     0
279
    -2
289
     1
 69
     0
  0
ACAD_PROXY_OBJECT
  5
2F
102
{ACAD_REACTORS
330
2A
102
}
330
2A
100
AcDbProxyObject
 90
      499
 91
      501
 95
  4980761
 70
     0
 93
      598
310
430C9915DA5C99599C985B59401049028333333333333E3BF0000000000000FB0201C00030C02405048070000C3008000000C800405A000000320014050640A01C00030C010500920280D2
 94
        0
1001
ACAD
1000
AcDbSavedByObjectVersion
1070
     0
  0
ACAD_PROXY_OBJECT
  5
31
102
{ACAD_REACTORS
330
2A
102
}
330
2A
100
AcDbProxyObject
 90
      499
 91
      501
 95
  4980761
 70
     0
 93
      662
310
428CD108121A5919195B8010640502408333333333333E3BF0000000000000FB0201C00030C02409028070000C3008000000C8004080000000000004440A000000320014050640A01C00030C010300920280D3
 94
        0
1001
ACAD
1000
AcDbSavedByObjectVersion
1070
     0
  0
ACAD_PROXY_OBJECT
  5
30
102
{ACAD_REACTORS
330
2A
102
}
330
2A
100
AcDbProxyObject
 90
      499
 91
      501
 95
  4980761
 70
     0
 93
      598
310
430CD915DA5C99599C985B59401059028333333333333E3BF0000000000000FB0201C00030C02405048070000C3008000000C800405A000000320014050640A01C00030C010500920280D3
 94
        0
1001
ACAD
1000
AcDbSavedByObjectVersion
1070
     0
  0
ACAD_PROXY_OBJECT
  5
32
102
{ACAD_REACTORS
330
2A
102
}
330
2A
100
AcDbProxyObject
 90
      499
 91
      501
 95
  4980761
 70
     0
 93
      558
310
4190985CDA58C0107406404333333333333E3BF0000000000000FB0201C00030C029048070000C3008000000C80040542201C00030C014050640A01C00030C010500920280D5
 94
        0
1001
ACAD
1000
AcDbSavedByObjectVersion
1070
     0
  0
ACAD_PROXY_OBJECT
  5
36
102
{ACAD_REACTORS
330
2A
102
}
330
2A
100
AcDbProxyObject
 90
      499
 91
      501
 95
  4980761
 70
     0
 93
      598
310
42509C9A59DA1D195B8010C409028333333333333E3BF0000000000000FB0201C00030C02405048070000C3008000000C80040542201C00030C014050640A01C00030C010500920280A654
 94
        0
1001
ACAD
1000
AcDbSavedByObjectVersion
1070
     0
  0
ACAD_PROXY_OBJECT
  5
3A
102
{ACAD_REACTORS
330
2A
102
}
330
2A
100
AcDbProxyObject
 90
      499
 91
      501
 95
  4980761
 70
     0
 93
      622
310
4310DBDB1BDC90DA185B99D9401104090240C333333333333E3BF0000000000000FB0202000030C02405048070000C3008000000C80040542202000030C014050640A01C00030C010500920280D4
 94
        0
1001
ACAD
1000
AcDbSavedByObjectVersion
1070
     0
  0
ACAD_PROXY_OBJECT
  5
34
102
{ACAD_REACTORS
330
2A
102
}
330
2A
100
AcDbProxyObject
 90
      499
 91
      501
 95
  4980761
 70
     0
 93
      670
310
42D0DBDB98D95C1D1D585B0010940D028333333333333E3BF0000000000000FB0201C00030C02409028070000C3008000000C800404000000000000444042201C00030C014050640A01C00030C010300920280D0
 94
        0
1001
ACAD
1000
AcDbSavedByObjectVersion
1070
     0
  0
ACAD_PROXY_OBJECT
  5
35
102
{ACAD_REACTORS
330
2A
102
}
330
2A
100
AcDbProxyObject
 90
      499
 91
      501
 95
  4980761
 70
     0
 93
      582
310
41111A5B4010B409028333333333333E3BF0000000000000FB0201C00030C02405048070000C3008000000C80040542201C00030C014050640A01C00030C01050092028099DFFFFFF6
 94
        0
1001
ACAD
1000
AcDbSavedByObjectVersion
1070
     0
  0
ACAD_PROXY_OBJECT
  5
39
102
{ACAD_REACTORS
330
2A
102
}
330
2A
100
AcDbProxyObject
 90
      499
 91
      501
 95
  4980761
 70
     0
 93
      614
310
43119858D95C185D1D195C9B8010F409028333333333333E3BF0000000000000FB0201C00030C02405048070000C3008000000C80040542201C00030C014050640A01C00030C010500920280D4
 94
        0
1001
ACAD
1000
AcDbSavedByObjectVersion
1070
     0
  0
ACAD_PROXY_OBJECT
  5
2B
102
{ACAD_REACTORS
330
2A
102
}
330
2A
100
AcDbProxyObject
 90
      499
 91
      501
 95
  4980761
 70
     0
 93
      558
310
41519B185D00240901404333333333333E3BF0000000000000F90201C00030C01029048070000C3008000000C80040542201C00030C014050640A01C00030C010500920286D6
 94
        0
1001
ACAD
1000
AcDbSavedByObjectVersion
1070
     0
  0
ACAD_PROXY_OBJECT
  5
2C
102
{ACAD_REACTORS
330
2A
102
}
330
2A
100
AcDbProxyObject
 90
      499
 91
      501
 95
  4980761
 70
     0
 93
      638
310
43919B185D15DA5D1A115919D95CC010140901404333333333333E3BF0000000000000F90201C00030C0102405048070000C3008000000C800405A000000320014050640A01C00030C010500920286D4
 94
        0
1001
ACAD
1000
AcDbSavedByObjectVersion
1070
     0
  0
ACAD_PROXY_OBJECT
  5
2D
102
{ACAD_REACTORS
330
2A
102
}
330
2A
100
AcDbProxyObject
 90
      499
 91
      501
 95
  4980761
 70
     0
 93
      582
310
4211DBDD5C985D590010240902404333333333333E3BF0000000000000F90201C00030C01029048070000C3008000000C800405A01C00030C014050640A01C00030C010500920286D5
 94
        0
1001
ACAD
1000
AcDbSavedByObjectVersion
1070
     0
  0
ACAD_PROXY_OBJECT
  5
2E
102
{ACAD_REACTORS
330
2A
102
}
330
2A
100
AcDbProxyObject
 90
      499
 91
      501
 95
  4980761
 70
     0
 93
      662
310
4451DBDD5C985D5915DA5D1A115919D95CC010340902404333333333333E3BF0000000000000F90201C00030C0102405048070000C3008000000C800405A000000320014050640A01C00030C010500920286D4
 94
        0
1001
ACAD
1000
AcDbSavedByObjectVersion
1070
     0
  0
ACAD_PROXY_OBJECT
  5
38
102
{ACAD_REACTORS
330
2A
102
}
330
2A
100
AcDbProxyObject
 90
      499
 91
      501
 95
  4980761
 70
     0
 93
      614
310
43131A5B995C185D1D195C9B8010E409028333333333333E3BF0000000000000FB0201C00030C02405048070000C3008000000C80041D42201C00030C014050640A01C00030C010500920E80D4
 94
        0
1001
ACAD
1000
AcDbSavedByObjectVersion
1070
     0
  0
ACAD_PROXY_OBJECT
  5
33
102
{ACAD_REACTORS
330
2A
102
}
330
2A
100
AcDbProxyObject
 90
      499
 91
      501
 95
  4980761
 70
     0
 93
      590
310
429499585B1A5CDD1A58C0108409028333333333333E3BF0000000000000FB0201C00030C024068070000C3008000000C80040542202000030C014050640A01C00030C010500920286D0
 94
        0
1001
ACAD
1000
AcDbSavedByObjectVersion
1070
     0
  0
ACAD_PROXY_OBJECT
  5
37
102
{ACAD_REACTORS
330
2A
102
}
330
2A
100
AcDbProxyObject
 90
      499
 91
      501
 95
  4980761
 70
     0
 93
      582
310
42151A1A58DAD95B8010D409028333333333333E3BF0000000000000FB0201C00030C02405048070000C3008000000C80040543201C00030C014050640A01C00030C010500920280D4
 94
        0
1001
ACAD
1000
AcDbSavedByObjectVersion
1070
     0
  0
DICTIONARYVAR
  5
465
102
{ACAD_REACTORS
330
460
102
}
330
460
100
DictionaryVariables
280
     0
  1
1:1
  0
DICTIONARYVAR
  5
52D
102
{ACAD_REACTORS
330
460
102
}
330
460
100
DictionaryVariables
280
     0
  1
STANDARD
  0
DICTIONARYVAR
  5
52C
102
{ACAD_REACTORS
330
460
102
}
330
460
100
DictionaryVariables
280
     0
  1
STANDARD
  0
DICTIONARYVAR
  5
224A
102
{ACAD_REACTORS
330
460
102
}
330
460
100
DictionaryVariables
280
     0
  1
1
  0
DICTIONARYVAR
  5
224B
102
{ACAD_REACTORS
330
460
102
}
330
460
100
DictionaryVariables
280
     0
  1
15
  0
DICTIONARYVAR
  5
2249
102
{ACAD_REACTORS
330
460
102
}
330
460
100
DictionaryVariables
280
     0
  1
0
  0
DICTIONARYVAR
  5
2248
102
{ACAD_REACTORS
330
460
102
}
330
460
100
DictionaryVariables
280
     0
  1
0
  0
DICTIONARYVAR
  5
228C
102
{ACAD_REACTORS
330
460
102
}
330
460
100
DictionaryVariables
280
     0
  1
80.000000
  0
DICTIONARYVAR
  5
228B
102
{ACAD_REACTORS
330
460
102
}
330
460
100
DictionaryVariables
280
     0
  1
5.000000
  0
XRECORD
  5
114E5
102
{ACAD_REACTORS
330
114E4
102
}
330
114E4
100
AcDbXrecord
280
     1
330
0
330
0
330
0
330
0
330
0
330
0
330
0
330
0
330
0
330
0
330
0
330
0
330
0
  0
ACAD_PROXY_OBJECT
  5
4AF
102
{ACAD_REACTORS
330
4A1
102
}
330
4A1
100
AcDbProxyObject
 90
      499
 91
      509
 95
  4980761
 70
     0
 93
     2328
310
40C2C0006002C0000011541535F426F6C745374796C65477265792E626D7000414D0B8D94C011041535F426F6C745F3436532E6462660090444D3490A110A481E08090A130A480D0B8D8BD4C011124284429204469612E20576173686572004293490A110A48139D5D002A44D3490A110A481E08090A130A480D0B8D8BD4C0
310
1075761736865720041139D5D002A42890A110A48111A584B8010D426C61636B2057617368657200AA43D054D7D39D5D17CD0D9CCB9918998010F41535F4E75745F3436732E64626600449054D7D5D85CDA195C97CD0D9CCB9918998011241535F5761736865725F3436732E646266004554D8DA195A58994D0CCD0B8D0CCD
310
5D5A4B99189980115536368656962653433342E34333575692E6462660041D0641906AA906D9
 94
        0
  0
ACAD_PROXY_OBJECT
  5
4B0
102
{ACAD_REACTORS
330
4A1
102
}
330
4A1
100
AcDbProxyObject
 90
      499
 91
      509
 95
  4980761
 70
     0
 93
     1888
310
40C1C0802002C0000011541535F426F6C745374796C65477265792E626D7000428D0B8D94CB51D053158011041535F426F6C745F3436532E646266009044613490A110A481E08090A130A480D0B8D8BD4C811D053158010A24284429204469612E004293490A110A48139D5D002A4613490A110A481E08090A130A480D0B8D
310
8BD4C811D053158011247616C76616E69736564205761736865720041139D5D002A42890A110A48111A584B8011247616C76616E697365642057617368657200AA43D054D7D39D5D17CD0D9CCB991899802449054D7D5D85CDA195C97CD0D9CCB991899802A41D0641906AA90600
 94
        0
  0
ACAD_PROXY_OBJECT
  5
4B1
102
{ACAD_REACTORS
330
4A1
102
}
330
4A1
100
AcDbProxyObject
 90
      499
 91
      509
 95
  4980761
 70
     0
 93
     1760
310
40C1C0006002C0000011641535F426F6C745374796C654C426C75652E626D7000414E0B8E14C011041535F426F6C745F3838732E6462660090444D3490A110A481E08090A130A480E0B8E0BD4C01124D24284429204469612E20576173686572004293490A110A48139555002A44D3490A110A481E08090A130A480E0B8E0B
310
D4C0107576173686572004293490A110A48139555002A42890A110A48111A584B8010D426C61636B2057617368657200AA43D054D7D39D5D17CE0E1CCB991899802449054D7D5D85CDA195C97CE0E1CCB991899802A4110841D07AA90700
 94
        0
  0
ACAD_PROXY_OBJECT
  5
4B7
102
{ACAD_REACTORS
330
4A1
102
}
330
4A1
100
AcDbProxyObject
 90
      499
 91
      509
 95
  4980761
 70
     0
 93
     1960
310
40C1C0802002C0000011641535F426F6C745374796C654C426C75652E626D7000428E0B8E14CB51D053158011041535F426F6C745F3838732E646266009044613490A110A481E08090A130A480E0B8E0BD4C811D05315801124D24284429204469612E20576173686572004293490A110A48139555002A4613490A110A481E
310
08090A130A480E0B8E0BD4C811D053158011247616C76616E69736564205761736865720041139555002A42890A110A48111A584B8011247616C76616E697365642057617368657200AA43D054D7D39D5D17CE0E1CCB991899802449054D7D5D85CDA195C97CE0E1CCB991899802A4110841D07AA907C0
 94
        0
  0
ACAD_PROXY_OBJECT
  5
4B2
102
{ACAD_REACTORS
330
4A1
102
}
330
4A1
100
AcDbProxyObject
 90
      499
 91
      509
 95
  4980761
 70
     0
 93
     2328
310
40C1C0006002C0000011641535F426F6C745374796C6544426C75652E626D7000418E0B8E15108011041535F426F6C745F3838732E646266009044513490A110A481E08090A130A480E0B8E0BD5108011D4D24284429204C4F414420494E4449434154494E4720574153484552004293490A110A48139555002A4513490A11
310
0A481E08090A130A480E0B8E0BD5108011D4D24284429204C4F414420494E4449434154494E4720574153484552004293490A110A48139555002A4753490A110A481313D051081253911250D055125391C815D054D211548011D4D24284429204C4F414420494E4449434154494E472057415348455200AA43D054D7D39D5D
310
17CE0E1CCB991899802449054D7D5D85CDA195C97CE0E1CCB991899802A4150841D07AA90700
 94
        0
  0
ACAD_PROXY_OBJECT
  5
4B3
102
{ACAD_REACTORS
330
4A1
102
}
330
4A1
100
AcDbProxyObject
 90
      499
 91
      509
 95
  4980761
 70
     0
 93
     2528
310
40C1C0806002C0000011641535F426F6C745374796C6544426C75652E626D700042CE0B8E15108B51D053158011041535F426F6C745F3838732E646266009044653490A110A481E08090A130A480E0B8E0BD5108811D053158011D4D24284429204C4F414420494E4449434154494E47205741534845520043D3490A110A48
310
1395550811D05315802A4653490A110A481E08090A130A480E0B8E0BD5108811D053158011D4D24284429204C4F414420494E4449434154494E47205741534845520043D3490A110A481395550811D05315802A4753490A110A481313D051081253911250D055125391C815D054D211548011D4D24284429204C4F41442049
310
4E4449434154494E472057415348455200AA43D054D7D39D5D17CE0E1CCB991899802449054D7D5D85CDA195C97CE0E1CCB991899802A4150841D07AA90700
 94
        0
  0
ACAD_PROXY_OBJECT
  5
4B4
102
{ACAD_REACTORS
330
4A1
102
}
330
4A1
100
AcDbProxyObject
 90
      499
 91
      509
 95
  4980761
 70
     0
 93
     2344
310
40C1C0006002C0000011841535F426F6C745374796C654D6167656E74612E626D7000418E0B8E15118011041535F426F6C745F3838732E646266009044513490A110A481E08090A130A480E0B8E0BD5118011D4D24284429204C4F414420494E4449434154494E4720574153484552004293490A110A48139555002A451349
310
0A110A481E08090A130A480E0B8E0BD5118011D4D24284429204C4F414420494E4449434154494E4720574153484552004293490A110A48139555002A4753490A110A481313D051081253911250D055125391C815D054D211548011D4D24284429204C4F414420494E4449434154494E472057415348455200AA43D054D7D3
310
9D5D17CE0E1CCB991899802449054D7D5D85CDA195C97CE0E1CCB991899802A4190841D07AA90755
 94
        0
  0
ACAD_PROXY_OBJECT
  5
4B5
102
{ACAD_REACTORS
330
4A1
102
}
330
4A1
100
AcDbProxyObject
 90
      499
 91
      509
 95
  4980761
 70
     0
 93
     2464
310
40C1C0806002C0000011841535F426F6C745374796C654D6167656E74612E626D700042CE0B8E15118B51D053158011041535F426F6C745F3838732E646266009044653490A110A481E08090A130A480E0B8E0BD5118811D053158011D4D24284429204C4F414420494E4449434154494E4720574153484552004293490A11
310
0A48139555002A4653490A110A481E08090A130A480E0B8E0BD5118811D053158011D4D24284429204C4F414420494E4449434154494E4720574153484552004293490A110A48139555002A4753490A110A481313D051081253911250D055125391C815D054D211548011D4D24284429204C4F414420494E4449434154494E
310
472057415348455200AA43D054D7D39D5D17CE0E1CCB991899802449054D7D5D85CDA195C97CE0E1CCB991899802A4190841D07AA907FF
 94
        0
  0
ACAD_PROXY_OBJECT
  5
4B8
102
{ACAD_REACTORS
330
4A1
102
}
330
4A1
100
AcDbProxyObject
 90
      499
 91
      509
 95
  4980761
 70
     0
 93
     2536
310
40C2C0006002C00000115424F4C545354594C4559454C4C4F57312E626D700042D04CCC0DC811925153110010D613330375F6865782E646266004050447119251531108109BDB1D08090A110A5E090A130A48104CCC0DCB53801165761736865722024284429204153544D20463433360044D39D5D08090A110A481054D513
310
48104D4D8CC02A47119251531108109BDB1D08090A110A5E090A130A48104CCC0DCB53801165761736865722024284429204153544D20463433360044D39D5D08090A110A481054D51348104D4D8CC02A4595D85CDA195C88090A110A481054D51348118D0CCD80117536368656962652024284429204153544D2046343336
310
00AA451554D7D84D4D8CD7DA195E08139D5D0B991899802471554D7D98D0CCD8810DA5C98DD5B185C8815D85CDA195C8B991899802A4098360D8358D09A90900
 94
        0
  0
ACAD_PROXY_OBJECT
  5
4B9
102
{ACAD_REACTORS
330
4A1
102
}
330
4A1
100
AcDbProxyObject
 90
      499
 91
      509
 95
  4980761
 70
     0
 93
     2496
310
40C2C0002002C00000113424F4C545354594C45424C5545312E626D700042904CCC0DC814D213D40010D613330375F6865782E646266004050446D4D213D408109BDB1D08090A110A5E090A130A48104CCC0DCB53801165761736865722024284429204153544D20463433360044D39D5D08090A110A481054D51348104D4D
310
8CC02A46D4D213D408109BDB1D08090A110A5E090A130A48104CCC0DCB53801165761736865722024284429204153544D20463433360044D39D5D08090A110A481054D51348104D4D8CC02A4595D85CDA195C88090A110A481054D51348118D0CCD80117536368656962652024284429204153544D204634333600AA451554
310
D7D84D4D8CD7DA195E08139D5D0B991899802471554D7D98D0CCD8810DA5C98DD5B185C8815D85CDA195C8B991899802A4118360D8358D09A90900
 94
        0
  0
ACAD_PROXY_OBJECT
  5
4BA
102
{ACAD_REACTORS
330
4A1
102
}
330
4A1
100
AcDbProxyObject
 90
      499
 91
      509
 95
  4980761
 70
     0
 93
     2520
310
40C2C0006002C00000113424F4C545354594C4547524559312E626D700042D04CCC8D4811925153110010D613332355F6865782E646266004050447119251531108109BDB1D08090A110A5E090A130A48104CCC8D4B53801165761736865722024284429204153544D20463433360044D39D5D08090A110A481054D5134810
310
4D4D8CC02A47119251531108109BDB1D08090A110A5E090A130A48104CCC8D4B53801165761736865722024284429204153544D20463433360044D39D5D08090A110A481054D51348104D4D8CC02A45D4D8DA195A589948090A110A481054D51348118D0CCD801165761736865722024284429204153544D204634333600AA
310
451554D7D84D4D8CD7DA195E08139D5D0B991899802471554D7D98D0CCD8810DA5C98DD5B185C8815D85CDA195C8B991899802A41D846118458D09A90900
 94
        0
  0
ACAD_PROXY_OBJECT
  5
4BB
102
{ACAD_REACTORS
330
4A1
102
}
330
4A1
100
AcDbProxyObject
 90
      499
 91
      509
 95
  4980761
 70
     0
 93
     2488
310
40C2C0002002C00000112424F4C545354594C45524544312E626D700042904CCC8D4814D213D40010D613332355F6865782E646266004050446D4D213D408109BDB1D08090A110A5E090A130A48104CCC8D4B53801165761736865722024284429204153544D20463433360044D39D5D08090A110A481054D51348104D4D8C
310
C02A46D4D213D408109BDB1D08090A110A5E090A130A48104CCC8D4B53801165761736865722024284429204153544D20463433360044D39D5D08090A110A481054D51348104D4D8CC02A45D4D8DA195A589948090A110A481054D51348118D0CCD801165761736865722024284429204153544D204634333600AA451554D7
310
D84D4D8CD7DA195E08139D5D0B991899802471554D7D98D0CCD8810DA5C98DD5B185C8815D85CDA195C8B991899802A451846118458D09A90900
 94
        0
  0
ACAD_PROXY_OBJECT
  5
4BC
102
{ACAD_REACTORS
330
4A1
102
}
330
4A1
100
AcDbProxyObject
 90
      499
 91
      509
 95
  4980761
 70
     0
 93
     2584
310
40C2C0006002C00000114424F4C545354594C45475245454E312E626D700042D04D0E4C0811925153110010D613439305F6865782E646266004050448919251531108109BDB1D08090A110A5E090A130A48104D0E4C0B5388119A595B19001165761736865722024284429204153544D20463433360044D39D5D08090A110A
310
481054D51348104D4D8CC02A47119251531108109BDB1D08090A110A5E090A130A48104D0E4C0B53801165761736865722024284429204153544D20463433360044D39D5D08090A110A481054D51348104D4D8CC02A45D4D8DA195A589948090A110A481054D51348118D0CCD8011753636865696265202428442920415354
310
4D204634333600AA451554D7D84D4D8CD7DA195E08139D5D0B991899802471554D7D98D0CCD8810DA5C98DD5B185C8815D85CDA195C8B991899802A5798D6358D58D09A909F2
 94
        0
  0
ACAD_PROXY_OBJECT
  5
4BD
102
{ACAD_REACTORS
330
4A1
102
}
330
4A1
100
AcDbProxyObject
 90
      499
 91
      509
 95
  4980761
 70
     0
 93
     2520
310
40C2C0002002C00000115424F4C545354594C45505552504C45312E626D700042904D0E4C0814D213D40010D613439305F6865782E646266004050446D4D213D408109BDB1D08090A110A5E090A130A48104D0E4C0B53801165761736865722024284429204153544D20463433360044D39D5D08090A110A481054D5134810
310
4D4D8CC02A46D4D213D408109BDB1D08090A110A5E090A130A48104D0E4C0B53801165761736865722024284429204153544D20463433360044D39D5D08090A110A481054D51348104D4D8CC02A45D4D8DA195A589948090A110A481054D51348118D0CCD80117536368656962652024284429204153544D204634333600AA
310
451554D7D84D4D8CD7DA195E08139D5D0B991899802471554D7D98D0CCD8810DA5C98DD5B185C8815D85CDA195C8B991899802A7298D6358D58D09A90900
 94
        0
  0
ACAD_PROXY_OBJECT
  5
4BE
102
{ACAD_REACTORS
330
4A1
102
}
330
4A1
100
AcDbProxyObject
 90
      499
 91
      509
 95
  4980761
 70
     0
 93
     1496
310
40C940002002C00000108434E422E626D70004150D397D080109434E5F422E6462660090444D3490A110A5E090A130A4810AF2DB0B772EA0010AB5E6C8A620242844290042B0B7712E08090A110A402A44D3490A110A5E090A130A4810AF2DB0B772EA0010AB5E6C8A620242844290042B0B7712E08090A110A402A42AD79B
310
22988090A110A4010AB5E6C8A6202428442900AA4350D397D0509395550B9918998024410D397D05095D054D211548B991899802A411C771DC7AA90700
 94
        0
  0
ACAD_PROXY_OBJECT
  5
4BF
102
{ACAD_REACTORS
330
4A1
102
}
330
4A1
100
AcDbProxyObject
 90
      499
 91
      509
 95
  4980761
 70
     0
 93
     1480
310
40C940002002C00000108434E432E626D70004150D397D0C0109434E5F432E6462660090444D3490A110A5E090A130A4810EF2DB0B772EA0010AB5E6C8A620242844290042B0B7712E08090A110A402A44D3490A110A5E090A130A4810EF2DB0B772EA0010AB5E6C8A620242844290042B0B7712E08090A110A402A42AD79B
310
22988090A110A4010AB5E6C8A6202428442900AA4310D397D0D395550B99189980243D0D397D0D5D054D211548B991899802A411C771DC7AA90700
 94
        0
  0
ACAD_PROXY_OBJECT
  5
4C1
102
{ACAD_REACTORS
330
4A1
102
}
330
4A1
100
AcDbProxyObject
 90
      499
 91
      509
 95
  4980761
 70
     0
 93
     2176
310
40C940002002C00000109434E38382E626D70004250D397D1D44E0B8E00115636E5F676A6779677164646C6A746C732E646266009044653490A110A5E090A130A482E37F1EFF0B772EA0E0B8E2F2D80112B8DFC7BFC2DDCBA8B5E6C8A620242844290044AE37F1EFF0B772EA30B7712E08090A110A402A4653490A110A5E09
310
0A130A482E37F1EFF0B772EA0E0B8E2F2D80112B8DFC7BFC2DDCBA8B5E6C8A620242844290044AE37F1EFF0B772EA30B7712E08090A110A402A44AE37F1EFF0B772EA2D79B22988090A110A40112B8DFC7BFC2DDCBA8B5E6C8A6202428442900AA4450D397D1D4511312951395550B9918998024510D397D1D45113129515D
310
054D211548B991899802A411CD735CDAA90733
 94
        0
  0
ACAD_PROXY_OBJECT
  5
4AB
102
{ACAD_REACTORS
330
4A1
102
}
330
4A1
100
AcDbProxyObject
 90
      499
 91
      509
 95
  4980761
 70
     0
 93
     2872
310
40CFC0002002C0000010B44494E3535382E626D700041D112538D4D4E0010B5343483535382E64626600904451348090A110A5E090A130A481254D3CD0C0C4E0011753636865696265204120242844292044494E373938390044135D48090A110A481254D3CD0C0CCD001114D7520242844292044494E20373936370045D54
310
B54D8DA195A589948090A110A48111253880D0CCD00117492D5363686569626520242844292044494E2034333500448D0C0C4E0B53490A110A5E090A130A53554010C373938392D53242844292D00448D0C0CCC8B5355490A110A4B504C8BCD4C00113373936372D4D55242844292D4653542D5A4E00438D0CCD0B54C90A11
310
0A504B54D50010E3433352D5324284429412D5354004594D8DA195A5899481048090A110A481112538C4C8D4010D3132352D53242844292D413200AA43935D5D1D195C8D4D4D4B9918998024414D8DA195A58994DCE4E0E4B991899802A4150624804920141D06A9080C
 94
        0
  0
ACAD_PROXY_OBJECT
  5
4AC
102
{ACAD_REACTORS
330
4A1
102
}
330
4A1
100
AcDbProxyObject
 90
      499
 91
      509
 95
  4980761
 70
     0
 93
     2904
310
40CFC0002002C0000010B44494E3630312E626D700041D112538D8C0C4010B5343483630312E64626600904451348090A110A5E090A130A481254D3CD0C0C4D8011653636865696265204120242844292044494E3133370044135D48090A110A481254D3CD0C0CCD001114D7520242844292044494E20373936370045D54B5
310
4D8DA195A589948090A110A48111253880D0CCD00117492D5363686569626520242844292044494E2034333500440D0C0C4D8B53490A110A5E090A130A4010D3133372D53242844292D413200448D0C0CCD0B5355490A110A4B504C8BCD4C00113373936372D4D55242844292D4653542D5A4E00438D0CCD0B54C90A110A50
310
4B54D50010E3433352D5324284429412D5354004594D8DA195A5899481048090A110A481112538C4C8D4010D3132352D53242844292D413200AA43935D5D1D195C8D4D4D4B9918998024594D8DA195A58994C4CCDC8119BDC9B48104B991899802A4150624804920141D06A90800
 94
        0
  0
ACAD_PROXY_OBJECT
  5
4A3
102
{ACAD_REACTORS
330
4A1
102
}
330
4A1
100
AcDbProxyObject
 90
      499
 91
      509
 95
  4980761
 70
     0
 93
     4640
310
40DFCC022013C0000010C44494E363931342E626D7000421112538D8E4C4D0010C534348363931342E64626600904451348090A110A5E090A130A481112538D8E4C4D0011753636865696265204120242844292044494E363931360044135D48090A110A481112538D8E4C4D401114D7520242844292044494E20363931350
310
046154B54D8DA195A589948090A110A48111253880D8E4C4E00118492D5363686569626520242844292044494E203639313700474D8E4C4D0B53490A110A5E090A130A53554C94CB4C4C0B8E4B5516938010F363931362D53242844292D4334350044CD8E4C4D4B5355490A110A4B4C4C0B55169380113363931352D4D5524
310
2844292D31302D545A4E00440D8E4C4E0B54C90A110A504B50CD0D40110363931372D5324284429412D4334350045D4D8DA195A5899481048090A110A481112538D8E4C4D8010F363931362D53242844292D4334350046154B54D8DA195A589948090A110A48111253880D8E4C4E00118492D5363686569626520242844292
310
044494E203639313700440D8E4C4E0B54C90A110A504B50CD0D40110363931372D5324284429412D4334350043D35D5D1D195C8D8E4C4D4B9918998010F4D7574746572363931352E646266004414D8DA195A58994D8E4C4D8B9918998011053636865696265363931362E6462660045D4D8DA195A58994D8E4C4DCB8D8E4C
310
4E1D5A4B9918998011753636865696265363931372E3639313875692E6462660041909254049501424950125404000000000000594090900000000141ABE10000000000A06AF840A80
 94
        0
  0
ACAD_PROXY_OBJECT
  5
4A7
102
{ACAD_REACTORS
330
4A1
102
}
330
4A1
100
AcDbProxyObject
 90
      499
 91
      509
 95
  4980761
 70
     0
 93
     3192
310
40DFC400200AC0000010C44494E373936382E626D7000421112538DCE4D8E0010C534348373936382E64626600904451348090A110A5E090A130A481112538DCE4D8E0011753636865696265204120242844292044494E373938390044135D48090A110A481254D3CD0C0CCD001114D7520242844292044494E20363931350
310
046154B54D8DA195A589948090A110A48111253880D8E4C4E00118492D5363686569626520242844292044494E203639313700450DCE4D8E0B53490A110A5E090A130A53554C94C010B373938392D532428442900430D0C0CCD0B5355490A110A40113363931352D4D55242844292D31302D545A4E00440D8E4C4E0B54C90A
310
110A504B50CD0D40110363931372D5324284429412D4334350045D4D8DA195A5899481048090A110A481112538D8E4C4D8010F363931362D53242844292D43343500AA43935D5D1D195C8D4D4D4B9918998024414D8DA195A58994DCE4E0E4B99189980245D4D8DA195A58994D8E4C4DCB8D8E4C4E1D5A4B99189980241906
310
248049201424920180000000000005940903B6
 94
        0
  0
ACAD_PROXY_OBJECT
  5
4A8
102
{ACAD_REACTORS
330
4A1
102
}
330
4A1
100
AcDbProxyObject
 90
      499
 91
      509
 95
  4980761
 70
     0
 93
     4096
310
40CFC400200AC0000010C44494E373936392E626D7000421112538DCE4D8E4010C534348373936392E6462660090445D348090A110A5E090A130A48135D481112538DCE4D8E4011753636865696265204120242844292044494E373938390044135D48090A110A481254D3CD0C0CCD001104D7520242844292044494E20353
310
5350045D54B54D8DA195A589948090A110A48111253880D0CCD00117492D5363686569626520242844292044494E2034333500470DCE4D8E4B53490A110A56090A130A53554C54CB4D0B8D8B5516938010E373938392D53242844292D53540043CD0C0CCD0B5355490A110A4B4D4B4011032343033342D4D55242844292D35
310
2D00438D0CCD0B54C90A110A504B54D50010E3433352D5324284429412D53540045D4D8DA195A5899481048090A110A481112538DCE4E0E4010E373938392D53242844292D53540045D54B54D8DA195A589948090A110A48111253880D0CCD00117492D5363686569626520242844292044494E2034333500438D0CCD0B54C
310
90A110A504B54D500243935D5D1D195C8D4D4D4B9918998010E4D75747465723535352E646266004414D8DA195A58994DCE4E0E4B9918998011053636865696265373938392E646266004554D8DA195A58994D0CCD0B8D0CCD5D5A4B99189980115536368656962653433342E34333575692E6462660041506248049201418
310
9201A9063E
 94
        0
  0
ACAD_PROXY_OBJECT
  5
4AA
102
{ACAD_REACTORS
330
4A1
102
}
330
4A1
100
AcDbProxyObject
 90
      499
 91
      509
 95
  4980761
 70
     0
 93
     2456
310
40DFC0002002C0000010C44494E373938342E626D7000421112538DCE4E0D0010C534348373938342E64626600904451348090A110A5E090A130A481112538DCE4E0D0011653636865696265204120242844292044494E3132350044135D48090A110A48111253880E4CCD001114D7520242844292044494E203639313500A
310
448DCE4E0D0B53490A110A5E090A130A53554010D3132352D53242844292D41320044CC8D0C0CCC8B5355490A110A4B504C8BCD4C00113363931352D4D55242844292D31302D545A4E00A4594D8DA195A5899481048090A110A481112538C4C8D4010D3132352D53242844292D413200AA43935D5D1D195C8E4CCD0B991899
310
80243D4D8DA195A58994C4C8D4B9918998010F536368656962653132352E64626600A4190824C0493014268000000000000594090800
 94
        0
  0
ACAD_PROXY_OBJECT
  5
4A2
102
{ACAD_REACTORS
330
4A1
102
}
330
4A1
100
AcDbProxyObject
 90
      499
 91
      509
 95
  4980761
 70
     0
 93
     4264
310
40DBCC402002C0000010C44494E373939302E626D7000421112538DCE4E4C0010C534348373939302E6462660090445D348090A110A5E090A130A48135D481112538DCE4E4C0011753636865696265204120242844292044494E373938390044135D48090A110A481254D3CD0C0CCD001114D7520242844292044494E20373
310
936370045D54B54D8DA195A589948090A110A48111253880D0CCD00117492D5363686569626520242844292044494E2034333500470DCE4E4C0B53490A110A56090A130A53554C54CB4D0B8D8B5516938010E373938392D53242844292D53540043CD0C0CCD0B5355490A110A4B4D4B40113373936372D4D55242844292D46
310
53542D5A4E00438D0CCD0B54C90A110A504B54D50010E3433352D5324284429412D53540045D4D8DA195A5899481048090A110A481112538DCE4E0E4010E373938392D53242844292D53540045D54B54D8DA195A589948090A110A48111253880D0CCD00117492D5363686569626520242844292044494E2034333500438D0
310
CCD0B54C90A110A504B54D50010E3433352D5324284429412D53540043935D5D1D195C8D4D4D4B9918998010E4D75747465723535352E646266004414D8DA195A58994DCE4E0E4B9918998011053636865696265373938392E646266004554D8DA195A58994D0CCD0B8D0CCD5D5A4B99189980115536368656962653433342
310
E34333575692E646266004110624804920141C91012440690700
 94
        0
  0
ACAD_PROXY_OBJECT
  5
4A6
102
{ACAD_REACTORS
330
4A1
102
}
330
4A1
100
AcDbProxyObject
 90
      499
 91
      509
 95
  4980761
 70
     0
 93
     3288
310
40CBC500200AC0000010C44494E373939312E626D7000421112538DCE4E4C4010C534348373939312E64626600904461348090A110A5E090A130A48135D481254D3CC4C0D8D0C8011753636865696265204120242844292049534F373039320044135D48090A110A481254D3CD0C0CCD001114D7520242844292044494E203
310
73936370045D54B54D8DA195A589948090A110A48111253880D0CCD00117492D5363686569626520242844292044494E2034333500474C4C0D8D0C8B53490A110A56090A130A53554C54CB4D4B8D8B5516938010E373039322D53242844292D53540043CD0C0CCD0B5355490A110A4B4D4B40113373936372D4D5524284429
310
2D4653542D5A4E00438D0CCD0B54C90A110A504B54D50010E3433352D5324284429412D5354004594D8DA195A5899481048090A110A481112538D0CCCC010D3433332D53242844292D535400AA43935D5D1D195C8D4D4D4B99189980243D4D8DA195A58994D0CCCCB9918998010B53636865696265343333004554D8DA195A
310
58994D0CCD0B8D0CCD5D5A4B99189980241D0724804920141C920141E9077C
 94
        0
  0
ACAD_PROXY_OBJECT
  5
4A9
102
{ACAD_REACTORS
330
4A1
102
}
330
4A1
100
AcDbProxyObject
 90
      499
 91
      509
 95
  4980761
 70
     0
 93
     1928
310
40C2C0002002C0000010C44494E373939392E626D7000421112538DCE4E4E4010C534348373939392E64626600904451348090A110A5E090A130A481112538DCE4E4E4011753636865696265204120242844292044494E363931390044135D48090A110A481112538D8E4C4D402A440DCE4E4E4B53490A110A56090A130A40
310
10E363931392D53242844292D535400430D8E4C4D4B5355490A110A402A45D4D8DA195A5899481048090A110A481112538D8E4C4E4010E363931392D53242844292D535400AA43D35D5D1D195C8D8E4C4D4B9918998024414D8DA195A58994D8E4C4D8B991899802A909254049501AA8950100
 94
        0
  0
ACAD_PROXY_OBJECT
  5
4AD
102
{ACAD_REACTORS
330
4A1
102
}
330
4A1
100
AcDbProxyObject
 90
      499
 91
      509
 95
  4980761
 70
     0
 93
     3032
310
40DFC600200140000010B44494E3931322E626D700041D112538E4C4C8010B5343483931322E64626600904451348090A110A5E090A130A481254D3CD0DCD8C8011753636865696265204120242844292049534F373038390044135D48090A110A481112538D0C0CCC80246154B54D8DA195A589948090A110A48111253880
310
D8E4C4E00118492D5363686569626520242844292044494E203639313700450D0DCD8C8B53490A110A5E090A130A53554C94C010E373038392D53242844292D413200448D0C0CCC8B5355490A110A4B504C8BCD4C002440D8E4C4E0B54C90A110A504B50CD0D40110363931372D5324284429412D433435004594D8DA195A5
310
899481048090A110A481112538C4C8D4010D3132352D53242844292D413200AA43935D5D1D195C8E4CCD0B99189980243D4D8DA195A58994C4C8D4B9918998010F536368656962653132352E6462660045D4D8DA195A58994D8E4C4DCB8D8E4C4E1D5A4B9918998024190925404950142495018000000000000594090802
 94
        0
  0
ACAD_PROXY_OBJECT
  5
4A4
102
{ACAD_REACTORS
330
4A1
102
}
330
4A1
100
AcDbProxyObject
 90
      499
 91
      509
 95
  4980761
 70
     0
 93
     3056
310
40CBC480200140000010B44494E3933312E626D700041D112538E4CCC4010B5343483933312E64626600904451348090A110A5E090A130A481254D3CD0C0C4D0011753636865696265204120242844292049534F373038390044535D48090A110A481254D3C80D0C0CCC801114D7520242844292044494E203739363700445
310
54B54D8DA195A5899481112538D0CCD00111492D536368656962652044494E34333500458D0C0C4D0B53490A110A56090A130A4B504C8BCD4C0010E373038392D53242844292D413200448D0C0CCC8B5355490A110A4B504C8BCD4C00113373936372D4D55242844292D4653542D5A4E00438D0CCD0B54C90A110A504B54D5
310
00245D4D8DA195A5899481048090A110A481254D3CDCC0E0E4010E373038392D53242844292D413200AA43935D5D1D195C8E4CCD0B99189980243D4D8DA195A58994C4C8D4B9918998010F536368656962653132352E6462660045D4D8DA195A58994D8E4C4DCB8D8E4C4E1D5A4B9918998024090824C04950141C930141E9
310
0840
 94
        0
  0
ACAD_PROXY_OBJECT
  5
4A5
102
{ACAD_REACTORS
330
4A1
102
}
330
4A1
100
AcDbProxyObject
 90
      499
 91
      509
 95
  4980761
 70
     0
 93
     3448
310
40CFC400200140000010B44494E3933332E626D700041D112538E4CCCC010B5343483933332E64626600904451348090A110A5E090A130A481254D3CD0C0C4DC011753636865696265204120242844292049534F373038390044135D48090A110A481254D3CD0C0CCC801114D7520242844292044494E20373936370045D54
310
B54D8DA195A589948090A110A48111253880D0CCD00117492D5363686569626520242844292044494E2034333500460D0C0C4DCB53490A110A56090A130A4B4E0B8E081516938010E373038392D53242844292D413200448D0C0CCC8B5355490A110A4B504C8BCD4C00113373936372D4D55242844292D4653542D5A4E0043
310
8D0CCD0B54C90A110A504B54D50010E3433352D5324284429412D5354004594D8DA195A5899481048090A110A481112538C4C8D4010D3132352D53242844292D413200AA43935D5D1D195C8E4CCD0B99189980119536963686572756E67736D7574746572373936372E6462660043D4D8DA195A58994C4C8D4B9918998010F
310
536368656962653132352E646266004554D8DA195A58994D0CCD0B8D0CCD5D5A4B9918998024150824C04930141C9301A90800
 94
        0
  0
ACAD_PROXY_OBJECT
  5
4AE
102
{ACAD_REACTORS
330
4A1
102
}
330
4A1
100
AcDbProxyObject
 90
      499
 91
      509
 95
  4980761
 70
     0
 93
     2768
310
40DFC1002002C00000114424F4C545354594C45475245454E342E626D700041D112538E4D8D4010B5343483936352E64626600904451348090A110A5E090A130A481254D3CDCC0D0D8011753636865696265204120242844292049534F373038390044135D48090A110A481254D3CD0C0CCC80246154B54D8DA195A5899480
310
90A110A48111253880D8E4C4E00118492D5363686569626520242844292044494E20363931370044CDCC0D0D8B53490A110A5E090A130A535554C010E373038392D53242844292D413200448D0C0CCC8B5355490A110A4B504C8BCD4C002440D8E4C4E0B54C90A110A504B50CD0D40110363931372D5324284429412D43343
310
5004594D8DA195A5899481048090A110A481112538C4C8D4010D3132352D53242844292D413200AA43935D5D1D195C8E4CCD0B99189980243D4D8DA195A58994C4C8D4B991899802A419072480492014250380000000000005940903D6
 94
        0
  0
ACAD_PROXY_OBJECT
  5
4B6
102
{ACAD_REACTORS
330
4A1
102
}
330
4A1
100
AcDbProxyObject
 90
      499
 91
      509
 95
  4980761
 70
     0
 93
     4480
310
40DBC0402003C00000113424F4C545354594C45424C5545312E626D70004391D95DDA5B99195CDD185B99D94010C534348373939302E646266009044951D95DDA5B99195CDD185B99D9481348090A110A5E090A130A48135D481112538DCE4E4C0011753636865696265204120242844292044494E373938390044135D4809
310
0A110A48111253880D4D4D401114D7520242844292044494E20373936370045D54B54D8DA195A589948090A110A48111253880D0CCD00117492D5363686569626520242844292044494E2034333500470DCE4E4C0B53490A110A56090A130A53554C54CB4D0B8D8B5516938010E373938392D53242844292D535400440C8D0
310
C0CCD0B5355490A110A4B4D4B40113373936372D4D55242844292D4653542D5A4E00438D0CCD0B54C90A110A504B54D50010E3433352D5324284429412D53540045D4D8DA195A5899481048090A110A481112538DCE4E0E4010E373938392D53242844292D53540045D54B54D8DA195A589948090A110A48111253880D0CCD
310
00117492D5363686569626520242844292044494E2034333500438D0CCD0B54C90A110A504B54D50010E3433352D5324284429412D53540043935D5D1D195C8D4D4D4B9918998010E4D75747465723535352E646266004414D8DA195A58994DCE4E0E4B9918998011053636865696265373938392E646266004554D8DA195A
310
58994D0CCD0B8D0CCD5D5A4B99189980115536368656962653433342E34333575692E646266004110824C04930141D0741E8930100
 94
        0
  0
ACAD_PROXY_OBJECT
  5
4DA
102
{ACAD_REACTORS
330
4D8
102
}
330
4D8
100
AcDbProxyObject
 90
      499
 91
      511
 95
  4980761
 70
     0
 93
      692
310
40C180002000000000117456C65766174696F6E5374796C65526564322E626D700042511C995A5958DAD9401094472656965636B650090280000000000000C4000000000000003102405034254DD185B99185C99002AA0
 94
        0
  0
ACAD_PROXY_OBJECT
  5
4D9
102
{ACAD_REACTORS
330
4D8
102
}
330
4D8
100
AcDbProxyObject
 90
      499
 91
      511
 95
  4980761
 70
     0
 93
      700
310
40C180002000000000117456C65766174696F6E5374796C65526564312E626D70004254DD185B99185C99001095374616E64617264009024040000000000000C4000000000000003102405034254DD185B99185C99002AA2
 94
        0
  0
ACAD_PROXY_OBJECT
  5
4E9
102
{ACAD_REACTORS
330
4DB
102
}
330
4DB
100
AcDbProxyObject
 90
      499
 91
      512
 95
  4980761
 70
     0
 93
      818
310
40C140002006400000111506F73466C6167426C7565312E626D700042505CDCD95B589B1E40109417373656D626C790040504409018000000000000104000000000000005100FFFF3FFFCFFFF3FFFD0244141BDCDA5D1A5BDB9CD9985A1B995B802AA9022F00A9
 94
        0
  0
ACAD_PROXY_OBJECT
  5
4EA
102
{ACAD_REACTORS
330
4DB
102
}
330
4DB
100
AcDbProxyObject
 90
      499
 91
      512
 95
  4980761
 70
     0
 93
      818
310
40C040002004400000111506F73466C6167426C7565312E626D70004290985D59DC9D5C1C194010A4261756772757070650040504409028000000000000104000000000000005100FFFF3FFFCFFFF3FFFD024254DD185B99185C9900290442472D00A9022F00A9
 94
        0
  0
ACAD_PROXY_OBJECT
  5
4DD
102
{ACAD_REACTORS
330
4DB
102
}
330
4DB
100
AcDbProxyObject
 90
      499
 91
      512
 95
  4980761
 70
     0
 93
      994
310
40C000002006400000111506F73466C6167426C7565312E626D70004510985D59DC9D5C1C195B9A185D5C1D1D195A5B001144261756772757070656E68617570747465696C0040504409028000000000000104000000000000005100FFFF3FFFCFFFF3FFFD0244141BDCDA5D1A5BDB9CD9985A1B995B802AA9022F0080
 94
        0
  0
ACAD_PROXY_OBJECT
  5
4E0
102
{ACAD_REACTORS
330
4DB
102
}
330
4DB
100
AcDbProxyObject
 90
      499
 91
      512
 95
  4980761
 70
     0
 93
      938
310
40C040002006400000111506F73466C6167426C7565312E626D70004510985D59DC9D5C1C195B9B9958995B9D195A5B001144261756772757070656E6E6562656E7465696C0040504409038000000000000104000000000000005100FFFF3FFFCFFFF3FFFD024254DD185B99185C99002AA9022F0080
 94
        0
  0
ACAD_PROXY_OBJECT
  5
4E5
102
{ACAD_REACTORS
330
4DB
102
}
330
4DB
100
AcDbProxyObject
 90
      499
 91
      512
 95
  4980761
 70
     0
 93
      850
310
40C000002006400000110506F73466C6167526564332E626D700043D0985D59DC9D5C1C195B9D195A5B0010F4261756772757070656E7465696C0040504409028000000000000104000000000000005100FFFF3FFFCFFFF3FFFD024254DD185B99185C99002AA9022F00A9
 94
        0
  0
ACAD_PROXY_OBJECT
  5
4E6
102
{ACAD_REACTORS
330
4DB
102
}
330
4DB
100
AcDbProxyObject
 90
      499
 91
      512
 95
  4980761
 70
     0
 93
      922
310
40C040002004000000111506F73466C6167426C7565312E626D7000435091CB7718995C9CDA58DA1D0010D42472DDC62657273696368740040504409038000000000000104000000000000004100FFFF3FFFCFFFF3FFFD0244141BDCDA5D1A5BDB9CD9985A1B995B80290442472D00A9022F00AF
 94
        0
  0
ACAD_PROXY_OBJECT
  5
4E7
102
{ACAD_REACTORS
330
4DB
102
}
330
4DB
100
AcDbProxyObject
 90
      499
 91
      512
 95
  4980761
 70
     0
 93
      794
310
40C000002006400000111506F73466C6167426C7565312E626D700042D15A5B9E995B1D195A5B0010B45696E7A656C7465696C004050440D018000000000000104000000000000005100FFFF3FFFCFFFF3FFFD024254DD185B99185C99002AA9022F0099
 94
        0
  0
ACAD_PROXY_OBJECT
  5
4DC
102
{ACAD_REACTORS
330
4DB
102
}
330
4DB
100
AcDbProxyObject
 90
      499
 91
      512
 95
  4980761
 70
     0
 93
      866
310
40C040002006400000111506F73466C6167426C7565312E626D700043115A5B9E995B1D195A5B194010C45696E7A656C7465696C650040504409018000000000000104000000000000005100FFFF3FFFCFFFF3FFFD0244141BDCDA5D1A5BDB9CD9985A1B995B802AA9022F009A
 94
        0
  0
ACAD_PROXY_OBJECT
  5
4E1
102
{ACAD_REACTORS
330
4DB
102
}
330
4DB
100
AcDbProxyObject
 90
      499
 91
      512
 95
  4980761
 70
     0
 93
      882
310
40C000002004000000111506F73466C6167426C7565312E626D70004352DD5C9E9C1BDCDA5D1A5BDB8010D4B75727A706F736974696F6E0040504409018000000000000104000000000000005100FFFF3FFFCFFFF3FFFD0244141BDCDA5D1A5BDB9CD9985A1B995B802AA9022F009B
 94
        0
  0
ACAD_PROXY_OBJECT
  5
4E3
102
{ACAD_REACTORS
330
4DB
102
}
330
4DB
100
AcDbProxyObject
 90
      499
 91
      512
 95
  4980761
 70
     0
 93
      802
310
40C000002004000000111506F73466C6167426C7565312E626D700042135BDB9D1859D9401084D6F6E746167650040504409048000000000000104000000000000005100FFFF3FFFCFFFF3FFFD0244141BDCDA5D1A5BDB9CD9985A1B995B802AA9022F009A
 94
        0
  0
ACAD_PROXY_OBJECT
  5
4DF
102
{ACAD_REACTORS
330
4DB
102
}
330
4DB
100
AcDbProxyObject
 90
      499
 91
      512
 95
  4980761
 70
     0
 93
      866
310
40C04000200E400000111506F73466C6167426C7565312E626D700043141BDB1E5C1B185D1D195B8010C506F6C79706C617474656E0040504409018000000000000104000000000000005100FFFF3FFFCFFFF3FFFD0244141BDCDA5D1A5BDB9CD9985A1B995B802AA9022F009A
 94
        0
  0
ACAD_PROXY_OBJECT
  5
4E2
102
{ACAD_REACTORS
330
4DB
102
}
330
4DB
100
AcDbProxyObject
 90
      499
 91
      512
 95
  4980761
 70
     0
 93
      810
310
40C000002000400000111506F73466C6167426C7565312E626D70004254D8DA1C985D5899401095363687261756265004050440A8000000000000104000000000000005100FFFF3FFFCFFFF3FFFD0244141BDCDA5D1A5BDB9CD9985A1B995B802AA9022F0082
 94
        0
  0
ACAD_PROXY_OBJECT
  5
4DE
102
{ACAD_REACTORS
330
4DB
102
}
330
4DB
100
AcDbProxyObject
 90
      499
 91
      512
 95
  4980761
 70
     0
 93
      898
310
40C04000200E400000111506F73466C6167426C7565312E626D70004394DBDB99195C9C1C9BD99A5B194010E536F6E64657270726F66696C650040504409018000000000000104000000000000005100FFFF3FFFCFFFF3FFFD0244141BDCDA5D1A5BDB9CD9985A1B995B802AA9022F0086
 94
        0
  0
ACAD_PROXY_OBJECT
  5
4E4
102
{ACAD_REACTORS
330
4DB
102
}
330
4DB
100
AcDbProxyObject
 90
      499
 91
      512
 95
  4980761
 70
     0
 93
      762
310
40C000002006400000111506F73466C6167426C7565312E626D70004254DD185B99185C99001095374616E64617264004050440D018000000000000104000000000000005100FFFF3FFFCFFFF3FFFD024254DD185B99185C99002AA9022F0080
 94
        0
  0
ACAD_PROXY_OBJECT
  5
4E8
102
{ACAD_REACTORS
330
4DB
102
}
330
4DB
100
AcDbProxyObject
 90
      499
 91
      512
 95
  4980761
 70
     0
 93
      834
310
40C140002006400000111506F73466C6167426C7565312E626D70004294DD5891DC9D5C1C194010A5375624772757070650040504409018000000000000104000000000000005100FFFF3FFFCFFFF3FFFD0244141BDCDA5D1A5BDB9CD9985A1B995B802AA9022F0080
 94
        0
  0
ACAD_PROXY_OBJECT
  5
1AD4
102
{ACAD_REACTORS
330
4C8
102
}
330
4C8
100
AcDbProxyObject
 90
      499
 91
      510
 95
  4980761
 70
     0
 93
      854
310
40C00000200002400011377656C647374796C65626C7565312E626D70004212154B53985A1D0010848552D4E616874009034080000000000000C40000000000000031014050440D095374616E6461726400AAA00000000000002102A422AA00000000000002102A406A418
 94
        0
  0
ACAD_PROXY_OBJECT
  5
4CB
102
{ACAD_REACTORS
330
4C8
102
}
330
4C8
100
AcDbProxyObject
 90
      499
 91
      510
 95
  4980761
 70
     0
 93
      854
310
40C00000200002400011377656C647374796C65626C7565312E626D70004212158B53985A1D0010848562D4E616874009034080000000000000C40000000000000031014050440D095374616E6461726400AAA00000000000002102A41AAA00000000000002102A406A41A
 94
        0
  0
ACAD_PROXY_OBJECT
  5
4CC
102
{ACAD_REACTORS
330
4C8
102
}
330
4C8
100
AcDbProxyObject
 90
      499
 91
      510
 95
  4980761
 70
     0
 93
     1518
310
40C000002000024000166633A5C70726F6772616D6D655C6B69776920736F66747761726520676D62685C70726F737465656C2033645C7231372E315C6175746F63616420323030365C7374696C655C73636877656973737374696C655C77656C647374796C65626C7565312E626D70004212164B53985A1D0010848592D4E
310
616874009034080000000000000C40000000000000031014050440D095374616E6461726400AAA00000000000002102A41EAA00000000000002102A406A41B
 94
        0
  0
ACAD_PROXY_OBJECT
  5
4CD
102
{ACAD_REACTORS
330
4C8
102
}
330
4C8
100
AcDbProxyObject
 90
      499
 91
      510
 95
  4980761
 70
     0
 93
      838
310
40C00000200002400011377656C647374796C65626C7565312E626D700041D24B53985A1D00107492D4E616874009034080000000000000C400000000000000310140503411095374616E6461726400AAA00000000000002102A416AA00000000000002102A406A41A
 94
        0
  0
ACAD_PROXY_OBJECT
  5
1AD5
102
{ACAD_REACTORS
330
4C8
102
}
330
4C8
100
AcDbProxyObject
 90
      499
 91
      510
 95
  4980761
 70
     0
 93
      838
310
40C00000200002424011377656C647374796C65626C7565312E626D700041D2CB53985A1D001074B2D4E616874009034080000000000000C400000000000000310140503411095374616E6461726400AAA00000000000002102A41AAA00000000000002102A41AA41B
 94
        0
  0
ACAD_PROXY_OBJECT
  5
4CE
102
{ACAD_REACTORS
330
4C8
102
}
330
4C8
100
AcDbProxyObject
 90
      499
 91
      510
 95
  4980761
 70
     0
 93
      870
310
40C00000201002424011357656C645374796C65426C7565312E626D70004252D95A1B080CDB5B401094B65686C20336D6D009034080000000000000C400000000000000310140503411095374616E6461726400AAA00000000000002102A406AA00000000000002102A406A41A
 94
        0
  0
ACAD_PROXY_OBJECT
  5
4CF
102
{ACAD_REACTORS
330
4C8
102
}
330
4C8
100
AcDbProxyObject
 90
      499
 91
      510
 95
  4980761
 70
     0
 93
      870
310
40C00000201002424011357656C645374796C65426C7565312E626D70004252D95A1B080D1B5B401094B65686C20346D6D009034080000000000000C40000000000000031014050440D095374616E6461726400AAA00000000000004102A406AA00000000000004102A406A418
 94
        0
  0
ACAD_PROXY_OBJECT
  5
4D0
102
{ACAD_REACTORS
330
4C8
102
}
330
4C8
100
AcDbProxyObject
 90
      499
 91
      510
 95
  4980761
 70
     0
 93
      870
310
40C00000201002424011357656C645374796C65426C7565312E626D70004252D95A1B080D5B5B401094B65686C20356D6D009034080000000000000C400000000000000310140503411095374616E6461726400AAA00000000000005102A406AA00000000000005102A406A41A
 94
        0
  0
ACAD_PROXY_OBJECT
  5
1AD6
102
{ACAD_REACTORS
330
4C8
102
}
330
4C8
100
AcDbProxyObject
 90
      499
 91
      510
 95
  4980761
 70
     0
 93
      886
310
40C00000200002400011377656C647374796C65626C7565312E626D70004292D95A1B0B53985A1D0010A4B65686C2D4E616874009034080000000000000C400000000000000310140503411095374616E6461726400AAA00000000000002102A406AA00000000000002102A406A418
 94
        0
  0
ACAD_PROXY_OBJECT
  5
4C9
102
{ACAD_REACTORS
330
4C8
102
}
330
4C8
100
AcDbProxyObject
 90
      499
 91
      510
 95
  4980761
 70
     0
 93
      870
310
40C00000200042400011377656C647374796C65626C7565312E626D70004252D95A1B1B985A1D001094B65686C6E616874009034080000000000000C40000000000000031014050440D095374616E6461726400AAA00000000000004102A406AA00000000000002102A406A418
 94
        0
  0
ACAD_PROXY_OBJECT
  5
4D1
102
{ACAD_REACTORS
330
4C8
102
}
330
4C8
100
AcDbProxyObject
 90
      499
 91
      510
 95
  4980761
 70
     0
 93
      918
310
40C00000200002400011377656C647374796C65626C7565312E626D700043131A5B9A595B8B53985A1D0010C4C696E69656E2D4E616874009034080000000000000C400000000000000310140503411095374616E6461726400AAA00000000000002102A432AA00000000000002102A406A41B
 94
        0
  0
ACAD_PROXY_OBJECT
  5
4D2
102
{ACAD_REACTORS
330
4C8
102
}
330
4C8
100
AcDbProxyObject
 90
      499
 91
      510
 95
  4980761
 70
     0
 93
      886
310
40C00000200002400011377656C647374796C65626C7565312E626D700042931BD8DA0B53985A1D0010A4C6F63682D4E616874009034080000000000000C400000000000000310140503411095374616E6461726400AAA00000000000002102A42AAA00000000000002102A406A41A
 94
        0
  0
ACAD_PROXY_OBJECT
  5
4D3
102
{ACAD_REACTORS
330
4C8
102
}
330
4C8
100
AcDbProxyObject
 90
      499
 91
      510
 95
  4980761
 70
     0
 93
      902
310
40C00000200002400011377656C647374796C65626C7565312E626D700042D41D5B9ADD0B53985A1D0010B50756E6B742D4E616874009034080000000000000C40000000000000031014050440D095374616E6461726400AAA00000000000002102A42EAA00000000000002102A406A418
 94
        0
  0
ACAD_PROXY_OBJECT
  5
4D4
102
{ACAD_REACTORS
330
4C8
102
}
330
4C8
100
AcDbProxyObject
 90
      499
 91
      510
 95
  4980761
 70
     0
 93
      870
310
40C00000201002424011357656C645374796C65426C7565312E626D70004254DD185B99185C99001095374616E64617264009034080000000000000C40000000000000031014050440D095374616E6461726400AAA00000000000002102A406AA00000000000002102A406A41A
 94
        0
  0
ACAD_PROXY_OBJECT
  5
4D5
102
{ACAD_REACTORS
330
4C8
102
}
330
4C8
100
AcDbProxyObject
 90
      499
 91
      510
 95
  4980761
 70
     0
 93
      854
310
40C00000200002400011377656C647374796C65626C7565312E626D700042154B4813985A1D00108552D204E616874009034080000000000000C400000000000000310140503411095374616E6461726400AAA00000000000002102A412AA00000000000002102A406A418
 94
        0
  0
ACAD_PROXY_OBJECT
  5
4CA
102
{ACAD_REACTORS
330
4C8
102
}
330
4C8
100
AcDbProxyObject
 90
      499
 91
      510
 95
  4980761
 70
     0
 93
      854
310
40C000002000C2400011477656C647374796C65677265656E312E626D700041D58B53985A1D00107562D4E616874009034080000000000000C400000000000000310140503411095374616E6461726400AAA00000000000005102A40901AA00000000000002102A406A41A
 94
        0
  0
ACAD_PROXY_OBJECT
  5
4D6
102
{ACAD_REACTORS
330
4C8
102
}
330
4C8
100
AcDbProxyObject
 90
      499
 91
      510
 95
  4980761
 70
     0
 93
      838
310
40C00000200002424011377656C647374796C65626C7565312E626D700041D60B53985A1D00107582D4E616874009034080000000000000C40000000000000031014050440D095374616E6461726400AAA00000000000002102A40AAA00000000000002102A40AA41A
 94
        0
  0
ACAD_PROXY_OBJECT
  5
4D7
102
{ACAD_REACTORS
330
4C8
102
}
330
4C8
100
AcDbProxyObject
 90
      499
 91
      510
 95
  4980761
 70
     0
 93
      838
310
40C00000200002400011377656C647374796C65626C7565312E626D700041D64B53985A1D00107592D4E616874009034080000000000000C400000000000000310140503411095374616E6461726400AAA00000000000002102A40EAA00000000000002102A406A41A
 94
        0
  0
XRECORD
  5
4ED
102
{ACAD_REACTORS
330
4EC
102
}
330
4EC
100
AcDbXrecord
280
     1
 70
     1
  0
XRECORD
  5
891
102
{ACAD_REACTORS
330
4EC
102
}
330
4EC
100
AcDbXrecord
280
     1
 70
     1
  1

 70
     0
  1

 70
     0
  1

 70
     0
  1

 70
     0
  1

 70
     0
  1

 70
     0
  1

 70
     0
  1

 70
     0
  1

 70
     0
  1

 70
     0
  1

 70
     0
  1

 70
     0
  1

 70
     0
  1

 70
     0
  1

 70
     0
  1

 70
     0
  1

 70
     0
  1

 70
     0
  1

 70
     0
  1

 70
     0
  1

 70
     0
  1

 70
     0
  1

 70
     0
  1

 70
     0
  1

 70
     0
  1

 70
     0
  1

 70
     0
  1

 70
     0
  1

 70
     0
  1

 70
     0
  1

 70
     0
  1

 70
     0
  1

 70
     0
  1

 70
     0
  1

 70
     0
  1

 70
     0
  1

 70
     0
  1

 70
     0
  1

 70
     0
  1

 70
     0
  1

 70
     0
  1

 70
     0
  1

 70
     0
  1

 70
     0
  1

 70
     0
  1

 70
     0
  1

 70
     0
  1

 70
     0
  1

 70
     0
  1

 70
     0
  1

 70
     0
  1

 70
     0
  1

 70
     0
  1

 70
     0
  1

 70
     0
  1

 70
     0
  1

 70
     0
  1

 70
     0
  1

 70
     0
  1

 70
     0
  1

 70
     0
  1

 70
     0
  1

 70
     0
  1

 70
     0
  1

 70
     0
  1

 70
     0
  1

 70
     0
  1

 70
     0
  1

 70
     0
  1

 70
     0
  1

 70
     0
  1

 70
     0
  1

 70
     0
  1

 70
     0
  1

 70
     0
  1

 70
     0
  1

 70
     0
  1

 70
     0
  1

 70
     0
  1

 70
     0
  1

 70
     0
  1

 70
     0
  1

 70
     0
  1

 70
     0
  1

 70
     0
  1

 70
     0
  1

 70
     0
  1

 70
     0
  1

 70
     0
  1

 70
     0
  1

 70
     0
  1

 70
     0
  1

 70
     0
  1

 70
     0
  1

 70
     0
  1

 70
     0
  1

 70
     0
  1

 70
     0
  1

 70
     0
  1

 70
     0
  1

 70
     0
  1

 70
     0
  1

 70
     0
  1

 70
     0
  1

 70
     0
  1

 70
     0
  1

 70
     0
  1

 70
     0
  1

 70
     0
  1

 70
     0
  1

 70
     0
  1

 70
     0
  1

 70
     0
  1

 70
     0
  1

 70
     0
  1

 70
     0
  1

 70
     0
  1

 70
     0
  1

 70
     0
  1

 70
     0
  1

 70
     0
  1

 70
     0
  1

 70
     0
  1

 70
     0
  1

 70
     0
  1

 70
     0
  1

 70
     0
  1

 70
     0
  0
XRECORD
  5
892
102
{ACAD_REACTORS
330
4EC
102
}
330
4EC
100
AcDbXrecord
280
     1
 70
     2
 70
   256
  1

 70
     0
  1

 70
     0
  1

 70
     0
  1

 70
     0
  1

 70
     0
  1

 70
     0
  1

 70
     0
  1

 70
     0
  1

 70
     0
  1

 70
     0
  1

 70
     0
  1

 70
     0
  1

 70
     0
  1

 70
     0
  1

 70
     0
  1

 70
     0
  1

 70
     0
  1

 70
     0
  1

 70
     0
  1

 70
     0
  1

 70
     0
  1

 70
     0
  1

 70
     0
  1

 70
     0
  1

 70
     0
  1

 70
     0
  1

 70
     0
  1

 70
     0
  1

 70
     0
  1

 70
     0
  1

 70
     0
  1

 70
     0
  1

 70
     0
  1

 70
     0
  1

 70
     0
  1

 70
     0
  1

 70
     0
  1

 70
     0
  1

 70
     0
  1

 70
     0
  1

 70
     0
  1

 70
     0
  1

 70
     0
  1

 70
     0
  1

 70
     0
  1

 70
     0
  1

 70
     0
  1

 70
     0
  1

 70
     0
  1

 70
     0
  1

 70
     0
  1

 70
     0
  1

 70
     0
  1

 70
     0
  1

 70
     0
  1

 70
     0
  1

 70
     0
  1

 70
     0
  1

 70
     0
  1

 70
     0
  1

 70
     0
  1

 70
     0
  1

 70
     0
  1

 70
     0
  1

 70
     0
  1

 70
     0
  1

 70
     0
  1

 70
     0
  1

 70
     0
  1

 70
     0
  1

 70
     0
  1

 70
     0
  1

 70
     0
  1

 70
     0
  1

 70
     0
  1

 70
     0
  1

 70
     0
  1

 70
     0
  1

 70
     0
  1

 70
     0
  1

 70
     0
  1

 70
     0
  1

 70
     0
  1

 70
     0
  1

 70
     0
  1

 70
     0
  1

 70
     0
  1

 70
     0
  1

 70
     0
  1

 70
     0
  1

 70
     0
  1

 70
     0
  1

 70
     0
  1

 70
     0
  1

 70
     0
  1

 70
     0
  1

 70
     0
  1

 70
     0
  1

 70
     0
  1

 70
     0
  1

 70
     0
  1

 70
     0
  1

 70
     0
  1

 70
     0
  1

 70
     0
  1

 70
     0
  1

 70
     0
  1

 70
     0
  1

 70
     0
  1

 70
     0
  1

 70
     0
  1

 70
     0
  1

 70
     0
  1

 70
     0
  1

 70
     0
  1

 70
     0
  1

 70
     0
  1

 70
     0
  1

 70
     0
  1

 70
     0
  1

 70
     0
  1

 70
     0
  1

 70
     0
  1

 70
     0
  1

 70
     0
  1

 70
     0
  1

 70
     0
  1

 70
     0
  1

 70
     0
  1

 70
     0
  1

 70
     0
  1

 70
     0
  1

 70
     0
  1

 70
     0
  1

 70
     0
  1

 70
     0
  1

 70
     0
  1

 70
     0
  1

 70
     0
  1

 70
     0
  1

 70
     0
  1

 70
     0
  1

 70
     0
  1

 70
     0
  1

 70
     0
  1

 70
     0
  1

 70
     0
  1

 70
     0
  1

 70
     0
  1

 70
     0
  1

 70
     0
  1

 70
     0
  1

 70
     0
  1

 70
     0
  1

 70
     0
  1

 70
     0
  1

 70
     0
  1

 70
     0
  1

 70
     0
  1

 70
     0
  1

 70
     0
  1

 70
     0
  1

 70
     0
  1

 70
     0
  1

 70
     0
  1

 70
     0
  1

 70
     0
  1

 70
     0
  1

 70
     0
  1

 70
     0
  1

 70
     0
  1

 70
     0
  1

 70
     0
  1

 70
     0
  1

 70
     0
  1

 70
     0
  1

 70
     0
  1

 70
     0
  1

 70
     0
  1

 70
     0
  1

 70
     0
  1

 70
     0
  1

 70
     0
  1

 70
     0
  1

 70
     0
  1

 70
     0
  1

 70
     0
  1

 70
     0
  1

 70
     0
  1

 70
     0
  1

 70
     0
  1

 70
     0
  1

 70
     0
  1

 70
     0
  1

 70
     0
  1

 70
     0
  1

 70
     0
  1

 70
     0
  1

 70
     0
  1

 70
     0
  1

 70
     0
  1

 70
     0
  1

 70
     0
  1

 70
     0
  1

 70
     0
  1

 70
     0
  1

 70
     0
  1

 70
     0
  1

 70
     0
  1

 70
     0
  1

 70
     0
  1

 70
     0
  1

 70
     0
  1

 70
     0
  1

 70
     0
  1

 70
     0
  1

 70
     0
  1

 70
     0
  1

 70
     0
  1

 70
     0
  1

 70
     0
  1

 70
     0
  1

 70
     0
  1

 70
     0
  1

 70
     0
  1

 70
     0
  1

 70
     0
  1

 70
     0
  1

 70
     0
  1

 70
     0
  1

 70
     0
  1

 70
     0
  1

 70
     0
  1

 70
     0
  1

 70
     0
  1

 70
     0
  1

 70
     0
  1

 70
     0
  1

 70
     0
  1

 70
     0
  1

 70
     0
  1

 70
     0
  1

 70
     0
  1

 70
     0
  1

 70
     0
  1

 70
     0
  1

 70
     0
  1

 70
     0
  1

 70
     0
  1

 70
     0
  1

 70
     0
  1

 70
     0
  1

 70
     0
  1

 70
     0
  1

 70
     0
  1

 70
     0
  0
XRECORD
  5
522
102
{ACAD_REACTORS
330
4EC
102
}
330
4EC
100
AcDbXrecord
280
     1
 90
1393298577
 90
     3615
 90
       51
 90
       52
 90
        3
 90
      256
  1
Standard
  1
Standard
  1

  1

140
0.0
140
0.0
140
0.0
140
0.0
 70
    31
 70
     9
 70
    23
 70
    63
 70
    31
 70
     1
 70
     1
 70
     2
 70
     2
 70
     7
 70
     2
 70
     1
 70
     1
 70
     1
 70
     1
 70
     1
 70
     1
 70
     0
 70
     1
140
0.000001
140
1.0
 70
     1
140
1.0
140
1.0
140
1.0
140
100.0
140
50.0
140
0.0
 70
     8
 70
   210
 70
     1
 70
     1
140
250.0
140
5.0
 70
     5
 70
     2
 70
     1
 70
     4
 70
     3
 70
     2
 70
     2
 70
     3
 70
     2
 70
    80
 70
     1
140
5.0
140
1.0
 70
     1
 70
     0
 70
     0
140
5.0
140
1.0
 70
     1
 70
     0
 70
     0
 70
     0
 70
     0
140
25.0
  1

  1
$(N) $(L)x$(W)x$(T)
 70
     1
 70
     0
  1
$(N) $(T)x$(W)
 70
     1
 70
     0
140
2.0
  1
$(N) $(T)x$(W)
 70
     0
 70
     0
 70
     0
 70
     0
 70
     0
 70
     5
 70
     1
 70
     7
 70
     2
 70
     0
 70
     1
 70
     0
 70
     0
 70
     1
 70
     1
 70
     4
 70
     7
 70
     1
 70
     1
 70
     2
 70
     8
 70
     2
 70
     1
 70
     7
 70
     0
 70
     0
140
10.0
140
0.0
140
10.0
140
0.2
140
0.0
140
0.0
140
1.0
140
500.0
140
7865.0
140
0.0
  1
RD $(D)
  1
RO $(D)x$(T)
  1
RQ $(D)x$(T)
  1
RR $(W)x$(H)x$(T)
  1
4KT $(D)
  1
BLECH $(W)x$(H)
 70
     0
 70
    -1
 70
    -1
 70
    -1
 70
  1025
 70
  1025
 70
  1025
 70
  1025
 70
  1025
 70
     3
 70
     1
 70
     1
 70
     0
 70
     0
 70
     0
 70
     0
 70
     0
 70
     0
 70
     0
 70
     0
 70
     0
 70
     0
 70
     0
 70
     0
 70
     0
 70
     0
 70
     0
 70
     0
 70
     0
 70
     0
 70
     0
 70
     0
 70
     0
 70
     0
 70
     0
 70
     0
 70
    34
 70
    34
 70
   100
 70
  6000
 70
     0
 70
   253
 70
   253
 70
   253
 90
        4
 70
     0
 70
     1
 70
     1
 70
     0
 70
     0
 70
     0
 70
     0
 70
     0
 90
       56
140
3.149999999999999
140
1.0
140
1.0
 70
     0
 70
     0
 70
     0
 70
     1
 70
     2
 70
    11
 70
    17
 70
    12
 70
   256
 70
   256
 70
   128
 90
        1
140
200.0
  1

  1

  1

  1

  1

  1

  0
XRECORD
  5
489
102
{ACAD_REACTORS
330
488
102
}
330
488
100
AcDbXrecord
280
     1
  1
13.20.0307
  1
2:2:2011 by PS 18.0
  0
DICTIONARY
  5
471
330
470
100
AcDbDictionary
280
     1
281
     1
  3
ACAD_XREC_ROUNDTRIP
360
2288
  3
BUMPTILE
360
473
  3
DIFFUSETILE
360
472
  3
OPACITYTILE
360
476
  3
REFLECTIONTILE
360
475
  3
REFRACTIONTILE
360
477
  3
SPECULARTILE
360
474
  0
DICTIONARY
  5
469
330
468
100
AcDbDictionary
280
     1
281
     1
  3
ACAD_XREC_ROUNDTRIP
360
2287
  3
BUMPTILE
360
46B
  3
DIFFUSETILE
360
46A
  3
OPACITYTILE
360
46E
  3
REFLECTIONTILE
360
46D
  3
REFRACTIONTILE
360
46F
  3
SPECULARTILE
360
46C
  0
DICTIONARY
  5
479
330
478
100
AcDbDictionary
280
     1
281
     1
  3
ACAD_XREC_ROUNDTRIP
360
2289
  3
BUMPTILE
360
47B
  3
DIFFUSETILE
360
47A
  3
OPACITYTILE
360
47E
  3
REFLECTIONTILE
360
47D
  3
REFRACTIONTILE
360
47F
  3
SPECULARTILE
360
47C
  0
DICTIONARY
  5
523
330
482
100
AcDbDictionary
280
     1
281
     1
  3
ACAD_ROUNDTRIP_2008_TABLESTYLE_CELLSTYLEMAP
360
2285
  3
ACAD_XREC_ROUNDTRIP
360
228A
  0
XRECORD
  5
2288
102
{ACAD_REACTORS
330
471
102
}
330
471
100
AcDbXrecord
280
     1
102
MATERIAL
148
0.0
149
0.0
149
0.0
 93
        0
 94
      127
282
     0
 72
     0
 77
     0
171
     0
175
     0
179
     0
273
     0
  0
XRECORD
  5
473
102
{ACAD_REACTORS
330
471
102
}
330
471
100
AcDbXrecord
280
     1
270
     1
271
     1
  0
XRECORD
  5
472
102
{ACAD_REACTORS
330
471
102
}
330
471
100
AcDbXrecord
280
     1
270
     1
271
     1
  0
XRECORD
  5
476
102
{ACAD_REACTORS
330
471
102
}
330
471
100
AcDbXrecord
280
     1
270
     1
271
     1
  0
XRECORD
  5
475
102
{ACAD_REACTORS
330
471
102
}
330
471
100
AcDbXrecord
280
     1
270
     1
271
     1
  0
XRECORD
  5
477
102
{ACAD_REACTORS
330
471
102
}
330
471
100
AcDbXrecord
280
     1
270
     1
271
     1
  0
XRECORD
  5
474
102
{ACAD_REACTORS
330
471
102
}
330
471
100
AcDbXrecord
280
     1
270
     1
271
     1
  0
XRECORD
  5
2287
102
{ACAD_REACTORS
330
469
102
}
330
469
100
AcDbXrecord
280
     1
102
MATERIAL
148
0.0
149
0.0
149
0.0
 93
        0
 94
      127
282
     0
 72
     0
 77
     0
171
     0
175
     0
179
     0
273
     0
  0
XRECORD
  5
46B
102
{ACAD_REACTORS
330
469
102
}
330
469
100
AcDbXrecord
280
     1
270
     1
271
     1
  0
XRECORD
  5
46A
102
{ACAD_REACTORS
330
469
102
}
330
469
100
AcDbXrecord
280
     1
270
     1
271
     1
  0
XRECORD
  5
46E
102
{ACAD_REACTORS
330
469
102
}
330
469
100
AcDbXrecord
280
     1
270
     1
271
     1
  0
XRECORD
  5
46D
102
{ACAD_REACTORS
330
469
102
}
330
469
100
AcDbXrecord
280
     1
270
     1
271
     1
  0
XRECORD
  5
46F
102
{ACAD_REACTORS
330
469
102
}
330
469
100
AcDbXrecord
280
     1
270
     1
271
     1
  0
XRECORD
  5
46C
102
{ACAD_REACTORS
330
469
102
}
330
469
100
AcDbXrecord
280
     1
270
     1
271
     1
  0
XRECORD
  5
2289
102
{ACAD_REACTORS
330
479
102
}
330
479
100
AcDbXrecord
280
     1
102
MATERIAL
148
0.0
149
0.0
149
0.0
 93
        0
 94
      127
282
     0
 72
     0
 77
     0
171
     0
175
     0
179
     0
273
     0
  0
XRECORD
  5
47B
102
{ACAD_REACTORS
330
479
102
}
330
479
100
AcDbXrecord
280
     1
270
     1
271
     1
  0
XRECORD
  5
47A
102
{ACAD_REACTORS
330
479
102
}
330
479
100
AcDbXrecord
280
     1
270
     1
271
     1
  0
XRECORD
  5
47E
102
{ACAD_REACTORS
330
479
102
}
330
479
100
AcDbXrecord
280
     1
270
     1
271
     1
  0
XRECORD
  5
47D
102
{ACAD_REACTORS
330
479
102
}
330
479
100
AcDbXrecord
280
     1
270
     1
271
     1
  0
XRECORD
  5
47F
102
{ACAD_REACTORS
330
479
102
}
330
479
100
AcDbXrecord
280
     1
270
     1
271
     1
  0
XRECORD
  5
47C
102
{ACAD_REACTORS
330
479
102
}
330
479
100
AcDbXrecord
280
     1
270
     1
271
     1
  0
ACAD_PROXY_OBJECT
  5
2285
102
{ACAD_REACTORS
330
523
102
}
330
523
100
AcDbProxyObject
 90
      499
 91
      513
 95
  4980761
 70
     0
 93
     5304
310
40D054060020000020000003200101A000080002A5058000000C10000000000000006101010000000000003E0FC000000000000F83F0000000000003E0FC000000000000F83F000000000000049000000000000001240419019018000000C1003FBFFFFFE0000000000003C8FD029018000000C1003FBFFFFFE00000000000
310
03C8FD049018000000C1003FBFFFFFE0000000000003C8FD089018000000C1003FBFFFFFE0000000000003C8FD109018000000C1003FBFFFFFE0000000000003C8FD209018000000C1003FBFFFFFE0000000000003C8FD01405075F5449544C450041501A8000000C800406800020000A94160000003040000000000000012
310
40404000000000000F83F0000000000003E0FC000000000000F83F0000000000003E0FC0000000000001240000000000000049010640640600000030400FEFFFFFF8000000000000F23F40A40600000030400FEFFFFFF8000000000000F23F41240600000030400FEFFFFFF8000000000000F23F42240600000030400FEFFF
310
FFF8000000000000F23F44240600000030400FEFFFFFF8000000000000F23F48240600000030400FEFFFFFF8000000000000F23F409014217D2115051115480105406A0000003200101A000080002A5028000000C10000000000000004901010000000000003E0FC000000000000F83F0000000000003E0FC000000000000F
310
83F000000000000049000000000000001240419019018000000C1003FBFFFFFE0000000000003C8FD029018000000C1003FBFFFFFE0000000000003C8FD049018000000C1003FBFFFFFE0000000000003C8FD089018000000C1003FBFFFFFE0000000000003C8FD109018000000C1003FBFFFFFE0000000000003C8FD20901
310
8000000C1003FBFFFFFE0000000000003C8FD03409065F444154410000
340
11
340
0
340
0
340
0
340
0
340
0
340
0
340
11
340
0
340
0
340
0
340
0
340
0
340
0
340
11
340
0
340
0
340
0
340
0
340
0
340
0
 94
        0
  0
XRECORD
  5
228A
102
{ACAD_REACTORS
330
523
102
}
330
523
100
AcDbXrecord
280
     1
102
ACAD_ROUNDTRIP_PRE2007_TABLESTYLE
 90
      512
 91
        0
  1

 92
      512
 93
        0
  2

 94
      512
 95
        0
  3

  0
ENDSEC
  0
EOF
