  0
SECTION
  2
HEADER
  9
$ACADVER
  1
AC1018
  9
$ACADMAINTVER
 70
    76
  9
$DWGCODEPAGE
  3
ANSI_1252
  9
$LASTSAVEDBY
  1
Schatterny
  9
$INSBASE
 10
0.0
 20
0.0
 30
0.0
  9
$EXTMIN
 10
1575.096545465778
 20
-24415.51444333654
 30
-275.0462902377685
  9
$EXTMAX
 10
5151.64570969297
 20
-21892.90587551505
 30
1100.05930084932
  9
$LIMMIN
 10
0.0
 20
0.0
  9
$LIMMAX
 10
420.0
 20
297.0
  9
$ORTHOMODE
 70
     1
  9
$REGENMODE
 70
     1
  9
$FILLMODE
 70
     1
  9
$QTEXTMODE
 70
     0
  9
$MIRRTEXT
 70
     1
  9
$LTSCALE
 40
1.0
  9
$ATTMODE
 70
     1
  9
$TEXTSIZE
 40
2.5
  9
$TRACEWID
 40
1.0
  9
$TEXTSTYLE
  7
Standard
  9
$CLAYER
  8
-TEXT3
  9
$CELTYPE
  6
ByLayer
  9
$CECOLOR
 62
   256
  9
$CELTSCALE
 40
1.0
  9
$DISPSILH
 70
     0
  9
$DIMSCALE
 40
3.5
  9
$DIMASZ
 40
8.0
  9
$DIMEXO
 40
3.0
  9
$DIMDLI
 40
10.0
  9
$DIMRND
 40
0.0
  9
$DIMDLE
 40
0.0
  9
$DIMEXE
 40
1.0
  9
$DIMTP
 40
0.0
  9
$DIMTM
 40
0.5
  9
$DIMTXT
 40
8.0
  9
$DIMCEN
 40
0.09
  9
$DIMTSZ
 40
0.0
  9
$DIMTOL
 70
     0
  9
$DIMLIM
 70
     0
  9
$DIMTIH
 70
     0
  9
$DIMTOH
 70
     0
  9
$DIMSE1
 70
     0
  9
$DIMSE2
 70
     0
  9
$DIMTAD
 70
     1
  9
$DIMZIN
 70
     9
  9
$DIMBLK
  1

  9
$DIMASO
 70
     1
  9
$DIMSHO
 70
     1
  9
$DIMPOST
  1

  9
$DIMAPOST
  1

  9
$DIMALT
 70
     0
  9
$DIMALTD
 70
     2
  9
$DIMALTF
 40
25.4
  9
$DIMLFAC
 40
1.0
  9
$DIMTOFL
 70
     1
  9
$DIMTVP
 40
0.0
  9
$DIMTIX
 70
     0
  9
$DIMSOXD
 70
     0
  9
$DIMSAH
 70
     0
  9
$DIMBLK1
  1

  9
$DIMBLK2
  1

  9
$DIMSTYLE
  2
Kopie von 1-1
  9
$DIMCLRD
 70
   256
  9
$DIMCLRE
 70
   256
  9
$DIMCLRT
 70
   256
  9
$DIMTFAC
 40
0.75
  9
$DIMGAP
 40
3.0
  9
$DIMJUST
 70
     0
  9
$DIMSD1
 70
     0
  9
$DIMSD2
 70
     0
  9
$DIMTOLJ
 70
     0
  9
$DIMTZIN
 70
     0
  9
$DIMALTZ
 70
     0
  9
$DIMALTTZ
 70
     0
  9
$DIMUPT
 70
     0
  9
$DIMDEC
 70
     0
  9
$DIMTDEC
 70
     0
  9
$DIMALTU
 70
     2
  9
$DIMALTTD
 70
     2
  9
$DIMTXSTY
  7
Standard
  9
$DIMAUNIT
 70
     0
  9
$DIMADEC
 70
     0
  9
$DIMALTRND
 40
0.0
  9
$DIMAZIN
 70
     0
  9
$DIMDSEP
 70
    46
  9
$DIMATFIT
 70
     3
  9
$DIMFRAC
 70
     0
  9
$DIMLDRBLK
  1

  9
$DIMLUNIT
 70
     2
  9
$DIMLWD
 70
    -2
  9
$DIMLWE
 70
    -2
  9
$DIMTMOVE
 70
     0
  9
$LUNITS
 70
     2
  9
$LUPREC
 70
     4
  9
$SKETCHINC
 40
1.0
  9
$FILLETRAD
 40
0.0
  9
$AUNITS
 70
     0
  9
$AUPREC
 70
     0
  9
$MENU
  1
.
  9
$ELEVATION
 40
0.0
  9
$PELEVATION
 40
0.0
  9
$THICKNESS
 40
0.0
  9
$LIMCHECK
 70
     0
  9
$CHAMFERA
 40
10.0
  9
$CHAMFERB
 40
10.0
  9
$CHAMFERC
 40
20.0
  9
$CHAMFERD
 40
0.0
  9
$SKPOLY
 70
     0
  9
$TDCREATE
 40
2455581.417946968
  9
$TDUCREATE
 40
2455581.376280301
  9
$TDUPDATE
 40
2457696.687724456
  9
$TDUUPDATE
 40
2457696.646057789
  9
$TDINDWG
 40
9.1060456481
  9
$TDUSRTIMER
 40
9.1060456481
  9
$USRTIMER
 70
     1
  9
$ANGBASE
 50
0.0
  9
$ANGDIR
 70
     0
  9
$PDMODE
 70
     0
  9
$PDSIZE
 40
0.0
  9
$PLINEWID
 40
0.0
  9
$SPLFRAME
 70
     0
  9
$SPLINETYPE
 70
     6
  9
$SPLINESEGS
 70
     8
  9
$HANDSEED
  5
19664
  9
$SURFTAB1
 70
     6
  9
$SURFTAB2
 70
     6
  9
$SURFTYPE
 70
     6
  9
$SURFU
 70
     6
  9
$SURFV
 70
     6
  9
$UCSBASE
  2

  9
$UCSNAME
  2

  9
$UCSORG
 10
0.0
 20
0.0
 30
0.0
  9
$UCSXDIR
 10
1.0
 20
0.0
 30
0.0
  9
$UCSYDIR
 10
0.0
 20
1.0
 30
0.0
  9
$UCSORTHOREF
  2

  9
$UCSORTHOVIEW
 70
     0
  9
$UCSORGTOP
 10
0.0
 20
0.0
 30
0.0
  9
$UCSORGBOTTOM
 10
0.0
 20
0.0
 30
0.0
  9
$UCSORGLEFT
 10
0.0
 20
0.0
 30
0.0
  9
$UCSORGRIGHT
 10
0.0
 20
0.0
 30
0.0
  9
$UCSORGFRONT
 10
0.0
 20
0.0
 30
0.0
  9
$UCSORGBACK
 10
0.0
 20
0.0
 30
0.0
  9
$PUCSBASE
  2

  9
$PUCSNAME
  2

  9
$PUCSORG
 10
0.0
 20
0.0
 30
0.0
  9
$PUCSXDIR
 10
1.0
 20
0.0
 30
0.0
  9
$PUCSYDIR
 10
0.0
 20
1.0
 30
0.0
  9
$PUCSORTHOREF
  2

  9
$PUCSORTHOVIEW
 70
     0
  9
$PUCSORGTOP
 10
0.0
 20
0.0
 30
0.0
  9
$PUCSORGBOTTOM
 10
0.0
 20
0.0
 30
0.0
  9
$PUCSORGLEFT
 10
0.0
 20
0.0
 30
0.0
  9
$PUCSORGRIGHT
 10
0.0
 20
0.0
 30
0.0
  9
$PUCSORGFRONT
 10
0.0
 20
0.0
 30
0.0
  9
$PUCSORGBACK
 10
0.0
 20
0.0
 30
0.0
  9
$USERI1
 70
     0
  9
$USERI2
 70
     0
  9
$USERI3
 70
     0
  9
$USERI4
 70
     0
  9
$USERI5
 70
     0
  9
$USERR1
 40
0.0
  9
$USERR2
 40
0.0
  9
$USERR3
 40
0.0
  9
$USERR4
 40
0.0
  9
$USERR5
 40
0.0
  9
$WORLDVIEW
 70
     0
  9
$SHADEDGE
 70
     3
  9
$SHADEDIF
 70
    70
  9
$TILEMODE
 70
     1
  9
$MAXACTVP
 70
    64
  9
$PINSBASE
 10
0.0
 20
0.0
 30
0.0
  9
$PLIMCHECK
 70
     0
  9
$PEXTMIN
 10
0.0
 20
0.0
 30
0.0
  9
$PEXTMAX
 10
420.0
 20
297.0
 30
0.0
  9
$PLIMMIN
 10
0.0
 20
0.0
  9
$PLIMMAX
 10
420.0
 20
297.0
  9
$UNITMODE
 70
     0
  9
$VISRETAIN
 70
     1
  9
$PLINEGEN
 70
     0
  9
$PSLTSCALE
 70
     1
  9
$TREEDEPTH
 70
  3020
  9
$CMLSTYLE
  2
Standard
  9
$CMLJUST
 70
     0
  9
$CMLSCALE
 40
20.0
  9
$PROXYGRAPHICS
 70
     1
  9
$MEASUREMENT
 70
     1
  9
$CELWEIGHT
370
    -1
  9
$ENDCAPS
280
     0
  9
$JOINSTYLE
280
     0
  9
$LWDISPLAY
290
     0
  9
$INSUNITS
 70
     4
  9
$HYPERLINKBASE
  1

  9
$STYLESHEET
  1
brüstung.ctb
  9
$XEDIT
290
     1
  9
$CEPSNTYPE
380
     0
  9
$PSTYLEMODE
290
     1
  9
$FINGERPRINTGUID
  2
{B2DF4339-73A4-4EEF-B482-1DB72221CEAF}
  9
$VERSIONGUID
  2
{CAE429E4-9EC9-4DC2-A65F-90F29B9D6D04}
  9
$EXTNAMES
290
     1
  9
$PSVPSCALE
 40
0.0
  9
$OLESTARTUP
290
     0
  9
$SORTENTS
280
   127
  9
$INDEXCTL
280
     0
  9
$HIDETEXT
280
     0
  9
$XCLIPFRAME
290
     0
  9
$HALOGAP
280
     0
  9
$OBSCOLOR
 70
   257
  9
$OBSLTYPE
280
     0
  9
$INTERSECTIONDISPLAY
280
     0
  9
$INTERSECTIONCOLOR
 70
   257
  9
$DIMASSOC
280
     1
  9
$PROJECTNAME
  1

  0
ENDSEC
  0
SECTION
  2
CLASSES
  0
CLASS
  1
ACDBDICTIONARYWDFLT
  2
AcDbDictionaryWithDefault
  3
ObjectDBX Classes
 90
        0
 91
        1
280
     0
281
     0
  0
CLASS
  1
VISUALSTYLE
  2
AcDbVisualStyle
  3
ObjectDBX Classes
 90
     4095
 91
       16
280
     0
281
     0
  0
CLASS
  1
SCALE
  2
AcDbScale
  3
ObjectDBX Classes
 90
     1153
 91
       33
280
     0
281
     0
  0
CLASS
  1
DICTIONARYVAR
  2
AcDbDictionaryVar
  3
ObjectDBX Classes
 90
        0
 91
        9
280
     0
281
     0
  0
CLASS
  1
ACDBPLACEHOLDER
  2
AcDbPlaceHolder
  3
ObjectDBX Classes
 90
        0
 91
        1
280
     0
281
     0
  0
CLASS
  1
LAYOUT
  2
AcDbLayout
  3
ObjectDBX Classes
 90
        0
 91
        2
280
     0
281
     0
  0
CLASS
  1
MATERIAL
  2
AcDbMaterial
  3
ObjectDBX Classes
 90
        0
 91
        3
280
     0
281
     0
  0
CLASS
  1
TABLESTYLE
  2
AcDbTableStyle
  3
ObjectDBX Classes
 90
     2047
 91
        1
280
     0
281
     0
  0
CLASS
  1
MLEADERSTYLE
  2
AcDbMLeaderStyle
  3
ACDB_MLEADERSTYLE_CLASS
 90
     4095
 91
        1
280
     0
281
     0
  0
CLASS
  1
Ks_BoltStyle
  2
Ks_BoltStyle
  3
Pro_Stahl_3d
 90
        0
 91
       31
280
     0
281
     0
  0
CLASS
  1
Ks_WeldStyle
  2
Ks_WeldStyle
  3
Pro_Stahl_3d
 90
        0
 91
       18
280
     0
281
     0
  0
CLASS
  1
Ks_KoteflagStyle
  2
Ks_KoteflagStyle
  3
Pro_Stahl_3d
 90
        0
 91
        2
280
     0
281
     0
  0
CLASS
  1
Ks_PosflagStyle
  2
Ks_PosflagStyle
  3
Pro_Stahl_3d
 90
        0
 91
       15
280
     0
281
     0
  0
CLASS
  1
CELLSTYLEMAP
  2
AcDbCellStyleMap
  3
ObjectDBX Classes
 90
     1152
 91
        1
280
     0
281
     0
  0
CLASS
  1
SORTENTSTABLE
  2
AcDbSortentsTable
  3
ObjectDBX Classes
 90
        0
 91
        1
280
     0
281
     0
  0
CLASS
  1
AEC_REFEDIT_STATUS_TRACKER
  2
AecDbRefEditStatusTracker
  3
AecArchBase50|Product Desc: Autodesk Architectural Desktop 2007 |Company: Autodesk,Inc. |WEB Address: www.autodesk.com
 90
      129
 91
        0
280
     0
281
     0
  0
CLASS
  1
NPOCOLLECTION
  2
AcDbImpNonPersistentObjectsCollection
  3
ObjectDBX Classes
 90
     1153
 91
        0
280
     0
281
     0
  0
CLASS
  1
IMAGE
  2
AcDbRasterImage
  3
ISM
 90
      127
 91
        9
280
     0
281
     1
  0
CLASS
  1
IMAGEDEF_REACTOR
  2
AcDbRasterImageDefReactor
  3
ISM
 90
        1
 91
        9
280
     0
281
     0
  0
CLASS
  1
IMAGEDEF
  2
AcDbRasterImageDef
  3
ISM
 90
        0
 91
        1
280
     0
281
     0
  0
CLASS
  1
RASTERVARIABLES
  2
AcDbRasterVariables
  3
ISM
 90
        0
 91
        1
280
     0
281
     0
  0
ENDSEC
  0
SECTION
  2
TABLES
  0
TABLE
  2
VPORT
  5
8
102
{ACAD_XDICTIONARY
360
526
102
}
330
0
100
AcDbSymbolTable
 70
     6
  0
VPORT
  5
19663
330
8
100
AcDbSymbolTableRecord
100
AcDbViewportTableRecord
  2
*Active
 70
     0
 10
0.0
 20
0.0
 11
1.0
 21
1.0
 12
3363.371127579374
 22
-23154.21015942579
 13
0.0
 23
0.0
 14
10.0
 24
10.0
 15
10.0
 25
10.0
 16
0.0
 26
0.0
 36
1.0
 17
0.0
 27
0.0
 37
0.0
 40
2540.713414002035
 41
1.893413173652694
 42
50.0
 43
0.0
 44
0.0
 50
0.0
 51
0.0
 71
     0
 72
   100
 73
     1
 74
     3
 75
     0
 76
     0
 77
     0
 78
     0
281
     0
 65
     1
110
0.0
120
0.0
130
0.0
111
1.0
121
0.0
131
0.0
112
0.0
122
1.0
132
0.0
 79
     0
146
0.0
  0
ENDTAB
  0
TABLE
  2
LTYPE
  5
5
330
0
100
AcDbSymbolTable
 70
     4
  0
LTYPE
  5
14
330
5
100
AcDbSymbolTableRecord
100
AcDbLinetypeTableRecord
  2
ByBlock
 70
     0
  3

 72
    65
 73
     0
 40
0.0
  0
LTYPE
  5
15
330
5
100
AcDbSymbolTableRecord
100
AcDbLinetypeTableRecord
  2
ByLayer
 70
     0
  3

 72
    65
 73
     0
 40
0.0
  0
LTYPE
  5
16
330
5
100
AcDbSymbolTableRecord
100
AcDbLinetypeTableRecord
  2
Continuous
 70
     0
  3
Solid line
 72
    65
 73
     0
 40
0.0
  0
LTYPE
  5
63F7
330
5
100
AcDbSymbolTableRecord
100
AcDbLinetypeTableRecord
  2
STRICHLINIEX2
 70
     0
  3
Strichlinie (2x) ____  ____  ____  ____  ____  
 72
    65
 73
     2
 40
1.5
 49
1.0
 74
     0
 49
-0.5
 74
     0
  0
LTYPE
  5
63F8
330
5
100
AcDbSymbolTableRecord
100
AcDbLinetypeTableRecord
  2
MITTEX2
 70
     0
  3
Mitte (2x) ________  __  ________  __  _____
 72
    65
 73
     4
 40
4.0
 49
2.5
 74
     0
 49
-0.5
 74
     0
 49
0.5
 74
     0
 49
-0.5
 74
     0
  0
LTYPE
  5
17971
330
5
100
AcDbSymbolTableRecord
100
AcDbLinetypeTableRecord
  2
AUSGEZOGEN
 70
     0
  3
AUSGEZOGEN
 72
    65
 73
     2
 40
2.0
 49
1.0
 74
     0
 49
1.0
 74
     0
  0
ENDTAB
  0
TABLE
  2
LAYER
  5
2
102
{ACAD_XDICTIONARY
360
7C6
102
}
330
0
100
AcDbSymbolTable
 70
    14
  0
LAYER
  5
10
102
{ACAD_XDICTIONARY
360
4F0
102
}
330
2
100
AcDbSymbolTableRecord
100
AcDbLayerTableRecord
  2
0
 70
     0
 62
     7
  6
Continuous
370
    -3
390
F
  0
LAYER
  5
7BC
330
2
100
AcDbSymbolTableRecord
100
AcDbLayerTableRecord
  2
Defpoints
 70
     0
 62
     7
  6
Continuous
290
     0
370
    -3
390
F
  0
LAYER
  5
14EC
330
2
100
AcDbSymbolTableRecord
100
AcDbLayerTableRecord
  2
-TEXT3
 70
     0
 62
     2
  6
Continuous
370
    -3
390
F
  0
LAYER
  5
63FA
330
2
100
AcDbSymbolTableRecord
100
AcDbLayerTableRecord
  2
-TEXT2
 70
     0
 62
     3
  6
Continuous
370
    -3
390
F
  0
LAYER
  5
63FB
330
2
100
AcDbSymbolTableRecord
100
AcDbLayerTableRecord
  2
-SYSTEM
 70
     0
 62
     2
  6
MITTEX2
370
    -3
390
F
  0
LAYER
  5
63FC
330
2
100
AcDbSymbolTableRecord
100
AcDbLayerTableRecord
  2
-NORMTEIL_VERDECKT
 70
     0
 62
     9
  6
STRICHLINIEX2
370
    -3
390
F
  0
LAYER
  5
63FE
330
2
100
AcDbSymbolTableRecord
100
AcDbLayerTableRecord
  2
-GLAS
 70
     0
 62
     1
  6
Continuous
370
    -3
390
F
  0
LAYER
  5
6400
102
{ACAD_XDICTIONARY
360
6401
102
}
330
2
100
AcDbSymbolTableRecord
100
AcDbLayerTableRecord
  2
BALARDO-Profil
 70
     0
 62
     4
  6
Continuous
370
    18
390
F
  0
LAYER
  5
6409
330
2
100
AcDbSymbolTableRecord
100
AcDbLayerTableRecord
  2
-DICHTUNG
 70
     0
 62
     3
  6
Continuous
370
    -3
390
F
1001
AVE_FINISH
1002
{
1070
     0
1005
0
1002
}
  0
LAYER
  5
640C
330
2
100
AcDbSymbolTableRecord
100
AcDbLayerTableRecord
  2
--KLEMMSCHUH
 70
     0
 62
    40
  6
Continuous
370
    -3
390
F
  0
LAYER
  5
12E27
330
2
100
AcDbSymbolTableRecord
100
AcDbLayerTableRecord
  2
-ALU-BLENDE
 70
     0
 62
   113
  6
Continuous
370
    -3
390
F
  0
LAYER
  5
17972
330
2
100
AcDbSymbolTableRecord
100
AcDbLayerTableRecord
  2
-TEXT
 70
     0
 62
     7
  6
AUSGEZOGEN
370
    -3
390
F
  0
LAYER
  5
17973
330
2
100
AcDbSymbolTableRecord
100
AcDbLayerTableRecord
  2
-ZEICHNUNGSRAND-INNEN
 70
     0
 62
     7
  6
Continuous
370
    -3
390
F
  0
ENDTAB
  0
TABLE
  2
STYLE
  5
3
330
0
100
AcDbSymbolTable
 70
     4
  0
STYLE
  5
11
330
3
100
AcDbSymbolTableRecord
100
AcDbTextStyleTableRecord
  2
Standard
 70
     0
 40
0.0
 41
1.0
 50
0.0
 71
     0
 42
2.5
  3
ARIAL.TTF
  4

1001
ACAD
1000
Arial
1071
       34
  0
STYLE
  5
17974
330
3
100
AcDbSymbolTableRecord
100
AcDbTextStyleTableRecord
  2
LOGOCAD
 70
     0
 40
0.0
 41
1.0
 50
0.0
 71
     0
 42
3.5
  3
TXT8
  4

  0
ENDTAB
  0
TABLE
  2
VIEW
  5
6
330
0
100
AcDbSymbolTable
 70
     0
  0
ENDTAB
  0
TABLE
  2
UCS
  5
7
330
0
100
AcDbSymbolTable
 70
     0
  0
ENDTAB
  0
TABLE
  2
APPID
  5
9
330
0
100
AcDbSymbolTable
 70
    28
  0
APPID
  5
12
330
9
100
AcDbSymbolTableRecord
100
AcDbRegAppTableRecord
  2
ACAD
 70
     0
  0
APPID
  5
484
330
9
100
AcDbSymbolTableRecord
100
AcDbRegAppTableRecord
  2
ACAD_MLEADERVER
 70
     0
  0
APPID
  5
49E
330
9
100
AcDbSymbolTableRecord
100
AcDbRegAppTableRecord
  2
ProSteel3d_Bg
 70
     0
  0
APPID
  5
49F
330
9
100
AcDbSymbolTableRecord
100
AcDbRegAppTableRecord
  2
ProSteel3d_Sp
 70
     0
  0
APPID
  5
4A0
330
9
100
AcDbSymbolTableRecord
100
AcDbRegAppTableRecord
  2
ProSteel3d_DetDimEed
 70
     0
  0
APPID
  5
536
330
9
100
AcDbSymbolTableRecord
100
AcDbRegAppTableRecord
  2
ACAD_PSEXT
 70
     0
  0
APPID
  5
7C2
330
9
100
AcDbSymbolTableRecord
100
AcDbRegAppTableRecord
  2
ACAD_DSTYLE_DIMJAG
 70
     0
  0
APPID
  5
7C3
330
9
100
AcDbSymbolTableRecord
100
AcDbRegAppTableRecord
  2
ACAD_DSTYLE_DIMBREAK
 70
     0
  0
APPID
  5
7C4
330
9
100
AcDbSymbolTableRecord
100
AcDbRegAppTableRecord
  2
ACAD_DSTYLE_DIMTALN
 70
     0
  0
APPID
  5
7C5
330
9
100
AcDbSymbolTableRecord
100
AcDbRegAppTableRecord
  2
ACAD_DSTYLE_DIMRADIAL_EXTENSION
 70
     0
  0
APPID
  5
E07
330
9
100
AcDbSymbolTableRecord
100
AcDbRegAppTableRecord
  2
AcDbDynamicBlockGUID
 70
     0
  0
APPID
  5
E08
330
9
100
AcDbSymbolTableRecord
100
AcDbRegAppTableRecord
  2
AcDbBlockRepETag
 70
     0
  0
APPID
  5
131C
330
9
100
AcDbSymbolTableRecord
100
AcDbRegAppTableRecord
  2
ACAD_EXEMPT_FROM_CAD_STANDARDS
 70
     0
  0
APPID
  5
311D
330
9
100
AcDbSymbolTableRecord
100
AcDbRegAppTableRecord
  2
AcadAnnotative
 70
     0
  0
APPID
  5
311E
330
9
100
AcDbSymbolTableRecord
100
AcDbRegAppTableRecord
  2
AcAecLayerStandard
 70
     0
  0
APPID
  5
311F
330
9
100
AcDbSymbolTableRecord
100
AcDbRegAppTableRecord
  2
GENIUS_GENODEF_13
 70
     0
  0
APPID
  5
3120
330
9
100
AcDbSymbolTableRecord
100
AcDbRegAppTableRecord
  2
GENIUS_GENOBJ-N-CEN_13
 70
     0
  0
APPID
  5
3121
330
9
100
AcDbSymbolTableRecord
100
AcDbRegAppTableRecord
  2
GENIUS_GENCEN_19
 70
     0
  0
APPID
  5
640E
330
9
100
AcDbSymbolTableRecord
100
AcDbRegAppTableRecord
  2
AVE_FINISH
 70
     0
  0
APPID
  5
640F
330
9
100
AcDbSymbolTableRecord
100
AcDbRegAppTableRecord
  2
ACAD_DSTYLE_DIMEXT_LENGTH
 70
     0
  0
APPID
  5
6410
330
9
100
AcDbSymbolTableRecord
100
AcDbRegAppTableRecord
  2
ACAD_DSTYLE_DIMEXT_ENABLED
 70
     0
  0
APPID
  5
6411
330
9
100
AcDbSymbolTableRecord
100
AcDbRegAppTableRecord
  2
ACAD_DSTYLE_DIMJOGGED_JOGANGLE_SYMBOL
 70
     0
  0
APPID
  5
6412
330
9
100
AcDbSymbolTableRecord
100
AcDbRegAppTableRecord
  2
ACAD_DSTYLE_DIMARC_LENGTH_SYMBOL
 70
     0
  0
APPID
  5
6A34
330
9
100
AcDbSymbolTableRecord
100
AcDbRegAppTableRecord
  2
ACAD_DSTYLE_DIMTEXT_FILL
 70
     0
  0
APPID
  5
6A37
330
9
100
AcDbSymbolTableRecord
100
AcDbRegAppTableRecord
  2
ACAD_DSTYLE_DIM_LINETYPE
 70
     0
  0
APPID
  5
6A38
330
9
100
AcDbSymbolTableRecord
100
AcDbRegAppTableRecord
  2
ACAD_DSTYLE_DIM_EXT1_LINETYPE
 70
     0
  0
APPID
  5
6A39
330
9
100
AcDbSymbolTableRecord
100
AcDbRegAppTableRecord
  2
ACAD_DSTYLE_DIM_EXT2_LINETYPE
 70
     0
  0
APPID
  5
114A8
330
9
100
AcDbSymbolTableRecord
100
AcDbRegAppTableRecord
  2
DCO15
 70
     0
  0
ENDTAB
  0
TABLE
  2
DIMSTYLE
  5
A
330
0
100
AcDbSymbolTable
 70
     6
100
AcDbDimStyleTable
 71
     2
340
EC53
340
13A1B
  0
DIMSTYLE
105
3118
330
A
100
AcDbSymbolTableRecord
100
AcDbDimStyleTableRecord
  2
Standard
 70
     0
340
11
  0
DIMSTYLE
105
EC53
102
{ACAD_REACTORS
330
1681B
330
1681C
330
1681D
330
1681F
330
16820
330
16821
330
16822
330
16823
330
16824
330
16825
330
16826
330
16827
330
16828
330
16829
330
1682A
330
1682B
330
1682C
330
1682D
330
1682E
330
1682F
330
16830
330
16831
330
16832
330
16833
330
16834
330
16835
330
16836
330
16837
330
16838
330
16839
330
1683A
330
1683F
330
16840
330
16844
330
16845
330
16846
330
16848
330
16849
330
1684A
330
1684B
330
1684C
330
1684D
330
1684E
330
1684F
330
16850
330
16851
330
16852
330
16853
330
16854
330
16855
330
16856
330
16857
330
16858
330
16859
330
1685A
330
1685B
330
1685C
330
1685D
330
1685E
330
1685F
330
16860
330
16861
330
16862
330
16863
330
17341
330
17342
330
17375
330
17397
330
173BA
330
17924
330
17922
330
17923
102
}
330
A
100
AcDbSymbolTableRecord
100
AcDbDimStyleTableRecord
  2
Kopie von 1-1
 70
     0
 40
3.5
 41
8.0
 42
3.0
 43
10.0
 44
1.0
 48
0.5
 73
     0
 74
     0
 77
     1
 78
     9
140
8.0
146
0.75
147
3.0
172
     1
176
   256
177
   256
178
   256
271
     0
272
     0
283
     0
340
11
1001
ACAD_DSTYLE_DIMEXT_LENGTH
1070
   378
1040
1.0
1001
ACAD_DSTYLE_DIMEXT_ENABLED
1070
   383
1070
     0
1001
ACAD_DSTYLE_DIMARC_LENGTH_SYMBOL
1070
   379
1070
     0
1001
ACAD_DSTYLE_DIMJOGGED_JOGANGLE_SYMBOL
1070
   384
1040
0.7853981633974483
  0
DIMSTYLE
105
13A1B
102
{ACAD_REACTORS
330
1681E
330
16847
102
}
330
A
100
AcDbSymbolTableRecord
100
AcDbDimStyleTableRecord
  2
Kopie(2) von 1-1
 70
     0
 40
3.5
 41
8.0
 42
3.0
 43
10.0
 44
1.0
 47
3.0
 48
0.000000001
 71
     1
 73
     0
 74
     0
 77
     1
 78
     9
140
8.0
146
0.5
147
3.0
172
     1
176
   256
177
   256
178
   256
271
     1
272
     1
283
     0
340
11
1001
ACAD_DSTYLE_DIMEXT_LENGTH
1070
   378
1040
1.0
1001
ACAD_DSTYLE_DIMEXT_ENABLED
1070
   383
1070
     0
1001
ACAD_DSTYLE_DIMARC_LENGTH_SYMBOL
1070
   379
1070
     0
1001
ACAD_DSTYLE_DIMJOGGED_JOGANGLE_SYMBOL
1070
   384
1040
0.7853981633974483
  0
ENDTAB
  0
TABLE
  2
BLOCK_RECORD
  5
1
330
0
100
AcDbSymbolTable
 70
   322
  0
BLOCK_RECORD
  5
1F
102
{ACAD_XDICTIONARY
360
1324
102
}
330
1
100
AcDbSymbolTableRecord
100
AcDbBlockTableRecord
  2
*Model_Space
340
22
  0
BLOCK_RECORD
  5
1B
330
1
100
AcDbSymbolTableRecord
100
AcDbBlockTableRecord
  2
*Paper_Space
340
1E
  0
BLOCK_RECORD
  5
D3BE
330
1
100
AcDbSymbolTableRecord
100
AcDbBlockTableRecord
  2
Innendichtung 04
340
0
310
2800000020000000200000000100080000000000000400000000000000000000000000000000000000000000000080000080000000808000800000008000800080800000C0C0C000C0DCC000F0CAA6000020400000206000002080000020A0000020C0000020E00000400000004020000040400000406000004080000040A0
310
000040C0000040E00000600000006020000060400000606000006080000060A0000060C0000060E00000800000008020000080400000806000008080000080A0000080C0000080E00000A0000000A0200000A0400000A0600000A0800000A0A00000A0C00000A0E00000C0000000C0200000C0400000C0600000C0800000C0
310
A00000C0C00000C0E00000E0000000E0200000E0400000E0600000E0800000E0A00000E0C00000E0E00040000000400020004000400040006000400080004000A0004000C0004000E00040200000402020004020400040206000402080004020A0004020C0004020E000404000004040200040404000404060004040800040
310
40A0004040C0004040E00040600000406020004060400040606000406080004060A0004060C0004060E00040800000408020004080400040806000408080004080A0004080C0004080E00040A0000040A0200040A0400040A0600040A0800040A0A00040A0C00040A0E00040C0000040C0200040C0400040C0600040C08000
310
40C0A00040C0C00040C0E00040E0000040E0200040E0400040E0600040E0800040E0A00040E0C00040E0E00080000000800020008000400080006000800080008000A0008000C0008000E00080200000802020008020400080206000802080008020A0008020C0008020E00080400000804020008040400080406000804080
310
008040A0008040C0008040E00080600000806020008060400080606000806080008060A0008060C0008060E00080800000808020008080400080806000808080008080A0008080C0008080E00080A0000080A0200080A0400080A0600080A0800080A0A00080A0C00080A0E00080C0000080C0200080C0400080C0600080C0
310
800080C0A00080C0C00080C0E00080E0000080E0200080E0400080E0600080E0800080E0A00080E0C00080E0E000C0000000C0002000C0004000C0006000C0008000C000A000C000C000C000E000C0200000C0202000C0204000C0206000C0208000C020A000C020C000C020E000C0400000C0402000C0404000C0406000C0
310
408000C040A000C040C000C040E000C0600000C0602000C0604000C0606000C0608000C060A000C060C000C060E000C0800000C0802000C0804000C0806000C0808000C080A000C080C000C080E000C0A00000C0A02000C0A04000C0A06000C0A08000C0A0A000C0A0C000C0A0E000C0C00000C0C02000C0C04000C0C06000
310
C0C08000C0C0A000F0FBFF00A4A0A000808080000000FF0000FF000000FFFF00FF000000FF00FF00FFFF0000FFFFFF0000000000000000000000000000000000000000000000000000000000000000000000000000000000000000000000000000000000000000000000000000000000000000000000000000000000000000
310
0000000000000000000000000000000000000000000000000000000000000000FAFAFA00000000000000000000000000000000000000000000000000000000FA000000FAFAFAFA0000000000000000000000000000000000000000000000FA000000000000FAFA000000000000000000000000000000000000000000FAFA00
310
0000000000FA0000000000000000000000000000FAFA000000000000FA0000000000000000FA000000000000000000000000000000FAFAFAFA0000FA00000000000000000000FA0000000000000000000000000000FA000000FAFA0000000000000000000000FA000000000000000000000000000000FA0000000000000000
310
0000000000000000FA0000000000000000000000000000FA00000000000000000000000000000000FA0000000000000000000000000000FA0000000000000000000000000000000000FA0000000000000000000000000000FA00000000000000000000000000000000FA0000000000000000000000000000FA000000000000
310
0000000000000000000000FA000000000000000000000000FAFA0000000000000000000000000000000000FA000000000000000000FAFAFA00000000000000000000000000000000000000000000000000FA00000000FAFAFAFAFA000000000000000000000000000000000000000000FAFA0000000000000000FA00000000
310
000000000000000000000000000000FAFA00000000000000000000FA00000000000000000000000000000000FAFAFA00000000000000000000000000FA00000000000000000000000000FAFA000000000000000000000000000000FAFA00000000000000000000FAFAFA00000000000000000000000000000000FA00000000
310
000000000000FAFA000000000000000000000000000000000000FA000000000000000000FAFA0000000000000000000000000000000000000000FA000000000000FAFAFA000000000000000000000000000000000000000000FA0000000000FAFA0000000000000000000000000000000000000000000000FA000000FAFAFA
310
00000000000000000000000000000000000000000000000000FA00FAFA00000000000000000000000000000000000000000000000000000000FAFA0000000000000000000000000000000000000000000000000000000000000000000000000000000000000000000000000000000000000000000000000000000000000000
310
0000000000000000000000000000000000000000000000000000000000000000000000000000000000000000000000000000000000000000
102
{BLKREFS
331
16876
102
}
1001
ACAD
1000
DesignCenter Data
1002
{
1070
     1
1070
     4
1002
}
  0
BLOCK_RECORD
  5
16958
330
1
100
AcDbSymbolTableRecord
100
AcDbBlockTableRecord
  2
*D210
340
0
  0
BLOCK_RECORD
  5
16966
330
1
100
AcDbSymbolTableRecord
100
AcDbBlockTableRecord
  2
*D211
340
0
  0
BLOCK_RECORD
  5
16972
330
1
100
AcDbSymbolTableRecord
100
AcDbBlockTableRecord
  2
*D212
340
0
  0
BLOCK_RECORD
  5
1697E
330
1
100
AcDbSymbolTableRecord
100
AcDbBlockTableRecord
  2
*D213
340
0
  0
BLOCK_RECORD
  5
1698A
330
1
100
AcDbSymbolTableRecord
100
AcDbBlockTableRecord
  2
*D214
340
0
  0
BLOCK_RECORD
  5
16996
330
1
100
AcDbSymbolTableRecord
100
AcDbBlockTableRecord
  2
*D215
340
0
  0
BLOCK_RECORD
  5
169A2
330
1
100
AcDbSymbolTableRecord
100
AcDbBlockTableRecord
  2
*D216
340
0
  0
BLOCK_RECORD
  5
169AE
330
1
100
AcDbSymbolTableRecord
100
AcDbBlockTableRecord
  2
*D217
340
0
  0
BLOCK_RECORD
  5
169BA
330
1
100
AcDbSymbolTableRecord
100
AcDbBlockTableRecord
  2
*D218
340
0
  0
BLOCK_RECORD
  5
169C6
330
1
100
AcDbSymbolTableRecord
100
AcDbBlockTableRecord
  2
*D219
340
0
  0
BLOCK_RECORD
  5
169D2
330
1
100
AcDbSymbolTableRecord
100
AcDbBlockTableRecord
  2
*D220
340
0
  0
BLOCK_RECORD
  5
169DE
330
1
100
AcDbSymbolTableRecord
100
AcDbBlockTableRecord
  2
*D221
340
0
  0
BLOCK_RECORD
  5
169EA
330
1
100
AcDbSymbolTableRecord
100
AcDbBlockTableRecord
  2
*D222
340
0
  0
BLOCK_RECORD
  5
169F6
330
1
100
AcDbSymbolTableRecord
100
AcDbBlockTableRecord
  2
*D223
340
0
  0
BLOCK_RECORD
  5
16A02
330
1
100
AcDbSymbolTableRecord
100
AcDbBlockTableRecord
  2
*D224
340
0
  0
BLOCK_RECORD
  5
16A0E
330
1
100
AcDbSymbolTableRecord
100
AcDbBlockTableRecord
  2
*D225
340
0
  0
BLOCK_RECORD
  5
16A1A
330
1
100
AcDbSymbolTableRecord
100
AcDbBlockTableRecord
  2
*D226
340
0
  0
BLOCK_RECORD
  5
16A26
330
1
100
AcDbSymbolTableRecord
100
AcDbBlockTableRecord
  2
*D227
340
0
  0
BLOCK_RECORD
  5
16A32
330
1
100
AcDbSymbolTableRecord
100
AcDbBlockTableRecord
  2
*D228
340
0
  0
BLOCK_RECORD
  5
16A3E
330
1
100
AcDbSymbolTableRecord
100
AcDbBlockTableRecord
  2
*D229
340
0
  0
BLOCK_RECORD
  5
16A4A
330
1
100
AcDbSymbolTableRecord
100
AcDbBlockTableRecord
  2
*D230
340
0
  0
BLOCK_RECORD
  5
16A56
330
1
100
AcDbSymbolTableRecord
100
AcDbBlockTableRecord
  2
*D231
340
0
  0
BLOCK_RECORD
  5
16A62
330
1
100
AcDbSymbolTableRecord
100
AcDbBlockTableRecord
  2
*D232
340
0
  0
BLOCK_RECORD
  5
16A6E
330
1
100
AcDbSymbolTableRecord
100
AcDbBlockTableRecord
  2
*D233
340
0
  0
BLOCK_RECORD
  5
16A7A
330
1
100
AcDbSymbolTableRecord
100
AcDbBlockTableRecord
  2
*D234
340
0
  0
BLOCK_RECORD
  5
16A86
330
1
100
AcDbSymbolTableRecord
100
AcDbBlockTableRecord
  2
*D235
340
0
  0
BLOCK_RECORD
  5
16A92
330
1
100
AcDbSymbolTableRecord
100
AcDbBlockTableRecord
  2
*D236
340
0
  0
BLOCK_RECORD
  5
16A9E
330
1
100
AcDbSymbolTableRecord
100
AcDbBlockTableRecord
  2
*D237
340
0
  0
BLOCK_RECORD
  5
16AAA
330
1
100
AcDbSymbolTableRecord
100
AcDbBlockTableRecord
  2
*D238
340
0
  0
BLOCK_RECORD
  5
16AB6
330
1
100
AcDbSymbolTableRecord
100
AcDbBlockTableRecord
  2
*D239
340
0
  0
BLOCK_RECORD
  5
16AC2
330
1
100
AcDbSymbolTableRecord
100
AcDbBlockTableRecord
  2
*D240
340
0
  0
BLOCK_RECORD
  5
16ACE
330
1
100
AcDbSymbolTableRecord
100
AcDbBlockTableRecord
  2
*D241
340
0
  0
BLOCK_RECORD
  5
16ADC
330
1
100
AcDbSymbolTableRecord
100
AcDbBlockTableRecord
  2
*D242
340
0
  0
BLOCK_RECORD
  5
16AEA
330
1
100
AcDbSymbolTableRecord
100
AcDbBlockTableRecord
  2
*D243
340
0
  0
BLOCK_RECORD
  5
16B04
330
1
100
AcDbSymbolTableRecord
100
AcDbBlockTableRecord
  2
*D244
340
0
  0
BLOCK_RECORD
  5
16B12
330
1
100
AcDbSymbolTableRecord
100
AcDbBlockTableRecord
  2
*D245
340
0
  0
BLOCK_RECORD
  5
16B1E
330
1
100
AcDbSymbolTableRecord
100
AcDbBlockTableRecord
  2
*D246
340
0
  0
BLOCK_RECORD
  5
16B2A
330
1
100
AcDbSymbolTableRecord
100
AcDbBlockTableRecord
  2
*D247
340
0
  0
BLOCK_RECORD
  5
16B36
330
1
100
AcDbSymbolTableRecord
100
AcDbBlockTableRecord
  2
*D248
340
0
  0
BLOCK_RECORD
  5
16B42
330
1
100
AcDbSymbolTableRecord
100
AcDbBlockTableRecord
  2
*D249
340
0
  0
BLOCK_RECORD
  5
16B4E
330
1
100
AcDbSymbolTableRecord
100
AcDbBlockTableRecord
  2
*D250
340
0
  0
BLOCK_RECORD
  5
16B5A
330
1
100
AcDbSymbolTableRecord
100
AcDbBlockTableRecord
  2
*D251
340
0
  0
BLOCK_RECORD
  5
16B66
330
1
100
AcDbSymbolTableRecord
100
AcDbBlockTableRecord
  2
*D252
340
0
  0
BLOCK_RECORD
  5
16B72
330
1
100
AcDbSymbolTableRecord
100
AcDbBlockTableRecord
  2
*D253
340
0
  0
BLOCK_RECORD
  5
16B7E
330
1
100
AcDbSymbolTableRecord
100
AcDbBlockTableRecord
  2
*D254
340
0
  0
BLOCK_RECORD
  5
16B8A
330
1
100
AcDbSymbolTableRecord
100
AcDbBlockTableRecord
  2
*D255
340
0
  0
BLOCK_RECORD
  5
16B96
330
1
100
AcDbSymbolTableRecord
100
AcDbBlockTableRecord
  2
*D256
340
0
  0
BLOCK_RECORD
  5
16BA2
330
1
100
AcDbSymbolTableRecord
100
AcDbBlockTableRecord
  2
*D257
340
0
  0
BLOCK_RECORD
  5
16BAE
330
1
100
AcDbSymbolTableRecord
100
AcDbBlockTableRecord
  2
*D258
340
0
  0
BLOCK_RECORD
  5
16BBA
330
1
100
AcDbSymbolTableRecord
100
AcDbBlockTableRecord
  2
*D259
340
0
  0
BLOCK_RECORD
  5
16BC6
330
1
100
AcDbSymbolTableRecord
100
AcDbBlockTableRecord
  2
*D260
340
0
  0
BLOCK_RECORD
  5
16BD2
330
1
100
AcDbSymbolTableRecord
100
AcDbBlockTableRecord
  2
*D261
340
0
  0
BLOCK_RECORD
  5
16BDE
330
1
100
AcDbSymbolTableRecord
100
AcDbBlockTableRecord
  2
*D262
340
0
  0
BLOCK_RECORD
  5
16BEA
330
1
100
AcDbSymbolTableRecord
100
AcDbBlockTableRecord
  2
*D263
340
0
  0
BLOCK_RECORD
  5
16BF6
330
1
100
AcDbSymbolTableRecord
100
AcDbBlockTableRecord
  2
*D264
340
0
  0
BLOCK_RECORD
  5
16C02
330
1
100
AcDbSymbolTableRecord
100
AcDbBlockTableRecord
  2
*D265
340
0
  0
BLOCK_RECORD
  5
16C0E
330
1
100
AcDbSymbolTableRecord
100
AcDbBlockTableRecord
  2
*D266
340
0
  0
BLOCK_RECORD
  5
16C1A
330
1
100
AcDbSymbolTableRecord
100
AcDbBlockTableRecord
  2
*D267
340
0
  0
BLOCK_RECORD
  5
16C26
330
1
100
AcDbSymbolTableRecord
100
AcDbBlockTableRecord
  2
*D268
340
0
  0
BLOCK_RECORD
  5
16C32
330
1
100
AcDbSymbolTableRecord
100
AcDbBlockTableRecord
  2
*D269
340
0
  0
BLOCK_RECORD
  5
16C3E
330
1
100
AcDbSymbolTableRecord
100
AcDbBlockTableRecord
  2
*D270
340
0
  0
BLOCK_RECORD
  5
16C4A
330
1
100
AcDbSymbolTableRecord
100
AcDbBlockTableRecord
  2
*D271
340
0
  0
BLOCK_RECORD
  5
16C56
330
1
100
AcDbSymbolTableRecord
100
AcDbBlockTableRecord
  2
*D272
340
0
  0
BLOCK_RECORD
  5
16C62
330
1
100
AcDbSymbolTableRecord
100
AcDbBlockTableRecord
  2
*D273
340
0
  0
BLOCK_RECORD
  5
16C6E
330
1
100
AcDbSymbolTableRecord
100
AcDbBlockTableRecord
  2
*D274
340
0
  0
BLOCK_RECORD
  5
16C7A
330
1
100
AcDbSymbolTableRecord
100
AcDbBlockTableRecord
  2
*D275
340
0
  0
BLOCK_RECORD
  5
17343
330
1
100
AcDbSymbolTableRecord
100
AcDbBlockTableRecord
  2
*D276
340
0
  0
BLOCK_RECORD
  5
17351
330
1
100
AcDbSymbolTableRecord
100
AcDbBlockTableRecord
  2
*D277
340
0
  0
BLOCK_RECORD
  5
17376
330
1
100
AcDbSymbolTableRecord
100
AcDbBlockTableRecord
  2
*D278
340
0
  0
BLOCK_RECORD
  5
17398
330
1
100
AcDbSymbolTableRecord
100
AcDbBlockTableRecord
  2
*D279
340
0
  0
BLOCK_RECORD
  5
173BB
330
1
100
AcDbSymbolTableRecord
100
AcDbBlockTableRecord
  2
*D280
340
0
  0
BLOCK_RECORD
  5
17925
330
1
100
AcDbSymbolTableRecord
100
AcDbBlockTableRecord
  2
*D281
340
0
  0
BLOCK_RECORD
  5
17933
330
1
100
AcDbSymbolTableRecord
100
AcDbBlockTableRecord
  2
*D282
340
0
  0
BLOCK_RECORD
  5
17941
330
1
100
AcDbSymbolTableRecord
100
AcDbBlockTableRecord
  2
*D283
340
0
  0
ENDTAB
  0
ENDSEC
  0
SECTION
  2
BLOCKS
  0
BLOCK
  5
20
330
1F
100
AcDbEntity
  8
0
100
AcDbBlockBegin
  2
*Model_Space
 70
     0
 10
0.0
 20
0.0
 30
0.0
  3
*Model_Space
  1

  0
ENDBLK
  5
21
330
1F
100
AcDbEntity
  8
0
100
AcDbBlockEnd
  0
BLOCK
  5
1C
330
1B
100
AcDbEntity
 67
     1
  8
0
100
AcDbBlockBegin
  2
*Paper_Space
 70
     0
 10
0.0
 20
0.0
 30
0.0
  3
*Paper_Space
  1

  0
ENDBLK
  5
1D
330
1B
100
AcDbEntity
 67
     1
  8
0
100
AcDbBlockEnd
  0
BLOCK
  5
D3BF
330
D3BE
100
AcDbEntity
  8
0
100
AcDbBlockBegin
  2
Innendichtung 04
 70
     0
 10
0.0
 20
0.0
 30
0.0
  3
Innendichtung 04
  1

  0
LWPOLYLINE
  5
D3C1
330
D3BE
100
AcDbEntity
  8
-DICHTUNG
  6
Continuous
100
AcDbPolyline
 90
        6
 70
     0
 43
0.0
 38
-275.000137499999
 10
-9.782797480916542
 20
-0.3322568619942103
 10
-11.26770985777102
 20
-0.0787982494048265
 42
-0.5724208788922952
 10
-10.91415272524818
 20
0.40095743427446
 10
-9.618616788475719
 20
0.3582503068791993
 42
0.2887962013780596
 10
-9.346205686936173
 20
0.5714922485203715
 10
-9.109650853949915
 20
1.922367023295009
  0
ARC
  5
D3C2
330
D3BE
100
AcDbEntity
  8
-DICHTUNG
  6
Continuous
100
AcDbCircle
 10
9.307742428500205
 20
1.894803857791885
 30
-825.0004124999971
 40
0.2000000000014688
210
0.0
220
0.0
230
-1.0
100
AcDbArc
 50
107.0540072894333
 51
172.0785227537071
  0
ARC
  5
D3C3
330
D3BE
100
AcDbEntity
  8
-DICHTUNG
  6
Continuous
100
AcDbCircle
 10
8.424008996805696
 20
4.802447305934038
 30
-1100.000549999996
 40
2.838976727562089
210
0.0
220
0.0
230
-1.0
100
AcDbArc
 50
286.8954033301625
 51
348.2166886860034
  0
ARC
  5
D3C4
330
D3BE
100
AcDbEntity
  8
-DICHTUNG
  6
Continuous
100
AcDbCircle
 10
0.0726391652988241
 20
0.1836214982563433
 30
0.0
 40
0.1693971972261249
100
AcDbArc
 50
258.7901591599124
 51
66.02510059312111
  0
LINE
  5
D3C5
330
D3BE
100
AcDbEntity
  8
-DICHTUNG
  6
Continuous
100
AcDbLine
 10
-2.359996167860117
 20
-0.5000002499991752
 30
0.0
 11
-3.964950671138012
 21
-4.333310239860111
 31
0.0
  0
ARC
  5
D3C6
330
D3BE
100
AcDbEntity
  8
-DICHTUNG
  6
Continuous
100
AcDbCircle
 10
-3.764950671137285
 20
-4.333310239860111
 30
0.0
 40
0.2000000000007276
100
AcDbArc
 50
180.0
 51
269.9999999997394
  0
LINE
  5
D3C7
330
D3BE
100
AcDbEntity
  8
-DICHTUNG
  6
Continuous
100
AcDbLine
 10
-3.764950671138194
 20
-4.533310239860838
 30
0.0
 11
-3.419389612701706
 21
-4.519214562625165
 31
0.0
  0
ARC
  5
D3C8
330
D3BE
100
AcDbEntity
  8
-DICHTUNG
  6
Continuous
100
AcDbCircle
 10
-3.419389612703525
 20
-4.719214562625893
 30
0.0
 40
0.2000000000007276
100
AcDbArc
 50
17.89785793150524
 51
89.9999999994789
  0
ARC
  5
D3C9
330
D3BE
100
AcDbEntity
  8
-DICHTUNG
  6
Continuous
100
AcDbCircle
 10
-3.419389612708073
 20
-4.71921456263044
 30
0.0
 40
0.2000000000008675
100
AcDbArc
 50
311.5558467490785
 51
318.4896507934926
  0
LINE
  5
D3CA
330
D3BE
100
AcDbEntity
  8
-DICHTUNG
  6
Continuous
100
AcDbLine
 10
-3.286719663166877
 20
-4.868876463223386
 30
0.0
 11
-5.546221736508869
 21
-5.33061780236585
 31
0.0
  0
LWPOLYLINE
  5
D3CB
330
D3BE
100
AcDbEntity
  8
-DICHTUNG
  6
Continuous
100
AcDbPolyline
 90
        6
 70
     0
 43
0.0
 10
-5.546221736508869
 20
-5.33061780236585
 42
0.2777619530324257
 10
-8.676532078817672
 20
-2.907080014434995
 10
-10.99418074900814
 20
-3.927700595550049
 42
-0.8794022829753497
 10
-11.23387881641747
 20
-3.611581672007559
 10
-10.11104970335646
 20
-2.305264344056467
 42
0.5165878794320993
 10
-9.782797480916542
 20
-0.3322568619942103
  0
ARC
  5
D3CC
330
D3BE
100
AcDbEntity
  8
-DICHTUNG
  6
Continuous
100
AcDbCircle
 10
-10.96892129913021
 20
4.454521434518028
 30
-275.000137499999
 40
0.3295604547601254
100
AcDbArc
 50
89.71781063377243
 51
224.7032083598759
  0
ARC
  5
D3CD
330
D3BE
100
AcDbEntity
  8
-DICHTUNG
  6
Continuous
100
AcDbCircle
 10
-10.96892129913021
 20
4.454521434517118
 30
-275.000137499999
 40
0.3295604547595057
100
AcDbArc
 50
89.71781063340765
 51
224.7032083598759
  0
LINE
  5
D3CE
330
D3BE
100
AcDbEntity
  8
-DICHTUNG
100
AcDbLine
 10
-10.96729817643609
 20
4.784077892220466
 30
-275.000137499999
 11
0.1414714110246678
 21
0.3384037077521498
 31
0.0
  0
ENDBLK
  5
D3C0
330
D3BE
100
AcDbEntity
  8
0
100
AcDbBlockEnd
  0
BLOCK
  5
16964
330
16958
100
AcDbEntity
  8
0
100
AcDbBlockBegin
  2
*D210
 70
     1
 10
0.0
 20
0.0
 30
0.0
  3
*D210
  1

  0
LINE
  5
19394
330
16958
100
AcDbEntity
  8
-TEXT3
370
    -2
100
AcDbLine
 10
2034.387029613565
 20
-22793.09269846329
 30
0.0
 11
2034.387029613565
 21
-22861.82570025747
 31
0.0
  0
LINE
  5
19395
330
16958
100
AcDbEntity
  8
-TEXT3
370
    -2
100
AcDbLine
 10
2084.387029613573
 20
-22793.09269846329
 30
0.0
 11
2084.387029613573
 21
-22861.82570025747
 31
0.0
  0
LINE
  5
19396
330
16958
100
AcDbEntity
  8
-TEXT3
370
    -2
100
AcDbLine
 10
2006.387029613565
 20
-22858.32570025747
 30
0.0
 11
1978.387029613564
 21
-22858.32570025747
 31
0.0
  0
LINE
  5
19397
330
16958
100
AcDbEntity
  8
-TEXT3
370
    -2
100
AcDbLine
 10
2112.387029613573
 20
-22858.32570025747
 30
0.0
 11
2140.387029613573
 21
-22858.32570025747
 31
0.0
  0
LINE
  5
19398
330
16958
100
AcDbEntity
  8
-TEXT3
370
    -2
100
AcDbLine
 10
2034.387029613565
 20
-22858.32570025747
 30
0.0
 11
2084.387029613573
 21
-22858.32570025747
 31
0.0
  0
SOLID
  5
19399
330
16958
100
AcDbEntity
  8
-TEXT3
100
AcDbTrace
 10
2006.387029613565
 20
-22853.6590335908
 30
0.0
 11
2006.387029613565
 21
-22862.99236692414
 31
0.0
 12
2034.387029613565
 22
-22858.32570025747
 32
0.0
 13
2034.387029613565
 23
-22858.32570025747
 33
0.0
  0
SOLID
  5
1939A
330
16958
100
AcDbEntity
  8
-TEXT3
100
AcDbTrace
 10
2112.387029613573
 20
-22853.6590335908
 30
0.0
 11
2112.387029613573
 21
-22862.99236692414
 31
0.0
 12
2084.387029613573
 22
-22858.32570025747
 32
0.0
 13
2084.387029613573
 23
-22858.32570025747
 33
0.0
  0
MTEXT
  5
1939B
330
16958
100
AcDbEntity
  8
-TEXT3
100
AcDbMText
 10
2059.387029613569
 20
-22833.52965660127
 30
0.0
 40
28.0
 41
0.0
 71
     5
 72
     1
  1
50
 73
     1
 44
1.0
  0
POINT
  5
1939C
330
16958
100
AcDbEntity
  8
Defpoints
 62
     0
100
AcDbPoint
 10
2034.387029613565
 20
-22782.59269846329
 30
0.0
  0
POINT
  5
1939D
330
16958
100
AcDbEntity
  8
Defpoints
 62
     0
100
AcDbPoint
 10
2084.387029613573
 20
-22782.59269846329
 30
0.0
  0
POINT
  5
1939E
330
16958
100
AcDbEntity
  8
Defpoints
 62
     0
100
AcDbPoint
 10
2084.387029613573
 20
-22858.32570025747
 30
0.0
  0
ENDBLK
  5
16965
330
16958
100
AcDbEntity
  8
0
100
AcDbBlockEnd
  0
BLOCK
  5
16970
330
16966
100
AcDbEntity
  8
0
100
AcDbBlockBegin
  2
*D211
 70
     1
 10
0.0
 20
0.0
 30
0.0
  3
*D211
  1

  0
LINE
  5
1939F
330
16966
100
AcDbEntity
  8
-TEXT3
370
    -2
100
AcDbLine
 10
2084.387029613573
 20
-22793.09269846329
 30
0.0
 11
2084.387029613573
 21
-22861.82570025747
 31
0.0
  0
LINE
  5
193A0
330
16966
100
AcDbEntity
  8
-TEXT3
370
    -2
100
AcDbLine
 10
2184.387029613573
 20
-22793.09269846329
 30
0.0
 11
2184.387029613573
 21
-22861.82570025747
 31
0.0
  0
LINE
  5
193A1
330
16966
100
AcDbEntity
  8
-TEXT3
370
    -2
100
AcDbLine
 10
2112.387029613573
 20
-22858.32570025747
 30
0.0
 11
2156.387029613573
 21
-22858.32570025747
 31
0.0
  0
SOLID
  5
193A2
330
16966
100
AcDbEntity
  8
-TEXT3
100
AcDbTrace
 10
2112.387029613573
 20
-22853.6590335908
 30
0.0
 11
2112.387029613573
 21
-22862.99236692414
 31
0.0
 12
2084.387029613573
 22
-22858.32570025747
 32
0.0
 13
2084.387029613573
 23
-22858.32570025747
 33
0.0
  0
SOLID
  5
193A3
330
16966
100
AcDbEntity
  8
-TEXT3
100
AcDbTrace
 10
2156.387029613573
 20
-22853.6590335908
 30
0.0
 11
2156.387029613573
 21
-22862.99236692414
 31
0.0
 12
2184.387029613573
 22
-22858.32570025747
 32
0.0
 13
2184.387029613573
 23
-22858.32570025747
 33
0.0
  0
MTEXT
  5
193A4
330
16966
100
AcDbEntity
  8
-TEXT3
100
AcDbMText
 10
2134.387029613574
 20
-22833.52965660127
 30
0.0
 40
28.0
 41
0.0
 71
     5
 72
     1
  1
100
 73
     1
 44
1.0
  0
POINT
  5
193A5
330
16966
100
AcDbEntity
  8
Defpoints
 62
     0
100
AcDbPoint
 10
2084.387029613573
 20
-22782.59269846329
 30
0.0
  0
POINT
  5
193A6
330
16966
100
AcDbEntity
  8
Defpoints
 62
     0
100
AcDbPoint
 10
2184.387029613573
 20
-22782.59269846329
 30
0.0
  0
POINT
  5
193A7
330
16966
100
AcDbEntity
  8
Defpoints
 62
     0
100
AcDbPoint
 10
2184.387029613573
 20
-22858.32570025747
 30
0.0
  0
ENDBLK
  5
16971
330
16966
100
AcDbEntity
  8
0
100
AcDbBlockEnd
  0
BLOCK
  5
1697C
330
16972
100
AcDbEntity
  8
0
100
AcDbBlockBegin
  2
*D212
 70
     1
 10
0.0
 20
0.0
 30
0.0
  3
*D212
  1

  0
LINE
  5
193A8
330
16972
100
AcDbEntity
  8
-TEXT3
370
    -2
100
AcDbLine
 10
2184.387029613573
 20
-22793.09269846329
 30
0.0
 11
2184.387029613573
 21
-22861.82570025747
 31
0.0
  0
LINE
  5
193A9
330
16972
100
AcDbEntity
  8
-TEXT3
370
    -2
100
AcDbLine
 10
2284.387029613573
 20
-22793.09269846329
 30
0.0
 11
2284.387029613573
 21
-22861.82570025747
 31
0.0
  0
LINE
  5
193AA
330
16972
100
AcDbEntity
  8
-TEXT3
370
    -2
100
AcDbLine
 10
2212.387029613573
 20
-22858.32570025747
 30
0.0
 11
2256.387029613573
 21
-22858.32570025747
 31
0.0
  0
SOLID
  5
193AB
330
16972
100
AcDbEntity
  8
-TEXT3
100
AcDbTrace
 10
2212.387029613573
 20
-22853.6590335908
 30
0.0
 11
2212.387029613573
 21
-22862.99236692414
 31
0.0
 12
2184.387029613573
 22
-22858.32570025747
 32
0.0
 13
2184.387029613573
 23
-22858.32570025747
 33
0.0
  0
SOLID
  5
193AC
330
16972
100
AcDbEntity
  8
-TEXT3
100
AcDbTrace
 10
2256.387029613573
 20
-22853.6590335908
 30
0.0
 11
2256.387029613573
 21
-22862.99236692414
 31
0.0
 12
2284.387029613573
 22
-22858.32570025747
 32
0.0
 13
2284.387029613573
 23
-22858.32570025747
 33
0.0
  0
MTEXT
  5
193AD
330
16972
100
AcDbEntity
  8
-TEXT3
100
AcDbMText
 10
2234.387029613573
 20
-22833.52965660127
 30
0.0
 40
28.0
 41
0.0
 71
     5
 72
     1
  1
100
 73
     1
 44
1.0
  0
POINT
  5
193AE
330
16972
100
AcDbEntity
  8
Defpoints
 62
     0
100
AcDbPoint
 10
2184.387029613573
 20
-22782.59269846329
 30
0.0
  0
POINT
  5
193AF
330
16972
100
AcDbEntity
  8
Defpoints
 62
     0
100
AcDbPoint
 10
2284.387029613573
 20
-22782.59269846329
 30
0.0
  0
POINT
  5
193B0
330
16972
100
AcDbEntity
  8
Defpoints
 62
     0
100
AcDbPoint
 10
2284.387029613573
 20
-22858.32570025747
 30
0.0
  0
ENDBLK
  5
1697D
330
16972
100
AcDbEntity
  8
0
100
AcDbBlockEnd
  0
BLOCK
  5
16988
330
1697E
100
AcDbEntity
  8
0
100
AcDbBlockBegin
  2
*D213
 70
     1
 10
0.0
 20
0.0
 30
0.0
  3
*D213
  1

  0
LINE
  5
193B1
330
1697E
100
AcDbEntity
  8
-TEXT3
370
    -2
100
AcDbLine
 10
2034.387029613565
 20
-22870.82570025747
 30
0.0
 11
2034.387029613565
 21
-22950.02210532635
 31
0.0
  0
LINE
  5
193B2
330
1697E
100
AcDbEntity
  8
-TEXT3
370
    -2
100
AcDbLine
 10
5034.387029613565
 20
-22870.82570025747
 30
0.0
 11
5034.387029613565
 21
-22950.02210532635
 31
0.0
  0
LINE
  5
193B3
330
1697E
100
AcDbEntity
  8
-TEXT3
370
    -2
100
AcDbLine
 10
2062.387029613565
 20
-22946.52210532636
 30
0.0
 11
5006.387029613565
 21
-22946.52210532636
 31
0.0
  0
SOLID
  5
193B4
330
1697E
100
AcDbEntity
  8
-TEXT3
100
AcDbTrace
 10
2062.387029613565
 20
-22941.85543865969
 30
0.0
 11
2062.387029613565
 21
-22951.18877199302
 31
0.0
 12
2034.387029613565
 22
-22946.52210532636
 32
0.0
 13
2034.387029613565
 23
-22946.52210532636
 33
0.0
  0
SOLID
  5
193B5
330
1697E
100
AcDbEntity
  8
-TEXT3
100
AcDbTrace
 10
5006.387029613565
 20
-22941.85543865969
 30
0.0
 11
5006.387029613565
 21
-22951.18877199302
 31
0.0
 12
5034.387029613565
 22
-22946.52210532636
 32
0.0
 13
5034.387029613565
 23
-22946.52210532636
 33
0.0
  0
MTEXT
  5
193B6
330
1697E
100
AcDbEntity
  8
-TEXT3
100
AcDbMText
 10
3534.387029613565
 20
-22919.13965875973
 30
0.0
 40
28.0
 41
0.0
 71
     5
 72
     1
  1
3000{\H14.000000;\S+3.0^ -0.0;}
 73
     1
 44
1.0
  0
POINT
  5
193B7
330
1697E
100
AcDbEntity
  8
Defpoints
 62
     0
100
AcDbPoint
 10
2034.387029613565
 20
-22860.32570025747
 30
0.0
  0
POINT
  5
193B8
330
1697E
100
AcDbEntity
  8
Defpoints
 62
     0
100
AcDbPoint
 10
5034.387029613565
 20
-22860.32570025747
 30
0.0
  0
POINT
  5
193B9
330
1697E
100
AcDbEntity
  8
Defpoints
 62
     0
100
AcDbPoint
 10
5034.387029613565
 20
-22946.52210532636
 30
0.0
  0
ENDBLK
  5
16989
330
1697E
100
AcDbEntity
  8
0
100
AcDbBlockEnd
  0
BLOCK
  5
16994
330
1698A
100
AcDbEntity
  8
0
100
AcDbBlockBegin
  2
*D214
 70
     1
 10
0.0
 20
0.0
 30
0.0
  3
*D214
  1

  0
LINE
  5
193BA
330
1698A
100
AcDbEntity
  8
-TEXT3
370
    -2
100
AcDbLine
 10
2284.387029613573
 20
-22793.09269846329
 30
0.0
 11
2284.387029613573
 21
-22861.82570025747
 31
0.0
  0
LINE
  5
193BB
330
1698A
100
AcDbEntity
  8
-TEXT3
370
    -2
100
AcDbLine
 10
2384.387029613574
 20
-22793.09269846329
 30
0.0
 11
2384.387029613574
 21
-22861.82570025747
 31
0.0
  0
LINE
  5
193BC
330
1698A
100
AcDbEntity
  8
-TEXT3
370
    -2
100
AcDbLine
 10
2312.387029613574
 20
-22858.32570025747
 30
0.0
 11
2356.387029613573
 21
-22858.32570025747
 31
0.0
  0
SOLID
  5
193BD
330
1698A
100
AcDbEntity
  8
-TEXT3
100
AcDbTrace
 10
2312.387029613574
 20
-22853.6590335908
 30
0.0
 11
2312.387029613574
 21
-22862.99236692414
 31
0.0
 12
2284.387029613573
 22
-22858.32570025747
 32
0.0
 13
2284.387029613573
 23
-22858.32570025747
 33
0.0
  0
SOLID
  5
193BE
330
1698A
100
AcDbEntity
  8
-TEXT3
100
AcDbTrace
 10
2356.387029613573
 20
-22853.6590335908
 30
0.0
 11
2356.387029613573
 21
-22862.99236692414
 31
0.0
 12
2384.387029613574
 22
-22858.32570025747
 32
0.0
 13
2384.387029613574
 23
-22858.32570025747
 33
0.0
  0
MTEXT
  5
193BF
330
1698A
100
AcDbEntity
  8
-TEXT3
100
AcDbMText
 10
2334.387029613573
 20
-22833.52965660127
 30
0.0
 40
28.0
 41
0.0
 71
     5
 72
     1
  1
100
 73
     1
 44
1.0
  0
POINT
  5
193C0
330
1698A
100
AcDbEntity
  8
Defpoints
 62
     0
100
AcDbPoint
 10
2284.387029613573
 20
-22782.59269846329
 30
0.0
  0
POINT
  5
193C1
330
1698A
100
AcDbEntity
  8
Defpoints
 62
     0
100
AcDbPoint
 10
2384.387029613574
 20
-22782.59269846329
 30
0.0
  0
POINT
  5
193C2
330
1698A
100
AcDbEntity
  8
Defpoints
 62
     0
100
AcDbPoint
 10
2384.387029613574
 20
-22858.32570025747
 30
0.0
  0
ENDBLK
  5
16995
330
1698A
100
AcDbEntity
  8
0
100
AcDbBlockEnd
  0
BLOCK
  5
169A0
330
16996
100
AcDbEntity
  8
0
100
AcDbBlockBegin
  2
*D215
 70
     1
 10
0.0
 20
0.0
 30
0.0
  3
*D215
  1

  0
LINE
  5
193C3
330
16996
100
AcDbEntity
  8
-TEXT3
370
    -2
100
AcDbLine
 10
2384.387029613574
 20
-22793.09269846329
 30
0.0
 11
2384.387029613574
 21
-22861.82570025747
 31
0.0
  0
LINE
  5
193C4
330
16996
100
AcDbEntity
  8
-TEXT3
370
    -2
100
AcDbLine
 10
2484.387029613574
 20
-22793.09269846329
 30
0.0
 11
2484.387029613574
 21
-22861.82570025747
 31
0.0
  0
LINE
  5
193C5
330
16996
100
AcDbEntity
  8
-TEXT3
370
    -2
100
AcDbLine
 10
2412.387029613574
 20
-22858.32570025747
 30
0.0
 11
2456.387029613573
 21
-22858.32570025747
 31
0.0
  0
SOLID
  5
193C6
330
16996
100
AcDbEntity
  8
-TEXT3
100
AcDbTrace
 10
2412.387029613574
 20
-22853.6590335908
 30
0.0
 11
2412.387029613574
 21
-22862.99236692414
 31
0.0
 12
2384.387029613574
 22
-22858.32570025747
 32
0.0
 13
2384.387029613574
 23
-22858.32570025747
 33
0.0
  0
SOLID
  5
193C7
330
16996
100
AcDbEntity
  8
-TEXT3
100
AcDbTrace
 10
2456.387029613573
 20
-22853.6590335908
 30
0.0
 11
2456.387029613573
 21
-22862.99236692414
 31
0.0
 12
2484.387029613574
 22
-22858.32570025747
 32
0.0
 13
2484.387029613574
 23
-22858.32570025747
 33
0.0
  0
MTEXT
  5
193C8
330
16996
100
AcDbEntity
  8
-TEXT3
100
AcDbMText
 10
2434.387029613573
 20
-22833.52965660127
 30
0.0
 40
28.0
 41
0.0
 71
     5
 72
     1
  1
100
 73
     1
 44
1.0
  0
POINT
  5
193C9
330
16996
100
AcDbEntity
  8
Defpoints
 62
     0
100
AcDbPoint
 10
2384.387029613574
 20
-22782.59269846329
 30
0.0
  0
POINT
  5
193CA
330
16996
100
AcDbEntity
  8
Defpoints
 62
     0
100
AcDbPoint
 10
2484.387029613574
 20
-22782.59269846329
 30
0.0
  0
POINT
  5
193CB
330
16996
100
AcDbEntity
  8
Defpoints
 62
     0
100
AcDbPoint
 10
2484.387029613574
 20
-22858.32570025747
 30
0.0
  0
ENDBLK
  5
169A1
330
16996
100
AcDbEntity
  8
0
100
AcDbBlockEnd
  0
BLOCK
  5
169AC
330
169A2
100
AcDbEntity
  8
0
100
AcDbBlockBegin
  2
*D216
 70
     1
 10
0.0
 20
0.0
 30
0.0
  3
*D216
  1

  0
LINE
  5
193CC
330
169A2
100
AcDbEntity
  8
-TEXT3
370
    -2
100
AcDbLine
 10
2484.387029613574
 20
-22793.09269846329
 30
0.0
 11
2484.387029613574
 21
-22861.82570025747
 31
0.0
  0
LINE
  5
193CD
330
169A2
100
AcDbEntity
  8
-TEXT3
370
    -2
100
AcDbLine
 10
2584.387029613573
 20
-22793.09269846329
 30
0.0
 11
2584.387029613573
 21
-22861.82570025747
 31
0.0
  0
LINE
  5
193CE
330
169A2
100
AcDbEntity
  8
-TEXT3
370
    -2
100
AcDbLine
 10
2512.387029613574
 20
-22858.32570025747
 30
0.0
 11
2556.387029613573
 21
-22858.32570025747
 31
0.0
  0
SOLID
  5
193CF
330
169A2
100
AcDbEntity
  8
-TEXT3
100
AcDbTrace
 10
2512.387029613574
 20
-22853.6590335908
 30
0.0
 11
2512.387029613574
 21
-22862.99236692414
 31
0.0
 12
2484.387029613574
 22
-22858.32570025747
 32
0.0
 13
2484.387029613574
 23
-22858.32570025747
 33
0.0
  0
SOLID
  5
193D0
330
169A2
100
AcDbEntity
  8
-TEXT3
100
AcDbTrace
 10
2556.387029613573
 20
-22853.6590335908
 30
0.0
 11
2556.387029613573
 21
-22862.99236692414
 31
0.0
 12
2584.387029613573
 22
-22858.32570025747
 32
0.0
 13
2584.387029613573
 23
-22858.32570025747
 33
0.0
  0
MTEXT
  5
193D1
330
169A2
100
AcDbEntity
  8
-TEXT3
100
AcDbMText
 10
2534.387029613573
 20
-22833.52965660127
 30
0.0
 40
28.0
 41
0.0
 71
     5
 72
     1
  1
100
 73
     1
 44
1.0
  0
POINT
  5
193D2
330
169A2
100
AcDbEntity
  8
Defpoints
 62
     0
100
AcDbPoint
 10
2484.387029613574
 20
-22782.59269846329
 30
0.0
  0
POINT
  5
193D3
330
169A2
100
AcDbEntity
  8
Defpoints
 62
     0
100
AcDbPoint
 10
2584.387029613573
 20
-22782.59269846329
 30
0.0
  0
POINT
  5
193D4
330
169A2
100
AcDbEntity
  8
Defpoints
 62
     0
100
AcDbPoint
 10
2584.387029613573
 20
-22858.32570025747
 30
0.0
  0
ENDBLK
  5
169AD
330
169A2
100
AcDbEntity
  8
0
100
AcDbBlockEnd
  0
BLOCK
  5
169B8
330
169AE
100
AcDbEntity
  8
0
100
AcDbBlockBegin
  2
*D217
 70
     1
 10
0.0
 20
0.0
 30
0.0
  3
*D217
  1

  0
LINE
  5
193D5
330
169AE
100
AcDbEntity
  8
-TEXT3
370
    -2
100
AcDbLine
 10
2584.387029613573
 20
-22793.09269846329
 30
0.0
 11
2584.387029613573
 21
-22861.82570025747
 31
0.0
  0
LINE
  5
193D6
330
169AE
100
AcDbEntity
  8
-TEXT3
370
    -2
100
AcDbLine
 10
2684.387029613573
 20
-22793.09269846329
 30
0.0
 11
2684.387029613573
 21
-22861.82570025747
 31
0.0
  0
LINE
  5
193D7
330
169AE
100
AcDbEntity
  8
-TEXT3
370
    -2
100
AcDbLine
 10
2612.387029613574
 20
-22858.32570025747
 30
0.0
 11
2656.387029613573
 21
-22858.32570025747
 31
0.0
  0
SOLID
  5
193D8
330
169AE
100
AcDbEntity
  8
-TEXT3
100
AcDbTrace
 10
2612.387029613574
 20
-22853.6590335908
 30
0.0
 11
2612.387029613574
 21
-22862.99236692414
 31
0.0
 12
2584.387029613573
 22
-22858.32570025747
 32
0.0
 13
2584.387029613573
 23
-22858.32570025747
 33
0.0
  0
SOLID
  5
193D9
330
169AE
100
AcDbEntity
  8
-TEXT3
100
AcDbTrace
 10
2656.387029613573
 20
-22853.6590335908
 30
0.0
 11
2656.387029613573
 21
-22862.99236692414
 31
0.0
 12
2684.387029613573
 22
-22858.32570025747
 32
0.0
 13
2684.387029613573
 23
-22858.32570025747
 33
0.0
  0
MTEXT
  5
193DA
330
169AE
100
AcDbEntity
  8
-TEXT3
100
AcDbMText
 10
2634.387029613574
 20
-22833.52965660127
 30
0.0
 40
28.0
 41
0.0
 71
     5
 72
     1
  1
100
 73
     1
 44
1.0
  0
POINT
  5
193DB
330
169AE
100
AcDbEntity
  8
Defpoints
 62
     0
100
AcDbPoint
 10
2584.387029613573
 20
-22782.59269846329
 30
0.0
  0
POINT
  5
193DC
330
169AE
100
AcDbEntity
  8
Defpoints
 62
     0
100
AcDbPoint
 10
2684.387029613573
 20
-22782.59269846329
 30
0.0
  0
POINT
  5
193DD
330
169AE
100
AcDbEntity
  8
Defpoints
 62
     0
100
AcDbPoint
 10
2684.387029613573
 20
-22858.32570025747
 30
0.0
  0
ENDBLK
  5
169B9
330
169AE
100
AcDbEntity
  8
0
100
AcDbBlockEnd
  0
BLOCK
  5
169C4
330
169BA
100
AcDbEntity
  8
0
100
AcDbBlockBegin
  2
*D218
 70
     1
 10
0.0
 20
0.0
 30
0.0
  3
*D218
  1

  0
LINE
  5
193DE
330
169BA
100
AcDbEntity
  8
-TEXT3
370
    -2
100
AcDbLine
 10
2684.387029613573
 20
-22793.09269846329
 30
0.0
 11
2684.387029613573
 21
-22861.82570025747
 31
0.0
  0
LINE
  5
193DF
330
169BA
100
AcDbEntity
  8
-TEXT3
370
    -2
100
AcDbLine
 10
2784.387029613573
 20
-22793.09269846329
 30
0.0
 11
2784.387029613573
 21
-22861.82570025747
 31
0.0
  0
LINE
  5
193E0
330
169BA
100
AcDbEntity
  8
-TEXT3
370
    -2
100
AcDbLine
 10
2712.387029613573
 20
-22858.32570025747
 30
0.0
 11
2756.387029613573
 21
-22858.32570025747
 31
0.0
  0
SOLID
  5
193E1
330
169BA
100
AcDbEntity
  8
-TEXT3
100
AcDbTrace
 10
2712.387029613573
 20
-22853.6590335908
 30
0.0
 11
2712.387029613573
 21
-22862.99236692414
 31
0.0
 12
2684.387029613573
 22
-22858.32570025747
 32
0.0
 13
2684.387029613573
 23
-22858.32570025747
 33
0.0
  0
SOLID
  5
193E2
330
169BA
100
AcDbEntity
  8
-TEXT3
100
AcDbTrace
 10
2756.387029613573
 20
-22853.6590335908
 30
0.0
 11
2756.387029613573
 21
-22862.99236692414
 31
0.0
 12
2784.387029613573
 22
-22858.32570025747
 32
0.0
 13
2784.387029613573
 23
-22858.32570025747
 33
0.0
  0
MTEXT
  5
193E3
330
169BA
100
AcDbEntity
  8
-TEXT3
100
AcDbMText
 10
2734.387029613574
 20
-22833.52965660127
 30
0.0
 40
28.0
 41
0.0
 71
     5
 72
     1
  1
100
 73
     1
 44
1.0
  0
POINT
  5
193E4
330
169BA
100
AcDbEntity
  8
Defpoints
 62
     0
100
AcDbPoint
 10
2684.387029613573
 20
-22782.59269846329
 30
0.0
  0
POINT
  5
193E5
330
169BA
100
AcDbEntity
  8
Defpoints
 62
     0
100
AcDbPoint
 10
2784.387029613573
 20
-22782.59269846329
 30
0.0
  0
POINT
  5
193E6
330
169BA
100
AcDbEntity
  8
Defpoints
 62
     0
100
AcDbPoint
 10
2784.387029613573
 20
-22858.32570025747
 30
0.0
  0
ENDBLK
  5
169C5
330
169BA
100
AcDbEntity
  8
0
100
AcDbBlockEnd
  0
BLOCK
  5
169D0
330
169C6
100
AcDbEntity
  8
0
100
AcDbBlockBegin
  2
*D219
 70
     1
 10
0.0
 20
0.0
 30
0.0
  3
*D219
  1

  0
LINE
  5
193E7
330
169C6
100
AcDbEntity
  8
-TEXT3
370
    -2
100
AcDbLine
 10
2784.387029613573
 20
-22793.09269846329
 30
0.0
 11
2784.387029613573
 21
-22861.82570025747
 31
0.0
  0
LINE
  5
193E8
330
169C6
100
AcDbEntity
  8
-TEXT3
370
    -2
100
AcDbLine
 10
2884.387029613574
 20
-22793.09269846329
 30
0.0
 11
2884.387029613574
 21
-22861.82570025747
 31
0.0
  0
LINE
  5
193E9
330
169C6
100
AcDbEntity
  8
-TEXT3
370
    -2
100
AcDbLine
 10
2812.387029613574
 20
-22858.32570025747
 30
0.0
 11
2856.387029613573
 21
-22858.32570025747
 31
0.0
  0
SOLID
  5
193EA
330
169C6
100
AcDbEntity
  8
-TEXT3
100
AcDbTrace
 10
2812.387029613574
 20
-22853.6590335908
 30
0.0
 11
2812.387029613574
 21
-22862.99236692414
 31
0.0
 12
2784.387029613573
 22
-22858.32570025747
 32
0.0
 13
2784.387029613573
 23
-22858.32570025747
 33
0.0
  0
SOLID
  5
193EB
330
169C6
100
AcDbEntity
  8
-TEXT3
100
AcDbTrace
 10
2856.387029613573
 20
-22853.6590335908
 30
0.0
 11
2856.387029613573
 21
-22862.99236692414
 31
0.0
 12
2884.387029613574
 22
-22858.32570025747
 32
0.0
 13
2884.387029613574
 23
-22858.32570025747
 33
0.0
  0
MTEXT
  5
193EC
330
169C6
100
AcDbEntity
  8
-TEXT3
100
AcDbMText
 10
2834.387029613573
 20
-22833.52965660127
 30
0.0
 40
28.0
 41
0.0
 71
     5
 72
     1
  1
100
 73
     1
 44
1.0
  0
POINT
  5
193ED
330
169C6
100
AcDbEntity
  8
Defpoints
 62
     0
100
AcDbPoint
 10
2784.387029613573
 20
-22782.59269846329
 30
0.0
  0
POINT
  5
193EE
330
169C6
100
AcDbEntity
  8
Defpoints
 62
     0
100
AcDbPoint
 10
2884.387029613574
 20
-22782.59269846329
 30
0.0
  0
POINT
  5
193EF
330
169C6
100
AcDbEntity
  8
Defpoints
 62
     0
100
AcDbPoint
 10
2884.387029613574
 20
-22858.32570025747
 30
0.0
  0
ENDBLK
  5
169D1
330
169C6
100
AcDbEntity
  8
0
100
AcDbBlockEnd
  0
BLOCK
  5
169DC
330
169D2
100
AcDbEntity
  8
0
100
AcDbBlockBegin
  2
*D220
 70
     1
 10
0.0
 20
0.0
 30
0.0
  3
*D220
  1

  0
LINE
  5
193F0
330
169D2
100
AcDbEntity
  8
-TEXT3
370
    -2
100
AcDbLine
 10
2884.387029613574
 20
-22793.09269846329
 30
0.0
 11
2884.387029613574
 21
-22861.82570025747
 31
0.0
  0
LINE
  5
193F1
330
169D2
100
AcDbEntity
  8
-TEXT3
370
    -2
100
AcDbLine
 10
2984.387029613574
 20
-22793.09269846329
 30
0.0
 11
2984.387029613574
 21
-22861.82570025747
 31
0.0
  0
LINE
  5
193F2
330
169D2
100
AcDbEntity
  8
-TEXT3
370
    -2
100
AcDbLine
 10
2912.387029613574
 20
-22858.32570025747
 30
0.0
 11
2956.387029613573
 21
-22858.32570025747
 31
0.0
  0
SOLID
  5
193F3
330
169D2
100
AcDbEntity
  8
-TEXT3
100
AcDbTrace
 10
2912.387029613574
 20
-22853.6590335908
 30
0.0
 11
2912.387029613574
 21
-22862.99236692414
 31
0.0
 12
2884.387029613574
 22
-22858.32570025747
 32
0.0
 13
2884.387029613574
 23
-22858.32570025747
 33
0.0
  0
SOLID
  5
193F4
330
169D2
100
AcDbEntity
  8
-TEXT3
100
AcDbTrace
 10
2956.387029613573
 20
-22853.6590335908
 30
0.0
 11
2956.387029613573
 21
-22862.99236692414
 31
0.0
 12
2984.387029613574
 22
-22858.32570025747
 32
0.0
 13
2984.387029613574
 23
-22858.32570025747
 33
0.0
  0
MTEXT
  5
193F5
330
169D2
100
AcDbEntity
  8
-TEXT3
100
AcDbMText
 10
2934.387029613573
 20
-22833.52965660127
 30
0.0
 40
28.0
 41
0.0
 71
     5
 72
     1
  1
100
 73
     1
 44
1.0
  0
POINT
  5
193F6
330
169D2
100
AcDbEntity
  8
Defpoints
 62
     0
100
AcDbPoint
 10
2884.387029613574
 20
-22782.59269846329
 30
0.0
  0
POINT
  5
193F7
330
169D2
100
AcDbEntity
  8
Defpoints
 62
     0
100
AcDbPoint
 10
2984.387029613574
 20
-22782.59269846329
 30
0.0
  0
POINT
  5
193F8
330
169D2
100
AcDbEntity
  8
Defpoints
 62
     0
100
AcDbPoint
 10
2984.387029613574
 20
-22858.32570025747
 30
0.0
  0
ENDBLK
  5
169DD
330
169D2
100
AcDbEntity
  8
0
100
AcDbBlockEnd
  0
BLOCK
  5
169E8
330
169DE
100
AcDbEntity
  8
0
100
AcDbBlockBegin
  2
*D221
 70
     1
 10
0.0
 20
0.0
 30
0.0
  3
*D221
  1

  0
LINE
  5
193F9
330
169DE
100
AcDbEntity
  8
-TEXT3
370
    -2
100
AcDbLine
 10
2984.387029613574
 20
-22793.09269846329
 30
0.0
 11
2984.387029613574
 21
-22861.82570025747
 31
0.0
  0
LINE
  5
193FA
330
169DE
100
AcDbEntity
  8
-TEXT3
370
    -2
100
AcDbLine
 10
3084.387029613573
 20
-22793.09269846329
 30
0.0
 11
3084.387029613573
 21
-22861.82570025747
 31
0.0
  0
LINE
  5
193FB
330
169DE
100
AcDbEntity
  8
-TEXT3
370
    -2
100
AcDbLine
 10
3012.387029613574
 20
-22858.32570025747
 30
0.0
 11
3056.387029613573
 21
-22858.32570025747
 31
0.0
  0
SOLID
  5
193FC
330
169DE
100
AcDbEntity
  8
-TEXT3
100
AcDbTrace
 10
3012.387029613574
 20
-22853.6590335908
 30
0.0
 11
3012.387029613574
 21
-22862.99236692414
 31
0.0
 12
2984.387029613574
 22
-22858.32570025747
 32
0.0
 13
2984.387029613574
 23
-22858.32570025747
 33
0.0
  0
SOLID
  5
193FD
330
169DE
100
AcDbEntity
  8
-TEXT3
100
AcDbTrace
 10
3056.387029613573
 20
-22853.6590335908
 30
0.0
 11
3056.387029613573
 21
-22862.99236692414
 31
0.0
 12
3084.387029613573
 22
-22858.32570025747
 32
0.0
 13
3084.387029613573
 23
-22858.32570025747
 33
0.0
  0
MTEXT
  5
193FE
330
169DE
100
AcDbEntity
  8
-TEXT3
100
AcDbMText
 10
3034.387029613573
 20
-22833.52965660127
 30
0.0
 40
28.0
 41
0.0
 71
     5
 72
     1
  1
100
 73
     1
 44
1.0
  0
POINT
  5
193FF
330
169DE
100
AcDbEntity
  8
Defpoints
 62
     0
100
AcDbPoint
 10
2984.387029613574
 20
-22782.59269846329
 30
0.0
  0
POINT
  5
19400
330
169DE
100
AcDbEntity
  8
Defpoints
 62
     0
100
AcDbPoint
 10
3084.387029613573
 20
-22782.59269846329
 30
0.0
  0
POINT
  5
19401
330
169DE
100
AcDbEntity
  8
Defpoints
 62
     0
100
AcDbPoint
 10
3084.387029613573
 20
-22858.32570025747
 30
0.0
  0
ENDBLK
  5
169E9
330
169DE
100
AcDbEntity
  8
0
100
AcDbBlockEnd
  0
BLOCK
  5
169F4
330
169EA
100
AcDbEntity
  8
0
100
AcDbBlockBegin
  2
*D222
 70
     1
 10
0.0
 20
0.0
 30
0.0
  3
*D222
  1

  0
LINE
  5
19402
330
169EA
100
AcDbEntity
  8
-TEXT3
370
    -2
100
AcDbLine
 10
3084.387029613573
 20
-22793.09269846329
 30
0.0
 11
3084.387029613573
 21
-22861.82570025747
 31
0.0
  0
LINE
  5
19403
330
169EA
100
AcDbEntity
  8
-TEXT3
370
    -2
100
AcDbLine
 10
3184.387029613573
 20
-22793.09269846329
 30
0.0
 11
3184.387029613573
 21
-22861.82570025747
 31
0.0
  0
LINE
  5
19404
330
169EA
100
AcDbEntity
  8
-TEXT3
370
    -2
100
AcDbLine
 10
3112.387029613574
 20
-22858.32570025747
 30
0.0
 11
3156.387029613573
 21
-22858.32570025747
 31
0.0
  0
SOLID
  5
19405
330
169EA
100
AcDbEntity
  8
-TEXT3
100
AcDbTrace
 10
3112.387029613574
 20
-22853.6590335908
 30
0.0
 11
3112.387029613574
 21
-22862.99236692414
 31
0.0
 12
3084.387029613573
 22
-22858.32570025747
 32
0.0
 13
3084.387029613573
 23
-22858.32570025747
 33
0.0
  0
SOLID
  5
19406
330
169EA
100
AcDbEntity
  8
-TEXT3
100
AcDbTrace
 10
3156.387029613573
 20
-22853.6590335908
 30
0.0
 11
3156.387029613573
 21
-22862.99236692414
 31
0.0
 12
3184.387029613573
 22
-22858.32570025747
 32
0.0
 13
3184.387029613573
 23
-22858.32570025747
 33
0.0
  0
MTEXT
  5
19407
330
169EA
100
AcDbEntity
  8
-TEXT3
100
AcDbMText
 10
3134.387029613574
 20
-22833.52965660127
 30
0.0
 40
28.0
 41
0.0
 71
     5
 72
     1
  1
100
 73
     1
 44
1.0
  0
POINT
  5
19408
330
169EA
100
AcDbEntity
  8
Defpoints
 62
     0
100
AcDbPoint
 10
3084.387029613573
 20
-22782.59269846329
 30
0.0
  0
POINT
  5
19409
330
169EA
100
AcDbEntity
  8
Defpoints
 62
     0
100
AcDbPoint
 10
3184.387029613573
 20
-22782.59269846329
 30
0.0
  0
POINT
  5
1940A
330
169EA
100
AcDbEntity
  8
Defpoints
 62
     0
100
AcDbPoint
 10
3184.387029613573
 20
-22858.32570025747
 30
0.0
  0
ENDBLK
  5
169F5
330
169EA
100
AcDbEntity
  8
0
100
AcDbBlockEnd
  0
BLOCK
  5
16A00
330
169F6
100
AcDbEntity
  8
0
100
AcDbBlockBegin
  2
*D223
 70
     1
 10
0.0
 20
0.0
 30
0.0
  3
*D223
  1

  0
LINE
  5
1940B
330
169F6
100
AcDbEntity
  8
-TEXT3
370
    -2
100
AcDbLine
 10
3184.387029613573
 20
-22793.09269846329
 30
0.0
 11
3184.387029613573
 21
-22861.82570025747
 31
0.0
  0
LINE
  5
1940C
330
169F6
100
AcDbEntity
  8
-TEXT3
370
    -2
100
AcDbLine
 10
3284.387029613573
 20
-22793.09269846329
 30
0.0
 11
3284.387029613573
 21
-22861.82570025747
 31
0.0
  0
LINE
  5
1940D
330
169F6
100
AcDbEntity
  8
-TEXT3
370
    -2
100
AcDbLine
 10
3212.387029613573
 20
-22858.32570025747
 30
0.0
 11
3256.387029613573
 21
-22858.32570025747
 31
0.0
  0
SOLID
  5
1940E
330
169F6
100
AcDbEntity
  8
-TEXT3
100
AcDbTrace
 10
3212.387029613573
 20
-22853.6590335908
 30
0.0
 11
3212.387029613573
 21
-22862.99236692414
 31
0.0
 12
3184.387029613573
 22
-22858.32570025747
 32
0.0
 13
3184.387029613573
 23
-22858.32570025747
 33
0.0
  0
SOLID
  5
1940F
330
169F6
100
AcDbEntity
  8
-TEXT3
100
AcDbTrace
 10
3256.387029613573
 20
-22853.6590335908
 30
0.0
 11
3256.387029613573
 21
-22862.99236692414
 31
0.0
 12
3284.387029613573
 22
-22858.32570025747
 32
0.0
 13
3284.387029613573
 23
-22858.32570025747
 33
0.0
  0
MTEXT
  5
19410
330
169F6
100
AcDbEntity
  8
-TEXT3
100
AcDbMText
 10
3234.387029613574
 20
-22833.52965660127
 30
0.0
 40
28.0
 41
0.0
 71
     5
 72
     1
  1
100
 73
     1
 44
1.0
  0
POINT
  5
19411
330
169F6
100
AcDbEntity
  8
Defpoints
 62
     0
100
AcDbPoint
 10
3184.387029613573
 20
-22782.59269846329
 30
0.0
  0
POINT
  5
19412
330
169F6
100
AcDbEntity
  8
Defpoints
 62
     0
100
AcDbPoint
 10
3284.387029613573
 20
-22782.59269846329
 30
0.0
  0
POINT
  5
19413
330
169F6
100
AcDbEntity
  8
Defpoints
 62
     0
100
AcDbPoint
 10
3284.387029613573
 20
-22858.32570025747
 30
0.0
  0
ENDBLK
  5
16A01
330
169F6
100
AcDbEntity
  8
0
100
AcDbBlockEnd
  0
BLOCK
  5
16A0C
330
16A02
100
AcDbEntity
  8
0
100
AcDbBlockBegin
  2
*D224
 70
     1
 10
0.0
 20
0.0
 30
0.0
  3
*D224
  1

  0
LINE
  5
19414
330
16A02
100
AcDbEntity
  8
-TEXT3
370
    -2
100
AcDbLine
 10
3284.387029613573
 20
-22793.09269846329
 30
0.0
 11
3284.387029613573
 21
-22861.82570025747
 31
0.0
  0
LINE
  5
19415
330
16A02
100
AcDbEntity
  8
-TEXT3
370
    -2
100
AcDbLine
 10
3384.387029613574
 20
-22793.09269846329
 30
0.0
 11
3384.387029613574
 21
-22861.82570025747
 31
0.0
  0
LINE
  5
19416
330
16A02
100
AcDbEntity
  8
-TEXT3
370
    -2
100
AcDbLine
 10
3312.387029613574
 20
-22858.32570025747
 30
0.0
 11
3356.387029613574
 21
-22858.32570025747
 31
0.0
  0
SOLID
  5
19417
330
16A02
100
AcDbEntity
  8
-TEXT3
100
AcDbTrace
 10
3312.387029613574
 20
-22853.6590335908
 30
0.0
 11
3312.387029613574
 21
-22862.99236692414
 31
0.0
 12
3284.387029613573
 22
-22858.32570025747
 32
0.0
 13
3284.387029613573
 23
-22858.32570025747
 33
0.0
  0
SOLID
  5
19418
330
16A02
100
AcDbEntity
  8
-TEXT3
100
AcDbTrace
 10
3356.387029613574
 20
-22853.6590335908
 30
0.0
 11
3356.387029613574
 21
-22862.99236692414
 31
0.0
 12
3384.387029613574
 22
-22858.32570025747
 32
0.0
 13
3384.387029613574
 23
-22858.32570025747
 33
0.0
  0
MTEXT
  5
19419
330
16A02
100
AcDbEntity
  8
-TEXT3
100
AcDbMText
 10
3334.387029613573
 20
-22833.52965660127
 30
0.0
 40
28.0
 41
0.0
 71
     5
 72
     1
  1
100
 73
     1
 44
1.0
  0
POINT
  5
1941A
330
16A02
100
AcDbEntity
  8
Defpoints
 62
     0
100
AcDbPoint
 10
3284.387029613573
 20
-22782.59269846329
 30
0.0
  0
POINT
  5
1941B
330
16A02
100
AcDbEntity
  8
Defpoints
 62
     0
100
AcDbPoint
 10
3384.387029613574
 20
-22782.59269846329
 30
0.0
  0
POINT
  5
1941C
330
16A02
100
AcDbEntity
  8
Defpoints
 62
     0
100
AcDbPoint
 10
3384.387029613574
 20
-22858.32570025747
 30
0.0
  0
ENDBLK
  5
16A0D
330
16A02
100
AcDbEntity
  8
0
100
AcDbBlockEnd
  0
BLOCK
  5
16A18
330
16A0E
100
AcDbEntity
  8
0
100
AcDbBlockBegin
  2
*D225
 70
     1
 10
0.0
 20
0.0
 30
0.0
  3
*D225
  1

  0
LINE
  5
1941D
330
16A0E
100
AcDbEntity
  8
-TEXT3
370
    -2
100
AcDbLine
 10
3384.387029613574
 20
-22793.09269846329
 30
0.0
 11
3384.387029613574
 21
-22861.82570025747
 31
0.0
  0
LINE
  5
1941E
330
16A0E
100
AcDbEntity
  8
-TEXT3
370
    -2
100
AcDbLine
 10
3484.387029613574
 20
-22793.09269846329
 30
0.0
 11
3484.387029613574
 21
-22861.82570025747
 31
0.0
  0
LINE
  5
1941F
330
16A0E
100
AcDbEntity
  8
-TEXT3
370
    -2
100
AcDbLine
 10
3412.387029613574
 20
-22858.32570025747
 30
0.0
 11
3456.387029613573
 21
-22858.32570025747
 31
0.0
  0
SOLID
  5
19420
330
16A0E
100
AcDbEntity
  8
-TEXT3
100
AcDbTrace
 10
3412.387029613574
 20
-22853.6590335908
 30
0.0
 11
3412.387029613574
 21
-22862.99236692414
 31
0.0
 12
3384.387029613574
 22
-22858.32570025747
 32
0.0
 13
3384.387029613574
 23
-22858.32570025747
 33
0.0
  0
SOLID
  5
19421
330
16A0E
100
AcDbEntity
  8
-TEXT3
100
AcDbTrace
 10
3456.387029613573
 20
-22853.6590335908
 30
0.0
 11
3456.387029613573
 21
-22862.99236692414
 31
0.0
 12
3484.387029613574
 22
-22858.32570025747
 32
0.0
 13
3484.387029613574
 23
-22858.32570025747
 33
0.0
  0
MTEXT
  5
19422
330
16A0E
100
AcDbEntity
  8
-TEXT3
100
AcDbMText
 10
3434.387029613573
 20
-22833.52965660127
 30
0.0
 40
28.0
 41
0.0
 71
     5
 72
     1
  1
100
 73
     1
 44
1.0
  0
POINT
  5
19423
330
16A0E
100
AcDbEntity
  8
Defpoints
 62
     0
100
AcDbPoint
 10
3384.387029613574
 20
-22782.59269846329
 30
0.0
  0
POINT
  5
19424
330
16A0E
100
AcDbEntity
  8
Defpoints
 62
     0
100
AcDbPoint
 10
3484.387029613574
 20
-22782.59269846329
 30
0.0
  0
POINT
  5
19425
330
16A0E
100
AcDbEntity
  8
Defpoints
 62
     0
100
AcDbPoint
 10
3484.387029613574
 20
-22858.32570025747
 30
0.0
  0
ENDBLK
  5
16A19
330
16A0E
100
AcDbEntity
  8
0
100
AcDbBlockEnd
  0
BLOCK
  5
16A24
330
16A1A
100
AcDbEntity
  8
0
100
AcDbBlockBegin
  2
*D226
 70
     1
 10
0.0
 20
0.0
 30
0.0
  3
*D226
  1

  0
LINE
  5
19426
330
16A1A
100
AcDbEntity
  8
-TEXT3
370
    -2
100
AcDbLine
 10
3484.387029613574
 20
-22793.09269846329
 30
0.0
 11
3484.387029613574
 21
-22861.82570025747
 31
0.0
  0
LINE
  5
19427
330
16A1A
100
AcDbEntity
  8
-TEXT3
370
    -2
100
AcDbLine
 10
3584.387029613573
 20
-22793.09269846329
 30
0.0
 11
3584.387029613573
 21
-22861.82570025747
 31
0.0
  0
LINE
  5
19428
330
16A1A
100
AcDbEntity
  8
-TEXT3
370
    -2
100
AcDbLine
 10
3512.387029613574
 20
-22858.32570025747
 30
0.0
 11
3556.387029613573
 21
-22858.32570025747
 31
0.0
  0
SOLID
  5
19429
330
16A1A
100
AcDbEntity
  8
-TEXT3
100
AcDbTrace
 10
3512.387029613574
 20
-22853.6590335908
 30
0.0
 11
3512.387029613574
 21
-22862.99236692414
 31
0.0
 12
3484.387029613574
 22
-22858.32570025747
 32
0.0
 13
3484.387029613574
 23
-22858.32570025747
 33
0.0
  0
SOLID
  5
1942A
330
16A1A
100
AcDbEntity
  8
-TEXT3
100
AcDbTrace
 10
3556.387029613573
 20
-22853.6590335908
 30
0.0
 11
3556.387029613573
 21
-22862.99236692414
 31
0.0
 12
3584.387029613573
 22
-22858.32570025747
 32
0.0
 13
3584.387029613573
 23
-22858.32570025747
 33
0.0
  0
MTEXT
  5
1942B
330
16A1A
100
AcDbEntity
  8
-TEXT3
100
AcDbMText
 10
3534.387029613573
 20
-22833.52965660127
 30
0.0
 40
28.0
 41
0.0
 71
     5
 72
     1
  1
100
 73
     1
 44
1.0
  0
POINT
  5
1942C
330
16A1A
100
AcDbEntity
  8
Defpoints
 62
     0
100
AcDbPoint
 10
3484.387029613574
 20
-22782.59269846329
 30
0.0
  0
POINT
  5
1942D
330
16A1A
100
AcDbEntity
  8
Defpoints
 62
     0
100
AcDbPoint
 10
3584.387029613573
 20
-22782.59269846329
 30
0.0
  0
POINT
  5
1942E
330
16A1A
100
AcDbEntity
  8
Defpoints
 62
     0
100
AcDbPoint
 10
3584.387029613573
 20
-22858.32570025747
 30
0.0
  0
ENDBLK
  5
16A25
330
16A1A
100
AcDbEntity
  8
0
100
AcDbBlockEnd
  0
BLOCK
  5
16A30
330
16A26
100
AcDbEntity
  8
0
100
AcDbBlockBegin
  2
*D227
 70
     1
 10
0.0
 20
0.0
 30
0.0
  3
*D227
  1

  0
LINE
  5
1942F
330
16A26
100
AcDbEntity
  8
-TEXT3
370
    -2
100
AcDbLine
 10
3584.387029613573
 20
-22793.09269846329
 30
0.0
 11
3584.387029613573
 21
-22861.82570025747
 31
0.0
  0
LINE
  5
19430
330
16A26
100
AcDbEntity
  8
-TEXT3
370
    -2
100
AcDbLine
 10
3684.387029613573
 20
-22793.09269846329
 30
0.0
 11
3684.387029613573
 21
-22861.82570025747
 31
0.0
  0
LINE
  5
19431
330
16A26
100
AcDbEntity
  8
-TEXT3
370
    -2
100
AcDbLine
 10
3612.387029613574
 20
-22858.32570025747
 30
0.0
 11
3656.387029613573
 21
-22858.32570025747
 31
0.0
  0
SOLID
  5
19432
330
16A26
100
AcDbEntity
  8
-TEXT3
100
AcDbTrace
 10
3612.387029613574
 20
-22853.6590335908
 30
0.0
 11
3612.387029613574
 21
-22862.99236692414
 31
0.0
 12
3584.387029613573
 22
-22858.32570025747
 32
0.0
 13
3584.387029613573
 23
-22858.32570025747
 33
0.0
  0
SOLID
  5
19433
330
16A26
100
AcDbEntity
  8
-TEXT3
100
AcDbTrace
 10
3656.387029613573
 20
-22853.6590335908
 30
0.0
 11
3656.387029613573
 21
-22862.99236692414
 31
0.0
 12
3684.387029613573
 22
-22858.32570025747
 32
0.0
 13
3684.387029613573
 23
-22858.32570025747
 33
0.0
  0
MTEXT
  5
19434
330
16A26
100
AcDbEntity
  8
-TEXT3
100
AcDbMText
 10
3634.387029613574
 20
-22833.52965660127
 30
0.0
 40
28.0
 41
0.0
 71
     5
 72
     1
  1
100
 73
     1
 44
1.0
  0
POINT
  5
19435
330
16A26
100
AcDbEntity
  8
Defpoints
 62
     0
100
AcDbPoint
 10
3584.387029613573
 20
-22782.59269846329
 30
0.0
  0
POINT
  5
19436
330
16A26
100
AcDbEntity
  8
Defpoints
 62
     0
100
AcDbPoint
 10
3684.387029613573
 20
-22782.59269846329
 30
0.0
  0
POINT
  5
19437
330
16A26
100
AcDbEntity
  8
Defpoints
 62
     0
100
AcDbPoint
 10
3684.387029613573
 20
-22858.32570025747
 30
0.0
  0
ENDBLK
  5
16A31
330
16A26
100
AcDbEntity
  8
0
100
AcDbBlockEnd
  0
BLOCK
  5
16A3C
330
16A32
100
AcDbEntity
  8
0
100
AcDbBlockBegin
  2
*D228
 70
     1
 10
0.0
 20
0.0
 30
0.0
  3
*D228
  1

  0
LINE
  5
19438
330
16A32
100
AcDbEntity
  8
-TEXT3
370
    -2
100
AcDbLine
 10
3684.387029613573
 20
-22793.09269846329
 30
0.0
 11
3684.387029613573
 21
-22861.82570025747
 31
0.0
  0
LINE
  5
19439
330
16A32
100
AcDbEntity
  8
-TEXT3
370
    -2
100
AcDbLine
 10
3784.387029613573
 20
-22793.09269846329
 30
0.0
 11
3784.387029613573
 21
-22861.82570025747
 31
0.0
  0
LINE
  5
1943A
330
16A32
100
AcDbEntity
  8
-TEXT3
370
    -2
100
AcDbLine
 10
3712.387029613573
 20
-22858.32570025747
 30
0.0
 11
3756.387029613573
 21
-22858.32570025747
 31
0.0
  0
SOLID
  5
1943B
330
16A32
100
AcDbEntity
  8
-TEXT3
100
AcDbTrace
 10
3712.387029613573
 20
-22853.6590335908
 30
0.0
 11
3712.387029613573
 21
-22862.99236692414
 31
0.0
 12
3684.387029613573
 22
-22858.32570025747
 32
0.0
 13
3684.387029613573
 23
-22858.32570025747
 33
0.0
  0
SOLID
  5
1943C
330
16A32
100
AcDbEntity
  8
-TEXT3
100
AcDbTrace
 10
3756.387029613573
 20
-22853.6590335908
 30
0.0
 11
3756.387029613573
 21
-22862.99236692414
 31
0.0
 12
3784.387029613573
 22
-22858.32570025747
 32
0.0
 13
3784.387029613573
 23
-22858.32570025747
 33
0.0
  0
MTEXT
  5
1943D
330
16A32
100
AcDbEntity
  8
-TEXT3
100
AcDbMText
 10
3734.387029613574
 20
-22833.52965660127
 30
0.0
 40
28.0
 41
0.0
 71
     5
 72
     1
  1
100
 73
     1
 44
1.0
  0
POINT
  5
1943E
330
16A32
100
AcDbEntity
  8
Defpoints
 62
     0
100
AcDbPoint
 10
3684.387029613573
 20
-22782.59269846329
 30
0.0
  0
POINT
  5
1943F
330
16A32
100
AcDbEntity
  8
Defpoints
 62
     0
100
AcDbPoint
 10
3784.387029613573
 20
-22782.59269846329
 30
0.0
  0
POINT
  5
19440
330
16A32
100
AcDbEntity
  8
Defpoints
 62
     0
100
AcDbPoint
 10
3784.387029613573
 20
-22858.32570025747
 30
0.0
  0
ENDBLK
  5
16A3D
330
16A32
100
AcDbEntity
  8
0
100
AcDbBlockEnd
  0
BLOCK
  5
16A48
330
16A3E
100
AcDbEntity
  8
0
100
AcDbBlockBegin
  2
*D229
 70
     1
 10
0.0
 20
0.0
 30
0.0
  3
*D229
  1

  0
LINE
  5
19441
330
16A3E
100
AcDbEntity
  8
-TEXT3
370
    -2
100
AcDbLine
 10
3784.387029613573
 20
-22793.09269846329
 30
0.0
 11
3784.387029613573
 21
-22861.82570025747
 31
0.0
  0
LINE
  5
19442
330
16A3E
100
AcDbEntity
  8
-TEXT3
370
    -2
100
AcDbLine
 10
3884.387029613574
 20
-22793.09269846329
 30
0.0
 11
3884.387029613574
 21
-22861.82570025747
 31
0.0
  0
LINE
  5
19443
330
16A3E
100
AcDbEntity
  8
-TEXT3
370
    -2
100
AcDbLine
 10
3812.387029613574
 20
-22858.32570025747
 30
0.0
 11
3856.387029613573
 21
-22858.32570025747
 31
0.0
  0
SOLID
  5
19444
330
16A3E
100
AcDbEntity
  8
-TEXT3
100
AcDbTrace
 10
3812.387029613574
 20
-22853.6590335908
 30
0.0
 11
3812.387029613574
 21
-22862.99236692414
 31
0.0
 12
3784.387029613573
 22
-22858.32570025747
 32
0.0
 13
3784.387029613573
 23
-22858.32570025747
 33
0.0
  0
SOLID
  5
19445
330
16A3E
100
AcDbEntity
  8
-TEXT3
100
AcDbTrace
 10
3856.387029613573
 20
-22853.6590335908
 30
0.0
 11
3856.387029613573
 21
-22862.99236692414
 31
0.0
 12
3884.387029613574
 22
-22858.32570025747
 32
0.0
 13
3884.387029613574
 23
-22858.32570025747
 33
0.0
  0
MTEXT
  5
19446
330
16A3E
100
AcDbEntity
  8
-TEXT3
100
AcDbMText
 10
3834.387029613573
 20
-22833.52965660127
 30
0.0
 40
28.0
 41
0.0
 71
     5
 72
     1
  1
100
 73
     1
 44
1.0
  0
POINT
  5
19447
330
16A3E
100
AcDbEntity
  8
Defpoints
 62
     0
100
AcDbPoint
 10
3784.387029613573
 20
-22782.59269846329
 30
0.0
  0
POINT
  5
19448
330
16A3E
100
AcDbEntity
  8
Defpoints
 62
     0
100
AcDbPoint
 10
3884.387029613574
 20
-22782.59269846329
 30
0.0
  0
POINT
  5
19449
330
16A3E
100
AcDbEntity
  8
Defpoints
 62
     0
100
AcDbPoint
 10
3884.387029613574
 20
-22858.32570025747
 30
0.0
  0
ENDBLK
  5
16A49
330
16A3E
100
AcDbEntity
  8
0
100
AcDbBlockEnd
  0
BLOCK
  5
16A54
330
16A4A
100
AcDbEntity
  8
0
100
AcDbBlockBegin
  2
*D230
 70
     1
 10
0.0
 20
0.0
 30
0.0
  3
*D230
  1

  0
LINE
  5
1944A
330
16A4A
100
AcDbEntity
  8
-TEXT3
370
    -2
100
AcDbLine
 10
3884.387029613574
 20
-22793.09269846329
 30
0.0
 11
3884.387029613574
 21
-22861.82570025747
 31
0.0
  0
LINE
  5
1944B
330
16A4A
100
AcDbEntity
  8
-TEXT3
370
    -2
100
AcDbLine
 10
3984.387029613574
 20
-22793.09269846329
 30
0.0
 11
3984.387029613574
 21
-22861.82570025747
 31
0.0
  0
LINE
  5
1944C
330
16A4A
100
AcDbEntity
  8
-TEXT3
370
    -2
100
AcDbLine
 10
3912.387029613574
 20
-22858.32570025747
 30
0.0
 11
3956.387029613573
 21
-22858.32570025747
 31
0.0
  0
SOLID
  5
1944D
330
16A4A
100
AcDbEntity
  8
-TEXT3
100
AcDbTrace
 10
3912.387029613574
 20
-22853.6590335908
 30
0.0
 11
3912.387029613574
 21
-22862.99236692414
 31
0.0
 12
3884.387029613574
 22
-22858.32570025747
 32
0.0
 13
3884.387029613574
 23
-22858.32570025747
 33
0.0
  0
SOLID
  5
1944E
330
16A4A
100
AcDbEntity
  8
-TEXT3
100
AcDbTrace
 10
3956.387029613573
 20
-22853.6590335908
 30
0.0
 11
3956.387029613573
 21
-22862.99236692414
 31
0.0
 12
3984.387029613574
 22
-22858.32570025747
 32
0.0
 13
3984.387029613574
 23
-22858.32570025747
 33
0.0
  0
MTEXT
  5
1944F
330
16A4A
100
AcDbEntity
  8
-TEXT3
100
AcDbMText
 10
3934.387029613573
 20
-22833.52965660127
 30
0.0
 40
28.0
 41
0.0
 71
     5
 72
     1
  1
100
 73
     1
 44
1.0
  0
POINT
  5
19450
330
16A4A
100
AcDbEntity
  8
Defpoints
 62
     0
100
AcDbPoint
 10
3884.387029613574
 20
-22782.59269846329
 30
0.0
  0
POINT
  5
19451
330
16A4A
100
AcDbEntity
  8
Defpoints
 62
     0
100
AcDbPoint
 10
3984.387029613574
 20
-22782.59269846329
 30
0.0
  0
POINT
  5
19452
330
16A4A
100
AcDbEntity
  8
Defpoints
 62
     0
100
AcDbPoint
 10
3984.387029613574
 20
-22858.32570025747
 30
0.0
  0
ENDBLK
  5
16A55
330
16A4A
100
AcDbEntity
  8
0
100
AcDbBlockEnd
  0
BLOCK
  5
16A60
330
16A56
100
AcDbEntity
  8
0
100
AcDbBlockBegin
  2
*D231
 70
     1
 10
0.0
 20
0.0
 30
0.0
  3
*D231
  1

  0
LINE
  5
19453
330
16A56
100
AcDbEntity
  8
-TEXT3
370
    -2
100
AcDbLine
 10
3984.387029613574
 20
-22793.09269846329
 30
0.0
 11
3984.387029613574
 21
-22861.82570025747
 31
0.0
  0
LINE
  5
19454
330
16A56
100
AcDbEntity
  8
-TEXT3
370
    -2
100
AcDbLine
 10
4084.387029613574
 20
-22793.09269846329
 30
0.0
 11
4084.387029613574
 21
-22861.82570025747
 31
0.0
  0
LINE
  5
19455
330
16A56
100
AcDbEntity
  8
-TEXT3
370
    -2
100
AcDbLine
 10
4012.387029613573
 20
-22858.32570025747
 30
0.0
 11
4056.387029613573
 21
-22858.32570025747
 31
0.0
  0
SOLID
  5
19456
330
16A56
100
AcDbEntity
  8
-TEXT3
100
AcDbTrace
 10
4012.387029613573
 20
-22853.6590335908
 30
0.0
 11
4012.387029613573
 21
-22862.99236692414
 31
0.0
 12
3984.387029613574
 22
-22858.32570025747
 32
0.0
 13
3984.387029613574
 23
-22858.32570025747
 33
0.0
  0
SOLID
  5
19457
330
16A56
100
AcDbEntity
  8
-TEXT3
100
AcDbTrace
 10
4056.387029613573
 20
-22853.6590335908
 30
0.0
 11
4056.387029613573
 21
-22862.99236692414
 31
0.0
 12
4084.387029613574
 22
-22858.32570025747
 32
0.0
 13
4084.387029613574
 23
-22858.32570025747
 33
0.0
  0
MTEXT
  5
19458
330
16A56
100
AcDbEntity
  8
-TEXT3
100
AcDbMText
 10
4034.387029613574
 20
-22833.52965660127
 30
0.0
 40
28.0
 41
0.0
 71
     5
 72
     1
  1
100
 73
     1
 44
1.0
  0
POINT
  5
19459
330
16A56
100
AcDbEntity
  8
Defpoints
 62
     0
100
AcDbPoint
 10
3984.387029613574
 20
-22782.59269846329
 30
0.0
  0
POINT
  5
1945A
330
16A56
100
AcDbEntity
  8
Defpoints
 62
     0
100
AcDbPoint
 10
4084.387029613574
 20
-22782.59269846329
 30
0.0
  0
POINT
  5
1945B
330
16A56
100
AcDbEntity
  8
Defpoints
 62
     0
100
AcDbPoint
 10
4084.387029613574
 20
-22858.32570025747
 30
0.0
  0
ENDBLK
  5
16A61
330
16A56
100
AcDbEntity
  8
0
100
AcDbBlockEnd
  0
BLOCK
  5
16A6C
330
16A62
100
AcDbEntity
  8
0
100
AcDbBlockBegin
  2
*D232
 70
     1
 10
0.0
 20
0.0
 30
0.0
  3
*D232
  1

  0
LINE
  5
1945C
330
16A62
100
AcDbEntity
  8
-TEXT3
370
    -2
100
AcDbLine
 10
4084.387029613574
 20
-22793.09269846329
 30
0.0
 11
4084.387029613574
 21
-22861.82570025747
 31
0.0
  0
LINE
  5
1945D
330
16A62
100
AcDbEntity
  8
-TEXT3
370
    -2
100
AcDbLine
 10
4184.387029613573
 20
-22793.09269846329
 30
0.0
 11
4184.387029613573
 21
-22861.82570025747
 31
0.0
  0
LINE
  5
1945E
330
16A62
100
AcDbEntity
  8
-TEXT3
370
    -2
100
AcDbLine
 10
4112.387029613574
 20
-22858.32570025747
 30
0.0
 11
4156.387029613574
 21
-22858.32570025747
 31
0.0
  0
SOLID
  5
1945F
330
16A62
100
AcDbEntity
  8
-TEXT3
100
AcDbTrace
 10
4112.387029613574
 20
-22853.6590335908
 30
0.0
 11
4112.387029613574
 21
-22862.99236692414
 31
0.0
 12
4084.387029613574
 22
-22858.32570025747
 32
0.0
 13
4084.387029613574
 23
-22858.32570025747
 33
0.0
  0
SOLID
  5
19460
330
16A62
100
AcDbEntity
  8
-TEXT3
100
AcDbTrace
 10
4156.387029613574
 20
-22853.6590335908
 30
0.0
 11
4156.387029613574
 21
-22862.99236692414
 31
0.0
 12
4184.387029613573
 22
-22858.32570025747
 32
0.0
 13
4184.387029613573
 23
-22858.32570025747
 33
0.0
  0
MTEXT
  5
19461
330
16A62
100
AcDbEntity
  8
-TEXT3
100
AcDbMText
 10
4134.387029613574
 20
-22833.52965660127
 30
0.0
 40
28.0
 41
0.0
 71
     5
 72
     1
  1
100
 73
     1
 44
1.0
  0
POINT
  5
19462
330
16A62
100
AcDbEntity
  8
Defpoints
 62
     0
100
AcDbPoint
 10
4084.387029613574
 20
-22782.59269846329
 30
0.0
  0
POINT
  5
19463
330
16A62
100
AcDbEntity
  8
Defpoints
 62
     0
100
AcDbPoint
 10
4184.387029613573
 20
-22782.59269846329
 30
0.0
  0
POINT
  5
19464
330
16A62
100
AcDbEntity
  8
Defpoints
 62
     0
100
AcDbPoint
 10
4184.387029613573
 20
-22858.32570025747
 30
0.0
  0
ENDBLK
  5
16A6D
330
16A62
100
AcDbEntity
  8
0
100
AcDbBlockEnd
  0
BLOCK
  5
16A78
330
16A6E
100
AcDbEntity
  8
0
100
AcDbBlockBegin
  2
*D233
 70
     1
 10
0.0
 20
0.0
 30
0.0
  3
*D233
  1

  0
LINE
  5
19465
330
16A6E
100
AcDbEntity
  8
-TEXT3
370
    -2
100
AcDbLine
 10
4184.387029613573
 20
-22793.09269846329
 30
0.0
 11
4184.387029613573
 21
-22861.82570025747
 31
0.0
  0
LINE
  5
19466
330
16A6E
100
AcDbEntity
  8
-TEXT3
370
    -2
100
AcDbLine
 10
4284.387029613574
 20
-22793.09269846329
 30
0.0
 11
4284.387029613574
 21
-22861.82570025747
 31
0.0
  0
LINE
  5
19467
330
16A6E
100
AcDbEntity
  8
-TEXT3
370
    -2
100
AcDbLine
 10
4212.387029613574
 20
-22858.32570025747
 30
0.0
 11
4256.387029613573
 21
-22858.32570025747
 31
0.0
  0
SOLID
  5
19468
330
16A6E
100
AcDbEntity
  8
-TEXT3
100
AcDbTrace
 10
4212.387029613574
 20
-22853.6590335908
 30
0.0
 11
4212.387029613574
 21
-22862.99236692414
 31
0.0
 12
4184.387029613573
 22
-22858.32570025747
 32
0.0
 13
4184.387029613573
 23
-22858.32570025747
 33
0.0
  0
SOLID
  5
19469
330
16A6E
100
AcDbEntity
  8
-TEXT3
100
AcDbTrace
 10
4256.387029613573
 20
-22853.6590335908
 30
0.0
 11
4256.387029613573
 21
-22862.99236692414
 31
0.0
 12
4284.387029613574
 22
-22858.32570025747
 32
0.0
 13
4284.387029613574
 23
-22858.32570025747
 33
0.0
  0
MTEXT
  5
1946A
330
16A6E
100
AcDbEntity
  8
-TEXT3
100
AcDbMText
 10
4234.387029613574
 20
-22833.52965660127
 30
0.0
 40
28.0
 41
0.0
 71
     5
 72
     1
  1
100
 73
     1
 44
1.0
  0
POINT
  5
1946B
330
16A6E
100
AcDbEntity
  8
Defpoints
 62
     0
100
AcDbPoint
 10
4184.387029613573
 20
-22782.59269846329
 30
0.0
  0
POINT
  5
1946C
330
16A6E
100
AcDbEntity
  8
Defpoints
 62
     0
100
AcDbPoint
 10
4284.387029613574
 20
-22782.59269846329
 30
0.0
  0
POINT
  5
1946D
330
16A6E
100
AcDbEntity
  8
Defpoints
 62
     0
100
AcDbPoint
 10
4284.387029613574
 20
-22858.32570025747
 30
0.0
  0
ENDBLK
  5
16A79
330
16A6E
100
AcDbEntity
  8
0
100
AcDbBlockEnd
  0
BLOCK
  5
16A84
330
16A7A
100
AcDbEntity
  8
0
100
AcDbBlockBegin
  2
*D234
 70
     1
 10
0.0
 20
0.0
 30
0.0
  3
*D234
  1

  0
LINE
  5
1946E
330
16A7A
100
AcDbEntity
  8
-TEXT3
370
    -2
100
AcDbLine
 10
4284.387029613574
 20
-22793.09269846329
 30
0.0
 11
4284.387029613574
 21
-22861.82570025747
 31
0.0
  0
LINE
  5
1946F
330
16A7A
100
AcDbEntity
  8
-TEXT3
370
    -2
100
AcDbLine
 10
4384.387029613574
 20
-22793.09269846329
 30
0.0
 11
4384.387029613574
 21
-22861.82570025747
 31
0.0
  0
LINE
  5
19470
330
16A7A
100
AcDbEntity
  8
-TEXT3
370
    -2
100
AcDbLine
 10
4312.387029613574
 20
-22858.32570025747
 30
0.0
 11
4356.387029613574
 21
-22858.32570025747
 31
0.0
  0
SOLID
  5
19471
330
16A7A
100
AcDbEntity
  8
-TEXT3
100
AcDbTrace
 10
4312.387029613574
 20
-22853.6590335908
 30
0.0
 11
4312.387029613574
 21
-22862.99236692414
 31
0.0
 12
4284.387029613574
 22
-22858.32570025747
 32
0.0
 13
4284.387029613574
 23
-22858.32570025747
 33
0.0
  0
SOLID
  5
19472
330
16A7A
100
AcDbEntity
  8
-TEXT3
100
AcDbTrace
 10
4356.387029613574
 20
-22853.6590335908
 30
0.0
 11
4356.387029613574
 21
-22862.99236692414
 31
0.0
 12
4384.387029613574
 22
-22858.32570025747
 32
0.0
 13
4384.387029613574
 23
-22858.32570025747
 33
0.0
  0
MTEXT
  5
19473
330
16A7A
100
AcDbEntity
  8
-TEXT3
100
AcDbMText
 10
4334.387029613574
 20
-22833.52965660127
 30
0.0
 40
28.0
 41
0.0
 71
     5
 72
     1
  1
100
 73
     1
 44
1.0
  0
POINT
  5
19474
330
16A7A
100
AcDbEntity
  8
Defpoints
 62
     0
100
AcDbPoint
 10
4284.387029613574
 20
-22782.59269846329
 30
0.0
  0
POINT
  5
19475
330
16A7A
100
AcDbEntity
  8
Defpoints
 62
     0
100
AcDbPoint
 10
4384.387029613574
 20
-22782.59269846329
 30
0.0
  0
POINT
  5
19476
330
16A7A
100
AcDbEntity
  8
Defpoints
 62
     0
100
AcDbPoint
 10
4384.387029613574
 20
-22858.32570025747
 30
0.0
  0
ENDBLK
  5
16A85
330
16A7A
100
AcDbEntity
  8
0
100
AcDbBlockEnd
  0
BLOCK
  5
16A90
330
16A86
100
AcDbEntity
  8
0
100
AcDbBlockBegin
  2
*D235
 70
     1
 10
0.0
 20
0.0
 30
0.0
  3
*D235
  1

  0
LINE
  5
19477
330
16A86
100
AcDbEntity
  8
-TEXT3
370
    -2
100
AcDbLine
 10
4384.387029613574
 20
-22793.09269846329
 30
0.0
 11
4384.387029613574
 21
-22861.82570025747
 31
0.0
  0
LINE
  5
19478
330
16A86
100
AcDbEntity
  8
-TEXT3
370
    -2
100
AcDbLine
 10
4484.387029613574
 20
-22793.09269846329
 30
0.0
 11
4484.387029613574
 21
-22861.82570025747
 31
0.0
  0
LINE
  5
19479
330
16A86
100
AcDbEntity
  8
-TEXT3
370
    -2
100
AcDbLine
 10
4412.387029613574
 20
-22858.32570025747
 30
0.0
 11
4456.387029613574
 21
-22858.32570025747
 31
0.0
  0
SOLID
  5
1947A
330
16A86
100
AcDbEntity
  8
-TEXT3
100
AcDbTrace
 10
4412.387029613574
 20
-22853.6590335908
 30
0.0
 11
4412.387029613574
 21
-22862.99236692414
 31
0.0
 12
4384.387029613574
 22
-22858.32570025747
 32
0.0
 13
4384.387029613574
 23
-22858.32570025747
 33
0.0
  0
SOLID
  5
1947B
330
16A86
100
AcDbEntity
  8
-TEXT3
100
AcDbTrace
 10
4456.387029613574
 20
-22853.6590335908
 30
0.0
 11
4456.387029613574
 21
-22862.99236692414
 31
0.0
 12
4484.387029613574
 22
-22858.32570025747
 32
0.0
 13
4484.387029613574
 23
-22858.32570025747
 33
0.0
  0
MTEXT
  5
1947C
330
16A86
100
AcDbEntity
  8
-TEXT3
100
AcDbMText
 10
4434.387029613573
 20
-22833.52965660127
 30
0.0
 40
28.0
 41
0.0
 71
     5
 72
     1
  1
100
 73
     1
 44
1.0
  0
POINT
  5
1947D
330
16A86
100
AcDbEntity
  8
Defpoints
 62
     0
100
AcDbPoint
 10
4384.387029613574
 20
-22782.59269846329
 30
0.0
  0
POINT
  5
1947E
330
16A86
100
AcDbEntity
  8
Defpoints
 62
     0
100
AcDbPoint
 10
4484.387029613574
 20
-22782.59269846329
 30
0.0
  0
POINT
  5
1947F
330
16A86
100
AcDbEntity
  8
Defpoints
 62
     0
100
AcDbPoint
 10
4484.387029613574
 20
-22858.32570025747
 30
0.0
  0
ENDBLK
  5
16A91
330
16A86
100
AcDbEntity
  8
0
100
AcDbBlockEnd
  0
BLOCK
  5
16A9C
330
16A92
100
AcDbEntity
  8
0
100
AcDbBlockBegin
  2
*D236
 70
     1
 10
0.0
 20
0.0
 30
0.0
  3
*D236
  1

  0
LINE
  5
19480
330
16A92
100
AcDbEntity
  8
-TEXT3
370
    -2
100
AcDbLine
 10
4484.387029613574
 20
-22793.09269846329
 30
0.0
 11
4484.387029613574
 21
-22861.82570025747
 31
0.0
  0
LINE
  5
19481
330
16A92
100
AcDbEntity
  8
-TEXT3
370
    -2
100
AcDbLine
 10
4584.387029613574
 20
-22793.09269846329
 30
0.0
 11
4584.387029613574
 21
-22861.82570025747
 31
0.0
  0
LINE
  5
19482
330
16A92
100
AcDbEntity
  8
-TEXT3
370
    -2
100
AcDbLine
 10
4512.387029613574
 20
-22858.32570025747
 30
0.0
 11
4556.387029613573
 21
-22858.32570025747
 31
0.0
  0
SOLID
  5
19483
330
16A92
100
AcDbEntity
  8
-TEXT3
100
AcDbTrace
 10
4512.387029613574
 20
-22853.6590335908
 30
0.0
 11
4512.387029613574
 21
-22862.99236692414
 31
0.0
 12
4484.387029613574
 22
-22858.32570025747
 32
0.0
 13
4484.387029613574
 23
-22858.32570025747
 33
0.0
  0
SOLID
  5
19484
330
16A92
100
AcDbEntity
  8
-TEXT3
100
AcDbTrace
 10
4556.387029613573
 20
-22853.6590335908
 30
0.0
 11
4556.387029613573
 21
-22862.99236692414
 31
0.0
 12
4584.387029613574
 22
-22858.32570025747
 32
0.0
 13
4584.387029613574
 23
-22858.32570025747
 33
0.0
  0
MTEXT
  5
19485
330
16A92
100
AcDbEntity
  8
-TEXT3
100
AcDbMText
 10
4534.387029613574
 20
-22833.52965660127
 30
0.0
 40
28.0
 41
0.0
 71
     5
 72
     1
  1
100
 73
     1
 44
1.0
  0
POINT
  5
19486
330
16A92
100
AcDbEntity
  8
Defpoints
 62
     0
100
AcDbPoint
 10
4484.387029613574
 20
-22782.59269846329
 30
0.0
  0
POINT
  5
19487
330
16A92
100
AcDbEntity
  8
Defpoints
 62
     0
100
AcDbPoint
 10
4584.387029613574
 20
-22782.59269846329
 30
0.0
  0
POINT
  5
19488
330
16A92
100
AcDbEntity
  8
Defpoints
 62
     0
100
AcDbPoint
 10
4584.387029613574
 20
-22858.32570025747
 30
0.0
  0
ENDBLK
  5
16A9D
330
16A92
100
AcDbEntity
  8
0
100
AcDbBlockEnd
  0
BLOCK
  5
16AA8
330
16A9E
100
AcDbEntity
  8
0
100
AcDbBlockBegin
  2
*D237
 70
     1
 10
0.0
 20
0.0
 30
0.0
  3
*D237
  1

  0
LINE
  5
19489
330
16A9E
100
AcDbEntity
  8
-TEXT3
370
    -2
100
AcDbLine
 10
4584.387029613574
 20
-22793.09269846329
 30
0.0
 11
4584.387029613574
 21
-22861.82570025747
 31
0.0
  0
LINE
  5
1948A
330
16A9E
100
AcDbEntity
  8
-TEXT3
370
    -2
100
AcDbLine
 10
4684.387029613573
 20
-22793.09269846329
 30
0.0
 11
4684.387029613573
 21
-22861.82570025747
 31
0.0
  0
LINE
  5
1948B
330
16A9E
100
AcDbEntity
  8
-TEXT3
370
    -2
100
AcDbLine
 10
4612.387029613574
 20
-22858.32570025747
 30
0.0
 11
4656.387029613574
 21
-22858.32570025747
 31
0.0
  0
SOLID
  5
1948C
330
16A9E
100
AcDbEntity
  8
-TEXT3
100
AcDbTrace
 10
4612.387029613574
 20
-22853.6590335908
 30
0.0
 11
4612.387029613574
 21
-22862.99236692414
 31
0.0
 12
4584.387029613574
 22
-22858.32570025747
 32
0.0
 13
4584.387029613574
 23
-22858.32570025747
 33
0.0
  0
SOLID
  5
1948D
330
16A9E
100
AcDbEntity
  8
-TEXT3
100
AcDbTrace
 10
4656.387029613574
 20
-22853.6590335908
 30
0.0
 11
4656.387029613574
 21
-22862.99236692414
 31
0.0
 12
4684.387029613573
 22
-22858.32570025747
 32
0.0
 13
4684.387029613573
 23
-22858.32570025747
 33
0.0
  0
MTEXT
  5
1948E
330
16A9E
100
AcDbEntity
  8
-TEXT3
100
AcDbMText
 10
4634.387029613574
 20
-22833.52965660127
 30
0.0
 40
28.0
 41
0.0
 71
     5
 72
     1
  1
100
 73
     1
 44
1.0
  0
POINT
  5
1948F
330
16A9E
100
AcDbEntity
  8
Defpoints
 62
     0
100
AcDbPoint
 10
4584.387029613574
 20
-22782.59269846329
 30
0.0
  0
POINT
  5
19490
330
16A9E
100
AcDbEntity
  8
Defpoints
 62
     0
100
AcDbPoint
 10
4684.387029613573
 20
-22782.59269846329
 30
0.0
  0
POINT
  5
19491
330
16A9E
100
AcDbEntity
  8
Defpoints
 62
     0
100
AcDbPoint
 10
4684.387029613573
 20
-22858.32570025747
 30
0.0
  0
ENDBLK
  5
16AA9
330
16A9E
100
AcDbEntity
  8
0
100
AcDbBlockEnd
  0
BLOCK
  5
16AB4
330
16AAA
100
AcDbEntity
  8
0
100
AcDbBlockBegin
  2
*D238
 70
     1
 10
0.0
 20
0.0
 30
0.0
  3
*D238
  1

  0
LINE
  5
19492
330
16AAA
100
AcDbEntity
  8
-TEXT3
370
    -2
100
AcDbLine
 10
4684.387029613573
 20
-22793.09269846329
 30
0.0
 11
4684.387029613573
 21
-22861.82570025747
 31
0.0
  0
LINE
  5
19493
330
16AAA
100
AcDbEntity
  8
-TEXT3
370
    -2
100
AcDbLine
 10
4784.387029613574
 20
-22793.09269846329
 30
0.0
 11
4784.387029613574
 21
-22861.82570025747
 31
0.0
  0
LINE
  5
19494
330
16AAA
100
AcDbEntity
  8
-TEXT3
370
    -2
100
AcDbLine
 10
4712.387029613574
 20
-22858.32570025747
 30
0.0
 11
4756.387029613573
 21
-22858.32570025747
 31
0.0
  0
SOLID
  5
19495
330
16AAA
100
AcDbEntity
  8
-TEXT3
100
AcDbTrace
 10
4712.387029613574
 20
-22853.6590335908
 30
0.0
 11
4712.387029613574
 21
-22862.99236692414
 31
0.0
 12
4684.387029613573
 22
-22858.32570025747
 32
0.0
 13
4684.387029613573
 23
-22858.32570025747
 33
0.0
  0
SOLID
  5
19496
330
16AAA
100
AcDbEntity
  8
-TEXT3
100
AcDbTrace
 10
4756.387029613573
 20
-22853.6590335908
 30
0.0
 11
4756.387029613573
 21
-22862.99236692414
 31
0.0
 12
4784.387029613574
 22
-22858.32570025747
 32
0.0
 13
4784.387029613574
 23
-22858.32570025747
 33
0.0
  0
MTEXT
  5
19497
330
16AAA
100
AcDbEntity
  8
-TEXT3
100
AcDbMText
 10
4734.387029613574
 20
-22833.52965660127
 30
0.0
 40
28.0
 41
0.0
 71
     5
 72
     1
  1
100
 73
     1
 44
1.0
  0
POINT
  5
19498
330
16AAA
100
AcDbEntity
  8
Defpoints
 62
     0
100
AcDbPoint
 10
4684.387029613573
 20
-22782.59269846329
 30
0.0
  0
POINT
  5
19499
330
16AAA
100
AcDbEntity
  8
Defpoints
 62
     0
100
AcDbPoint
 10
4784.387029613574
 20
-22782.59269846329
 30
0.0
  0
POINT
  5
1949A
330
16AAA
100
AcDbEntity
  8
Defpoints
 62
     0
100
AcDbPoint
 10
4784.387029613574
 20
-22858.32570025747
 30
0.0
  0
ENDBLK
  5
16AB5
330
16AAA
100
AcDbEntity
  8
0
100
AcDbBlockEnd
  0
BLOCK
  5
16AC0
330
16AB6
100
AcDbEntity
  8
0
100
AcDbBlockBegin
  2
*D239
 70
     1
 10
0.0
 20
0.0
 30
0.0
  3
*D239
  1

  0
LINE
  5
1949B
330
16AB6
100
AcDbEntity
  8
-TEXT3
370
    -2
100
AcDbLine
 10
4784.387029613574
 20
-22793.09269846329
 30
0.0
 11
4784.387029613574
 21
-22861.82570025747
 31
0.0
  0
LINE
  5
1949C
330
16AB6
100
AcDbEntity
  8
-TEXT3
370
    -2
100
AcDbLine
 10
4884.387029613574
 20
-22793.09269846329
 30
0.0
 11
4884.387029613574
 21
-22861.82570025747
 31
0.0
  0
LINE
  5
1949D
330
16AB6
100
AcDbEntity
  8
-TEXT3
370
    -2
100
AcDbLine
 10
4812.387029613574
 20
-22858.32570025747
 30
0.0
 11
4856.387029613574
 21
-22858.32570025747
 31
0.0
  0
SOLID
  5
1949E
330
16AB6
100
AcDbEntity
  8
-TEXT3
100
AcDbTrace
 10
4812.387029613574
 20
-22853.6590335908
 30
0.0
 11
4812.387029613574
 21
-22862.99236692414
 31
0.0
 12
4784.387029613574
 22
-22858.32570025747
 32
0.0
 13
4784.387029613574
 23
-22858.32570025747
 33
0.0
  0
SOLID
  5
1949F
330
16AB6
100
AcDbEntity
  8
-TEXT3
100
AcDbTrace
 10
4856.387029613574
 20
-22853.6590335908
 30
0.0
 11
4856.387029613574
 21
-22862.99236692414
 31
0.0
 12
4884.387029613574
 22
-22858.32570025747
 32
0.0
 13
4884.387029613574
 23
-22858.32570025747
 33
0.0
  0
MTEXT
  5
194A0
330
16AB6
100
AcDbEntity
  8
-TEXT3
100
AcDbMText
 10
4834.387029613574
 20
-22833.52965660127
 30
0.0
 40
28.0
 41
0.0
 71
     5
 72
     1
  1
100
 73
     1
 44
1.0
  0
POINT
  5
194A1
330
16AB6
100
AcDbEntity
  8
Defpoints
 62
     0
100
AcDbPoint
 10
4784.387029613574
 20
-22782.59269846329
 30
0.0
  0
POINT
  5
194A2
330
16AB6
100
AcDbEntity
  8
Defpoints
 62
     0
100
AcDbPoint
 10
4884.387029613574
 20
-22782.59269846329
 30
0.0
  0
POINT
  5
194A3
330
16AB6
100
AcDbEntity
  8
Defpoints
 62
     0
100
AcDbPoint
 10
4884.387029613574
 20
-22858.32570025747
 30
0.0
  0
ENDBLK
  5
16AC1
330
16AB6
100
AcDbEntity
  8
0
100
AcDbBlockEnd
  0
BLOCK
  5
16ACC
330
16AC2
100
AcDbEntity
  8
0
100
AcDbBlockBegin
  2
*D240
 70
     1
 10
0.0
 20
0.0
 30
0.0
  3
*D240
  1

  0
LINE
  5
194A4
330
16AC2
100
AcDbEntity
  8
-TEXT3
370
    -2
100
AcDbLine
 10
4884.387029613574
 20
-22793.09269846329
 30
0.0
 11
4884.387029613574
 21
-22861.82570025747
 31
0.0
  0
LINE
  5
194A5
330
16AC2
100
AcDbEntity
  8
-TEXT3
370
    -2
100
AcDbLine
 10
4984.387029613574
 20
-22793.09269846329
 30
0.0
 11
4984.387029613574
 21
-22861.82570025747
 31
0.0
  0
LINE
  5
194A6
330
16AC2
100
AcDbEntity
  8
-TEXT3
370
    -2
100
AcDbLine
 10
4912.387029613574
 20
-22858.32570025747
 30
0.0
 11
4956.387029613574
 21
-22858.32570025747
 31
0.0
  0
SOLID
  5
194A7
330
16AC2
100
AcDbEntity
  8
-TEXT3
100
AcDbTrace
 10
4912.387029613574
 20
-22853.6590335908
 30
0.0
 11
4912.387029613574
 21
-22862.99236692414
 31
0.0
 12
4884.387029613574
 22
-22858.32570025747
 32
0.0
 13
4884.387029613574
 23
-22858.32570025747
 33
0.0
  0
SOLID
  5
194A8
330
16AC2
100
AcDbEntity
  8
-TEXT3
100
AcDbTrace
 10
4956.387029613574
 20
-22853.6590335908
 30
0.0
 11
4956.387029613574
 21
-22862.99236692414
 31
0.0
 12
4984.387029613574
 22
-22858.32570025747
 32
0.0
 13
4984.387029613574
 23
-22858.32570025747
 33
0.0
  0
MTEXT
  5
194A9
330
16AC2
100
AcDbEntity
  8
-TEXT3
100
AcDbMText
 10
4934.387029613574
 20
-22833.52965660127
 30
0.0
 40
28.0
 41
0.0
 71
     5
 72
     1
  1
100
 73
     1
 44
1.0
  0
POINT
  5
194AA
330
16AC2
100
AcDbEntity
  8
Defpoints
 62
     0
100
AcDbPoint
 10
4884.387029613574
 20
-22782.59269846329
 30
0.0
  0
POINT
  5
194AB
330
16AC2
100
AcDbEntity
  8
Defpoints
 62
     0
100
AcDbPoint
 10
4984.387029613574
 20
-22782.59269846329
 30
0.0
  0
POINT
  5
194AC
330
16AC2
100
AcDbEntity
  8
Defpoints
 62
     0
100
AcDbPoint
 10
4984.387029613574
 20
-22858.32570025747
 30
0.0
  0
ENDBLK
  5
16ACD
330
16AC2
100
AcDbEntity
  8
0
100
AcDbBlockEnd
  0
BLOCK
  5
16ADA
330
16ACE
100
AcDbEntity
  8
0
100
AcDbBlockBegin
  2
*D241
 70
     1
 10
0.0
 20
0.0
 30
0.0
  3
*D241
  1

  0
LINE
  5
194AD
330
16ACE
100
AcDbEntity
  8
-TEXT3
370
    -2
100
AcDbLine
 10
4984.387029613574
 20
-22793.09269846329
 30
0.0
 11
4984.387029613574
 21
-22861.82570025747
 31
0.0
  0
LINE
  5
194AE
330
16ACE
100
AcDbEntity
  8
-TEXT3
370
    -2
100
AcDbLine
 10
5034.387029613565
 20
-22793.09269846329
 30
0.0
 11
5034.387029613565
 21
-22861.82570025747
 31
0.0
  0
LINE
  5
194AF
330
16ACE
100
AcDbEntity
  8
-TEXT3
370
    -2
100
AcDbLine
 10
4956.387029613574
 20
-22858.32570025747
 30
0.0
 11
4928.387029613574
 21
-22858.32570025747
 31
0.0
  0
LINE
  5
194B0
330
16ACE
100
AcDbEntity
  8
-TEXT3
370
    -2
100
AcDbLine
 10
5062.387029613565
 20
-22858.32570025747
 30
0.0
 11
5090.387029613565
 21
-22858.32570025747
 31
0.0
  0
LINE
  5
194B1
330
16ACE
100
AcDbEntity
  8
-TEXT3
370
    -2
100
AcDbLine
 10
4984.387029613574
 20
-22858.32570025747
 30
0.0
 11
5034.387029613565
 21
-22858.32570025747
 31
0.0
  0
SOLID
  5
194B2
330
16ACE
100
AcDbEntity
  8
-TEXT3
100
AcDbTrace
 10
4956.387029613574
 20
-22853.6590335908
 30
0.0
 11
4956.387029613574
 21
-22862.99236692414
 31
0.0
 12
4984.387029613574
 22
-22858.32570025747
 32
0.0
 13
4984.387029613574
 23
-22858.32570025747
 33
0.0
  0
SOLID
  5
194B3
330
16ACE
100
AcDbEntity
  8
-TEXT3
100
AcDbTrace
 10
5062.387029613565
 20
-22853.6590335908
 30
0.0
 11
5062.387029613565
 21
-22862.99236692414
 31
0.0
 12
5034.387029613565
 22
-22858.32570025747
 32
0.0
 13
5034.387029613565
 23
-22858.32570025747
 33
0.0
  0
MTEXT
  5
194B4
330
16ACE
100
AcDbEntity
  8
-TEXT3
100
AcDbMText
 10
5009.387029613569
 20
-22833.52965660127
 30
0.0
 40
28.0
 41
0.0
 71
     5
 72
     1
  1
50
 73
     1
 44
1.0
  0
POINT
  5
194B5
330
16ACE
100
AcDbEntity
  8
Defpoints
 62
     0
100
AcDbPoint
 10
4984.387029613574
 20
-22782.59269846329
 30
0.0
  0
POINT
  5
194B6
330
16ACE
100
AcDbEntity
  8
Defpoints
 62
     0
100
AcDbPoint
 10
5034.387029613565
 20
-22782.59269846329
 30
0.0
  0
POINT
  5
194B7
330
16ACE
100
AcDbEntity
  8
Defpoints
 62
     0
100
AcDbPoint
 10
5034.387029613565
 20
-22858.32570025747
 30
0.0
  0
ENDBLK
  5
16ADB
330
16ACE
100
AcDbEntity
  8
0
100
AcDbBlockEnd
  0
BLOCK
  5
16AE8
330
16ADC
100
AcDbEntity
  8
0
100
AcDbBlockBegin
  2
*D242
 70
     1
 10
0.0
 20
0.0
 30
0.0
  3
*D242
  1

  0
LINE
  5
194B8
330
16ADC
100
AcDbEntity
  8
-TEXT3
370
    -2
100
AcDbLine
 10
2023.887029613565
 20
-22782.59269846329
 30
0.0
 11
1979.432886986069
 21
-22782.59269846329
 31
0.0
  0
LINE
  5
194B9
330
16ADC
100
AcDbEntity
  8
-TEXT3
370
    -2
100
AcDbLine
 10
2023.887029613565
 20
-22765.59269846329
 30
0.0
 11
1979.432886986069
 21
-22765.59269846329
 31
0.0
  0
LINE
  5
194BA
330
16ADC
100
AcDbEntity
  8
-TEXT3
370
    -2
100
AcDbLine
 10
1982.932886986069
 20
-22737.59269846329
 30
0.0
 11
1982.932886986069
 21
-22709.59269846329
 31
0.0
  0
LINE
  5
194BB
330
16ADC
100
AcDbEntity
  8
-TEXT3
370
    -2
100
AcDbLine
 10
1982.932886986069
 20
-22810.59269846329
 30
0.0
 11
1982.932886986069
 21
-22897.06609546192
 31
0.0
  0
LINE
  5
194BC
330
16ADC
100
AcDbEntity
  8
-TEXT3
370
    -2
100
AcDbLine
 10
1982.932886986069
 20
-22765.59269846329
 30
0.0
 11
1982.932886986069
 21
-22782.59269846329
 31
0.0
  0
SOLID
  5
194BD
330
16ADC
100
AcDbEntity
  8
-TEXT3
100
AcDbTrace
 10
1978.266220319402
 20
-22737.59269846329
 30
0.0
 11
1987.599553652736
 21
-22737.59269846329
 31
0.0
 12
1982.932886986069
 22
-22765.59269846329
 32
0.0
 13
1982.932886986069
 23
-22765.59269846329
 33
0.0
  0
SOLID
  5
194BE
330
16ADC
100
AcDbEntity
  8
-TEXT3
100
AcDbTrace
 10
1978.266220319402
 20
-22810.59269846329
 30
0.0
 11
1987.599553652736
 21
-22810.59269846329
 31
0.0
 12
1982.932886986069
 22
-22782.59269846329
 32
0.0
 13
1982.932886986069
 23
-22782.59269846329
 33
0.0
  0
MTEXT
  5
194BF
330
16ADC
100
AcDbEntity
  8
-TEXT3
100
AcDbMText
 10
1958.375588213904
 20
-22867.8293969626
 30
0.0
 40
28.0
 41
0.0
 71
     5
 72
     1
  1
17
 11
0.0000000000000001
 21
1.0
 31
0.0
 73
     1
 44
1.0
  0
POINT
  5
194C0
330
16ADC
100
AcDbEntity
  8
Defpoints
 62
     0
100
AcDbPoint
 10
2034.387029613565
 20
-22782.59269846329
 30
-275.000137499999
  0
POINT
  5
194C1
330
16ADC
100
AcDbEntity
  8
Defpoints
 62
     0
100
AcDbPoint
 10
2034.387029613565
 20
-22765.59269846329
 30
-275.000137499999
  0
POINT
  5
194C2
330
16ADC
100
AcDbEntity
  8
Defpoints
 62
     0
100
AcDbPoint
 10
1982.932886986069
 20
-22765.59269846329
 30
0.0
  0
ENDBLK
  5
16AE9
330
16ADC
100
AcDbEntity
  8
0
100
AcDbBlockEnd
  0
BLOCK
  5
16AF4
330
16AEA
100
AcDbEntity
  8
0
100
AcDbBlockBegin
  2
*D243
 70
     1
 10
0.0
 20
0.0
 30
0.0
  3
*D243
  1

  0
LINE
  5
194C3
330
16AEA
100
AcDbEntity
  8
-TEXT3
370
    -2
100
AcDbLine
 10
2023.887029613565
 20
-22782.59269846329
 30
0.0
 11
1876.505154794897
 21
-22782.59269846329
 31
0.0
  0
LINE
  5
194C4
330
16AEA
100
AcDbEntity
  8
-TEXT3
370
    -2
100
AcDbLine
 10
2023.887029613565
 20
-22654.0917272972
 30
0.0
 11
1876.505154794897
 21
-22654.0917272972
 31
0.0
  0
LINE
  5
194C5
330
16AEA
100
AcDbEntity
  8
-TEXT3
370
    -2
100
AcDbLine
 10
1880.005154794897
 20
-22754.59269846328
 30
0.0
 11
1880.005154794897
 21
-22682.0917272972
 31
0.0
  0
SOLID
  5
194C6
330
16AEA
100
AcDbEntity
  8
-TEXT3
100
AcDbTrace
 10
1875.33848812823
 20
-22754.59269846328
 30
0.0
 11
1884.671821461564
 21
-22754.59269846328
 31
0.0
 12
1880.005154794897
 22
-22782.59269846329
 32
0.0
 13
1880.005154794897
 23
-22782.59269846329
 33
0.0
  0
SOLID
  5
194C7
330
16AEA
100
AcDbEntity
  8
-TEXT3
100
AcDbTrace
 10
1875.33848812823
 20
-22682.0917272972
 30
0.0
 11
1884.671821461564
 21
-22682.0917272972
 31
0.0
 12
1880.005154794897
 22
-22654.0917272972
 32
0.0
 13
1880.005154794897
 23
-22654.0917272972
 33
0.0
  0
MTEXT
  5
194C8
330
16AEA
100
AcDbEntity
  8
-TEXT3
100
AcDbMText
 10
1855.209111138693
 20
-22718.34221288024
 30
0.0
 40
28.0
 41
0.0
 71
     5
 72
     1
  1
129
 11
0.0000000000000001
 21
1.0
 31
0.0
 73
     1
 44
1.0
  0
POINT
  5
194C9
330
16AEA
100
AcDbEntity
  8
Defpoints
 62
     0
100
AcDbPoint
 10
2034.387029613565
 20
-22782.59269846329
 30
-275.000137499999
  0
POINT
  5
194CA
330
16AEA
100
AcDbEntity
  8
Defpoints
 62
     0
100
AcDbPoint
 10
2034.387029613565
 20
-22654.0917272972
 30
-275.000137499999
  0
POINT
  5
194CB
330
16AEA
100
AcDbEntity
  8
Defpoints
 62
     0
100
AcDbPoint
 10
1880.005154794897
 20
-22654.0917272972
 30
0.0
  0
ENDBLK
  5
16AF5
330
16AEA
100
AcDbEntity
  8
0
100
AcDbBlockEnd
  0
BLOCK
  5
16B10
330
16B04
100
AcDbEntity
  8
0
100
AcDbBlockBegin
  2
*D244
 70
     1
 10
0.0
 20
0.0
 30
0.0
  3
*D244
  1

  0
LINE
  5
194CC
330
16B04
100
AcDbEntity
  8
-TEXT3
370
    -2
100
AcDbLine
 10
2034.387029613565
 20
-23500.29310803642
 30
0.0
 11
2034.387029613565
 21
-23569.02610983061
 31
0.0
  0
LINE
  5
194CD
330
16B04
100
AcDbEntity
  8
-TEXT3
370
    -2
100
AcDbLine
 10
2084.387029613573
 20
-23500.29310803642
 30
0.0
 11
2084.387029613573
 21
-23569.02610983061
 31
0.0
  0
LINE
  5
194CE
330
16B04
100
AcDbEntity
  8
-TEXT3
370
    -2
100
AcDbLine
 10
2006.387029613565
 20
-23565.52610983061
 30
0.0
 11
1978.387029613564
 21
-23565.52610983061
 31
0.0
  0
LINE
  5
194CF
330
16B04
100
AcDbEntity
  8
-TEXT3
370
    -2
100
AcDbLine
 10
2112.387029613573
 20
-23565.52610983061
 30
0.0
 11
2140.387029613573
 21
-23565.52610983061
 31
0.0
  0
LINE
  5
194D0
330
16B04
100
AcDbEntity
  8
-TEXT3
370
    -2
100
AcDbLine
 10
2034.387029613565
 20
-23565.52610983061
 30
0.0
 11
2084.387029613573
 21
-23565.52610983061
 31
0.0
  0
SOLID
  5
194D1
330
16B04
100
AcDbEntity
  8
-TEXT3
100
AcDbTrace
 10
2006.387029613565
 20
-23560.85944316395
 30
0.0
 11
2006.387029613565
 21
-23570.19277649728
 31
0.0
 12
2034.387029613565
 22
-23565.52610983061
 32
0.0
 13
2034.387029613565
 23
-23565.52610983061
 33
0.0
  0
SOLID
  5
194D2
330
16B04
100
AcDbEntity
  8
-TEXT3
100
AcDbTrace
 10
2112.387029613573
 20
-23560.85944316395
 30
0.0
 11
2112.387029613573
 21
-23570.19277649728
 31
0.0
 12
2084.387029613573
 22
-23565.52610983061
 32
0.0
 13
2084.387029613573
 23
-23565.52610983061
 33
0.0
  0
MTEXT
  5
194D3
330
16B04
100
AcDbEntity
  8
-TEXT3
100
AcDbMText
 10
2059.387029613569
 20
-23540.7300661744
 30
0.0
 40
28.0
 41
0.0
 71
     5
 72
     1
  1
50
 73
     1
 44
1.0
  0
POINT
  5
194D4
330
16B04
100
AcDbEntity
  8
Defpoints
 62
     0
100
AcDbPoint
 10
2034.387029613565
 20
-23489.79310803642
 30
0.0
  0
POINT
  5
194D5
330
16B04
100
AcDbEntity
  8
Defpoints
 62
     0
100
AcDbPoint
 10
2084.387029613573
 20
-23489.79310803642
 30
0.0
  0
POINT
  5
194D6
330
16B04
100
AcDbEntity
  8
Defpoints
 62
     0
100
AcDbPoint
 10
2084.387029613573
 20
-23565.52610983061
 30
0.0
  0
ENDBLK
  5
16B11
330
16B04
100
AcDbEntity
  8
0
100
AcDbBlockEnd
  0
BLOCK
  5
16B1C
330
16B12
100
AcDbEntity
  8
0
100
AcDbBlockBegin
  2
*D245
 70
     1
 10
0.0
 20
0.0
 30
0.0
  3
*D245
  1

  0
LINE
  5
194D7
330
16B12
100
AcDbEntity
  8
-TEXT3
370
    -2
100
AcDbLine
 10
2084.387029613573
 20
-23500.29310803642
 30
0.0
 11
2084.387029613573
 21
-23569.02610983061
 31
0.0
  0
LINE
  5
194D8
330
16B12
100
AcDbEntity
  8
-TEXT3
370
    -2
100
AcDbLine
 10
2184.387029613573
 20
-23500.29310803642
 30
0.0
 11
2184.387029613573
 21
-23569.02610983061
 31
0.0
  0
LINE
  5
194D9
330
16B12
100
AcDbEntity
  8
-TEXT3
370
    -2
100
AcDbLine
 10
2112.387029613573
 20
-23565.52610983061
 30
0.0
 11
2156.387029613573
 21
-23565.52610983061
 31
0.0
  0
SOLID
  5
194DA
330
16B12
100
AcDbEntity
  8
-TEXT3
100
AcDbTrace
 10
2112.387029613573
 20
-23560.85944316395
 30
0.0
 11
2112.387029613573
 21
-23570.19277649728
 31
0.0
 12
2084.387029613573
 22
-23565.52610983061
 32
0.0
 13
2084.387029613573
 23
-23565.52610983061
 33
0.0
  0
SOLID
  5
194DB
330
16B12
100
AcDbEntity
  8
-TEXT3
100
AcDbTrace
 10
2156.387029613573
 20
-23560.85944316395
 30
0.0
 11
2156.387029613573
 21
-23570.19277649728
 31
0.0
 12
2184.387029613573
 22
-23565.52610983061
 32
0.0
 13
2184.387029613573
 23
-23565.52610983061
 33
0.0
  0
MTEXT
  5
194DC
330
16B12
100
AcDbEntity
  8
-TEXT3
100
AcDbMText
 10
2134.387029613574
 20
-23540.7300661744
 30
0.0
 40
28.0
 41
0.0
 71
     5
 72
     1
  1
100
 73
     1
 44
1.0
  0
POINT
  5
194DD
330
16B12
100
AcDbEntity
  8
Defpoints
 62
     0
100
AcDbPoint
 10
2084.387029613573
 20
-23489.79310803642
 30
0.0
  0
POINT
  5
194DE
330
16B12
100
AcDbEntity
  8
Defpoints
 62
     0
100
AcDbPoint
 10
2184.387029613573
 20
-23489.79310803642
 30
0.0
  0
POINT
  5
194DF
330
16B12
100
AcDbEntity
  8
Defpoints
 62
     0
100
AcDbPoint
 10
2184.387029613573
 20
-23565.52610983061
 30
0.0
  0
ENDBLK
  5
16B1D
330
16B12
100
AcDbEntity
  8
0
100
AcDbBlockEnd
  0
BLOCK
  5
16B28
330
16B1E
100
AcDbEntity
  8
0
100
AcDbBlockBegin
  2
*D246
 70
     1
 10
0.0
 20
0.0
 30
0.0
  3
*D246
  1

  0
LINE
  5
194E0
330
16B1E
100
AcDbEntity
  8
-TEXT3
370
    -2
100
AcDbLine
 10
2184.387029613573
 20
-23500.29310803642
 30
0.0
 11
2184.387029613573
 21
-23569.02610983061
 31
0.0
  0
LINE
  5
194E1
330
16B1E
100
AcDbEntity
  8
-TEXT3
370
    -2
100
AcDbLine
 10
2284.387029613573
 20
-23500.29310803642
 30
0.0
 11
2284.387029613573
 21
-23569.02610983061
 31
0.0
  0
LINE
  5
194E2
330
16B1E
100
AcDbEntity
  8
-TEXT3
370
    -2
100
AcDbLine
 10
2212.387029613573
 20
-23565.52610983061
 30
0.0
 11
2256.387029613573
 21
-23565.52610983061
 31
0.0
  0
SOLID
  5
194E3
330
16B1E
100
AcDbEntity
  8
-TEXT3
100
AcDbTrace
 10
2212.387029613573
 20
-23560.85944316395
 30
0.0
 11
2212.387029613573
 21
-23570.19277649728
 31
0.0
 12
2184.387029613573
 22
-23565.52610983061
 32
0.0
 13
2184.387029613573
 23
-23565.52610983061
 33
0.0
  0
SOLID
  5
194E4
330
16B1E
100
AcDbEntity
  8
-TEXT3
100
AcDbTrace
 10
2256.387029613573
 20
-23560.85944316395
 30
0.0
 11
2256.387029613573
 21
-23570.19277649728
 31
0.0
 12
2284.387029613573
 22
-23565.52610983061
 32
0.0
 13
2284.387029613573
 23
-23565.52610983061
 33
0.0
  0
MTEXT
  5
194E5
330
16B1E
100
AcDbEntity
  8
-TEXT3
100
AcDbMText
 10
2234.387029613573
 20
-23540.7300661744
 30
0.0
 40
28.0
 41
0.0
 71
     5
 72
     1
  1
100
 73
     1
 44
1.0
  0
POINT
  5
194E6
330
16B1E
100
AcDbEntity
  8
Defpoints
 62
     0
100
AcDbPoint
 10
2184.387029613573
 20
-23489.79310803642
 30
0.0
  0
POINT
  5
194E7
330
16B1E
100
AcDbEntity
  8
Defpoints
 62
     0
100
AcDbPoint
 10
2284.387029613573
 20
-23489.79310803642
 30
0.0
  0
POINT
  5
194E8
330
16B1E
100
AcDbEntity
  8
Defpoints
 62
     0
100
AcDbPoint
 10
2284.387029613573
 20
-23565.52610983061
 30
0.0
  0
ENDBLK
  5
16B29
330
16B1E
100
AcDbEntity
  8
0
100
AcDbBlockEnd
  0
BLOCK
  5
16B34
330
16B2A
100
AcDbEntity
  8
0
100
AcDbBlockBegin
  2
*D247
 70
     1
 10
0.0
 20
0.0
 30
0.0
  3
*D247
  1

  0
LINE
  5
194E9
330
16B2A
100
AcDbEntity
  8
-TEXT3
370
    -2
100
AcDbLine
 10
2034.387029613565
 20
-23578.02610983061
 30
0.0
 11
2034.387029613565
 21
-23657.2225148995
 31
0.0
  0
LINE
  5
194EA
330
16B2A
100
AcDbEntity
  8
-TEXT3
370
    -2
100
AcDbLine
 10
5034.387029613565
 20
-23578.02610983061
 30
0.0
 11
5034.387029613565
 21
-23657.2225148995
 31
0.0
  0
LINE
  5
194EB
330
16B2A
100
AcDbEntity
  8
-TEXT3
370
    -2
100
AcDbLine
 10
2062.387029613565
 20
-23653.7225148995
 30
0.0
 11
5006.387029613565
 21
-23653.7225148995
 31
0.0
  0
SOLID
  5
194EC
330
16B2A
100
AcDbEntity
  8
-TEXT3
100
AcDbTrace
 10
2062.387029613565
 20
-23649.05584823283
 30
0.0
 11
2062.387029613565
 21
-23658.38918156616
 31
0.0
 12
2034.387029613565
 22
-23653.7225148995
 32
0.0
 13
2034.387029613565
 23
-23653.7225148995
 33
0.0
  0
SOLID
  5
194ED
330
16B2A
100
AcDbEntity
  8
-TEXT3
100
AcDbTrace
 10
5006.387029613565
 20
-23649.05584823283
 30
0.0
 11
5006.387029613565
 21
-23658.38918156616
 31
0.0
 12
5034.387029613565
 22
-23653.7225148995
 32
0.0
 13
5034.387029613565
 23
-23653.7225148995
 33
0.0
  0
MTEXT
  5
194EE
330
16B2A
100
AcDbEntity
  8
-TEXT3
100
AcDbMText
 10
3534.387029613565
 20
-23626.34006833287
 30
0.0
 40
28.0
 41
0.0
 71
     5
 72
     1
  1
3000{\H14.000000;\S+3.0^ -0.0;}
 73
     1
 44
1.0
  0
POINT
  5
194EF
330
16B2A
100
AcDbEntity
  8
Defpoints
 62
     0
100
AcDbPoint
 10
2034.387029613565
 20
-23567.52610983061
 30
0.0
  0
POINT
  5
194F0
330
16B2A
100
AcDbEntity
  8
Defpoints
 62
     0
100
AcDbPoint
 10
5034.387029613565
 20
-23567.52610983061
 30
0.0
  0
POINT
  5
194F1
330
16B2A
100
AcDbEntity
  8
Defpoints
 62
     0
100
AcDbPoint
 10
5034.387029613565
 20
-23653.7225148995
 30
0.0
  0
ENDBLK
  5
16B35
330
16B2A
100
AcDbEntity
  8
0
100
AcDbBlockEnd
  0
BLOCK
  5
16B40
330
16B36
100
AcDbEntity
  8
0
100
AcDbBlockBegin
  2
*D248
 70
     1
 10
0.0
 20
0.0
 30
0.0
  3
*D248
  1

  0
LINE
  5
194F2
330
16B36
100
AcDbEntity
  8
-TEXT3
370
    -2
100
AcDbLine
 10
2284.387029613573
 20
-23500.29310803642
 30
0.0
 11
2284.387029613573
 21
-23569.02610983061
 31
0.0
  0
LINE
  5
194F3
330
16B36
100
AcDbEntity
  8
-TEXT3
370
    -2
100
AcDbLine
 10
2384.387029613574
 20
-23500.29310803642
 30
0.0
 11
2384.387029613574
 21
-23569.02610983061
 31
0.0
  0
LINE
  5
194F4
330
16B36
100
AcDbEntity
  8
-TEXT3
370
    -2
100
AcDbLine
 10
2312.387029613574
 20
-23565.52610983061
 30
0.0
 11
2356.387029613573
 21
-23565.52610983061
 31
0.0
  0
SOLID
  5
194F5
330
16B36
100
AcDbEntity
  8
-TEXT3
100
AcDbTrace
 10
2312.387029613574
 20
-23560.85944316395
 30
0.0
 11
2312.387029613574
 21
-23570.19277649728
 31
0.0
 12
2284.387029613573
 22
-23565.52610983061
 32
0.0
 13
2284.387029613573
 23
-23565.52610983061
 33
0.0
  0
SOLID
  5
194F6
330
16B36
100
AcDbEntity
  8
-TEXT3
100
AcDbTrace
 10
2356.387029613573
 20
-23560.85944316395
 30
0.0
 11
2356.387029613573
 21
-23570.19277649728
 31
0.0
 12
2384.387029613574
 22
-23565.52610983061
 32
0.0
 13
2384.387029613574
 23
-23565.52610983061
 33
0.0
  0
MTEXT
  5
194F7
330
16B36
100
AcDbEntity
  8
-TEXT3
100
AcDbMText
 10
2334.387029613573
 20
-23540.7300661744
 30
0.0
 40
28.0
 41
0.0
 71
     5
 72
     1
  1
100
 73
     1
 44
1.0
  0
POINT
  5
194F8
330
16B36
100
AcDbEntity
  8
Defpoints
 62
     0
100
AcDbPoint
 10
2284.387029613573
 20
-23489.79310803642
 30
0.0
  0
POINT
  5
194F9
330
16B36
100
AcDbEntity
  8
Defpoints
 62
     0
100
AcDbPoint
 10
2384.387029613574
 20
-23489.79310803642
 30
0.0
  0
POINT
  5
194FA
330
16B36
100
AcDbEntity
  8
Defpoints
 62
     0
100
AcDbPoint
 10
2384.387029613574
 20
-23565.52610983061
 30
0.0
  0
ENDBLK
  5
16B41
330
16B36
100
AcDbEntity
  8
0
100
AcDbBlockEnd
  0
BLOCK
  5
16B4C
330
16B42
100
AcDbEntity
  8
0
100
AcDbBlockBegin
  2
*D249
 70
     1
 10
0.0
 20
0.0
 30
0.0
  3
*D249
  1

  0
LINE
  5
194FB
330
16B42
100
AcDbEntity
  8
-TEXT3
370
    -2
100
AcDbLine
 10
2384.387029613574
 20
-23500.29310803642
 30
0.0
 11
2384.387029613574
 21
-23569.02610983061
 31
0.0
  0
LINE
  5
194FC
330
16B42
100
AcDbEntity
  8
-TEXT3
370
    -2
100
AcDbLine
 10
2484.387029613574
 20
-23500.29310803642
 30
0.0
 11
2484.387029613574
 21
-23569.02610983061
 31
0.0
  0
LINE
  5
194FD
330
16B42
100
AcDbEntity
  8
-TEXT3
370
    -2
100
AcDbLine
 10
2412.387029613574
 20
-23565.52610983061
 30
0.0
 11
2456.387029613573
 21
-23565.52610983061
 31
0.0
  0
SOLID
  5
194FE
330
16B42
100
AcDbEntity
  8
-TEXT3
100
AcDbTrace
 10
2412.387029613574
 20
-23560.85944316395
 30
0.0
 11
2412.387029613574
 21
-23570.19277649728
 31
0.0
 12
2384.387029613574
 22
-23565.52610983061
 32
0.0
 13
2384.387029613574
 23
-23565.52610983061
 33
0.0
  0
SOLID
  5
194FF
330
16B42
100
AcDbEntity
  8
-TEXT3
100
AcDbTrace
 10
2456.387029613573
 20
-23560.85944316395
 30
0.0
 11
2456.387029613573
 21
-23570.19277649728
 31
0.0
 12
2484.387029613574
 22
-23565.52610983061
 32
0.0
 13
2484.387029613574
 23
-23565.52610983061
 33
0.0
  0
MTEXT
  5
19500
330
16B42
100
AcDbEntity
  8
-TEXT3
100
AcDbMText
 10
2434.387029613573
 20
-23540.7300661744
 30
0.0
 40
28.0
 41
0.0
 71
     5
 72
     1
  1
100
 73
     1
 44
1.0
  0
POINT
  5
19501
330
16B42
100
AcDbEntity
  8
Defpoints
 62
     0
100
AcDbPoint
 10
2384.387029613574
 20
-23489.79310803642
 30
0.0
  0
POINT
  5
19502
330
16B42
100
AcDbEntity
  8
Defpoints
 62
     0
100
AcDbPoint
 10
2484.387029613574
 20
-23489.79310803642
 30
0.0
  0
POINT
  5
19503
330
16B42
100
AcDbEntity
  8
Defpoints
 62
     0
100
AcDbPoint
 10
2484.387029613574
 20
-23565.52610983061
 30
0.0
  0
ENDBLK
  5
16B4D
330
16B42
100
AcDbEntity
  8
0
100
AcDbBlockEnd
  0
BLOCK
  5
16B58
330
16B4E
100
AcDbEntity
  8
0
100
AcDbBlockBegin
  2
*D250
 70
     1
 10
0.0
 20
0.0
 30
0.0
  3
*D250
  1

  0
LINE
  5
19504
330
16B4E
100
AcDbEntity
  8
-TEXT3
370
    -2
100
AcDbLine
 10
2484.387029613574
 20
-23500.29310803642
 30
0.0
 11
2484.387029613574
 21
-23569.02610983061
 31
0.0
  0
LINE
  5
19505
330
16B4E
100
AcDbEntity
  8
-TEXT3
370
    -2
100
AcDbLine
 10
2584.387029613573
 20
-23500.29310803642
 30
0.0
 11
2584.387029613573
 21
-23569.02610983061
 31
0.0
  0
LINE
  5
19506
330
16B4E
100
AcDbEntity
  8
-TEXT3
370
    -2
100
AcDbLine
 10
2512.387029613574
 20
-23565.52610983061
 30
0.0
 11
2556.387029613573
 21
-23565.52610983061
 31
0.0
  0
SOLID
  5
19507
330
16B4E
100
AcDbEntity
  8
-TEXT3
100
AcDbTrace
 10
2512.387029613574
 20
-23560.85944316395
 30
0.0
 11
2512.387029613574
 21
-23570.19277649728
 31
0.0
 12
2484.387029613574
 22
-23565.52610983061
 32
0.0
 13
2484.387029613574
 23
-23565.52610983061
 33
0.0
  0
SOLID
  5
19508
330
16B4E
100
AcDbEntity
  8
-TEXT3
100
AcDbTrace
 10
2556.387029613573
 20
-23560.85944316395
 30
0.0
 11
2556.387029613573
 21
-23570.19277649728
 31
0.0
 12
2584.387029613573
 22
-23565.52610983061
 32
0.0
 13
2584.387029613573
 23
-23565.52610983061
 33
0.0
  0
MTEXT
  5
19509
330
16B4E
100
AcDbEntity
  8
-TEXT3
100
AcDbMText
 10
2534.387029613573
 20
-23540.7300661744
 30
0.0
 40
28.0
 41
0.0
 71
     5
 72
     1
  1
100
 73
     1
 44
1.0
  0
POINT
  5
1950A
330
16B4E
100
AcDbEntity
  8
Defpoints
 62
     0
100
AcDbPoint
 10
2484.387029613574
 20
-23489.79310803642
 30
0.0
  0
POINT
  5
1950B
330
16B4E
100
AcDbEntity
  8
Defpoints
 62
     0
100
AcDbPoint
 10
2584.387029613573
 20
-23489.79310803642
 30
0.0
  0
POINT
  5
1950C
330
16B4E
100
AcDbEntity
  8
Defpoints
 62
     0
100
AcDbPoint
 10
2584.387029613573
 20
-23565.52610983061
 30
0.0
  0
ENDBLK
  5
16B59
330
16B4E
100
AcDbEntity
  8
0
100
AcDbBlockEnd
  0
BLOCK
  5
16B64
330
16B5A
100
AcDbEntity
  8
0
100
AcDbBlockBegin
  2
*D251
 70
     1
 10
0.0
 20
0.0
 30
0.0
  3
*D251
  1

  0
LINE
  5
1950D
330
16B5A
100
AcDbEntity
  8
-TEXT3
370
    -2
100
AcDbLine
 10
2584.387029613573
 20
-23500.29310803642
 30
0.0
 11
2584.387029613573
 21
-23569.02610983061
 31
0.0
  0
LINE
  5
1950E
330
16B5A
100
AcDbEntity
  8
-TEXT3
370
    -2
100
AcDbLine
 10
2684.387029613573
 20
-23500.29310803642
 30
0.0
 11
2684.387029613573
 21
-23569.02610983061
 31
0.0
  0
LINE
  5
1950F
330
16B5A
100
AcDbEntity
  8
-TEXT3
370
    -2
100
AcDbLine
 10
2612.387029613574
 20
-23565.52610983061
 30
0.0
 11
2656.387029613573
 21
-23565.52610983061
 31
0.0
  0
SOLID
  5
19510
330
16B5A
100
AcDbEntity
  8
-TEXT3
100
AcDbTrace
 10
2612.387029613574
 20
-23560.85944316395
 30
0.0
 11
2612.387029613574
 21
-23570.19277649728
 31
0.0
 12
2584.387029613573
 22
-23565.52610983061
 32
0.0
 13
2584.387029613573
 23
-23565.52610983061
 33
0.0
  0
SOLID
  5
19511
330
16B5A
100
AcDbEntity
  8
-TEXT3
100
AcDbTrace
 10
2656.387029613573
 20
-23560.85944316395
 30
0.0
 11
2656.387029613573
 21
-23570.19277649728
 31
0.0
 12
2684.387029613573
 22
-23565.52610983061
 32
0.0
 13
2684.387029613573
 23
-23565.52610983061
 33
0.0
  0
MTEXT
  5
19512
330
16B5A
100
AcDbEntity
  8
-TEXT3
100
AcDbMText
 10
2634.387029613574
 20
-23540.7300661744
 30
0.0
 40
28.0
 41
0.0
 71
     5
 72
     1
  1
100
 73
     1
 44
1.0
  0
POINT
  5
19513
330
16B5A
100
AcDbEntity
  8
Defpoints
 62
     0
100
AcDbPoint
 10
2584.387029613573
 20
-23489.79310803642
 30
0.0
  0
POINT
  5
19514
330
16B5A
100
AcDbEntity
  8
Defpoints
 62
     0
100
AcDbPoint
 10
2684.387029613573
 20
-23489.79310803642
 30
0.0
  0
POINT
  5
19515
330
16B5A
100
AcDbEntity
  8
Defpoints
 62
     0
100
AcDbPoint
 10
2684.387029613573
 20
-23565.52610983061
 30
0.0
  0
ENDBLK
  5
16B65
330
16B5A
100
AcDbEntity
  8
0
100
AcDbBlockEnd
  0
BLOCK
  5
16B70
330
16B66
100
AcDbEntity
  8
0
100
AcDbBlockBegin
  2
*D252
 70
     1
 10
0.0
 20
0.0
 30
0.0
  3
*D252
  1

  0
LINE
  5
19516
330
16B66
100
AcDbEntity
  8
-TEXT3
370
    -2
100
AcDbLine
 10
2684.387029613573
 20
-23500.29310803642
 30
0.0
 11
2684.387029613573
 21
-23569.02610983061
 31
0.0
  0
LINE
  5
19517
330
16B66
100
AcDbEntity
  8
-TEXT3
370
    -2
100
AcDbLine
 10
2784.387029613573
 20
-23500.29310803642
 30
0.0
 11
2784.387029613573
 21
-23569.02610983061
 31
0.0
  0
LINE
  5
19518
330
16B66
100
AcDbEntity
  8
-TEXT3
370
    -2
100
AcDbLine
 10
2712.387029613573
 20
-23565.52610983061
 30
0.0
 11
2756.387029613573
 21
-23565.52610983061
 31
0.0
  0
SOLID
  5
19519
330
16B66
100
AcDbEntity
  8
-TEXT3
100
AcDbTrace
 10
2712.387029613573
 20
-23560.85944316395
 30
0.0
 11
2712.387029613573
 21
-23570.19277649728
 31
0.0
 12
2684.387029613573
 22
-23565.52610983061
 32
0.0
 13
2684.387029613573
 23
-23565.52610983061
 33
0.0
  0
SOLID
  5
1951A
330
16B66
100
AcDbEntity
  8
-TEXT3
100
AcDbTrace
 10
2756.387029613573
 20
-23560.85944316395
 30
0.0
 11
2756.387029613573
 21
-23570.19277649728
 31
0.0
 12
2784.387029613573
 22
-23565.52610983061
 32
0.0
 13
2784.387029613573
 23
-23565.52610983061
 33
0.0
  0
MTEXT
  5
1951B
330
16B66
100
AcDbEntity
  8
-TEXT3
100
AcDbMText
 10
2734.387029613574
 20
-23540.7300661744
 30
0.0
 40
28.0
 41
0.0
 71
     5
 72
     1
  1
100
 73
     1
 44
1.0
  0
POINT
  5
1951C
330
16B66
100
AcDbEntity
  8
Defpoints
 62
     0
100
AcDbPoint
 10
2684.387029613573
 20
-23489.79310803642
 30
0.0
  0
POINT
  5
1951D
330
16B66
100
AcDbEntity
  8
Defpoints
 62
     0
100
AcDbPoint
 10
2784.387029613573
 20
-23489.79310803642
 30
0.0
  0
POINT
  5
1951E
330
16B66
100
AcDbEntity
  8
Defpoints
 62
     0
100
AcDbPoint
 10
2784.387029613573
 20
-23565.52610983061
 30
0.0
  0
ENDBLK
  5
16B71
330
16B66
100
AcDbEntity
  8
0
100
AcDbBlockEnd
  0
BLOCK
  5
16B7C
330
16B72
100
AcDbEntity
  8
0
100
AcDbBlockBegin
  2
*D253
 70
     1
 10
0.0
 20
0.0
 30
0.0
  3
*D253
  1

  0
LINE
  5
1951F
330
16B72
100
AcDbEntity
  8
-TEXT3
370
    -2
100
AcDbLine
 10
2784.387029613573
 20
-23500.29310803642
 30
0.0
 11
2784.387029613573
 21
-23569.02610983061
 31
0.0
  0
LINE
  5
19520
330
16B72
100
AcDbEntity
  8
-TEXT3
370
    -2
100
AcDbLine
 10
2884.387029613574
 20
-23500.29310803642
 30
0.0
 11
2884.387029613574
 21
-23569.02610983061
 31
0.0
  0
LINE
  5
19521
330
16B72
100
AcDbEntity
  8
-TEXT3
370
    -2
100
AcDbLine
 10
2812.387029613574
 20
-23565.52610983061
 30
0.0
 11
2856.387029613573
 21
-23565.52610983061
 31
0.0
  0
SOLID
  5
19522
330
16B72
100
AcDbEntity
  8
-TEXT3
100
AcDbTrace
 10
2812.387029613574
 20
-23560.85944316395
 30
0.0
 11
2812.387029613574
 21
-23570.19277649728
 31
0.0
 12
2784.387029613573
 22
-23565.52610983061
 32
0.0
 13
2784.387029613573
 23
-23565.52610983061
 33
0.0
  0
SOLID
  5
19523
330
16B72
100
AcDbEntity
  8
-TEXT3
100
AcDbTrace
 10
2856.387029613573
 20
-23560.85944316395
 30
0.0
 11
2856.387029613573
 21
-23570.19277649728
 31
0.0
 12
2884.387029613574
 22
-23565.52610983061
 32
0.0
 13
2884.387029613574
 23
-23565.52610983061
 33
0.0
  0
MTEXT
  5
19524
330
16B72
100
AcDbEntity
  8
-TEXT3
100
AcDbMText
 10
2834.387029613573
 20
-23540.7300661744
 30
0.0
 40
28.0
 41
0.0
 71
     5
 72
     1
  1
100
 73
     1
 44
1.0
  0
POINT
  5
19525
330
16B72
100
AcDbEntity
  8
Defpoints
 62
     0
100
AcDbPoint
 10
2784.387029613573
 20
-23489.79310803642
 30
0.0
  0
POINT
  5
19526
330
16B72
100
AcDbEntity
  8
Defpoints
 62
     0
100
AcDbPoint
 10
2884.387029613574
 20
-23489.79310803642
 30
0.0
  0
POINT
  5
19527
330
16B72
100
AcDbEntity
  8
Defpoints
 62
     0
100
AcDbPoint
 10
2884.387029613574
 20
-23565.52610983061
 30
0.0
  0
ENDBLK
  5
16B7D
330
16B72
100
AcDbEntity
  8
0
100
AcDbBlockEnd
  0
BLOCK
  5
16B88
330
16B7E
100
AcDbEntity
  8
0
100
AcDbBlockBegin
  2
*D254
 70
     1
 10
0.0
 20
0.0
 30
0.0
  3
*D254
  1

  0
LINE
  5
19528
330
16B7E
100
AcDbEntity
  8
-TEXT3
370
    -2
100
AcDbLine
 10
2884.387029613574
 20
-23500.29310803642
 30
0.0
 11
2884.387029613574
 21
-23569.02610983061
 31
0.0
  0
LINE
  5
19529
330
16B7E
100
AcDbEntity
  8
-TEXT3
370
    -2
100
AcDbLine
 10
2984.387029613574
 20
-23500.29310803642
 30
0.0
 11
2984.387029613574
 21
-23569.02610983061
 31
0.0
  0
LINE
  5
1952A
330
16B7E
100
AcDbEntity
  8
-TEXT3
370
    -2
100
AcDbLine
 10
2912.387029613574
 20
-23565.52610983061
 30
0.0
 11
2956.387029613573
 21
-23565.52610983061
 31
0.0
  0
SOLID
  5
1952B
330
16B7E
100
AcDbEntity
  8
-TEXT3
100
AcDbTrace
 10
2912.387029613574
 20
-23560.85944316395
 30
0.0
 11
2912.387029613574
 21
-23570.19277649728
 31
0.0
 12
2884.387029613574
 22
-23565.52610983061
 32
0.0
 13
2884.387029613574
 23
-23565.52610983061
 33
0.0
  0
SOLID
  5
1952C
330
16B7E
100
AcDbEntity
  8
-TEXT3
100
AcDbTrace
 10
2956.387029613573
 20
-23560.85944316395
 30
0.0
 11
2956.387029613573
 21
-23570.19277649728
 31
0.0
 12
2984.387029613574
 22
-23565.52610983061
 32
0.0
 13
2984.387029613574
 23
-23565.52610983061
 33
0.0
  0
MTEXT
  5
1952D
330
16B7E
100
AcDbEntity
  8
-TEXT3
100
AcDbMText
 10
2934.387029613573
 20
-23540.7300661744
 30
0.0
 40
28.0
 41
0.0
 71
     5
 72
     1
  1
100
 73
     1
 44
1.0
  0
POINT
  5
1952E
330
16B7E
100
AcDbEntity
  8
Defpoints
 62
     0
100
AcDbPoint
 10
2884.387029613574
 20
-23489.79310803642
 30
0.0
  0
POINT
  5
1952F
330
16B7E
100
AcDbEntity
  8
Defpoints
 62
     0
100
AcDbPoint
 10
2984.387029613574
 20
-23489.79310803642
 30
0.0
  0
POINT
  5
19530
330
16B7E
100
AcDbEntity
  8
Defpoints
 62
     0
100
AcDbPoint
 10
2984.387029613574
 20
-23565.52610983061
 30
0.0
  0
ENDBLK
  5
16B89
330
16B7E
100
AcDbEntity
  8
0
100
AcDbBlockEnd
  0
BLOCK
  5
16B94
330
16B8A
100
AcDbEntity
  8
0
100
AcDbBlockBegin
  2
*D255
 70
     1
 10
0.0
 20
0.0
 30
0.0
  3
*D255
  1

  0
LINE
  5
19531
330
16B8A
100
AcDbEntity
  8
-TEXT3
370
    -2
100
AcDbLine
 10
2984.387029613574
 20
-23500.29310803642
 30
0.0
 11
2984.387029613574
 21
-23569.02610983061
 31
0.0
  0
LINE
  5
19532
330
16B8A
100
AcDbEntity
  8
-TEXT3
370
    -2
100
AcDbLine
 10
3084.387029613573
 20
-23500.29310803642
 30
0.0
 11
3084.387029613573
 21
-23569.02610983061
 31
0.0
  0
LINE
  5
19533
330
16B8A
100
AcDbEntity
  8
-TEXT3
370
    -2
100
AcDbLine
 10
3012.387029613574
 20
-23565.52610983061
 30
0.0
 11
3056.387029613573
 21
-23565.52610983061
 31
0.0
  0
SOLID
  5
19534
330
16B8A
100
AcDbEntity
  8
-TEXT3
100
AcDbTrace
 10
3012.387029613574
 20
-23560.85944316395
 30
0.0
 11
3012.387029613574
 21
-23570.19277649728
 31
0.0
 12
2984.387029613574
 22
-23565.52610983061
 32
0.0
 13
2984.387029613574
 23
-23565.52610983061
 33
0.0
  0
SOLID
  5
19535
330
16B8A
100
AcDbEntity
  8
-TEXT3
100
AcDbTrace
 10
3056.387029613573
 20
-23560.85944316395
 30
0.0
 11
3056.387029613573
 21
-23570.19277649728
 31
0.0
 12
3084.387029613573
 22
-23565.52610983061
 32
0.0
 13
3084.387029613573
 23
-23565.52610983061
 33
0.0
  0
MTEXT
  5
19536
330
16B8A
100
AcDbEntity
  8
-TEXT3
100
AcDbMText
 10
3034.387029613573
 20
-23540.7300661744
 30
0.0
 40
28.0
 41
0.0
 71
     5
 72
     1
  1
100
 73
     1
 44
1.0
  0
POINT
  5
19537
330
16B8A
100
AcDbEntity
  8
Defpoints
 62
     0
100
AcDbPoint
 10
2984.387029613574
 20
-23489.79310803642
 30
0.0
  0
POINT
  5
19538
330
16B8A
100
AcDbEntity
  8
Defpoints
 62
     0
100
AcDbPoint
 10
3084.387029613573
 20
-23489.79310803642
 30
0.0
  0
POINT
  5
19539
330
16B8A
100
AcDbEntity
  8
Defpoints
 62
     0
100
AcDbPoint
 10
3084.387029613573
 20
-23565.52610983061
 30
0.0
  0
ENDBLK
  5
16B95
330
16B8A
100
AcDbEntity
  8
0
100
AcDbBlockEnd
  0
BLOCK
  5
16BA0
330
16B96
100
AcDbEntity
  8
0
100
AcDbBlockBegin
  2
*D256
 70
     1
 10
0.0
 20
0.0
 30
0.0
  3
*D256
  1

  0
LINE
  5
1953A
330
16B96
100
AcDbEntity
  8
-TEXT3
370
    -2
100
AcDbLine
 10
3084.387029613573
 20
-23500.29310803642
 30
0.0
 11
3084.387029613573
 21
-23569.02610983061
 31
0.0
  0
LINE
  5
1953B
330
16B96
100
AcDbEntity
  8
-TEXT3
370
    -2
100
AcDbLine
 10
3184.387029613573
 20
-23500.29310803642
 30
0.0
 11
3184.387029613573
 21
-23569.02610983061
 31
0.0
  0
LINE
  5
1953C
330
16B96
100
AcDbEntity
  8
-TEXT3
370
    -2
100
AcDbLine
 10
3112.387029613574
 20
-23565.52610983061
 30
0.0
 11
3156.387029613573
 21
-23565.52610983061
 31
0.0
  0
SOLID
  5
1953D
330
16B96
100
AcDbEntity
  8
-TEXT3
100
AcDbTrace
 10
3112.387029613574
 20
-23560.85944316395
 30
0.0
 11
3112.387029613574
 21
-23570.19277649728
 31
0.0
 12
3084.387029613573
 22
-23565.52610983061
 32
0.0
 13
3084.387029613573
 23
-23565.52610983061
 33
0.0
  0
SOLID
  5
1953E
330
16B96
100
AcDbEntity
  8
-TEXT3
100
AcDbTrace
 10
3156.387029613573
 20
-23560.85944316395
 30
0.0
 11
3156.387029613573
 21
-23570.19277649728
 31
0.0
 12
3184.387029613573
 22
-23565.52610983061
 32
0.0
 13
3184.387029613573
 23
-23565.52610983061
 33
0.0
  0
MTEXT
  5
1953F
330
16B96
100
AcDbEntity
  8
-TEXT3
100
AcDbMText
 10
3134.387029613574
 20
-23540.7300661744
 30
0.0
 40
28.0
 41
0.0
 71
     5
 72
     1
  1
100
 73
     1
 44
1.0
  0
POINT
  5
19540
330
16B96
100
AcDbEntity
  8
Defpoints
 62
     0
100
AcDbPoint
 10
3084.387029613573
 20
-23489.79310803642
 30
0.0
  0
POINT
  5
19541
330
16B96
100
AcDbEntity
  8
Defpoints
 62
     0
100
AcDbPoint
 10
3184.387029613573
 20
-23489.79310803642
 30
0.0
  0
POINT
  5
19542
330
16B96
100
AcDbEntity
  8
Defpoints
 62
     0
100
AcDbPoint
 10
3184.387029613573
 20
-23565.52610983061
 30
0.0
  0
ENDBLK
  5
16BA1
330
16B96
100
AcDbEntity
  8
0
100
AcDbBlockEnd
  0
BLOCK
  5
16BAC
330
16BA2
100
AcDbEntity
  8
0
100
AcDbBlockBegin
  2
*D257
 70
     1
 10
0.0
 20
0.0
 30
0.0
  3
*D257
  1

  0
LINE
  5
19543
330
16BA2
100
AcDbEntity
  8
-TEXT3
370
    -2
100
AcDbLine
 10
3184.387029613573
 20
-23500.29310803642
 30
0.0
 11
3184.387029613573
 21
-23569.02610983061
 31
0.0
  0
LINE
  5
19544
330
16BA2
100
AcDbEntity
  8
-TEXT3
370
    -2
100
AcDbLine
 10
3284.387029613573
 20
-23500.29310803642
 30
0.0
 11
3284.387029613573
 21
-23569.02610983061
 31
0.0
  0
LINE
  5
19545
330
16BA2
100
AcDbEntity
  8
-TEXT3
370
    -2
100
AcDbLine
 10
3212.387029613573
 20
-23565.52610983061
 30
0.0
 11
3256.387029613573
 21
-23565.52610983061
 31
0.0
  0
SOLID
  5
19546
330
16BA2
100
AcDbEntity
  8
-TEXT3
100
AcDbTrace
 10
3212.387029613573
 20
-23560.85944316395
 30
0.0
 11
3212.387029613573
 21
-23570.19277649728
 31
0.0
 12
3184.387029613573
 22
-23565.52610983061
 32
0.0
 13
3184.387029613573
 23
-23565.52610983061
 33
0.0
  0
SOLID
  5
19547
330
16BA2
100
AcDbEntity
  8
-TEXT3
100
AcDbTrace
 10
3256.387029613573
 20
-23560.85944316395
 30
0.0
 11
3256.387029613573
 21
-23570.19277649728
 31
0.0
 12
3284.387029613573
 22
-23565.52610983061
 32
0.0
 13
3284.387029613573
 23
-23565.52610983061
 33
0.0
  0
MTEXT
  5
19548
330
16BA2
100
AcDbEntity
  8
-TEXT3
100
AcDbMText
 10
3234.387029613574
 20
-23540.7300661744
 30
0.0
 40
28.0
 41
0.0
 71
     5
 72
     1
  1
100
 73
     1
 44
1.0
  0
POINT
  5
19549
330
16BA2
100
AcDbEntity
  8
Defpoints
 62
     0
100
AcDbPoint
 10
3184.387029613573
 20
-23489.79310803642
 30
0.0
  0
POINT
  5
1954A
330
16BA2
100
AcDbEntity
  8
Defpoints
 62
     0
100
AcDbPoint
 10
3284.387029613573
 20
-23489.79310803642
 30
0.0
  0
POINT
  5
1954B
330
16BA2
100
AcDbEntity
  8
Defpoints
 62
     0
100
AcDbPoint
 10
3284.387029613573
 20
-23565.52610983061
 30
0.0
  0
ENDBLK
  5
16BAD
330
16BA2
100
AcDbEntity
  8
0
100
AcDbBlockEnd
  0
BLOCK
  5
16BB8
330
16BAE
100
AcDbEntity
  8
0
100
AcDbBlockBegin
  2
*D258
 70
     1
 10
0.0
 20
0.0
 30
0.0
  3
*D258
  1

  0
LINE
  5
1954C
330
16BAE
100
AcDbEntity
  8
-TEXT3
370
    -2
100
AcDbLine
 10
3284.387029613573
 20
-23500.29310803642
 30
0.0
 11
3284.387029613573
 21
-23569.02610983061
 31
0.0
  0
LINE
  5
1954D
330
16BAE
100
AcDbEntity
  8
-TEXT3
370
    -2
100
AcDbLine
 10
3384.387029613574
 20
-23500.29310803642
 30
0.0
 11
3384.387029613574
 21
-23569.02610983061
 31
0.0
  0
LINE
  5
1954E
330
16BAE
100
AcDbEntity
  8
-TEXT3
370
    -2
100
AcDbLine
 10
3312.387029613574
 20
-23565.52610983061
 30
0.0
 11
3356.387029613574
 21
-23565.52610983061
 31
0.0
  0
SOLID
  5
1954F
330
16BAE
100
AcDbEntity
  8
-TEXT3
100
AcDbTrace
 10
3312.387029613574
 20
-23560.85944316395
 30
0.0
 11
3312.387029613574
 21
-23570.19277649728
 31
0.0
 12
3284.387029613573
 22
-23565.52610983061
 32
0.0
 13
3284.387029613573
 23
-23565.52610983061
 33
0.0
  0
SOLID
  5
19550
330
16BAE
100
AcDbEntity
  8
-TEXT3
100
AcDbTrace
 10
3356.387029613574
 20
-23560.85944316395
 30
0.0
 11
3356.387029613574
 21
-23570.19277649728
 31
0.0
 12
3384.387029613574
 22
-23565.52610983061
 32
0.0
 13
3384.387029613574
 23
-23565.52610983061
 33
0.0
  0
MTEXT
  5
19551
330
16BAE
100
AcDbEntity
  8
-TEXT3
100
AcDbMText
 10
3334.387029613573
 20
-23540.7300661744
 30
0.0
 40
28.0
 41
0.0
 71
     5
 72
     1
  1
100
 73
     1
 44
1.0
  0
POINT
  5
19552
330
16BAE
100
AcDbEntity
  8
Defpoints
 62
     0
100
AcDbPoint
 10
3284.387029613573
 20
-23489.79310803642
 30
0.0
  0
POINT
  5
19553
330
16BAE
100
AcDbEntity
  8
Defpoints
 62
     0
100
AcDbPoint
 10
3384.387029613574
 20
-23489.79310803642
 30
0.0
  0
POINT
  5
19554
330
16BAE
100
AcDbEntity
  8
Defpoints
 62
     0
100
AcDbPoint
 10
3384.387029613574
 20
-23565.52610983061
 30
0.0
  0
ENDBLK
  5
16BB9
330
16BAE
100
AcDbEntity
  8
0
100
AcDbBlockEnd
  0
BLOCK
  5
16BC4
330
16BBA
100
AcDbEntity
  8
0
100
AcDbBlockBegin
  2
*D259
 70
     1
 10
0.0
 20
0.0
 30
0.0
  3
*D259
  1

  0
LINE
  5
19555
330
16BBA
100
AcDbEntity
  8
-TEXT3
370
    -2
100
AcDbLine
 10
3384.387029613574
 20
-23500.29310803642
 30
0.0
 11
3384.387029613574
 21
-23569.02610983061
 31
0.0
  0
LINE
  5
19556
330
16BBA
100
AcDbEntity
  8
-TEXT3
370
    -2
100
AcDbLine
 10
3484.387029613574
 20
-23500.29310803642
 30
0.0
 11
3484.387029613574
 21
-23569.02610983061
 31
0.0
  0
LINE
  5
19557
330
16BBA
100
AcDbEntity
  8
-TEXT3
370
    -2
100
AcDbLine
 10
3412.387029613574
 20
-23565.52610983061
 30
0.0
 11
3456.387029613573
 21
-23565.52610983061
 31
0.0
  0
SOLID
  5
19558
330
16BBA
100
AcDbEntity
  8
-TEXT3
100
AcDbTrace
 10
3412.387029613574
 20
-23560.85944316395
 30
0.0
 11
3412.387029613574
 21
-23570.19277649728
 31
0.0
 12
3384.387029613574
 22
-23565.52610983061
 32
0.0
 13
3384.387029613574
 23
-23565.52610983061
 33
0.0
  0
SOLID
  5
19559
330
16BBA
100
AcDbEntity
  8
-TEXT3
100
AcDbTrace
 10
3456.387029613573
 20
-23560.85944316395
 30
0.0
 11
3456.387029613573
 21
-23570.19277649728
 31
0.0
 12
3484.387029613574
 22
-23565.52610983061
 32
0.0
 13
3484.387029613574
 23
-23565.52610983061
 33
0.0
  0
MTEXT
  5
1955A
330
16BBA
100
AcDbEntity
  8
-TEXT3
100
AcDbMText
 10
3434.387029613573
 20
-23540.7300661744
 30
0.0
 40
28.0
 41
0.0
 71
     5
 72
     1
  1
100
 73
     1
 44
1.0
  0
POINT
  5
1955B
330
16BBA
100
AcDbEntity
  8
Defpoints
 62
     0
100
AcDbPoint
 10
3384.387029613574
 20
-23489.79310803642
 30
0.0
  0
POINT
  5
1955C
330
16BBA
100
AcDbEntity
  8
Defpoints
 62
     0
100
AcDbPoint
 10
3484.387029613574
 20
-23489.79310803642
 30
0.0
  0
POINT
  5
1955D
330
16BBA
100
AcDbEntity
  8
Defpoints
 62
     0
100
AcDbPoint
 10
3484.387029613574
 20
-23565.52610983061
 30
0.0
  0
ENDBLK
  5
16BC5
330
16BBA
100
AcDbEntity
  8
0
100
AcDbBlockEnd
  0
BLOCK
  5
16BD0
330
16BC6
100
AcDbEntity
  8
0
100
AcDbBlockBegin
  2
*D260
 70
     1
 10
0.0
 20
0.0
 30
0.0
  3
*D260
  1

  0
LINE
  5
1955E
330
16BC6
100
AcDbEntity
  8
-TEXT3
370
    -2
100
AcDbLine
 10
3484.387029613574
 20
-23500.29310803642
 30
0.0
 11
3484.387029613574
 21
-23569.02610983061
 31
0.0
  0
LINE
  5
1955F
330
16BC6
100
AcDbEntity
  8
-TEXT3
370
    -2
100
AcDbLine
 10
3584.387029613573
 20
-23500.29310803642
 30
0.0
 11
3584.387029613573
 21
-23569.02610983061
 31
0.0
  0
LINE
  5
19560
330
16BC6
100
AcDbEntity
  8
-TEXT3
370
    -2
100
AcDbLine
 10
3512.387029613574
 20
-23565.52610983061
 30
0.0
 11
3556.387029613573
 21
-23565.52610983061
 31
0.0
  0
SOLID
  5
19561
330
16BC6
100
AcDbEntity
  8
-TEXT3
100
AcDbTrace
 10
3512.387029613574
 20
-23560.85944316395
 30
0.0
 11
3512.387029613574
 21
-23570.19277649728
 31
0.0
 12
3484.387029613574
 22
-23565.52610983061
 32
0.0
 13
3484.387029613574
 23
-23565.52610983061
 33
0.0
  0
SOLID
  5
19562
330
16BC6
100
AcDbEntity
  8
-TEXT3
100
AcDbTrace
 10
3556.387029613573
 20
-23560.85944316395
 30
0.0
 11
3556.387029613573
 21
-23570.19277649728
 31
0.0
 12
3584.387029613573
 22
-23565.52610983061
 32
0.0
 13
3584.387029613573
 23
-23565.52610983061
 33
0.0
  0
MTEXT
  5
19563
330
16BC6
100
AcDbEntity
  8
-TEXT3
100
AcDbMText
 10
3534.387029613573
 20
-23540.7300661744
 30
0.0
 40
28.0
 41
0.0
 71
     5
 72
     1
  1
100
 73
     1
 44
1.0
  0
POINT
  5
19564
330
16BC6
100
AcDbEntity
  8
Defpoints
 62
     0
100
AcDbPoint
 10
3484.387029613574
 20
-23489.79310803642
 30
0.0
  0
POINT
  5
19565
330
16BC6
100
AcDbEntity
  8
Defpoints
 62
     0
100
AcDbPoint
 10
3584.387029613573
 20
-23489.79310803642
 30
0.0
  0
POINT
  5
19566
330
16BC6
100
AcDbEntity
  8
Defpoints
 62
     0
100
AcDbPoint
 10
3584.387029613573
 20
-23565.52610983061
 30
0.0
  0
ENDBLK
  5
16BD1
330
16BC6
100
AcDbEntity
  8
0
100
AcDbBlockEnd
  0
BLOCK
  5
16BDC
330
16BD2
100
AcDbEntity
  8
0
100
AcDbBlockBegin
  2
*D261
 70
     1
 10
0.0
 20
0.0
 30
0.0
  3
*D261
  1

  0
LINE
  5
19567
330
16BD2
100
AcDbEntity
  8
-TEXT3
370
    -2
100
AcDbLine
 10
3584.387029613573
 20
-23500.29310803642
 30
0.0
 11
3584.387029613573
 21
-23569.02610983061
 31
0.0
  0
LINE
  5
19568
330
16BD2
100
AcDbEntity
  8
-TEXT3
370
    -2
100
AcDbLine
 10
3684.387029613573
 20
-23500.29310803642
 30
0.0
 11
3684.387029613573
 21
-23569.02610983061
 31
0.0
  0
LINE
  5
19569
330
16BD2
100
AcDbEntity
  8
-TEXT3
370
    -2
100
AcDbLine
 10
3612.387029613574
 20
-23565.52610983061
 30
0.0
 11
3656.387029613573
 21
-23565.52610983061
 31
0.0
  0
SOLID
  5
1956A
330
16BD2
100
AcDbEntity
  8
-TEXT3
100
AcDbTrace
 10
3612.387029613574
 20
-23560.85944316395
 30
0.0
 11
3612.387029613574
 21
-23570.19277649728
 31
0.0
 12
3584.387029613573
 22
-23565.52610983061
 32
0.0
 13
3584.387029613573
 23
-23565.52610983061
 33
0.0
  0
SOLID
  5
1956B
330
16BD2
100
AcDbEntity
  8
-TEXT3
100
AcDbTrace
 10
3656.387029613573
 20
-23560.85944316395
 30
0.0
 11
3656.387029613573
 21
-23570.19277649728
 31
0.0
 12
3684.387029613573
 22
-23565.52610983061
 32
0.0
 13
3684.387029613573
 23
-23565.52610983061
 33
0.0
  0
MTEXT
  5
1956C
330
16BD2
100
AcDbEntity
  8
-TEXT3
100
AcDbMText
 10
3634.387029613574
 20
-23540.7300661744
 30
0.0
 40
28.0
 41
0.0
 71
     5
 72
     1
  1
100
 73
     1
 44
1.0
  0
POINT
  5
1956D
330
16BD2
100
AcDbEntity
  8
Defpoints
 62
     0
100
AcDbPoint
 10
3584.387029613573
 20
-23489.79310803642
 30
0.0
  0
POINT
  5
1956E
330
16BD2
100
AcDbEntity
  8
Defpoints
 62
     0
100
AcDbPoint
 10
3684.387029613573
 20
-23489.79310803642
 30
0.0
  0
POINT
  5
1956F
330
16BD2
100
AcDbEntity
  8
Defpoints
 62
     0
100
AcDbPoint
 10
3684.387029613573
 20
-23565.52610983061
 30
0.0
  0
ENDBLK
  5
16BDD
330
16BD2
100
AcDbEntity
  8
0
100
AcDbBlockEnd
  0
BLOCK
  5
16BE8
330
16BDE
100
AcDbEntity
  8
0
100
AcDbBlockBegin
  2
*D262
 70
     1
 10
0.0
 20
0.0
 30
0.0
  3
*D262
  1

  0
LINE
  5
19570
330
16BDE
100
AcDbEntity
  8
-TEXT3
370
    -2
100
AcDbLine
 10
3684.387029613573
 20
-23500.29310803642
 30
0.0
 11
3684.387029613573
 21
-23569.02610983061
 31
0.0
  0
LINE
  5
19571
330
16BDE
100
AcDbEntity
  8
-TEXT3
370
    -2
100
AcDbLine
 10
3784.387029613573
 20
-23500.29310803642
 30
0.0
 11
3784.387029613573
 21
-23569.02610983061
 31
0.0
  0
LINE
  5
19572
330
16BDE
100
AcDbEntity
  8
-TEXT3
370
    -2
100
AcDbLine
 10
3712.387029613573
 20
-23565.52610983061
 30
0.0
 11
3756.387029613573
 21
-23565.52610983061
 31
0.0
  0
SOLID
  5
19573
330
16BDE
100
AcDbEntity
  8
-TEXT3
100
AcDbTrace
 10
3712.387029613573
 20
-23560.85944316395
 30
0.0
 11
3712.387029613573
 21
-23570.19277649728
 31
0.0
 12
3684.387029613573
 22
-23565.52610983061
 32
0.0
 13
3684.387029613573
 23
-23565.52610983061
 33
0.0
  0
SOLID
  5
19574
330
16BDE
100
AcDbEntity
  8
-TEXT3
100
AcDbTrace
 10
3756.387029613573
 20
-23560.85944316395
 30
0.0
 11
3756.387029613573
 21
-23570.19277649728
 31
0.0
 12
3784.387029613573
 22
-23565.52610983061
 32
0.0
 13
3784.387029613573
 23
-23565.52610983061
 33
0.0
  0
MTEXT
  5
19575
330
16BDE
100
AcDbEntity
  8
-TEXT3
100
AcDbMText
 10
3734.387029613574
 20
-23540.7300661744
 30
0.0
 40
28.0
 41
0.0
 71
     5
 72
     1
  1
100
 73
     1
 44
1.0
  0
POINT
  5
19576
330
16BDE
100
AcDbEntity
  8
Defpoints
 62
     0
100
AcDbPoint
 10
3684.387029613573
 20
-23489.79310803642
 30
0.0
  0
POINT
  5
19577
330
16BDE
100
AcDbEntity
  8
Defpoints
 62
     0
100
AcDbPoint
 10
3784.387029613573
 20
-23489.79310803642
 30
0.0
  0
POINT
  5
19578
330
16BDE
100
AcDbEntity
  8
Defpoints
 62
     0
100
AcDbPoint
 10
3784.387029613573
 20
-23565.52610983061
 30
0.0
  0
ENDBLK
  5
16BE9
330
16BDE
100
AcDbEntity
  8
0
100
AcDbBlockEnd
  0
BLOCK
  5
16BF4
330
16BEA
100
AcDbEntity
  8
0
100
AcDbBlockBegin
  2
*D263
 70
     1
 10
0.0
 20
0.0
 30
0.0
  3
*D263
  1

  0
LINE
  5
19579
330
16BEA
100
AcDbEntity
  8
-TEXT3
370
    -2
100
AcDbLine
 10
3784.387029613573
 20
-23500.29310803642
 30
0.0
 11
3784.387029613573
 21
-23569.02610983061
 31
0.0
  0
LINE
  5
1957A
330
16BEA
100
AcDbEntity
  8
-TEXT3
370
    -2
100
AcDbLine
 10
3884.387029613574
 20
-23500.29310803642
 30
0.0
 11
3884.387029613574
 21
-23569.02610983061
 31
0.0
  0
LINE
  5
1957B
330
16BEA
100
AcDbEntity
  8
-TEXT3
370
    -2
100
AcDbLine
 10
3812.387029613574
 20
-23565.52610983061
 30
0.0
 11
3856.387029613573
 21
-23565.52610983061
 31
0.0
  0
SOLID
  5
1957C
330
16BEA
100
AcDbEntity
  8
-TEXT3
100
AcDbTrace
 10
3812.387029613574
 20
-23560.85944316395
 30
0.0
 11
3812.387029613574
 21
-23570.19277649728
 31
0.0
 12
3784.387029613573
 22
-23565.52610983061
 32
0.0
 13
3784.387029613573
 23
-23565.52610983061
 33
0.0
  0
SOLID
  5
1957D
330
16BEA
100
AcDbEntity
  8
-TEXT3
100
AcDbTrace
 10
3856.387029613573
 20
-23560.85944316395
 30
0.0
 11
3856.387029613573
 21
-23570.19277649728
 31
0.0
 12
3884.387029613574
 22
-23565.52610983061
 32
0.0
 13
3884.387029613574
 23
-23565.52610983061
 33
0.0
  0
MTEXT
  5
1957E
330
16BEA
100
AcDbEntity
  8
-TEXT3
100
AcDbMText
 10
3834.387029613573
 20
-23540.7300661744
 30
0.0
 40
28.0
 41
0.0
 71
     5
 72
     1
  1
100
 73
     1
 44
1.0
  0
POINT
  5
1957F
330
16BEA
100
AcDbEntity
  8
Defpoints
 62
     0
100
AcDbPoint
 10
3784.387029613573
 20
-23489.79310803642
 30
0.0
  0
POINT
  5
19580
330
16BEA
100
AcDbEntity
  8
Defpoints
 62
     0
100
AcDbPoint
 10
3884.387029613574
 20
-23489.79310803642
 30
0.0
  0
POINT
  5
19581
330
16BEA
100
AcDbEntity
  8
Defpoints
 62
     0
100
AcDbPoint
 10
3884.387029613574
 20
-23565.52610983061
 30
0.0
  0
ENDBLK
  5
16BF5
330
16BEA
100
AcDbEntity
  8
0
100
AcDbBlockEnd
  0
BLOCK
  5
16C00
330
16BF6
100
AcDbEntity
  8
0
100
AcDbBlockBegin
  2
*D264
 70
     1
 10
0.0
 20
0.0
 30
0.0
  3
*D264
  1

  0
LINE
  5
19582
330
16BF6
100
AcDbEntity
  8
-TEXT3
370
    -2
100
AcDbLine
 10
3884.387029613574
 20
-23500.29310803642
 30
0.0
 11
3884.387029613574
 21
-23569.02610983061
 31
0.0
  0
LINE
  5
19583
330
16BF6
100
AcDbEntity
  8
-TEXT3
370
    -2
100
AcDbLine
 10
3984.387029613574
 20
-23500.29310803642
 30
0.0
 11
3984.387029613574
 21
-23569.02610983061
 31
0.0
  0
LINE
  5
19584
330
16BF6
100
AcDbEntity
  8
-TEXT3
370
    -2
100
AcDbLine
 10
3912.387029613574
 20
-23565.52610983061
 30
0.0
 11
3956.387029613573
 21
-23565.52610983061
 31
0.0
  0
SOLID
  5
19585
330
16BF6
100
AcDbEntity
  8
-TEXT3
100
AcDbTrace
 10
3912.387029613574
 20
-23560.85944316395
 30
0.0
 11
3912.387029613574
 21
-23570.19277649728
 31
0.0
 12
3884.387029613574
 22
-23565.52610983061
 32
0.0
 13
3884.387029613574
 23
-23565.52610983061
 33
0.0
  0
SOLID
  5
19586
330
16BF6
100
AcDbEntity
  8
-TEXT3
100
AcDbTrace
 10
3956.387029613573
 20
-23560.85944316395
 30
0.0
 11
3956.387029613573
 21
-23570.19277649728
 31
0.0
 12
3984.387029613574
 22
-23565.52610983061
 32
0.0
 13
3984.387029613574
 23
-23565.52610983061
 33
0.0
  0
MTEXT
  5
19587
330
16BF6
100
AcDbEntity
  8
-TEXT3
100
AcDbMText
 10
3934.387029613573
 20
-23540.7300661744
 30
0.0
 40
28.0
 41
0.0
 71
     5
 72
     1
  1
100
 73
     1
 44
1.0
  0
POINT
  5
19588
330
16BF6
100
AcDbEntity
  8
Defpoints
 62
     0
100
AcDbPoint
 10
3884.387029613574
 20
-23489.79310803642
 30
0.0
  0
POINT
  5
19589
330
16BF6
100
AcDbEntity
  8
Defpoints
 62
     0
100
AcDbPoint
 10
3984.387029613574
 20
-23489.79310803642
 30
0.0
  0
POINT
  5
1958A
330
16BF6
100
AcDbEntity
  8
Defpoints
 62
     0
100
AcDbPoint
 10
3984.387029613574
 20
-23565.52610983061
 30
0.0
  0
ENDBLK
  5
16C01
330
16BF6
100
AcDbEntity
  8
0
100
AcDbBlockEnd
  0
BLOCK
  5
16C0C
330
16C02
100
AcDbEntity
  8
0
100
AcDbBlockBegin
  2
*D265
 70
     1
 10
0.0
 20
0.0
 30
0.0
  3
*D265
  1

  0
LINE
  5
1958B
330
16C02
100
AcDbEntity
  8
-TEXT3
370
    -2
100
AcDbLine
 10
3984.387029613574
 20
-23500.29310803642
 30
0.0
 11
3984.387029613574
 21
-23569.02610983061
 31
0.0
  0
LINE
  5
1958C
330
16C02
100
AcDbEntity
  8
-TEXT3
370
    -2
100
AcDbLine
 10
4084.387029613574
 20
-23500.29310803642
 30
0.0
 11
4084.387029613574
 21
-23569.02610983061
 31
0.0
  0
LINE
  5
1958D
330
16C02
100
AcDbEntity
  8
-TEXT3
370
    -2
100
AcDbLine
 10
4012.387029613573
 20
-23565.52610983061
 30
0.0
 11
4056.387029613573
 21
-23565.52610983061
 31
0.0
  0
SOLID
  5
1958E
330
16C02
100
AcDbEntity
  8
-TEXT3
100
AcDbTrace
 10
4012.387029613573
 20
-23560.85944316395
 30
0.0
 11
4012.387029613573
 21
-23570.19277649728
 31
0.0
 12
3984.387029613574
 22
-23565.52610983061
 32
0.0
 13
3984.387029613574
 23
-23565.52610983061
 33
0.0
  0
SOLID
  5
1958F
330
16C02
100
AcDbEntity
  8
-TEXT3
100
AcDbTrace
 10
4056.387029613573
 20
-23560.85944316395
 30
0.0
 11
4056.387029613573
 21
-23570.19277649728
 31
0.0
 12
4084.387029613574
 22
-23565.52610983061
 32
0.0
 13
4084.387029613574
 23
-23565.52610983061
 33
0.0
  0
MTEXT
  5
19590
330
16C02
100
AcDbEntity
  8
-TEXT3
100
AcDbMText
 10
4034.387029613574
 20
-23540.7300661744
 30
0.0
 40
28.0
 41
0.0
 71
     5
 72
     1
  1
100
 73
     1
 44
1.0
  0
POINT
  5
19591
330
16C02
100
AcDbEntity
  8
Defpoints
 62
     0
100
AcDbPoint
 10
3984.387029613574
 20
-23489.79310803642
 30
0.0
  0
POINT
  5
19592
330
16C02
100
AcDbEntity
  8
Defpoints
 62
     0
100
AcDbPoint
 10
4084.387029613574
 20
-23489.79310803642
 30
0.0
  0
POINT
  5
19593
330
16C02
100
AcDbEntity
  8
Defpoints
 62
     0
100
AcDbPoint
 10
4084.387029613574
 20
-23565.52610983061
 30
0.0
  0
ENDBLK
  5
16C0D
330
16C02
100
AcDbEntity
  8
0
100
AcDbBlockEnd
  0
BLOCK
  5
16C18
330
16C0E
100
AcDbEntity
  8
0
100
AcDbBlockBegin
  2
*D266
 70
     1
 10
0.0
 20
0.0
 30
0.0
  3
*D266
  1

  0
LINE
  5
19594
330
16C0E
100
AcDbEntity
  8
-TEXT3
370
    -2
100
AcDbLine
 10
4084.387029613574
 20
-23500.29310803642
 30
0.0
 11
4084.387029613574
 21
-23569.02610983061
 31
0.0
  0
LINE
  5
19595
330
16C0E
100
AcDbEntity
  8
-TEXT3
370
    -2
100
AcDbLine
 10
4184.387029613573
 20
-23500.29310803642
 30
0.0
 11
4184.387029613573
 21
-23569.02610983061
 31
0.0
  0
LINE
  5
19596
330
16C0E
100
AcDbEntity
  8
-TEXT3
370
    -2
100
AcDbLine
 10
4112.387029613574
 20
-23565.52610983061
 30
0.0
 11
4156.387029613574
 21
-23565.52610983061
 31
0.0
  0
SOLID
  5
19597
330
16C0E
100
AcDbEntity
  8
-TEXT3
100
AcDbTrace
 10
4112.387029613574
 20
-23560.85944316395
 30
0.0
 11
4112.387029613574
 21
-23570.19277649728
 31
0.0
 12
4084.387029613574
 22
-23565.52610983061
 32
0.0
 13
4084.387029613574
 23
-23565.52610983061
 33
0.0
  0
SOLID
  5
19598
330
16C0E
100
AcDbEntity
  8
-TEXT3
100
AcDbTrace
 10
4156.387029613574
 20
-23560.85944316395
 30
0.0
 11
4156.387029613574
 21
-23570.19277649728
 31
0.0
 12
4184.387029613573
 22
-23565.52610983061
 32
0.0
 13
4184.387029613573
 23
-23565.52610983061
 33
0.0
  0
MTEXT
  5
19599
330
16C0E
100
AcDbEntity
  8
-TEXT3
100
AcDbMText
 10
4134.387029613574
 20
-23540.7300661744
 30
0.0
 40
28.0
 41
0.0
 71
     5
 72
     1
  1
100
 73
     1
 44
1.0
  0
POINT
  5
1959A
330
16C0E
100
AcDbEntity
  8
Defpoints
 62
     0
100
AcDbPoint
 10
4084.387029613574
 20
-23489.79310803642
 30
0.0
  0
POINT
  5
1959B
330
16C0E
100
AcDbEntity
  8
Defpoints
 62
     0
100
AcDbPoint
 10
4184.387029613573
 20
-23489.79310803642
 30
0.0
  0
POINT
  5
1959C
330
16C0E
100
AcDbEntity
  8
Defpoints
 62
     0
100
AcDbPoint
 10
4184.387029613573
 20
-23565.52610983061
 30
0.0
  0
ENDBLK
  5
16C19
330
16C0E
100
AcDbEntity
  8
0
100
AcDbBlockEnd
  0
BLOCK
  5
16C24
330
16C1A
100
AcDbEntity
  8
0
100
AcDbBlockBegin
  2
*D267
 70
     1
 10
0.0
 20
0.0
 30
0.0
  3
*D267
  1

  0
LINE
  5
1959D
330
16C1A
100
AcDbEntity
  8
-TEXT3
370
    -2
100
AcDbLine
 10
4184.387029613573
 20
-23500.29310803642
 30
0.0
 11
4184.387029613573
 21
-23569.02610983061
 31
0.0
  0
LINE
  5
1959E
330
16C1A
100
AcDbEntity
  8
-TEXT3
370
    -2
100
AcDbLine
 10
4284.387029613574
 20
-23500.29310803642
 30
0.0
 11
4284.387029613574
 21
-23569.02610983061
 31
0.0
  0
LINE
  5
1959F
330
16C1A
100
AcDbEntity
  8
-TEXT3
370
    -2
100
AcDbLine
 10
4212.387029613574
 20
-23565.52610983061
 30
0.0
 11
4256.387029613573
 21
-23565.52610983061
 31
0.0
  0
SOLID
  5
195A0
330
16C1A
100
AcDbEntity
  8
-TEXT3
100
AcDbTrace
 10
4212.387029613574
 20
-23560.85944316395
 30
0.0
 11
4212.387029613574
 21
-23570.19277649728
 31
0.0
 12
4184.387029613573
 22
-23565.52610983061
 32
0.0
 13
4184.387029613573
 23
-23565.52610983061
 33
0.0
  0
SOLID
  5
195A1
330
16C1A
100
AcDbEntity
  8
-TEXT3
100
AcDbTrace
 10
4256.387029613573
 20
-23560.85944316395
 30
0.0
 11
4256.387029613573
 21
-23570.19277649728
 31
0.0
 12
4284.387029613574
 22
-23565.52610983061
 32
0.0
 13
4284.387029613574
 23
-23565.52610983061
 33
0.0
  0
MTEXT
  5
195A2
330
16C1A
100
AcDbEntity
  8
-TEXT3
100
AcDbMText
 10
4234.387029613574
 20
-23540.7300661744
 30
0.0
 40
28.0
 41
0.0
 71
     5
 72
     1
  1
100
 73
     1
 44
1.0
  0
POINT
  5
195A3
330
16C1A
100
AcDbEntity
  8
Defpoints
 62
     0
100
AcDbPoint
 10
4184.387029613573
 20
-23489.79310803642
 30
0.0
  0
POINT
  5
195A4
330
16C1A
100
AcDbEntity
  8
Defpoints
 62
     0
100
AcDbPoint
 10
4284.387029613574
 20
-23489.79310803642
 30
0.0
  0
POINT
  5
195A5
330
16C1A
100
AcDbEntity
  8
Defpoints
 62
     0
100
AcDbPoint
 10
4284.387029613574
 20
-23565.52610983061
 30
0.0
  0
ENDBLK
  5
16C25
330
16C1A
100
AcDbEntity
  8
0
100
AcDbBlockEnd
  0
BLOCK
  5
16C30
330
16C26
100
AcDbEntity
  8
0
100
AcDbBlockBegin
  2
*D268
 70
     1
 10
0.0
 20
0.0
 30
0.0
  3
*D268
  1

  0
LINE
  5
195A6
330
16C26
100
AcDbEntity
  8
-TEXT3
370
    -2
100
AcDbLine
 10
4284.387029613574
 20
-23500.29310803642
 30
0.0
 11
4284.387029613574
 21
-23569.02610983061
 31
0.0
  0
LINE
  5
195A7
330
16C26
100
AcDbEntity
  8
-TEXT3
370
    -2
100
AcDbLine
 10
4384.387029613574
 20
-23500.29310803642
 30
0.0
 11
4384.387029613574
 21
-23569.02610983061
 31
0.0
  0
LINE
  5
195A8
330
16C26
100
AcDbEntity
  8
-TEXT3
370
    -2
100
AcDbLine
 10
4312.387029613574
 20
-23565.52610983061
 30
0.0
 11
4356.387029613574
 21
-23565.52610983061
 31
0.0
  0
SOLID
  5
195A9
330
16C26
100
AcDbEntity
  8
-TEXT3
100
AcDbTrace
 10
4312.387029613574
 20
-23560.85944316395
 30
0.0
 11
4312.387029613574
 21
-23570.19277649728
 31
0.0
 12
4284.387029613574
 22
-23565.52610983061
 32
0.0
 13
4284.387029613574
 23
-23565.52610983061
 33
0.0
  0
SOLID
  5
195AA
330
16C26
100
AcDbEntity
  8
-TEXT3
100
AcDbTrace
 10
4356.387029613574
 20
-23560.85944316395
 30
0.0
 11
4356.387029613574
 21
-23570.19277649728
 31
0.0
 12
4384.387029613574
 22
-23565.52610983061
 32
0.0
 13
4384.387029613574
 23
-23565.52610983061
 33
0.0
  0
MTEXT
  5
195AB
330
16C26
100
AcDbEntity
  8
-TEXT3
100
AcDbMText
 10
4334.387029613574
 20
-23540.7300661744
 30
0.0
 40
28.0
 41
0.0
 71
     5
 72
     1
  1
100
 73
     1
 44
1.0
  0
POINT
  5
195AC
330
16C26
100
AcDbEntity
  8
Defpoints
 62
     0
100
AcDbPoint
 10
4284.387029613574
 20
-23489.79310803642
 30
0.0
  0
POINT
  5
195AD
330
16C26
100
AcDbEntity
  8
Defpoints
 62
     0
100
AcDbPoint
 10
4384.387029613574
 20
-23489.79310803642
 30
0.0
  0
POINT
  5
195AE
330
16C26
100
AcDbEntity
  8
Defpoints
 62
     0
100
AcDbPoint
 10
4384.387029613574
 20
-23565.52610983061
 30
0.0
  0
ENDBLK
  5
16C31
330
16C26
100
AcDbEntity
  8
0
100
AcDbBlockEnd
  0
BLOCK
  5
16C3C
330
16C32
100
AcDbEntity
  8
0
100
AcDbBlockBegin
  2
*D269
 70
     1
 10
0.0
 20
0.0
 30
0.0
  3
*D269
  1

  0
LINE
  5
195AF
330
16C32
100
AcDbEntity
  8
-TEXT3
370
    -2
100
AcDbLine
 10
4384.387029613574
 20
-23500.29310803642
 30
0.0
 11
4384.387029613574
 21
-23569.02610983061
 31
0.0
  0
LINE
  5
195B0
330
16C32
100
AcDbEntity
  8
-TEXT3
370
    -2
100
AcDbLine
 10
4484.387029613574
 20
-23500.29310803642
 30
0.0
 11
4484.387029613574
 21
-23569.02610983061
 31
0.0
  0
LINE
  5
195B1
330
16C32
100
AcDbEntity
  8
-TEXT3
370
    -2
100
AcDbLine
 10
4412.387029613574
 20
-23565.52610983061
 30
0.0
 11
4456.387029613574
 21
-23565.52610983061
 31
0.0
  0
SOLID
  5
195B2
330
16C32
100
AcDbEntity
  8
-TEXT3
100
AcDbTrace
 10
4412.387029613574
 20
-23560.85944316395
 30
0.0
 11
4412.387029613574
 21
-23570.19277649728
 31
0.0
 12
4384.387029613574
 22
-23565.52610983061
 32
0.0
 13
4384.387029613574
 23
-23565.52610983061
 33
0.0
  0
SOLID
  5
195B3
330
16C32
100
AcDbEntity
  8
-TEXT3
100
AcDbTrace
 10
4456.387029613574
 20
-23560.85944316395
 30
0.0
 11
4456.387029613574
 21
-23570.19277649728
 31
0.0
 12
4484.387029613574
 22
-23565.52610983061
 32
0.0
 13
4484.387029613574
 23
-23565.52610983061
 33
0.0
  0
MTEXT
  5
195B4
330
16C32
100
AcDbEntity
  8
-TEXT3
100
AcDbMText
 10
4434.387029613573
 20
-23540.7300661744
 30
0.0
 40
28.0
 41
0.0
 71
     5
 72
     1
  1
100
 73
     1
 44
1.0
  0
POINT
  5
195B5
330
16C32
100
AcDbEntity
  8
Defpoints
 62
     0
100
AcDbPoint
 10
4384.387029613574
 20
-23489.79310803642
 30
0.0
  0
POINT
  5
195B6
330
16C32
100
AcDbEntity
  8
Defpoints
 62
     0
100
AcDbPoint
 10
4484.387029613574
 20
-23489.79310803642
 30
0.0
  0
POINT
  5
195B7
330
16C32
100
AcDbEntity
  8
Defpoints
 62
     0
100
AcDbPoint
 10
4484.387029613574
 20
-23565.52610983061
 30
0.0
  0
ENDBLK
  5
16C3D
330
16C32
100
AcDbEntity
  8
0
100
AcDbBlockEnd
  0
BLOCK
  5
16C48
330
16C3E
100
AcDbEntity
  8
0
100
AcDbBlockBegin
  2
*D270
 70
     1
 10
0.0
 20
0.0
 30
0.0
  3
*D270
  1

  0
LINE
  5
195B8
330
16C3E
100
AcDbEntity
  8
-TEXT3
370
    -2
100
AcDbLine
 10
4484.387029613574
 20
-23500.29310803642
 30
0.0
 11
4484.387029613574
 21
-23569.02610983061
 31
0.0
  0
LINE
  5
195B9
330
16C3E
100
AcDbEntity
  8
-TEXT3
370
    -2
100
AcDbLine
 10
4584.387029613574
 20
-23500.29310803642
 30
0.0
 11
4584.387029613574
 21
-23569.02610983061
 31
0.0
  0
LINE
  5
195BA
330
16C3E
100
AcDbEntity
  8
-TEXT3
370
    -2
100
AcDbLine
 10
4512.387029613574
 20
-23565.52610983061
 30
0.0
 11
4556.387029613573
 21
-23565.52610983061
 31
0.0
  0
SOLID
  5
195BB
330
16C3E
100
AcDbEntity
  8
-TEXT3
100
AcDbTrace
 10
4512.387029613574
 20
-23560.85944316395
 30
0.0
 11
4512.387029613574
 21
-23570.19277649728
 31
0.0
 12
4484.387029613574
 22
-23565.52610983061
 32
0.0
 13
4484.387029613574
 23
-23565.52610983061
 33
0.0
  0
SOLID
  5
195BC
330
16C3E
100
AcDbEntity
  8
-TEXT3
100
AcDbTrace
 10
4556.387029613573
 20
-23560.85944316395
 30
0.0
 11
4556.387029613573
 21
-23570.19277649728
 31
0.0
 12
4584.387029613574
 22
-23565.52610983061
 32
0.0
 13
4584.387029613574
 23
-23565.52610983061
 33
0.0
  0
MTEXT
  5
195BD
330
16C3E
100
AcDbEntity
  8
-TEXT3
100
AcDbMText
 10
4534.387029613574
 20
-23540.7300661744
 30
0.0
 40
28.0
 41
0.0
 71
     5
 72
     1
  1
100
 73
     1
 44
1.0
  0
POINT
  5
195BE
330
16C3E
100
AcDbEntity
  8
Defpoints
 62
     0
100
AcDbPoint
 10
4484.387029613574
 20
-23489.79310803642
 30
0.0
  0
POINT
  5
195BF
330
16C3E
100
AcDbEntity
  8
Defpoints
 62
     0
100
AcDbPoint
 10
4584.387029613574
 20
-23489.79310803642
 30
0.0
  0
POINT
  5
195C0
330
16C3E
100
AcDbEntity
  8
Defpoints
 62
     0
100
AcDbPoint
 10
4584.387029613574
 20
-23565.52610983061
 30
0.0
  0
ENDBLK
  5
16C49
330
16C3E
100
AcDbEntity
  8
0
100
AcDbBlockEnd
  0
BLOCK
  5
16C54
330
16C4A
100
AcDbEntity
  8
0
100
AcDbBlockBegin
  2
*D271
 70
     1
 10
0.0
 20
0.0
 30
0.0
  3
*D271
  1

  0
LINE
  5
195C1
330
16C4A
100
AcDbEntity
  8
-TEXT3
370
    -2
100
AcDbLine
 10
4584.387029613574
 20
-23500.29310803642
 30
0.0
 11
4584.387029613574
 21
-23569.02610983061
 31
0.0
  0
LINE
  5
195C2
330
16C4A
100
AcDbEntity
  8
-TEXT3
370
    -2
100
AcDbLine
 10
4684.387029613573
 20
-23500.29310803642
 30
0.0
 11
4684.387029613573
 21
-23569.02610983061
 31
0.0
  0
LINE
  5
195C3
330
16C4A
100
AcDbEntity
  8
-TEXT3
370
    -2
100
AcDbLine
 10
4612.387029613574
 20
-23565.52610983061
 30
0.0
 11
4656.387029613574
 21
-23565.52610983061
 31
0.0
  0
SOLID
  5
195C4
330
16C4A
100
AcDbEntity
  8
-TEXT3
100
AcDbTrace
 10
4612.387029613574
 20
-23560.85944316395
 30
0.0
 11
4612.387029613574
 21
-23570.19277649728
 31
0.0
 12
4584.387029613574
 22
-23565.52610983061
 32
0.0
 13
4584.387029613574
 23
-23565.52610983061
 33
0.0
  0
SOLID
  5
195C5
330
16C4A
100
AcDbEntity
  8
-TEXT3
100
AcDbTrace
 10
4656.387029613574
 20
-23560.85944316395
 30
0.0
 11
4656.387029613574
 21
-23570.19277649728
 31
0.0
 12
4684.387029613573
 22
-23565.52610983061
 32
0.0
 13
4684.387029613573
 23
-23565.52610983061
 33
0.0
  0
MTEXT
  5
195C6
330
16C4A
100
AcDbEntity
  8
-TEXT3
100
AcDbMText
 10
4634.387029613574
 20
-23540.7300661744
 30
0.0
 40
28.0
 41
0.0
 71
     5
 72
     1
  1
100
 73
     1
 44
1.0
  0
POINT
  5
195C7
330
16C4A
100
AcDbEntity
  8
Defpoints
 62
     0
100
AcDbPoint
 10
4584.387029613574
 20
-23489.79310803642
 30
0.0
  0
POINT
  5
195C8
330
16C4A
100
AcDbEntity
  8
Defpoints
 62
     0
100
AcDbPoint
 10
4684.387029613573
 20
-23489.79310803642
 30
0.0
  0
POINT
  5
195C9
330
16C4A
100
AcDbEntity
  8
Defpoints
 62
     0
100
AcDbPoint
 10
4684.387029613573
 20
-23565.52610983061
 30
0.0
  0
ENDBLK
  5
16C55
330
16C4A
100
AcDbEntity
  8
0
100
AcDbBlockEnd
  0
BLOCK
  5
16C60
330
16C56
100
AcDbEntity
  8
0
100
AcDbBlockBegin
  2
*D272
 70
     1
 10
0.0
 20
0.0
 30
0.0
  3
*D272
  1

  0
LINE
  5
195CA
330
16C56
100
AcDbEntity
  8
-TEXT3
370
    -2
100
AcDbLine
 10
4684.387029613573
 20
-23500.29310803642
 30
0.0
 11
4684.387029613573
 21
-23569.02610983061
 31
0.0
  0
LINE
  5
195CB
330
16C56
100
AcDbEntity
  8
-TEXT3
370
    -2
100
AcDbLine
 10
4784.387029613574
 20
-23500.29310803642
 30
0.0
 11
4784.387029613574
 21
-23569.02610983061
 31
0.0
  0
LINE
  5
195CC
330
16C56
100
AcDbEntity
  8
-TEXT3
370
    -2
100
AcDbLine
 10
4712.387029613574
 20
-23565.52610983061
 30
0.0
 11
4756.387029613573
 21
-23565.52610983061
 31
0.0
  0
SOLID
  5
195CD
330
16C56
100
AcDbEntity
  8
-TEXT3
100
AcDbTrace
 10
4712.387029613574
 20
-23560.85944316395
 30
0.0
 11
4712.387029613574
 21
-23570.19277649728
 31
0.0
 12
4684.387029613573
 22
-23565.52610983061
 32
0.0
 13
4684.387029613573
 23
-23565.52610983061
 33
0.0
  0
SOLID
  5
195CE
330
16C56
100
AcDbEntity
  8
-TEXT3
100
AcDbTrace
 10
4756.387029613573
 20
-23560.85944316395
 30
0.0
 11
4756.387029613573
 21
-23570.19277649728
 31
0.0
 12
4784.387029613574
 22
-23565.52610983061
 32
0.0
 13
4784.387029613574
 23
-23565.52610983061
 33
0.0
  0
MTEXT
  5
195CF
330
16C56
100
AcDbEntity
  8
-TEXT3
100
AcDbMText
 10
4734.387029613574
 20
-23540.7300661744
 30
0.0
 40
28.0
 41
0.0
 71
     5
 72
     1
  1
100
 73
     1
 44
1.0
  0
POINT
  5
195D0
330
16C56
100
AcDbEntity
  8
Defpoints
 62
     0
100
AcDbPoint
 10
4684.387029613573
 20
-23489.79310803642
 30
0.0
  0
POINT
  5
195D1
330
16C56
100
AcDbEntity
  8
Defpoints
 62
     0
100
AcDbPoint
 10
4784.387029613574
 20
-23489.79310803642
 30
0.0
  0
POINT
  5
195D2
330
16C56
100
AcDbEntity
  8
Defpoints
 62
     0
100
AcDbPoint
 10
4784.387029613574
 20
-23565.52610983061
 30
0.0
  0
ENDBLK
  5
16C61
330
16C56
100
AcDbEntity
  8
0
100
AcDbBlockEnd
  0
BLOCK
  5
16C6C
330
16C62
100
AcDbEntity
  8
0
100
AcDbBlockBegin
  2
*D273
 70
     1
 10
0.0
 20
0.0
 30
0.0
  3
*D273
  1

  0
LINE
  5
195D3
330
16C62
100
AcDbEntity
  8
-TEXT3
370
    -2
100
AcDbLine
 10
4784.387029613574
 20
-23500.29310803642
 30
0.0
 11
4784.387029613574
 21
-23569.02610983061
 31
0.0
  0
LINE
  5
195D4
330
16C62
100
AcDbEntity
  8
-TEXT3
370
    -2
100
AcDbLine
 10
4884.387029613574
 20
-23500.29310803642
 30
0.0
 11
4884.387029613574
 21
-23569.02610983061
 31
0.0
  0
LINE
  5
195D5
330
16C62
100
AcDbEntity
  8
-TEXT3
370
    -2
100
AcDbLine
 10
4812.387029613574
 20
-23565.52610983061
 30
0.0
 11
4856.387029613574
 21
-23565.52610983061
 31
0.0
  0
SOLID
  5
195D6
330
16C62
100
AcDbEntity
  8
-TEXT3
100
AcDbTrace
 10
4812.387029613574
 20
-23560.85944316395
 30
0.0
 11
4812.387029613574
 21
-23570.19277649728
 31
0.0
 12
4784.387029613574
 22
-23565.52610983061
 32
0.0
 13
4784.387029613574
 23
-23565.52610983061
 33
0.0
  0
SOLID
  5
195D7
330
16C62
100
AcDbEntity
  8
-TEXT3
100
AcDbTrace
 10
4856.387029613574
 20
-23560.85944316395
 30
0.0
 11
4856.387029613574
 21
-23570.19277649728
 31
0.0
 12
4884.387029613574
 22
-23565.52610983061
 32
0.0
 13
4884.387029613574
 23
-23565.52610983061
 33
0.0
  0
MTEXT
  5
195D8
330
16C62
100
AcDbEntity
  8
-TEXT3
100
AcDbMText
 10
4834.387029613574
 20
-23540.7300661744
 30
0.0
 40
28.0
 41
0.0
 71
     5
 72
     1
  1
100
 73
     1
 44
1.0
  0
POINT
  5
195D9
330
16C62
100
AcDbEntity
  8
Defpoints
 62
     0
100
AcDbPoint
 10
4784.387029613574
 20
-23489.79310803642
 30
0.0
  0
POINT
  5
195DA
330
16C62
100
AcDbEntity
  8
Defpoints
 62
     0
100
AcDbPoint
 10
4884.387029613574
 20
-23489.79310803642
 30
0.0
  0
POINT
  5
195DB
330
16C62
100
AcDbEntity
  8
Defpoints
 62
     0
100
AcDbPoint
 10
4884.387029613574
 20
-23565.52610983061
 30
0.0
  0
ENDBLK
  5
16C6D
330
16C62
100
AcDbEntity
  8
0
100
AcDbBlockEnd
  0
BLOCK
  5
16C78
330
16C6E
100
AcDbEntity
  8
0
100
AcDbBlockBegin
  2
*D274
 70
     1
 10
0.0
 20
0.0
 30
0.0
  3
*D274
  1

  0
LINE
  5
195DC
330
16C6E
100
AcDbEntity
  8
-TEXT3
370
    -2
100
AcDbLine
 10
4884.387029613574
 20
-23500.29310803642
 30
0.0
 11
4884.387029613574
 21
-23569.02610983061
 31
0.0
  0
LINE
  5
195DD
330
16C6E
100
AcDbEntity
  8
-TEXT3
370
    -2
100
AcDbLine
 10
4984.387029613574
 20
-23500.29310803642
 30
0.0
 11
4984.387029613574
 21
-23569.02610983061
 31
0.0
  0
LINE
  5
195DE
330
16C6E
100
AcDbEntity
  8
-TEXT3
370
    -2
100
AcDbLine
 10
4912.387029613574
 20
-23565.52610983061
 30
0.0
 11
4956.387029613574
 21
-23565.52610983061
 31
0.0
  0
SOLID
  5
195DF
330
16C6E
100
AcDbEntity
  8
-TEXT3
100
AcDbTrace
 10
4912.387029613574
 20
-23560.85944316395
 30
0.0
 11
4912.387029613574
 21
-23570.19277649728
 31
0.0
 12
4884.387029613574
 22
-23565.52610983061
 32
0.0
 13
4884.387029613574
 23
-23565.52610983061
 33
0.0
  0
SOLID
  5
195E0
330
16C6E
100
AcDbEntity
  8
-TEXT3
100
AcDbTrace
 10
4956.387029613574
 20
-23560.85944316395
 30
0.0
 11
4956.387029613574
 21
-23570.19277649728
 31
0.0
 12
4984.387029613574
 22
-23565.52610983061
 32
0.0
 13
4984.387029613574
 23
-23565.52610983061
 33
0.0
  0
MTEXT
  5
195E1
330
16C6E
100
AcDbEntity
  8
-TEXT3
100
AcDbMText
 10
4934.387029613574
 20
-23540.7300661744
 30
0.0
 40
28.0
 41
0.0
 71
     5
 72
     1
  1
100
 73
     1
 44
1.0
  0
POINT
  5
195E2
330
16C6E
100
AcDbEntity
  8
Defpoints
 62
     0
100
AcDbPoint
 10
4884.387029613574
 20
-23489.79310803642
 30
0.0
  0
POINT
  5
195E3
330
16C6E
100
AcDbEntity
  8
Defpoints
 62
     0
100
AcDbPoint
 10
4984.387029613574
 20
-23489.79310803642
 30
0.0
  0
POINT
  5
195E4
330
16C6E
100
AcDbEntity
  8
Defpoints
 62
     0
100
AcDbPoint
 10
4984.387029613574
 20
-23565.52610983061
 30
0.0
  0
ENDBLK
  5
16C79
330
16C6E
100
AcDbEntity
  8
0
100
AcDbBlockEnd
  0
BLOCK
  5
16C86
330
16C7A
100
AcDbEntity
  8
0
100
AcDbBlockBegin
  2
*D275
 70
     1
 10
0.0
 20
0.0
 30
0.0
  3
*D275
  1

  0
LINE
  5
195E5
330
16C7A
100
AcDbEntity
  8
-TEXT3
370
    -2
100
AcDbLine
 10
4984.387029613574
 20
-23500.29310803642
 30
0.0
 11
4984.387029613574
 21
-23569.02610983061
 31
0.0
  0
LINE
  5
195E6
330
16C7A
100
AcDbEntity
  8
-TEXT3
370
    -2
100
AcDbLine
 10
5034.387029613565
 20
-23500.29310803642
 30
0.0
 11
5034.387029613565
 21
-23569.02610983061
 31
0.0
  0
LINE
  5
195E7
330
16C7A
100
AcDbEntity
  8
-TEXT3
370
    -2
100
AcDbLine
 10
4956.387029613574
 20
-23565.52610983061
 30
0.0
 11
4928.387029613574
 21
-23565.52610983061
 31
0.0
  0
LINE
  5
195E8
330
16C7A
100
AcDbEntity
  8
-TEXT3
370
    -2
100
AcDbLine
 10
5062.387029613565
 20
-23565.52610983061
 30
0.0
 11
5090.387029613565
 21
-23565.52610983061
 31
0.0
  0
LINE
  5
195E9
330
16C7A
100
AcDbEntity
  8
-TEXT3
370
    -2
100
AcDbLine
 10
4984.387029613574
 20
-23565.52610983061
 30
0.0
 11
5034.387029613565
 21
-23565.52610983061
 31
0.0
  0
SOLID
  5
195EA
330
16C7A
100
AcDbEntity
  8
-TEXT3
100
AcDbTrace
 10
4956.387029613574
 20
-23560.85944316395
 30
0.0
 11
4956.387029613574
 21
-23570.19277649728
 31
0.0
 12
4984.387029613574
 22
-23565.52610983061
 32
0.0
 13
4984.387029613574
 23
-23565.52610983061
 33
0.0
  0
SOLID
  5
195EB
330
16C7A
100
AcDbEntity
  8
-TEXT3
100
AcDbTrace
 10
5062.387029613565
 20
-23560.85944316395
 30
0.0
 11
5062.387029613565
 21
-23570.19277649728
 31
0.0
 12
5034.387029613565
 22
-23565.52610983061
 32
0.0
 13
5034.387029613565
 23
-23565.52610983061
 33
0.0
  0
MTEXT
  5
195EC
330
16C7A
100
AcDbEntity
  8
-TEXT3
100
AcDbMText
 10
5009.387029613569
 20
-23540.7300661744
 30
0.0
 40
28.0
 41
0.0
 71
     5
 72
     1
  1
50
 73
     1
 44
1.0
  0
POINT
  5
195ED
330
16C7A
100
AcDbEntity
  8
Defpoints
 62
     0
100
AcDbPoint
 10
4984.387029613574
 20
-23489.79310803642
 30
0.0
  0
POINT
  5
195EE
330
16C7A
100
AcDbEntity
  8
Defpoints
 62
     0
100
AcDbPoint
 10
5034.387029613565
 20
-23489.79310803642
 30
0.0
  0
POINT
  5
195EF
330
16C7A
100
AcDbEntity
  8
Defpoints
 62
     0
100
AcDbPoint
 10
5034.387029613565
 20
-23565.52610983061
 30
0.0
  0
ENDBLK
  5
16C87
330
16C7A
100
AcDbEntity
  8
0
100
AcDbBlockEnd
  0
BLOCK
  5
1734F
330
17343
100
AcDbEntity
  8
0
100
AcDbBlockBegin
  2
*D276
 70
     1
 10
0.0
 20
0.0
 30
0.0
  3
*D276
  1

  0
LINE
  5
195F0
330
17343
100
AcDbEntity
  8
-TEXT3
370
    -2
100
AcDbLine
 10
3394.887029613573
 20
-22692.59269846329
 30
0.0
 11
3501.447142951561
 21
-22692.59269846329
 31
0.0
  0
LINE
  5
195F1
330
17343
100
AcDbEntity
  8
-TEXT3
370
    -2
100
AcDbLine
 10
3394.887029613573
 20
-22728.59269846329
 30
0.0
 11
3501.447142951561
 21
-22728.59269846329
 31
0.0
  0
LINE
  5
195F2
330
17343
100
AcDbEntity
  8
-TEXT3
370
    -2
100
AcDbLine
 10
3497.947142951561
 20
-22756.59269846329
 30
0.0
 11
3497.947142951561
 21
-22784.59269846329
 31
0.0
  0
LINE
  5
195F3
330
17343
100
AcDbEntity
  8
-TEXT3
370
    -2
100
AcDbLine
 10
3497.947142951561
 20
-22664.59269846329
 30
0.0
 11
3497.947142951561
 21
-22575.52175712632
 31
0.0
  0
LINE
  5
195F4
330
17343
100
AcDbEntity
  8
-TEXT3
370
    -2
100
AcDbLine
 10
3497.947142951561
 20
-22728.59269846329
 30
0.0
 11
3497.947142951561
 21
-22692.59269846329
 31
0.0
  0
SOLID
  5
195F5
330
17343
100
AcDbEntity
  8
-TEXT3
100
AcDbTrace
 10
3493.280476284894
 20
-22756.59269846329
 30
0.0
 11
3502.613809618227
 21
-22756.59269846329
 31
0.0
 12
3497.947142951561
 22
-22728.59269846329
 32
0.0
 13
3497.947142951561
 23
-22728.59269846329
 33
0.0
  0
SOLID
  5
195F6
330
17343
100
AcDbEntity
  8
-TEXT3
100
AcDbTrace
 10
3493.280476284894
 20
-22664.59269846329
 30
0.0
 11
3502.613809618227
 21
-22664.59269846329
 31
0.0
 12
3497.947142951561
 22
-22692.59269846329
 32
0.0
 13
3497.947142951561
 23
-22692.59269846329
 33
0.0
  0
MTEXT
  5
195F7
330
17343
100
AcDbEntity
  8
-TEXT3
100
AcDbMText
 10
3473.141549499995
 20
-22606.0572277948
 30
0.0
 40
28.0
 41
0.0
 71
     5
 72
     1
  1
36
 11
0.0000000000000001
 21
1.0
 31
0.0
 73
     1
 44
1.0
  0
POINT
  5
195F8
330
17343
100
AcDbEntity
  8
Defpoints
 62
     0
100
AcDbPoint
 10
3384.387029613574
 20
-22692.59269846329
 30
0.0
  0
POINT
  5
195F9
330
17343
100
AcDbEntity
  8
Defpoints
 62
     0
100
AcDbPoint
 10
3384.387029613574
 20
-22728.59269846329
 30
0.0
  0
POINT
  5
195FA
330
17343
100
AcDbEntity
  8
Defpoints
 62
     0
100
AcDbPoint
 10
3497.947142951561
 20
-22728.59269846329
 30
0.0
  0
ENDBLK
  5
17350
330
17343
100
AcDbEntity
  8
0
100
AcDbBlockEnd
  0
BLOCK
  5
1735D
330
17351
100
AcDbEntity
  8
0
100
AcDbBlockBegin
  2
*D277
 70
     1
 10
0.0
 20
0.0
 30
0.0
  3
*D277
  1

  0
LINE
  5
195FB
330
17351
100
AcDbEntity
  8
-TEXT3
370
    -2
100
AcDbLine
 10
3392.387029613573
 20
-22690.09269846329
 30
0.0
 11
3392.387029613573
 21
-22637.67829505127
 31
0.0
  0
LINE
  5
195FC
330
17351
100
AcDbEntity
  8
-TEXT3
370
    -2
100
AcDbLine
 10
3376.387029613574
 20
-22690.09269846329
 30
0.0
 11
3376.387029613574
 21
-22637.67829505127
 31
0.0
  0
LINE
  5
195FD
330
17351
100
AcDbEntity
  8
-TEXT3
370
    -2
100
AcDbLine
 10
3420.387029613574
 20
-22641.17829505127
 30
0.0
 11
3448.387029613574
 21
-22641.17829505127
 31
0.0
  0
LINE
  5
195FE
330
17351
100
AcDbEntity
  8
-TEXT3
370
    -2
100
AcDbLine
 10
3348.387029613574
 20
-22641.17829505127
 30
0.0
 11
3261.932732205661
 21
-22641.17829505127
 31
0.0
  0
LINE
  5
195FF
330
17351
100
AcDbEntity
  8
-TEXT3
370
    -2
100
AcDbLine
 10
3392.387029613573
 20
-22641.17829505127
 30
0.0
 11
3376.387029613574
 21
-22641.17829505127
 31
0.0
  0
SOLID
  5
19600
330
17351
100
AcDbEntity
  8
-TEXT3
100
AcDbTrace
 10
3420.387029613574
 20
-22636.5116283846
 30
0.0
 11
3420.387029613574
 21
-22645.84496171794
 31
0.0
 12
3392.387029613573
 22
-22641.17829505127
 32
0.0
 13
3392.387029613573
 23
-22641.17829505127
 33
0.0
  0
SOLID
  5
19601
330
17351
100
AcDbEntity
  8
-TEXT3
100
AcDbTrace
 10
3348.387029613574
 20
-22636.5116283846
 30
0.0
 11
3348.387029613574
 21
-22645.84496171794
 31
0.0
 12
3376.387029613574
 22
-22641.17829505127
 32
0.0
 13
3376.387029613574
 23
-22641.17829505127
 33
0.0
  0
MTEXT
  5
19602
330
17351
100
AcDbEntity
  8
-TEXT3
100
AcDbMText
 10
3291.159880909617
 20
-22616.38225139507
 30
0.0
 40
28.0
 41
0.0
 71
     5
 72
     1
  1
16
 73
     1
 44
1.0
  0
POINT
  5
19603
330
17351
100
AcDbEntity
  8
Defpoints
 62
     0
100
AcDbPoint
 10
3392.387029613573
 20
-22700.59269846329
 30
0.0
  0
POINT
  5
19604
330
17351
100
AcDbEntity
  8
Defpoints
 62
     0
100
AcDbPoint
 10
3376.387029613574
 20
-22700.59269846329
 30
0.0
  0
POINT
  5
19605
330
17351
100
AcDbEntity
  8
Defpoints
 62
     0
100
AcDbPoint
 10
3376.387029613574
 20
-22641.17829505127
 30
0.0
  0
ENDBLK
  5
1735E
330
17351
100
AcDbEntity
  8
0
100
AcDbBlockEnd
  0
BLOCK
  5
1737F
330
17376
100
AcDbEntity
  8
0
100
AcDbBlockBegin
  2
*D278
 70
     1
 10
0.0
 20
0.0
 30
0.0
  3
*D278
  1

  0
LINE
  5
19606
330
17376
100
AcDbEntity
  8
-TEXT3
370
    -2
100
AcDbLine
 10
3952.154794397227
 20
-23299.93427957721
 30
0.0
 11
3818.754167468699
 21
-23393.64978938206
 31
0.0
  0
LINE
  5
19607
330
17376
100
AcDbEntity
  8
-TEXT3
370
    -2
100
AcDbLine
 10
3750.019891758431
 20
-23441.93642669079
 30
0.0
 11
3727.108466521675
 21
-23458.03197246036
 31
0.0
  0
MTEXT
  5
19608
330
17376
100
AcDbEntity
  8
-TEXT3
100
AcDbMText
 10
3899.961928804749
 20
-23305.34018964982
 30
0.0
 40
28.0
 41
0.0
 71
     5
 72
     1
  1
\U+220528
 11
0.8182651870270191
 21
0.574840920342
 31
0.0
 73
     1
 44
1.0
  0
LINE
  5
19609
330
17376
100
AcDbEntity
  8
-TEXT3
370
    -2
100
AcDbLine
 10
3772.931316995189
 20
-23425.84088092121
 30
0.0
 11
3795.842742231942
 21
-23409.74533515164
 31
0.0
  0
SOLID
  5
1960A
330
17376
100
AcDbEntity
  8
-TEXT3
100
AcDbTrace
 10
3747.337300796835
 20
-23438.11785581799
 30
0.0
 11
3752.702482720029
 21
-23445.75499756358
 31
0.0
 12
3772.931316995189
 22
-23425.84088092121
 32
0.0
 13
3772.931316995189
 23
-23425.84088092121
 33
0.0
  0
SOLID
  5
1960B
330
17376
100
AcDbEntity
  8
-TEXT3
100
AcDbTrace
 10
3816.071576507102
 20
-23389.83121850926
 30
0.0
 11
3821.436758430296
 21
-23397.46836025486
 31
0.0
 12
3795.842742231942
 22
-23409.74533515164
 32
0.0
 13
3795.842742231942
 23
-23409.74533515164
 33
0.0
  0
POINT
  5
1960C
330
17376
100
AcDbEntity
  8
Defpoints
 62
     0
100
AcDbPoint
 10
3795.842742231942
 20
-23409.74533515164
 30
0.0
  0
POINT
  5
1960D
330
17376
100
AcDbEntity
  8
Defpoints
 62
     0
100
AcDbPoint
 10
3772.931316995189
 20
-23425.84088092121
 30
0.0
  0
ENDBLK
  5
17380
330
17376
100
AcDbEntity
  8
0
100
AcDbBlockEnd
  0
BLOCK
  5
173A4
330
17398
100
AcDbEntity
  8
0
100
AcDbBlockBegin
  2
*D279
 70
     1
 10
0.0
 20
0.0
 30
0.0
  3
*D279
  1

  0
LINE
  5
1960E
330
17398
100
AcDbEntity
  8
-TEXT3
370
    -2
100
AcDbLine
 10
2023.887029613565
 20
-22782.59269846329
 30
0.0
 11
1941.642595909019
 21
-22782.59269846329
 31
0.0
  0
LINE
  5
1960F
330
17398
100
AcDbEntity
  8
-TEXT3
370
    -2
100
AcDbLine
 10
2023.887029613565
 20
-22710.59269846328
 30
0.0
 11
1941.642595909019
 21
-22710.59269846328
 31
0.0
  0
LINE
  5
19610
330
17398
100
AcDbEntity
  8
-TEXT3
370
    -2
100
AcDbLine
 10
1945.142595909019
 20
-22810.59269846329
 30
0.0
 11
1945.142595909019
 21
-22838.59269846329
 31
0.0
  0
LINE
  5
19611
330
17398
100
AcDbEntity
  8
-TEXT3
370
    -2
100
AcDbLine
 10
1945.142595909019
 20
-22682.59269846329
 30
0.0
 11
1945.142595909019
 21
-22654.59269846329
 31
0.0
  0
LINE
  5
19612
330
17398
100
AcDbEntity
  8
-TEXT3
370
    -2
100
AcDbLine
 10
1945.142595909019
 20
-22782.59269846329
 30
0.0
 11
1945.142595909019
 21
-22710.59269846328
 31
0.0
  0
SOLID
  5
19613
330
17398
100
AcDbEntity
  8
-TEXT3
100
AcDbTrace
 10
1940.475929242353
 20
-22810.59269846329
 30
0.0
 11
1949.809262575686
 21
-22810.59269846329
 31
0.0
 12
1945.142595909019
 22
-22782.59269846329
 32
0.0
 13
1945.142595909019
 23
-22782.59269846329
 33
0.0
  0
SOLID
  5
19614
330
17398
100
AcDbEntity
  8
-TEXT3
100
AcDbTrace
 10
1940.475929242353
 20
-22682.59269846329
 30
0.0
 11
1949.809262575686
 21
-22682.59269846329
 31
0.0
 12
1945.142595909019
 22
-22710.59269846328
 32
0.0
 13
1945.142595909019
 23
-22710.59269846328
 33
0.0
  0
MTEXT
  5
19615
330
17398
100
AcDbEntity
  8
-TEXT3
100
AcDbMText
 10
1920.585297136854
 20
-22746.59269846329
 30
0.0
 40
28.0
 41
0.0
 71
     5
 72
     1
  1
72
 11
0.0000000000000001
 21
1.0
 31
0.0
 73
     1
 44
1.0
  0
POINT
  5
19616
330
17398
100
AcDbEntity
  8
Defpoints
 62
     0
100
AcDbPoint
 10
2034.387029613565
 20
-22782.59269846329
 30
0.0
  0
POINT
  5
19617
330
17398
100
AcDbEntity
  8
Defpoints
 62
     0
100
AcDbPoint
 10
2034.387029613565
 20
-22710.59269846328
 30
0.0
  0
POINT
  5
19618
330
17398
100
AcDbEntity
  8
Defpoints
 62
     0
100
AcDbPoint
 10
1945.142595909019
 20
-22710.59269846328
 30
0.0
  0
ENDBLK
  5
173A5
330
17398
100
AcDbEntity
  8
0
100
AcDbBlockEnd
  0
BLOCK
  5
173C7
330
173BB
100
AcDbEntity
  8
0
100
AcDbBlockBegin
  2
*D280
 70
     1
 10
0.0
 20
0.0
 30
0.0
  3
*D280
  1

  0
LINE
  5
19619
330
173BB
100
AcDbEntity
  8
-TEXT3
370
    -2
100
AcDbLine
 10
1641.380668157677
 20
-22792.59269846328
 30
0.0
 11
1641.380668157677
 21
-22861.82570025747
 31
0.0
  0
LINE
  5
1961A
330
173BB
100
AcDbEntity
  8
-TEXT3
370
    -2
100
AcDbLine
 10
1713.380668157677
 20
-22790.56504350054
 30
0.0
 11
1713.380668157677
 21
-22861.82570025747
 31
0.0
  0
LINE
  5
1961B
330
173BB
100
AcDbEntity
  8
-TEXT3
370
    -2
100
AcDbLine
 10
1613.380668157677
 20
-22858.32570025747
 30
0.0
 11
1585.380668157677
 21
-22858.32570025747
 31
0.0
  0
LINE
  5
1961C
330
173BB
100
AcDbEntity
  8
-TEXT3
370
    -2
100
AcDbLine
 10
1741.380668157677
 20
-22858.32570025747
 30
0.0
 11
1769.380668157677
 21
-22858.32570025747
 31
0.0
  0
LINE
  5
1961D
330
173BB
100
AcDbEntity
  8
-TEXT3
370
    -2
100
AcDbLine
 10
1641.380668157677
 20
-22858.32570025747
 30
0.0
 11
1713.380668157677
 21
-22858.32570025747
 31
0.0
  0
SOLID
  5
1961E
330
173BB
100
AcDbEntity
  8
-TEXT3
100
AcDbTrace
 10
1613.380668157677
 20
-22853.6590335908
 30
0.0
 11
1613.380668157677
 21
-22862.99236692414
 31
0.0
 12
1641.380668157677
 22
-22858.32570025747
 32
0.0
 13
1641.380668157677
 23
-22858.32570025747
 33
0.0
  0
SOLID
  5
1961F
330
173BB
100
AcDbEntity
  8
-TEXT3
100
AcDbTrace
 10
1741.380668157677
 20
-22853.6590335908
 30
0.0
 11
1741.380668157677
 21
-22862.99236692414
 31
0.0
 12
1713.380668157677
 22
-22858.32570025747
 32
0.0
 13
1713.380668157677
 23
-22858.32570025747
 33
0.0
  0
MTEXT
  5
19620
330
173BB
100
AcDbEntity
  8
-TEXT3
100
AcDbMText
 10
1677.380668157677
 20
-22833.7684014853
 30
0.0
 40
28.0
 41
0.0
 71
     5
 72
     1
  1
72
 73
     1
 44
1.0
  0
POINT
  5
19621
330
173BB
100
AcDbEntity
  8
Defpoints
 62
     0
100
AcDbPoint
 10
1641.380668157677
 20
-22782.09269846329
 30
0.0
  0
POINT
  5
19622
330
173BB
100
AcDbEntity
  8
Defpoints
 62
     0
100
AcDbPoint
 10
1713.380668157677
 20
-22780.06504350055
 30
0.0
  0
POINT
  5
19623
330
173BB
100
AcDbEntity
  8
Defpoints
 62
     0
100
AcDbPoint
 10
1713.380668157677
 20
-22858.32570025747
 30
0.0
  0
ENDBLK
  5
173C8
330
173BB
100
AcDbEntity
  8
0
100
AcDbBlockEnd
  0
BLOCK
  5
17931
330
17925
100
AcDbEntity
  8
0
100
AcDbBlockBegin
  2
*D281
 70
     1
 10
0.0
 20
0.0
 30
0.0
  3
*D281
  1

  0
LINE
  5
19638
330
17925
100
AcDbEntity
  8
-TEXT3
370
    -2
100
AcDbLine
 10
2023.887029613565
 20
-23489.79310803643
 30
0.0
 11
1941.642595909019
 21
-23489.79310803643
 31
0.0
  0
LINE
  5
19639
330
17925
100
AcDbEntity
  8
-TEXT3
370
    -2
100
AcDbLine
 10
2023.887029613565
 20
-23417.79310803643
 30
0.0
 11
1941.642595909019
 21
-23417.79310803643
 31
0.0
  0
LINE
  5
1963A
330
17925
100
AcDbEntity
  8
-TEXT3
370
    -2
100
AcDbLine
 10
1945.142595909019
 20
-23517.79310803642
 30
0.0
 11
1945.142595909019
 21
-23545.79310803643
 31
0.0
  0
LINE
  5
1963B
330
17925
100
AcDbEntity
  8
-TEXT3
370
    -2
100
AcDbLine
 10
1945.142595909019
 20
-23389.79310803642
 30
0.0
 11
1945.142595909019
 21
-23361.79310803643
 31
0.0
  0
LINE
  5
1963C
330
17925
100
AcDbEntity
  8
-TEXT3
370
    -2
100
AcDbLine
 10
1945.142595909019
 20
-23489.79310803643
 30
0.0
 11
1945.142595909019
 21
-23417.79310803643
 31
0.0
  0
SOLID
  5
1963D
330
17925
100
AcDbEntity
  8
-TEXT3
100
AcDbTrace
 10
1940.475929242353
 20
-23517.79310803642
 30
0.0
 11
1949.809262575686
 21
-23517.79310803642
 31
0.0
 12
1945.142595909019
 22
-23489.79310803643
 32
0.0
 13
1945.142595909019
 23
-23489.79310803643
 33
0.0
  0
SOLID
  5
1963E
330
17925
100
AcDbEntity
  8
-TEXT3
100
AcDbTrace
 10
1940.475929242353
 20
-23389.79310803642
 30
0.0
 11
1949.809262575686
 21
-23389.79310803642
 31
0.0
 12
1945.142595909019
 22
-23417.79310803643
 32
0.0
 13
1945.142595909019
 23
-23417.79310803643
 33
0.0
  0
MTEXT
  5
1963F
330
17925
100
AcDbEntity
  8
-TEXT3
100
AcDbMText
 10
1920.585297136854
 20
-23453.79310803643
 30
0.0
 40
28.0
 41
0.0
 71
     5
 72
     1
  1
72
 11
0.0000000000000001
 21
1.0
 31
0.0
 73
     1
 44
1.0
  0
POINT
  5
19640
330
17925
100
AcDbEntity
  8
Defpoints
 62
     0
100
AcDbPoint
 10
2034.387029613565
 20
-23489.79310803643
 30
0.0
  0
POINT
  5
19641
330
17925
100
AcDbEntity
  8
Defpoints
 62
     0
100
AcDbPoint
 10
2034.387029613565
 20
-23417.79310803643
 30
0.0
  0
POINT
  5
19642
330
17925
100
AcDbEntity
  8
Defpoints
 62
     0
100
AcDbPoint
 10
1945.142595909019
 20
-23417.79310803643
 30
0.0
  0
ENDBLK
  5
17932
330
17925
100
AcDbEntity
  8
0
100
AcDbBlockEnd
  0
BLOCK
  5
1793F
330
17933
100
AcDbEntity
  8
0
100
AcDbBlockBegin
  2
*D282
 70
     1
 10
0.0
 20
0.0
 30
0.0
  3
*D282
  1

  0
LINE
  5
19624
330
17933
100
AcDbEntity
  8
-TEXT3
370
    -2
100
AcDbLine
 10
2023.887029613565
 20
-23489.79310803643
 30
0.0
 11
1979.432886986069
 21
-23489.79310803643
 31
0.0
  0
LINE
  5
19625
330
17933
100
AcDbEntity
  8
-TEXT3
370
    -2
100
AcDbLine
 10
2023.887029613565
 20
-23472.79310803643
 30
0.0
 11
1979.432886986069
 21
-23472.79310803643
 31
0.0
  0
LINE
  5
19626
330
17933
100
AcDbEntity
  8
-TEXT3
370
    -2
100
AcDbLine
 10
1982.932886986069
 20
-23444.79310803643
 30
0.0
 11
1982.932886986069
 21
-23416.79310803642
 31
0.0
  0
LINE
  5
19627
330
17933
100
AcDbEntity
  8
-TEXT3
370
    -2
100
AcDbLine
 10
1982.932886986069
 20
-23517.79310803642
 30
0.0
 11
1982.932886986069
 21
-23604.26650503506
 31
0.0
  0
LINE
  5
19628
330
17933
100
AcDbEntity
  8
-TEXT3
370
    -2
100
AcDbLine
 10
1982.932886986069
 20
-23472.79310803643
 30
0.0
 11
1982.932886986069
 21
-23489.79310803643
 31
0.0
  0
SOLID
  5
19629
330
17933
100
AcDbEntity
  8
-TEXT3
100
AcDbTrace
 10
1978.266220319402
 20
-23444.79310803643
 30
0.0
 11
1987.599553652736
 21
-23444.79310803643
 31
0.0
 12
1982.932886986069
 22
-23472.79310803643
 32
0.0
 13
1982.932886986069
 23
-23472.79310803643
 33
0.0
  0
SOLID
  5
1962A
330
17933
100
AcDbEntity
  8
-TEXT3
100
AcDbTrace
 10
1978.266220319402
 20
-23517.79310803642
 30
0.0
 11
1987.599553652736
 21
-23517.79310803642
 31
0.0
 12
1982.932886986069
 22
-23489.79310803643
 32
0.0
 13
1982.932886986069
 23
-23489.79310803643
 33
0.0
  0
MTEXT
  5
1962B
330
17933
100
AcDbEntity
  8
-TEXT3
100
AcDbMText
 10
1958.375588213904
 20
-23575.02980653574
 30
0.0
 40
28.0
 41
0.0
 71
     5
 72
     1
  1
17
 11
0.0000000000000001
 21
1.0
 31
0.0
 73
     1
 44
1.0
  0
POINT
  5
1962C
330
17933
100
AcDbEntity
  8
Defpoints
 62
     0
100
AcDbPoint
 10
2034.387029613565
 20
-23489.79310803643
 30
-275.000137499999
  0
POINT
  5
1962D
330
17933
100
AcDbEntity
  8
Defpoints
 62
     0
100
AcDbPoint
 10
2034.387029613565
 20
-23472.79310803643
 30
-275.000137499999
  0
POINT
  5
1962E
330
17933
100
AcDbEntity
  8
Defpoints
 62
     0
100
AcDbPoint
 10
1982.932886986069
 20
-23472.79310803643
 30
0.0
  0
ENDBLK
  5
17940
330
17933
100
AcDbEntity
  8
0
100
AcDbBlockEnd
  0
BLOCK
  5
1794B
330
17941
100
AcDbEntity
  8
0
100
AcDbBlockBegin
  2
*D283
 70
     1
 10
0.0
 20
0.0
 30
0.0
  3
*D283
  1

  0
LINE
  5
1962F
330
17941
100
AcDbEntity
  8
-TEXT3
370
    -2
100
AcDbLine
 10
2023.887029613565
 20
-23489.79310803643
 30
0.0
 11
1876.505154794897
 21
-23489.79310803643
 31
0.0
  0
LINE
  5
19630
330
17941
100
AcDbEntity
  8
-TEXT3
370
    -2
100
AcDbLine
 10
2023.887029613565
 20
-23361.29213687033
 30
0.0
 11
1876.505154794897
 21
-23361.29213687033
 31
0.0
  0
LINE
  5
19631
330
17941
100
AcDbEntity
  8
-TEXT3
370
    -2
100
AcDbLine
 10
1880.005154794897
 20
-23461.79310803643
 30
0.0
 11
1880.005154794897
 21
-23389.29213687034
 31
0.0
  0
SOLID
  5
19632
330
17941
100
AcDbEntity
  8
-TEXT3
100
AcDbTrace
 10
1875.33848812823
 20
-23461.79310803643
 30
0.0
 11
1884.671821461564
 21
-23461.79310803643
 31
0.0
 12
1880.005154794897
 22
-23489.79310803643
 32
0.0
 13
1880.005154794897
 23
-23489.79310803643
 33
0.0
  0
SOLID
  5
19633
330
17941
100
AcDbEntity
  8
-TEXT3
100
AcDbTrace
 10
1875.33848812823
 20
-23389.29213687034
 30
0.0
 11
1884.671821461564
 21
-23389.29213687034
 31
0.0
 12
1880.005154794897
 22
-23361.29213687033
 32
0.0
 13
1880.005154794897
 23
-23361.29213687033
 33
0.0
  0
MTEXT
  5
19634
330
17941
100
AcDbEntity
  8
-TEXT3
100
AcDbMText
 10
1855.209111138693
 20
-23425.54262245338
 30
0.0
 40
28.0
 41
0.0
 71
     5
 72
     1
  1
129
 11
0.0000000000000001
 21
1.0
 31
0.0
 73
     1
 44
1.0
  0
POINT
  5
19635
330
17941
100
AcDbEntity
  8
Defpoints
 62
     0
100
AcDbPoint
 10
2034.387029613565
 20
-23489.79310803643
 30
-275.000137499999
  0
POINT
  5
19636
330
17941
100
AcDbEntity
  8
Defpoints
 62
     0
100
AcDbPoint
 10
2034.387029613565
 20
-23361.29213687033
 30
-275.000137499999
  0
POINT
  5
19637
330
17941
100
AcDbEntity
  8
Defpoints
 62
     0
100
AcDbPoint
 10
1880.005154794897
 20
-23361.29213687033
 30
0.0
  0
ENDBLK
  5
1794C
330
17941
100
AcDbEntity
  8
0
100
AcDbBlockEnd
  0
ENDSEC
  0
SECTION
  2
ENTITIES
  0
LWPOLYLINE
  5
16818
330
1F
100
AcDbEntity
  8
BALARDO-Profil
 48
2.0
100
AcDbPolyline
 90
       12
 70
     1
 43
0.0
 10
1693.642982108474
 20
-22555.31615451683
 10
1693.642982108471
 20
-22523.31615451683
 42
0.4142135623727076
 10
1691.642982108474
 20
-22521.31615451683
 10
1661.642982108474
 20
-22521.3161545168
 42
0.4142135623730951
 10
1659.642982108474
 20
-22523.3161545168
 10
1659.642982108474
 20
-22555.31615451683
 10
1656.642982108474
 20
-22555.31615451683
 10
1656.642982108478
 20
-22523.31615451683
 42
-0.4142135623730951
 10
1661.642982108478
 20
-22518.31615451683
 10
1691.642982108474
 20
-22518.31615451683
 42
-0.4142135623730951
 10
1696.642982108474
 20
-22523.31615451683
 10
1696.642982108474
 20
-22555.31615451683
  0
LWPOLYLINE
  5
16819
330
1F
100
AcDbEntity
  8
BALARDO-Profil
 48
2.0
100
AcDbPolyline
 90
        4
 70
     1
 43
0.0
 10
2034.387029613565
 20
-22782.59269846329
 10
5034.387029613565
 20
-22782.59269846329
 10
5034.387029613565
 20
-22654.0917272972
 10
2034.387029613565
 20
-22654.0917272972
  0
LINE
  5
1681A
330
1F
100
AcDbEntity
  8
-NORMTEIL_VERDECKT
  6
STRICHLINIEX2
 62
     9
 48
2.0
100
AcDbLine
 10
2034.387029613565
 20
-22765.59269846329
 30
0.0
 11
5034.387029613565
 21
-22765.59269846329
 31
0.0
  0
DIMENSION
  5
1681B
330
1F
100
AcDbEntity
  8
-TEXT3
100
AcDbDimension
  2
*D210
 10
2084.387029613573
 20
-22858.32570025747
 30
0.0
 11
2059.387029613569
 21
-22858.32570025747
 31
0.0
 70
   160
 71
     5
 42
50.00000000000864
  3
Kopie von 1-1
100
AcDbAlignedDimension
 13
2034.387029613565
 23
-22782.59269846329
 33
0.0
 14
2084.387029613573
 24
-22782.59269846329
 34
0.0
100
AcDbRotatedDimension
  0
DIMENSION
  5
1681C
330
1F
100
AcDbEntity
  8
-TEXT3
100
AcDbDimension
  2
*D211
 10
2184.387029613573
 20
-22858.32570025747
 30
0.0
 11
2134.387029613574
 21
-22833.52965660127
 31
0.0
 70
    32
 71
     5
 42
100.0
  3
Kopie von 1-1
100
AcDbAlignedDimension
 13
2084.387029613573
 23
-22782.59269846329
 33
0.0
 14
2184.387029613573
 24
-22782.59269846329
 34
0.0
100
AcDbRotatedDimension
  0
DIMENSION
  5
1681D
330
1F
100
AcDbEntity
  8
-TEXT3
100
AcDbDimension
  2
*D212
 10
2284.387029613573
 20
-22858.32570025747
 30
0.0
 11
2234.387029613573
 21
-22833.52965660127
 31
0.0
 70
    32
 71
     5
 42
100.0
  3
Kopie von 1-1
100
AcDbAlignedDimension
 13
2184.387029613573
 23
-22782.59269846329
 33
0.0
 14
2284.387029613573
 24
-22782.59269846329
 34
0.0
100
AcDbRotatedDimension
  0
DIMENSION
  5
1681E
330
1F
100
AcDbEntity
  8
-TEXT3
100
AcDbDimension
  2
*D213
 10
5034.387029613565
 20
-22946.52210532636
 30
0.0
 11
3534.387029613565
 21
-22919.13965875973
 31
0.0
 70
    32
 71
     5
 42
3000.0
  3
Kopie(2) von 1-1
100
AcDbAlignedDimension
 13
2034.387029613565
 23
-22860.32570025747
 33
0.0
 14
5034.387029613565
 24
-22860.32570025747
 34
0.0
100
AcDbRotatedDimension
  0
DIMENSION
  5
1681F
330
1F
100
AcDbEntity
  8
-TEXT3
100
AcDbDimension
  2
*D214
 10
2384.387029613574
 20
-22858.32570025747
 30
0.0
 11
2334.387029613573
 21
-22833.52965660127
 31
0.0
 70
    32
 71
     5
 42
100.0
  3
Kopie von 1-1
100
AcDbAlignedDimension
 13
2284.387029613573
 23
-22782.59269846329
 33
0.0
 14
2384.387029613574
 24
-22782.59269846329
 34
0.0
100
AcDbRotatedDimension
  0
DIMENSION
  5
16820
330
1F
100
AcDbEntity
  8
-TEXT3
100
AcDbDimension
  2
*D215
 10
2484.387029613574
 20
-22858.32570025747
 30
0.0
 11
2434.387029613573
 21
-22833.52965660127
 31
0.0
 70
    32
 71
     5
 42
100.0
  3
Kopie von 1-1
100
AcDbAlignedDimension
 13
2384.387029613574
 23
-22782.59269846329
 33
0.0
 14
2484.387029613574
 24
-22782.59269846329
 34
0.0
100
AcDbRotatedDimension
  0
DIMENSION
  5
16821
330
1F
100
AcDbEntity
  8
-TEXT3
100
AcDbDimension
  2
*D216
 10
2584.387029613573
 20
-22858.32570025747
 30
0.0
 11
2534.387029613573
 21
-22833.52965660127
 31
0.0
 70
    32
 71
     5
 42
100.0
  3
Kopie von 1-1
100
AcDbAlignedDimension
 13
2484.387029613574
 23
-22782.59269846329
 33
0.0
 14
2584.387029613573
 24
-22782.59269846329
 34
0.0
100
AcDbRotatedDimension
  0
DIMENSION
  5
16822
330
1F
100
AcDbEntity
  8
-TEXT3
100
AcDbDimension
  2
*D217
 10
2684.387029613573
 20
-22858.32570025747
 30
0.0
 11
2634.387029613574
 21
-22833.52965660127
 31
0.0
 70
    32
 71
     5
 42
100.0
  3
Kopie von 1-1
100
AcDbAlignedDimension
 13
2584.387029613573
 23
-22782.59269846329
 33
0.0
 14
2684.387029613573
 24
-22782.59269846329
 34
0.0
100
AcDbRotatedDimension
  0
DIMENSION
  5
16823
330
1F
100
AcDbEntity
  8
-TEXT3
100
AcDbDimension
  2
*D218
 10
2784.387029613573
 20
-22858.32570025747
 30
0.0
 11
2734.387029613574
 21
-22833.52965660127
 31
0.0
 70
    32
 71
     5
 42
100.0
  3
Kopie von 1-1
100
AcDbAlignedDimension
 13
2684.387029613573
 23
-22782.59269846329
 33
0.0
 14
2784.387029613573
 24
-22782.59269846329
 34
0.0
100
AcDbRotatedDimension
  0
DIMENSION
  5
16824
330
1F
100
AcDbEntity
  8
-TEXT3
100
AcDbDimension
  2
*D219
 10
2884.387029613574
 20
-22858.32570025747
 30
0.0
 11
2834.387029613573
 21
-22833.52965660127
 31
0.0
 70
    32
 71
     5
 42
100.0
  3
Kopie von 1-1
100
AcDbAlignedDimension
 13
2784.387029613573
 23
-22782.59269846329
 33
0.0
 14
2884.387029613574
 24
-22782.59269846329
 34
0.0
100
AcDbRotatedDimension
  0
DIMENSION
  5
16825
330
1F
100
AcDbEntity
  8
-TEXT3
100
AcDbDimension
  2
*D220
 10
2984.387029613574
 20
-22858.32570025747
 30
0.0
 11
2934.387029613573
 21
-22833.52965660127
 31
0.0
 70
    32
 71
     5
 42
100.0
  3
Kopie von 1-1
100
AcDbAlignedDimension
 13
2884.387029613574
 23
-22782.59269846329
 33
0.0
 14
2984.387029613574
 24
-22782.59269846329
 34
0.0
100
AcDbRotatedDimension
  0
DIMENSION
  5
16826
330
1F
100
AcDbEntity
  8
-TEXT3
100
AcDbDimension
  2
*D221
 10
3084.387029613573
 20
-22858.32570025747
 30
0.0
 11
3034.387029613573
 21
-22833.52965660127
 31
0.0
 70
    32
 71
     5
 42
100.0
  3
Kopie von 1-1
100
AcDbAlignedDimension
 13
2984.387029613574
 23
-22782.59269846329
 33
0.0
 14
3084.387029613573
 24
-22782.59269846329
 34
0.0
100
AcDbRotatedDimension
  0
DIMENSION
  5
16827
330
1F
100
AcDbEntity
  8
-TEXT3
100
AcDbDimension
  2
*D222
 10
3184.387029613573
 20
-22858.32570025747
 30
0.0
 11
3134.387029613574
 21
-22833.52965660127
 31
0.0
 70
    32
 71
     5
 42
100.0
  3
Kopie von 1-1
100
AcDbAlignedDimension
 13
3084.387029613573
 23
-22782.59269846329
 33
0.0
 14
3184.387029613573
 24
-22782.59269846329
 34
0.0
100
AcDbRotatedDimension
  0
DIMENSION
  5
16828
330
1F
100
AcDbEntity
  8
-TEXT3
100
AcDbDimension
  2
*D223
 10
3284.387029613573
 20
-22858.32570025747
 30
0.0
 11
3234.387029613574
 21
-22833.52965660127
 31
0.0
 70
    32
 71
     5
 42
100.0
  3
Kopie von 1-1
100
AcDbAlignedDimension
 13
3184.387029613573
 23
-22782.59269846329
 33
0.0
 14
3284.387029613573
 24
-22782.59269846329
 34
0.0
100
AcDbRotatedDimension
  0
DIMENSION
  5
16829
330
1F
100
AcDbEntity
  8
-TEXT3
100
AcDbDimension
  2
*D224
 10
3384.387029613574
 20
-22858.32570025747
 30
0.0
 11
3334.387029613573
 21
-22833.52965660127
 31
0.0
 70
    32
 71
     5
 42
100.0
  3
Kopie von 1-1
100
AcDbAlignedDimension
 13
3284.387029613573
 23
-22782.59269846329
 33
0.0
 14
3384.387029613574
 24
-22782.59269846329
 34
0.0
100
AcDbRotatedDimension
  0
DIMENSION
  5
1682A
330
1F
100
AcDbEntity
  8
-TEXT3
100
AcDbDimension
  2
*D225
 10
3484.387029613574
 20
-22858.32570025747
 30
0.0
 11
3434.387029613573
 21
-22833.52965660127
 31
0.0
 70
    32
 71
     5
 42
100.0
  3
Kopie von 1-1
100
AcDbAlignedDimension
 13
3384.387029613574
 23
-22782.59269846329
 33
0.0
 14
3484.387029613574
 24
-22782.59269846329
 34
0.0
100
AcDbRotatedDimension
  0
DIMENSION
  5
1682B
330
1F
100
AcDbEntity
  8
-TEXT3
100
AcDbDimension
  2
*D226
 10
3584.387029613573
 20
-22858.32570025747
 30
0.0
 11
3534.387029613573
 21
-22833.52965660127
 31
0.0
 70
    32
 71
     5
 42
100.0
  3
Kopie von 1-1
100
AcDbAlignedDimension
 13
3484.387029613574
 23
-22782.59269846329
 33
0.0
 14
3584.387029613573
 24
-22782.59269846329
 34
0.0
100
AcDbRotatedDimension
  0
DIMENSION
  5
1682C
330
1F
100
AcDbEntity
  8
-TEXT3
100
AcDbDimension
  2
*D227
 10
3684.387029613573
 20
-22858.32570025747
 30
0.0
 11
3634.387029613574
 21
-22833.52965660127
 31
0.0
 70
    32
 71
     5
 42
100.0
  3
Kopie von 1-1
100
AcDbAlignedDimension
 13
3584.387029613573
 23
-22782.59269846329
 33
0.0
 14
3684.387029613573
 24
-22782.59269846329
 34
0.0
100
AcDbRotatedDimension
  0
DIMENSION
  5
1682D
330
1F
100
AcDbEntity
  8
-TEXT3
100
AcDbDimension
  2
*D228
 10
3784.387029613573
 20
-22858.32570025747
 30
0.0
 11
3734.387029613574
 21
-22833.52965660127
 31
0.0
 70
    32
 71
     5
 42
100.0
  3
Kopie von 1-1
100
AcDbAlignedDimension
 13
3684.387029613573
 23
-22782.59269846329
 33
0.0
 14
3784.387029613573
 24
-22782.59269846329
 34
0.0
100
AcDbRotatedDimension
  0
DIMENSION
  5
1682E
330
1F
100
AcDbEntity
  8
-TEXT3
100
AcDbDimension
  2
*D229
 10
3884.387029613574
 20
-22858.32570025747
 30
0.0
 11
3834.387029613573
 21
-22833.52965660127
 31
0.0
 70
    32
 71
     5
 42
100.0
  3
Kopie von 1-1
100
AcDbAlignedDimension
 13
3784.387029613573
 23
-22782.59269846329
 33
0.0
 14
3884.387029613574
 24
-22782.59269846329
 34
0.0
100
AcDbRotatedDimension
  0
DIMENSION
  5
1682F
330
1F
100
AcDbEntity
  8
-TEXT3
100
AcDbDimension
  2
*D230
 10
3984.387029613574
 20
-22858.32570025747
 30
0.0
 11
3934.387029613573
 21
-22833.52965660127
 31
0.0
 70
    32
 71
     5
 42
100.0
  3
Kopie von 1-1
100
AcDbAlignedDimension
 13
3884.387029613574
 23
-22782.59269846329
 33
0.0
 14
3984.387029613574
 24
-22782.59269846329
 34
0.0
100
AcDbRotatedDimension
  0
DIMENSION
  5
16830
330
1F
100
AcDbEntity
  8
-TEXT3
100
AcDbDimension
  2
*D231
 10
4084.387029613574
 20
-22858.32570025747
 30
0.0
 11
4034.387029613574
 21
-22833.52965660127
 31
0.0
 70
    32
 71
     5
 42
100.0000000000004
  3
Kopie von 1-1
100
AcDbAlignedDimension
 13
3984.387029613574
 23
-22782.59269846329
 33
0.0
 14
4084.387029613574
 24
-22782.59269846329
 34
0.0
100
AcDbRotatedDimension
  0
DIMENSION
  5
16831
330
1F
100
AcDbEntity
  8
-TEXT3
100
AcDbDimension
  2
*D232
 10
4184.387029613573
 20
-22858.32570025747
 30
0.0
 11
4134.387029613574
 21
-22833.52965660127
 31
0.0
 70
    32
 71
     5
 42
100.0
  3
Kopie von 1-1
100
AcDbAlignedDimension
 13
4084.387029613574
 23
-22782.59269846329
 33
0.0
 14
4184.387029613573
 24
-22782.59269846329
 34
0.0
100
AcDbRotatedDimension
  0
DIMENSION
  5
16832
330
1F
100
AcDbEntity
  8
-TEXT3
100
AcDbDimension
  2
*D233
 10
4284.387029613574
 20
-22858.32570025747
 30
0.0
 11
4234.387029613574
 21
-22833.52965660127
 31
0.0
 70
    32
 71
     5
 42
100.0
  3
Kopie von 1-1
100
AcDbAlignedDimension
 13
4184.387029613573
 23
-22782.59269846329
 33
0.0
 14
4284.387029613574
 24
-22782.59269846329
 34
0.0
100
AcDbRotatedDimension
  0
DIMENSION
  5
16833
330
1F
100
AcDbEntity
  8
-TEXT3
100
AcDbDimension
  2
*D234
 10
4384.387029613574
 20
-22858.32570025747
 30
0.0
 11
4334.387029613574
 21
-22833.52965660127
 31
0.0
 70
    32
 71
     5
 42
100.0
  3
Kopie von 1-1
100
AcDbAlignedDimension
 13
4284.387029613574
 23
-22782.59269846329
 33
0.0
 14
4384.387029613574
 24
-22782.59269846329
 34
0.0
100
AcDbRotatedDimension
  0
DIMENSION
  5
16834
330
1F
100
AcDbEntity
  8
-TEXT3
100
AcDbDimension
  2
*D235
 10
4484.387029613574
 20
-22858.32570025747
 30
0.0
 11
4434.387029613573
 21
-22833.52965660127
 31
0.0
 70
    32
 71
     5
 42
100.0
  3
Kopie von 1-1
100
AcDbAlignedDimension
 13
4384.387029613574
 23
-22782.59269846329
 33
0.0
 14
4484.387029613574
 24
-22782.59269846329
 34
0.0
100
AcDbRotatedDimension
  0
DIMENSION
  5
16835
330
1F
100
AcDbEntity
  8
-TEXT3
100
AcDbDimension
  2
*D236
 10
4584.387029613574
 20
-22858.32570025747
 30
0.0
 11
4534.387029613574
 21
-22833.52965660127
 31
0.0
 70
    32
 71
     5
 42
100.0
  3
Kopie von 1-1
100
AcDbAlignedDimension
 13
4484.387029613574
 23
-22782.59269846329
 33
0.0
 14
4584.387029613574
 24
-22782.59269846329
 34
0.0
100
AcDbRotatedDimension
  0
DIMENSION
  5
16836
330
1F
100
AcDbEntity
  8
-TEXT3
100
AcDbDimension
  2
*D237
 10
4684.387029613573
 20
-22858.32570025747
 30
0.0
 11
4634.387029613574
 21
-22833.52965660127
 31
0.0
 70
    32
 71
     5
 42
100.0
  3
Kopie von 1-1
100
AcDbAlignedDimension
 13
4584.387029613574
 23
-22782.59269846329
 33
0.0
 14
4684.387029613573
 24
-22782.59269846329
 34
0.0
100
AcDbRotatedDimension
  0
DIMENSION
  5
16837
330
1F
100
AcDbEntity
  8
-TEXT3
100
AcDbDimension
  2
*D238
 10
4784.387029613574
 20
-22858.32570025747
 30
0.0
 11
4734.387029613574
 21
-22833.52965660127
 31
0.0
 70
    32
 71
     5
 42
100.0
  3
Kopie von 1-1
100
AcDbAlignedDimension
 13
4684.387029613573
 23
-22782.59269846329
 33
0.0
 14
4784.387029613574
 24
-22782.59269846329
 34
0.0
100
AcDbRotatedDimension
  0
DIMENSION
  5
16838
330
1F
100
AcDbEntity
  8
-TEXT3
100
AcDbDimension
  2
*D239
 10
4884.387029613574
 20
-22858.32570025747
 30
0.0
 11
4834.387029613574
 21
-22833.52965660127
 31
0.0
 70
    32
 71
     5
 42
100.0
  3
Kopie von 1-1
100
AcDbAlignedDimension
 13
4784.387029613574
 23
-22782.59269846329
 33
0.0
 14
4884.387029613574
 24
-22782.59269846329
 34
0.0
100
AcDbRotatedDimension
  0
DIMENSION
  5
16839
330
1F
100
AcDbEntity
  8
-TEXT3
100
AcDbDimension
  2
*D240
 10
4984.387029613574
 20
-22858.32570025747
 30
0.0
 11
4934.387029613574
 21
-22833.52965660127
 31
0.0
 70
    32
 71
     5
 42
100.0
  3
Kopie von 1-1
100
AcDbAlignedDimension
 13
4884.387029613574
 23
-22782.59269846329
 33
0.0
 14
4984.387029613574
 24
-22782.59269846329
 34
0.0
100
AcDbRotatedDimension
  0
DIMENSION
  5
1683A
330
1F
100
AcDbEntity
  8
-TEXT3
100
AcDbDimension
  2
*D241
 10
5034.387029613565
 20
-22858.32570025747
 30
0.0
 11
5009.387029613569
 21
-22858.32570025747
 31
0.0
 70
   160
 71
     5
 42
49.9999999999909
  3
Kopie von 1-1
100
AcDbAlignedDimension
 13
4984.387029613574
 23
-22782.59269846329
 33
0.0
 14
5034.387029613565
 24
-22782.59269846329
 34
0.0
100
AcDbRotatedDimension
  0
ARC
  5
1683B
330
1F
100
AcDbEntity
  8
BALARDO-Profil
 48
2.0
100
AcDbCircle
 10
2084.387029613573
 20
-22720.59269846329
 30
0.0
 40
8.0
100
AcDbArc
 50
180.0
 51
0.0
  0
LINE
  5
1683C
330
1F
100
AcDbEntity
  8
BALARDO-Profil
 48
2.0
100
AcDbLine
 10
2076.387029613573
 20
-22720.59269846329
 30
0.0
 11
2076.387029613573
 21
-22700.59269846329
 31
0.0
  0
ARC
  5
1683D
330
1F
100
AcDbEntity
  8
BALARDO-Profil
 48
2.0
100
AcDbCircle
 10
2084.387029613573
 20
-22700.59269846329
 30
0.0
 40
8.0
100
AcDbArc
 50
0.0
 51
180.0
  0
LINE
  5
1683E
330
1F
100
AcDbEntity
  8
BALARDO-Profil
 48
2.0
100
AcDbLine
 10
2092.387029613573
 20
-22700.59269846329
 30
0.0
 11
2092.387029613573
 21
-22720.59269846329
 31
0.0
  0
DIMENSION
  5
1683F
330
1F
100
AcDbEntity
  8
-TEXT3
100
AcDbDimension
  2
*D242
 10
1982.932886986069
 20
-22765.59269846329
 30
275.000137499999
 11
1982.932886986073
 21
-22867.8293969626
 31
275.000137499999
 70
   160
 71
     5
 42
17.0
  3
Kopie von 1-1
100
AcDbAlignedDimension
 13
2034.387029613565
 23
-22782.59269846329
 33
0.0
 14
2034.387029613565
 24
-22765.59269846329
 34
0.0
 50
90.0
100
AcDbRotatedDimension
  0
DIMENSION
  5
16840
330
1F
100
AcDbEntity
  8
-TEXT3
100
AcDbDimension
  2
*D243
 10
1880.005154794897
 20
-22654.0917272972
 30
275.000137499999
 11
1855.209111138693
 21
-22718.34221288024
 31
275.000137499999
 70
    32
 71
     5
 42
128.5009711660896
  3
Kopie von 1-1
100
AcDbAlignedDimension
 13
2034.387029613565
 23
-22782.59269846329
 33
0.0
 14
2034.387029613565
 24
-22654.0917272972
 34
0.0
 50
90.0
100
AcDbRotatedDimension
  0
LWPOLYLINE
  5
16842
330
1F
100
AcDbEntity
  8
BALARDO-Profil
 48
2.0
100
AcDbPolyline
 90
        4
 70
     1
 43
0.0
 10
2034.387029613565
 20
-23489.79310803642
 10
5034.387029613565
 20
-23489.79310803642
 10
5034.387029613565
 20
-23361.29213687033
 10
2034.387029613565
 20
-23361.29213687033
  0
LINE
  5
16843
330
1F
100
AcDbEntity
  8
-NORMTEIL_VERDECKT
  6
STRICHLINIEX2
 62
     9
 48
2.0
100
AcDbLine
 10
2034.387029613565
 20
-23472.79310803643
 30
0.0
 11
5034.387029613565
 21
-23472.79310803643
 31
0.0
  0
DIMENSION
  5
16844
330
1F
100
AcDbEntity
  8
-TEXT3
100
AcDbDimension
  2
*D244
 10
2084.387029613573
 20
-23565.52610983061
 30
0.0
 11
2059.387029613569
 21
-23565.52610983061
 31
0.0
 70
   160
 71
     5
 42
50.00000000000864
  3
Kopie von 1-1
100
AcDbAlignedDimension
 13
2034.387029613565
 23
-23489.79310803642
 33
0.0
 14
2084.387029613573
 24
-23489.79310803642
 34
0.0
100
AcDbRotatedDimension
  0
DIMENSION
  5
16845
330
1F
100
AcDbEntity
  8
-TEXT3
100
AcDbDimension
  2
*D245
 10
2184.387029613573
 20
-23565.52610983061
 30
0.0
 11
2134.387029613574
 21
-23540.7300661744
 31
0.0
 70
    32
 71
     5
 42
100.0
  3
Kopie von 1-1
100
AcDbAlignedDimension
 13
2084.387029613573
 23
-23489.79310803642
 33
0.0
 14
2184.387029613573
 24
-23489.79310803642
 34
0.0
100
AcDbRotatedDimension
  0
DIMENSION
  5
16846
330
1F
100
AcDbEntity
  8
-TEXT3
100
AcDbDimension
  2
*D246
 10
2284.387029613573
 20
-23565.52610983061
 30
0.0
 11
2234.387029613573
 21
-23540.7300661744
 31
0.0
 70
    32
 71
     5
 42
100.0
  3
Kopie von 1-1
100
AcDbAlignedDimension
 13
2184.387029613573
 23
-23489.79310803642
 33
0.0
 14
2284.387029613573
 24
-23489.79310803642
 34
0.0
100
AcDbRotatedDimension
  0
DIMENSION
  5
16847
330
1F
100
AcDbEntity
  8
-TEXT3
100
AcDbDimension
  2
*D247
 10
5034.387029613565
 20
-23653.7225148995
 30
0.0
 11
3534.387029613565
 21
-23626.34006833287
 31
0.0
 70
    32
 71
     5
 42
3000.0
  3
Kopie(2) von 1-1
100
AcDbAlignedDimension
 13
2034.387029613565
 23
-23567.52610983061
 33
0.0
 14
5034.387029613565
 24
-23567.52610983061
 34
0.0
100
AcDbRotatedDimension
  0
DIMENSION
  5
16848
330
1F
100
AcDbEntity
  8
-TEXT3
100
AcDbDimension
  2
*D248
 10
2384.387029613574
 20
-23565.52610983061
 30
0.0
 11
2334.387029613573
 21
-23540.7300661744
 31
0.0
 70
    32
 71
     5
 42
100.0
  3
Kopie von 1-1
100
AcDbAlignedDimension
 13
2284.387029613573
 23
-23489.79310803642
 33
0.0
 14
2384.387029613574
 24
-23489.79310803642
 34
0.0
100
AcDbRotatedDimension
  0
DIMENSION
  5
16849
330
1F
100
AcDbEntity
  8
-TEXT3
100
AcDbDimension
  2
*D249
 10
2484.387029613574
 20
-23565.52610983061
 30
0.0
 11
2434.387029613573
 21
-23540.7300661744
 31
0.0
 70
    32
 71
     5
 42
100.0
  3
Kopie von 1-1
100
AcDbAlignedDimension
 13
2384.387029613574
 23
-23489.79310803642
 33
0.0
 14
2484.387029613574
 24
-23489.79310803642
 34
0.0
100
AcDbRotatedDimension
  0
DIMENSION
  5
1684A
330
1F
100
AcDbEntity
  8
-TEXT3
100
AcDbDimension
  2
*D250
 10
2584.387029613573
 20
-23565.52610983061
 30
0.0
 11
2534.387029613573
 21
-23540.7300661744
 31
0.0
 70
    32
 71
     5
 42
100.0
  3
Kopie von 1-1
100
AcDbAlignedDimension
 13
2484.387029613574
 23
-23489.79310803642
 33
0.0
 14
2584.387029613573
 24
-23489.79310803642
 34
0.0
100
AcDbRotatedDimension
  0
DIMENSION
  5
1684B
330
1F
100
AcDbEntity
  8
-TEXT3
100
AcDbDimension
  2
*D251
 10
2684.387029613573
 20
-23565.52610983061
 30
0.0
 11
2634.387029613574
 21
-23540.7300661744
 31
0.0
 70
    32
 71
     5
 42
100.0
  3
Kopie von 1-1
100
AcDbAlignedDimension
 13
2584.387029613573
 23
-23489.79310803642
 33
0.0
 14
2684.387029613573
 24
-23489.79310803642
 34
0.0
100
AcDbRotatedDimension
  0
DIMENSION
  5
1684C
330
1F
100
AcDbEntity
  8
-TEXT3
100
AcDbDimension
  2
*D252
 10
2784.387029613573
 20
-23565.52610983061
 30
0.0
 11
2734.387029613574
 21
-23540.7300661744
 31
0.0
 70
    32
 71
     5
 42
100.0
  3
Kopie von 1-1
100
AcDbAlignedDimension
 13
2684.387029613573
 23
-23489.79310803642
 33
0.0
 14
2784.387029613573
 24
-23489.79310803642
 34
0.0
100
AcDbRotatedDimension
  0
DIMENSION
  5
1684D
330
1F
100
AcDbEntity
  8
-TEXT3
100
AcDbDimension
  2
*D253
 10
2884.387029613574
 20
-23565.52610983061
 30
0.0
 11
2834.387029613573
 21
-23540.7300661744
 31
0.0
 70
    32
 71
     5
 42
100.0
  3
Kopie von 1-1
100
AcDbAlignedDimension
 13
2784.387029613573
 23
-23489.79310803642
 33
0.0
 14
2884.387029613574
 24
-23489.79310803642
 34
0.0
100
AcDbRotatedDimension
  0
DIMENSION
  5
1684E
330
1F
100
AcDbEntity
  8
-TEXT3
100
AcDbDimension
  2
*D254
 10
2984.387029613574
 20
-23565.52610983061
 30
0.0
 11
2934.387029613573
 21
-23540.7300661744
 31
0.0
 70
    32
 71
     5
 42
100.0
  3
Kopie von 1-1
100
AcDbAlignedDimension
 13
2884.387029613574
 23
-23489.79310803642
 33
0.0
 14
2984.387029613574
 24
-23489.79310803642
 34
0.0
100
AcDbRotatedDimension
  0
DIMENSION
  5
1684F
330
1F
100
AcDbEntity
  8
-TEXT3
100
AcDbDimension
  2
*D255
 10
3084.387029613573
 20
-23565.52610983061
 30
0.0
 11
3034.387029613573
 21
-23540.7300661744
 31
0.0
 70
    32
 71
     5
 42
100.0
  3
Kopie von 1-1
100
AcDbAlignedDimension
 13
2984.387029613574
 23
-23489.79310803642
 33
0.0
 14
3084.387029613573
 24
-23489.79310803642
 34
0.0
100
AcDbRotatedDimension
  0
DIMENSION
  5
16850
330
1F
100
AcDbEntity
  8
-TEXT3
100
AcDbDimension
  2
*D256
 10
3184.387029613573
 20
-23565.52610983061
 30
0.0
 11
3134.387029613574
 21
-23540.7300661744
 31
0.0
 70
    32
 71
     5
 42
100.0
  3
Kopie von 1-1
100
AcDbAlignedDimension
 13
3084.387029613573
 23
-23489.79310803642
 33
0.0
 14
3184.387029613573
 24
-23489.79310803642
 34
0.0
100
AcDbRotatedDimension
  0
DIMENSION
  5
16851
330
1F
100
AcDbEntity
  8
-TEXT3
100
AcDbDimension
  2
*D257
 10
3284.387029613573
 20
-23565.52610983061
 30
0.0
 11
3234.387029613574
 21
-23540.7300661744
 31
0.0
 70
    32
 71
     5
 42
100.0
  3
Kopie von 1-1
100
AcDbAlignedDimension
 13
3184.387029613573
 23
-23489.79310803642
 33
0.0
 14
3284.387029613573
 24
-23489.79310803642
 34
0.0
100
AcDbRotatedDimension
  0
DIMENSION
  5
16852
330
1F
100
AcDbEntity
  8
-TEXT3
100
AcDbDimension
  2
*D258
 10
3384.387029613574
 20
-23565.52610983061
 30
0.0
 11
3334.387029613573
 21
-23540.7300661744
 31
0.0
 70
    32
 71
     5
 42
100.0
  3
Kopie von 1-1
100
AcDbAlignedDimension
 13
3284.387029613573
 23
-23489.79310803642
 33
0.0
 14
3384.387029613574
 24
-23489.79310803642
 34
0.0
100
AcDbRotatedDimension
  0
DIMENSION
  5
16853
330
1F
100
AcDbEntity
  8
-TEXT3
100
AcDbDimension
  2
*D259
 10
3484.387029613574
 20
-23565.52610983061
 30
0.0
 11
3434.387029613573
 21
-23540.7300661744
 31
0.0
 70
    32
 71
     5
 42
100.0
  3
Kopie von 1-1
100
AcDbAlignedDimension
 13
3384.387029613574
 23
-23489.79310803642
 33
0.0
 14
3484.387029613574
 24
-23489.79310803642
 34
0.0
100
AcDbRotatedDimension
  0
DIMENSION
  5
16854
330
1F
100
AcDbEntity
  8
-TEXT3
100
AcDbDimension
  2
*D260
 10
3584.387029613573
 20
-23565.52610983061
 30
0.0
 11
3534.387029613573
 21
-23540.7300661744
 31
0.0
 70
    32
 71
     5
 42
100.0
  3
Kopie von 1-1
100
AcDbAlignedDimension
 13
3484.387029613574
 23
-23489.79310803642
 33
0.0
 14
3584.387029613573
 24
-23489.79310803642
 34
0.0
100
AcDbRotatedDimension
  0
DIMENSION
  5
16855
330
1F
100
AcDbEntity
  8
-TEXT3
100
AcDbDimension
  2
*D261
 10
3684.387029613573
 20
-23565.52610983061
 30
0.0
 11
3634.387029613574
 21
-23540.7300661744
 31
0.0
 70
    32
 71
     5
 42
100.0
  3
Kopie von 1-1
100
AcDbAlignedDimension
 13
3584.387029613573
 23
-23489.79310803642
 33
0.0
 14
3684.387029613573
 24
-23489.79310803642
 34
0.0
100
AcDbRotatedDimension
  0
DIMENSION
  5
16856
330
1F
100
AcDbEntity
  8
-TEXT3
100
AcDbDimension
  2
*D262
 10
3784.387029613573
 20
-23565.52610983061
 30
0.0
 11
3734.387029613574
 21
-23540.7300661744
 31
0.0
 70
    32
 71
     5
 42
100.0
  3
Kopie von 1-1
100
AcDbAlignedDimension
 13
3684.387029613573
 23
-23489.79310803642
 33
0.0
 14
3784.387029613573
 24
-23489.79310803642
 34
0.0
100
AcDbRotatedDimension
  0
DIMENSION
  5
16857
330
1F
100
AcDbEntity
  8
-TEXT3
100
AcDbDimension
  2
*D263
 10
3884.387029613574
 20
-23565.52610983061
 30
0.0
 11
3834.387029613573
 21
-23540.7300661744
 31
0.0
 70
    32
 71
     5
 42
100.0
  3
Kopie von 1-1
100
AcDbAlignedDimension
 13
3784.387029613573
 23
-23489.79310803642
 33
0.0
 14
3884.387029613574
 24
-23489.79310803642
 34
0.0
100
AcDbRotatedDimension
  0
DIMENSION
  5
16858
330
1F
100
AcDbEntity
  8
-TEXT3
100
AcDbDimension
  2
*D264
 10
3984.387029613574
 20
-23565.52610983061
 30
0.0
 11
3934.387029613573
 21
-23540.7300661744
 31
0.0
 70
    32
 71
     5
 42
100.0
  3
Kopie von 1-1
100
AcDbAlignedDimension
 13
3884.387029613574
 23
-23489.79310803642
 33
0.0
 14
3984.387029613574
 24
-23489.79310803642
 34
0.0
100
AcDbRotatedDimension
  0
DIMENSION
  5
16859
330
1F
100
AcDbEntity
  8
-TEXT3
100
AcDbDimension
  2
*D265
 10
4084.387029613574
 20
-23565.52610983061
 30
0.0
 11
4034.387029613574
 21
-23540.7300661744
 31
0.0
 70
    32
 71
     5
 42
100.0000000000004
  3
Kopie von 1-1
100
AcDbAlignedDimension
 13
3984.387029613574
 23
-23489.79310803642
 33
0.0
 14
4084.387029613574
 24
-23489.79310803642
 34
0.0
100
AcDbRotatedDimension
  0
DIMENSION
  5
1685A
330
1F
100
AcDbEntity
  8
-TEXT3
100
AcDbDimension
  2
*D266
 10
4184.387029613573
 20
-23565.52610983061
 30
0.0
 11
4134.387029613574
 21
-23540.7300661744
 31
0.0
 70
    32
 71
     5
 42
100.0
  3
Kopie von 1-1
100
AcDbAlignedDimension
 13
4084.387029613574
 23
-23489.79310803642
 33
0.0
 14
4184.387029613573
 24
-23489.79310803642
 34
0.0
100
AcDbRotatedDimension
  0
DIMENSION
  5
1685B
330
1F
100
AcDbEntity
  8
-TEXT3
100
AcDbDimension
  2
*D267
 10
4284.387029613574
 20
-23565.52610983061
 30
0.0
 11
4234.387029613574
 21
-23540.7300661744
 31
0.0
 70
    32
 71
     5
 42
100.0
  3
Kopie von 1-1
100
AcDbAlignedDimension
 13
4184.387029613573
 23
-23489.79310803642
 33
0.0
 14
4284.387029613574
 24
-23489.79310803642
 34
0.0
100
AcDbRotatedDimension
  0
DIMENSION
  5
1685C
330
1F
100
AcDbEntity
  8
-TEXT3
100
AcDbDimension
  2
*D268
 10
4384.387029613574
 20
-23565.52610983061
 30
0.0
 11
4334.387029613574
 21
-23540.7300661744
 31
0.0
 70
    32
 71
     5
 42
100.0
  3
Kopie von 1-1
100
AcDbAlignedDimension
 13
4284.387029613574
 23
-23489.79310803642
 33
0.0
 14
4384.387029613574
 24
-23489.79310803642
 34
0.0
100
AcDbRotatedDimension
  0
DIMENSION
  5
1685D
330
1F
100
AcDbEntity
  8
-TEXT3
100
AcDbDimension
  2
*D269
 10
4484.387029613574
 20
-23565.52610983061
 30
0.0
 11
4434.387029613573
 21
-23540.7300661744
 31
0.0
 70
    32
 71
     5
 42
100.0
  3
Kopie von 1-1
100
AcDbAlignedDimension
 13
4384.387029613574
 23
-23489.79310803642
 33
0.0
 14
4484.387029613574
 24
-23489.79310803642
 34
0.0
100
AcDbRotatedDimension
  0
DIMENSION
  5
1685E
330
1F
100
AcDbEntity
  8
-TEXT3
100
AcDbDimension
  2
*D270
 10
4584.387029613574
 20
-23565.52610983061
 30
0.0
 11
4534.387029613574
 21
-23540.7300661744
 31
0.0
 70
    32
 71
     5
 42
100.0
  3
Kopie von 1-1
100
AcDbAlignedDimension
 13
4484.387029613574
 23
-23489.79310803642
 33
0.0
 14
4584.387029613574
 24
-23489.79310803642
 34
0.0
100
AcDbRotatedDimension
  0
DIMENSION
  5
1685F
330
1F
100
AcDbEntity
  8
-TEXT3
100
AcDbDimension
  2
*D271
 10
4684.387029613573
 20
-23565.52610983061
 30
0.0
 11
4634.387029613574
 21
-23540.7300661744
 31
0.0
 70
    32
 71
     5
 42
100.0
  3
Kopie von 1-1
100
AcDbAlignedDimension
 13
4584.387029613574
 23
-23489.79310803642
 33
0.0
 14
4684.387029613573
 24
-23489.79310803642
 34
0.0
100
AcDbRotatedDimension
  0
DIMENSION
  5
16860
330
1F
100
AcDbEntity
  8
-TEXT3
100
AcDbDimension
  2
*D272
 10
4784.387029613574
 20
-23565.52610983061
 30
0.0
 11
4734.387029613574
 21
-23540.7300661744
 31
0.0
 70
    32
 71
     5
 42
100.0
  3
Kopie von 1-1
100
AcDbAlignedDimension
 13
4684.387029613573
 23
-23489.79310803642
 33
0.0
 14
4784.387029613574
 24
-23489.79310803642
 34
0.0
100
AcDbRotatedDimension
  0
DIMENSION
  5
16861
330
1F
100
AcDbEntity
  8
-TEXT3
100
AcDbDimension
  2
*D273
 10
4884.387029613574
 20
-23565.52610983061
 30
0.0
 11
4834.387029613574
 21
-23540.7300661744
 31
0.0
 70
    32
 71
     5
 42
100.0
  3
Kopie von 1-1
100
AcDbAlignedDimension
 13
4784.387029613574
 23
-23489.79310803642
 33
0.0
 14
4884.387029613574
 24
-23489.79310803642
 34
0.0
100
AcDbRotatedDimension
  0
DIMENSION
  5
16862
330
1F
100
AcDbEntity
  8
-TEXT3
100
AcDbDimension
  2
*D274
 10
4984.387029613574
 20
-23565.52610983061
 30
0.0
 11
4934.387029613574
 21
-23540.7300661744
 31
0.0
 70
    32
 71
     5
 42
100.0
  3
Kopie von 1-1
100
AcDbAlignedDimension
 13
4884.387029613574
 23
-23489.79310803642
 33
0.0
 14
4984.387029613574
 24
-23489.79310803642
 34
0.0
100
AcDbRotatedDimension
  0
DIMENSION
  5
16863
330
1F
100
AcDbEntity
  8
-TEXT3
100
AcDbDimension
  2
*D275
 10
5034.387029613565
 20
-23565.52610983061
 30
0.0
 11
5009.387029613569
 21
-23565.52610983061
 31
0.0
 70
   160
 71
     5
 42
49.9999999999909
  3
Kopie von 1-1
100
AcDbAlignedDimension
 13
4984.387029613574
 23
-23489.79310803642
 33
0.0
 14
5034.387029613565
 24
-23489.79310803642
 34
0.0
100
AcDbRotatedDimension
  0
MTEXT
  5
16868
330
1F
100
AcDbEntity
  8
-TEXT2
100
AcDbMText
 10
1731.615769480639
 20
-22719.65332659019
 30
0.0
 40
25.0
 41
918.055205648268
 71
     2
 72
     5
  1
hinten
 11
0.0000000000000001
 21
1.0
 31
0.0
 73
     1
 44
1.0
1001
ACAD
1000
ACAD_MTEXT_DEFINED_HEIGHT_BEGIN
1070
    46
1040
0.0
1000
ACAD_MTEXT_DEFINED_HEIGHT_END
  0
MTEXT
  5
16869
330
1F
100
AcDbEntity
  8
-TEXT2
100
AcDbMText
 10
1590.222827037858
 20
-22719.65332659019
 30
0.0
 40
25.0
 41
918.055205648268
 71
     2
 72
     5
  1
vorne
 11
0.0000000000000001
 21
1.0
 31
0.0
 73
     1
 44
1.0
1001
ACAD
1000
ACAD_MTEXT_DEFINED_HEIGHT_BEGIN
1070
    46
1040
0.0
1000
ACAD_MTEXT_DEFINED_HEIGHT_END
  0
LINE
  5
1686A
330
1F
100
AcDbEntity
  8
-SYSTEM
100
AcDbLine
 10
1698.380429915599
 20
-22710.59269846328
 30
0.0
 11
1719.043685093192
 21
-22710.59269846328
 31
0.0
  0
LINE
  5
1686B
330
1F
100
AcDbEntity
  8
-NORMTEIL_VERDECKT
  6
STRICHLINIEX2
 62
     9
100
AcDbLine
 10
1704.86100504973
 20
-22692.59269846329
 30
0.0
 11
1712.861005195031
 21
-22692.59318091147
 31
0.0
  0
LINE
  5
1686C
330
1F
100
AcDbEntity
  8
-NORMTEIL_VERDECKT
  6
STRICHLINIEX2
 62
     9
100
AcDbLine
 10
1704.413188674911
 20
-22728.59269846329
 30
0.0
 11
1712.595625206024
 21
-22728.59234698847
 31
0.0
  0
LWPOLYLINE
  5
1686D
330
1F
100
AcDbEntity
  8
BALARDO-Profil
100
AcDbPolyline
 90
       53
 70
     1
 43
0.0
 10
1646.561458018451
 20
-22654.09172729719
 10
1651.36784767812
 20
-22654.09172729719
 42
-0.4139203013949816
 10
1651.872193727776
 20
-22654.58353423781
 10
1654.229515308255
 20
-22681.20376724524
 42
-0.3327036731062066
 10
1653.981378339445
 20
-22681.88221373155
 42
0.4083876327098225
 10
1648.870913939232
 20
-22688.1218683818
 10
1654.091050526733
 20
-22738.70353739103
 10
1656.619495579803
 20
-22757.64559040151
 42
0.380272329899709
 10
1665.557695542122
 20
-22765.59269846329
 10
1687.718268674825
 20
-22765.59269846329
 42
0.3802723298996782
 10
1696.656468637146
 20
-22757.64559040151
 10
1699.328984597975
 20
-22737.70425619534
 42
-0.1305183172645141
 10
1701.387868101205
 20
-22733.78857011012
 42
0.1976359590068575
 10
1704.86100525817
 20
-22725.34507497742
 10
1704.861005258177
 20
-22701.30893019222
 10
1704.861004918177
 20
-22687.09181584453
 42
0.1434944995052383
 10
1704.331820932242
 20
-22685.66492064099
 10
1702.139406060478
 20
-22682.46999173507
 42
0.1479866471609119
 10
1699.000247380279
 20
-22679.5842052553
 10
1696.88042801448
 20
-22678.45622910037
 42
-0.3715302924838353
 10
1696.453025135064
 20
-22677.9855077269
 10
1701.342162685786
 20
-22654.5955715974
 42
-0.4142135623730952
 10
1701.838288598389
 20
-22654.0917272972
 10
1712.875687946272
 20
-22654.0917272972
 42
-0.3849595557161675
 10
1713.380668157676
 20
-22654.58785320979
 10
1713.380668157682
 20
-22660.6138380983
 42
-0.26435731104155
 10
1711.915390701104
 20
-22663.19155544408
 10
1709.475362991494
 20
-22664.64430026835
 42
0.2643573110416047
 10
1708.010085534915
 20
-22667.22201761413
 10
1708.010085534915
 20
-22673.51366381677
 42
0.1326928786911622
 10
1710.050488589013
 20
-22681.06673253086
 42
-0.1326928786910998
 10
1712.86100525817
 20
-22691.47057185153
 10
1712.86100525817
 20
-22725.34507497742
 42
-0.1093940216777188
 10
1710.99129455382
 20
-22733.78857011012
 42
0.1821054494091258
 10
1709.632978940612
 20
-22751.72625413751
 42
0.0145851540096962
 10
1710.535486036517
 20
-22754.50679717475
 10
1711.656468637153
 20
-22757.64559040151
 42
-0.0859657583767065
 10
1713.380668157677
 20
-22767.59988805415
 10
1713.380668157677
 20
-22780.06504350055
 10
1713.380668157677
 20
-22782.09988805415
 42
-0.4154361334122847
 10
1712.878582006904
 20
-22782.5998837021
 10
1708.888755685294
 20
-22782.5998837021
 42
-0.1287373765745993
 10
1708.399641614076
 20
-22782.46810896532
 10
1704.920545389528
 20
-22780.47965313651
 42
0.6022685683118257
 10
1704.547258053001
 20
-22780.71626171509
 10
1704.673357481107
 20
-22782.32313989701
 42
-0.4394580030541228
 10
1704.422348702195
 20
-22782.59269216176
 10
1688.471882057423
 20
-22782.59269846329
 10
1665.876038130836
 20
-22782.59269846329
 10
1641.880668157677
 20
-22782.59269846329
 42
-0.4398557366840446
 10
1641.380668157677
 20
-22782.09269846329
 10
1641.380668157677
 20
-22654.58243725023
 42
-0.447123298245642
 10
1641.834403603655
 20
-22654.09172729719
  0
LINE
  5
1686E
330
1F
100
AcDbEntity
  8
-SYSTEM
100
AcDbLine
 10
1656.380906399755
 20
-22710.59269846328
 30
0.0
 11
1635.717651222162
 21
-22710.59269846328
 31
0.0
  0
LINE
  5
1686F
330
1F
100
AcDbEntity
  8
-NORMTEIL_VERDECKT
  6
STRICHLINIEX2
 62
     9
100
AcDbLine
 10
1652.676697232372
 20
-22724.59269846329
 30
0.0
 11
1641.380668157677
 21
-22724.59269846329
 31
0.0
  0
LINE
  5
16870
330
1F
100
AcDbEntity
  8
-NORMTEIL_VERDECKT
  6
STRICHLINIEX2
 62
     9
100
AcDbLine
 10
1649.870209790705
 20
-22696.59269846329
 30
0.0
 11
1641.380668157677
 21
-22696.59269846329
 31
0.0
  0
LWPOLYLINE
  5
16871
330
1F
100
AcDbEntity
  8
-GLAS
100
AcDbPolyline
 90
        6
 70
   128
 43
0.0
 10
1660.882982108472
 20
-22568.92703716018
 10
1660.882982108472
 20
-22757.6813883867
 10
1662.882982108472
 20
-22759.6813883867
 10
1690.402982108472
 20
-22759.6813883867
 10
1692.402982108472
 20
-22757.6813883867
 10
1692.402982108472
 20
-22568.92703716018
  0
LINE
  5
16872
330
1F
100
AcDbEntity
  8
-GLAS
100
AcDbLine
 10
1677.402982108473
 20
-22759.6813883867
 30
0.0
 11
1677.402982108473
 21
-22568.92703716018
 31
0.0
  0
LINE
  5
16873
330
1F
100
AcDbEntity
  8
-GLAS
100
AcDbLine
 10
1675.882982108472
 20
-22568.92703716018
 30
0.0
 11
1675.882982108472
 21
-22759.6813883867
 31
0.0
  0
LWPOLYLINE
  5
16874
330
1F
100
AcDbEntity
  8
--KLEMMSCHUH
100
AcDbPolyline
 90
       14
 70
     1
 43
0.0
 10
1653.978097748909
 20
-22737.70425619535
 10
1660.882982108472
 20
-22737.70425619535
 10
1660.882982108472
 20
-22757.6813883867
 10
1662.882982108472
 20
-22759.6813883867
 10
1690.402982108472
 20
-22759.6813883867
 10
1692.402982108472
 20
-22757.6813883867
 10
1692.402982108472
 20
-22737.70425619535
 10
1699.328984597974
 20
-22737.70425619535
 10
1699.328984597974
 20
-22737.70425619535
 10
1696.656468637146
 20
-22757.64559040151
 42
-0.3802817217817863
 10
1687.717982108473
 20
-22765.59269846329
 10
1665.557982108474
 20
-22765.59269846329
 42
-0.3802817217817079
 10
1656.619495579803
 20
-22757.64559040151
 10
1654.091542742486
 20
-22738.70353739103
  0
CIRCLE
  5
16875
330
1F
100
AcDbEntity
  8
-TEXT3
100
AcDbCircle
 10
1695.902982108473
 20
-22663.52545279048
 30
0.0
 40
3.5
  0
INSERT
  5
16876
330
1F
100
AcDbEntity
  8
-TEXT3
100
AcDbBlockReference
  2
Innendichtung 04
 10
1703.702898049036
 20
-22654.09615253921
 30
0.0
  0
LWPOLYLINE
  5
16877
330
1F
100
AcDbEntity
  8
-DICHTUNG
100
AcDbPolyline
 90
       12
 70
     0
 43
0.0
 10
1653.130158077123
 20
-22667.28906869289
 10
1660.882982108472
 20
-22667.28906869289
 10
1660.882982108472
 20
-22657.13086282491
 42
0.4522402936801287
 10
1660.023493591744
 20
-22656.2913657753
 10
1656.624521011252
 20
-22656.53943144648
 42
-0.77519030129796
 10
1656.579527529978
 20
-22655.8627751668
 10
1660.795092398894
 20
-22650.82810406589
 42
0.9186907316229586
 10
1660.442858112388
 20
-22650.34889264836
 10
1658.041610372665
 20
-22651.80240076168
 42
-0.9289229613802632
 10
1657.661975866618
 20
-22651.21654787204
 10
1660.882982108472
 20
-22647.78906869289
 10
1649.969889789172
 20
-22652.5916037835
  0
LWPOLYLINE
  5
1687D
330
1F
100
AcDbEntity
  8
-ALU-BLENDE
100
AcDbPolyline
 90
       33
 70
     1
 43
0.0
 10
1637.804505991596
 20
-22785.3660110295
 42
-0.4397039096569245
 10
1637.309447796432
 20
-22784.87594886949
 10
1637.309447796432
 20
-22653.10605072499
 42
-0.3944218318070986
 10
1637.797947923125
 20
-22652.5916037835
 10
1646.879786731406
 20
-22652.5916037835
 10
1652.402337364802
 20
-22652.5916037835
 42
-0.4226227065355758
 10
1652.902132530855
 20
-22653.1059143387
 10
1652.81907298393
 20
-22655.89500711233
 42
-0.4083974002904238
 10
1652.61740961041
 20
-22656.08927527486
 10
1652.017313657917
 20
-22656.08403831682
 42
-0.4200537430618028
 10
1651.819140898598
 20
-22655.87832171013
 10
1651.864405702393
 20
-22654.29745151927
 42
0.4226227065360451
 10
1651.664487635971
 20
-22654.09172729719
 10
1646.879786731406
 20
-22654.09172729719
 10
1639.332432446799
 20
-22654.09172729719
 42
0.4587821821791987
 10
1639.10984275159
 20
-22654.31738898942
 10
1639.132812433422
 20
-22713.52106776213
 10
1639.155132934833
 20
-22783.28611900397
 42
0.3909356040048344
 10
1639.427662907052
 20
-22783.56558908382
 10
1680.182182271531
 20
-22783.56597671403
 10
1704.508063738794
 20
-22783.56597671403
 42
0.4396444123247641
 10
1704.757138962904
 20
-22783.29449340104
 10
1704.589575999307
 20
-22781.35178639298
 42
-0.437341806199636
 10
1704.836719973832
 20
-22781.08031053955
 10
1705.838226052873
 20
-22781.07257367592
 42
-0.1305422863385472
 10
1706.086834898653
 20
-22781.13655505748
 10
1710.318925003344
 20
-22783.51219680853
 42
0.1305422863407319
 10
1710.567533849124
 20
-22783.5761781901
 10
1711.388089077944
 20
-22783.56983921319
 42
-0.4142135623730951
 10
1711.891936657984
 20
-22784.06596179491
 10
1711.898087695976
 20
-22784.86218908157
 42
-0.4239315868513715
 10
1711.403351810532
 20
-22785.36601102949
 10
1680.182182271531
 20
-22785.36601102949
  0
CIRCLE
  5
1687E
330
1F
100
AcDbEntity
  8
BALARDO-Profil
 48
2.0
100
AcDbCircle
 10
2084.387029613565
 20
-23417.79310803642
 30
0.0
 40
14.0
  0
CIRCLE
  5
1687F
330
1F
100
AcDbEntity
  8
BALARDO-Profil
 48
2.0
100
AcDbCircle
 10
2184.387029613565
 20
-23417.79310803642
 30
0.0
 40
14.0
  0
CIRCLE
  5
16880
330
1F
100
AcDbEntity
  8
BALARDO-Profil
 48
2.0
100
AcDbCircle
 10
2284.387029613565
 20
-23417.79310803642
 30
0.0
 40
14.0
  0
CIRCLE
  5
16881
330
1F
100
AcDbEntity
  8
BALARDO-Profil
 48
2.0
100
AcDbCircle
 10
2384.387029613565
 20
-23417.79310803642
 30
0.0
 40
14.0
  0
CIRCLE
  5
16882
330
1F
100
AcDbEntity
  8
BALARDO-Profil
 48
2.0
100
AcDbCircle
 10
2484.387029613565
 20
-23417.79310803642
 30
0.0
 40
14.0
  0
CIRCLE
  5
16883
330
1F
100
AcDbEntity
  8
BALARDO-Profil
 48
2.0
100
AcDbCircle
 10
2584.387029613565
 20
-23417.79310803642
 30
0.0
 40
14.0
  0
CIRCLE
  5
16884
330
1F
100
AcDbEntity
  8
BALARDO-Profil
 48
2.0
100
AcDbCircle
 10
2684.387029613565
 20
-23417.79310803642
 30
0.0
 40
14.0
  0
CIRCLE
  5
16885
330
1F
100
AcDbEntity
  8
BALARDO-Profil
 48
2.0
100
AcDbCircle
 10
2784.387029613565
 20
-23417.79310803642
 30
0.0
 40
14.0
  0
CIRCLE
  5
16886
330
1F
100
AcDbEntity
  8
BALARDO-Profil
 48
2.0
100
AcDbCircle
 10
2884.387029613565
 20
-23417.79310803642
 30
0.0
 40
14.0
  0
CIRCLE
  5
16887
330
1F
100
AcDbEntity
  8
BALARDO-Profil
 48
2.0
100
AcDbCircle
 10
2984.387029613565
 20
-23417.79310803642
 30
0.0
 40
14.0
  0
CIRCLE
  5
16888
330
1F
100
AcDbEntity
  8
BALARDO-Profil
 48
2.0
100
AcDbCircle
 10
3084.387029613565
 20
-23417.79310803642
 30
0.0
 40
14.0
  0
CIRCLE
  5
16889
330
1F
100
AcDbEntity
  8
BALARDO-Profil
 48
2.0
100
AcDbCircle
 10
3184.387029613565
 20
-23417.79310803642
 30
0.0
 40
14.0
  0
CIRCLE
  5
1688A
330
1F
100
AcDbEntity
  8
BALARDO-Profil
 48
2.0
100
AcDbCircle
 10
3284.387029613565
 20
-23417.79310803642
 30
0.0
 40
14.0
  0
CIRCLE
  5
1688B
330
1F
100
AcDbEntity
  8
BALARDO-Profil
 48
2.0
100
AcDbCircle
 10
3384.387029613565
 20
-23417.79310803642
 30
0.0
 40
14.0
  0
CIRCLE
  5
1688C
330
1F
100
AcDbEntity
  8
BALARDO-Profil
 48
2.0
100
AcDbCircle
 10
3484.387029613565
 20
-23417.79310803642
 30
0.0
 40
14.0
  0
CIRCLE
  5
1688D
330
1F
100
AcDbEntity
  8
BALARDO-Profil
 48
2.0
100
AcDbCircle
 10
3584.387029613565
 20
-23417.79310803642
 30
0.0
 40
14.0
  0
CIRCLE
  5
1688E
330
1F
100
AcDbEntity
  8
BALARDO-Profil
 48
2.0
100
AcDbCircle
 10
3684.387029613565
 20
-23417.79310803642
 30
0.0
 40
14.0
  0
CIRCLE
  5
1688F
330
1F
100
AcDbEntity
  8
BALARDO-Profil
 48
2.0
100
AcDbCircle
 10
3784.387029613565
 20
-23417.79310803642
 30
0.0
 40
14.0
  0
CIRCLE
  5
16890
330
1F
100
AcDbEntity
  8
BALARDO-Profil
 48
2.0
100
AcDbCircle
 10
3884.387029613565
 20
-23417.79310803642
 30
0.0
 40
14.0
  0
CIRCLE
  5
16891
330
1F
100
AcDbEntity
  8
BALARDO-Profil
 48
2.0
100
AcDbCircle
 10
3984.387029613565
 20
-23417.79310803642
 30
0.0
 40
14.0
  0
CIRCLE
  5
16892
330
1F
100
AcDbEntity
  8
BALARDO-Profil
 48
2.0
100
AcDbCircle
 10
4084.387029613565
 20
-23417.79310803642
 30
0.0
 40
14.0
  0
CIRCLE
  5
16893
330
1F
100
AcDbEntity
  8
BALARDO-Profil
 48
2.0
100
AcDbCircle
 10
4184.387029613565
 20
-23417.79310803642
 30
0.0
 40
14.0
  0
CIRCLE
  5
16894
330
1F
100
AcDbEntity
  8
BALARDO-Profil
 48
2.0
100
AcDbCircle
 10
4284.387029613564
 20
-23417.79310803642
 30
0.0
 40
14.0
  0
CIRCLE
  5
16895
330
1F
100
AcDbEntity
  8
BALARDO-Profil
 48
2.0
100
AcDbCircle
 10
4384.387029613565
 20
-23417.79310803642
 30
0.0
 40
14.0
  0
CIRCLE
  5
16896
330
1F
100
AcDbEntity
  8
BALARDO-Profil
 48
2.0
100
AcDbCircle
 10
4484.387029613564
 20
-23417.79310803642
 30
0.0
 40
14.0
  0
CIRCLE
  5
16897
330
1F
100
AcDbEntity
  8
BALARDO-Profil
 48
2.0
100
AcDbCircle
 10
4584.387029613565
 20
-23417.79310803642
 30
0.0
 40
14.0
  0
CIRCLE
  5
16898
330
1F
100
AcDbEntity
  8
BALARDO-Profil
 48
2.0
100
AcDbCircle
 10
4684.387029613565
 20
-23417.79310803642
 30
0.0
 40
14.0
  0
CIRCLE
  5
16899
330
1F
100
AcDbEntity
  8
BALARDO-Profil
 48
2.0
100
AcDbCircle
 10
4784.387029613564
 20
-23417.79310803642
 30
0.0
 40
14.0
  0
CIRCLE
  5
1689A
330
1F
100
AcDbEntity
  8
BALARDO-Profil
 48
2.0
100
AcDbCircle
 10
4884.387029613565
 20
-23417.79310803642
 30
0.0
 40
14.0
  0
CIRCLE
  5
1689B
330
1F
100
AcDbEntity
  8
BALARDO-Profil
 48
2.0
100
AcDbCircle
 10
4984.387029613564
 20
-23417.79310803642
 30
0.0
 40
14.0
  0
ARC
  5
1689C
330
1F
100
AcDbEntity
  8
BALARDO-Profil
 48
2.0
100
AcDbCircle
 10
2184.387029613573
 20
-22720.59269846329
 30
0.0
 40
8.0
100
AcDbArc
 50
180.0
 51
0.0
  0
LINE
  5
1689D
330
1F
100
AcDbEntity
  8
BALARDO-Profil
 48
2.0
100
AcDbLine
 10
2176.387029613573
 20
-22720.59269846329
 30
0.0
 11
2176.387029613573
 21
-22700.59269846329
 31
0.0
  0
ARC
  5
1689E
330
1F
100
AcDbEntity
  8
BALARDO-Profil
 48
2.0
100
AcDbCircle
 10
2184.387029613573
 20
-22700.59269846329
 30
0.0
 40
8.0
100
AcDbArc
 50
0.0
 51
180.0
  0
LINE
  5
1689F
330
1F
100
AcDbEntity
  8
BALARDO-Profil
 48
2.0
100
AcDbLine
 10
2192.387029613573
 20
-22700.59269846329
 30
0.0
 11
2192.387029613573
 21
-22720.59269846329
 31
0.0
  0
ARC
  5
168A0
330
1F
100
AcDbEntity
  8
BALARDO-Profil
 48
2.0
100
AcDbCircle
 10
2284.387029613573
 20
-22720.59269846329
 30
0.0
 40
8.0
100
AcDbArc
 50
180.0
 51
0.0
  0
LINE
  5
168A1
330
1F
100
AcDbEntity
  8
BALARDO-Profil
 48
2.0
100
AcDbLine
 10
2276.387029613573
 20
-22720.59269846329
 30
0.0
 11
2276.387029613573
 21
-22700.59269846329
 31
0.0
  0
ARC
  5
168A2
330
1F
100
AcDbEntity
  8
BALARDO-Profil
 48
2.0
100
AcDbCircle
 10
2284.387029613573
 20
-22700.59269846329
 30
0.0
 40
8.0
100
AcDbArc
 50
0.0
 51
180.0
  0
LINE
  5
168A3
330
1F
100
AcDbEntity
  8
BALARDO-Profil
 48
2.0
100
AcDbLine
 10
2292.387029613573
 20
-22700.59269846329
 30
0.0
 11
2292.387029613573
 21
-22720.59269846329
 31
0.0
  0
ARC
  5
168A4
330
1F
100
AcDbEntity
  8
BALARDO-Profil
 48
2.0
100
AcDbCircle
 10
2384.387029613574
 20
-22720.59269846329
 30
0.0
 40
8.0
100
AcDbArc
 50
180.0
 51
0.0
  0
LINE
  5
168A5
330
1F
100
AcDbEntity
  8
BALARDO-Profil
 48
2.0
100
AcDbLine
 10
2376.387029613573
 20
-22720.59269846329
 30
0.0
 11
2376.387029613573
 21
-22700.59269846329
 31
0.0
  0
ARC
  5
168A6
330
1F
100
AcDbEntity
  8
BALARDO-Profil
 48
2.0
100
AcDbCircle
 10
2384.387029613574
 20
-22700.59269846329
 30
0.0
 40
8.0
100
AcDbArc
 50
0.0
 51
180.0
  0
LINE
  5
168A7
330
1F
100
AcDbEntity
  8
BALARDO-Profil
 48
2.0
100
AcDbLine
 10
2392.387029613573
 20
-22700.59269846329
 30
0.0
 11
2392.387029613573
 21
-22720.59269846329
 31
0.0
  0
ARC
  5
168A8
330
1F
100
AcDbEntity
  8
BALARDO-Profil
 48
2.0
100
AcDbCircle
 10
2484.387029613574
 20
-22720.59269846329
 30
0.0
 40
8.0
100
AcDbArc
 50
180.0
 51
0.0
  0
LINE
  5
168A9
330
1F
100
AcDbEntity
  8
BALARDO-Profil
 48
2.0
100
AcDbLine
 10
2476.387029613574
 20
-22720.59269846329
 30
0.0
 11
2476.387029613574
 21
-22700.59269846329
 31
0.0
  0
ARC
  5
168AA
330
1F
100
AcDbEntity
  8
BALARDO-Profil
 48
2.0
100
AcDbCircle
 10
2484.387029613574
 20
-22700.59269846329
 30
0.0
 40
8.0
100
AcDbArc
 50
0.0
 51
180.0
  0
LINE
  5
168AB
330
1F
100
AcDbEntity
  8
BALARDO-Profil
 48
2.0
100
AcDbLine
 10
2492.387029613573
 20
-22700.59269846329
 30
0.0
 11
2492.387029613573
 21
-22720.59269846329
 31
0.0
  0
ARC
  5
168AC
330
1F
100
AcDbEntity
  8
BALARDO-Profil
 48
2.0
100
AcDbCircle
 10
2584.387029613573
 20
-22720.59269846329
 30
0.0
 40
8.0
100
AcDbArc
 50
180.0
 51
0.0
  0
LINE
  5
168AD
330
1F
100
AcDbEntity
  8
BALARDO-Profil
 48
2.0
100
AcDbLine
 10
2576.387029613574
 20
-22720.59269846329
 30
0.0
 11
2576.387029613574
 21
-22700.59269846329
 31
0.0
  0
ARC
  5
168AE
330
1F
100
AcDbEntity
  8
BALARDO-Profil
 48
2.0
100
AcDbCircle
 10
2584.387029613573
 20
-22700.59269846329
 30
0.0
 40
8.0
100
AcDbArc
 50
0.0
 51
180.0
  0
LINE
  5
168AF
330
1F
100
AcDbEntity
  8
BALARDO-Profil
 48
2.0
100
AcDbLine
 10
2592.387029613573
 20
-22700.59269846329
 30
0.0
 11
2592.387029613573
 21
-22720.59269846329
 31
0.0
  0
ARC
  5
168B0
330
1F
100
AcDbEntity
  8
BALARDO-Profil
 48
2.0
100
AcDbCircle
 10
2684.387029613573
 20
-22720.59269846329
 30
0.0
 40
8.0
100
AcDbArc
 50
180.0
 51
0.0
  0
LINE
  5
168B1
330
1F
100
AcDbEntity
  8
BALARDO-Profil
 48
2.0
100
AcDbLine
 10
2676.387029613574
 20
-22720.59269846329
 30
0.0
 11
2676.387029613574
 21
-22700.59269846329
 31
0.0
  0
ARC
  5
168B2
330
1F
100
AcDbEntity
  8
BALARDO-Profil
 48
2.0
100
AcDbCircle
 10
2684.387029613573
 20
-22700.59269846329
 30
0.0
 40
8.0
100
AcDbArc
 50
0.0
 51
180.0
  0
LINE
  5
168B3
330
1F
100
AcDbEntity
  8
BALARDO-Profil
 48
2.0
100
AcDbLine
 10
2692.387029613573
 20
-22700.59269846329
 30
0.0
 11
2692.387029613573
 21
-22720.59269846329
 31
0.0
  0
ARC
  5
168B4
330
1F
100
AcDbEntity
  8
BALARDO-Profil
 48
2.0
100
AcDbCircle
 10
2784.387029613573
 20
-22720.59269846329
 30
0.0
 40
8.0
100
AcDbArc
 50
180.0
 51
0.0
  0
LINE
  5
168B5
330
1F
100
AcDbEntity
  8
BALARDO-Profil
 48
2.0
100
AcDbLine
 10
2776.387029613573
 20
-22720.59269846329
 30
0.0
 11
2776.387029613573
 21
-22700.59269846329
 31
0.0
  0
ARC
  5
168B6
330
1F
100
AcDbEntity
  8
BALARDO-Profil
 48
2.0
100
AcDbCircle
 10
2784.387029613573
 20
-22700.59269846329
 30
0.0
 40
8.0
100
AcDbArc
 50
0.0
 51
180.0
  0
LINE
  5
168B7
330
1F
100
AcDbEntity
  8
BALARDO-Profil
 48
2.0
100
AcDbLine
 10
2792.387029613573
 20
-22700.59269846329
 30
0.0
 11
2792.387029613573
 21
-22720.59269846329
 31
0.0
  0
ARC
  5
168B8
330
1F
100
AcDbEntity
  8
BALARDO-Profil
 48
2.0
100
AcDbCircle
 10
2884.387029613574
 20
-22720.59269846329
 30
0.0
 40
8.0
100
AcDbArc
 50
180.0
 51
0.0
  0
LINE
  5
168B9
330
1F
100
AcDbEntity
  8
BALARDO-Profil
 48
2.0
100
AcDbLine
 10
2876.387029613574
 20
-22720.59269846329
 30
0.0
 11
2876.387029613574
 21
-22700.59269846329
 31
0.0
  0
ARC
  5
168BA
330
1F
100
AcDbEntity
  8
BALARDO-Profil
 48
2.0
100
AcDbCircle
 10
2884.387029613574
 20
-22700.59269846329
 30
0.0
 40
8.0
100
AcDbArc
 50
0.0
 51
180.0
  0
LINE
  5
168BB
330
1F
100
AcDbEntity
  8
BALARDO-Profil
 48
2.0
100
AcDbLine
 10
2892.387029613573
 20
-22700.59269846329
 30
0.0
 11
2892.387029613573
 21
-22720.59269846329
 31
0.0
  0
ARC
  5
168BC
330
1F
100
AcDbEntity
  8
BALARDO-Profil
 48
2.0
100
AcDbCircle
 10
2984.387029613574
 20
-22720.59269846329
 30
0.0
 40
8.0
100
AcDbArc
 50
180.0
 51
0.0
  0
LINE
  5
168BD
330
1F
100
AcDbEntity
  8
BALARDO-Profil
 48
2.0
100
AcDbLine
 10
2976.387029613574
 20
-22720.59269846329
 30
0.0
 11
2976.387029613574
 21
-22700.59269846329
 31
0.0
  0
ARC
  5
168BE
330
1F
100
AcDbEntity
  8
BALARDO-Profil
 48
2.0
100
AcDbCircle
 10
2984.387029613574
 20
-22700.59269846329
 30
0.0
 40
8.0
100
AcDbArc
 50
0.0
 51
180.0
  0
LINE
  5
168BF
330
1F
100
AcDbEntity
  8
BALARDO-Profil
 48
2.0
100
AcDbLine
 10
2992.387029613573
 20
-22700.59269846329
 30
0.0
 11
2992.387029613573
 21
-22720.59269846329
 31
0.0
  0
ARC
  5
168C0
330
1F
100
AcDbEntity
  8
BALARDO-Profil
 48
2.0
100
AcDbCircle
 10
3084.387029613573
 20
-22720.59269846329
 30
0.0
 40
8.0
100
AcDbArc
 50
180.0
 51
0.0
  0
LINE
  5
168C1
330
1F
100
AcDbEntity
  8
BALARDO-Profil
 48
2.0
100
AcDbLine
 10
3076.387029613574
 20
-22720.59269846329
 30
0.0
 11
3076.387029613574
 21
-22700.59269846329
 31
0.0
  0
ARC
  5
168C2
330
1F
100
AcDbEntity
  8
BALARDO-Profil
 48
2.0
100
AcDbCircle
 10
3084.387029613573
 20
-22700.59269846329
 30
0.0
 40
8.0
100
AcDbArc
 50
0.0
 51
180.0
  0
LINE
  5
168C3
330
1F
100
AcDbEntity
  8
BALARDO-Profil
 48
2.0
100
AcDbLine
 10
3092.387029613574
 20
-22700.59269846329
 30
0.0
 11
3092.387029613574
 21
-22720.59269846329
 31
0.0
  0
ARC
  5
168C4
330
1F
100
AcDbEntity
  8
BALARDO-Profil
 48
2.0
100
AcDbCircle
 10
3184.387029613573
 20
-22720.59269846329
 30
0.0
 40
8.0
100
AcDbArc
 50
180.0
 51
0.0
  0
LINE
  5
168C5
330
1F
100
AcDbEntity
  8
BALARDO-Profil
 48
2.0
100
AcDbLine
 10
3176.387029613574
 20
-22720.59269846329
 30
0.0
 11
3176.387029613574
 21
-22700.59269846329
 31
0.0
  0
ARC
  5
168C6
330
1F
100
AcDbEntity
  8
BALARDO-Profil
 48
2.0
100
AcDbCircle
 10
3184.387029613573
 20
-22700.59269846329
 30
0.0
 40
8.0
100
AcDbArc
 50
0.0
 51
180.0
  0
LINE
  5
168C7
330
1F
100
AcDbEntity
  8
BALARDO-Profil
 48
2.0
100
AcDbLine
 10
3192.387029613574
 20
-22700.59269846329
 30
0.0
 11
3192.387029613574
 21
-22720.59269846329
 31
0.0
  0
ARC
  5
168C8
330
1F
100
AcDbEntity
  8
BALARDO-Profil
 48
2.0
100
AcDbCircle
 10
3284.387029613573
 20
-22720.59269846329
 30
0.0
 40
8.0
100
AcDbArc
 50
180.0
 51
0.0
  0
LINE
  5
168C9
330
1F
100
AcDbEntity
  8
BALARDO-Profil
 48
2.0
100
AcDbLine
 10
3276.387029613573
 20
-22720.59269846329
 30
0.0
 11
3276.387029613573
 21
-22700.59269846329
 31
0.0
  0
ARC
  5
168CA
330
1F
100
AcDbEntity
  8
BALARDO-Profil
 48
2.0
100
AcDbCircle
 10
3284.387029613573
 20
-22700.59269846329
 30
0.0
 40
8.0
100
AcDbArc
 50
0.0
 51
180.0
  0
LINE
  5
168CB
330
1F
100
AcDbEntity
  8
BALARDO-Profil
 48
2.0
100
AcDbLine
 10
3292.387029613573
 20
-22700.59269846329
 30
0.0
 11
3292.387029613573
 21
-22720.59269846329
 31
0.0
  0
ARC
  5
168CC
330
1F
100
AcDbEntity
  8
BALARDO-Profil
 48
2.0
100
AcDbCircle
 10
3384.387029613574
 20
-22720.59269846329
 30
0.0
 40
8.0
100
AcDbArc
 50
180.0
 51
0.0
  0
LINE
  5
168CD
330
1F
100
AcDbEntity
  8
BALARDO-Profil
 48
2.0
100
AcDbLine
 10
3376.387029613574
 20
-22720.59269846329
 30
0.0
 11
3376.387029613574
 21
-22700.59269846329
 31
0.0
  0
ARC
  5
168CE
330
1F
100
AcDbEntity
  8
BALARDO-Profil
 48
2.0
100
AcDbCircle
 10
3384.387029613574
 20
-22700.59269846329
 30
0.0
 40
8.0
100
AcDbArc
 50
0.0
 51
180.0
  0
LINE
  5
168CF
330
1F
100
AcDbEntity
  8
BALARDO-Profil
 48
2.0
100
AcDbLine
 10
3392.387029613573
 20
-22700.59269846329
 30
0.0
 11
3392.387029613573
 21
-22720.59269846329
 31
0.0
  0
ARC
  5
168D0
330
1F
100
AcDbEntity
  8
BALARDO-Profil
 48
2.0
100
AcDbCircle
 10
3484.387029613574
 20
-22720.59269846329
 30
0.0
 40
8.0
100
AcDbArc
 50
180.0
 51
0.0
  0
LINE
  5
168D1
330
1F
100
AcDbEntity
  8
BALARDO-Profil
 48
2.0
100
AcDbLine
 10
3476.387029613574
 20
-22720.59269846329
 30
0.0
 11
3476.387029613574
 21
-22700.59269846329
 31
0.0
  0
ARC
  5
168D2
330
1F
100
AcDbEntity
  8
BALARDO-Profil
 48
2.0
100
AcDbCircle
 10
3484.387029613574
 20
-22700.59269846329
 30
0.0
 40
8.0
100
AcDbArc
 50
0.0
 51
180.0
  0
LINE
  5
168D3
330
1F
100
AcDbEntity
  8
BALARDO-Profil
 48
2.0
100
AcDbLine
 10
3492.387029613573
 20
-22700.59269846329
 30
0.0
 11
3492.387029613573
 21
-22720.59269846329
 31
0.0
  0
ARC
  5
168D4
330
1F
100
AcDbEntity
  8
BALARDO-Profil
 48
2.0
100
AcDbCircle
 10
3584.387029613573
 20
-22720.59269846329
 30
0.0
 40
8.0
100
AcDbArc
 50
180.0
 51
0.0
  0
LINE
  5
168D5
330
1F
100
AcDbEntity
  8
BALARDO-Profil
 48
2.0
100
AcDbLine
 10
3576.387029613574
 20
-22720.59269846329
 30
0.0
 11
3576.387029613574
 21
-22700.59269846329
 31
0.0
  0
ARC
  5
168D6
330
1F
100
AcDbEntity
  8
BALARDO-Profil
 48
2.0
100
AcDbCircle
 10
3584.387029613573
 20
-22700.59269846329
 30
0.0
 40
8.0
100
AcDbArc
 50
0.0
 51
180.0
  0
LINE
  5
168D7
330
1F
100
AcDbEntity
  8
BALARDO-Profil
 48
2.0
100
AcDbLine
 10
3592.387029613573
 20
-22700.59269846329
 30
0.0
 11
3592.387029613573
 21
-22720.59269846329
 31
0.0
  0
ARC
  5
168D8
330
1F
100
AcDbEntity
  8
BALARDO-Profil
 48
2.0
100
AcDbCircle
 10
3684.387029613573
 20
-22720.59269846329
 30
0.0
 40
8.0
100
AcDbArc
 50
180.0
 51
0.0
  0
LINE
  5
168D9
330
1F
100
AcDbEntity
  8
BALARDO-Profil
 48
2.0
100
AcDbLine
 10
3676.387029613574
 20
-22720.59269846329
 30
0.0
 11
3676.387029613574
 21
-22700.59269846329
 31
0.0
  0
ARC
  5
168DA
330
1F
100
AcDbEntity
  8
BALARDO-Profil
 48
2.0
100
AcDbCircle
 10
3684.387029613573
 20
-22700.59269846329
 30
0.0
 40
8.0
100
AcDbArc
 50
0.0
 51
180.0
  0
LINE
  5
168DB
330
1F
100
AcDbEntity
  8
BALARDO-Profil
 48
2.0
100
AcDbLine
 10
3692.387029613573
 20
-22700.59269846329
 30
0.0
 11
3692.387029613573
 21
-22720.59269846329
 31
0.0
  0
ARC
  5
168DC
330
1F
100
AcDbEntity
  8
BALARDO-Profil
 48
2.0
100
AcDbCircle
 10
3784.387029613573
 20
-22720.59269846329
 30
0.0
 40
8.0
100
AcDbArc
 50
180.0
 51
0.0
  0
LINE
  5
168DD
330
1F
100
AcDbEntity
  8
BALARDO-Profil
 48
2.0
100
AcDbLine
 10
3776.387029613573
 20
-22720.59269846329
 30
0.0
 11
3776.387029613573
 21
-22700.59269846329
 31
0.0
  0
ARC
  5
168DE
330
1F
100
AcDbEntity
  8
BALARDO-Profil
 48
2.0
100
AcDbCircle
 10
3784.387029613573
 20
-22700.59269846329
 30
0.0
 40
8.0
100
AcDbArc
 50
0.0
 51
180.0
  0
LINE
  5
168DF
330
1F
100
AcDbEntity
  8
BALARDO-Profil
 48
2.0
100
AcDbLine
 10
3792.387029613573
 20
-22700.59269846329
 30
0.0
 11
3792.387029613573
 21
-22720.59269846329
 31
0.0
  0
ARC
  5
168E0
330
1F
100
AcDbEntity
  8
BALARDO-Profil
 48
2.0
100
AcDbCircle
 10
3884.387029613574
 20
-22720.59269846329
 30
0.0
 40
8.0
100
AcDbArc
 50
180.0
 51
0.0
  0
LINE
  5
168E1
330
1F
100
AcDbEntity
  8
BALARDO-Profil
 48
2.0
100
AcDbLine
 10
3876.387029613574
 20
-22720.59269846329
 30
0.0
 11
3876.387029613574
 21
-22700.59269846329
 31
0.0
  0
ARC
  5
168E2
330
1F
100
AcDbEntity
  8
BALARDO-Profil
 48
2.0
100
AcDbCircle
 10
3884.387029613574
 20
-22700.59269846329
 30
0.0
 40
8.0
100
AcDbArc
 50
0.0
 51
180.0
  0
LINE
  5
168E3
330
1F
100
AcDbEntity
  8
BALARDO-Profil
 48
2.0
100
AcDbLine
 10
3892.387029613573
 20
-22700.59269846329
 30
0.0
 11
3892.387029613573
 21
-22720.59269846329
 31
0.0
  0
ARC
  5
168E4
330
1F
100
AcDbEntity
  8
BALARDO-Profil
 48
2.0
100
AcDbCircle
 10
3984.387029613574
 20
-22720.59269846329
 30
0.0
 40
8.0
100
AcDbArc
 50
180.0
 51
0.0
  0
LINE
  5
168E5
330
1F
100
AcDbEntity
  8
BALARDO-Profil
 48
2.0
100
AcDbLine
 10
3976.387029613574
 20
-22720.59269846329
 30
0.0
 11
3976.387029613574
 21
-22700.59269846329
 31
0.0
  0
ARC
  5
168E6
330
1F
100
AcDbEntity
  8
BALARDO-Profil
 48
2.0
100
AcDbCircle
 10
3984.387029613574
 20
-22700.59269846329
 30
0.0
 40
8.0
100
AcDbArc
 50
0.0
 51
180.0
  0
LINE
  5
168E7
330
1F
100
AcDbEntity
  8
BALARDO-Profil
 48
2.0
100
AcDbLine
 10
3992.387029613573
 20
-22700.59269846329
 30
0.0
 11
3992.387029613573
 21
-22720.59269846329
 31
0.0
  0
ARC
  5
168E8
330
1F
100
AcDbEntity
  8
BALARDO-Profil
 48
2.0
100
AcDbCircle
 10
4084.387029613574
 20
-22720.59269846329
 30
0.0
 40
8.0
100
AcDbArc
 50
180.0
 51
0.0
  0
LINE
  5
168E9
330
1F
100
AcDbEntity
  8
BALARDO-Profil
 48
2.0
100
AcDbLine
 10
4076.387029613573
 20
-22720.59269846329
 30
0.0
 11
4076.387029613573
 21
-22700.59269846329
 31
0.0
  0
ARC
  5
168EA
330
1F
100
AcDbEntity
  8
BALARDO-Profil
 48
2.0
100
AcDbCircle
 10
4084.387029613574
 20
-22700.59269846329
 30
0.0
 40
8.0
100
AcDbArc
 50
0.0
 51
180.0
  0
LINE
  5
168EB
330
1F
100
AcDbEntity
  8
BALARDO-Profil
 48
2.0
100
AcDbLine
 10
4092.387029613574
 20
-22700.59269846329
 30
0.0
 11
4092.387029613574
 21
-22720.59269846329
 31
0.0
  0
ARC
  5
168EC
330
1F
100
AcDbEntity
  8
BALARDO-Profil
 48
2.0
100
AcDbCircle
 10
4184.387029613573
 20
-22720.59269846329
 30
0.0
 40
8.0
100
AcDbArc
 50
180.0
 51
0.0
  0
LINE
  5
168ED
330
1F
100
AcDbEntity
  8
BALARDO-Profil
 48
2.0
100
AcDbLine
 10
4176.387029613573
 20
-22720.59269846329
 30
0.0
 11
4176.387029613573
 21
-22700.59269846329
 31
0.0
  0
ARC
  5
168EE
330
1F
100
AcDbEntity
  8
BALARDO-Profil
 48
2.0
100
AcDbCircle
 10
4184.387029613573
 20
-22700.59269846329
 30
0.0
 40
8.0
100
AcDbArc
 50
0.0
 51
180.0
  0
LINE
  5
168EF
330
1F
100
AcDbEntity
  8
BALARDO-Profil
 48
2.0
100
AcDbLine
 10
4192.387029613573
 20
-22700.59269846329
 30
0.0
 11
4192.387029613573
 21
-22720.59269846329
 31
0.0
  0
ARC
  5
168F0
330
1F
100
AcDbEntity
  8
BALARDO-Profil
 48
2.0
100
AcDbCircle
 10
4284.387029613574
 20
-22720.59269846329
 30
0.0
 40
8.0
100
AcDbArc
 50
180.0
 51
0.0
  0
LINE
  5
168F1
330
1F
100
AcDbEntity
  8
BALARDO-Profil
 48
2.0
100
AcDbLine
 10
4276.387029613573
 20
-22720.59269846329
 30
0.0
 11
4276.387029613573
 21
-22700.59269846329
 31
0.0
  0
ARC
  5
168F2
330
1F
100
AcDbEntity
  8
BALARDO-Profil
 48
2.0
100
AcDbCircle
 10
4284.387029613574
 20
-22700.59269846329
 30
0.0
 40
8.0
100
AcDbArc
 50
0.0
 51
180.0
  0
LINE
  5
168F3
330
1F
100
AcDbEntity
  8
BALARDO-Profil
 48
2.0
100
AcDbLine
 10
4292.387029613574
 20
-22700.59269846329
 30
0.0
 11
4292.387029613574
 21
-22720.59269846329
 31
0.0
  0
ARC
  5
168F4
330
1F
100
AcDbEntity
  8
BALARDO-Profil
 48
2.0
100
AcDbCircle
 10
4384.387029613574
 20
-22720.59269846329
 30
0.0
 40
8.0
100
AcDbArc
 50
180.0
 51
0.0
  0
LINE
  5
168F5
330
1F
100
AcDbEntity
  8
BALARDO-Profil
 48
2.0
100
AcDbLine
 10
4376.387029613574
 20
-22720.59269846329
 30
0.0
 11
4376.387029613574
 21
-22700.59269846329
 31
0.0
  0
ARC
  5
168F6
330
1F
100
AcDbEntity
  8
BALARDO-Profil
 48
2.0
100
AcDbCircle
 10
4384.387029613574
 20
-22700.59269846329
 30
0.0
 40
8.0
100
AcDbArc
 50
0.0
 51
180.0
  0
LINE
  5
168F7
330
1F
100
AcDbEntity
  8
BALARDO-Profil
 48
2.0
100
AcDbLine
 10
4392.387029613574
 20
-22700.59269846329
 30
0.0
 11
4392.387029613574
 21
-22720.59269846329
 31
0.0
  0
ARC
  5
168F8
330
1F
100
AcDbEntity
  8
BALARDO-Profil
 48
2.0
100
AcDbCircle
 10
4484.387029613574
 20
-22720.59269846329
 30
0.0
 40
8.0
100
AcDbArc
 50
180.0
 51
0.0
  0
LINE
  5
168F9
330
1F
100
AcDbEntity
  8
BALARDO-Profil
 48
2.0
100
AcDbLine
 10
4476.387029613573
 20
-22720.59269846329
 30
0.0
 11
4476.387029613573
 21
-22700.59269846329
 31
0.0
  0
ARC
  5
168FA
330
1F
100
AcDbEntity
  8
BALARDO-Profil
 48
2.0
100
AcDbCircle
 10
4484.387029613574
 20
-22700.59269846329
 30
0.0
 40
8.0
100
AcDbArc
 50
0.0
 51
180.0
  0
LINE
  5
168FB
330
1F
100
AcDbEntity
  8
BALARDO-Profil
 48
2.0
100
AcDbLine
 10
4492.387029613573
 20
-22700.59269846329
 30
0.0
 11
4492.387029613573
 21
-22720.59269846329
 31
0.0
  0
ARC
  5
168FC
330
1F
100
AcDbEntity
  8
BALARDO-Profil
 48
2.0
100
AcDbCircle
 10
4584.387029613574
 20
-22720.59269846329
 30
0.0
 40
8.0
100
AcDbArc
 50
180.0
 51
0.0
  0
LINE
  5
168FD
330
1F
100
AcDbEntity
  8
BALARDO-Profil
 48
2.0
100
AcDbLine
 10
4576.387029613573
 20
-22720.59269846329
 30
0.0
 11
4576.387029613573
 21
-22700.59269846329
 31
0.0
  0
ARC
  5
168FE
330
1F
100
AcDbEntity
  8
BALARDO-Profil
 48
2.0
100
AcDbCircle
 10
4584.387029613574
 20
-22700.59269846329
 30
0.0
 40
8.0
100
AcDbArc
 50
0.0
 51
180.0
  0
LINE
  5
168FF
330
1F
100
AcDbEntity
  8
BALARDO-Profil
 48
2.0
100
AcDbLine
 10
4592.387029613574
 20
-22700.59269846329
 30
0.0
 11
4592.387029613574
 21
-22720.59269846329
 31
0.0
  0
ARC
  5
16900
330
1F
100
AcDbEntity
  8
BALARDO-Profil
 48
2.0
100
AcDbCircle
 10
4684.387029613573
 20
-22720.59269846329
 30
0.0
 40
8.0
100
AcDbArc
 50
180.0
 51
0.0
  0
LINE
  5
16901
330
1F
100
AcDbEntity
  8
BALARDO-Profil
 48
2.0
100
AcDbLine
 10
4676.387029613573
 20
-22720.59269846329
 30
0.0
 11
4676.387029613573
 21
-22700.59269846329
 31
0.0
  0
ARC
  5
16902
330
1F
100
AcDbEntity
  8
BALARDO-Profil
 48
2.0
100
AcDbCircle
 10
4684.387029613573
 20
-22700.59269846329
 30
0.0
 40
8.0
100
AcDbArc
 50
0.0
 51
180.0
  0
LINE
  5
16903
330
1F
100
AcDbEntity
  8
BALARDO-Profil
 48
2.0
100
AcDbLine
 10
4692.387029613573
 20
-22700.59269846329
 30
0.0
 11
4692.387029613573
 21
-22720.59269846329
 31
0.0
  0
ARC
  5
16904
330
1F
100
AcDbEntity
  8
BALARDO-Profil
 48
2.0
100
AcDbCircle
 10
4784.387029613574
 20
-22720.59269846329
 30
0.0
 40
8.0
100
AcDbArc
 50
180.0
 51
0.0
  0
LINE
  5
16905
330
1F
100
AcDbEntity
  8
BALARDO-Profil
 48
2.0
100
AcDbLine
 10
4776.387029613573
 20
-22720.59269846329
 30
0.0
 11
4776.387029613573
 21
-22700.59269846329
 31
0.0
  0
ARC
  5
16906
330
1F
100
AcDbEntity
  8
BALARDO-Profil
 48
2.0
100
AcDbCircle
 10
4784.387029613574
 20
-22700.59269846329
 30
0.0
 40
8.0
100
AcDbArc
 50
0.0
 51
180.0
  0
LINE
  5
16907
330
1F
100
AcDbEntity
  8
BALARDO-Profil
 48
2.0
100
AcDbLine
 10
4792.387029613574
 20
-22700.59269846329
 30
0.0
 11
4792.387029613574
 21
-22720.59269846329
 31
0.0
  0
ARC
  5
16908
330
1F
100
AcDbEntity
  8
BALARDO-Profil
 48
2.0
100
AcDbCircle
 10
4884.387029613574
 20
-22720.59269846329
 30
0.0
 40
8.0
100
AcDbArc
 50
180.0
 51
0.0
  0
LINE
  5
16909
330
1F
100
AcDbEntity
  8
BALARDO-Profil
 48
2.0
100
AcDbLine
 10
4876.387029613574
 20
-22720.59269846329
 30
0.0
 11
4876.387029613574
 21
-22700.59269846329
 31
0.0
  0
ARC
  5
1690A
330
1F
100
AcDbEntity
  8
BALARDO-Profil
 48
2.0
100
AcDbCircle
 10
4884.387029613574
 20
-22700.59269846329
 30
0.0
 40
8.0
100
AcDbArc
 50
0.0
 51
180.0
  0
LINE
  5
1690B
330
1F
100
AcDbEntity
  8
BALARDO-Profil
 48
2.0
100
AcDbLine
 10
4892.387029613574
 20
-22700.59269846329
 30
0.0
 11
4892.387029613574
 21
-22720.59269846329
 31
0.0
  0
ARC
  5
1690C
330
1F
100
AcDbEntity
  8
BALARDO-Profil
 48
2.0
100
AcDbCircle
 10
4984.387029613574
 20
-22720.59269846329
 30
0.0
 40
8.0
100
AcDbArc
 50
180.0
 51
0.0
  0
LINE
  5
1690D
330
1F
100
AcDbEntity
  8
BALARDO-Profil
 48
2.0
100
AcDbLine
 10
4976.387029613573
 20
-22720.59269846329
 30
0.0
 11
4976.387029613573
 21
-22700.59269846329
 31
0.0
  0
ARC
  5
1690E
330
1F
100
AcDbEntity
  8
BALARDO-Profil
 48
2.0
100
AcDbCircle
 10
4984.387029613574
 20
-22700.59269846329
 30
0.0
 40
8.0
100
AcDbArc
 50
0.0
 51
180.0
  0
LINE
  5
1690F
330
1F
100
AcDbEntity
  8
BALARDO-Profil
 48
2.0
100
AcDbLine
 10
4992.387029613574
 20
-22700.59269846329
 30
0.0
 11
4992.387029613574
 21
-22720.59269846329
 31
0.0
  0
MTEXT
  5
16F40
330
1F
100
AcDbEntity
  8
-TEXT2
100
AcDbMText
 10
3564.476637199847
 20
-22071.32575514225
 30
0.0
 40
100.0
 41
724.6738926319373
 71
     2
 72
     5
  1
Side 1 HD
 73
     1
 44
1.0
1001
ACAD
1000
ACAD_MTEXT_DEFINED_HEIGHT_BEGIN
1070
    46
1040
125.6610970359991
1000
ACAD_MTEXT_DEFINED_HEIGHT_END
  0
MTEXT
  5
16F41
330
1F
100
AcDbEntity
  8
-TEXT2
100
AcDbMText
 10
3590.560986345741
 20
-22447.96750481857
 30
0.0
 40
50.0
 41
989.5110238432705
 71
     5
 72
     5
  1
hinten Langloch 16 x 36 mm
 73
     1
 44
1.0
1001
ACAD
1000
ACAD_MTEXT_DEFINED_HEIGHT_BEGIN
1070
    46
1040
102.1387822706275
1000
ACAD_MTEXT_DEFINED_HEIGHT_END
  0
MTEXT
  5
16F42
330
1F
100
AcDbEntity
  8
-TEXT2
100
AcDbMText
 10
3525.841128949038
 20
-23290.55124496971
 30
0.0
 40
50.0
 41
989.5110238432705
 71
     5
 72
     5
  1
vorne %%C28 mm
 73
     1
 44
1.0
1001
ACAD
1000
ACAD_MTEXT_DEFINED_HEIGHT_BEGIN
1070
    46
1040
102.1387822706275
1000
ACAD_MTEXT_DEFINED_HEIGHT_END
  0
LWPOLYLINE
  5
1731C
330
1F
100
AcDbEntity
  8
-TEXT
100
AcDbPolyline
 90
        4
 70
     1
 43
0.0
 10
1575.488486746188
 20
-24414.76035779489
 10
5151.488486746188
 20
-24414.76035779489
 10
5151.488486746188
 20
-21894.76035779489
 10
1575.488486746188
 20
-21894.76035779489
  0
DIMENSION
  5
17341
330
1F
100
AcDbEntity
  8
-TEXT3
100
AcDbDimension
  2
*D276
 10
3497.947142951561
 20
-22728.59269846329
 30
0.0
 11
3497.947142951564
 21
-22606.0572277948
 31
0.0
 70
   160
 71
     5
 42
36.0
  3
Kopie von 1-1
100
AcDbAlignedDimension
 13
3384.387029613574
 23
-22692.59269846329
 33
0.0
 14
3384.387029613574
 24
-22728.59269846329
 34
0.0
 50
90.0
100
AcDbRotatedDimension
  0
DIMENSION
  5
17342
330
1F
100
AcDbEntity
  8
-TEXT3
100
AcDbDimension
  2
*D277
 10
3376.387029613574
 20
-22641.17829505127
 30
0.0
 11
3291.159880909617
 21
-22616.38225139507
 31
0.0
 70
    32
 71
     5
 42
16.0
  3
Kopie von 1-1
100
AcDbAlignedDimension
 13
3392.387029613573
 23
-22700.59269846329
 33
0.0
 14
3376.387029613574
 24
-22700.59269846329
 34
0.0
100
AcDbRotatedDimension
  0
DIMENSION
  5
17375
330
1F
100
AcDbEntity
  8
-TEXT3
100
AcDbDimension
  2
*D278
 10
3772.931316995189
 20
-23425.84088092121
 30
0.0
 11
3914.665857639608
 21
-23326.27069868688
 31
0.0
 70
   163
 71
     5
 42
27.99999999999637
  3
Kopie von 1-1
100
AcDbDiametricDimension
 15
3795.842742231942
 25
-23409.74533515164
 35
0.0
 40
0.0
1001
ACAD
1000
DSTYLE
1002
{
1070
   288
1070
     1
1002
}
  0
DIMENSION
  5
17397
330
1F
100
AcDbEntity
  8
-TEXT3
100
AcDbDimension
  2
*D279
 10
1945.142595909019
 20
-22710.59269846328
 30
0.0
 11
1920.585297136854
 21
-22746.59269846329
 31
0.0
 70
    32
 71
     5
 42
72.0
  3
Kopie von 1-1
100
AcDbAlignedDimension
 13
2034.387029613565
 23
-22782.59269846329
 33
0.0
 14
2034.387029613565
 24
-22710.59269846328
 34
0.0
 50
90.0
100
AcDbRotatedDimension
  0
DIMENSION
  5
173BA
330
1F
100
AcDbEntity
  8
-TEXT3
100
AcDbDimension
  2
*D280
 10
1713.380668157677
 20
-22858.32570025747
 30
0.0
 11
1677.380668157677
 21
-22833.7684014853
 31
0.0
 70
    32
 71
     5
 42
72.0
  3
Kopie von 1-1
100
AcDbAlignedDimension
 13
1641.380668157677
 23
-22782.09269846329
 33
0.0
 14
1713.380668157677
 24
-22780.06504350055
 34
0.0
100
AcDbRotatedDimension
  0
DIMENSION
  5
17922
330
1F
100
AcDbEntity
  8
-TEXT3
100
AcDbDimension
  2
*D282
 10
1982.932886986069
 20
-23472.79310803643
 30
275.000137499999
 11
1982.932886986073
 21
-23575.02980653574
 31
275.000137499999
 70
   160
 71
     5
 42
17.0
  3
Kopie von 1-1
100
AcDbAlignedDimension
 13
2034.387029613565
 23
-23489.79310803643
 33
0.0
 14
2034.387029613565
 24
-23472.79310803643
 34
0.0
 50
90.0
100
AcDbRotatedDimension
  0
DIMENSION
  5
17923
330
1F
100
AcDbEntity
  8
-TEXT3
100
AcDbDimension
  2
*D283
 10
1880.005154794897
 20
-23361.29213687033
 30
275.000137499999
 11
1855.209111138693
 21
-23425.54262245338
 31
275.000137499999
 70
    32
 71
     5
 42
128.5009711660896
  3
Kopie von 1-1
100
AcDbAlignedDimension
 13
2034.387029613565
 23
-23489.79310803643
 33
0.0
 14
2034.387029613565
 24
-23361.29213687033
 34
0.0
 50
90.0
100
AcDbRotatedDimension
  0
DIMENSION
  5
17924
330
1F
100
AcDbEntity
  8
-TEXT3
100
AcDbDimension
  2
*D281
 10
1945.142595909019
 20
-23417.79310803643
 30
0.0
 11
1920.585297136854
 21
-23453.79310803643
 31
0.0
 70
    32
 71
     5
 42
72.0
  3
Kopie von 1-1
100
AcDbAlignedDimension
 13
2034.387029613565
 23
-23489.79310803643
 33
0.0
 14
2034.387029613565
 24
-23417.79310803643
 34
0.0
 50
90.0
100
AcDbRotatedDimension
  0
LWPOLYLINE
  5
17A62
330
1F
100
AcDbEntity
  8
-TEXT
100
AcDbPolyline
 90
        5
 70
     0
 43
0.0
 10
3200.408695406427
 20
-24414.76035779489
 10
5151.488486746188
 20
-24414.76035779489
 10
5151.488486746188
 20
-23834.70960901821
 10
3200.408695406427
 20
-23834.70960901821
 10
3200.408695406427
 20
-24414.76035779489
  0
LINE
  5
17A63
330
1F
100
AcDbEntity
  8
-ZEICHNUNGSRAND-INNEN
100
AcDbLine
 10
3200.408695406427
 20
-24177.46686965897
 30
0.0
 11
5151.488486746188
 21
-24177.46686965897
 31
0.0
  0
LINE
  5
17A64
330
1F
100
AcDbEntity
  8
-ZEICHNUNGSRAND-INNEN
100
AcDbLine
 10
3200.408695406427
 20
-24256.56469903761
 30
0.0
 11
5151.488486746188
 21
-24256.56469903761
 31
0.0
  0
MTEXT
  5
17A65
330
1F
100
AcDbEntity
  8
-TEXT2
100
AcDbMText
 10
4396.466519081331
 20
-24220.3066477669
 30
0.0
 40
30.0
 41
1497.554942463246
 71
     5
 72
     5
  1
Geländersystem BALARDO ALU HD
 73
     1
 44
1.0
1001
ACAD
1000
ACAD_MTEXT_DEFINED_HEIGHT_BEGIN
1070
    46
1040
0.0
1000
ACAD_MTEXT_DEFINED_HEIGHT_END
  0
TEXT
  5
17A66
330
1F
100
AcDbEntity
  8
-TEXT3
100
AcDbText
 10
3206.420130439197
 20
-24286.62187420149
 30
0.0
 40
18.78573447742676
  1
(Benennung)
 41
0.8
  7
LOGOCAD
100
AcDbText
  0
LINE
  5
17A67
330
1F
100
AcDbEntity
  8
-TEXT3
100
AcDbLine
 10
3200.408695406427
 20
-24216.64501327308
 30
0.0
 11
3639.994882178231
 21
-24216.64501327308
 31
0.0
  0
TEXT
  5
17A68
330
1F
100
AcDbEntity
  8
-TEXT3
100
AcDbText
 10
3206.420130439219
 20
-24246.70218843696
 30
0.0
 40
18.78573447742676
  1
Bearb.
 41
0.8
  7
LOGOCAD
100
AcDbText
  0
MTEXT
  5
17A69
330
1F
100
AcDbEntity
  8
-TEXT2
100
AcDbMText
 10
3821.330459623962
 20
-24340.97830193552
 30
0.0
 40
30.0
 41
1139.138175864111
 71
     5
 72
     5
  1
Zur Seitenmontage
 73
     1
 44
1.0
1001
ACAD
1000
ACAD_MTEXT_DEFINED_HEIGHT_BEGIN
1070
    46
1040
0.0
1000
ACAD_MTEXT_DEFINED_HEIGHT_END
  0
MTEXT
  5
17A6A
330
1F
100
AcDbEntity
  8
-TEXT3
100
AcDbMText
 10
3309.106726254576
 20
-24234.4476299762
 30
0.0
 40
23.7293488135917
 41
324.0414358610254
 71
     4
 72
     5
  1
03.11.16     Mall
 73
     1
 44
1.0
1001
ACAD
1000
ACAD_MTEXT_DEFINED_HEIGHT_BEGIN
1070
    46
1040
0.0
1000
ACAD_MTEXT_DEFINED_HEIGHT_END
  0
TEXT
  5
17A6B
330
1F
100
AcDbEntity
  8
-TEXT3
100
AcDbText
 10
3304.105949721823
 20
-24206.78250267243
 30
0.0
 40
18.78573447742676
  1
Datum
 41
0.8
  7
LOGOCAD
100
AcDbText
  0
LINE
  5
17A6C
330
1F
100
AcDbEntity
  8
-TEXT3
100
AcDbLine
 10
3298.094514689037
 20
-24176.72532750855
 30
0.0
 11
3298.094514689037
 21
-24256.56469903761
 31
0.0
  0
LINE
  5
17A6D
330
1F
100
AcDbEntity
  8
-TEXT3
100
AcDbLine
 10
3444.62324361298
 20
-24176.72532750855
 30
0.0
 11
3444.62324361298
 21
-24256.56469903761
 31
0.0
  0
TEXT
  5
17A6E
330
1F
100
AcDbEntity
  8
-TEXT3
100
AcDbText
 10
3450.634678645766
 20
-24206.78250267243
 30
0.0
 40
18.78573447742676
  1
Name
 41
0.8
  7
LOGOCAD
100
AcDbText
  0
LINE
  5
17A6F
330
1F
100
AcDbEntity
  8
-TEXT
100
AcDbLine
 10
3639.994882178231
 20
-24256.56469903761
 30
0.0
 11
3639.994882178231
 21
-24177.46686965897
 31
0.0
  0
LINE
  5
17A70
330
1F
100
AcDbEntity
  8
-ZEICHNUNGSRAND-INNEN
100
AcDbLine
 10
4142.08476976418
 20
-23834.70960901821
 30
0.0
 11
4142.08476976418
 21
-24177.46686965897
 31
0.0
  0
LINE
  5
17A71
330
1F
100
AcDbEntity
  8
-TEXT2
100
AcDbLine
 10
4321.159022843931
 20
-24256.56469903761
 30
0.0
 11
4321.159022843931
 21
-24414.76035779489
 31
0.0
  0
MTEXT
  5
17A72
330
1F
100
AcDbEntity
  8
-TEXT2
100
AcDbMText
 10
4686.740721017629
 20
-24341.23728527864
 30
0.0
 40
30.0
 41
485.8151193699405
 71
     5
 72
     5
  1
Systemprofil Side 1 HD
 73
     1
 44
1.0
1001
ACAD
1000
ACAD_MTEXT_DEFINED_HEIGHT_BEGIN
1070
    46
1040
0.0
1000
ACAD_MTEXT_DEFINED_HEIGHT_END
  0
MTEXT
  5
17A75
330
1F
100
AcDbEntity
  8
-TEXT2
100
AcDbMText
 10
4411.218445035578
 20
-23845.87847968646
 30
0.0
 40
58.1580886400464
 41
1096.061878032474
 71
     1
 72
     5
  1
{\fCentury Gothic|b0|i0|c0|p34;\P\fArial|b0|i0|c0|p34;\H0.625x;Industriestraße 7-8\P74740 Adelsheim\P\H0.8x;\C2;Tel.: 06291-6259-0\PFax: 06291-6259-11}
 73
     1
 44
1.0
1001
ACAD
1000
ACAD_MTEXT_DEFINED_HEIGHT_BEGIN
1070
    46
1040
0.0
1000
ACAD_MTEXT_DEFINED_HEIGHT_END
  0
IMAGE
  5
17A76
330
1F
100
AcDbEntity
  8
-TEXT3
 92
      140
310
8C00000001000000840000000600000005000000608C6BBD3C21B140B2158BD1FE61D7C00000000000000000608C6BBD3C21B1407DDF1D293D47D7C00000000000000000AA72BDCA941CB3407DDF1D293D47D7C00000000000000000AA72BDCA941CB340B2158BD1FE61D7C00000000000000000608C6BBD3C21B140B2158B
310
D1FE61D7C00000000000000000
100
AcDbRasterImage
 90
        0
 10
4385.237265321513
 20
-23943.98153950804
 30
0.0
 11
1.0290952398496
 21
0.0
 31
0.0
 12
0.0000000000000001
 22
1.0290952398496
 32
0.0
 13
493.0
 23
104.0
340
17996
 70
     7
280
     0
281
    50
282
    50
283
     0
360
17A77
 71
     1
 91
        2
 14
-0.5
 24
-0.5
 14
492.4999999999999
 24
103.5
  0
MTEXT
  5
17A79
330
1F
100
AcDbEntity
  8
-TEXT2
100
AcDbMText
 10
3226.286814916031
 20
-24005.03562237368
 30
0.0
 40
31.6391317514556
 41
1018.170453773077
 71
     4
 72
     5
  1
Alle Rechte vorbehalten, einschließlich des\PVervielfälltigens, Einlesens auf elektronischen\PDatenträgern und die Weitergabe an dritte\PPersonen nur nach ausdrücklicher\PGenehmigung der Firma Glassline GmbH
 73
     1
 44
1.0
1001
ACAD
1000
ACAD_MTEXT_DEFINED_HEIGHT_BEGIN
1070
    46
1040
0.0
1000
ACAD_MTEXT_DEFINED_HEIGHT_END
  0
MTEXT
  5
17A7A
330
1F
100
AcDbEntity
  8
-TEXT2
100
AcDbMText
 10
1801.853507492254
 20
-24152.92770959523
 30
0.0
 40
40.0
 41
1445.765655579647
 71
     4
 72
     5
  1
Material:^IAluminium\POberflächen:^I"natur" unbehandelt\P^I^IEdelstahleffekt (E6/EV1)\P^I^IPremium Edelstahloptik geschliffen
 73
     1
 44
1.0
1001
ACAD
1000
ACAD_MTEXT_DEFINED_HEIGHT_BEGIN
1070
    46
1040
0.0
1000
ACAD_MTEXT_DEFINED_HEIGHT_END
  0
ENDSEC
  0
SECTION
  2
OBJECTS
  0
DICTIONARY
  5
C
330
0
100
AcDbDictionary
281
     1
  3
ACAD_COLOR
350
480
  3
ACAD_GROUP
350
D
  3
ACAD_IMAGE_DICT
350
17995
  3
ACAD_IMAGE_VARS
350
17998
  3
ACAD_LAYOUT
350
1A
  3
ACAD_MATERIAL
350
467
  3
ACAD_MLEADERSTYLE
350
462
  3
ACAD_MLINESTYLE
350
17
  3
ACAD_PLOTSETTINGS
350
19
  3
ACAD_PLOTSTYLENAME
350
E
  3
ACAD_SCALELIST
350
3B
  3
ACAD_TABLESTYLE
350
481
  3
ACAD_VISUALSTYLE
350
2A
  3
ACDB_RECOMPOSE_DATA
350
525
  3
AcDbVariableDictionary
350
460
  3
AEC_CLASSIFICATION_SYSTEM_DEFS
350
24F0
  3
AEC_PROPERTY_SET_DEFS
350
893
  3
ASE_INDEX_DICTIONARY
350
114E4
  3
Ks_BoltRefDictionary
350
4A1
  3
Ks_HoleDisplayRefDictionary
350
4EB
  3
Ks_KoteFlagRefDictionary
350
4D8
  3
Ks_PartFamilyDictionary
350
890
  3
Ks_PosFlagRefDictionary
350
4DB
  3
Ks_ShapeRefDictionary
350
4EF
  3
Ks_WeldRefDictionary
350
4C8
  3
Ks_XRecordDictionary
350
4EC
  3
PsLizControl
350
488
  0
DICTIONARY
  5
526
330
8
100
AcDbDictionary
280
     1
281
     1
  3
ACAD_XREC_ROUNDTRIP
360
2286
  0
DICTIONARY
  5
7C6
330
2
100
AcDbDictionary
280
     1
281
     1
  3
ACAD_LAYERSTATES
360
7C7
  0
DICTIONARY
  5
4F0
330
10
100
AcDbDictionary
280
     1
281
     1
  3
ADSK_XREC_LAYER_RECONCILED
360
4F1
  0
DICTIONARY
  5
6401
330
6400
100
AcDbDictionary
280
     1
281
     1
  3
ACAD_XREC_ROUNDTRIP
360
6402
  0
DICTIONARY
  5
1324
330
1F
100
AcDbDictionary
280
     1
281
     1
  3
ACAD_SORTENTS
360
137B
  0
IMAGEDEF_REACTOR
  5
17A77
330
17A76
100
AcDbRasterImageDefReactor
 90
        2
330
17A76
  0
DICTIONARY
  5
480
102
{ACAD_REACTORS
330
C
102
}
330
C
100
AcDbDictionary
281
     1
  0
DICTIONARY
  5
D
102
{ACAD_REACTORS
330
C
102
}
330
C
100
AcDbDictionary
281
     1
  0
DICTIONARY
  5
17995
102
{ACAD_REACTORS
330
C
102
}
330
C
100
AcDbDictionary
281
     1
  3
Glassline_Logo_RGB_72dpi
350
17996
  0
RASTERVARIABLES
  5
17998
102
{ACAD_REACTORS
330
C
102
}
330
C
100
AcDbRasterVariables
 90
        0
 70
     0
 71
     1
 72
     1
  0
DICTIONARY
  5
1A
102
{ACAD_REACTORS
330
C
102
}
330
C
100
AcDbDictionary
281
     1
  3
Layout1
350
1E
  3
Model
350
22
  0
DICTIONARY
  5
467
102
{ACAD_REACTORS
330
C
102
}
330
C
100
AcDbDictionary
281
     1
  3
ByBlock
350
470
  3
ByLayer
350
468
  3
Global
350
478
  0
DICTIONARY
  5
462
102
{ACAD_REACTORS
330
C
102
}
330
C
100
AcDbDictionary
281
     1
  3
Standard
350
483
  0
DICTIONARY
  5
17
102
{ACAD_REACTORS
330
C
102
}
330
C
100
AcDbDictionary
281
     1
  3
Standard
350
18
  0
DICTIONARY
  5
19
102
{ACAD_REACTORS
330
C
102
}
330
C
100
AcDbDictionary
281
     1
  0
ACDBDICTIONARYWDFLT
  5
E
102
{ACAD_REACTORS
330
C
102
}
330
C
100
AcDbDictionary
281
     1
  3
Normal
350
F
100
AcDbDictionaryWithDefault
340
F
  0
DICTIONARY
  5
3B
102
{ACAD_REACTORS
330
C
102
}
330
C
100
AcDbDictionary
281
     1
  3
A0
350
3C
  3
A1
350
3D
  3
A2
350
3E
  3
A3
350
3F
  3
A4
350
40
  3
A5
350
41
  3
A6
350
42
  3
A7
350
43
  3
A8
350
44
  3
A9
350
45
  3
B0
350
46
  3
B1
350
47
  3
B2
350
48
  3
B3
350
49
  3
B4
350
4A
  3
B5
350
4B
  3
B6
350
4C
  3
B7
350
4D
  3
B8
350
4E
  3
B9
350
4F
  3
C0
350
50
  3
C1
350
51
  3
C2
350
52
  3
C3
350
53
  3
C4
350
54
  3
C5
350
55
  3
C6
350
56
  3
C7
350
57
  3
C8
350
58
  3
C9
350
59
  3
D0
350
5A
  3
D1
350
5B
  3
D2
350
5C
  0
DICTIONARY
  5
481
102
{ACAD_REACTORS
330
C
102
}
330
C
100
AcDbDictionary
281
     1
  3
Standard
350
482
  0
DICTIONARY
  5
2A
102
{ACAD_REACTORS
330
C
102
}
330
C
100
AcDbDictionary
281
     1
  3
2dWireframe
350
2F
  3
3D Hidden
350
31
  3
3dWireframe
350
30
  3
Basic
350
32
  3
Brighten
350
36
  3
ColorChange
350
3A
  3
Conceptual
350
34
  3
Dim
350
35
  3
Facepattern
350
39
  3
Flat
350
2B
  3
FlatWithEdges
350
2C
  3
Gouraud
350
2D
  3
GouraudWithEdges
350
2E
  3
Linepattern
350
38
  3
Realistic
350
33
  3
Thicken
350
37
  0
XRECORD
  5
525
102
{ACAD_REACTORS
330
C
102
}
330
C
100
AcDbXrecord
280
     1
 90
        1
330
482
  0
DICTIONARY
  5
460
102
{ACAD_REACTORS
330
C
102
}
330
C
100
AcDbDictionary
281
     1
  3
CANNOSCALE
350
465
  3
CMLEADERSTYLE
350
52D
  3
CTABLESTYLE
350
52C
  3
LAYEREVAL
350
224A
  3
LAYERNOTIFY
350
224B
  3
LIGHTINGUNITS
350
2249
  3
MSLTSCALE
350
2248
  3
PSOLHEIGHT
350
228C
  3
PSOLWIDTH
350
228B
  0
DICTIONARY
  5
24F0
102
{ACAD_REACTORS
330
C
102
}
330
C
100
AcDbDictionary
281
     1
  0
DICTIONARY
  5
893
102
{ACAD_REACTORS
330
C
102
}
330
C
100
AcDbDictionary
281
     1
  0
DICTIONARY
  5
114E4
102
{ACAD_REACTORS
330
C
102
}
330
C
100
AcDbDictionary
281
     1
  3
ASEBlockHierarchyIndexRecord
350
114E5
1001
DCO15
1040
1746859877.692
  0
DICTIONARY
  5
4A1
102
{ACAD_REACTORS
330
C
102
}
330
C
100
AcDbDictionary
280
     1
281
     1
  3
4.6S
360
4AF
  3
4.6S-GALV
360
4B0
  3
8.8S
360
4B1
  3
8.8S-GALV
360
4B7
  3
8.8TB
360
4B2
  3
8.8TB-GALV
360
4B3
  3
8.8TF
360
4B4
  3
8.8TF-GALV
360
4B5
  3
A307 FIELD
360
4B8
  3
A307 SHOP
360
4B9
  3
A325 FIELD
360
4BA
  3
A325 SHOP
360
4BB
  3
A490 FIELD
360
4BC
  3
A490 SHOP
360
4BD
  3
CN_B
360
4BE
  3
CN_C
360
4BF
  3
CN_GQ8.8
360
4C1
  3
DIN558
360
4AB
  3
DIN601
360
4AC
  3
DIN6914
360
4A3
  3
DIN7968
360
4A7
  3
DIN7969
360
4A8
  3
DIN7984
360
4AA
  3
DIN7990
360
4A2
  3
DIN7991
360
4A6
  3
DIN7999
360
4A9
  3
DIN912
360
4AD
  3
DIN931
360
4A4
  3
DIN933
360
4A5
  3
DIN965
360
4AE
  3
Gewindestange
360
4B6
  0
DICTIONARY
  5
4EB
102
{ACAD_REACTORS
330
C
102
}
330
C
100
AcDbDictionary
280
     1
281
     1
  0
DICTIONARY
  5
4D8
102
{ACAD_REACTORS
330
C
102
}
330
C
100
AcDbDictionary
280
     1
281
     1
  3
Dreiecke
360
4DA
  3
Standard
360
4D9
  0
DICTIONARY
  5
890
102
{ACAD_REACTORS
330
C
102
}
330
C
100
AcDbDictionary
280
     1
281
     1
  0
DICTIONARY
  5
4DB
102
{ACAD_REACTORS
330
C
102
}
330
C
100
AcDbDictionary
280
     1
281
     1
  3
Assembly
360
4E9
  3
Baugruppe
360
4EA
  3
Baugruppenhauptteil
360
4DD
  3
Baugruppennebenteil
360
4E0
  3
Baugruppenteil
360
4E5
  3
BG-Übersicht
360
4E6
  3
Einzelteil
360
4E7
  3
Einzelteile
360
4DC
  3
Kurzposition
360
4E1
  3
Montage
360
4E3
  3
Polyplatten
360
4DF
  3
Schraube
360
4E2
  3
Sonderprofile
360
4DE
  3
Standard
360
4E4
  3
SubGruppe
360
4E8
  0
DICTIONARY
  5
4EF
102
{ACAD_REACTORS
330
C
102
}
330
C
100
AcDbDictionary
280
     1
281
     1
  0
DICTIONARY
  5
4C8
102
{ACAD_REACTORS
330
C
102
}
330
C
100
AcDbDictionary
280
     1
281
     1
  3
HU-Naht
360
1AD4
  3
HV-Naht
360
4CB
  3
HY-Naht
360
4CC
  3
I-Naht
360
4CD
  3
K-Naht
360
1AD5
  3
Kehl 3mm
360
4CE
  3
Kehl 4mm
360
4CF
  3
Kehl 5mm
360
4D0
  3
Kehl-Naht
360
1AD6
  3
Kehlnaht
360
4C9
  3
Linien-Naht
360
4D1
  3
Loch-Naht
360
4D2
  3
Punkt-Naht
360
4D3
  3
Standard
360
4D4
  3
U- Naht
360
4D5
  3
V-Naht
360
4CA
  3
X-Naht
360
4D6
  3
Y-Naht
360
4D7
  0
DICTIONARY
  5
4EC
102
{ACAD_REACTORS
330
C
102
}
330
C
100
AcDbDictionary
281
     1
  3
KS_MEASUREMENT
350
4ED
  3
PsAreaDictionary_17
350
891
  3
PsHideDictionary_17
350
892
  3
PsSCreenSettings
350
522
  0
DICTIONARY
  5
488
102
{ACAD_REACTORS
330
C
102
}
330
C
100
AcDbDictionary
281
     1
  3
0
350
489
  0
XRECORD
  5
2286
102
{ACAD_REACTORS
330
526
102
}
330
526
100
AcDbXrecord
280
     1
102
VTR_0.000_0.000_1.000_1.000_VISUALSTYLE
340
2F
102
VTR_0.000_0.000_1.000_1.000_GRIDDISPLAY
 70
     3
102
VTR_0.000_0.000_1.000_1.000_GRIDMAJOR
 70
     5
102
VTR_0.000_0.000_1.000_1.000_DEFAULTLIGHTING
280
     1
102
VTR_0.000_0.000_1.000_1.000_DEFAULTLIGHTINGTYPE
 70
     1
102
VTR_0.000_0.000_1.000_1.000_BRIGHTNESS
141
0.0
102
VTR_0.000_0.000_1.000_1.000_CONTRAST
142
0.0
  0
DICTIONARY
  5
7C7
102
{ACAD_REACTORS
330
7C6
102
}
330
7C6
100
AcDbDictionary
281
     1
  0
XRECORD
  5
4F1
102
{ACAD_REACTORS
330
4F0
102
}
330
4F0
100
AcDbXrecord
280
     1
290
     1
  0
XRECORD
  5
6402
102
{ACAD_REACTORS
330
6401
102
}
330
6401
100
AcDbXrecord
280
     1
102
MATERIAL
340
478
  0
SORTENTSTABLE
  5
137B
102
{ACAD_REACTORS
330
1324
102
}
330
1324
100
AcDbSortentsTable
330
1F
  0
IMAGEDEF
  5
17996
102
{ACAD_REACTORS
330
17995
330
179C8
330
179E1
330
179FA
330
17A13
330
17A2C
330
17A45
330
17A5E
330
17A77
330
18F6E
102
}
330
17995
100
AcDbRasterImageDef
 90
        0
  1
T:\Marketing\Öffentlich\Logo\Glassline_Logo_RGB_72dpi.jpg
 10
493.0
 20
104.0
 11
0.3527777777777778
 21
0.3527777777777778
280
     1
281
     5
  0
LAYOUT
  5
1E
102
{ACAD_REACTORS
330
1A
102
}
330
1A
100
AcDbPlotSettings
  1

  2
none_device
  4

  6

 40
0.0
 41
0.0
 42
0.0
 43
0.0
 44
0.0
 45
0.0
 46
0.0
 47
0.0
 48
0.0
 49
0.0
140
0.0
141
0.0
142
1.0
143
1.0
 70
   688
 72
     0
 73
     0
 74
     5
  7
brüstung.ctb
 75
    16
147
1.0
 76
     0
 77
     2
 78
   300
148
0.0
149
0.0
100
AcDbLayout
  1
Layout1
 70
     1
 71
     1
 10
0.0
 20
0.0
 11
420.0
 21
297.0
 12
0.0
 22
0.0
 32
0.0
 14
0.0
 24
0.0
 34
0.0
 15
420.0
 25
297.0
 35
0.0
146
0.0
 13
0.0
 23
0.0
 33
0.0
 16
1.0
 26
0.0
 36
0.0
 17
0.0
 27
1.0
 37
0.0
 76
     0
330
1B
  0
LAYOUT
  5
22
102
{ACAD_REACTORS
330
1A
102
}
330
1A
100
AcDbPlotSettings
  1

  2
Adobe PDF
  4
A4
  6

 40
3.174999952316284
 41
3.174999952316284
 42
3.175003051757812
 43
3.17498779296875
 44
209.9098358154297
 45
297.0318298339844
 46
0.0
 47
73.61681887927471
 48
2075.510975939371
 49
357.1149598522916
140
2390.510975939371
141
804.1149598522915
142
1.0
143
2.195914556553241
 70
 11956
 72
     1
 73
     1
 74
     4
  7
brüstung.ctb
 75
     0
147
0.4553911248576189
 76
     0
 77
     2
 78
   300
148
-2075.510975939371
149
-357.1149598522916
100
AcDbLayout
  1
Model
 70
     1
 71
     0
 10
0.0
 20
0.0
 11
420.0
 21
297.0
 12
0.0
 22
0.0
 32
0.0
 14
0.0
 24
0.0
 34
0.0
 15
420.0
 25
297.0
 35
0.0
146
0.0
 13
0.0
 23
0.0
 33
0.0
 16
1.0
 26
0.0
 36
0.0
 17
0.0
 27
1.0
 37
0.0
 76
     0
330
1F
1001
ACAD_PSEXT
1000
Adobe PDF
1000
Adobe PDF Converter
1000
Eigene Dateien
1000

1070
     0
  0
MATERIAL
  5
470
102
{ACAD_XDICTIONARY
360
471
102
}
102
{ACAD_REACTORS
330
467
102
}
330
467
100
AcDbMaterial
  1
ByBlock
 72
     0
 73
     2
 43
0.0008202099737533
 43
0.0
 43
0.0
 43
0.0
 43
0.0
 43
0.0008202099737533
 43
0.0
 43
0.0
 43
0.0
 43
0.0
 43
1.0
 43
0.0
 43
0.0
 43
0.0
 43
0.0
 43
1.0
 77
     0
 78
     2
 47
0.0008202099737533
 47
0.0
 47
0.0
 47
0.0
 47
0.0
 47
0.0008202099737533
 47
0.0
 47
0.0
 47
0.0
 47
0.0
 47
1.0
 47
0.0
 47
0.0
 47
0.0
 47
0.0
 47
1.0
171
     0
172
     2
 49
0.0008202099737533
 49
0.0
 49
0.0
 49
0.0
 49
0.0
 49
0.0008202099737533
 49
0.0
 49
0.0
 49
0.0
 49
0.0
 49
1.0
 49
0.0
 49
0.0
 49
0.0
 49
0.0
 49
1.0
175
     0
176
     2
142
0.0008202099737533
142
0.0
142
0.0
142
0.0
142
0.0
142
0.0008202099737533
142
0.0
142
0.0
142
0.0
142
0.0
142
1.0
142
0.0
142
0.0
142
0.0
142
0.0
142
1.0
179
     0
270
     2
144
0.0008202099737533
144
0.0
144
0.0
144
0.0
144
0.0
144
0.0008202099737533
144
0.0
144
0.0
144
0.0
144
0.0
144
1.0
144
0.0
144
0.0
144
0.0
144
0.0
144
1.0
274
     2
147
0.0008202099737533
147
0.0
147
0.0
147
0.0
147
0.0
147
0.0008202099737533
147
0.0
147
0.0
147
0.0
147
0.0
147
1.0
147
0.0
147
0.0
147
0.0
147
0.0
147
1.0
  0
MATERIAL
  5
468
102
{ACAD_XDICTIONARY
360
469
102
}
102
{ACAD_REACTORS
330
467
102
}
330
467
100
AcDbMaterial
  1
ByLayer
 72
     0
 73
     2
 43
0.0008202099737533
 43
0.0
 43
0.0
 43
0.0
 43
0.0
 43
0.0008202099737533
 43
0.0
 43
0.0
 43
0.0
 43
0.0
 43
1.0
 43
0.0
 43
0.0
 43
0.0
 43
0.0
 43
1.0
 77
     0
 78
     2
 47
0.0008202099737533
 47
0.0
 47
0.0
 47
0.0
 47
0.0
 47
0.0008202099737533
 47
0.0
 47
0.0
 47
0.0
 47
0.0
 47
1.0
 47
0.0
 47
0.0
 47
0.0
 47
0.0
 47
1.0
171
     0
172
     2
 49
0.0008202099737533
 49
0.0
 49
0.0
 49
0.0
 49
0.0
 49
0.0008202099737533
 49
0.0
 49
0.0
 49
0.0
 49
0.0
 49
1.0
 49
0.0
 49
0.0
 49
0.0
 49
0.0
 49
1.0
175
     0
176
     2
142
0.0008202099737533
142
0.0
142
0.0
142
0.0
142
0.0
142
0.0008202099737533
142
0.0
142
0.0
142
0.0
142
0.0
142
1.0
142
0.0
142
0.0
142
0.0
142
0.0
142
1.0
179
     0
270
     2
144
0.0008202099737533
144
0.0
144
0.0
144
0.0
144
0.0
144
0.0008202099737533
144
0.0
144
0.0
144
0.0
144
0.0
144
1.0
144
0.0
144
0.0
144
0.0
144
0.0
144
1.0
274
     2
147
0.0008202099737533
147
0.0
147
0.0
147
0.0
147
0.0
147
0.0008202099737533
147
0.0
147
0.0
147
0.0
147
0.0
147
1.0
147
0.0
147
0.0
147
0.0
147
0.0
147
1.0
  0
MATERIAL
  5
478
102
{ACAD_XDICTIONARY
360
479
102
}
102
{ACAD_REACTORS
330
467
102
}
330
467
100
AcDbMaterial
  1
Global
 72
     0
 73
     2
 43
0.0008202099737533
 43
0.0
 43
0.0
 43
0.0
 43
0.0
 43
0.0008202099737533
 43
0.0
 43
0.0
 43
0.0
 43
0.0
 43
1.0
 43
0.0
 43
0.0
 43
0.0
 43
0.0
 43
1.0
 77
     0
 78
     2
 47
0.0008202099737533
 47
0.0
 47
0.0
 47
0.0
 47
0.0
 47
0.0008202099737533
 47
0.0
 47
0.0
 47
0.0
 47
0.0
 47
1.0
 47
0.0
 47
0.0
 47
0.0
 47
0.0
 47
1.0
171
     0
172
     2
 49
0.0008202099737533
 49
0.0
 49
0.0
 49
0.0
 49
0.0
 49
0.0008202099737533
 49
0.0
 49
0.0
 49
0.0
 49
0.0
 49
1.0
 49
0.0
 49
0.0
 49
0.0
 49
0.0
 49
1.0
175
     0
176
     2
142
0.0008202099737533
142
0.0
142
0.0
142
0.0
142
0.0
142
0.0008202099737533
142
0.0
142
0.0
142
0.0
142
0.0
142
1.0
142
0.0
142
0.0
142
0.0
142
0.0
142
1.0
179
     0
270
     2
144
0.0008202099737533
144
0.0
144
0.0
144
0.0
144
0.0
144
0.0008202099737533
144
0.0
144
0.0
144
0.0
144
0.0
144
1.0
144
0.0
144
0.0
144
0.0
144
0.0
144
1.0
274
     2
147
0.0008202099737533
147
0.0
147
0.0
147
0.0
147
0.0
147
0.0008202099737533
147
0.0
147
0.0
147
0.0
147
0.0
147
1.0
147
0.0
147
0.0
147
0.0
147
0.0
147
1.0
  0
ACAD_PROXY_OBJECT
  5
483
102
{ACAD_REACTORS
330
462
102
}
330
462
100
AcDbProxyObject
 90
      499
 91
      508
 95
  4980761
 70
     0
 93
      744
310
40901902A40600000030400FEFFFFFF8000000000000008102B5E8DC0F42B5CFD095374616E646172640000000000000004102405064068000000C1000000000000000410000000000000004102000000304015D90000000000000C03F00
340
14
340
0
340
11
340
0
 94
        0
1001
ACAD_MLEADERVER
1070
     2
  0
MLINESTYLE
  5
18
102
{ACAD_REACTORS
330
17
102
}
330
17
100
AcDbMlineStyle
  2
STANDARD
 70
     0
  3

 62
   256
 51
90.0
 52
90.0
 71
     2
 49
0.5
 62
   256
  6
BYLAYER
 49
-0.5
 62
   256
  6
BYLAYER
  0
ACDBPLACEHOLDER
  5
F
102
{ACAD_REACTORS
330
E
102
}
330
E
  0
ACAD_PROXY_OBJECT
  5
3C
102
{ACAD_REACTORS
330
3B
102
}
330
3B
100
AcDbProxyObject
 90
      499
 91
      502
 95
  4980761
 70
     0
 93
       49
310
904313A3100598
 94
        0
  0
ACAD_PROXY_OBJECT
  5
3D
102
{ACAD_REACTORS
330
3B
102
}
330
3B
100
AcDbProxyObject
 90
      499
 91
      502
 95
  4980761
 70
     0
 93
      113
310
904313A32004000000000000004004
 94
        0
  0
ACAD_PROXY_OBJECT
  5
3E
102
{ACAD_REACTORS
330
3B
102
}
330
3B
100
AcDbProxyObject
 90
      499
 91
      502
 95
  4980761
 70
     0
 93
      113
310
904313A34004000000000000104074
 94
        0
  0
ACAD_PROXY_OBJECT
  5
3F
102
{ACAD_REACTORS
330
3B
102
}
330
3B
100
AcDbProxyObject
 90
      499
 91
      502
 95
  4980761
 70
     0
 93
      113
310
904313A35004000000000000144004
 94
        0
  0
ACAD_PROXY_OBJECT
  5
40
102
{ACAD_REACTORS
330
3B
102
}
330
3B
100
AcDbProxyObject
 90
      499
 91
      502
 95
  4980761
 70
     0
 93
      113
310
904313A38004000000000000204074
 94
        0
  0
ACAD_PROXY_OBJECT
  5
41
102
{ACAD_REACTORS
330
3B
102
}
330
3B
100
AcDbProxyObject
 90
      499
 91
      502
 95
  4980761
 70
     0
 93
      121
310
905313A3130004000000000000244009
 94
        0
  0
ACAD_PROXY_OBJECT
  5
42
102
{ACAD_REACTORS
330
3B
102
}
330
3B
100
AcDbProxyObject
 90
      499
 91
      502
 95
  4980761
 70
     0
 93
      121
310
905313A3136004000000000000304009
 94
        0
  0
ACAD_PROXY_OBJECT
  5
43
102
{ACAD_REACTORS
330
3B
102
}
330
3B
100
AcDbProxyObject
 90
      499
 91
      502
 95
  4980761
 70
     0
 93
      121
310
905313A3230004000000000000344009
 94
        0
  0
ACAD_PROXY_OBJECT
  5
44
102
{ACAD_REACTORS
330
3B
102
}
330
3B
100
AcDbProxyObject
 90
      499
 91
      502
 95
  4980761
 70
     0
 93
      121
310
905313A33300040000000000003E4009
 94
        0
  0
ACAD_PROXY_OBJECT
  5
45
102
{ACAD_REACTORS
330
3B
102
}
330
3B
100
AcDbProxyObject
 90
      499
 91
      502
 95
  4980761
 70
     0
 93
      121
310
905313A3430004000000000000444009
 94
        0
  0
ACAD_PROXY_OBJECT
  5
46
102
{ACAD_REACTORS
330
3B
102
}
330
3B
100
AcDbProxyObject
 90
      499
 91
      502
 95
  4980761
 70
     0
 93
      121
310
905313A3530004000000000000494009
 94
        0
  0
ACAD_PROXY_OBJECT
  5
47
102
{ACAD_REACTORS
330
3B
102
}
330
3B
100
AcDbProxyObject
 90
      499
 91
      502
 95
  4980761
 70
     0
 93
      129
310
906313A313030004000000000000594002
 94
        0
  0
ACAD_PROXY_OBJECT
  5
48
102
{ACAD_REACTORS
330
3B
102
}
330
3B
100
AcDbProxyObject
 90
      499
 91
      502
 95
  4980761
 70
     0
 93
      113
310
904323A31000000000000000010140
 94
        0
  0
ACAD_PROXY_OBJECT
  5
49
102
{ACAD_REACTORS
330
3B
102
}
330
3B
100
AcDbProxyObject
 90
      499
 91
      502
 95
  4980761
 70
     0
 93
      113
310
904343A31000000000000000410140
 94
        0
  0
ACAD_PROXY_OBJECT
  5
4A
102
{ACAD_REACTORS
330
3B
102
}
330
3B
100
AcDbProxyObject
 90
      499
 91
      502
 95
  4980761
 70
     0
 93
      113
310
904383A31000000000000000810100
 94
        0
  0
ACAD_PROXY_OBJECT
  5
4B
102
{ACAD_REACTORS
330
3B
102
}
330
3B
100
AcDbProxyObject
 90
      499
 91
      502
 95
  4980761
 70
     0
 93
      121
310
90531303A31000000000000000910109
 94
        0
  0
ACAD_PROXY_OBJECT
  5
4C
102
{ACAD_REACTORS
330
3B
102
}
330
3B
100
AcDbProxyObject
 90
      499
 91
      502
 95
  4980761
 70
     0
 93
      129
310
9063130303A31000000000000001650100
 94
        0
  0
ACAD_PROXY_OBJECT
  5
4D
102
{ACAD_REACTORS
330
3B
102
}
330
3B
100
AcDbProxyObject
 90
      499
 91
      502
 95
  4980761
 70
     0
 93
      265
310
90F312F31323822203D2031272D302200000000000000200FC000000000000284002
 94
        0
  0
ACAD_PROXY_OBJECT
  5
4E
102
{ACAD_REACTORS
330
3B
102
}
330
3B
100
AcDbProxyObject
 90
      499
 91
      502
 95
  4980761
 70
     0
 93
      257
310
90E312F363422203D2031272D302200000000000000240FC000000000000284000
 94
        0
  0
ACAD_PROXY_OBJECT
  5
4F
102
{ACAD_REACTORS
330
3B
102
}
330
3B
100
AcDbProxyObject
 90
      499
 91
      502
 95
  4980761
 70
     0
 93
      257
310
90E312F333222203D2031272D302200000000000000280FC000000000000284040
 94
        0
  0
ACAD_PROXY_OBJECT
  5
50
102
{ACAD_REACTORS
330
3B
102
}
330
3B
100
AcDbProxyObject
 90
      499
 91
      502
 95
  4980761
 70
     0
 93
      257
310
90E312F313622203D2031272D3022000000000000002C0FC000000000000284000
 94
        0
  0
ACAD_PROXY_OBJECT
  5
51
102
{ACAD_REACTORS
330
3B
102
}
330
3B
100
AcDbProxyObject
 90
      499
 91
      502
 95
  4980761
 70
     0
 93
      257
310
90E332F333222203D2031272D3022000000000000002E0FC000000000000284040
 94
        0
  0
ACAD_PROXY_OBJECT
  5
52
102
{ACAD_REACTORS
330
3B
102
}
330
3B
100
AcDbProxyObject
 90
      499
 91
      502
 95
  4980761
 70
     0
 93
      249
310
90D312F3822203D2031272D302200000000000000300FC000000000000284040
 94
        0
  0
ACAD_PROXY_OBJECT
  5
53
102
{ACAD_REACTORS
330
3B
102
}
330
3B
100
AcDbProxyObject
 90
      499
 91
      502
 95
  4980761
 70
     0
 93
      257
310
90E332F313622203D2031272D302200000000000000320FC000000000000284040
 94
        0
  0
ACAD_PROXY_OBJECT
  5
54
102
{ACAD_REACTORS
330
3B
102
}
330
3B
100
AcDbProxyObject
 90
      499
 91
      502
 95
  4980761
 70
     0
 93
      249
310
90D312F3422203D2031272D302200000000000000340FC000000000000284040
 94
        0
  0
ACAD_PROXY_OBJECT
  5
55
102
{ACAD_REACTORS
330
3B
102
}
330
3B
100
AcDbProxyObject
 90
      499
 91
      502
 95
  4980761
 70
     0
 93
      249
310
90D332F3822203D2031272D302200000000000000360FC000000000000284040
 94
        0
  0
ACAD_PROXY_OBJECT
  5
56
102
{ACAD_REACTORS
330
3B
102
}
330
3B
100
AcDbProxyObject
 90
      499
 91
      502
 95
  4980761
 70
     0
 93
      249
310
90D312F3222203D2031272D302200000000000000380FC000000000000284040
 94
        0
  0
ACAD_PROXY_OBJECT
  5
57
102
{ACAD_REACTORS
330
3B
102
}
330
3B
100
AcDbProxyObject
 90
      499
 91
      502
 95
  4980761
 70
     0
 93
      249
310
90D332F3422203D2031272D3022000000000000003A0FC000000000000284040
 94
        0
  0
ACAD_PROXY_OBJECT
  5
58
102
{ACAD_REACTORS
330
3B
102
}
330
3B
100
AcDbProxyObject
 90
      499
 91
      502
 95
  4980761
 70
     0
 93
      169
310
90B3122203D2031272D3022004000000000000284000
 94
        0
  0
ACAD_PROXY_OBJECT
  5
59
102
{ACAD_REACTORS
330
3B
102
}
330
3B
100
AcDbProxyObject
 90
      499
 91
      502
 95
  4980761
 70
     0
 93
      265
310
90F312D312F3222203D2031272D3022000000000000003E0FC000000000000284002
 94
        0
  0
ACAD_PROXY_OBJECT
  5
5A
102
{ACAD_REACTORS
330
3B
102
}
330
3B
100
AcDbProxyObject
 90
      499
 91
      502
 95
  4980761
 70
     0
 93
      233
310
90B3322203D2031272D30220000000000000002100000000000000284028
 94
        0
  0
ACAD_PROXY_OBJECT
  5
5B
102
{ACAD_REACTORS
330
3B
102
}
330
3B
100
AcDbProxyObject
 90
      499
 91
      502
 95
  4980761
 70
     0
 93
      233
310
90B3622203D2031272D30220000000000000006100000000000000284000
 94
        0
  0
ACAD_PROXY_OBJECT
  5
5C
102
{ACAD_REACTORS
330
3B
102
}
330
3B
100
AcDbProxyObject
 90
      499
 91
      502
 95
  4980761
 70
     0
 93
      257
310
90E31272D3022203D2031272D3022000000000000000A100000000000000284000
 94
        0
  0
TABLESTYLE
  5
482
102
{ACAD_XDICTIONARY
360
523
102
}
102
{ACAD_REACTORS
330
481
102
}
330
481
100
AcDbTableStyle
  3
Standard
 70
     0
 71
     0
 40
1.5
 41
1.5
280
     0
281
     0
  7
Standard
140
4.5
170
     2
 62
     0
 63
     7
283
     0
274
    -2
284
     1
 64
     0
275
    -2
285
     1
 65
     0
276
    -2
286
     1
 66
     0
277
    -2
287
     1
 67
     0
278
    -2
288
     1
 68
     0
279
    -2
289
     1
 69
     0
  7
Standard
140
6.0
170
     5
 62
     0
 63
     7
283
     0
274
    -2
284
     1
 64
     0
275
    -2
285
     1
 65
     0
276
    -2
286
     1
 66
     0
277
    -2
287
     1
 67
     0
278
    -2
288
     1
 68
     0
279
    -2
289
     1
 69
     0
  7
Standard
140
4.5
170
     5
 62
     0
 63
     7
283
     0
274
    -2
284
     1
 64
     0
275
    -2
285
     1
 65
     0
276
    -2
286
     1
 66
     0
277
    -2
287
     1
 67
     0
278
    -2
288
     1
 68
     0
279
    -2
289
     1
 69
     0
  0
ACAD_PROXY_OBJECT
  5
2F
102
{ACAD_REACTORS
330
2A
102
}
330
2A
100
AcDbProxyObject
 90
      499
 91
      501
 95
  4980761
 70
     0
 93
      598
310
430C9915DA5C99599C985B59401049028333333333333E3BF0000000000000FB0201C00030C02405048070000C3008000000C800405A000000320014050640A01C00030C010500920280D2
 94
        0
1001
ACAD
1000
AcDbSavedByObjectVersion
1070
     0
  0
ACAD_PROXY_OBJECT
  5
31
102
{ACAD_REACTORS
330
2A
102
}
330
2A
100
AcDbProxyObject
 90
      499
 91
      501
 95
  4980761
 70
     0
 93
      662
310
428CD108121A5919195B8010640502408333333333333E3BF0000000000000FB0201C00030C02409028070000C3008000000C8004080000000000004440A000000320014050640A01C00030C010300920280D3
 94
        0
1001
ACAD
1000
AcDbSavedByObjectVersion
1070
     0
  0
ACAD_PROXY_OBJECT
  5
30
102
{ACAD_REACTORS
330
2A
102
}
330
2A
100
AcDbProxyObject
 90
      499
 91
      501
 95
  4980761
 70
     0
 93
      598
310
430CD915DA5C99599C985B59401059028333333333333E3BF0000000000000FB0201C00030C02405048070000C3008000000C800405A000000320014050640A01C00030C010500920280D3
 94
        0
1001
ACAD
1000
AcDbSavedByObjectVersion
1070
     0
  0
ACAD_PROXY_OBJECT
  5
32
102
{ACAD_REACTORS
330
2A
102
}
330
2A
100
AcDbProxyObject
 90
      499
 91
      501
 95
  4980761
 70
     0
 93
      558
310
4190985CDA58C0107406404333333333333E3BF0000000000000FB0201C00030C029048070000C3008000000C80040542201C00030C014050640A01C00030C010500920280D5
 94
        0
1001
ACAD
1000
AcDbSavedByObjectVersion
1070
     0
  0
ACAD_PROXY_OBJECT
  5
36
102
{ACAD_REACTORS
330
2A
102
}
330
2A
100
AcDbProxyObject
 90
      499
 91
      501
 95
  4980761
 70
     0
 93
      598
310
42509C9A59DA1D195B8010C409028333333333333E3BF0000000000000FB0201C00030C02405048070000C3008000000C80040542201C00030C014050640A01C00030C010500920280A654
 94
        0
1001
ACAD
1000
AcDbSavedByObjectVersion
1070
     0
  0
ACAD_PROXY_OBJECT
  5
3A
102
{ACAD_REACTORS
330
2A
102
}
330
2A
100
AcDbProxyObject
 90
      499
 91
      501
 95
  4980761
 70
     0
 93
      622
310
4310DBDB1BDC90DA185B99D9401104090240C333333333333E3BF0000000000000FB0202000030C02405048070000C3008000000C80040542202000030C014050640A01C00030C010500920280D5
 94
        0
1001
ACAD
1000
AcDbSavedByObjectVersion
1070
     0
  0
ACAD_PROXY_OBJECT
  5
34
102
{ACAD_REACTORS
330
2A
102
}
330
2A
100
AcDbProxyObject
 90
      499
 91
      501
 95
  4980761
 70
     0
 93
      670
310
42D0DBDB98D95C1D1D585B0010940D028333333333333E3BF0000000000000FB0201C00030C02409028070000C3008000000C800404000000000000444042201C00030C014050640A01C00030C010300920280D0
 94
        0
1001
ACAD
1000
AcDbSavedByObjectVersion
1070
     0
  0
ACAD_PROXY_OBJECT
  5
35
102
{ACAD_REACTORS
330
2A
102
}
330
2A
100
AcDbProxyObject
 90
      499
 91
      501
 95
  4980761
 70
     0
 93
      582
310
41111A5B4010B409028333333333333E3BF0000000000000FB0201C00030C02405048070000C3008000000C80040542201C00030C014050640A01C00030C01050092028099DFFFFFF6
 94
        0
1001
ACAD
1000
AcDbSavedByObjectVersion
1070
     0
  0
ACAD_PROXY_OBJECT
  5
39
102
{ACAD_REACTORS
330
2A
102
}
330
2A
100
AcDbProxyObject
 90
      499
 91
      501
 95
  4980761
 70
     0
 93
      614
310
43119858D95C185D1D195C9B8010F409028333333333333E3BF0000000000000FB0201C00030C02405048070000C3008000000C80040542201C00030C014050640A01C00030C010500920280D5
 94
        0
1001
ACAD
1000
AcDbSavedByObjectVersion
1070
     0
  0
ACAD_PROXY_OBJECT
  5
2B
102
{ACAD_REACTORS
330
2A
102
}
330
2A
100
AcDbProxyObject
 90
      499
 91
      501
 95
  4980761
 70
     0
 93
      558
310
41519B185D00240901404333333333333E3BF0000000000000F90201C00030C01029048070000C3008000000C80040542201C00030C014050640A01C00030C010500920286D6
 94
        0
1001
ACAD
1000
AcDbSavedByObjectVersion
1070
     0
  0
ACAD_PROXY_OBJECT
  5
2C
102
{ACAD_REACTORS
330
2A
102
}
330
2A
100
AcDbProxyObject
 90
      499
 91
      501
 95
  4980761
 70
     0
 93
      638
310
43919B185D15DA5D1A115919D95CC010140901404333333333333E3BF0000000000000F90201C00030C0102405048070000C3008000000C800405A000000320014050640A01C00030C010500920286D4
 94
        0
1001
ACAD
1000
AcDbSavedByObjectVersion
1070
     0
  0
ACAD_PROXY_OBJECT
  5
2D
102
{ACAD_REACTORS
330
2A
102
}
330
2A
100
AcDbProxyObject
 90
      499
 91
      501
 95
  4980761
 70
     0
 93
      582
310
4211DBDD5C985D590010240902404333333333333E3BF0000000000000F90201C00030C01029048070000C3008000000C800405A01C00030C014050640A01C00030C010500920286D5
 94
        0
1001
ACAD
1000
AcDbSavedByObjectVersion
1070
     0
  0
ACAD_PROXY_OBJECT
  5
2E
102
{ACAD_REACTORS
330
2A
102
}
330
2A
100
AcDbProxyObject
 90
      499
 91
      501
 95
  4980761
 70
     0
 93
      662
310
4451DBDD5C985D5915DA5D1A115919D95CC010340902404333333333333E3BF0000000000000F90201C00030C0102405048070000C3008000000C800405A000000320014050640A01C00030C010500920286D4
 94
        0
1001
ACAD
1000
AcDbSavedByObjectVersion
1070
     0
  0
ACAD_PROXY_OBJECT
  5
38
102
{ACAD_REACTORS
330
2A
102
}
330
2A
100
AcDbProxyObject
 90
      499
 91
      501
 95
  4980761
 70
     0
 93
      614
310
43131A5B995C185D1D195C9B8010E409028333333333333E3BF0000000000000FB0201C00030C02405048070000C3008000000C80041D42201C00030C014050640A01C00030C010500920E80D4
 94
        0
1001
ACAD
1000
AcDbSavedByObjectVersion
1070
     0
  0
ACAD_PROXY_OBJECT
  5
33
102
{ACAD_REACTORS
330
2A
102
}
330
2A
100
AcDbProxyObject
 90
      499
 91
      501
 95
  4980761
 70
     0
 93
      590
310
429499585B1A5CDD1A58C0108409028333333333333E3BF0000000000000FB0201C00030C024068070000C3008000000C80040542202000030C014050640A01C00030C010500920286D0
 94
        0
1001
ACAD
1000
AcDbSavedByObjectVersion
1070
     0
  0
ACAD_PROXY_OBJECT
  5
37
102
{ACAD_REACTORS
330
2A
102
}
330
2A
100
AcDbProxyObject
 90
      499
 91
      501
 95
  4980761
 70
     0
 93
      582
310
42151A1A58DAD95B8010D409028333333333333E3BF0000000000000FB0201C00030C02405048070000C3008000000C80040543201C00030C014050640A01C00030C010500920280D6
 94
        0
1001
ACAD
1000
AcDbSavedByObjectVersion
1070
     0
  0
DICTIONARYVAR
  5
465
102
{ACAD_REACTORS
330
460
102
}
330
460
100
DictionaryVariables
280
     0
  1
1:1
  0
DICTIONARYVAR
  5
52D
102
{ACAD_REACTORS
330
460
102
}
330
460
100
DictionaryVariables
280
     0
  1
STANDARD
  0
DICTIONARYVAR
  5
52C
102
{ACAD_REACTORS
330
460
102
}
330
460
100
DictionaryVariables
280
     0
  1
STANDARD
  0
DICTIONARYVAR
  5
224A
102
{ACAD_REACTORS
330
460
102
}
330
460
100
DictionaryVariables
280
     0
  1
1
  0
DICTIONARYVAR
  5
224B
102
{ACAD_REACTORS
330
460
102
}
330
460
100
DictionaryVariables
280
     0
  1
15
  0
DICTIONARYVAR
  5
2249
102
{ACAD_REACTORS
330
460
102
}
330
460
100
DictionaryVariables
280
     0
  1
0
  0
DICTIONARYVAR
  5
2248
102
{ACAD_REACTORS
330
460
102
}
330
460
100
DictionaryVariables
280
     0
  1
0
  0
DICTIONARYVAR
  5
228C
102
{ACAD_REACTORS
330
460
102
}
330
460
100
DictionaryVariables
280
     0
  1
80.000000
  0
DICTIONARYVAR
  5
228B
102
{ACAD_REACTORS
330
460
102
}
330
460
100
DictionaryVariables
280
     0
  1
5.000000
  0
XRECORD
  5
114E5
102
{ACAD_REACTORS
330
114E4
102
}
330
114E4
100
AcDbXrecord
280
     1
330
0
330
0
330
0
330
0
330
0
330
0
330
0
330
0
330
0
330
0
330
0
330
F4B9
330
0
  0
ACAD_PROXY_OBJECT
  5
4AF
102
{ACAD_REACTORS
330
4A1
102
}
330
4A1
100
AcDbProxyObject
 90
      499
 91
      509
 95
  4980761
 70
     0
 93
     2328
310
40C2C0006002C0000011541535F426F6C745374796C65477265792E626D7000414D0B8D94C011041535F426F6C745F3436532E6462660090444D3490A110A481E08090A130A480D0B8D8BD4C011124284429204469612E20576173686572004293490A110A48139D5D002A44D3490A110A481E08090A130A480D0B8D8BD4C0
310
1075761736865720041139D5D002A42890A110A48111A584B8010D426C61636B2057617368657200AA43D054D7D39D5D17CD0D9CCB9918998010F41535F4E75745F3436732E64626600449054D7D5D85CDA195C97CD0D9CCB9918998011241535F5761736865725F3436732E646266004554D8DA195A58994D0CCD0B8D0CCD
310
5D5A4B99189980115536368656962653433342E34333575692E6462660041D0641906AA90600
 94
        0
  0
ACAD_PROXY_OBJECT
  5
4B0
102
{ACAD_REACTORS
330
4A1
102
}
330
4A1
100
AcDbProxyObject
 90
      499
 91
      509
 95
  4980761
 70
     0
 93
     1888
310
40C1C0802002C0000011541535F426F6C745374796C65477265792E626D7000428D0B8D94CB51D053158011041535F426F6C745F3436532E646266009044613490A110A481E08090A130A480D0B8D8BD4C811D053158010A24284429204469612E004293490A110A48139D5D002A4613490A110A481E08090A130A480D0B8D
310
8BD4C811D053158011247616C76616E69736564205761736865720041139D5D002A42890A110A48111A584B8011247616C76616E697365642057617368657200AA43D054D7D39D5D17CD0D9CCB991899802449054D7D5D85CDA195C97CD0D9CCB991899802A41D0641906AA90600
 94
        0
  0
ACAD_PROXY_OBJECT
  5
4B1
102
{ACAD_REACTORS
330
4A1
102
}
330
4A1
100
AcDbProxyObject
 90
      499
 91
      509
 95
  4980761
 70
     0
 93
     1760
310
40C1C0006002C0000011641535F426F6C745374796C654C426C75652E626D7000414E0B8E14C011041535F426F6C745F3838732E6462660090444D3490A110A481E08090A130A480E0B8E0BD4C01124D24284429204469612E20576173686572004293490A110A48139555002A44D3490A110A481E08090A130A480E0B8E0B
310
D4C0107576173686572004293490A110A48139555002A42890A110A48111A584B8010D426C61636B2057617368657200AA43D054D7D39D5D17CE0E1CCB991899802449054D7D5D85CDA195C97CE0E1CCB991899802A4110841D07AA907CC
 94
        0
  0
ACAD_PROXY_OBJECT
  5
4B7
102
{ACAD_REACTORS
330
4A1
102
}
330
4A1
100
AcDbProxyObject
 90
      499
 91
      509
 95
  4980761
 70
     0
 93
     1960
310
40C1C0802002C0000011641535F426F6C745374796C654C426C75652E626D7000428E0B8E14CB51D053158011041535F426F6C745F3838732E646266009044613490A110A481E08090A130A480E0B8E0BD4C811D05315801124D24284429204469612E20576173686572004293490A110A48139555002A4613490A110A481E
310
08090A130A480E0B8E0BD4C811D053158011247616C76616E69736564205761736865720041139555002A42890A110A48111A584B8011247616C76616E697365642057617368657200AA43D054D7D39D5D17CE0E1CCB991899802449054D7D5D85CDA195C97CE0E1CCB991899802A4110841D07AA90700
 94
        0
  0
ACAD_PROXY_OBJECT
  5
4B2
102
{ACAD_REACTORS
330
4A1
102
}
330
4A1
100
AcDbProxyObject
 90
      499
 91
      509
 95
  4980761
 70
     0
 93
     2328
310
40C1C0006002C0000011641535F426F6C745374796C6544426C75652E626D7000418E0B8E15108011041535F426F6C745F3838732E646266009044513490A110A481E08090A130A480E0B8E0BD5108011D4D24284429204C4F414420494E4449434154494E4720574153484552004293490A110A48139555002A4513490A11
310
0A481E08090A130A480E0B8E0BD5108011D4D24284429204C4F414420494E4449434154494E4720574153484552004293490A110A48139555002A4753490A110A481313D051081253911250D055125391C815D054D211548011D4D24284429204C4F414420494E4449434154494E472057415348455200AA43D054D7D39D5D
310
17CE0E1CCB991899802449054D7D5D85CDA195C97CE0E1CCB991899802A4150841D07AA90700
 94
        0
  0
ACAD_PROXY_OBJECT
  5
4B3
102
{ACAD_REACTORS
330
4A1
102
}
330
4A1
100
AcDbProxyObject
 90
      499
 91
      509
 95
  4980761
 70
     0
 93
     2528
310
40C1C0806002C0000011641535F426F6C745374796C6544426C75652E626D700042CE0B8E15108B51D053158011041535F426F6C745F3838732E646266009044653490A110A481E08090A130A480E0B8E0BD5108811D053158011D4D24284429204C4F414420494E4449434154494E47205741534845520043D3490A110A48
310
1395550811D05315802A4653490A110A481E08090A130A480E0B8E0BD5108811D053158011D4D24284429204C4F414420494E4449434154494E47205741534845520043D3490A110A481395550811D05315802A4753490A110A481313D051081253911250D055125391C815D054D211548011D4D24284429204C4F41442049
310
4E4449434154494E472057415348455200AA43D054D7D39D5D17CE0E1CCB991899802449054D7D5D85CDA195C97CE0E1CCB991899802A4150841D07AA90700
 94
        0
  0
ACAD_PROXY_OBJECT
  5
4B4
102
{ACAD_REACTORS
330
4A1
102
}
330
4A1
100
AcDbProxyObject
 90
      499
 91
      509
 95
  4980761
 70
     0
 93
     2344
310
40C1C0006002C0000011841535F426F6C745374796C654D6167656E74612E626D7000418E0B8E15118011041535F426F6C745F3838732E646266009044513490A110A481E08090A130A480E0B8E0BD5118011D4D24284429204C4F414420494E4449434154494E4720574153484552004293490A110A48139555002A451349
310
0A110A481E08090A130A480E0B8E0BD5118011D4D24284429204C4F414420494E4449434154494E4720574153484552004293490A110A48139555002A4753490A110A481313D051081253911250D055125391C815D054D211548011D4D24284429204C4F414420494E4449434154494E472057415348455200AA43D054D7D3
310
9D5D17CE0E1CCB991899802449054D7D5D85CDA195C97CE0E1CCB991899802A4190841D07AA90700
 94
        0
  0
ACAD_PROXY_OBJECT
  5
4B5
102
{ACAD_REACTORS
330
4A1
102
}
330
4A1
100
AcDbProxyObject
 90
      499
 91
      509
 95
  4980761
 70
     0
 93
     2464
310
40C1C0806002C0000011841535F426F6C745374796C654D6167656E74612E626D700042CE0B8E15118B51D053158011041535F426F6C745F3838732E646266009044653490A110A481E08090A130A480E0B8E0BD5118811D053158011D4D24284429204C4F414420494E4449434154494E4720574153484552004293490A11
310
0A48139555002A4653490A110A481E08090A130A480E0B8E0BD5118811D053158011D4D24284429204C4F414420494E4449434154494E4720574153484552004293490A110A48139555002A4753490A110A481313D051081253911250D055125391C815D054D211548011D4D24284429204C4F414420494E4449434154494E
310
472057415348455200AA43D054D7D39D5D17CE0E1CCB991899802449054D7D5D85CDA195C97CE0E1CCB991899802A4190841D07AA90700
 94
        0
  0
ACAD_PROXY_OBJECT
  5
4B8
102
{ACAD_REACTORS
330
4A1
102
}
330
4A1
100
AcDbProxyObject
 90
      499
 91
      509
 95
  4980761
 70
     0
 93
     2536
310
40C2C0006002C00000115424F4C545354594C4559454C4C4F57312E626D700042D04CCC0DC811925153110010D613330375F6865782E646266004050447119251531108109BDB1D08090A110A5E090A130A48104CCC0DCB53801165761736865722024284429204153544D20463433360044D39D5D08090A110A481054D513
310
48104D4D8CC02A47119251531108109BDB1D08090A110A5E090A130A48104CCC0DCB53801165761736865722024284429204153544D20463433360044D39D5D08090A110A481054D51348104D4D8CC02A4595D85CDA195C88090A110A481054D51348118D0CCD80117536368656962652024284429204153544D2046343336
310
00AA451554D7D84D4D8CD7DA195E08139D5D0B991899802471554D7D98D0CCD8810DA5C98DD5B185C8815D85CDA195C8B991899802A4098360D8358D09A909C1
 94
        0
  0
ACAD_PROXY_OBJECT
  5
4B9
102
{ACAD_REACTORS
330
4A1
102
}
330
4A1
100
AcDbProxyObject
 90
      499
 91
      509
 95
  4980761
 70
     0
 93
     2496
310
40C2C0002002C00000113424F4C545354594C45424C5545312E626D700042904CCC0DC814D213D40010D613330375F6865782E646266004050446D4D213D408109BDB1D08090A110A5E090A130A48104CCC0DCB53801165761736865722024284429204153544D20463433360044D39D5D08090A110A481054D51348104D4D
310
8CC02A46D4D213D408109BDB1D08090A110A5E090A130A48104CCC0DCB53801165761736865722024284429204153544D20463433360044D39D5D08090A110A481054D51348104D4D8CC02A4595D85CDA195C88090A110A481054D51348118D0CCD80117536368656962652024284429204153544D204634333600AA451554
310
D7D84D4D8CD7DA195E08139D5D0B991899802471554D7D98D0CCD8810DA5C98DD5B185C8815D85CDA195C8B991899802A4118360D8358D09A90900
 94
        0
  0
ACAD_PROXY_OBJECT
  5
4BA
102
{ACAD_REACTORS
330
4A1
102
}
330
4A1
100
AcDbProxyObject
 90
      499
 91
      509
 95
  4980761
 70
     0
 93
     2520
310
40C2C0006002C00000113424F4C545354594C4547524559312E626D700042D04CCC8D4811925153110010D613332355F6865782E646266004050447119251531108109BDB1D08090A110A5E090A130A48104CCC8D4B53801165761736865722024284429204153544D20463433360044D39D5D08090A110A481054D5134810
310
4D4D8CC02A47119251531108109BDB1D08090A110A5E090A130A48104CCC8D4B53801165761736865722024284429204153544D20463433360044D39D5D08090A110A481054D51348104D4D8CC02A45D4D8DA195A589948090A110A481054D51348118D0CCD801165761736865722024284429204153544D204634333600AA
310
451554D7D84D4D8CD7DA195E08139D5D0B991899802471554D7D98D0CCD8810DA5C98DD5B185C8815D85CDA195C8B991899802A41D846118458D09A909B5
 94
        0
  0
ACAD_PROXY_OBJECT
  5
4BB
102
{ACAD_REACTORS
330
4A1
102
}
330
4A1
100
AcDbProxyObject
 90
      499
 91
      509
 95
  4980761
 70
     0
 93
     2488
310
40C2C0002002C00000112424F4C545354594C45524544312E626D700042904CCC8D4814D213D40010D613332355F6865782E646266004050446D4D213D408109BDB1D08090A110A5E090A130A48104CCC8D4B53801165761736865722024284429204153544D20463433360044D39D5D08090A110A481054D51348104D4D8C
310
C02A46D4D213D408109BDB1D08090A110A5E090A130A48104CCC8D4B53801165761736865722024284429204153544D20463433360044D39D5D08090A110A481054D51348104D4D8CC02A45D4D8DA195A589948090A110A481054D51348118D0CCD801165761736865722024284429204153544D204634333600AA451554D7
310
D84D4D8CD7DA195E08139D5D0B991899802471554D7D98D0CCD8810DA5C98DD5B185C8815D85CDA195C8B991899802A451846118458D09A90900
 94
        0
  0
ACAD_PROXY_OBJECT
  5
4BC
102
{ACAD_REACTORS
330
4A1
102
}
330
4A1
100
AcDbProxyObject
 90
      499
 91
      509
 95
  4980761
 70
     0
 93
     2584
310
40C2C0006002C00000114424F4C545354594C45475245454E312E626D700042D04D0E4C0811925153110010D613439305F6865782E646266004050448919251531108109BDB1D08090A110A5E090A130A48104D0E4C0B5388119A595B19001165761736865722024284429204153544D20463433360044D39D5D08090A110A
310
481054D51348104D4D8CC02A47119251531108109BDB1D08090A110A5E090A130A48104D0E4C0B53801165761736865722024284429204153544D20463433360044D39D5D08090A110A481054D51348104D4D8CC02A45D4D8DA195A589948090A110A481054D51348118D0CCD8011753636865696265202428442920415354
310
4D204634333600AA451554D7D84D4D8CD7DA195E08139D5D0B991899802471554D7D98D0CCD8810DA5C98DD5B185C8815D85CDA195C8B991899802A5798D6358D58D09A9096C
 94
        0
  0
ACAD_PROXY_OBJECT
  5
4BD
102
{ACAD_REACTORS
330
4A1
102
}
330
4A1
100
AcDbProxyObject
 90
      499
 91
      509
 95
  4980761
 70
     0
 93
     2520
310
40C2C0002002C00000115424F4C545354594C45505552504C45312E626D700042904D0E4C0814D213D40010D613439305F6865782E646266004050446D4D213D408109BDB1D08090A110A5E090A130A48104D0E4C0B53801165761736865722024284429204153544D20463433360044D39D5D08090A110A481054D5134810
310
4D4D8CC02A46D4D213D408109BDB1D08090A110A5E090A130A48104D0E4C0B53801165761736865722024284429204153544D20463433360044D39D5D08090A110A481054D51348104D4D8CC02A45D4D8DA195A589948090A110A481054D51348118D0CCD80117536368656962652024284429204153544D204634333600AA
310
451554D7D84D4D8CD7DA195E08139D5D0B991899802471554D7D98D0CCD8810DA5C98DD5B185C8815D85CDA195C8B991899802A7298D6358D58D09A90945
 94
        0
  0
ACAD_PROXY_OBJECT
  5
4BE
102
{ACAD_REACTORS
330
4A1
102
}
330
4A1
100
AcDbProxyObject
 90
      499
 91
      509
 95
  4980761
 70
     0
 93
     1496
310
40C940002002C00000108434E422E626D70004150D397D080109434E5F422E6462660090444D3490A110A5E090A130A4810AF2DB0B772EA0010AB5E6C8A620242844290042B0B7712E08090A110A402A44D3490A110A5E090A130A4810AF2DB0B772EA0010AB5E6C8A620242844290042B0B7712E08090A110A402A42AD79B
310
22988090A110A4010AB5E6C8A6202428442900AA4350D397D0509395550B9918998024410D397D05095D054D211548B991899802A411C771DC7AA90700
 94
        0
  0
ACAD_PROXY_OBJECT
  5
4BF
102
{ACAD_REACTORS
330
4A1
102
}
330
4A1
100
AcDbProxyObject
 90
      499
 91
      509
 95
  4980761
 70
     0
 93
     1480
310
40C940002002C00000108434E432E626D70004150D397D0C0109434E5F432E6462660090444D3490A110A5E090A130A4810EF2DB0B772EA0010AB5E6C8A620242844290042B0B7712E08090A110A402A44D3490A110A5E090A130A4810EF2DB0B772EA0010AB5E6C8A620242844290042B0B7712E08090A110A402A42AD79B
310
22988090A110A4010AB5E6C8A6202428442900AA4310D397D0D395550B99189980243D0D397D0D5D054D211548B991899802A411C771DC7AA90700
 94
        0
  0
ACAD_PROXY_OBJECT
  5
4C1
102
{ACAD_REACTORS
330
4A1
102
}
330
4A1
100
AcDbProxyObject
 90
      499
 91
      509
 95
  4980761
 70
     0
 93
     2176
310
40C940002002C00000109434E38382E626D70004250D397D1D44E0B8E00115636E5F676A6779677164646C6A746C732E646266009044653490A110A5E090A130A482E37F1EFF0B772EA0E0B8E2F2D80112B8DFC7BFC2DDCBA8B5E6C8A620242844290044AE37F1EFF0B772EA30B7712E08090A110A402A4653490A110A5E09
310
0A130A482E37F1EFF0B772EA0E0B8E2F2D80112B8DFC7BFC2DDCBA8B5E6C8A620242844290044AE37F1EFF0B772EA30B7712E08090A110A402A44AE37F1EFF0B772EA2D79B22988090A110A40112B8DFC7BFC2DDCBA8B5E6C8A6202428442900AA4450D397D1D4511312951395550B9918998024510D397D1D45113129515D
310
054D211548B991899802A411CD735CDAA90700
 94
        0
  0
ACAD_PROXY_OBJECT
  5
4AB
102
{ACAD_REACTORS
330
4A1
102
}
330
4A1
100
AcDbProxyObject
 90
      499
 91
      509
 95
  4980761
 70
     0
 93
     2872
310
40CFC0002002C0000010B44494E3535382E626D700041D112538D4D4E0010B5343483535382E64626600904451348090A110A5E090A130A481254D3CD0C0C4E0011753636865696265204120242844292044494E373938390044135D48090A110A481254D3CD0C0CCD001114D7520242844292044494E20373936370045D54
310
B54D8DA195A589948090A110A48111253880D0CCD00117492D5363686569626520242844292044494E2034333500448D0C0C4E0B53490A110A5E090A130A53554010C373938392D53242844292D00448D0C0CCC8B5355490A110A4B504C8BCD4C00113373936372D4D55242844292D4653542D5A4E00438D0CCD0B54C90A11
310
0A504B54D50010E3433352D5324284429412D5354004594D8DA195A5899481048090A110A481112538C4C8D4010D3132352D53242844292D413200AA43935D5D1D195C8D4D4D4B9918998024414D8DA195A58994DCE4E0E4B991899802A4150624804920141D06A908DE
 94
        0
  0
ACAD_PROXY_OBJECT
  5
4AC
102
{ACAD_REACTORS
330
4A1
102
}
330
4A1
100
AcDbProxyObject
 90
      499
 91
      509
 95
  4980761
 70
     0
 93
     2904
310
40CFC0002002C0000010B44494E3630312E626D700041D112538D8C0C4010B5343483630312E64626600904451348090A110A5E090A130A481254D3CD0C0C4D8011653636865696265204120242844292044494E3133370044135D48090A110A481254D3CD0C0CCD001114D7520242844292044494E20373936370045D54B5
310
4D8DA195A589948090A110A48111253880D0CCD00117492D5363686569626520242844292044494E2034333500440D0C0C4D8B53490A110A5E090A130A4010D3133372D53242844292D413200448D0C0CCD0B5355490A110A4B504C8BCD4C00113373936372D4D55242844292D4653542D5A4E00438D0CCD0B54C90A110A50
310
4B54D50010E3433352D5324284429412D5354004594D8DA195A5899481048090A110A481112538C4C8D4010D3132352D53242844292D413200AA43935D5D1D195C8D4D4D4B9918998024594D8DA195A58994C4CCDC8119BDC9B48104B991899802A4150624804920141D06A90872
 94
        0
  0
ACAD_PROXY_OBJECT
  5
4A3
102
{ACAD_REACTORS
330
4A1
102
}
330
4A1
100
AcDbProxyObject
 90
      499
 91
      509
 95
  4980761
 70
     0
 93
     4640
310
40DFCC022013C0000010C44494E363931342E626D7000421112538D8E4C4D0010C534348363931342E64626600904451348090A110A5E090A130A481112538D8E4C4D0011753636865696265204120242844292044494E363931360044135D48090A110A481112538D8E4C4D401114D7520242844292044494E20363931350
310
046154B54D8DA195A589948090A110A48111253880D8E4C4E00118492D5363686569626520242844292044494E203639313700474D8E4C4D0B53490A110A5E090A130A53554C94CB4C4C0B8E4B5516938010F363931362D53242844292D4334350044CD8E4C4D4B5355490A110A4B4C4C0B55169380113363931352D4D5524
310
2844292D31302D545A4E00440D8E4C4E0B54C90A110A504B50CD0D40110363931372D5324284429412D4334350045D4D8DA195A5899481048090A110A481112538D8E4C4D8010F363931362D53242844292D4334350046154B54D8DA195A589948090A110A48111253880D8E4C4E00118492D5363686569626520242844292
310
044494E203639313700440D8E4C4E0B54C90A110A504B50CD0D40110363931372D5324284429412D4334350043D35D5D1D195C8D8E4C4D4B9918998010F4D7574746572363931352E646266004414D8DA195A58994D8E4C4D8B9918998011053636865696265363931362E6462660045D4D8DA195A58994D8E4C4DCB8D8E4C
310
4E1D5A4B9918998011753636865696265363931372E3639313875692E6462660041909254049501424950125404000000000000594090900000000141ABE10000000000A06AF840A72
 94
        0
  0
ACAD_PROXY_OBJECT
  5
4A7
102
{ACAD_REACTORS
330
4A1
102
}
330
4A1
100
AcDbProxyObject
 90
      499
 91
      509
 95
  4980761
 70
     0
 93
     3192
310
40DFC400200AC0000010C44494E373936382E626D7000421112538DCE4D8E0010C534348373936382E64626600904451348090A110A5E090A130A481112538DCE4D8E0011753636865696265204120242844292044494E373938390044135D48090A110A481254D3CD0C0CCD001114D7520242844292044494E20363931350
310
046154B54D8DA195A589948090A110A48111253880D8E4C4E00118492D5363686569626520242844292044494E203639313700450DCE4D8E0B53490A110A5E090A130A53554C94C010B373938392D532428442900430D0C0CCD0B5355490A110A40113363931352D4D55242844292D31302D545A4E00440D8E4C4E0B54C90A
310
110A504B50CD0D40110363931372D5324284429412D4334350045D4D8DA195A5899481048090A110A481112538D8E4C4D8010F363931362D53242844292D43343500AA43935D5D1D195C8D4D4D4B9918998024414D8DA195A58994DCE4E0E4B99189980245D4D8DA195A58994D8E4C4DCB8D8E4C4E1D5A4B99189980241906
310
24804920142492018000000000000594090300
 94
        0
  0
ACAD_PROXY_OBJECT
  5
4A8
102
{ACAD_REACTORS
330
4A1
102
}
330
4A1
100
AcDbProxyObject
 90
      499
 91
      509
 95
  4980761
 70
     0
 93
     4096
310
40CFC400200AC0000010C44494E373936392E626D7000421112538DCE4D8E4010C534348373936392E6462660090445D348090A110A5E090A130A48135D481112538DCE4D8E4011753636865696265204120242844292044494E373938390044135D48090A110A481254D3CD0C0CCD001104D7520242844292044494E20353
310
5350045D54B54D8DA195A589948090A110A48111253880D0CCD00117492D5363686569626520242844292044494E2034333500470DCE4D8E4B53490A110A56090A130A53554C54CB4D0B8D8B5516938010E373938392D53242844292D53540043CD0C0CCD0B5355490A110A4B4D4B4011032343033342D4D55242844292D35
310
2D00438D0CCD0B54C90A110A504B54D50010E3433352D5324284429412D53540045D4D8DA195A5899481048090A110A481112538DCE4E0E4010E373938392D53242844292D53540045D54B54D8DA195A589948090A110A48111253880D0CCD00117492D5363686569626520242844292044494E2034333500438D0CCD0B54C
310
90A110A504B54D500243935D5D1D195C8D4D4D4B9918998010E4D75747465723535352E646266004414D8DA195A58994DCE4E0E4B9918998011053636865696265373938392E646266004554D8DA195A58994D0CCD0B8D0CCD5D5A4B99189980115536368656962653433342E34333575692E6462660041506248049201418
310
9201A90600
 94
        0
  0
ACAD_PROXY_OBJECT
  5
4AA
102
{ACAD_REACTORS
330
4A1
102
}
330
4A1
100
AcDbProxyObject
 90
      499
 91
      509
 95
  4980761
 70
     0
 93
     2456
310
40DFC0002002C0000010C44494E373938342E626D7000421112538DCE4E0D0010C534348373938342E64626600904451348090A110A5E090A130A481112538DCE4E0D0011653636865696265204120242844292044494E3132350044135D48090A110A48111253880E4CCD001114D7520242844292044494E203639313500A
310
448DCE4E0D0B53490A110A5E090A130A53554010D3132352D53242844292D41320044CC8D0C0CCC8B5355490A110A4B504C8BCD4C00113363931352D4D55242844292D31302D545A4E00A4594D8DA195A5899481048090A110A481112538C4C8D4010D3132352D53242844292D413200AA43935D5D1D195C8E4CCD0B991899
310
80243D4D8DA195A58994C4C8D4B9918998010F536368656962653132352E64626600A4190824C0493014268000000000000594090874
 94
        0
  0
ACAD_PROXY_OBJECT
  5
4A2
102
{ACAD_REACTORS
330
4A1
102
}
330
4A1
100
AcDbProxyObject
 90
      499
 91
      509
 95
  4980761
 70
     0
 93
     4264
310
40DBCC402002C0000010C44494E373939302E626D7000421112538DCE4E4C0010C534348373939302E6462660090445D348090A110A5E090A130A48135D481112538DCE4E4C0011753636865696265204120242844292044494E373938390044135D48090A110A481254D3CD0C0CCD001114D7520242844292044494E20373
310
936370045D54B54D8DA195A589948090A110A48111253880D0CCD00117492D5363686569626520242844292044494E2034333500470DCE4E4C0B53490A110A56090A130A53554C54CB4D0B8D8B5516938010E373938392D53242844292D53540043CD0C0CCD0B5355490A110A4B4D4B40113373936372D4D55242844292D46
310
53542D5A4E00438D0CCD0B54C90A110A504B54D50010E3433352D5324284429412D53540045D4D8DA195A5899481048090A110A481112538DCE4E0E4010E373938392D53242844292D53540045D54B54D8DA195A589948090A110A48111253880D0CCD00117492D5363686569626520242844292044494E2034333500438D0
310
CCD0B54C90A110A504B54D50010E3433352D5324284429412D53540043935D5D1D195C8D4D4D4B9918998010E4D75747465723535352E646266004414D8DA195A58994DCE4E0E4B9918998011053636865696265373938392E646266004554D8DA195A58994D0CCD0B8D0CCD5D5A4B99189980115536368656962653433342
310
E34333575692E646266004110624804920141C91012440690700
 94
        0
  0
ACAD_PROXY_OBJECT
  5
4A6
102
{ACAD_REACTORS
330
4A1
102
}
330
4A1
100
AcDbProxyObject
 90
      499
 91
      509
 95
  4980761
 70
     0
 93
     3288
310
40CBC500200AC0000010C44494E373939312E626D7000421112538DCE4E4C4010C534348373939312E64626600904461348090A110A5E090A130A48135D481254D3CC4C0D8D0C8011753636865696265204120242844292049534F373039320044135D48090A110A481254D3CD0C0CCD001114D7520242844292044494E203
310
73936370045D54B54D8DA195A589948090A110A48111253880D0CCD00117492D5363686569626520242844292044494E2034333500474C4C0D8D0C8B53490A110A56090A130A53554C54CB4D4B8D8B5516938010E373039322D53242844292D53540043CD0C0CCD0B5355490A110A4B4D4B40113373936372D4D5524284429
310
2D4653542D5A4E00438D0CCD0B54C90A110A504B54D50010E3433352D5324284429412D5354004594D8DA195A5899481048090A110A481112538D0CCCC010D3433332D53242844292D535400AA43935D5D1D195C8D4D4D4B99189980243D4D8DA195A58994D0CCCCB9918998010B53636865696265343333004554D8DA195A
310
58994D0CCD0B8D0CCD5D5A4B99189980241D0724804920141C920141E90740
 94
        0
  0
ACAD_PROXY_OBJECT
  5
4A9
102
{ACAD_REACTORS
330
4A1
102
}
330
4A1
100
AcDbProxyObject
 90
      499
 91
      509
 95
  4980761
 70
     0
 93
     1928
310
40C2C0002002C0000010C44494E373939392E626D7000421112538DCE4E4E4010C534348373939392E64626600904451348090A110A5E090A130A481112538DCE4E4E4011753636865696265204120242844292044494E363931390044135D48090A110A481112538D8E4C4D402A440DCE4E4E4B53490A110A56090A130A40
310
10E363931392D53242844292D535400430D8E4C4D4B5355490A110A402A45D4D8DA195A5899481048090A110A481112538D8E4C4E4010E363931392D53242844292D535400AA43D35D5D1D195C8D8E4C4D4B9918998024414D8DA195A58994D8E4C4D8B991899802A909254049501AA895011F
 94
        0
  0
ACAD_PROXY_OBJECT
  5
4AD
102
{ACAD_REACTORS
330
4A1
102
}
330
4A1
100
AcDbProxyObject
 90
      499
 91
      509
 95
  4980761
 70
     0
 93
     3032
310
40DFC600200140000010B44494E3931322E626D700041D112538E4C4C8010B5343483931322E64626600904451348090A110A5E090A130A481254D3CD0DCD8C8011753636865696265204120242844292049534F373038390044135D48090A110A481112538D0C0CCC80246154B54D8DA195A589948090A110A48111253880
310
D8E4C4E00118492D5363686569626520242844292044494E203639313700450D0DCD8C8B53490A110A5E090A130A53554C94C010E373038392D53242844292D413200448D0C0CCC8B5355490A110A4B504C8BCD4C002440D8E4C4E0B54C90A110A504B50CD0D40110363931372D5324284429412D433435004594D8DA195A5
310
899481048090A110A481112538C4C8D4010D3132352D53242844292D413200AA43935D5D1D195C8E4CCD0B99189980243D4D8DA195A58994C4C8D4B9918998010F536368656962653132352E6462660045D4D8DA195A58994D8E4C4DCB8D8E4C4E1D5A4B9918998024190925404950142495018000000000000594090800
 94
        0
  0
ACAD_PROXY_OBJECT
  5
4A4
102
{ACAD_REACTORS
330
4A1
102
}
330
4A1
100
AcDbProxyObject
 90
      499
 91
      509
 95
  4980761
 70
     0
 93
     3056
310
40CBC480200140000010B44494E3933312E626D700041D112538E4CCC4010B5343483933312E64626600904451348090A110A5E090A130A481254D3CD0C0C4D0011753636865696265204120242844292049534F373038390044535D48090A110A481254D3C80D0C0CCC801114D7520242844292044494E203739363700445
310
54B54D8DA195A5899481112538D0CCD00111492D536368656962652044494E34333500458D0C0C4D0B53490A110A56090A130A4B504C8BCD4C0010E373038392D53242844292D413200448D0C0CCC8B5355490A110A4B504C8BCD4C00113373936372D4D55242844292D4653542D5A4E00438D0CCD0B54C90A110A504B54D5
310
00245D4D8DA195A5899481048090A110A481254D3CDCC0E0E4010E373038392D53242844292D413200AA43935D5D1D195C8E4CCD0B99189980243D4D8DA195A58994C4C8D4B9918998010F536368656962653132352E6462660045D4D8DA195A58994D8E4C4DCB8D8E4C4E1D5A4B9918998024090824C04950141C930141E9
310
083B
 94
        0
  0
ACAD_PROXY_OBJECT
  5
4A5
102
{ACAD_REACTORS
330
4A1
102
}
330
4A1
100
AcDbProxyObject
 90
      499
 91
      509
 95
  4980761
 70
     0
 93
     3448
310
40CFC400200140000010B44494E3933332E626D700041D112538E4CCCC010B5343483933332E64626600904451348090A110A5E090A130A481254D3CD0C0C4DC011753636865696265204120242844292049534F373038390044135D48090A110A481254D3CD0C0CCC801114D7520242844292044494E20373936370045D54
310
B54D8DA195A589948090A110A48111253880D0CCD00117492D5363686569626520242844292044494E2034333500460D0C0C4DCB53490A110A56090A130A4B4E0B8E081516938010E373038392D53242844292D413200448D0C0CCC8B5355490A110A4B504C8BCD4C00113373936372D4D55242844292D4653542D5A4E0043
310
8D0CCD0B54C90A110A504B54D50010E3433352D5324284429412D5354004594D8DA195A5899481048090A110A481112538C4C8D4010D3132352D53242844292D413200AA43935D5D1D195C8E4CCD0B99189980119536963686572756E67736D7574746572373936372E6462660043D4D8DA195A58994C4C8D4B9918998010F
310
536368656962653132352E646266004554D8DA195A58994D0CCD0B8D0CCD5D5A4B9918998024150824C04930141C9301A90802
 94
        0
  0
ACAD_PROXY_OBJECT
  5
4AE
102
{ACAD_REACTORS
330
4A1
102
}
330
4A1
100
AcDbProxyObject
 90
      499
 91
      509
 95
  4980761
 70
     0
 93
     2768
310
40DFC1002002C00000114424F4C545354594C45475245454E342E626D700041D112538E4D8D4010B5343483936352E64626600904451348090A110A5E090A130A481254D3CDCC0D0D8011753636865696265204120242844292049534F373038390044135D48090A110A481254D3CD0C0CCC80246154B54D8DA195A5899480
310
90A110A48111253880D8E4C4E00118492D5363686569626520242844292044494E20363931370044CDCC0D0D8B53490A110A5E090A130A535554C010E373038392D53242844292D413200448D0C0CCC8B5355490A110A4B504C8BCD4C002440D8E4C4E0B54C90A110A504B50CD0D40110363931372D5324284429412D43343
310
5004594D8DA195A5899481048090A110A481112538C4C8D4010D3132352D53242844292D413200AA43935D5D1D195C8E4CCD0B99189980243D4D8DA195A58994C4C8D4B991899802A41907248049201425038000000000000594090300
 94
        0
  0
ACAD_PROXY_OBJECT
  5
4B6
102
{ACAD_REACTORS
330
4A1
102
}
330
4A1
100
AcDbProxyObject
 90
      499
 91
      509
 95
  4980761
 70
     0
 93
     4480
310
40DBC0402003C00000113424F4C545354594C45424C5545312E626D70004391D95DDA5B99195CDD185B99D94010C534348373939302E646266009044951D95DDA5B99195CDD185B99D9481348090A110A5E090A130A48135D481112538DCE4E4C0011753636865696265204120242844292044494E373938390044135D4809
310
0A110A48111253880D4D4D401114D7520242844292044494E20373936370045D54B54D8DA195A589948090A110A48111253880D0CCD00117492D5363686569626520242844292044494E2034333500470DCE4E4C0B53490A110A56090A130A53554C54CB4D0B8D8B5516938010E373938392D53242844292D535400440C8D0
310
C0CCD0B5355490A110A4B4D4B40113373936372D4D55242844292D4653542D5A4E00438D0CCD0B54C90A110A504B54D50010E3433352D5324284429412D53540045D4D8DA195A5899481048090A110A481112538DCE4E0E4010E373938392D53242844292D53540045D54B54D8DA195A589948090A110A48111253880D0CCD
310
00117492D5363686569626520242844292044494E2034333500438D0CCD0B54C90A110A504B54D50010E3433352D5324284429412D53540043935D5D1D195C8D4D4D4B9918998010E4D75747465723535352E646266004414D8DA195A58994DCE4E0E4B9918998011053636865696265373938392E646266004554D8DA195A
310
58994D0CCD0B8D0CCD5D5A4B99189980115536368656962653433342E34333575692E646266004110824C04930141D0741E8930100
 94
        0
  0
ACAD_PROXY_OBJECT
  5
4DA
102
{ACAD_REACTORS
330
4D8
102
}
330
4D8
100
AcDbProxyObject
 90
      499
 91
      511
 95
  4980761
 70
     0
 93
      692
310
40C180002000000000117456C65766174696F6E5374796C65526564322E626D700042511C995A5958DAD9401094472656965636B650090280000000000000C4000000000000003102405034254DD185B99185C99002AA0
 94
        0
  0
ACAD_PROXY_OBJECT
  5
4D9
102
{ACAD_REACTORS
330
4D8
102
}
330
4D8
100
AcDbProxyObject
 90
      499
 91
      511
 95
  4980761
 70
     0
 93
      700
310
40C180002000000000117456C65766174696F6E5374796C65526564312E626D70004254DD185B99185C99001095374616E64617264009024040000000000000C4000000000000003102405034254DD185B99185C99002AA2
 94
        0
  0
ACAD_PROXY_OBJECT
  5
4E9
102
{ACAD_REACTORS
330
4DB
102
}
330
4DB
100
AcDbProxyObject
 90
      499
 91
      512
 95
  4980761
 70
     0
 93
      818
310
40C140002006400000111506F73466C6167426C7565312E626D700042505CDCD95B589B1E40109417373656D626C790040504409018000000000000104000000000000005100FFFF3FFFCFFFF3FFFD0244141BDCDA5D1A5BDB9CD9985A1B995B802AA9022F00A9
 94
        0
  0
ACAD_PROXY_OBJECT
  5
4EA
102
{ACAD_REACTORS
330
4DB
102
}
330
4DB
100
AcDbProxyObject
 90
      499
 91
      512
 95
  4980761
 70
     0
 93
      818
310
40C040002004400000111506F73466C6167426C7565312E626D70004290985D59DC9D5C1C194010A4261756772757070650040504409028000000000000104000000000000005100FFFF3FFFCFFFF3FFFD024254DD185B99185C9900290442472D00A9022F00AF
 94
        0
  0
ACAD_PROXY_OBJECT
  5
4DD
102
{ACAD_REACTORS
330
4DB
102
}
330
4DB
100
AcDbProxyObject
 90
      499
 91
      512
 95
  4980761
 70
     0
 93
      994
310
40C000002006400000111506F73466C6167426C7565312E626D70004510985D59DC9D5C1C195B9A185D5C1D1D195A5B001144261756772757070656E68617570747465696C0040504409028000000000000104000000000000005100FFFF3FFFCFFFF3FFFD0244141BDCDA5D1A5BDB9CD9985A1B995B802AA9022F0080
 94
        0
  0
ACAD_PROXY_OBJECT
  5
4E0
102
{ACAD_REACTORS
330
4DB
102
}
330
4DB
100
AcDbProxyObject
 90
      499
 91
      512
 95
  4980761
 70
     0
 93
      938
310
40C040002006400000111506F73466C6167426C7565312E626D70004510985D59DC9D5C1C195B9B9958995B9D195A5B001144261756772757070656E6E6562656E7465696C0040504409038000000000000104000000000000005100FFFF3FFFCFFFF3FFFD024254DD185B99185C99002AA9022F0080
 94
        0
  0
ACAD_PROXY_OBJECT
  5
4E5
102
{ACAD_REACTORS
330
4DB
102
}
330
4DB
100
AcDbProxyObject
 90
      499
 91
      512
 95
  4980761
 70
     0
 93
      850
310
40C000002006400000110506F73466C6167526564332E626D700043D0985D59DC9D5C1C195B9D195A5B0010F4261756772757070656E7465696C0040504409028000000000000104000000000000005100FFFF3FFFCFFFF3FFFD024254DD185B99185C99002AA9022F00A9
 94
        0
  0
ACAD_PROXY_OBJECT
  5
4E6
102
{ACAD_REACTORS
330
4DB
102
}
330
4DB
100
AcDbProxyObject
 90
      499
 91
      512
 95
  4980761
 70
     0
 93
      922
310
40C040002004000000111506F73466C6167426C7565312E626D7000435091CB7718995C9CDA58DA1D0010D42472DDC62657273696368740040504409038000000000000104000000000000004100FFFF3FFFCFFFF3FFFD0244141BDCDA5D1A5BDB9CD9985A1B995B80290442472D00A9022F00AF
 94
        0
  0
ACAD_PROXY_OBJECT
  5
4E7
102
{ACAD_REACTORS
330
4DB
102
}
330
4DB
100
AcDbProxyObject
 90
      499
 91
      512
 95
  4980761
 70
     0
 93
      794
310
40C000002006400000111506F73466C6167426C7565312E626D700042D15A5B9E995B1D195A5B0010B45696E7A656C7465696C004050440D018000000000000104000000000000005100FFFF3FFFCFFFF3FFFD024254DD185B99185C99002AA9022F0099
 94
        0
  0
ACAD_PROXY_OBJECT
  5
4DC
102
{ACAD_REACTORS
330
4DB
102
}
330
4DB
100
AcDbProxyObject
 90
      499
 91
      512
 95
  4980761
 70
     0
 93
      866
310
40C040002006400000111506F73466C6167426C7565312E626D700043115A5B9E995B1D195A5B194010C45696E7A656C7465696C650040504409018000000000000104000000000000005100FFFF3FFFCFFFF3FFFD0244141BDCDA5D1A5BDB9CD9985A1B995B802AA9022F0082
 94
        0
  0
ACAD_PROXY_OBJECT
  5
4E1
102
{ACAD_REACTORS
330
4DB
102
}
330
4DB
100
AcDbProxyObject
 90
      499
 91
      512
 95
  4980761
 70
     0
 93
      882
310
40C000002004000000111506F73466C6167426C7565312E626D70004352DD5C9E9C1BDCDA5D1A5BDB8010D4B75727A706F736974696F6E0040504409018000000000000104000000000000005100FFFF3FFFCFFFF3FFFD0244141BDCDA5D1A5BDB9CD9985A1B995B802AA9022F009B
 94
        0
  0
ACAD_PROXY_OBJECT
  5
4E3
102
{ACAD_REACTORS
330
4DB
102
}
330
4DB
100
AcDbProxyObject
 90
      499
 91
      512
 95
  4980761
 70
     0
 93
      802
310
40C000002004000000111506F73466C6167426C7565312E626D700042135BDB9D1859D9401084D6F6E746167650040504409048000000000000104000000000000005100FFFF3FFFCFFFF3FFFD0244141BDCDA5D1A5BDB9CD9985A1B995B802AA9022F009A
 94
        0
  0
ACAD_PROXY_OBJECT
  5
4DF
102
{ACAD_REACTORS
330
4DB
102
}
330
4DB
100
AcDbProxyObject
 90
      499
 91
      512
 95
  4980761
 70
     0
 93
      866
310
40C04000200E400000111506F73466C6167426C7565312E626D700043141BDB1E5C1B185D1D195B8010C506F6C79706C617474656E0040504409018000000000000104000000000000005100FFFF3FFFCFFFF3FFFD0244141BDCDA5D1A5BDB9CD9985A1B995B802AA9022F009A
 94
        0
  0
ACAD_PROXY_OBJECT
  5
4E2
102
{ACAD_REACTORS
330
4DB
102
}
330
4DB
100
AcDbProxyObject
 90
      499
 91
      512
 95
  4980761
 70
     0
 93
      810
310
40C000002000400000111506F73466C6167426C7565312E626D70004254D8DA1C985D5899401095363687261756265004050440A8000000000000104000000000000005100FFFF3FFFCFFFF3FFFD0244141BDCDA5D1A5BDB9CD9985A1B995B802AA9022F0082
 94
        0
  0
ACAD_PROXY_OBJECT
  5
4DE
102
{ACAD_REACTORS
330
4DB
102
}
330
4DB
100
AcDbProxyObject
 90
      499
 91
      512
 95
  4980761
 70
     0
 93
      898
310
40C04000200E400000111506F73466C6167426C7565312E626D70004394DBDB99195C9C1C9BD99A5B194010E536F6E64657270726F66696C650040504409018000000000000104000000000000005100FFFF3FFFCFFFF3FFFD0244141BDCDA5D1A5BDB9CD9985A1B995B802AA9022F009A
 94
        0
  0
ACAD_PROXY_OBJECT
  5
4E4
102
{ACAD_REACTORS
330
4DB
102
}
330
4DB
100
AcDbProxyObject
 90
      499
 91
      512
 95
  4980761
 70
     0
 93
      762
310
40C000002006400000111506F73466C6167426C7565312E626D70004254DD185B99185C99001095374616E64617264004050440D018000000000000104000000000000005100FFFF3FFFCFFFF3FFFD024254DD185B99185C99002AA9022F0080
 94
        0
  0
ACAD_PROXY_OBJECT
  5
4E8
102
{ACAD_REACTORS
330
4DB
102
}
330
4DB
100
AcDbProxyObject
 90
      499
 91
      512
 95
  4980761
 70
     0
 93
      834
310
40C140002006400000111506F73466C6167426C7565312E626D70004294DD5891DC9D5C1C194010A5375624772757070650040504409018000000000000104000000000000005100FFFF3FFFCFFFF3FFFD0244141BDCDA5D1A5BDB9CD9985A1B995B802AA9022F0080
 94
        0
  0
ACAD_PROXY_OBJECT
  5
1AD4
102
{ACAD_REACTORS
330
4C8
102
}
330
4C8
100
AcDbProxyObject
 90
      499
 91
      510
 95
  4980761
 70
     0
 93
      854
310
40C00000200002400011377656C647374796C65626C7565312E626D70004212154B53985A1D0010848552D4E616874009034080000000000000C40000000000000031014050440D095374616E6461726400AAA00000000000002102A422AA00000000000002102A406A419
 94
        0
  0
ACAD_PROXY_OBJECT
  5
4CB
102
{ACAD_REACTORS
330
4C8
102
}
330
4C8
100
AcDbProxyObject
 90
      499
 91
      510
 95
  4980761
 70
     0
 93
      854
310
40C00000200002400011377656C647374796C65626C7565312E626D70004212158B53985A1D0010848562D4E616874009034080000000000000C40000000000000031014050440D095374616E6461726400AAA00000000000002102A41AAA00000000000002102A406A41A
 94
        0
  0
ACAD_PROXY_OBJECT
  5
4CC
102
{ACAD_REACTORS
330
4C8
102
}
330
4C8
100
AcDbProxyObject
 90
      499
 91
      510
 95
  4980761
 70
     0
 93
     1518
310
40C000002000024000166633A5C70726F6772616D6D655C6B69776920736F66747761726520676D62685C70726F737465656C2033645C7231372E315C6175746F63616420323030365C7374696C655C73636877656973737374696C655C77656C647374796C65626C7565312E626D70004212164B53985A1D0010848592D4E
310
616874009034080000000000000C40000000000000031014050440D095374616E6461726400AAA00000000000002102A41EAA00000000000002102A406A41B
 94
        0
  0
ACAD_PROXY_OBJECT
  5
4CD
102
{ACAD_REACTORS
330
4C8
102
}
330
4C8
100
AcDbProxyObject
 90
      499
 91
      510
 95
  4980761
 70
     0
 93
      838
310
40C00000200002400011377656C647374796C65626C7565312E626D700041D24B53985A1D00107492D4E616874009034080000000000000C400000000000000310140503411095374616E6461726400AAA00000000000002102A416AA00000000000002102A406A41A
 94
        0
  0
ACAD_PROXY_OBJECT
  5
1AD5
102
{ACAD_REACTORS
330
4C8
102
}
330
4C8
100
AcDbProxyObject
 90
      499
 91
      510
 95
  4980761
 70
     0
 93
      838
310
40C00000200002424011377656C647374796C65626C7565312E626D700041D2CB53985A1D001074B2D4E616874009034080000000000000C400000000000000310140503411095374616E6461726400AAA00000000000002102A41AAA00000000000002102A41AA41A
 94
        0
  0
ACAD_PROXY_OBJECT
  5
4CE
102
{ACAD_REACTORS
330
4C8
102
}
330
4C8
100
AcDbProxyObject
 90
      499
 91
      510
 95
  4980761
 70
     0
 93
      870
310
40C00000201002424011357656C645374796C65426C7565312E626D70004252D95A1B080CDB5B401094B65686C20336D6D009034080000000000000C400000000000000310140503411095374616E6461726400AAA00000000000002102A406AA00000000000002102A406A41A
 94
        0
  0
ACAD_PROXY_OBJECT
  5
4CF
102
{ACAD_REACTORS
330
4C8
102
}
330
4C8
100
AcDbProxyObject
 90
      499
 91
      510
 95
  4980761
 70
     0
 93
      870
310
40C00000201002424011357656C645374796C65426C7565312E626D70004252D95A1B080D1B5B401094B65686C20346D6D009034080000000000000C40000000000000031014050440D095374616E6461726400AAA00000000000004102A406AA00000000000004102A406A418
 94
        0
  0
ACAD_PROXY_OBJECT
  5
4D0
102
{ACAD_REACTORS
330
4C8
102
}
330
4C8
100
AcDbProxyObject
 90
      499
 91
      510
 95
  4980761
 70
     0
 93
      870
310
40C00000201002424011357656C645374796C65426C7565312E626D70004252D95A1B080D5B5B401094B65686C20356D6D009034080000000000000C400000000000000310140503411095374616E6461726400AAA00000000000005102A406AA00000000000005102A406A41A
 94
        0
  0
ACAD_PROXY_OBJECT
  5
1AD6
102
{ACAD_REACTORS
330
4C8
102
}
330
4C8
100
AcDbProxyObject
 90
      499
 91
      510
 95
  4980761
 70
     0
 93
      886
310
40C00000200002400011377656C647374796C65626C7565312E626D70004292D95A1B0B53985A1D0010A4B65686C2D4E616874009034080000000000000C400000000000000310140503411095374616E6461726400AAA00000000000002102A406AA00000000000002102A406A418
 94
        0
  0
ACAD_PROXY_OBJECT
  5
4C9
102
{ACAD_REACTORS
330
4C8
102
}
330
4C8
100
AcDbProxyObject
 90
      499
 91
      510
 95
  4980761
 70
     0
 93
      870
310
40C00000200042400011377656C647374796C65626C7565312E626D70004252D95A1B1B985A1D001094B65686C6E616874009034080000000000000C40000000000000031014050440D095374616E6461726400AAA00000000000004102A406AA00000000000002102A406A418
 94
        0
  0
ACAD_PROXY_OBJECT
  5
4D1
102
{ACAD_REACTORS
330
4C8
102
}
330
4C8
100
AcDbProxyObject
 90
      499
 91
      510
 95
  4980761
 70
     0
 93
      918
310
40C00000200002400011377656C647374796C65626C7565312E626D700043131A5B9A595B8B53985A1D0010C4C696E69656E2D4E616874009034080000000000000C400000000000000310140503411095374616E6461726400AAA00000000000002102A432AA00000000000002102A406A41B
 94
        0
  0
ACAD_PROXY_OBJECT
  5
4D2
102
{ACAD_REACTORS
330
4C8
102
}
330
4C8
100
AcDbProxyObject
 90
      499
 91
      510
 95
  4980761
 70
     0
 93
      886
310
40C00000200002400011377656C647374796C65626C7565312E626D700042931BD8DA0B53985A1D0010A4C6F63682D4E616874009034080000000000000C400000000000000310140503411095374616E6461726400AAA00000000000002102A42AAA00000000000002102A406A41B
 94
        0
  0
ACAD_PROXY_OBJECT
  5
4D3
102
{ACAD_REACTORS
330
4C8
102
}
330
4C8
100
AcDbProxyObject
 90
      499
 91
      510
 95
  4980761
 70
     0
 93
      902
310
40C00000200002400011377656C647374796C65626C7565312E626D700042D41D5B9ADD0B53985A1D0010B50756E6B742D4E616874009034080000000000000C40000000000000031014050440D095374616E6461726400AAA00000000000002102A42EAA00000000000002102A406A41A
 94
        0
  0
ACAD_PROXY_OBJECT
  5
4D4
102
{ACAD_REACTORS
330
4C8
102
}
330
4C8
100
AcDbProxyObject
 90
      499
 91
      510
 95
  4980761
 70
     0
 93
      870
310
40C00000201002424011357656C645374796C65426C7565312E626D70004254DD185B99185C99001095374616E64617264009034080000000000000C40000000000000031014050440D095374616E6461726400AAA00000000000002102A406AA00000000000002102A406A41A
 94
        0
  0
ACAD_PROXY_OBJECT
  5
4D5
102
{ACAD_REACTORS
330
4C8
102
}
330
4C8
100
AcDbProxyObject
 90
      499
 91
      510
 95
  4980761
 70
     0
 93
      854
310
40C00000200002400011377656C647374796C65626C7565312E626D700042154B4813985A1D00108552D204E616874009034080000000000000C400000000000000310140503411095374616E6461726400AAA00000000000002102A412AA00000000000002102A406A418
 94
        0
  0
ACAD_PROXY_OBJECT
  5
4CA
102
{ACAD_REACTORS
330
4C8
102
}
330
4C8
100
AcDbProxyObject
 90
      499
 91
      510
 95
  4980761
 70
     0
 93
      854
310
40C000002000C2400011477656C647374796C65677265656E312E626D700041D58B53985A1D00107562D4E616874009034080000000000000C400000000000000310140503411095374616E6461726400AAA00000000000005102A40901AA00000000000002102A406A41A
 94
        0
  0
ACAD_PROXY_OBJECT
  5
4D6
102
{ACAD_REACTORS
330
4C8
102
}
330
4C8
100
AcDbProxyObject
 90
      499
 91
      510
 95
  4980761
 70
     0
 93
      838
310
40C00000200002424011377656C647374796C65626C7565312E626D700041D60B53985A1D00107582D4E616874009034080000000000000C40000000000000031014050440D095374616E6461726400AAA00000000000002102A40AAA00000000000002102A40AA41A
 94
        0
  0
ACAD_PROXY_OBJECT
  5
4D7
102
{ACAD_REACTORS
330
4C8
102
}
330
4C8
100
AcDbProxyObject
 90
      499
 91
      510
 95
  4980761
 70
     0
 93
      838
310
40C00000200002400011377656C647374796C65626C7565312E626D700041D64B53985A1D00107592D4E616874009034080000000000000C400000000000000310140503411095374616E6461726400AAA00000000000002102A40EAA00000000000002102A406A41A
 94
        0
  0
XRECORD
  5
4ED
102
{ACAD_REACTORS
330
4EC
102
}
330
4EC
100
AcDbXrecord
280
     1
 70
     1
  0
XRECORD
  5
891
102
{ACAD_REACTORS
330
4EC
102
}
330
4EC
100
AcDbXrecord
280
     1
 70
     1
  1

 70
     0
  1

 70
     0
  1

 70
     0
  1

 70
     0
  1

 70
     0
  1

 70
     0
  1

 70
     0
  1

 70
     0
  1

 70
     0
  1

 70
     0
  1

 70
     0
  1

 70
     0
  1

 70
     0
  1

 70
     0
  1

 70
     0
  1

 70
     0
  1

 70
     0
  1

 70
     0
  1

 70
     0
  1

 70
     0
  1

 70
     0
  1

 70
     0
  1

 70
     0
  1

 70
     0
  1

 70
     0
  1

 70
     0
  1

 70
     0
  1

 70
     0
  1

 70
     0
  1

 70
     0
  1

 70
     0
  1

 70
     0
  1

 70
     0
  1

 70
     0
  1

 70
     0
  1

 70
     0
  1

 70
     0
  1

 70
     0
  1

 70
     0
  1

 70
     0
  1

 70
     0
  1

 70
     0
  1

 70
     0
  1

 70
     0
  1

 70
     0
  1

 70
     0
  1

 70
     0
  1

 70
     0
  1

 70
     0
  1

 70
     0
  1

 70
     0
  1

 70
     0
  1

 70
     0
  1

 70
     0
  1

 70
     0
  1

 70
     0
  1

 70
     0
  1

 70
     0
  1

 70
     0
  1

 70
     0
  1

 70
     0
  1

 70
     0
  1

 70
     0
  1

 70
     0
  1

 70
     0
  1

 70
     0
  1

 70
     0
  1

 70
     0
  1

 70
     0
  1

 70
     0
  1

 70
     0
  1

 70
     0
  1

 70
     0
  1

 70
     0
  1

 70
     0
  1

 70
     0
  1

 70
     0
  1

 70
     0
  1

 70
     0
  1

 70
     0
  1

 70
     0
  1

 70
     0
  1

 70
     0
  1

 70
     0
  1

 70
     0
  1

 70
     0
  1

 70
     0
  1

 70
     0
  1

 70
     0
  1

 70
     0
  1

 70
     0
  1

 70
     0
  1

 70
     0
  1

 70
     0
  1

 70
     0
  1

 70
     0
  1

 70
     0
  1

 70
     0
  1

 70
     0
  1

 70
     0
  1

 70
     0
  1

 70
     0
  1

 70
     0
  1

 70
     0
  1

 70
     0
  1

 70
     0
  1

 70
     0
  1

 70
     0
  1

 70
     0
  1

 70
     0
  1

 70
     0
  1

 70
     0
  1

 70
     0
  1

 70
     0
  1

 70
     0
  1

 70
     0
  1

 70
     0
  1

 70
     0
  1

 70
     0
  1

 70
     0
  1

 70
     0
  1

 70
     0
  1

 70
     0
  1

 70
     0
  1

 70
     0
  1

 70
     0
  1

 70
     0
  1

 70
     0
  0
XRECORD
  5
892
102
{ACAD_REACTORS
330
4EC
102
}
330
4EC
100
AcDbXrecord
280
     1
 70
     2
 70
   256
  1

 70
     0
  1

 70
     0
  1

 70
     0
  1

 70
     0
  1

 70
     0
  1

 70
     0
  1

 70
     0
  1

 70
     0
  1

 70
     0
  1

 70
     0
  1

 70
     0
  1

 70
     0
  1

 70
     0
  1

 70
     0
  1

 70
     0
  1

 70
     0
  1

 70
     0
  1

 70
     0
  1

 70
     0
  1

 70
     0
  1

 70
     0
  1

 70
     0
  1

 70
     0
  1

 70
     0
  1

 70
     0
  1

 70
     0
  1

 70
     0
  1

 70
     0
  1

 70
     0
  1

 70
     0
  1

 70
     0
  1

 70
     0
  1

 70
     0
  1

 70
     0
  1

 70
     0
  1

 70
     0
  1

 70
     0
  1

 70
     0
  1

 70
     0
  1

 70
     0
  1

 70
     0
  1

 70
     0
  1

 70
     0
  1

 70
     0
  1

 70
     0
  1

 70
     0
  1

 70
     0
  1

 70
     0
  1

 70
     0
  1

 70
     0
  1

 70
     0
  1

 70
     0
  1

 70
     0
  1

 70
     0
  1

 70
     0
  1

 70
     0
  1

 70
     0
  1

 70
     0
  1

 70
     0
  1

 70
     0
  1

 70
     0
  1

 70
     0
  1

 70
     0
  1

 70
     0
  1

 70
     0
  1

 70
     0
  1

 70
     0
  1

 70
     0
  1

 70
     0
  1

 70
     0
  1

 70
     0
  1

 70
     0
  1

 70
     0
  1

 70
     0
  1

 70
     0
  1

 70
     0
  1

 70
     0
  1

 70
     0
  1

 70
     0
  1

 70
     0
  1

 70
     0
  1

 70
     0
  1

 70
     0
  1

 70
     0
  1

 70
     0
  1

 70
     0
  1

 70
     0
  1

 70
     0
  1

 70
     0
  1

 70
     0
  1

 70
     0
  1

 70
     0
  1

 70
     0
  1

 70
     0
  1

 70
     0
  1

 70
     0
  1

 70
     0
  1

 70
     0
  1

 70
     0
  1

 70
     0
  1

 70
     0
  1

 70
     0
  1

 70
     0
  1

 70
     0
  1

 70
     0
  1

 70
     0
  1

 70
     0
  1

 70
     0
  1

 70
     0
  1

 70
     0
  1

 70
     0
  1

 70
     0
  1

 70
     0
  1

 70
     0
  1

 70
     0
  1

 70
     0
  1

 70
     0
  1

 70
     0
  1

 70
     0
  1

 70
     0
  1

 70
     0
  1

 70
     0
  1

 70
     0
  1

 70
     0
  1

 70
     0
  1

 70
     0
  1

 70
     0
  1

 70
     0
  1

 70
     0
  1

 70
     0
  1

 70
     0
  1

 70
     0
  1

 70
     0
  1

 70
     0
  1

 70
     0
  1

 70
     0
  1

 70
     0
  1

 70
     0
  1

 70
     0
  1

 70
     0
  1

 70
     0
  1

 70
     0
  1

 70
     0
  1

 70
     0
  1

 70
     0
  1

 70
     0
  1

 70
     0
  1

 70
     0
  1

 70
     0
  1

 70
     0
  1

 70
     0
  1

 70
     0
  1

 70
     0
  1

 70
     0
  1

 70
     0
  1

 70
     0
  1

 70
     0
  1

 70
     0
  1

 70
     0
  1

 70
     0
  1

 70
     0
  1

 70
     0
  1

 70
     0
  1

 70
     0
  1

 70
     0
  1

 70
     0
  1

 70
     0
  1

 70
     0
  1

 70
     0
  1

 70
     0
  1

 70
     0
  1

 70
     0
  1

 70
     0
  1

 70
     0
  1

 70
     0
  1

 70
     0
  1

 70
     0
  1

 70
     0
  1

 70
     0
  1

 70
     0
  1

 70
     0
  1

 70
     0
  1

 70
     0
  1

 70
     0
  1

 70
     0
  1

 70
     0
  1

 70
     0
  1

 70
     0
  1

 70
     0
  1

 70
     0
  1

 70
     0
  1

 70
     0
  1

 70
     0
  1

 70
     0
  1

 70
     0
  1

 70
     0
  1

 70
     0
  1

 70
     0
  1

 70
     0
  1

 70
     0
  1

 70
     0
  1

 70
     0
  1

 70
     0
  1

 70
     0
  1

 70
     0
  1

 70
     0
  1

 70
     0
  1

 70
     0
  1

 70
     0
  1

 70
     0
  1

 70
     0
  1

 70
     0
  1

 70
     0
  1

 70
     0
  1

 70
     0
  1

 70
     0
  1

 70
     0
  1

 70
     0
  1

 70
     0
  1

 70
     0
  1

 70
     0
  1

 70
     0
  1

 70
     0
  1

 70
     0
  1

 70
     0
  1

 70
     0
  1

 70
     0
  1

 70
     0
  1

 70
     0
  1

 70
     0
  1

 70
     0
  1

 70
     0
  1

 70
     0
  1

 70
     0
  1

 70
     0
  1

 70
     0
  1

 70
     0
  1

 70
     0
  1

 70
     0
  1

 70
     0
  1

 70
     0
  1

 70
     0
  1

 70
     0
  1

 70
     0
  1

 70
     0
  1

 70
     0
  1

 70
     0
  1

 70
     0
  1

 70
     0
  1

 70
     0
  1

 70
     0
  1

 70
     0
  1

 70
     0
  1

 70
     0
  1

 70
     0
  1

 70
     0
  0
XRECORD
  5
522
102
{ACAD_REACTORS
330
4EC
102
}
330
4EC
100
AcDbXrecord
280
     1
 90
1393298577
 90
     3615
 90
       51
 90
       52
 90
        3
 90
      256
  1
Standard
  1
Standard
  1

  1

140
0.0
140
0.0
140
0.0
140
0.0
 70
    31
 70
     9
 70
    23
 70
    63
 70
    31
 70
     1
 70
     1
 70
     2
 70
     2
 70
     7
 70
     2
 70
     1
 70
     1
 70
     1
 70
     1
 70
     1
 70
     1
 70
     0
 70
     1
140
0.000001
140
1.0
 70
     1
140
1.0
140
1.0
140
1.0
140
100.0
140
50.0
140
0.0
 70
     8
 70
   210
 70
     1
 70
     1
140
250.0
140
5.0
 70
     5
 70
     2
 70
     1
 70
     4
 70
     3
 70
     2
 70
     2
 70
     3
 70
     2
 70
    80
 70
     1
140
5.0
140
1.0
 70
     1
 70
     0
 70
     0
140
5.0
140
1.0
 70
     1
 70
     0
 70
     0
 70
     0
 70
     0
140
25.0
  1

  1
$(N) $(L)x$(W)x$(T)
 70
     1
 70
     0
  1
$(N) $(T)x$(W)
 70
     1
 70
     0
140
2.0
  1
$(N) $(T)x$(W)
 70
     0
 70
     0
 70
     0
 70
     0
 70
     0
 70
     5
 70
     1
 70
     7
 70
     2
 70
     0
 70
     1
 70
     0
 70
     0
 70
     1
 70
     1
 70
     4
 70
     7
 70
     1
 70
     1
 70
     2
 70
     8
 70
     2
 70
     1
 70
     7
 70
     0
 70
     0
140
10.0
140
0.0
140
10.0
140
0.2
140
0.0
140
0.0
140
1.0
140
500.0
140
7865.0
140
0.0
  1
RD $(D)
  1
RO $(D)x$(T)
  1
RQ $(D)x$(T)
  1
RR $(W)x$(H)x$(T)
  1
4KT $(D)
  1
BLECH $(W)x$(H)
 70
     0
 70
    -1
 70
    -1
 70
    -1
 70
  1025
 70
  1025
 70
  1025
 70
  1025
 70
  1025
 70
     3
 70
     1
 70
     1
 70
     0
 70
     0
 70
     0
 70
     0
 70
     0
 70
     0
 70
     0
 70
     0
 70
     0
 70
     0
 70
     0
 70
     0
 70
     0
 70
     0
 70
     0
 70
     0
 70
     0
 70
     0
 70
     0
 70
     0
 70
     0
 70
     0
 70
     0
 70
     0
 70
    34
 70
    34
 70
   100
 70
  6000
 70
     0
 70
   253
 70
   253
 70
   253
 90
        4
 70
     0
 70
     1
 70
     1
 70
     0
 70
     0
 70
     0
 70
     0
 70
     0
 90
       56
140
3.149999999999999
140
1.0
140
1.0
 70
     0
 70
     0
 70
     0
 70
     1
 70
     2
 70
    11
 70
    17
 70
    12
 70
   256
 70
   256
 70
   128
 90
        1
140
200.0
  1

  1

  1

  1

  1

  1

  0
XRECORD
  5
489
102
{ACAD_REACTORS
330
488
102
}
330
488
100
AcDbXrecord
280
     1
  1
13.20.0307
  1
2:2:2011 by PS 18.0
  0
DICTIONARY
  5
471
330
470
100
AcDbDictionary
280
     1
281
     1
  3
ACAD_XREC_ROUNDTRIP
360
2288
  3
BUMPTILE
360
473
  3
DIFFUSETILE
360
472
  3
OPACITYTILE
360
476
  3
REFLECTIONTILE
360
475
  3
REFRACTIONTILE
360
477
  3
SPECULARTILE
360
474
  0
DICTIONARY
  5
469
330
468
100
AcDbDictionary
280
     1
281
     1
  3
ACAD_XREC_ROUNDTRIP
360
2287
  3
BUMPTILE
360
46B
  3
DIFFUSETILE
360
46A
  3
OPACITYTILE
360
46E
  3
REFLECTIONTILE
360
46D
  3
REFRACTIONTILE
360
46F
  3
SPECULARTILE
360
46C
  0
DICTIONARY
  5
479
330
478
100
AcDbDictionary
280
     1
281
     1
  3
ACAD_XREC_ROUNDTRIP
360
2289
  3
BUMPTILE
360
47B
  3
DIFFUSETILE
360
47A
  3
OPACITYTILE
360
47E
  3
REFLECTIONTILE
360
47D
  3
REFRACTIONTILE
360
47F
  3
SPECULARTILE
360
47C
  0
DICTIONARY
  5
523
330
482
100
AcDbDictionary
280
     1
281
     1
  3
ACAD_ROUNDTRIP_2008_TABLESTYLE_CELLSTYLEMAP
360
2285
  3
ACAD_XREC_ROUNDTRIP
360
228A
  0
XRECORD
  5
2288
102
{ACAD_REACTORS
330
471
102
}
330
471
100
AcDbXrecord
280
     1
102
MATERIAL
148
0.0
149
0.0
149
0.0
 93
        0
 94
      127
282
     0
 72
     0
 77
     0
171
     0
175
     0
179
     0
273
     0
  0
XRECORD
  5
473
102
{ACAD_REACTORS
330
471
102
}
330
471
100
AcDbXrecord
280
     1
270
     1
271
     1
  0
XRECORD
  5
472
102
{ACAD_REACTORS
330
471
102
}
330
471
100
AcDbXrecord
280
     1
270
     1
271
     1
  0
XRECORD
  5
476
102
{ACAD_REACTORS
330
471
102
}
330
471
100
AcDbXrecord
280
     1
270
     1
271
     1
  0
XRECORD
  5
475
102
{ACAD_REACTORS
330
471
102
}
330
471
100
AcDbXrecord
280
     1
270
     1
271
     1
  0
XRECORD
  5
477
102
{ACAD_REACTORS
330
471
102
}
330
471
100
AcDbXrecord
280
     1
270
     1
271
     1
  0
XRECORD
  5
474
102
{ACAD_REACTORS
330
471
102
}
330
471
100
AcDbXrecord
280
     1
270
     1
271
     1
  0
XRECORD
  5
2287
102
{ACAD_REACTORS
330
469
102
}
330
469
100
AcDbXrecord
280
     1
102
MATERIAL
148
0.0
149
0.0
149
0.0
 93
        0
 94
      127
282
     0
 72
     0
 77
     0
171
     0
175
     0
179
     0
273
     0
  0
XRECORD
  5
46B
102
{ACAD_REACTORS
330
469
102
}
330
469
100
AcDbXrecord
280
     1
270
     1
271
     1
  0
XRECORD
  5
46A
102
{ACAD_REACTORS
330
469
102
}
330
469
100
AcDbXrecord
280
     1
270
     1
271
     1
  0
XRECORD
  5
46E
102
{ACAD_REACTORS
330
469
102
}
330
469
100
AcDbXrecord
280
     1
270
     1
271
     1
  0
XRECORD
  5
46D
102
{ACAD_REACTORS
330
469
102
}
330
469
100
AcDbXrecord
280
     1
270
     1
271
     1
  0
XRECORD
  5
46F
102
{ACAD_REACTORS
330
469
102
}
330
469
100
AcDbXrecord
280
     1
270
     1
271
     1
  0
XRECORD
  5
46C
102
{ACAD_REACTORS
330
469
102
}
330
469
100
AcDbXrecord
280
     1
270
     1
271
     1
  0
XRECORD
  5
2289
102
{ACAD_REACTORS
330
479
102
}
330
479
100
AcDbXrecord
280
     1
102
MATERIAL
148
0.0
149
0.0
149
0.0
 93
        0
 94
      127
282
     0
 72
     0
 77
     0
171
     0
175
     0
179
     0
273
     0
  0
XRECORD
  5
47B
102
{ACAD_REACTORS
330
479
102
}
330
479
100
AcDbXrecord
280
     1
270
     1
271
     1
  0
XRECORD
  5
47A
102
{ACAD_REACTORS
330
479
102
}
330
479
100
AcDbXrecord
280
     1
270
     1
271
     1
  0
XRECORD
  5
47E
102
{ACAD_REACTORS
330
479
102
}
330
479
100
AcDbXrecord
280
     1
270
     1
271
     1
  0
XRECORD
  5
47D
102
{ACAD_REACTORS
330
479
102
}
330
479
100
AcDbXrecord
280
     1
270
     1
271
     1
  0
XRECORD
  5
47F
102
{ACAD_REACTORS
330
479
102
}
330
479
100
AcDbXrecord
280
     1
270
     1
271
     1
  0
XRECORD
  5
47C
102
{ACAD_REACTORS
330
479
102
}
330
479
100
AcDbXrecord
280
     1
270
     1
271
     1
  0
ACAD_PROXY_OBJECT
  5
2285
102
{ACAD_REACTORS
330
523
102
}
330
523
100
AcDbProxyObject
 90
      499
 91
      513
 95
  4980761
 70
     0
 93
     5304
310
40D054060020000020000003200101A000080002A5058000000C10000000000000006101010000000000003E0FC000000000000F83F0000000000003E0FC000000000000F83F000000000000049000000000000001240419019018000000C1003FBFFFFFE0000000000003C8FD029018000000C1003FBFFFFFE00000000000
310
03C8FD049018000000C1003FBFFFFFE0000000000003C8FD089018000000C1003FBFFFFFE0000000000003C8FD109018000000C1003FBFFFFFE0000000000003C8FD209018000000C1003FBFFFFFE0000000000003C8FD01405075F5449544C450041501A8000000C800406800020000A94160000003040000000000000012
310
40404000000000000F83F0000000000003E0FC000000000000F83F0000000000003E0FC0000000000001240000000000000049010640640600000030400FEFFFFFF8000000000000F23F40A40600000030400FEFFFFFF8000000000000F23F41240600000030400FEFFFFFF8000000000000F23F42240600000030400FEFFF
310
FFF8000000000000F23F44240600000030400FEFFFFFF8000000000000F23F48240600000030400FEFFFFFF8000000000000F23F409014217D2115051115480105406A0000003200101A000080002A5028000000C10000000000000004901010000000000003E0FC000000000000F83F0000000000003E0FC000000000000F
310
83F000000000000049000000000000001240419019018000000C1003FBFFFFFE0000000000003C8FD029018000000C1003FBFFFFFE0000000000003C8FD049018000000C1003FBFFFFFE0000000000003C8FD089018000000C1003FBFFFFFE0000000000003C8FD109018000000C1003FBFFFFFE0000000000003C8FD20901
310
8000000C1003FBFFFFFE0000000000003C8FD03409065F444154410000
340
11
340
0
340
0
340
0
340
0
340
0
340
0
340
11
340
0
340
0
340
0
340
0
340
0
340
0
340
11
340
0
340
0
340
0
340
0
340
0
340
0
 94
        0
  0
XRECORD
  5
228A
102
{ACAD_REACTORS
330
523
102
}
330
523
100
AcDbXrecord
280
     1
102
ACAD_ROUNDTRIP_PRE2007_TABLESTYLE
 90
      512
 91
        0
  1

 92
      512
 93
        0
  2

 94
      512
 95
        0
  3

  0
ENDSEC
  0
EOF
