  0
SECTION
  2
HEADER
  9
$ACADVER
  1
AC1018
  9
$ACADMAINTVER
 70
    76
  9
$DWGCODEPAGE
  3
ANSI_1252
  9
$LASTSAVEDBY
  1
Schatterny
  9
$INSBASE
 10
0.0
 20
0.0
 30
0.0
  9
$EXTMIN
 10
-3889.236513449039
 20
-6360.352008953283
 30
-0.0083916979057221
  9
$EXTMAX
 10
-3255.449026470586
 20
-5459.337147075808
 30
275.0085304784739
  9
$LIMMIN
 10
0.0
 20
0.0
  9
$LIMMAX
 10
420.0
 20
297.0
  9
$ORTHOMODE
 70
     1
  9
$REGENMODE
 70
     1
  9
$FILLMODE
 70
     1
  9
$QTEXTMODE
 70
     0
  9
$MIRRTEXT
 70
     1
  9
$LTSCALE
 40
1.0
  9
$ATTMODE
 70
     1
  9
$TEXTSIZE
 40
2.5
  9
$TRACEWID
 40
1.0
  9
$TEXTSTYLE
  7
Standard
  9
$CLAYER
  8
-TEXT3
  9
$CELTYPE
  6
ByLayer
  9
$CECOLOR
 62
   256
  9
$CELTSCALE
 40
1.0
  9
$DISPSILH
 70
     0
  9
$DIMSCALE
 40
1.0
  9
$DIMASZ
 40
8.0
  9
$DIMEXO
 40
3.0
  9
$DIMDLI
 40
10.0
  9
$DIMRND
 40
0.0
  9
$DIMDLE
 40
0.0
  9
$DIMEXE
 40
1.0
  9
$DIMTP
 40
0.0
  9
$DIMTM
 40
0.5
  9
$DIMTXT
 40
8.0
  9
$DIMCEN
 40
0.09
  9
$DIMTSZ
 40
0.0
  9
$DIMTOL
 70
     0
  9
$DIMLIM
 70
     0
  9
$DIMTIH
 70
     0
  9
$DIMTOH
 70
     0
  9
$DIMSE1
 70
     0
  9
$DIMSE2
 70
     0
  9
$DIMTAD
 70
     1
  9
$DIMZIN
 70
     9
  9
$DIMBLK
  1

  9
$DIMASO
 70
     1
  9
$DIMSHO
 70
     1
  9
$DIMPOST
  1

  9
$DIMAPOST
  1

  9
$DIMALT
 70
     0
  9
$DIMALTD
 70
     2
  9
$DIMALTF
 40
25.4
  9
$DIMLFAC
 40
1.0
  9
$DIMTOFL
 70
     1
  9
$DIMTVP
 40
0.0
  9
$DIMTIX
 70
     0
  9
$DIMSOXD
 70
     0
  9
$DIMSAH
 70
     0
  9
$DIMBLK1
  1

  9
$DIMBLK2
  1

  9
$DIMSTYLE
  2
1-1
  9
$DIMCLRD
 70
   256
  9
$DIMCLRE
 70
   256
  9
$DIMCLRT
 70
   256
  9
$DIMTFAC
 40
0.75
  9
$DIMGAP
 40
3.0
  9
$DIMJUST
 70
     0
  9
$DIMSD1
 70
     0
  9
$DIMSD2
 70
     0
  9
$DIMTOLJ
 70
     0
  9
$DIMTZIN
 70
     0
  9
$DIMALTZ
 70
     0
  9
$DIMALTTZ
 70
     0
  9
$DIMUPT
 70
     0
  9
$DIMDEC
 70
     0
  9
$DIMTDEC
 70
     0
  9
$DIMALTU
 70
     2
  9
$DIMALTTD
 70
     2
  9
$DIMTXSTY
  7
Standard
  9
$DIMAUNIT
 70
     0
  9
$DIMADEC
 70
     0
  9
$DIMALTRND
 40
0.0
  9
$DIMAZIN
 70
     0
  9
$DIMDSEP
 70
    46
  9
$DIMATFIT
 70
     3
  9
$DIMFRAC
 70
     0
  9
$DIMLDRBLK
  1

  9
$DIMLUNIT
 70
     2
  9
$DIMLWD
 70
    -2
  9
$DIMLWE
 70
    -2
  9
$DIMTMOVE
 70
     0
  9
$LUNITS
 70
     2
  9
$LUPREC
 70
     4
  9
$SKETCHINC
 40
1.0
  9
$FILLETRAD
 40
0.0
  9
$AUNITS
 70
     0
  9
$AUPREC
 70
     0
  9
$MENU
  1
.
  9
$ELEVATION
 40
0.0
  9
$PELEVATION
 40
0.0
  9
$THICKNESS
 40
0.0
  9
$LIMCHECK
 70
     0
  9
$CHAMFERA
 40
10.0
  9
$CHAMFERB
 40
10.0
  9
$CHAMFERC
 40
20.0
  9
$CHAMFERD
 40
0.0
  9
$SKPOLY
 70
     0
  9
$TDCREATE
 40
2455581.417946968
  9
$TDUCREATE
 40
2455581.376280301
  9
$TDUPDATE
 40
2457711.461765463
  9
$TDUUPDATE
 40
2457711.420098797
  9
$TDINDWG
 40
12.0004514583
  9
$TDUSRTIMER
 40
12.0004514583
  9
$USRTIMER
 70
     1
  9
$ANGBASE
 50
0.0
  9
$ANGDIR
 70
     0
  9
$PDMODE
 70
     0
  9
$PDSIZE
 40
0.0
  9
$PLINEWID
 40
0.0
  9
$SPLFRAME
 70
     0
  9
$SPLINETYPE
 70
     6
  9
$SPLINESEGS
 70
     8
  9
$HANDSEED
  5
19E9B
  9
$SURFTAB1
 70
     6
  9
$SURFTAB2
 70
     6
  9
$SURFTYPE
 70
     6
  9
$SURFU
 70
     6
  9
$SURFV
 70
     6
  9
$UCSBASE
  2

  9
$UCSNAME
  2

  9
$UCSORG
 10
0.0
 20
0.0
 30
0.0
  9
$UCSXDIR
 10
1.0
 20
0.0
 30
0.0
  9
$UCSYDIR
 10
0.0
 20
1.0
 30
0.0
  9
$UCSORTHOREF
  2

  9
$UCSORTHOVIEW
 70
     0
  9
$UCSORGTOP
 10
0.0
 20
0.0
 30
0.0
  9
$UCSORGBOTTOM
 10
0.0
 20
0.0
 30
0.0
  9
$UCSORGLEFT
 10
0.0
 20
0.0
 30
0.0
  9
$UCSORGRIGHT
 10
0.0
 20
0.0
 30
0.0
  9
$UCSORGFRONT
 10
0.0
 20
0.0
 30
0.0
  9
$UCSORGBACK
 10
0.0
 20
0.0
 30
0.0
  9
$PUCSBASE
  2

  9
$PUCSNAME
  2

  9
$PUCSORG
 10
0.0
 20
0.0
 30
0.0
  9
$PUCSXDIR
 10
1.0
 20
0.0
 30
0.0
  9
$PUCSYDIR
 10
0.0
 20
1.0
 30
0.0
  9
$PUCSORTHOREF
  2

  9
$PUCSORTHOVIEW
 70
     0
  9
$PUCSORGTOP
 10
0.0
 20
0.0
 30
0.0
  9
$PUCSORGBOTTOM
 10
0.0
 20
0.0
 30
0.0
  9
$PUCSORGLEFT
 10
0.0
 20
0.0
 30
0.0
  9
$PUCSORGRIGHT
 10
0.0
 20
0.0
 30
0.0
  9
$PUCSORGFRONT
 10
0.0
 20
0.0
 30
0.0
  9
$PUCSORGBACK
 10
0.0
 20
0.0
 30
0.0
  9
$USERI1
 70
     0
  9
$USERI2
 70
     0
  9
$USERI3
 70
     0
  9
$USERI4
 70
     0
  9
$USERI5
 70
     0
  9
$USERR1
 40
0.0
  9
$USERR2
 40
0.0
  9
$USERR3
 40
0.0
  9
$USERR4
 40
0.0
  9
$USERR5
 40
0.0
  9
$WORLDVIEW
 70
     0
  9
$SHADEDGE
 70
     3
  9
$SHADEDIF
 70
    70
  9
$TILEMODE
 70
     1
  9
$MAXACTVP
 70
    64
  9
$PINSBASE
 10
0.0
 20
0.0
 30
0.0
  9
$PLIMCHECK
 70
     0
  9
$PEXTMIN
 10
0.0
 20
0.0
 30
0.0
  9
$PEXTMAX
 10
420.0
 20
297.0
 30
0.0
  9
$PLIMMIN
 10
0.0
 20
0.0
  9
$PLIMMAX
 10
420.0
 20
297.0
  9
$UNITMODE
 70
     0
  9
$VISRETAIN
 70
     1
  9
$PLINEGEN
 70
     0
  9
$PSLTSCALE
 70
     1
  9
$TREEDEPTH
 70
  3020
  9
$CMLSTYLE
  2
Standard
  9
$CMLJUST
 70
     0
  9
$CMLSCALE
 40
20.0
  9
$PROXYGRAPHICS
 70
     1
  9
$MEASUREMENT
 70
     1
  9
$CELWEIGHT
370
    -1
  9
$ENDCAPS
280
     0
  9
$JOINSTYLE
280
     0
  9
$LWDISPLAY
290
     0
  9
$INSUNITS
 70
     4
  9
$HYPERLINKBASE
  1

  9
$STYLESHEET
  1
brüstung.ctb
  9
$XEDIT
290
     1
  9
$CEPSNTYPE
380
     0
  9
$PSTYLEMODE
290
     1
  9
$FINGERPRINTGUID
  2
{B2DF4339-73A4-4EEF-B482-1DB72221CEAF}
  9
$VERSIONGUID
  2
{556A5FE9-F8A4-4126-988C-5B6F387C5081}
  9
$EXTNAMES
290
     1
  9
$PSVPSCALE
 40
0.0
  9
$OLESTARTUP
290
     0
  9
$SORTENTS
280
   127
  9
$INDEXCTL
280
     0
  9
$HIDETEXT
280
     0
  9
$XCLIPFRAME
290
     0
  9
$HALOGAP
280
     0
  9
$OBSCOLOR
 70
   257
  9
$OBSLTYPE
280
     0
  9
$INTERSECTIONDISPLAY
280
     0
  9
$INTERSECTIONCOLOR
 70
   257
  9
$DIMASSOC
280
     1
  9
$PROJECTNAME
  1

  0
ENDSEC
  0
SECTION
  2
CLASSES
  0
CLASS
  1
ACDBDICTIONARYWDFLT
  2
AcDbDictionaryWithDefault
  3
ObjectDBX Classes
 90
        0
 91
        1
280
     0
281
     0
  0
CLASS
  1
VISUALSTYLE
  2
AcDbVisualStyle
  3
ObjectDBX Classes
 90
     4095
 91
       16
280
     0
281
     0
  0
CLASS
  1
SCALE
  2
AcDbScale
  3
ObjectDBX Classes
 90
     1153
 91
       33
280
     0
281
     0
  0
CLASS
  1
DICTIONARYVAR
  2
AcDbDictionaryVar
  3
ObjectDBX Classes
 90
        0
 91
        9
280
     0
281
     0
  0
CLASS
  1
ACDBPLACEHOLDER
  2
AcDbPlaceHolder
  3
ObjectDBX Classes
 90
        0
 91
        1
280
     0
281
     0
  0
CLASS
  1
LAYOUT
  2
AcDbLayout
  3
ObjectDBX Classes
 90
        0
 91
        2
280
     0
281
     0
  0
CLASS
  1
MATERIAL
  2
AcDbMaterial
  3
ObjectDBX Classes
 90
        0
 91
        3
280
     0
281
     0
  0
CLASS
  1
TABLESTYLE
  2
AcDbTableStyle
  3
ObjectDBX Classes
 90
     2047
 91
        1
280
     0
281
     0
  0
CLASS
  1
MLEADERSTYLE
  2
AcDbMLeaderStyle
  3
ACDB_MLEADERSTYLE_CLASS
 90
     4095
 91
        1
280
     0
281
     0
  0
CLASS
  1
Ks_BoltStyle
  2
Ks_BoltStyle
  3
Pro_Stahl_3d
 90
        0
 91
       31
280
     0
281
     0
  0
CLASS
  1
Ks_WeldStyle
  2
Ks_WeldStyle
  3
Pro_Stahl_3d
 90
        0
 91
       18
280
     0
281
     0
  0
CLASS
  1
Ks_KoteflagStyle
  2
Ks_KoteflagStyle
  3
Pro_Stahl_3d
 90
        0
 91
        2
280
     0
281
     0
  0
CLASS
  1
Ks_PosflagStyle
  2
Ks_PosflagStyle
  3
Pro_Stahl_3d
 90
        0
 91
       15
280
     0
281
     0
  0
CLASS
  1
CELLSTYLEMAP
  2
AcDbCellStyleMap
  3
ObjectDBX Classes
 90
     1152
 91
        1
280
     0
281
     0
  0
CLASS
  1
SORTENTSTABLE
  2
AcDbSortentsTable
  3
ObjectDBX Classes
 90
        0
 91
        1
280
     0
281
     0
  0
CLASS
  1
AEC_REFEDIT_STATUS_TRACKER
  2
AecDbRefEditStatusTracker
  3
AecArchBase50|Product Desc: Autodesk Architectural Desktop 2007 |Company: Autodesk,Inc. |WEB Address: www.autodesk.com
 90
      129
 91
        0
280
     0
281
     0
  0
CLASS
  1
NPOCOLLECTION
  2
AcDbImpNonPersistentObjectsCollection
  3
ObjectDBX Classes
 90
     1153
 91
        0
280
     0
281
     0
  0
CLASS
  1
DIMASSOC
  2
AcDbDimAssoc
  3
"AcDbDimAssoc|Product Desc:     AcDim ARX App For Dimension|Company:          Autodesk, Inc.|WEB Address:      www.autodesk.com"
 90
        0
 91
        0
280
     0
281
     0
  0
CLASS
  1
IMAGE
  2
AcDbRasterImage
  3
ISM
 90
      127
 91
       16
280
     0
281
     1
  0
CLASS
  1
IMAGEDEF_REACTOR
  2
AcDbRasterImageDefReactor
  3
ISM
 90
        1
 91
       16
280
     0
281
     0
  0
CLASS
  1
IMAGEDEF
  2
AcDbRasterImageDef
  3
ISM
 90
        0
 91
        1
280
     0
281
     0
  0
CLASS
  1
RASTERVARIABLES
  2
AcDbRasterVariables
  3
ISM
 90
        0
 91
        1
280
     0
281
     0
  0
ENDSEC
  0
SECTION
  2
TABLES
  0
TABLE
  2
VPORT
  5
8
102
{ACAD_XDICTIONARY
360
526
102
}
330
0
100
AcDbSymbolTable
 70
     5
  0
VPORT
  5
19E9A
330
8
100
AcDbSymbolTableRecord
100
AcDbViewportTableRecord
  2
*Active
 70
     0
 10
0.0
 20
0.0
 11
1.0
 21
1.0
 12
-3572.342769959813
 22
-5909.844578014546
 13
0.0
 23
0.0
 14
10.0
 24
10.0
 15
10.0
 25
10.0
 16
0.0
 26
0.0
 36
1.0
 17
0.0
 27
0.0
 37
0.0
 40
907.4814757187013
 41
1.893413173652694
 42
50.0
 43
0.0
 44
0.0
 50
0.0
 51
0.0
 71
     0
 72
   100
 73
     1
 74
     3
 75
     0
 76
     0
 77
     0
 78
     0
281
     0
 65
     1
110
0.0
120
0.0
130
0.0
111
1.0
121
0.0
131
0.0
112
0.0
122
1.0
132
0.0
 79
     0
146
0.0
  0
ENDTAB
  0
TABLE
  2
LTYPE
  5
5
330
0
100
AcDbSymbolTable
 70
     5
  0
LTYPE
  5
14
330
5
100
AcDbSymbolTableRecord
100
AcDbLinetypeTableRecord
  2
ByBlock
 70
     0
  3

 72
    65
 73
     0
 40
0.0
  0
LTYPE
  5
15
330
5
100
AcDbSymbolTableRecord
100
AcDbLinetypeTableRecord
  2
ByLayer
 70
     0
  3

 72
    65
 73
     0
 40
0.0
  0
LTYPE
  5
16
330
5
100
AcDbSymbolTableRecord
100
AcDbLinetypeTableRecord
  2
Continuous
 70
     0
  3
Solid line
 72
    65
 73
     0
 40
0.0
  0
LTYPE
  5
63F7
330
5
100
AcDbSymbolTableRecord
100
AcDbLinetypeTableRecord
  2
STRICHLINIEX2
 70
     0
  3
Strichlinie (2x) ____  ____  ____  ____  ____  
 72
    65
 73
     2
 40
1.5
 49
1.0
 74
     0
 49
-0.5
 74
     0
  0
LTYPE
  5
63F8
330
5
100
AcDbSymbolTableRecord
100
AcDbLinetypeTableRecord
  2
MITTEX2
 70
     0
  3
Mitte (2x) ________  __  ________  __  _____
 72
    65
 73
     4
 40
4.0
 49
2.5
 74
     0
 49
-0.5
 74
     0
 49
0.5
 74
     0
 49
-0.5
 74
     0
  0
LTYPE
  5
14C02
330
5
100
AcDbSymbolTableRecord
100
AcDbLinetypeTableRecord
  2
AUSGEZOGEN
 70
     0
  3
AUSGEZOGEN
 72
    65
 73
     2
 40
2.0
 49
1.0
 74
     0
 49
1.0
 74
     0
  0
LTYPE
  5
15264
330
5
100
AcDbSymbolTableRecord
100
AcDbLinetypeTableRecord
  2
DASHDOT2
 70
     0
  3
Dash dot (.5x) _._._._._._._._._._._._._._._.
 72
    65
 73
     4
 40
12.7
 49
6.349999999999999
 74
     4
 75
     0
340
0
 46
0.0
 50
0.0
 44
0.0
 45
0.0
 49
-3.174999999999999
 74
     4
 75
     0
340
0
 46
0.0
 50
0.0
 44
0.0
 45
0.0
 49
0.0
 74
     4
 75
     0
340
0
 46
0.0
 50
0.0
 44
0.0
 45
0.0
 49
-3.174999999999999
 74
     4
 75
     0
340
0
 46
0.0
 50
0.0
 44
0.0
 45
0.0
  0
ENDTAB
  0
TABLE
  2
LAYER
  5
2
102
{ACAD_XDICTIONARY
360
7C6
102
}
330
0
100
AcDbSymbolTable
 70
     9
  0
LAYER
  5
10
102
{ACAD_XDICTIONARY
360
4F0
102
}
330
2
100
AcDbSymbolTableRecord
100
AcDbLayerTableRecord
  2
0
 70
     0
 62
     7
  6
Continuous
370
    -3
390
F
  0
LAYER
  5
7BC
330
2
100
AcDbSymbolTableRecord
100
AcDbLayerTableRecord
  2
Defpoints
 70
     0
 62
     7
  6
Continuous
290
     0
370
    -3
390
F
  0
LAYER
  5
14EC
330
2
100
AcDbSymbolTableRecord
100
AcDbLayerTableRecord
  2
-TEXT3
 70
     0
 62
     2
  6
Continuous
370
    -3
390
F
  0
LAYER
  5
63FA
330
2
100
AcDbSymbolTableRecord
100
AcDbLayerTableRecord
  2
-TEXT2
 70
     0
 62
     3
  6
Continuous
370
    -3
390
F
  0
LAYER
  5
63FB
330
2
100
AcDbSymbolTableRecord
100
AcDbLayerTableRecord
  2
-SYSTEM
 70
     0
 62
     2
  6
MITTEX2
370
    -3
390
F
  0
LAYER
  5
63FC
330
2
100
AcDbSymbolTableRecord
100
AcDbLayerTableRecord
  2
-NORMTEIL_VERDECKT
 70
     0
 62
     9
  6
STRICHLINIEX2
370
    -3
390
F
  0
LAYER
  5
6406
102
{ACAD_XDICTIONARY
360
6407
102
}
330
2
100
AcDbSymbolTableRecord
100
AcDbLayerTableRecord
  2
GRUNDPROFIL
 70
     0
 62
     4
  6
Continuous
370
    -3
390
F
  0
LAYER
  5
14C06
330
2
100
AcDbSymbolTableRecord
100
AcDbLayerTableRecord
  2
-TEXT
 70
     0
 62
     7
  6
AUSGEZOGEN
370
    -3
390
F
  0
LAYER
  5
14C07
330
2
100
AcDbSymbolTableRecord
100
AcDbLayerTableRecord
  2
-ZEICHNUNGSRAND-INNEN
 70
     0
 62
     7
  6
Continuous
370
    -3
390
F
  0
ENDTAB
  0
TABLE
  2
STYLE
  5
3
330
0
100
AcDbSymbolTable
 70
     3
  0
STYLE
  5
11
330
3
100
AcDbSymbolTableRecord
100
AcDbTextStyleTableRecord
  2
Standard
 70
     0
 40
0.0
 41
1.0
 50
0.0
 71
     0
 42
2.5
  3
ARIAL.TTF
  4

1001
ACAD
1000
Arial
1071
       34
  0
STYLE
  5
14C08
330
3
100
AcDbSymbolTableRecord
100
AcDbTextStyleTableRecord
  2
LOGOCAD
 70
     0
 40
0.0
 41
1.0
 50
0.0
 71
     0
 42
3.5
  3
TXT8
  4

  0
ENDTAB
  0
TABLE
  2
VIEW
  5
6
330
0
100
AcDbSymbolTable
 70
     0
  0
ENDTAB
  0
TABLE
  2
UCS
  5
7
330
0
100
AcDbSymbolTable
 70
     0
  0
ENDTAB
  0
TABLE
  2
APPID
  5
9
330
0
100
AcDbSymbolTable
 70
    34
  0
APPID
  5
12
330
9
100
AcDbSymbolTableRecord
100
AcDbRegAppTableRecord
  2
ACAD
 70
     0
  0
APPID
  5
484
330
9
100
AcDbSymbolTableRecord
100
AcDbRegAppTableRecord
  2
ACAD_MLEADERVER
 70
     0
  0
APPID
  5
49E
330
9
100
AcDbSymbolTableRecord
100
AcDbRegAppTableRecord
  2
ProSteel3d_Bg
 70
     0
  0
APPID
  5
49F
330
9
100
AcDbSymbolTableRecord
100
AcDbRegAppTableRecord
  2
ProSteel3d_Sp
 70
     0
  0
APPID
  5
4A0
330
9
100
AcDbSymbolTableRecord
100
AcDbRegAppTableRecord
  2
ProSteel3d_DetDimEed
 70
     0
  0
APPID
  5
536
330
9
100
AcDbSymbolTableRecord
100
AcDbRegAppTableRecord
  2
ACAD_PSEXT
 70
     0
  0
APPID
  5
7C2
330
9
100
AcDbSymbolTableRecord
100
AcDbRegAppTableRecord
  2
ACAD_DSTYLE_DIMJAG
 70
     0
  0
APPID
  5
7C3
330
9
100
AcDbSymbolTableRecord
100
AcDbRegAppTableRecord
  2
ACAD_DSTYLE_DIMBREAK
 70
     0
  0
APPID
  5
7C4
330
9
100
AcDbSymbolTableRecord
100
AcDbRegAppTableRecord
  2
ACAD_DSTYLE_DIMTALN
 70
     0
  0
APPID
  5
7C5
330
9
100
AcDbSymbolTableRecord
100
AcDbRegAppTableRecord
  2
ACAD_DSTYLE_DIMRADIAL_EXTENSION
 70
     0
  0
APPID
  5
E07
330
9
100
AcDbSymbolTableRecord
100
AcDbRegAppTableRecord
  2
AcDbDynamicBlockGUID
 70
     0
  0
APPID
  5
E08
330
9
100
AcDbSymbolTableRecord
100
AcDbRegAppTableRecord
  2
AcDbBlockRepETag
 70
     0
  0
APPID
  5
131C
330
9
100
AcDbSymbolTableRecord
100
AcDbRegAppTableRecord
  2
ACAD_EXEMPT_FROM_CAD_STANDARDS
 70
     0
  0
APPID
  5
311D
330
9
100
AcDbSymbolTableRecord
100
AcDbRegAppTableRecord
  2
AcadAnnotative
 70
     0
  0
APPID
  5
311E
330
9
100
AcDbSymbolTableRecord
100
AcDbRegAppTableRecord
  2
AcAecLayerStandard
 70
     0
  0
APPID
  5
311F
330
9
100
AcDbSymbolTableRecord
100
AcDbRegAppTableRecord
  2
GENIUS_GENODEF_13
 70
     0
  0
APPID
  5
3120
330
9
100
AcDbSymbolTableRecord
100
AcDbRegAppTableRecord
  2
GENIUS_GENOBJ-N-CEN_13
 70
     0
  0
APPID
  5
3121
330
9
100
AcDbSymbolTableRecord
100
AcDbRegAppTableRecord
  2
GENIUS_GENCEN_19
 70
     0
  0
APPID
  5
640E
330
9
100
AcDbSymbolTableRecord
100
AcDbRegAppTableRecord
  2
AVE_FINISH
 70
     0
  0
APPID
  5
640F
330
9
100
AcDbSymbolTableRecord
100
AcDbRegAppTableRecord
  2
ACAD_DSTYLE_DIMEXT_LENGTH
 70
     0
  0
APPID
  5
6410
330
9
100
AcDbSymbolTableRecord
100
AcDbRegAppTableRecord
  2
ACAD_DSTYLE_DIMEXT_ENABLED
 70
     0
  0
APPID
  5
6411
330
9
100
AcDbSymbolTableRecord
100
AcDbRegAppTableRecord
  2
ACAD_DSTYLE_DIMJOGGED_JOGANGLE_SYMBOL
 70
     0
  0
APPID
  5
6412
330
9
100
AcDbSymbolTableRecord
100
AcDbRegAppTableRecord
  2
ACAD_DSTYLE_DIMARC_LENGTH_SYMBOL
 70
     0
  0
APPID
  5
6A34
330
9
100
AcDbSymbolTableRecord
100
AcDbRegAppTableRecord
  2
ACAD_DSTYLE_DIMTEXT_FILL
 70
     0
  0
APPID
  5
6A37
330
9
100
AcDbSymbolTableRecord
100
AcDbRegAppTableRecord
  2
ACAD_DSTYLE_DIM_LINETYPE
 70
     0
  0
APPID
  5
6A38
330
9
100
AcDbSymbolTableRecord
100
AcDbRegAppTableRecord
  2
ACAD_DSTYLE_DIM_EXT1_LINETYPE
 70
     0
  0
APPID
  5
6A39
330
9
100
AcDbSymbolTableRecord
100
AcDbRegAppTableRecord
  2
ACAD_DSTYLE_DIM_EXT2_LINETYPE
 70
     0
  0
APPID
  5
114A8
330
9
100
AcDbSymbolTableRecord
100
AcDbRegAppTableRecord
  2
DCO15
 70
     0
  0
APPID
  5
18E7D
330
9
100
AcDbSymbolTableRecord
100
AcDbRegAppTableRecord
  2
ACAD_DSTYLE_DIMINSPECT
 70
     0
  0
APPID
  5
18E7E
330
9
100
AcDbSymbolTableRecord
100
AcDbRegAppTableRecord
  2
ACCMTRANSPARENCY
 70
     0
  0
APPID
  5
18E7F
330
9
100
AcDbSymbolTableRecord
100
AcDbRegAppTableRecord
  2
GRADIENTCOLOR1ACI
 70
     0
  0
APPID
  5
18E80
330
9
100
AcDbSymbolTableRecord
100
AcDbRegAppTableRecord
  2
GRADIENTCOLOR2ACI
 70
     0
  0
APPID
  5
18E81
330
9
100
AcDbSymbolTableRecord
100
AcDbRegAppTableRecord
  2
AEC_XDATA_BOUND_SPACE
 70
     0
  0
APPID
  5
18E82
330
9
100
AcDbSymbolTableRecord
100
AcDbRegAppTableRecord
  2
GENIUS_GENDTOL_13
 70
     0
  0
ENDTAB
  0
TABLE
  2
DIMSTYLE
  5
A
330
0
100
AcDbSymbolTable
 70
     3
100
AcDbDimStyleTable
 71
     1
340
640D
  0
DIMSTYLE
105
3118
330
A
100
AcDbSymbolTableRecord
100
AcDbDimStyleTableRecord
  2
Standard
 70
     0
340
11
  0
DIMSTYLE
105
640D
102
{ACAD_REACTORS
330
1456B
330
1774C
330
1774D
330
1774E
330
17833
330
17835
330
17C3A
102
}
330
A
100
AcDbSymbolTableRecord
100
AcDbDimStyleTableRecord
  2
1-1
 70
     0
 41
8.0
 42
3.0
 43
10.0
 44
1.0
 48
0.5
 73
     0
 74
     0
 77
     1
 78
     9
140
8.0
146
0.75
147
3.0
172
     1
176
   256
177
   256
178
   256
271
     0
272
     0
283
     0
340
11
1001
ACAD_DSTYLE_DIMEXT_LENGTH
1070
   378
1040
1.0
1001
ACAD_DSTYLE_DIMEXT_ENABLED
1070
   383
1070
     0
1001
ACAD_DSTYLE_DIMARC_LENGTH_SYMBOL
1070
   379
1070
     0
1001
ACAD_DSTYLE_DIMJOGGED_JOGANGLE_SYMBOL
1070
   384
1040
0.7853981633974483
  0
ENDTAB
  0
TABLE
  2
BLOCK_RECORD
  5
1
330
0
100
AcDbSymbolTable
 70
   123
  0
BLOCK_RECORD
  5
1F
102
{ACAD_XDICTIONARY
360
1324
102
}
330
1
100
AcDbSymbolTableRecord
100
AcDbBlockTableRecord
  2
*Model_Space
340
22
  0
BLOCK_RECORD
  5
1B
330
1
100
AcDbSymbolTableRecord
100
AcDbBlockTableRecord
  2
*Paper_Space
340
1E
  0
BLOCK_RECORD
  5
14595
330
1
100
AcDbSymbolTableRecord
100
AcDbBlockTableRecord
  2
*D0
340
0
  0
BLOCK_RECORD
  5
17762
330
1
100
AcDbSymbolTableRecord
100
AcDbBlockTableRecord
  2
*D85
340
0
  0
BLOCK_RECORD
  5
1776E
330
1
100
AcDbSymbolTableRecord
100
AcDbBlockTableRecord
  2
*D86
340
0
  0
BLOCK_RECORD
  5
1777A
330
1
100
AcDbSymbolTableRecord
100
AcDbBlockTableRecord
  2
*D87
340
0
  0
BLOCK_RECORD
  5
1783C
330
1
100
AcDbSymbolTableRecord
100
AcDbBlockTableRecord
  2
*D88
340
0
  0
BLOCK_RECORD
  5
17854
330
1
100
AcDbSymbolTableRecord
100
AcDbBlockTableRecord
  2
*D89
340
0
  0
BLOCK_RECORD
  5
17C3B
330
1
100
AcDbSymbolTableRecord
100
AcDbBlockTableRecord
  2
*D98
340
0
  0
ENDTAB
  0
ENDSEC
  0
SECTION
  2
BLOCKS
  0
BLOCK
  5
20
330
1F
100
AcDbEntity
  8
0
100
AcDbBlockBegin
  2
*Model_Space
 70
     0
 10
0.0
 20
0.0
 30
0.0
  3
*Model_Space
  1

  0
ENDBLK
  5
21
330
1F
100
AcDbEntity
  8
0
100
AcDbBlockEnd
  0
BLOCK
  5
1C
330
1B
100
AcDbEntity
 67
     1
  8
0
100
AcDbBlockBegin
  2
*Paper_Space
 70
     0
 10
0.0
 20
0.0
 30
0.0
  3
*Paper_Space
  1

  0
ENDBLK
  5
1D
330
1B
100
AcDbEntity
 67
     1
  8
0
100
AcDbBlockEnd
  0
BLOCK
  5
1459F
330
14595
100
AcDbEntity
  8
0
100
AcDbBlockBegin
  2
*D0
 70
     1
 10
0.0
 20
0.0
 30
0.0
  3
*D0
  1

  0
LINE
  5
177E0
330
14595
100
AcDbEntity
  8
-TEXT3
370
    -2
100
AcDbLine
 10
-3568.795837597959
 20
-5626.556673902987
 30
0.0
 11
-3559.777906327988
 21
-5626.556673902987
 31
0.0
  0
LINE
  5
177E1
330
14595
100
AcDbEntity
  8
-TEXT3
370
    -2
100
AcDbLine
 10
-3574.960940684301
 20
-5698.563859141797
 30
0.0
 11
-3559.777906327988
 21
-5698.563859141797
 31
0.0
  0
LINE
  5
177E2
330
14595
100
AcDbEntity
  8
-TEXT3
370
    -2
100
AcDbLine
 10
-3560.777906327988
 20
-5634.556673902988
 30
0.0
 11
-3560.777906327988
 21
-5690.563859141797
 31
0.0
  0
SOLID
  5
177E3
330
14595
100
AcDbEntity
  8
-TEXT3
100
AcDbTrace
 10
-3562.111239661322
 20
-5634.556673902988
 30
0.0
 11
-3559.444572994654
 21
-5634.556673902988
 31
0.0
 12
-3560.777906327988
 22
-5626.556673902987
 32
0.0
 13
-3560.777906327988
 23
-5626.556673902987
 33
0.0
  0
SOLID
  5
177E4
330
14595
100
AcDbEntity
  8
-TEXT3
100
AcDbTrace
 10
-3562.111239661322
 20
-5690.563859141797
 30
0.0
 11
-3559.444572994654
 21
-5690.563859141797
 31
0.0
 12
-3560.777906327988
 22
-5698.563859141797
 32
0.0
 13
-3560.777906327988
 23
-5698.563859141797
 33
0.0
  0
MTEXT
  5
177E5
330
14595
100
AcDbEntity
  8
-TEXT3
100
AcDbMText
 10
-3567.794277405749
 20
-5662.560266522394
 30
0.0
 40
8.0
 41
0.0
 71
     5
 72
     1
  1
72
 11
0.0000000000000001
 21
1.0
 31
0.0
 73
     1
 44
1.0
  0
POINT
  5
177E6
330
14595
100
AcDbEntity
  8
Defpoints
 62
     0
100
AcDbPoint
 10
-3571.795837597959
 20
-5626.556673902987
 30
0.0
  0
POINT
  5
177E7
330
14595
100
AcDbEntity
  8
Defpoints
 62
     0
100
AcDbPoint
 10
-3577.960940684302
 20
-5698.563859141797
 30
0.0
  0
POINT
  5
177E8
330
14595
100
AcDbEntity
  8
Defpoints
 62
     0
100
AcDbPoint
 10
-3560.777906327988
 20
-5698.563859141797
 30
0.0
  0
ENDBLK
  5
145A0
330
14595
100
AcDbEntity
  8
0
100
AcDbBlockEnd
  0
BLOCK
  5
1776C
330
17762
100
AcDbEntity
  8
0
100
AcDbBlockBegin
  2
*D85
 70
     1
 10
0.0
 20
0.0
 30
0.0
  3
*D85
  1

  0
LINE
  5
17805
330
17762
100
AcDbEntity
  8
-TEXT3
370
    -2
100
AcDbLine
 10
-3652.458854533474
 20
-5818.285555921047
 30
0.0
 11
-3709.77639819431
 21
-5818.285555921047
 31
0.0
  0
LINE
  5
17806
330
17762
100
AcDbEntity
  8
-TEXT3
370
    -2
100
AcDbLine
 10
-3652.458854533474
 20
-6018.285555921047
 30
0.0
 11
-3709.77639819431
 21
-6018.285555921047
 31
0.0
  0
LINE
  5
17807
330
17762
100
AcDbEntity
  8
-TEXT3
370
    -2
100
AcDbLine
 10
-3708.77639819431
 20
-5826.285555921048
 30
0.0
 11
-3708.77639819431
 21
-6010.285555921047
 31
0.0
  0
SOLID
  5
17808
330
17762
100
AcDbEntity
  8
-TEXT3
100
AcDbTrace
 10
-3710.109731527643
 20
-5826.285555921048
 30
0.0
 11
-3707.443064860977
 21
-5826.285555921048
 31
0.0
 12
-3708.77639819431
 22
-5818.285555921047
 32
0.0
 13
-3708.77639819431
 23
-5818.285555921047
 33
0.0
  0
SOLID
  5
17809
330
17762
100
AcDbEntity
  8
-TEXT3
100
AcDbTrace
 10
-3710.109731527643
 20
-6010.285555921047
 30
0.0
 11
-3707.443064860977
 21
-6010.285555921047
 31
0.0
 12
-3708.77639819431
 22
-6018.285555921047
 32
0.0
 13
-3708.77639819431
 23
-6018.285555921047
 33
0.0
  0
MTEXT
  5
1780A
330
17762
100
AcDbEntity
  8
-TEXT3
100
AcDbMText
 10
-3715.860982096082
 20
-5918.285555921047
 30
0.0
 40
8.0
 41
0.0
 71
     5
 72
     1
  1
200
 11
0.0000000000000001
 21
1.0
 31
0.0
 73
     1
 44
1.0
  0
POINT
  5
1780B
330
17762
100
AcDbEntity
  8
Defpoints
 62
     0
100
AcDbPoint
 10
-3649.458854533474
 20
-5818.285555921047
 30
0.0
  0
POINT
  5
1780C
330
17762
100
AcDbEntity
  8
Defpoints
 62
     0
100
AcDbPoint
 10
-3649.458854533474
 20
-6018.285555921047
 30
0.0
  0
POINT
  5
1780D
330
17762
100
AcDbEntity
  8
Defpoints
 62
     0
100
AcDbPoint
 10
-3708.77639819431
 20
-6018.285555921047
 30
0.0
  0
ENDBLK
  5
1776D
330
17762
100
AcDbEntity
  8
0
100
AcDbBlockEnd
  0
BLOCK
  5
17778
330
1776E
100
AcDbEntity
  8
0
100
AcDbBlockBegin
  2
*D86
 70
     1
 10
0.0
 20
0.0
 30
0.0
  3
*D86
  1

  0
LINE
  5
17C1E
330
1776E
100
AcDbEntity
  8
-TEXT3
370
    -2
100
AcDbLine
 10
-3649.458854533474
 20
-5815.285555921048
 30
0.0
 11
-3649.458854533474
 21
-5793.149703605592
 31
0.0
  0
LINE
  5
17C1F
330
1776E
100
AcDbEntity
  8
-TEXT3
370
    -2
100
AcDbLine
 10
-3577.458854533474
 20
-5815.28555592104
 30
0.0
 11
-3577.458854533474
 21
-5793.149703605592
 31
0.0
  0
LINE
  5
17C20
330
1776E
100
AcDbEntity
  8
-TEXT3
370
    -2
100
AcDbLine
 10
-3641.458854533475
 20
-5794.149703605592
 30
0.0
 11
-3585.458854533474
 21
-5794.149703605592
 31
0.0
  0
SOLID
  5
17C21
330
1776E
100
AcDbEntity
  8
-TEXT3
100
AcDbTrace
 10
-3641.458854533475
 20
-5792.816370272259
 30
0.0
 11
-3641.458854533475
 21
-5795.483036938925
 31
0.0
 12
-3649.458854533474
 22
-5794.149703605592
 32
0.0
 13
-3649.458854533474
 23
-5794.149703605592
 33
0.0
  0
SOLID
  5
17C22
330
1776E
100
AcDbEntity
  8
-TEXT3
100
AcDbTrace
 10
-3585.458854533474
 20
-5792.816370272259
 30
0.0
 11
-3585.458854533474
 21
-5795.483036938925
 31
0.0
 12
-3577.458854533474
 22
-5794.149703605592
 32
0.0
 13
-3577.458854533474
 23
-5794.149703605592
 33
0.0
  0
MTEXT
  5
17C23
330
1776E
100
AcDbEntity
  8
-TEXT3
100
AcDbMText
 10
-3613.458854533474
 20
-5787.13333252783
 30
0.0
 40
8.0
 41
0.0
 71
     5
 72
     1
  1
72
 73
     1
 44
1.0
  0
POINT
  5
17C24
330
1776E
100
AcDbEntity
  8
Defpoints
 62
     0
100
AcDbPoint
 10
-3649.458854533474
 20
-5818.285555921047
 30
0.0
  0
POINT
  5
17C25
330
1776E
100
AcDbEntity
  8
Defpoints
 62
     0
100
AcDbPoint
 10
-3577.458854533474
 20
-5818.28555592104
 30
0.0
  0
POINT
  5
17C26
330
1776E
100
AcDbEntity
  8
Defpoints
 62
     0
100
AcDbPoint
 10
-3577.458854533474
 20
-5794.149703605592
 30
0.0
  0
ENDBLK
  5
17779
330
1776E
100
AcDbEntity
  8
0
100
AcDbBlockEnd
  0
BLOCK
  5
17784
330
1777A
100
AcDbEntity
  8
0
100
AcDbBlockBegin
  2
*D87
 70
     1
 10
0.0
 20
0.0
 30
0.0
  3
*D87
  1

  0
LINE
  5
177F3
330
1777A
100
AcDbEntity
  8
-TEXT3
370
    -2
100
AcDbLine
 10
-3652.458854533474
 20
-5818.285555921047
 30
0.0
 11
-3677.919567253959
 21
-5818.285555921047
 31
0.0
  0
LINE
  5
177F4
330
1777A
100
AcDbEntity
  8
-TEXT3
370
    -2
100
AcDbLine
 10
-3660.441944939976
 20
-5868.285555921048
 30
0.0
 11
-3677.919567253959
 21
-5868.285555921048
 31
0.0
  0
LINE
  5
177F5
330
1777A
100
AcDbEntity
  8
-TEXT3
370
    -2
100
AcDbLine
 10
-3676.91956725396
 20
-5826.285555921048
 30
0.0
 11
-3676.91956725396
 21
-5860.285555921048
 31
0.0
  0
SOLID
  5
177F6
330
1777A
100
AcDbEntity
  8
-TEXT3
100
AcDbTrace
 10
-3678.252900587293
 20
-5826.285555921048
 30
0.0
 11
-3675.586233920626
 21
-5826.285555921048
 31
0.0
 12
-3676.91956725396
 22
-5818.285555921047
 32
0.0
 13
-3676.91956725396
 23
-5818.285555921047
 33
0.0
  0
SOLID
  5
177F7
330
1777A
100
AcDbEntity
  8
-TEXT3
100
AcDbTrace
 10
-3678.252900587293
 20
-5860.285555921048
 30
0.0
 11
-3675.586233920626
 21
-5860.285555921048
 31
0.0
 12
-3676.91956725396
 22
-5868.285555921048
 32
0.0
 13
-3676.91956725396
 23
-5868.285555921048
 33
0.0
  0
MTEXT
  5
177F8
330
1777A
100
AcDbEntity
  8
-TEXT3
100
AcDbMText
 10
-3684.004151155733
 20
-5843.285555921049
 30
0.0
 40
8.0
 41
0.0
 71
     5
 72
     1
  1
50
 11
0.0000000000000001
 21
1.0
 31
0.0
 73
     1
 44
1.0
  0
POINT
  5
177F9
330
1777A
100
AcDbEntity
  8
Defpoints
 62
     0
100
AcDbPoint
 10
-3649.458854533474
 20
-5818.285555921047
 30
0.0
  0
POINT
  5
177FA
330
1777A
100
AcDbEntity
  8
Defpoints
 62
     0
100
AcDbPoint
 10
-3657.441944939977
 20
-5868.285555921048
 30
0.0
  0
POINT
  5
177FB
330
1777A
100
AcDbEntity
  8
Defpoints
 62
     0
100
AcDbPoint
 10
-3676.91956725396
 20
-5868.285555921048
 30
0.0
  0
ENDBLK
  5
17785
330
1777A
100
AcDbEntity
  8
0
100
AcDbBlockEnd
  0
BLOCK
  5
17846
330
1783C
100
AcDbEntity
  8
0
100
AcDbBlockBegin
  2
*D88
 70
     1
 10
0.0
 20
0.0
 30
0.0
  3
*D88
  1

  0
LINE
  5
17860
330
1783C
100
AcDbEntity
  8
-TEXT3
370
    -2
100
AcDbLine
 10
-3449.458854533474
 20
-6021.285555921047
 30
0.0
 11
-3449.458854533474
 21
-6078.603099581882
 31
0.0
  0
LINE
  5
17861
330
1783C
100
AcDbEntity
  8
-TEXT3
370
    -2
100
AcDbLine
 10
-3649.458854533474
 20
-6021.285555921047
 30
0.0
 11
-3649.458854533474
 21
-6078.603099581882
 31
0.0
  0
LINE
  5
17862
330
1783C
100
AcDbEntity
  8
-TEXT3
370
    -2
100
AcDbLine
 10
-3457.458854533474
 20
-6077.603099581882
 30
0.0
 11
-3641.458854533474
 21
-6077.603099581882
 31
0.0
  0
SOLID
  5
17863
330
1783C
100
AcDbEntity
  8
-TEXT3
100
AcDbTrace
 10
-3457.458854533474
 20
-6076.269766248549
 30
0.0
 11
-3457.458854533474
 21
-6078.936432915215
 31
0.0
 12
-3449.458854533474
 22
-6077.603099581882
 32
0.0
 13
-3449.458854533474
 23
-6077.603099581882
 33
0.0
  0
SOLID
  5
17864
330
1783C
100
AcDbEntity
  8
-TEXT3
100
AcDbTrace
 10
-3641.458854533474
 20
-6076.269766248549
 30
0.0
 11
-3641.458854533474
 21
-6078.936432915215
 31
0.0
 12
-3649.458854533474
 22
-6077.603099581882
 32
0.0
 13
-3649.458854533474
 23
-6077.603099581882
 33
0.0
  0
MTEXT
  5
17865
330
1783C
100
AcDbEntity
  8
-TEXT3
100
AcDbMText
 10
-3549.458854533474
 20
-6070.518515680108
 30
0.0
 40
8.0
 41
0.0
 71
     5
 72
     1
  1
200
 73
     1
 44
1.0
  0
POINT
  5
17866
330
1783C
100
AcDbEntity
  8
Defpoints
 62
     0
100
AcDbPoint
 10
-3449.458854533474
 20
-6018.285555921047
 30
0.0
  0
POINT
  5
17867
330
1783C
100
AcDbEntity
  8
Defpoints
 62
     0
100
AcDbPoint
 10
-3649.458854533474
 20
-6018.285555921047
 30
0.0
  0
POINT
  5
17868
330
1783C
100
AcDbEntity
  8
Defpoints
 62
     0
100
AcDbPoint
 10
-3649.458854533474
 20
-6077.603099581882
 30
0.0
  0
ENDBLK
  5
17847
330
1783C
100
AcDbEntity
  8
0
100
AcDbBlockEnd
  0
BLOCK
  5
1785E
330
17854
100
AcDbEntity
  8
0
100
AcDbBlockBegin
  2
*D89
 70
     1
 10
0.0
 20
0.0
 30
0.0
  3
*D89
  1

  0
LINE
  5
17872
330
17854
100
AcDbEntity
  8
-TEXT3
370
    -2
100
AcDbLine
 10
-3449.458854533474
 20
-6021.285555921047
 30
0.0
 11
-3449.458854533474
 21
-6046.746268641533
 31
0.0
  0
LINE
  5
17873
330
17854
100
AcDbEntity
  8
-TEXT3
370
    -2
100
AcDbLine
 10
-3499.458854533474
 20
-6029.268646327551
 30
0.0
 11
-3499.458854533474
 21
-6046.746268641533
 31
0.0
  0
LINE
  5
17874
330
17854
100
AcDbEntity
  8
-TEXT3
370
    -2
100
AcDbLine
 10
-3457.458854533474
 20
-6045.746268641533
 30
0.0
 11
-3491.458854533474
 21
-6045.746268641533
 31
0.0
  0
SOLID
  5
17875
330
17854
100
AcDbEntity
  8
-TEXT3
100
AcDbTrace
 10
-3457.458854533474
 20
-6044.4129353082
 30
0.0
 11
-3457.458854533474
 21
-6047.079601974866
 31
0.0
 12
-3449.458854533474
 22
-6045.746268641533
 32
0.0
 13
-3449.458854533474
 23
-6045.746268641533
 33
0.0
  0
SOLID
  5
17876
330
17854
100
AcDbEntity
  8
-TEXT3
100
AcDbTrace
 10
-3491.458854533474
 20
-6044.4129353082
 30
0.0
 11
-3491.458854533474
 21
-6047.079601974866
 31
0.0
 12
-3499.458854533474
 22
-6045.746268641533
 32
0.0
 13
-3499.458854533474
 23
-6045.746268641533
 33
0.0
  0
MTEXT
  5
17877
330
17854
100
AcDbEntity
  8
-TEXT3
100
AcDbMText
 10
-3474.458854533474
 20
-6038.661684739759
 30
0.0
 40
8.0
 41
0.0
 71
     5
 72
     1
  1
50
 73
     1
 44
1.0
  0
POINT
  5
17878
330
17854
100
AcDbEntity
  8
Defpoints
 62
     0
100
AcDbPoint
 10
-3449.458854533474
 20
-6018.285555921047
 30
0.0
  0
POINT
  5
17879
330
17854
100
AcDbEntity
  8
Defpoints
 62
     0
100
AcDbPoint
 10
-3499.458854533474
 20
-6026.268646327551
 30
0.0
  0
POINT
  5
1787A
330
17854
100
AcDbEntity
  8
Defpoints
 62
     0
100
AcDbPoint
 10
-3499.458854533474
 20
-6045.746268641533
 30
0.0
  0
ENDBLK
  5
1785F
330
17854
100
AcDbEntity
  8
0
100
AcDbBlockEnd
  0
BLOCK
  5
17C45
330
17C3B
100
AcDbEntity
  8
0
100
AcDbBlockBegin
  2
*D98
 70
     1
 10
0.0
 20
0.0
 30
0.0
  3
*D98
  1

  0
LINE
  5
17C47
330
17C3B
100
AcDbEntity
  8
-TEXT3
370
    -2
100
AcDbLine
 10
-3446.458854533474
 20
-6018.285555921043
 30
0.0
 11
-3424.323002218019
 21
-6018.285555921043
 31
0.0
  0
LINE
  5
17C48
330
17C3B
100
AcDbEntity
  8
-TEXT3
370
    -2
100
AcDbLine
 10
-3446.458854533468
 20
-5946.285555921043
 30
0.0
 11
-3424.323002218019
 21
-5946.285555921043
 31
0.0
  0
LINE
  5
17C49
330
17C3B
100
AcDbEntity
  8
-TEXT3
370
    -2
100
AcDbLine
 10
-3425.323002218019
 20
-6010.285555921043
 30
0.0
 11
-3425.323002218019
 21
-5954.285555921043
 31
0.0
  0
SOLID
  5
17C4A
330
17C3B
100
AcDbEntity
  8
-TEXT3
100
AcDbTrace
 10
-3426.656335551353
 20
-6010.285555921043
 30
0.0
 11
-3423.989668884686
 21
-6010.285555921043
 31
0.0
 12
-3425.323002218019
 22
-6018.285555921043
 32
0.0
 13
-3425.323002218019
 23
-6018.285555921043
 33
0.0
  0
SOLID
  5
17C4B
330
17C3B
100
AcDbEntity
  8
-TEXT3
100
AcDbTrace
 10
-3426.656335551353
 20
-5954.285555921043
 30
0.0
 11
-3423.989668884686
 21
-5954.285555921043
 31
0.0
 12
-3425.323002218019
 22
-5946.285555921043
 32
0.0
 13
-3425.323002218019
 23
-5946.285555921043
 33
0.0
  0
MTEXT
  5
17C4C
330
17C3B
100
AcDbEntity
  8
-TEXT3
100
AcDbMText
 10
-3432.339373295781
 20
-5982.285555921045
 30
0.0
 40
8.0
 41
0.0
 71
     5
 72
     1
  1
72
 11
0.0000000000000001
 21
1.0
 31
0.0
 73
     1
 44
1.0
  0
POINT
  5
17C4D
330
17C3B
100
AcDbEntity
  8
Defpoints
 62
     0
100
AcDbPoint
 10
-3449.458854533474
 20
-6018.285555921043
 30
0.0
  0
POINT
  5
17C4E
330
17C3B
100
AcDbEntity
  8
Defpoints
 62
     0
100
AcDbPoint
 10
-3449.458854533468
 20
-5946.285555921043
 30
0.0
  0
POINT
  5
17C4F
330
17C3B
100
AcDbEntity
  8
Defpoints
 62
     0
100
AcDbPoint
 10
-3425.323002218019
 20
-5946.285555921043
 30
0.0
  0
ENDBLK
  5
17C46
330
17C3B
100
AcDbEntity
  8
0
100
AcDbBlockEnd
  0
ENDSEC
  0
SECTION
  2
ENTITIES
  0
LINE
  5
1455C
330
1F
100
AcDbEntity
  8
-SYSTEM
100
AcDbLine
 10
-3592.459092775552
 20
-5626.556673902987
 30
0.0
 11
-3571.795837597959
 21
-5626.556673902987
 31
0.0
  0
LINE
  5
1455D
330
1F
100
AcDbEntity
  8
-NORMTEIL_VERDECKT
  6
STRICHLINIEX2
 62
     9
100
AcDbLine
 10
-3585.978517641421
 20
-5608.556673902987
 30
0.0
 11
-3577.97851749612
 21
-5608.557156351169
 31
0.0
  0
LINE
  5
1455E
330
1F
100
AcDbEntity
  8
-NORMTEIL_VERDECKT
  6
STRICHLINIEX2
 62
     9
100
AcDbLine
 10
-3586.42633401624
 20
-5644.556673902987
 30
0.0
 11
-3578.243897485128
 21
-5644.556322428172
 31
0.0
  0
LWPOLYLINE
  5
1455F
330
1F
100
AcDbEntity
  8
-ZEICHNUNGSRAND-INNEN
100
AcDbPolyline
 90
       55
 70
     0
 43
0.0
 10
-3591.130469561607
 20
-5578.372444059676
 10
-3589.497360005364
 20
-5570.559547037101
 42
-0.4142135623730952
 10
-3589.001234092762
 20
-5570.055702736899
 10
-3577.963834744878
 20
-5570.055702736897
 42
-0.3849595557161675
 10
-3577.458854533475
 20
-5570.551828649499
 10
-3577.458854533468
 20
-5576.577813538005
 42
-0.26435731104155
 10
-3578.924131990047
 20
-5579.15553088378
 10
-3581.364159699657
 20
-5580.608275708051
 42
0.2643573110416047
 10
-3582.829437156235
 20
-5583.185993053827
 10
-3582.829437156235
 20
-5589.477639256474
 42
0.1326928786911622
 10
-3580.789034102138
 20
-5597.030707970564
 42
-0.1326928786910998
 10
-3577.978517432981
 20
-5607.43454729123
 10
-3577.978517432981
 20
-5641.309050417118
 42
-0.1093940216777188
 10
-3579.848228137331
 20
-5649.752545549826
 42
0.1821054494091258
 10
-3581.206543750539
 20
-5667.690229577212
 42
0.0145851540096962
 10
-3580.304036654634
 20
-5670.470772614455
 10
-3579.183054053998
 20
-5673.609565841214
 42
-0.0859657583767065
 10
-3577.458854533474
 20
-5683.56386349385
 10
-3577.458854533474
 20
-5696.029018940247
 10
-3577.458854533474
 20
-5698.06386349385
 42
-0.4154361334122847
 10
-3577.960940684247
 20
-5698.563859141806
 10
-3581.950767005857
 20
-5698.563859141806
 42
-0.1287373765745993
 10
-3582.439881077075
 20
-5698.43208440502
 10
-3585.918977301623
 20
-5696.443628576211
 42
0.6022685683118257
 10
-3586.292264638149
 20
-5696.680237154798
 10
-3586.166165210044
 20
-5698.287115336712
 42
-0.4394580030541228
 10
-3586.417173988956
 20
-5698.556667601461
 10
-3602.367640633727
 20
-5698.556673902988
 10
-3624.963484560314
 20
-5698.556673902988
 10
-3648.958854533474
 20
-5698.556673902988
 42
-0.4398557366840446
 10
-3649.458854533474
 20
-5698.056673902987
 10
-3649.458854533474
 20
-5570.546412689937
 42
-0.447123298245642
 10
-3649.005119087496
 20
-5570.055702736892
 10
-3644.278064672699
 20
-5570.055702736892
 10
-3639.471675013032
 20
-5570.055702736892
 42
-0.4139203013949816
 10
-3638.967328963375
 20
-5570.547509677519
 10
-3636.610007382895
 20
-5597.167742684941
 42
-0.3327036731062066
 10
-3636.858144351706
 20
-5597.84618917125
 42
0.4083876327098225
 10
-3641.968608751919
 20
-5604.085843821501
 10
-3636.748472164418
 20
-5654.667512830734
 10
-3634.220027111347
 20
-5673.609565841212
 42
0.380272329899709
 10
-3625.281827149029
 20
-5681.556673902988
 10
-3603.121254016325
 20
-5681.556673902991
 42
0.3802723298996782
 10
-3594.183054054005
 20
-5673.609565841216
 10
-3591.510538093177
 20
-5653.668231635044
 42
-0.1305183172645141
 10
-3589.451654589947
 20
-5649.752545549826
 42
0.1976359590068575
 10
-3585.978517432981
 20
-5641.309050417119
 10
-3585.978517432974
 20
-5617.272905631918
 10
-3585.978517772974
 20
-5603.05579128423
 42
0.1434944995052383
 10
-3586.507701758909
 20
-5601.628896080694
 10
-3588.700116630672
 20
-5598.433967174771
 42
0.1479866471609119
 10
-3591.839275310871
 20
-5595.548180695004
 10
-3593.959094676671
 20
-5594.420204540073
 42
-0.3715302924838353
 10
-3594.386497556087
 20
-5593.949483166603
 10
-3593.669366215112
 20
-5590.518682521736
  0
LINE
  5
14560
330
1F
100
AcDbEntity
  8
-SYSTEM
100
AcDbLine
 10
-3634.458616291396
 20
-5626.556673902987
 30
0.0
 11
-3655.121871468989
 21
-5626.556673902987
 31
0.0
  0
LINE
  5
14561
330
1F
100
AcDbEntity
  8
-NORMTEIL_VERDECKT
  6
STRICHLINIEX2
 62
     9
100
AcDbLine
 10
-3638.162825458779
 20
-5640.556673902987
 30
0.0
 11
-3649.458854533474
 21
-5640.556673902987
 31
0.0
  0
LINE
  5
14562
330
1F
100
AcDbEntity
  8
-NORMTEIL_VERDECKT
  6
STRICHLINIEX2
 62
     9
100
AcDbLine
 10
-3640.969312900446
 20
-5612.556673902987
 30
0.0
 11
-3649.458854533474
 21
-5612.556673902987
 31
0.0
  0
DIMENSION
  5
1456B
330
1F
100
AcDbEntity
  8
-TEXT3
100
AcDbDimension
  2
*D0
 10
-3560.777906327988
 20
-5698.563859141797
 30
0.0
 11
-3567.794277405749
 21
-5662.560266522394
 31
0.0
 70
    32
 71
     5
 42
72.00718523881005
  3
1-1
100
AcDbAlignedDimension
 13
-3571.795837597959
 23
-5626.556673902987
 33
0.0
 14
-3577.960940684302
 24
-5698.563859141797
 34
0.0
 50
90.0
100
AcDbRotatedDimension
  0
LWPOLYLINE
  5
1770C
330
1F
100
AcDbEntity
  8
-ZEICHNUNGSRAND-INNEN
100
AcDbPolyline
 90
        4
 70
     1
 43
0.0
 10
-3889.035323326988
 20
-5459.742523194562
 10
-3889.035323326988
 20
-6359.927155656357
 10
-3255.946097463
 20
-6359.927155656357
 10
-3255.946097463
 20
-5459.742523194562
  0
LINE
  5
1770D
330
1F
100
AcDbEntity
  8
-ZEICHNUNGSRAND-INNEN
100
AcDbLine
 10
-3889.035323326988
 20
-6229.717376229439
 30
0.0
 11
-3255.946097463
 21
-6229.717376229439
 31
0.0
  0
LINE
  5
1770E
330
1F
100
AcDbEntity
  8
-ZEICHNUNGSRAND-INNEN
100
AcDbLine
 10
-3889.035323326988
 20
-6255.383155656357
 30
0.0
 11
-3255.946097463
 21
-6255.383155656357
 31
0.0
  0
LWPOLYLINE
  5
1770F
330
1F
100
AcDbEntity
  8
-TEXT
100
AcDbPolyline
 90
        5
 70
     0
 43
0.0
 10
-3889.035323326988
 20
-6359.927155656357
 10
-3255.946097463
 20
-6359.927155656357
 10
-3255.946097463
 20
-6118.498998712792
 10
-3889.035323326988
 20
-6118.498998712792
 10
-3889.035323326988
 20
-6359.927155656357
  0
MTEXT
  5
17715
330
1F
100
AcDbEntity
  8
-TEXT3
100
AcDbMText
 10
-3855.668134365988
 20
-6248.206576721646
 30
0.0
 40
7.699733828075522
 41
105.1454263412471
 71
     4
 72
     5
  1
27.03.13  Mall
 73
     1
 44
1.0
1001
ACAD
1000
ACAD_MTEXT_DEFINED_HEIGHT_BEGIN
1070
    46
1040
0.0
1000
ACAD_MTEXT_DEFINED_HEIGHT_END
  0
TEXT
  5
17716
330
1F
100
AcDbEntity
  8
-TEXT3
100
AcDbText
 10
-3855.387486498293
 20
-6239.229755729541
 30
0.0
 40
6.09562261389312
  1
Datum
 41
0.8
  7
LOGOCAD
100
AcDbText
  0
LINE
  5
17717
330
1F
100
AcDbEntity
  8
-TEXT3
100
AcDbLine
 10
-3889.035323326988
 20
-6242.429957601832
 30
0.0
 11
-3746.397754161885
 21
-6242.429957601832
 31
0.0
  0
LINE
  5
17718
330
1F
100
AcDbEntity
  8
-TEXT3
100
AcDbLine
 10
-3857.338085734744
 20
-6229.476759547313
 30
0.0
 11
-3857.338085734744
 21
-6255.383155656357
 31
0.0
  0
TEXT
  5
17719
330
1F
100
AcDbEntity
  8
-TEXT3
100
AcDbText
 10
-3887.084724090539
 20
-6252.182953784062
 30
0.0
 40
6.09562261389312
  1
Bearb.
 41
0.8
  7
LOGOCAD
100
AcDbText
  0
LINE
  5
1771A
330
1F
100
AcDbEntity
  8
-TEXT3
100
AcDbLine
 10
-3809.792229346374
 20
-6229.476759547313
 30
0.0
 11
-3809.792229346374
 21
-6255.383155656357
 31
0.0
  0
TEXT
  5
1771B
330
1F
100
AcDbEntity
  8
-TEXT3
100
AcDbText
 10
-3807.841630109927
 20
-6239.229755729541
 30
0.0
 40
6.09562261389312
  1
Name
 41
0.8
  7
LOGOCAD
100
AcDbText
  0
LINE
  5
1771C
330
1F
100
AcDbEntity
  8
-TEXT
100
AcDbLine
 10
-3746.397754161885
 20
-6255.383155656357
 30
0.0
 11
-3746.397754161885
 21
-6229.717376229439
 31
0.0
  0
LINE
  5
1771D
330
1F
100
AcDbEntity
  8
-TEXT2
100
AcDbLine
 10
-3889.035323326988
 20
-6285.795955656358
 30
0.0
 11
-3255.946097463
 21
-6285.795955656358
 31
0.0
  0
LINE
  5
1771F
330
1F
100
AcDbEntity
  8
-ZEICHNUNGSRAND-INNEN
100
AcDbLine
 10
-3589.795114120402
 20
-6118.498998712792
 30
0.0
 11
-3589.795114120402
 21
-6229.717376229439
 31
0.0
  0
LINE
  5
17720
330
1F
100
AcDbEntity
  8
-TEXT2
100
AcDbLine
 10
-3572.490710394994
 20
-6255.383155656357
 30
0.0
 11
-3572.490710394994
 21
-6360.148864392368
 31
0.0
  0
LINE
  5
17721
330
1F
100
AcDbEntity
  8
-TEXT3
100
AcDbLine
 10
-3304.614472694729
 20
-6285.795955656358
 30
0.0
 11
-3304.614472694729
 21
-6360.148864392368
 31
0.0
  0
MTEXT
  5
17722
330
1F
100
AcDbEntity
  8
-TEXT2
100
AcDbMText
 10
-3536.535406964464
 20
-6243.61809012075
 30
0.0
 40
10.26631177076736
 41
485.9289171155867
 71
     5
 72
     5
  1
Ecke
 73
     1
 44
1.0
1001
ACAD
1000
ACAD_MTEXT_DEFINED_HEIGHT_BEGIN
1070
    46
1040
0.0
1000
ACAD_MTEXT_DEFINED_HEIGHT_END
  0
LINE
  5
17723
330
1F
100
AcDbEntity
  8
-TEXT2
100
AcDbLine
 10
-3730.76301686099
 20
-6255.383155656357
 30
0.0
 11
-3730.76301686099
 21
-6360.148864392368
 31
0.0
  0
LINE
  5
17724
330
1F
100
AcDbEntity
  8
-TEXT2
100
AcDbLine
 10
-3414.218403928997
 20
-6255.383155656357
 30
0.0
 11
-3414.218403928997
 21
-6360.148864392368
 31
0.0
  0
MTEXT
  5
17725
330
1F
100
AcDbEntity
  8
-TEXT2
100
AcDbMText
 10
-3815.495824291475
 20
-6271.674984866071
 30
0.0
 40
7.983360000000001
 41
485.9289171155867
 71
     5
 72
     5
  1
Bezeichnung
 73
     1
 44
1.0
1001
ACAD
1000
ACAD_MTEXT_DEFINED_HEIGHT_BEGIN
1070
    46
1040
0.0
1000
ACAD_MTEXT_DEFINED_HEIGHT_END
  0
MTEXT
  5
17726
330
1F
100
AcDbEntity
  8
-TEXT2
100
AcDbMText
 10
-3654.699120095483
 20
-6271.674984866071
 30
0.0
 40
7.983360000000001
 41
485.9289171155867
 71
     5
 72
     5
  1
Oberfläche
 73
     1
 44
1.0
1001
ACAD
1000
ACAD_MTEXT_DEFINED_HEIGHT_BEGIN
1070
    46
1040
0.0
1000
ACAD_MTEXT_DEFINED_HEIGHT_END
  0
MTEXT
  5
17727
330
1F
100
AcDbEntity
  8
-TEXT2
100
AcDbMText
 10
-3492.834003185046
 20
-6271.674984866071
 30
0.0
 40
7.983360000000001
 41
485.9289171155867
 71
     5
 72
     5
  1
Art.Nr. / Zeichnungsnr.
 73
     1
 44
1.0
1001
ACAD
1000
ACAD_MTEXT_DEFINED_HEIGHT_BEGIN
1070
    46
1040
0.0
1000
ACAD_MTEXT_DEFINED_HEIGHT_END
  0
LINE
  5
17728
330
1F
100
AcDbEntity
  8
-TEXT2
100
AcDbLine
 10
-3304.614472694729
 20
-6255.383155656357
 30
0.0
 11
-3304.614472694729
 21
-6360.148864392368
 31
0.0
  0
MTEXT
  5
17729
330
1F
100
AcDbEntity
  8
-TEXT2
100
AcDbMText
 10
-3363.769274742475
 20
-6271.674984866071
 30
0.0
 40
7.983360000000001
 41
485.9289171155867
 71
     5
 72
     5
  1
Stück
 73
     1
 44
1.0
1001
ACAD
1000
ACAD_MTEXT_DEFINED_HEIGHT_BEGIN
1070
    46
1040
0.0
1000
ACAD_MTEXT_DEFINED_HEIGHT_END
  0
MTEXT
  5
1772A
330
1F
100
AcDbEntity
  8
-TEXT2
100
AcDbMText
 10
-3815.495824291475
 20
-6321.533710162323
 30
0.0
 40
11.4048
 41
485.9289171155867
 71
     5
 72
     5
  1
Außenecke\PSide 1 HD
 73
     1
 44
1.0
1001
ACAD
1000
ACAD_MTEXT_DEFINED_HEIGHT_BEGIN
1070
    46
1040
0.0
1000
ACAD_MTEXT_DEFINED_HEIGHT_END
  0
MTEXT
  5
1772B
330
1F
100
AcDbEntity
  8
-TEXT2
100
AcDbMText
 10
-3652.9519893148
 20
-6297.672142201713
 30
0.0
 40
7.983360000000001
 41
485.9289171155867
 71
     5
 72
     5
  1
Natur
 73
     1
 44
1.0
1001
ACAD
1000
ACAD_MTEXT_DEFINED_HEIGHT_BEGIN
1070
    46
1040
0.0
1000
ACAD_MTEXT_DEFINED_HEIGHT_END
  0
LINE
  5
1772C
330
1F
100
AcDbEntity
  8
-TEXT2
100
AcDbLine
 10
-3730.76301686099
 20
-6310.506355656358
 30
0.0
 11
-3304.614472694729
 21
-6310.506355656358
 31
0.0
  0
LINE
  5
1772D
330
1F
100
AcDbEntity
  8
-TEXT2
100
AcDbLine
 10
-3730.76301686099
 20
-6335.216755656358
 30
0.0
 11
-3304.614472694729
 21
-6335.216755656358
 31
0.0
  0
MTEXT
  5
1772E
330
1F
100
AcDbEntity
  8
-TEXT2
100
AcDbMText
 10
-3280.608165376414
 20
-6271.674984866071
 30
0.0
 40
7.983360000000001
 41
485.9289171155867
 71
     5
 72
     5
  1
Blatt
 73
     1
 44
1.0
1001
ACAD
1000
ACAD_MTEXT_DEFINED_HEIGHT_BEGIN
1070
    46
1040
0.0
1000
ACAD_MTEXT_DEFINED_HEIGHT_END
  0
MTEXT
  5
1772F
330
1F
100
AcDbEntity
  8
-TEXT2
100
AcDbMText
 10
-3278.618089472509
 20
-6324.342424440097
 30
0.0
 40
10.26631177076736
 41
175.339381405225
 71
     5
 72
     5
  1
15
 73
     1
 44
1.0
1001
ACAD
1000
ACAD_MTEXT_DEFINED_HEIGHT_BEGIN
1070
    46
1040
5.53963317940024
1000
ACAD_MTEXT_DEFINED_HEIGHT_END
  0
MTEXT
  5
17730
330
1F
100
AcDbEntity
  8
-TEXT2
100
AcDbMText
 10
-3652.9519893148
 20
-6347.092942201714
 30
0.0
 40
7.983360000000001
 41
485.9289171155867
 71
     5
 72
     5
  1
Alanox
 73
     1
 44
1.0
1001
ACAD
1000
ACAD_MTEXT_DEFINED_HEIGHT_BEGIN
1070
    46
1040
0.0
1000
ACAD_MTEXT_DEFINED_HEIGHT_END
  0
MTEXT
  5
17731
330
1F
100
AcDbEntity
  8
-TEXT2
100
AcDbMText
 10
-3652.9519893148
 20
-6322.382542201714
 30
0.0
 40
7.983360000000001
 41
485.9289171155867
 71
     5
 72
     5
  1
E6EV1
 73
     1
 44
1.0
1001
ACAD
1000
ACAD_MTEXT_DEFINED_HEIGHT_BEGIN
1070
    46
1040
0.0
1000
ACAD_MTEXT_DEFINED_HEIGHT_END
  0
MTEXT
  5
17732
330
1F
100
AcDbEntity
  8
-TEXT2
100
AcDbMText
 10
-3492.979811967436
 20
-6297.672142201713
 30
0.0
 40
7.983360000000001
 41
485.9289171155867
 71
     5
 72
     5
  1
BA-2-S1-HD-A-NA
 73
     1
 44
1.0
1001
ACAD
1000
ACAD_MTEXT_DEFINED_HEIGHT_BEGIN
1070
    46
1040
0.0
1000
ACAD_MTEXT_DEFINED_HEIGHT_END
  0
MTEXT
  5
17733
330
1F
100
AcDbEntity
  8
-TEXT2
100
AcDbMText
 10
-3492.979811967436
 20
-6322.382542201714
 30
0.0
 40
7.983360000000001
 41
485.9289171155867
 71
     5
 72
     5
  1
BA-2-S1-HD-A-EE
 73
     1
 44
1.0
1001
ACAD
1000
ACAD_MTEXT_DEFINED_HEIGHT_BEGIN
1070
    46
1040
0.0
1000
ACAD_MTEXT_DEFINED_HEIGHT_END
  0
MTEXT
  5
17734
330
1F
100
AcDbEntity
  8
-TEXT2
100
AcDbMText
 10
-3492.979811967436
 20
-6347.092942201714
 30
0.0
 40
7.983360000000001
 41
485.9289171155867
 71
     5
 72
     5
  1
BA-2-S1-HD-A-EO
 73
     1
 44
1.0
1001
ACAD
1000
ACAD_MTEXT_DEFINED_HEIGHT_BEGIN
1070
    46
1040
0.0
1000
ACAD_MTEXT_DEFINED_HEIGHT_END
  0
MTEXT
  5
17735
330
1F
100
AcDbEntity
  8
-TEXT2
100
AcDbMText
 10
-3858.600972046996
 20
-5480.885093272646
 30
0.0
 40
8.407618560000001
 41
338.9390331611755
 71
     1
 72
     5
  3
{\fArial|b0|i0|c238|p34;\H1.667x;Hinweis:\P\H0.6x;Oberfl\fArial|b0|i0|c0|p34;ä\fArial|b0|i0|c238|p34;chen sind vor Besch\fArial|b0|i0|c0|p34;ä\fArial|b0|i0|c238|p34;digungen\P(z.B. Kratzer) zu sch\fArial|b0|i0|c0|p34;ü\fArial|b0|i0|c238|p34;tzen!\P\H
  1
0.4521x;\P\H2.212x;Alle Kanten 100% entgratet!}
 73
     1
 44
1.0
1001
ACAD
1000
ACAD_MTEXT_DEFINED_HEIGHT_BEGIN
1070
    46
1040
3.561391541609822
1000
ACAD_MTEXT_DEFINED_HEIGHT_END
  0
MTEXT
  5
17736
330
1F
100
AcDbEntity
  8
-TEXT2
100
AcDbMText
 10
-3678.367046404229
 20
-5611.328612974615
 30
0.0
 40
8.0
 41
282.4491943009796
 71
     1
 72
     5
  1
{\fArial|b0|i0|c238|p34;%%C 28}
 73
     1
 44
1.0
1001
ACAD
1000
ACAD_MTEXT_DEFINED_HEIGHT_BEGIN
1070
    46
1040
3.561391541609822
1000
ACAD_MTEXT_DEFINED_HEIGHT_END
  0
ARC
  5
17737
330
1F
100
AcDbEntity
  8
-ZEICHNUNGSRAND-INNEN
100
AcDbCircle
 10
-3594.925382354952
 20
-5587.797557210237
 30
0.0
 40
2.997015099130599
100
AcDbArc
 50
294.7770872690817
 51
23.07697853703675
  0
ARC
  5
17738
330
1F
100
AcDbEntity
  8
-ZEICHNUNGSRAND-INNEN
100
AcDbCircle
 10
-3593.778816538334
 20
-5584.095378244513
 30
0.0
 40
2.997015099132113
100
AcDbArc
 50
302.5074871947711
 51
24.39436258070789
  0
ARC
  5
17739
330
1F
100
AcDbEntity
  8
-ZEICHNUNGSRAND-INNEN
100
AcDbCircle
 10
-3592.817118629677
 20
-5580.646239498443
 30
0.0
 40
2.831065307650027
100
AcDbArc
 50
308.6391834035343
 51
53.43282753660981
  0
MTEXT
  5
1773A
330
1F
100
AcDbEntity
  8
-TEXT2
100
AcDbMText
 10
-3569.321186025292
 20
-5611.328612974615
 30
0.0
 40
8.0
 41
282.4491943009796
 71
     1
 72
     5
  1
{\fArial|b0|i0|c238|p34;LL 16 x 36}
 73
     1
 44
1.0
1001
ACAD
1000
ACAD_MTEXT_DEFINED_HEIGHT_BEGIN
1070
    46
1040
3.561391541609822
1000
ACAD_MTEXT_DEFINED_HEIGHT_END
  0
LINE
  5
1773B
330
1F
100
AcDbEntity
  8
-ZEICHNUNGSRAND-INNEN
100
AcDbLine
 10
-3649.458854533474
 20
-5818.285555921043
 30
0.0
 11
-3649.458854533474
 21
-6018.285555921047
 31
0.0
  0
LINE
  5
1773C
330
1F
100
AcDbEntity
  8
-ZEICHNUNGSRAND-INNEN
100
AcDbLine
 10
-3577.458854533474
 20
-5818.28555592104
 30
0.0
 11
-3577.458854533475
 21
-5946.285555921047
 31
0.0
  0
LINE
  5
1773D
330
1F
100
AcDbEntity
  8
-ZEICHNUNGSRAND-INNEN
100
AcDbLine
 10
-3649.458854533474
 20
-5818.285555921043
 30
0.0
 11
-3577.458854533474
 21
-5818.28555592104
 31
0.0
  0
LINE
  5
1773F
330
1F
100
AcDbEntity
  8
-ZEICHNUNGSRAND-INNEN
100
AcDbLine
 10
-3594.386497556087
 20
-5818.285555921041
 30
0.0
 11
-3594.386497556087
 21
-5963.213198943659
 31
0.0
  0
LINE
  5
17740
330
1F
100
AcDbEntity
  8
-ZEICHNUNGSRAND-INNEN
100
AcDbLine
 10
-3636.6212150483
 20
-5818.285555921043
 30
0.0
 11
-3636.6212150483
 21
-6005.447916435874
 31
0.0
  0
LINE
  5
17746
330
1F
100
AcDbEntity
  8
-ZEICHNUNGSRAND-INNEN
100
AcDbLine
 10
-3649.458854533474
 20
-6018.285555921047
 30
0.0
 11
-3649.458854533474
 21
-5962.568120723956
 31
0.0
  0
LINE
  5
1774B
330
1F
100
AcDbEntity
  8
-ZEICHNUNGSRAND-INNEN
100
AcDbLine
 10
-3649.458854533474
 20
-6018.285555921047
 30
0.0
 11
-3577.458854533475
 21
-5946.285555921047
 31
0.0
  0
DIMENSION
  5
1774C
330
1F
100
AcDbEntity
  8
-TEXT3
100
AcDbDimension
  2
*D85
 10
-3708.77639819431
 20
-6018.285555921047
 30
0.0
 11
-3708.776398194308
 21
-5918.285555921047
 31
0.0
 70
   160
 71
     5
 42
200.0
  3
1-1
100
AcDbAlignedDimension
 13
-3649.458854533474
 23
-5818.285555921047
 33
0.0
 14
-3649.458854533474
 24
-6018.285555921047
 34
0.0
 50
90.0
100
AcDbRotatedDimension
  0
DIMENSION
  5
1774D
330
1F
100
AcDbEntity
  8
-TEXT3
100
AcDbDimension
  2
*D86
 10
-3577.458854533474
 20
-5794.149703605592
 30
0.0
 11
-3613.458854533474
 21
-5787.13333252783
 31
0.0
 70
    32
 71
     5
 42
72.00000000000045
  3
1-1
100
AcDbAlignedDimension
 13
-3649.458854533474
 23
-5818.285555921047
 33
0.0
 14
-3577.458854533474
 24
-5818.28555592104
 34
0.0
100
AcDbRotatedDimension
  0
DIMENSION
  5
1774E
330
1F
100
AcDbEntity
  8
-TEXT3
100
AcDbDimension
  2
*D87
 10
-3676.91956725396
 20
-5868.285555921048
 30
0.0
 11
-3684.004151155733
 21
-5843.285555921049
 31
0.0
 70
    32
 71
     5
 42
50.0
  3
1-1
100
AcDbAlignedDimension
 13
-3649.458854533474
 23
-5818.285555921047
 33
0.0
 14
-3657.441944939977
 24
-5868.285555921048
 34
0.0
 50
90.0
100
AcDbRotatedDimension
  0
LINE
  5
17751
330
1F
100
AcDbEntity
  8
-NORMTEIL_VERDECKT
  6
STRICHLINIEX2
 62
     9
100
AcDbLine
 10
-3636.6212150483
 20
-5882.285555921047
 30
0.0
 11
-3649.458854533474
 21
-5882.285555921047
 31
0.0
  0
LINE
  5
17752
330
1F
100
AcDbEntity
  8
-NORMTEIL_VERDECKT
  6
STRICHLINIEX2
 62
     9
100
AcDbLine
 10
-3636.6212150483
 20
-5854.285555921047
 30
0.0
 11
-3649.458854533474
 21
-5854.285555921047
 31
0.0
  0
LINE
  5
17753
330
1F
100
AcDbEntity
  8
-SYSTEM
100
AcDbLine
 10
-3634.667652019044
 20
-5868.285555921048
 30
0.0
 11
-3657.441944939977
 21
-5868.285555921048
 31
0.0
  0
LINE
  5
17754
330
1F
100
AcDbEntity
  8
-SYSTEM
100
AcDbLine
 10
-3600.402009670352
 20
-5868.285555921045
 30
0.0
 11
-3574.878951634254
 21
-5868.285555921044
 31
0.0
  0
LINE
  5
17755
330
1F
100
AcDbEntity
  8
-NORMTEIL_VERDECKT
  6
STRICHLINIEX2
 62
     9
100
AcDbLine
 10
-3594.386497556087
 20
-5876.285555921045
 30
0.0
 11
-3577.459851907811
 21
-5876.285797167036
 31
275.000137499999
  0
LINE
  5
17756
330
1F
100
AcDbEntity
  8
-NORMTEIL_VERDECKT
  6
STRICHLINIEX2
 62
     9
100
AcDbLine
 10
-3594.386497556087
 20
-5860.285074571706
 30
0.0
 11
-3577.460612719985
 21
-5860.285555921044
 31
0.0
  0
MTEXT
  5
17760
330
1F
100
AcDbEntity
  8
-TEXT2
100
AcDbMText
 10
-3607.161779076094
 20
-5549.064075832858
 30
0.0
 40
8.0
 41
282.4491943009796
 71
     1
 72
     5
  1
{\fArial|b0|i0|c238|p34;Rillung}
 73
     1
 44
1.0
1001
ACAD
1000
ACAD_MTEXT_DEFINED_HEIGHT_BEGIN
1070
    46
1040
3.561391541609822
1000
ACAD_MTEXT_DEFINED_HEIGHT_END
  0
LINE
  5
17761
330
1F
100
AcDbEntity
  8
-TEXT3
100
AcDbLine
 10
-3591.049362052973
 20
-5582.857566580017
 30
0.0
 11
-3602.283151376354
 21
-5561.486762478922
 31
0.0
  0
LINE
  5
1781A
330
1F
100
AcDbEntity
  8
-TEXT3
100
AcDbLine
 10
-3590.386497556087
 20
-5818.285555921041
 30
0.0
 11
-3590.386497556087
 21
-5959.213198943659
 31
0.0
  0
LINE
  5
1781B
330
1F
100
AcDbEntity
  8
-TEXT3
100
AcDbLine
 10
-3586.386497556087
 20
-5818.285555921041
 30
0.0
 11
-3586.386497556087
 21
-5955.21319894366
 31
0.0
  0
LINE
  5
1781C
330
1F
100
AcDbEntity
  8
-TEXT3
100
AcDbLine
 10
-3582.386497556087
 20
-5818.285555921041
 30
0.0
 11
-3582.386497556086
 21
-5951.213198943659
 31
0.0
  0
LINE
  5
17829
330
1F
100
AcDbEntity
  8
-ZEICHNUNGSRAND-INNEN
100
AcDbLine
 10
-3449.45885453347
 20
-6018.285555921047
 30
0.0
 11
-3649.458854533474
 21
-6018.285555921047
 31
0.0
  0
LINE
  5
1782A
330
1F
100
AcDbEntity
  8
-ZEICHNUNGSRAND-INNEN
100
AcDbLine
 10
-3449.458854533467
 20
-5946.285555921047
 30
0.0
 11
-3577.458854533473
 21
-5946.285555921047
 31
0.0
  0
LINE
  5
1782B
330
1F
100
AcDbEntity
  8
-ZEICHNUNGSRAND-INNEN
100
AcDbLine
 10
-3449.45885453347
 20
-6018.285555921047
 30
0.0
 11
-3449.458854533467
 21
-5946.285555921047
 31
0.0
  0
LINE
  5
1782C
330
1F
100
AcDbEntity
  8
-ZEICHNUNGSRAND-INNEN
100
AcDbLine
 10
-3449.458854533467
 20
-5963.21319894366
 30
0.0
 11
-3594.386497556086
 21
-5963.21319894366
 31
0.0
  0
LINE
  5
1782D
330
1F
100
AcDbEntity
  8
-TEXT3
100
AcDbLine
 10
-3449.458854533467
 20
-5959.21319894366
 30
0.0
 11
-3590.386497556086
 21
-5959.21319894366
 31
0.0
  0
LINE
  5
1782E
330
1F
100
AcDbEntity
  8
-TEXT3
100
AcDbLine
 10
-3449.458854533467
 20
-5955.21319894366
 30
0.0
 11
-3586.386497556086
 21
-5955.21319894366
 31
0.0
  0
LINE
  5
1782F
330
1F
100
AcDbEntity
  8
-TEXT3
100
AcDbLine
 10
-3449.458854533467
 20
-5951.21319894366
 30
0.0
 11
-3582.386497556086
 21
-5951.21319894366
 31
0.0
  0
LINE
  5
17830
330
1F
100
AcDbEntity
  8
-ZEICHNUNGSRAND-INNEN
100
AcDbLine
 10
-3449.45885453347
 20
-6005.447916435874
 30
0.0
 11
-3636.6212150483
 21
-6005.447916435874
 31
0.0
  0
LINE
  5
17831
330
1F
100
AcDbEntity
  8
-ZEICHNUNGSRAND-INNEN
100
AcDbLine
 10
-3649.458854533474
 20
-6018.285555921047
 30
0.0
 11
-3593.741419336382
 21
-6018.285555921047
 31
0.0
  0
LINE
  5
17832
330
1F
100
AcDbEntity
  8
-ZEICHNUNGSRAND-INNEN
100
AcDbLine
 10
-3649.458854533474
 20
-6018.285555921047
 30
0.0
 11
-3577.458854533474
 21
-5946.285555921047
 31
0.0
  0
DIMENSION
  5
17833
330
1F
100
AcDbEntity
  8
-TEXT3
100
AcDbDimension
  2
*D88
 10
-3649.458854533474
 20
-6077.603099581882
 30
0.0
 11
-3549.458854533474
 21
-6077.603099581882
 31
0.0
 70
   160
 71
     5
 42
200.0
  3
1-1
100
AcDbAlignedDimension
 13
-3449.458854533474
 23
-6018.285555921047
 33
0.0
 14
-3649.458854533474
 24
-6018.285555921047
 34
0.0
100
AcDbRotatedDimension
  0
DIMENSION
  5
17835
330
1F
100
AcDbEntity
  8
-TEXT3
100
AcDbDimension
  2
*D89
 10
-3499.458854533474
 20
-6045.746268641533
 30
0.0
 11
-3474.458854533474
 21
-6038.661684739759
 31
0.0
 70
    32
 71
     5
 42
50.0
  3
1-1
100
AcDbAlignedDimension
 13
-3449.458854533474
 23
-6018.285555921047
 33
0.0
 14
-3499.458854533474
 24
-6026.268646327551
 34
0.0
100
AcDbRotatedDimension
  0
LINE
  5
17836
330
1F
100
AcDbEntity
  8
-NORMTEIL_VERDECKT
  6
STRICHLINIEX2
 62
     9
100
AcDbLine
 10
-3513.458854533474
 20
-6005.447916435874
 30
0.0
 11
-3513.458854533474
 21
-6018.285555921047
 31
0.0
  0
LINE
  5
17837
330
1F
100
AcDbEntity
  8
-NORMTEIL_VERDECKT
  6
STRICHLINIEX2
 62
     9
100
AcDbLine
 10
-3485.458854533474
 20
-6005.447916435874
 30
0.0
 11
-3485.458854533474
 21
-6018.285555921047
 31
0.0
  0
LINE
  5
17838
330
1F
100
AcDbEntity
  8
-SYSTEM
100
AcDbLine
 10
-3499.458854533474
 20
-6003.494353406618
 30
0.0
 11
-3499.458854533474
 21
-6026.268646327551
 31
0.0
  0
LINE
  5
17839
330
1F
100
AcDbEntity
  8
-SYSTEM
100
AcDbLine
 10
-3499.458854533471
 20
-5969.228711057926
 30
0.0
 11
-3499.45885453347
 21
-5943.705653021827
 31
0.0
  0
LINE
  5
1783A
330
1F
100
AcDbEntity
  8
-NORMTEIL_VERDECKT
  6
STRICHLINIEX2
 62
     9
100
AcDbLine
 10
-3507.458854533471
 20
-5963.21319894366
 30
0.0
 11
-3507.459095779463
 21
-5946.286553295385
 31
275.000137499999
  0
LINE
  5
1783B
330
1F
100
AcDbEntity
  8
-NORMTEIL_VERDECKT
  6
STRICHLINIEX2
 62
     9
100
AcDbLine
 10
-3491.458373184133
 20
-5963.21319894366
 30
0.0
 11
-3491.45885453347
 21
-5946.28731410756
 31
0.0
  0
MTEXT
  5
1787B
330
1F
100
AcDbEntity
  8
-TEXT2
100
AcDbMText
 10
-3552.575112021188
 20
-5916.460423452977
 30
0.0
 40
8.0
 41
282.4491943009796
 71
     1
 72
     5
  1
{\fArial|b0|i0|c238|p34;Rillung}
 73
     1
 44
1.0
1001
ACAD
1000
ACAD_MTEXT_DEFINED_HEIGHT_BEGIN
1070
    46
1040
3.561391541609822
1000
ACAD_MTEXT_DEFINED_HEIGHT_END
  0
LINE
  5
1787C
330
1F
100
AcDbEntity
  8
-TEXT3
100
AcDbLine
 10
-3527.112569898876
 20
-5949.085790691528
 30
0.0
 11
-3538.346359222258
 21
-5927.714986590434
 31
0.0
  0
LINE
  5
17C15
330
1F
100
AcDbEntity
  8
GRUNDPROFIL
  6
DASHDOT2
100
AcDbLine
 10
-3860.542847210403
 20
-5584.228431979594
 30
0.0
 11
-3815.780552820215
 21
-5584.228431979594
 31
0.0
  0
MTEXT
  5
17C16
330
1F
100
AcDbEntity
  8
-TEXT2
100
AcDbMText
 10
-3806.025774135655
 20
-5577.660318550315
 30
0.0
 40
8.407618560000001
 41
338.9390331611755
 71
     1
 72
     5
  1
{\fArial|b0|i0|c238|p34;Sichtseiten}
 73
     1
 44
1.0
1001
ACAD
1000
ACAD_MTEXT_DEFINED_HEIGHT_BEGIN
1070
    46
1040
3.561391541609822
1000
ACAD_MTEXT_DEFINED_HEIGHT_END
  0
LWPOLYLINE
  5
17C17
330
1F
100
AcDbEntity
  8
GRUNDPROFIL
  6
DASHDOT2
100
AcDbPolyline
 90
        5
 70
     0
 43
0.0
 10
-3589.497360005364
 20
-5568.106195060423
 42
-0.0495154188094824
 10
-3589.006004369914
 20
-5568.055702736899
 10
-3577.93773483611
 20
-5568.055702736898
 42
-0.4007734304657519
 10
-3575.458854533475
 20
-5570.514631648388
 10
-3575.458854533475
 20
-5570.551828649499
  0
LWPOLYLINE
  5
17C1D
330
1F
100
AcDbEntity
  8
GRUNDPROFIL
  6
DASHDOT2
100
AcDbPolyline
 90
       15
 70
     0
 43
0.0
 10
-3575.458854533474
 20
-5698.06386349385
 42
-0.4147601816520571
 10
-3577.963519316306
 20
-5700.563859141806
 10
-3581.955964798589
 20
-5700.563859141806
 42
-0.1295001213654494
 10
-3583.432309763743
 20
-5700.168484503464
 10
-3584.533100382444
 20
-5699.539334465414
 42
-0.2535775618089602
 10
-3586.420723482879
 20
-5700.556667602863
 10
-3602.367639843591
 20
-5700.556673902987
 10
-3624.963484560314
 20
-5700.556673902987
 10
-3648.932355449215
 20
-5700.556673902987
 42
-0.4254322053960925
 10
-3651.458854533474
 20
-5698.030174818728
 10
-3651.458854533474
 20
-5570.603150337209
 42
-0.4281974078028204
 10
-3648.995294776123
 20
-5568.055702736892
 10
-3644.278064672699
 20
-5568.055702736892
 10
-3639.479137943532
 20
-5568.055702736892
 42
-0.051596804120636
 10
-3638.967328963375
 20
-5568.1058683411
  0
DIMENSION
  5
17C3A
330
1F
100
AcDbEntity
  8
-TEXT3
100
AcDbDimension
  2
*D98
 10
-3425.323002218019
 20
-5946.285555921043
 30
0.0
 11
-3432.339373295781
 21
-5982.285555921045
 31
0.0
 70
    32
 71
     5
 42
72.0
  3
1-1
100
AcDbAlignedDimension
 13
-3449.458854533474
 23
-6018.285555921043
 33
0.0
 14
-3449.458854533468
 24
-5946.285555921043
 34
0.0
 50
90.0
100
AcDbRotatedDimension
  0
MTEXT
  5
19E6F
330
1F
100
AcDbEntity
  8
-TEXT2
100
AcDbMText
 10
-3520.198672703764
 20
-6122.138375220043
 30
0.0
 40
18.95081318335911
 41
357.1517629568815
 71
     1
 72
     5
  1
{\fCentury Gothic|b0|i0|c0|p34;\P\fArial|b0|i0|c0|p34;\H0.625x;Industriestraße 7-8\P74740 Adelsheim\P\H0.8x;\C2;Tel.: 06291-6259-0\PFax: 06291-6259-11}
 73
     1
 44
1.0
1001
ACAD
1000
ACAD_MTEXT_DEFINED_HEIGHT_BEGIN
1070
    46
1040
0.0
1000
ACAD_MTEXT_DEFINED_HEIGHT_END
  0
IMAGE
  5
19E70
330
1F
100
AcDbEntity
  8
-TEXT3
 92
      140
310
8C00000001000000840000000600000005000000F67EB54B5491ABC0D9D523F21A0AB8C00000000000000000F67EB54B5491ABC0410B0B1A3BE7B7C00000000000000000BF9B4077B146AAC0410B0B1A3BE7B7C00000000000000000BF9B4077B146AAC0D9D523F21A0AB8C00000000000000000F67EB54B5491ABC0D9D523
310
F21A0AB8C00000000000000000
100
AcDbRasterImage
 90
        0
 10
-3528.664640113591
 20
-6154.105257262906
 30
0.0
 11
0.3353306839049921
 21
0.0
 31
0.0
 12
0.0
 22
0.3353306839049921
 32
0.0
 13
493.0
 23
104.0
340
19E21
 70
     7
280
     0
281
    50
282
    50
283
     0
360
19E71
 71
     1
 91
        2
 14
-0.5
 24
-0.5
 14
492.4999999999999
 24
103.5
  0
MTEXT
  5
19E72
330
1F
100
AcDbEntity
  8
-TEXT2
100
AcDbMText
 10
-3884.692817427569
 20
-6173.999730164673
 30
0.0
 40
10.3096110812118
 41
331.7708423619573
 71
     4
 72
     5
  1
Alle Rechte vorbehalten, einschließlich des\PVervielfälltigens, Einlesens auf elektronischen\PDatenträgern und die Weitergabe an dritte\PPersonen nur nach ausdrücklicher\PGenehmigung der Firma Glassline GmbH
 73
     1
 44
1.0
1001
ACAD
1000
ACAD_MTEXT_DEFINED_HEIGHT_BEGIN
1070
    46
1040
0.0
1000
ACAD_MTEXT_DEFINED_HEIGHT_END
  0
ENDSEC
  0
SECTION
  2
OBJECTS
  0
DICTIONARY
  5
C
330
0
100
AcDbDictionary
281
     1
  3
ACAD_COLOR
350
480
  3
ACAD_GROUP
350
D
  3
ACAD_IMAGE_DICT
350
19E20
  3
ACAD_IMAGE_VARS
350
19E23
  3
ACAD_LAYOUT
350
1A
  3
ACAD_MATERIAL
350
467
  3
ACAD_MLEADERSTYLE
350
462
  3
ACAD_MLINESTYLE
350
17
  3
ACAD_PLOTSETTINGS
350
19
  3
ACAD_PLOTSTYLENAME
350
E
  3
ACAD_SCALELIST
350
3B
  3
ACAD_TABLESTYLE
350
481
  3
ACAD_VISUALSTYLE
350
2A
  3
ACDB_RECOMPOSE_DATA
350
525
  3
AcDbVariableDictionary
350
460
  3
AEC_CLASSIFICATION_SYSTEM_DEFS
350
24F0
  3
AEC_PROPERTY_SET_DEFS
350
893
  3
ASE_INDEX_DICTIONARY
350
114E4
  3
Ks_BoltRefDictionary
350
4A1
  3
Ks_HoleDisplayRefDictionary
350
4EB
  3
Ks_KoteFlagRefDictionary
350
4D8
  3
Ks_PartFamilyDictionary
350
890
  3
Ks_PosFlagRefDictionary
350
4DB
  3
Ks_ShapeRefDictionary
350
4EF
  3
Ks_WeldRefDictionary
350
4C8
  3
Ks_XRecordDictionary
350
4EC
  3
PsLizControl
350
488
  0
DICTIONARY
  5
526
330
8
100
AcDbDictionary
280
     1
281
     1
  3
ACAD_XREC_ROUNDTRIP
360
2286
  0
DICTIONARY
  5
7C6
330
2
100
AcDbDictionary
280
     1
281
     1
  3
ACAD_LAYERSTATES
360
7C7
  0
DICTIONARY
  5
4F0
330
10
100
AcDbDictionary
280
     1
281
     1
  3
ADSK_XREC_LAYER_RECONCILED
360
4F1
  0
DICTIONARY
  5
6407
330
6406
100
AcDbDictionary
280
     1
281
     1
  3
ACAD_XREC_ROUNDTRIP
360
6408
  0
DICTIONARY
  5
1324
330
1F
100
AcDbDictionary
280
     1
281
     1
  3
ACAD_SORTENTS
360
137B
  0
IMAGEDEF_REACTOR
  5
19E71
330
19E70
100
AcDbRasterImageDefReactor
 90
        2
330
19E70
  0
DICTIONARY
  5
480
102
{ACAD_REACTORS
330
C
102
}
330
C
100
AcDbDictionary
281
     1
  0
DICTIONARY
  5
D
102
{ACAD_REACTORS
330
C
102
}
330
C
100
AcDbDictionary
281
     1
  0
DICTIONARY
  5
19E20
102
{ACAD_REACTORS
330
C
102
}
330
C
100
AcDbDictionary
281
     1
  3
Glassline_Logo_RGB_72dpi
350
19E21
  0
RASTERVARIABLES
  5
19E23
102
{ACAD_REACTORS
330
C
102
}
330
C
100
AcDbRasterVariables
 90
        0
 70
     0
 71
     1
 72
     1
  0
DICTIONARY
  5
1A
102
{ACAD_REACTORS
330
C
102
}
330
C
100
AcDbDictionary
281
     1
  3
Layout1
350
1E
  3
Model
350
22
  0
DICTIONARY
  5
467
102
{ACAD_REACTORS
330
C
102
}
330
C
100
AcDbDictionary
281
     1
  3
ByBlock
350
470
  3
ByLayer
350
468
  3
Global
350
478
  0
DICTIONARY
  5
462
102
{ACAD_REACTORS
330
C
102
}
330
C
100
AcDbDictionary
281
     1
  3
Standard
350
483
  0
DICTIONARY
  5
17
102
{ACAD_REACTORS
330
C
102
}
330
C
100
AcDbDictionary
281
     1
  3
Standard
350
18
  0
DICTIONARY
  5
19
102
{ACAD_REACTORS
330
C
102
}
330
C
100
AcDbDictionary
281
     1
  0
ACDBDICTIONARYWDFLT
  5
E
102
{ACAD_REACTORS
330
C
102
}
330
C
100
AcDbDictionary
281
     1
  3
Normal
350
F
100
AcDbDictionaryWithDefault
340
F
  0
DICTIONARY
  5
3B
102
{ACAD_REACTORS
330
C
102
}
330
C
100
AcDbDictionary
281
     1
  3
A0
350
3C
  3
A1
350
3D
  3
A2
350
3E
  3
A3
350
3F
  3
A4
350
40
  3
A5
350
41
  3
A6
350
42
  3
A7
350
43
  3
A8
350
44
  3
A9
350
45
  3
B0
350
46
  3
B1
350
47
  3
B2
350
48
  3
B3
350
49
  3
B4
350
4A
  3
B5
350
4B
  3
B6
350
4C
  3
B7
350
4D
  3
B8
350
4E
  3
B9
350
4F
  3
C0
350
50
  3
C1
350
51
  3
C2
350
52
  3
C3
350
53
  3
C4
350
54
  3
C5
350
55
  3
C6
350
56
  3
C7
350
57
  3
C8
350
58
  3
C9
350
59
  3
D0
350
5A
  3
D1
350
5B
  3
D2
350
5C
  0
DICTIONARY
  5
481
102
{ACAD_REACTORS
330
C
102
}
330
C
100
AcDbDictionary
281
     1
  3
Standard
350
482
  0
DICTIONARY
  5
2A
102
{ACAD_REACTORS
330
C
102
}
330
C
100
AcDbDictionary
281
     1
  3
2dWireframe
350
2F
  3
3D Hidden
350
31
  3
3dWireframe
350
30
  3
Basic
350
32
  3
Brighten
350
36
  3
ColorChange
350
3A
  3
Conceptual
350
34
  3
Dim
350
35
  3
Facepattern
350
39
  3
Flat
350
2B
  3
FlatWithEdges
350
2C
  3
Gouraud
350
2D
  3
GouraudWithEdges
350
2E
  3
Linepattern
350
38
  3
Realistic
350
33
  3
Thicken
350
37
  0
XRECORD
  5
525
102
{ACAD_REACTORS
330
C
102
}
330
C
100
AcDbXrecord
280
     1
 90
        1
330
482
  0
DICTIONARY
  5
460
102
{ACAD_REACTORS
330
C
102
}
330
C
100
AcDbDictionary
281
     1
  3
CANNOSCALE
350
465
  3
CMLEADERSTYLE
350
52D
  3
CTABLESTYLE
350
52C
  3
LAYEREVAL
350
224A
  3
LAYERNOTIFY
350
224B
  3
LIGHTINGUNITS
350
2249
  3
MSLTSCALE
350
2248
  3
PSOLHEIGHT
350
228C
  3
PSOLWIDTH
350
228B
  0
DICTIONARY
  5
24F0
102
{ACAD_REACTORS
330
C
102
}
330
C
100
AcDbDictionary
281
     1
  0
DICTIONARY
  5
893
102
{ACAD_REACTORS
330
C
102
}
330
C
100
AcDbDictionary
281
     1
  0
DICTIONARY
  5
114E4
102
{ACAD_REACTORS
330
C
102
}
330
C
100
AcDbDictionary
281
     1
  3
ASEBlockHierarchyIndexRecord
350
114E5
1001
DCO15
1040
1746859877.692
  0
DICTIONARY
  5
4A1
102
{ACAD_REACTORS
330
C
102
}
330
C
100
AcDbDictionary
280
     1
281
     1
  3
4.6S
360
4AF
  3
4.6S-GALV
360
4B0
  3
8.8S
360
4B1
  3
8.8S-GALV
360
4B7
  3
8.8TB
360
4B2
  3
8.8TB-GALV
360
4B3
  3
8.8TF
360
4B4
  3
8.8TF-GALV
360
4B5
  3
A307 FIELD
360
4B8
  3
A307 SHOP
360
4B9
  3
A325 FIELD
360
4BA
  3
A325 SHOP
360
4BB
  3
A490 FIELD
360
4BC
  3
A490 SHOP
360
4BD
  3
CN_B
360
4BE
  3
CN_C
360
4BF
  3
CN_GQ8.8
360
4C1
  3
DIN558
360
4AB
  3
DIN601
360
4AC
  3
DIN6914
360
4A3
  3
DIN7968
360
4A7
  3
DIN7969
360
4A8
  3
DIN7984
360
4AA
  3
DIN7990
360
4A2
  3
DIN7991
360
4A6
  3
DIN7999
360
4A9
  3
DIN912
360
4AD
  3
DIN931
360
4A4
  3
DIN933
360
4A5
  3
DIN965
360
4AE
  3
Gewindestange
360
4B6
  0
DICTIONARY
  5
4EB
102
{ACAD_REACTORS
330
C
102
}
330
C
100
AcDbDictionary
280
     1
281
     1
  0
DICTIONARY
  5
4D8
102
{ACAD_REACTORS
330
C
102
}
330
C
100
AcDbDictionary
280
     1
281
     1
  3
Dreiecke
360
4DA
  3
Standard
360
4D9
  0
DICTIONARY
  5
890
102
{ACAD_REACTORS
330
C
102
}
330
C
100
AcDbDictionary
280
     1
281
     1
  0
DICTIONARY
  5
4DB
102
{ACAD_REACTORS
330
C
102
}
330
C
100
AcDbDictionary
280
     1
281
     1
  3
Assembly
360
4E9
  3
Baugruppe
360
4EA
  3
Baugruppenhauptteil
360
4DD
  3
Baugruppennebenteil
360
4E0
  3
Baugruppenteil
360
4E5
  3
BG-Übersicht
360
4E6
  3
Einzelteil
360
4E7
  3
Einzelteile
360
4DC
  3
Kurzposition
360
4E1
  3
Montage
360
4E3
  3
Polyplatten
360
4DF
  3
Schraube
360
4E2
  3
Sonderprofile
360
4DE
  3
Standard
360
4E4
  3
SubGruppe
360
4E8
  0
DICTIONARY
  5
4EF
102
{ACAD_REACTORS
330
C
102
}
330
C
100
AcDbDictionary
280
     1
281
     1
  0
DICTIONARY
  5
4C8
102
{ACAD_REACTORS
330
C
102
}
330
C
100
AcDbDictionary
280
     1
281
     1
  3
HU-Naht
360
1AD4
  3
HV-Naht
360
4CB
  3
HY-Naht
360
4CC
  3
I-Naht
360
4CD
  3
K-Naht
360
1AD5
  3
Kehl 3mm
360
4CE
  3
Kehl 4mm
360
4CF
  3
Kehl 5mm
360
4D0
  3
Kehl-Naht
360
1AD6
  3
Kehlnaht
360
4C9
  3
Linien-Naht
360
4D1
  3
Loch-Naht
360
4D2
  3
Punkt-Naht
360
4D3
  3
Standard
360
4D4
  3
U- Naht
360
4D5
  3
V-Naht
360
4CA
  3
X-Naht
360
4D6
  3
Y-Naht
360
4D7
  0
DICTIONARY
  5
4EC
102
{ACAD_REACTORS
330
C
102
}
330
C
100
AcDbDictionary
281
     1
  3
KS_MEASUREMENT
350
4ED
  3
PsAreaDictionary_17
350
891
  3
PsHideDictionary_17
350
892
  3
PsSCreenSettings
350
522
  0
DICTIONARY
  5
488
102
{ACAD_REACTORS
330
C
102
}
330
C
100
AcDbDictionary
281
     1
  3
0
350
489
  0
XRECORD
  5
2286
102
{ACAD_REACTORS
330
526
102
}
330
526
100
AcDbXrecord
280
     1
102
VTR_0.000_0.000_1.000_1.000_VISUALSTYLE
340
2F
102
VTR_0.000_0.000_1.000_1.000_GRIDDISPLAY
 70
     3
102
VTR_0.000_0.000_1.000_1.000_GRIDMAJOR
 70
     5
102
VTR_0.000_0.000_1.000_1.000_DEFAULTLIGHTING
280
     1
102
VTR_0.000_0.000_1.000_1.000_DEFAULTLIGHTINGTYPE
 70
     1
102
VTR_0.000_0.000_1.000_1.000_BRIGHTNESS
141
0.0
102
VTR_0.000_0.000_1.000_1.000_CONTRAST
142
0.0
  0
DICTIONARY
  5
7C7
102
{ACAD_REACTORS
330
7C6
102
}
330
7C6
100
AcDbDictionary
281
     1
  0
XRECORD
  5
4F1
102
{ACAD_REACTORS
330
4F0
102
}
330
4F0
100
AcDbXrecord
280
     1
290
     1
  0
XRECORD
  5
6408
102
{ACAD_REACTORS
330
6407
102
}
330
6407
100
AcDbXrecord
280
     1
102
MATERIAL
340
478
  0
SORTENTSTABLE
  5
137B
102
{ACAD_REACTORS
330
1324
102
}
330
1324
100
AcDbSortentsTable
330
1F
331
1772A
  5
1788E
331
17C16
  5
17C66
331
1455C
  5
14607
331
1770C
  5
17831
331
17C17
  5
1460B
331
1772B
  5
1788F
331
1455D
  5
14608
331
1772C
  5
17890
331
1770D
  5
17832
331
1774B
  5
178A8
331
1455E
  5
14609
331
1772D
  5
17891
331
1770E
  5
17833
331
1774C
  5
178A9
331
17838
  5
178C5
331
1455F
  5
1460A
331
17839
  5
178C6
331
1772E
  5
17892
331
1770F
  5
17834
331
1774D
  5
178AA
331
1783A
  5
178C7
331
1772F
  5
17893
331
1774E
  5
178AB
331
1783B
  5
178C8
331
17730
  5
17894
331
17731
  5
17895
331
17751
  5
178AC
331
17732
  5
17896
331
17752
  5
178AD
331
17733
  5
17897
331
17753
  5
178AE
331
17715
  5
1783A
331
17734
  5
17898
331
17735
  5
17899
331
17716
  5
1783B
331
17754
  5
178AF
331
1781A
  5
178A3
331
17736
  5
1789A
331
17717
  5
1787B
331
17755
  5
178B0
331
1781B
  5
178A4
331
17737
  5
1789B
331
17718
  5
1787C
331
17756
  5
178B1
331
17738
  5
1789C
331
1781C
  5
178A5
331
17719
  5
1787D
331
17C3A
  5
17C67
331
17760
  5
178B2
331
17739
  5
1789D
331
1771A
  5
1787E
331
17761
  5
178B3
331
1771B
  5
1787F
331
1773A
  5
1789E
331
1771C
  5
17880
331
1773B
  5
1789F
331
1771D
  5
17881
331
1773C
  5
178A0
331
17829
  5
178B4
331
1773D
  5
178A1
331
1782A
  5
178B5
331
1771F
  5
17883
331
1773F
  5
178A2
331
1782B
  5
178B6
331
17720
  5
17884
331
17740
  5
178A6
331
1782C
  5
178B7
331
17721
  5
17885
331
1782D
  5
178B8
331
17722
  5
17886
331
1787B
  5
178D1
331
1782E
  5
178B9
331
17723
  5
17887
331
1787C
  5
17983
331
1782F
  5
178BA
331
17724
  5
17888
331
17725
  5
17889
331
17830
  5
178BB
331
17726
  5
1788A
331
17831
  5
178BF
331
17832
  5
178C0
331
17727
  5
1788B
331
17746
  5
178A7
331
17833
  5
178C1
331
17835
  5
178C2
331
17836
  5
178C3
331
17837
  5
178C4
331
14560
  5
1460E
331
14561
  5
1460F
331
14562
  5
14610
331
17C1D
  5
1460D
331
1456B
  5
14618
331
17728
  5
1788C
331
17729
  5
1788D
331
17C15
  5
17C50
  0
IMAGEDEF
  5
19E21
102
{ACAD_REACTORS
330
19E20
330
19E38
330
19E3D
330
19E41
330
19E45
330
19E49
330
19E4D
330
19E51
330
19E55
330
19E59
330
19E5D
330
19E61
330
19E65
330
19E69
330
19E6D
330
19E71
330
19E75
102
}
330
19E20
100
AcDbRasterImageDef
 90
        0
  1
T:\Marketing\Öffentlich\Logo\Glassline_Logo_RGB_72dpi.jpg
 10
493.0
 20
104.0
 11
0.3527777777777778
 21
0.3527777777777778
280
     1
281
     5
  0
LAYOUT
  5
1E
102
{ACAD_REACTORS
330
1A
102
}
330
1A
100
AcDbPlotSettings
  1

  2
none_device
  4

  6

 40
0.0
 41
0.0
 42
0.0
 43
0.0
 44
0.0
 45
0.0
 46
0.0
 47
0.0
 48
0.0
 49
0.0
140
0.0
141
0.0
142
1.0
143
1.0
 70
   688
 72
     0
 73
     0
 74
     5
  7
brüstung.ctb
 75
    16
147
1.0
 76
     0
 77
     2
 78
   300
148
0.0
149
0.0
100
AcDbLayout
  1
Layout1
 70
     1
 71
     1
 10
0.0
 20
0.0
 11
420.0
 21
297.0
 12
0.0
 22
0.0
 32
0.0
 14
0.0
 24
0.0
 34
0.0
 15
420.0
 25
297.0
 35
0.0
146
0.0
 13
0.0
 23
0.0
 33
0.0
 16
1.0
 26
0.0
 36
0.0
 17
0.0
 27
1.0
 37
0.0
 76
     0
330
1B
  0
LAYOUT
  5
22
102
{ACAD_REACTORS
330
1A
102
}
330
1A
100
AcDbPlotSettings
  1

  2
Adobe PDF
  4
A4
  6

 40
3.174999952316284
 41
3.174999952316284
 42
3.175003051757812
 43
3.17498779296875
 44
209.9098358154297
 45
297.0318298339844
 46
0.0
 47
0.910373002006878
 48
2075.510975939371
 49
357.1149598522916
140
2390.510975939371
141
804.1149598522915
142
1.0
143
1.547456566698593
 70
 11956
 72
     1
 73
     0
 74
     4
  7
brüstung.ctb
 75
     0
147
0.646221691464621
 76
     0
 77
     2
 78
   300
148
-2075.510975939371
149
-357.1149598522916
100
AcDbLayout
  1
Model
 70
     1
 71
     0
 10
0.0
 20
0.0
 11
420.0
 21
297.0
 12
0.0
 22
0.0
 32
0.0
 14
0.0
 24
0.0
 34
0.0
 15
420.0
 25
297.0
 35
0.0
146
0.0
 13
0.0
 23
0.0
 33
0.0
 16
1.0
 26
0.0
 36
0.0
 17
0.0
 27
1.0
 37
0.0
 76
     0
330
1F
1001
ACAD_PSEXT
1000
Adobe PDF
1000
Adobe PDF Converter
1000
Eigene Dateien
1000

1070
     0
  0
MATERIAL
  5
470
102
{ACAD_XDICTIONARY
360
471
102
}
102
{ACAD_REACTORS
330
467
102
}
330
467
100
AcDbMaterial
  1
ByBlock
 72
     0
 73
     2
 43
0.0008202099737533
 43
0.0
 43
0.0
 43
0.0
 43
0.0
 43
0.0008202099737533
 43
0.0
 43
0.0
 43
0.0
 43
0.0
 43
1.0
 43
0.0
 43
0.0
 43
0.0
 43
0.0
 43
1.0
 77
     0
 78
     2
 47
0.0008202099737533
 47
0.0
 47
0.0
 47
0.0
 47
0.0
 47
0.0008202099737533
 47
0.0
 47
0.0
 47
0.0
 47
0.0
 47
1.0
 47
0.0
 47
0.0
 47
0.0
 47
0.0
 47
1.0
171
     0
172
     2
 49
0.0008202099737533
 49
0.0
 49
0.0
 49
0.0
 49
0.0
 49
0.0008202099737533
 49
0.0
 49
0.0
 49
0.0
 49
0.0
 49
1.0
 49
0.0
 49
0.0
 49
0.0
 49
0.0
 49
1.0
175
     0
176
     2
142
0.0008202099737533
142
0.0
142
0.0
142
0.0
142
0.0
142
0.0008202099737533
142
0.0
142
0.0
142
0.0
142
0.0
142
1.0
142
0.0
142
0.0
142
0.0
142
0.0
142
1.0
179
     0
270
     2
144
0.0008202099737533
144
0.0
144
0.0
144
0.0
144
0.0
144
0.0008202099737533
144
0.0
144
0.0
144
0.0
144
0.0
144
1.0
144
0.0
144
0.0
144
0.0
144
0.0
144
1.0
274
     2
147
0.0008202099737533
147
0.0
147
0.0
147
0.0
147
0.0
147
0.0008202099737533
147
0.0
147
0.0
147
0.0
147
0.0
147
1.0
147
0.0
147
0.0
147
0.0
147
0.0
147
1.0
  0
MATERIAL
  5
468
102
{ACAD_XDICTIONARY
360
469
102
}
102
{ACAD_REACTORS
330
467
102
}
330
467
100
AcDbMaterial
  1
ByLayer
 72
     0
 73
     2
 43
0.0008202099737533
 43
0.0
 43
0.0
 43
0.0
 43
0.0
 43
0.0008202099737533
 43
0.0
 43
0.0
 43
0.0
 43
0.0
 43
1.0
 43
0.0
 43
0.0
 43
0.0
 43
0.0
 43
1.0
 77
     0
 78
     2
 47
0.0008202099737533
 47
0.0
 47
0.0
 47
0.0
 47
0.0
 47
0.0008202099737533
 47
0.0
 47
0.0
 47
0.0
 47
0.0
 47
1.0
 47
0.0
 47
0.0
 47
0.0
 47
0.0
 47
1.0
171
     0
172
     2
 49
0.0008202099737533
 49
0.0
 49
0.0
 49
0.0
 49
0.0
 49
0.0008202099737533
 49
0.0
 49
0.0
 49
0.0
 49
0.0
 49
1.0
 49
0.0
 49
0.0
 49
0.0
 49
0.0
 49
1.0
175
     0
176
     2
142
0.0008202099737533
142
0.0
142
0.0
142
0.0
142
0.0
142
0.0008202099737533
142
0.0
142
0.0
142
0.0
142
0.0
142
1.0
142
0.0
142
0.0
142
0.0
142
0.0
142
1.0
179
     0
270
     2
144
0.0008202099737533
144
0.0
144
0.0
144
0.0
144
0.0
144
0.0008202099737533
144
0.0
144
0.0
144
0.0
144
0.0
144
1.0
144
0.0
144
0.0
144
0.0
144
0.0
144
1.0
274
     2
147
0.0008202099737533
147
0.0
147
0.0
147
0.0
147
0.0
147
0.0008202099737533
147
0.0
147
0.0
147
0.0
147
0.0
147
1.0
147
0.0
147
0.0
147
0.0
147
0.0
147
1.0
  0
MATERIAL
  5
478
102
{ACAD_XDICTIONARY
360
479
102
}
102
{ACAD_REACTORS
330
467
102
}
330
467
100
AcDbMaterial
  1
Global
 72
     0
 73
     2
 43
0.0008202099737533
 43
0.0
 43
0.0
 43
0.0
 43
0.0
 43
0.0008202099737533
 43
0.0
 43
0.0
 43
0.0
 43
0.0
 43
1.0
 43
0.0
 43
0.0
 43
0.0
 43
0.0
 43
1.0
 77
     0
 78
     2
 47
0.0008202099737533
 47
0.0
 47
0.0
 47
0.0
 47
0.0
 47
0.0008202099737533
 47
0.0
 47
0.0
 47
0.0
 47
0.0
 47
1.0
 47
0.0
 47
0.0
 47
0.0
 47
0.0
 47
1.0
171
     0
172
     2
 49
0.0008202099737533
 49
0.0
 49
0.0
 49
0.0
 49
0.0
 49
0.0008202099737533
 49
0.0
 49
0.0
 49
0.0
 49
0.0
 49
1.0
 49
0.0
 49
0.0
 49
0.0
 49
0.0
 49
1.0
175
     0
176
     2
142
0.0008202099737533
142
0.0
142
0.0
142
0.0
142
0.0
142
0.0008202099737533
142
0.0
142
0.0
142
0.0
142
0.0
142
1.0
142
0.0
142
0.0
142
0.0
142
0.0
142
1.0
179
     0
270
     2
144
0.0008202099737533
144
0.0
144
0.0
144
0.0
144
0.0
144
0.0008202099737533
144
0.0
144
0.0
144
0.0
144
0.0
144
1.0
144
0.0
144
0.0
144
0.0
144
0.0
144
1.0
274
     2
147
0.0008202099737533
147
0.0
147
0.0
147
0.0
147
0.0
147
0.0008202099737533
147
0.0
147
0.0
147
0.0
147
0.0
147
1.0
147
0.0
147
0.0
147
0.0
147
0.0
147
1.0
  0
ACAD_PROXY_OBJECT
  5
483
102
{ACAD_REACTORS
330
462
102
}
330
462
100
AcDbProxyObject
 90
      499
 91
      508
 95
  4980761
 70
     0
 93
      744
310
40901902A40600000030400FEFFFFFF8000000000000008102B5E8DC0F42B5CFD095374616E646172640000000000000004102405064068000000C1000000000000000410000000000000004102000000304015D90000000000000C03F00
340
14
340
0
340
11
340
0
 94
        0
1001
ACAD_MLEADERVER
1070
     2
  0
MLINESTYLE
  5
18
102
{ACAD_REACTORS
330
17
102
}
330
17
100
AcDbMlineStyle
  2
STANDARD
 70
     0
  3

 62
   256
 51
90.0
 52
90.0
 71
     2
 49
0.5
 62
   256
  6
BYLAYER
 49
-0.5
 62
   256
  6
BYLAYER
  0
ACDBPLACEHOLDER
  5
F
102
{ACAD_REACTORS
330
E
102
}
330
E
  0
ACAD_PROXY_OBJECT
  5
3C
102
{ACAD_REACTORS
330
3B
102
}
330
3B
100
AcDbProxyObject
 90
      499
 91
      502
 95
  4980761
 70
     0
 93
       49
310
904313A3100598
 94
        0
  0
ACAD_PROXY_OBJECT
  5
3D
102
{ACAD_REACTORS
330
3B
102
}
330
3B
100
AcDbProxyObject
 90
      499
 91
      502
 95
  4980761
 70
     0
 93
      113
310
904313A32004000000000000004004
 94
        0
  0
ACAD_PROXY_OBJECT
  5
3E
102
{ACAD_REACTORS
330
3B
102
}
330
3B
100
AcDbProxyObject
 90
      499
 91
      502
 95
  4980761
 70
     0
 93
      113
310
904313A34004000000000000104074
 94
        0
  0
ACAD_PROXY_OBJECT
  5
3F
102
{ACAD_REACTORS
330
3B
102
}
330
3B
100
AcDbProxyObject
 90
      499
 91
      502
 95
  4980761
 70
     0
 93
      113
310
904313A35004000000000000144004
 94
        0
  0
ACAD_PROXY_OBJECT
  5
40
102
{ACAD_REACTORS
330
3B
102
}
330
3B
100
AcDbProxyObject
 90
      499
 91
      502
 95
  4980761
 70
     0
 93
      113
310
904313A38004000000000000204074
 94
        0
  0
ACAD_PROXY_OBJECT
  5
41
102
{ACAD_REACTORS
330
3B
102
}
330
3B
100
AcDbProxyObject
 90
      499
 91
      502
 95
  4980761
 70
     0
 93
      121
310
905313A3130004000000000000244009
 94
        0
  0
ACAD_PROXY_OBJECT
  5
42
102
{ACAD_REACTORS
330
3B
102
}
330
3B
100
AcDbProxyObject
 90
      499
 91
      502
 95
  4980761
 70
     0
 93
      121
310
905313A3136004000000000000304009
 94
        0
  0
ACAD_PROXY_OBJECT
  5
43
102
{ACAD_REACTORS
330
3B
102
}
330
3B
100
AcDbProxyObject
 90
      499
 91
      502
 95
  4980761
 70
     0
 93
      121
310
905313A3230004000000000000344009
 94
        0
  0
ACAD_PROXY_OBJECT
  5
44
102
{ACAD_REACTORS
330
3B
102
}
330
3B
100
AcDbProxyObject
 90
      499
 91
      502
 95
  4980761
 70
     0
 93
      121
310
905313A33300040000000000003E4009
 94
        0
  0
ACAD_PROXY_OBJECT
  5
45
102
{ACAD_REACTORS
330
3B
102
}
330
3B
100
AcDbProxyObject
 90
      499
 91
      502
 95
  4980761
 70
     0
 93
      121
310
905313A3430004000000000000444009
 94
        0
  0
ACAD_PROXY_OBJECT
  5
46
102
{ACAD_REACTORS
330
3B
102
}
330
3B
100
AcDbProxyObject
 90
      499
 91
      502
 95
  4980761
 70
     0
 93
      121
310
905313A3530004000000000000494009
 94
        0
  0
ACAD_PROXY_OBJECT
  5
47
102
{ACAD_REACTORS
330
3B
102
}
330
3B
100
AcDbProxyObject
 90
      499
 91
      502
 95
  4980761
 70
     0
 93
      129
310
906313A313030004000000000000594002
 94
        0
  0
ACAD_PROXY_OBJECT
  5
48
102
{ACAD_REACTORS
330
3B
102
}
330
3B
100
AcDbProxyObject
 90
      499
 91
      502
 95
  4980761
 70
     0
 93
      113
310
904323A31000000000000000010100
 94
        0
  0
ACAD_PROXY_OBJECT
  5
49
102
{ACAD_REACTORS
330
3B
102
}
330
3B
100
AcDbProxyObject
 90
      499
 91
      502
 95
  4980761
 70
     0
 93
      113
310
904343A31000000000000000410159
 94
        0
  0
ACAD_PROXY_OBJECT
  5
4A
102
{ACAD_REACTORS
330
3B
102
}
330
3B
100
AcDbProxyObject
 90
      499
 91
      502
 95
  4980761
 70
     0
 93
      113
310
904383A31000000000000000810100
 94
        0
  0
ACAD_PROXY_OBJECT
  5
4B
102
{ACAD_REACTORS
330
3B
102
}
330
3B
100
AcDbProxyObject
 90
      499
 91
      502
 95
  4980761
 70
     0
 93
      121
310
90531303A31000000000000000910140
 94
        0
  0
ACAD_PROXY_OBJECT
  5
4C
102
{ACAD_REACTORS
330
3B
102
}
330
3B
100
AcDbProxyObject
 90
      499
 91
      502
 95
  4980761
 70
     0
 93
      129
310
9063130303A31000000000000001650100
 94
        0
  0
ACAD_PROXY_OBJECT
  5
4D
102
{ACAD_REACTORS
330
3B
102
}
330
3B
100
AcDbProxyObject
 90
      499
 91
      502
 95
  4980761
 70
     0
 93
      265
310
90F312F31323822203D2031272D302200000000000000200FC000000000000284002
 94
        0
  0
ACAD_PROXY_OBJECT
  5
4E
102
{ACAD_REACTORS
330
3B
102
}
330
3B
100
AcDbProxyObject
 90
      499
 91
      502
 95
  4980761
 70
     0
 93
      257
310
90E312F363422203D2031272D302200000000000000240FC000000000000284000
 94
        0
  0
ACAD_PROXY_OBJECT
  5
4F
102
{ACAD_REACTORS
330
3B
102
}
330
3B
100
AcDbProxyObject
 90
      499
 91
      502
 95
  4980761
 70
     0
 93
      257
310
90E312F333222203D2031272D302200000000000000280FC000000000000284040
 94
        0
  0
ACAD_PROXY_OBJECT
  5
50
102
{ACAD_REACTORS
330
3B
102
}
330
3B
100
AcDbProxyObject
 90
      499
 91
      502
 95
  4980761
 70
     0
 93
      257
310
90E312F313622203D2031272D3022000000000000002C0FC000000000000284000
 94
        0
  0
ACAD_PROXY_OBJECT
  5
51
102
{ACAD_REACTORS
330
3B
102
}
330
3B
100
AcDbProxyObject
 90
      499
 91
      502
 95
  4980761
 70
     0
 93
      257
310
90E332F333222203D2031272D3022000000000000002E0FC000000000000284040
 94
        0
  0
ACAD_PROXY_OBJECT
  5
52
102
{ACAD_REACTORS
330
3B
102
}
330
3B
100
AcDbProxyObject
 90
      499
 91
      502
 95
  4980761
 70
     0
 93
      249
310
90D312F3822203D2031272D302200000000000000300FC000000000000284040
 94
        0
  0
ACAD_PROXY_OBJECT
  5
53
102
{ACAD_REACTORS
330
3B
102
}
330
3B
100
AcDbProxyObject
 90
      499
 91
      502
 95
  4980761
 70
     0
 93
      257
310
90E332F313622203D2031272D302200000000000000320FC000000000000284040
 94
        0
  0
ACAD_PROXY_OBJECT
  5
54
102
{ACAD_REACTORS
330
3B
102
}
330
3B
100
AcDbProxyObject
 90
      499
 91
      502
 95
  4980761
 70
     0
 93
      249
310
90D312F3422203D2031272D302200000000000000340FC000000000000284040
 94
        0
  0
ACAD_PROXY_OBJECT
  5
55
102
{ACAD_REACTORS
330
3B
102
}
330
3B
100
AcDbProxyObject
 90
      499
 91
      502
 95
  4980761
 70
     0
 93
      249
310
90D332F3822203D2031272D302200000000000000360FC000000000000284040
 94
        0
  0
ACAD_PROXY_OBJECT
  5
56
102
{ACAD_REACTORS
330
3B
102
}
330
3B
100
AcDbProxyObject
 90
      499
 91
      502
 95
  4980761
 70
     0
 93
      249
310
90D312F3222203D2031272D302200000000000000380FC000000000000284040
 94
        0
  0
ACAD_PROXY_OBJECT
  5
57
102
{ACAD_REACTORS
330
3B
102
}
330
3B
100
AcDbProxyObject
 90
      499
 91
      502
 95
  4980761
 70
     0
 93
      249
310
90D332F3422203D2031272D3022000000000000003A0FC000000000000284040
 94
        0
  0
ACAD_PROXY_OBJECT
  5
58
102
{ACAD_REACTORS
330
3B
102
}
330
3B
100
AcDbProxyObject
 90
      499
 91
      502
 95
  4980761
 70
     0
 93
      169
310
90B3122203D2031272D3022004000000000000284000
 94
        0
  0
ACAD_PROXY_OBJECT
  5
59
102
{ACAD_REACTORS
330
3B
102
}
330
3B
100
AcDbProxyObject
 90
      499
 91
      502
 95
  4980761
 70
     0
 93
      265
310
90F312D312F3222203D2031272D3022000000000000003E0FC000000000000284002
 94
        0
  0
ACAD_PROXY_OBJECT
  5
5A
102
{ACAD_REACTORS
330
3B
102
}
330
3B
100
AcDbProxyObject
 90
      499
 91
      502
 95
  4980761
 70
     0
 93
      233
310
90B3322203D2031272D30220000000000000002100000000000000284028
 94
        0
  0
ACAD_PROXY_OBJECT
  5
5B
102
{ACAD_REACTORS
330
3B
102
}
330
3B
100
AcDbProxyObject
 90
      499
 91
      502
 95
  4980761
 70
     0
 93
      233
310
90B3622203D2031272D30220000000000000006100000000000000284000
 94
        0
  0
ACAD_PROXY_OBJECT
  5
5C
102
{ACAD_REACTORS
330
3B
102
}
330
3B
100
AcDbProxyObject
 90
      499
 91
      502
 95
  4980761
 70
     0
 93
      257
310
90E31272D3022203D2031272D3022000000000000000A100000000000000284000
 94
        0
  0
TABLESTYLE
  5
482
102
{ACAD_XDICTIONARY
360
523
102
}
102
{ACAD_REACTORS
330
481
102
}
330
481
100
AcDbTableStyle
  3
Standard
 70
     0
 71
     0
 40
1.5
 41
1.5
280
     0
281
     0
  7
Standard
140
4.5
170
     2
 62
     0
 63
     7
283
     0
274
    -2
284
     1
 64
     0
275
    -2
285
     1
 65
     0
276
    -2
286
     1
 66
     0
277
    -2
287
     1
 67
     0
278
    -2
288
     1
 68
     0
279
    -2
289
     1
 69
     0
  7
Standard
140
6.0
170
     5
 62
     0
 63
     7
283
     0
274
    -2
284
     1
 64
     0
275
    -2
285
     1
 65
     0
276
    -2
286
     1
 66
     0
277
    -2
287
     1
 67
     0
278
    -2
288
     1
 68
     0
279
    -2
289
     1
 69
     0
  7
Standard
140
4.5
170
     5
 62
     0
 63
     7
283
     0
274
    -2
284
     1
 64
     0
275
    -2
285
     1
 65
     0
276
    -2
286
     1
 66
     0
277
    -2
287
     1
 67
     0
278
    -2
288
     1
 68
     0
279
    -2
289
     1
 69
     0
  0
ACAD_PROXY_OBJECT
  5
2F
102
{ACAD_REACTORS
330
2A
102
}
330
2A
100
AcDbProxyObject
 90
      499
 91
      501
 95
  4980761
 70
     0
 93
      598
310
430C9915DA5C99599C985B59401049028333333333333E3BF0000000000000FB0201C00030C02405048070000C3008000000C800405A000000320014050640A01C00030C010500920280D2
 94
        0
1001
ACAD
1000
AcDbSavedByObjectVersion
1070
     0
  0
ACAD_PROXY_OBJECT
  5
31
102
{ACAD_REACTORS
330
2A
102
}
330
2A
100
AcDbProxyObject
 90
      499
 91
      501
 95
  4980761
 70
     0
 93
      662
310
428CD108121A5919195B8010640502408333333333333E3BF0000000000000FB0201C00030C02409028070000C3008000000C8004080000000000004440A000000320014050640A01C00030C010300920280D3
 94
        0
1001
ACAD
1000
AcDbSavedByObjectVersion
1070
     0
  0
ACAD_PROXY_OBJECT
  5
30
102
{ACAD_REACTORS
330
2A
102
}
330
2A
100
AcDbProxyObject
 90
      499
 91
      501
 95
  4980761
 70
     0
 93
      598
310
430CD915DA5C99599C985B59401059028333333333333E3BF0000000000000FB0201C00030C02405048070000C3008000000C800405A000000320014050640A01C00030C010500920280D3
 94
        0
1001
ACAD
1000
AcDbSavedByObjectVersion
1070
     0
  0
ACAD_PROXY_OBJECT
  5
32
102
{ACAD_REACTORS
330
2A
102
}
330
2A
100
AcDbProxyObject
 90
      499
 91
      501
 95
  4980761
 70
     0
 93
      558
310
4190985CDA58C0107406404333333333333E3BF0000000000000FB0201C00030C029048070000C3008000000C80040542201C00030C014050640A01C00030C010500920280D5
 94
        0
1001
ACAD
1000
AcDbSavedByObjectVersion
1070
     0
  0
ACAD_PROXY_OBJECT
  5
36
102
{ACAD_REACTORS
330
2A
102
}
330
2A
100
AcDbProxyObject
 90
      499
 91
      501
 95
  4980761
 70
     0
 93
      598
310
42509C9A59DA1D195B8010C409028333333333333E3BF0000000000000FB0201C00030C02405048070000C3008000000C80040542201C00030C014050640A01C00030C010500920280A654
 94
        0
1001
ACAD
1000
AcDbSavedByObjectVersion
1070
     0
  0
ACAD_PROXY_OBJECT
  5
3A
102
{ACAD_REACTORS
330
2A
102
}
330
2A
100
AcDbProxyObject
 90
      499
 91
      501
 95
  4980761
 70
     0
 93
      622
310
4310DBDB1BDC90DA185B99D9401104090240C333333333333E3BF0000000000000FB0202000030C02405048070000C3008000000C80040542202000030C014050640A01C00030C010500920280D4
 94
        0
1001
ACAD
1000
AcDbSavedByObjectVersion
1070
     0
  0
ACAD_PROXY_OBJECT
  5
34
102
{ACAD_REACTORS
330
2A
102
}
330
2A
100
AcDbProxyObject
 90
      499
 91
      501
 95
  4980761
 70
     0
 93
      670
310
42D0DBDB98D95C1D1D585B0010940D028333333333333E3BF0000000000000FB0201C00030C02409028070000C3008000000C800404000000000000444042201C00030C014050640A01C00030C010300920280D0
 94
        0
1001
ACAD
1000
AcDbSavedByObjectVersion
1070
     0
  0
ACAD_PROXY_OBJECT
  5
35
102
{ACAD_REACTORS
330
2A
102
}
330
2A
100
AcDbProxyObject
 90
      499
 91
      501
 95
  4980761
 70
     0
 93
      582
310
41111A5B4010B409028333333333333E3BF0000000000000FB0201C00030C02405048070000C3008000000C80040542201C00030C014050640A01C00030C01050092028099DFFFFFF6
 94
        0
1001
ACAD
1000
AcDbSavedByObjectVersion
1070
     0
  0
ACAD_PROXY_OBJECT
  5
39
102
{ACAD_REACTORS
330
2A
102
}
330
2A
100
AcDbProxyObject
 90
      499
 91
      501
 95
  4980761
 70
     0
 93
      614
310
43119858D95C185D1D195C9B8010F409028333333333333E3BF0000000000000FB0201C00030C02405048070000C3008000000C80040542201C00030C014050640A01C00030C010500920280D4
 94
        0
1001
ACAD
1000
AcDbSavedByObjectVersion
1070
     0
  0
ACAD_PROXY_OBJECT
  5
2B
102
{ACAD_REACTORS
330
2A
102
}
330
2A
100
AcDbProxyObject
 90
      499
 91
      501
 95
  4980761
 70
     0
 93
      558
310
41519B185D00240901404333333333333E3BF0000000000000F90201C00030C01029048070000C3008000000C80040542201C00030C014050640A01C00030C010500920286D6
 94
        0
1001
ACAD
1000
AcDbSavedByObjectVersion
1070
     0
  0
ACAD_PROXY_OBJECT
  5
2C
102
{ACAD_REACTORS
330
2A
102
}
330
2A
100
AcDbProxyObject
 90
      499
 91
      501
 95
  4980761
 70
     0
 93
      638
310
43919B185D15DA5D1A115919D95CC010140901404333333333333E3BF0000000000000F90201C00030C0102405048070000C3008000000C800405A000000320014050640A01C00030C010500920286D4
 94
        0
1001
ACAD
1000
AcDbSavedByObjectVersion
1070
     0
  0
ACAD_PROXY_OBJECT
  5
2D
102
{ACAD_REACTORS
330
2A
102
}
330
2A
100
AcDbProxyObject
 90
      499
 91
      501
 95
  4980761
 70
     0
 93
      582
310
4211DBDD5C985D590010240902404333333333333E3BF0000000000000F90201C00030C01029048070000C3008000000C800405A01C00030C014050640A01C00030C010500920286D5
 94
        0
1001
ACAD
1000
AcDbSavedByObjectVersion
1070
     0
  0
ACAD_PROXY_OBJECT
  5
2E
102
{ACAD_REACTORS
330
2A
102
}
330
2A
100
AcDbProxyObject
 90
      499
 91
      501
 95
  4980761
 70
     0
 93
      662
310
4451DBDD5C985D5915DA5D1A115919D95CC010340902404333333333333E3BF0000000000000F90201C00030C0102405048070000C3008000000C800405A000000320014050640A01C00030C010500920286D4
 94
        0
1001
ACAD
1000
AcDbSavedByObjectVersion
1070
     0
  0
ACAD_PROXY_OBJECT
  5
38
102
{ACAD_REACTORS
330
2A
102
}
330
2A
100
AcDbProxyObject
 90
      499
 91
      501
 95
  4980761
 70
     0
 93
      614
310
43131A5B995C185D1D195C9B8010E409028333333333333E3BF0000000000000FB0201C00030C02405048070000C3008000000C80041D42201C00030C014050640A01C00030C010500920E80D4
 94
        0
1001
ACAD
1000
AcDbSavedByObjectVersion
1070
     0
  0
ACAD_PROXY_OBJECT
  5
33
102
{ACAD_REACTORS
330
2A
102
}
330
2A
100
AcDbProxyObject
 90
      499
 91
      501
 95
  4980761
 70
     0
 93
      590
310
429499585B1A5CDD1A58C0108409028333333333333E3BF0000000000000FB0201C00030C024068070000C3008000000C80040542202000030C014050640A01C00030C010500920286D0
 94
        0
1001
ACAD
1000
AcDbSavedByObjectVersion
1070
     0
  0
ACAD_PROXY_OBJECT
  5
37
102
{ACAD_REACTORS
330
2A
102
}
330
2A
100
AcDbProxyObject
 90
      499
 91
      501
 95
  4980761
 70
     0
 93
      582
310
42151A1A58DAD95B8010D409028333333333333E3BF0000000000000FB0201C00030C02405048070000C3008000000C80040543201C00030C014050640A01C00030C010500920280D4
 94
        0
1001
ACAD
1000
AcDbSavedByObjectVersion
1070
     0
  0
DICTIONARYVAR
  5
465
102
{ACAD_REACTORS
330
460
102
}
330
460
100
DictionaryVariables
280
     0
  1
1:1
  0
DICTIONARYVAR
  5
52D
102
{ACAD_REACTORS
330
460
102
}
330
460
100
DictionaryVariables
280
     0
  1
STANDARD
  0
DICTIONARYVAR
  5
52C
102
{ACAD_REACTORS
330
460
102
}
330
460
100
DictionaryVariables
280
     0
  1
STANDARD
  0
DICTIONARYVAR
  5
224A
102
{ACAD_REACTORS
330
460
102
}
330
460
100
DictionaryVariables
280
     0
  1
1
  0
DICTIONARYVAR
  5
224B
102
{ACAD_REACTORS
330
460
102
}
330
460
100
DictionaryVariables
280
     0
  1
15
  0
DICTIONARYVAR
  5
2249
102
{ACAD_REACTORS
330
460
102
}
330
460
100
DictionaryVariables
280
     0
  1
0
  0
DICTIONARYVAR
  5
2248
102
{ACAD_REACTORS
330
460
102
}
330
460
100
DictionaryVariables
280
     0
  1
0
  0
DICTIONARYVAR
  5
228C
102
{ACAD_REACTORS
330
460
102
}
330
460
100
DictionaryVariables
280
     0
  1
80.000000
  0
DICTIONARYVAR
  5
228B
102
{ACAD_REACTORS
330
460
102
}
330
460
100
DictionaryVariables
280
     0
  1
5.000000
  0
XRECORD
  5
114E5
102
{ACAD_REACTORS
330
114E4
102
}
330
114E4
100
AcDbXrecord
280
     1
330
0
330
0
330
0
330
0
330
0
330
0
330
0
330
0
330
0
330
0
330
0
330
0
330
0
  0
ACAD_PROXY_OBJECT
  5
4AF
102
{ACAD_REACTORS
330
4A1
102
}
330
4A1
100
AcDbProxyObject
 90
      499
 91
      509
 95
  4980761
 70
     0
 93
     2328
310
40C2C0006002C0000011541535F426F6C745374796C65477265792E626D7000414D0B8D94C011041535F426F6C745F3436532E6462660090444D3490A110A481E08090A130A480D0B8D8BD4C011124284429204469612E20576173686572004293490A110A48139D5D002A44D3490A110A481E08090A130A480D0B8D8BD4C0
310
1075761736865720041139D5D002A42890A110A48111A584B8010D426C61636B2057617368657200AA43D054D7D39D5D17CD0D9CCB9918998010F41535F4E75745F3436732E64626600449054D7D5D85CDA195C97CD0D9CCB9918998011241535F5761736865725F3436732E646266004554D8DA195A58994D0CCD0B8D0CCD
310
5D5A4B99189980115536368656962653433342E34333575692E6462660041D0641906AA90600
 94
        0
  0
ACAD_PROXY_OBJECT
  5
4B0
102
{ACAD_REACTORS
330
4A1
102
}
330
4A1
100
AcDbProxyObject
 90
      499
 91
      509
 95
  4980761
 70
     0
 93
     1888
310
40C1C0802002C0000011541535F426F6C745374796C65477265792E626D7000428D0B8D94CB51D053158011041535F426F6C745F3436532E646266009044613490A110A481E08090A130A480D0B8D8BD4C811D053158010A24284429204469612E004293490A110A48139D5D002A4613490A110A481E08090A130A480D0B8D
310
8BD4C811D053158011247616C76616E69736564205761736865720041139D5D002A42890A110A48111A584B8011247616C76616E697365642057617368657200AA43D054D7D39D5D17CD0D9CCB991899802449054D7D5D85CDA195C97CD0D9CCB991899802A41D0641906AA90600
 94
        0
  0
ACAD_PROXY_OBJECT
  5
4B1
102
{ACAD_REACTORS
330
4A1
102
}
330
4A1
100
AcDbProxyObject
 90
      499
 91
      509
 95
  4980761
 70
     0
 93
     1760
310
40C1C0006002C0000011641535F426F6C745374796C654C426C75652E626D7000414E0B8E14C011041535F426F6C745F3838732E6462660090444D3490A110A481E08090A130A480E0B8E0BD4C01124D24284429204469612E20576173686572004293490A110A48139555002A44D3490A110A481E08090A130A480E0B8E0B
310
D4C0107576173686572004293490A110A48139555002A42890A110A48111A584B8010D426C61636B2057617368657200AA43D054D7D39D5D17CE0E1CCB991899802449054D7D5D85CDA195C97CE0E1CCB991899802A4110841D07AA90700
 94
        0
  0
ACAD_PROXY_OBJECT
  5
4B7
102
{ACAD_REACTORS
330
4A1
102
}
330
4A1
100
AcDbProxyObject
 90
      499
 91
      509
 95
  4980761
 70
     0
 93
     1960
310
40C1C0802002C0000011641535F426F6C745374796C654C426C75652E626D7000428E0B8E14CB51D053158011041535F426F6C745F3838732E646266009044613490A110A481E08090A130A480E0B8E0BD4C811D05315801124D24284429204469612E20576173686572004293490A110A48139555002A4613490A110A481E
310
08090A130A480E0B8E0BD4C811D053158011247616C76616E69736564205761736865720041139555002A42890A110A48111A584B8011247616C76616E697365642057617368657200AA43D054D7D39D5D17CE0E1CCB991899802449054D7D5D85CDA195C97CE0E1CCB991899802A4110841D07AA907C0
 94
        0
  0
ACAD_PROXY_OBJECT
  5
4B2
102
{ACAD_REACTORS
330
4A1
102
}
330
4A1
100
AcDbProxyObject
 90
      499
 91
      509
 95
  4980761
 70
     0
 93
     2328
310
40C1C0006002C0000011641535F426F6C745374796C6544426C75652E626D7000418E0B8E15108011041535F426F6C745F3838732E646266009044513490A110A481E08090A130A480E0B8E0BD5108011D4D24284429204C4F414420494E4449434154494E4720574153484552004293490A110A48139555002A4513490A11
310
0A481E08090A130A480E0B8E0BD5108011D4D24284429204C4F414420494E4449434154494E4720574153484552004293490A110A48139555002A4753490A110A481313D051081253911250D055125391C815D054D211548011D4D24284429204C4F414420494E4449434154494E472057415348455200AA43D054D7D39D5D
310
17CE0E1CCB991899802449054D7D5D85CDA195C97CE0E1CCB991899802A4150841D07AA90700
 94
        0
  0
ACAD_PROXY_OBJECT
  5
4B3
102
{ACAD_REACTORS
330
4A1
102
}
330
4A1
100
AcDbProxyObject
 90
      499
 91
      509
 95
  4980761
 70
     0
 93
     2528
310
40C1C0806002C0000011641535F426F6C745374796C6544426C75652E626D700042CE0B8E15108B51D053158011041535F426F6C745F3838732E646266009044653490A110A481E08090A130A480E0B8E0BD5108811D053158011D4D24284429204C4F414420494E4449434154494E47205741534845520043D3490A110A48
310
1395550811D05315802A4653490A110A481E08090A130A480E0B8E0BD5108811D053158011D4D24284429204C4F414420494E4449434154494E47205741534845520043D3490A110A481395550811D05315802A4753490A110A481313D051081253911250D055125391C815D054D211548011D4D24284429204C4F41442049
310
4E4449434154494E472057415348455200AA43D054D7D39D5D17CE0E1CCB991899802449054D7D5D85CDA195C97CE0E1CCB991899802A4150841D07AA907BC
 94
        0
  0
ACAD_PROXY_OBJECT
  5
4B4
102
{ACAD_REACTORS
330
4A1
102
}
330
4A1
100
AcDbProxyObject
 90
      499
 91
      509
 95
  4980761
 70
     0
 93
     2344
310
40C1C0006002C0000011841535F426F6C745374796C654D6167656E74612E626D7000418E0B8E15118011041535F426F6C745F3838732E646266009044513490A110A481E08090A130A480E0B8E0BD5118011D4D24284429204C4F414420494E4449434154494E4720574153484552004293490A110A48139555002A451349
310
0A110A481E08090A130A480E0B8E0BD5118011D4D24284429204C4F414420494E4449434154494E4720574153484552004293490A110A48139555002A4753490A110A481313D051081253911250D055125391C815D054D211548011D4D24284429204C4F414420494E4449434154494E472057415348455200AA43D054D7D3
310
9D5D17CE0E1CCB991899802449054D7D5D85CDA195C97CE0E1CCB991899802A4190841D07AA90741
 94
        0
  0
ACAD_PROXY_OBJECT
  5
4B5
102
{ACAD_REACTORS
330
4A1
102
}
330
4A1
100
AcDbProxyObject
 90
      499
 91
      509
 95
  4980761
 70
     0
 93
     2464
310
40C1C0806002C0000011841535F426F6C745374796C654D6167656E74612E626D700042CE0B8E15118B51D053158011041535F426F6C745F3838732E646266009044653490A110A481E08090A130A480E0B8E0BD5118811D053158011D4D24284429204C4F414420494E4449434154494E4720574153484552004293490A11
310
0A48139555002A4653490A110A481E08090A130A480E0B8E0BD5118811D053158011D4D24284429204C4F414420494E4449434154494E4720574153484552004293490A110A48139555002A4753490A110A481313D051081253911250D055125391C815D054D211548011D4D24284429204C4F414420494E4449434154494E
310
472057415348455200AA43D054D7D39D5D17CE0E1CCB991899802449054D7D5D85CDA195C97CE0E1CCB991899802A4190841D07AA90762
 94
        0
  0
ACAD_PROXY_OBJECT
  5
4B8
102
{ACAD_REACTORS
330
4A1
102
}
330
4A1
100
AcDbProxyObject
 90
      499
 91
      509
 95
  4980761
 70
     0
 93
     2536
310
40C2C0006002C00000115424F4C545354594C4559454C4C4F57312E626D700042D04CCC0DC811925153110010D613330375F6865782E646266004050447119251531108109BDB1D08090A110A5E090A130A48104CCC0DCB53801165761736865722024284429204153544D20463433360044D39D5D08090A110A481054D513
310
48104D4D8CC02A47119251531108109BDB1D08090A110A5E090A130A48104CCC0DCB53801165761736865722024284429204153544D20463433360044D39D5D08090A110A481054D51348104D4D8CC02A4595D85CDA195C88090A110A481054D51348118D0CCD80117536368656962652024284429204153544D2046343336
310
00AA451554D7D84D4D8CD7DA195E08139D5D0B991899802471554D7D98D0CCD8810DA5C98DD5B185C8815D85CDA195C8B991899802A4098360D8358D09A90942
 94
        0
  0
ACAD_PROXY_OBJECT
  5
4B9
102
{ACAD_REACTORS
330
4A1
102
}
330
4A1
100
AcDbProxyObject
 90
      499
 91
      509
 95
  4980761
 70
     0
 93
     2496
310
40C2C0002002C00000113424F4C545354594C45424C5545312E626D700042904CCC0DC814D213D40010D613330375F6865782E646266004050446D4D213D408109BDB1D08090A110A5E090A130A48104CCC0DCB53801165761736865722024284429204153544D20463433360044D39D5D08090A110A481054D51348104D4D
310
8CC02A46D4D213D408109BDB1D08090A110A5E090A130A48104CCC0DCB53801165761736865722024284429204153544D20463433360044D39D5D08090A110A481054D51348104D4D8CC02A4595D85CDA195C88090A110A481054D51348118D0CCD80117536368656962652024284429204153544D204634333600AA451554
310
D7D84D4D8CD7DA195E08139D5D0B991899802471554D7D98D0CCD8810DA5C98DD5B185C8815D85CDA195C8B991899802A4118360D8358D09A90996
 94
        0
  0
ACAD_PROXY_OBJECT
  5
4BA
102
{ACAD_REACTORS
330
4A1
102
}
330
4A1
100
AcDbProxyObject
 90
      499
 91
      509
 95
  4980761
 70
     0
 93
     2520
310
40C2C0006002C00000113424F4C545354594C4547524559312E626D700042D04CCC8D4811925153110010D613332355F6865782E646266004050447119251531108109BDB1D08090A110A5E090A130A48104CCC8D4B53801165761736865722024284429204153544D20463433360044D39D5D08090A110A481054D5134810
310
4D4D8CC02A47119251531108109BDB1D08090A110A5E090A130A48104CCC8D4B53801165761736865722024284429204153544D20463433360044D39D5D08090A110A481054D51348104D4D8CC02A45D4D8DA195A589948090A110A481054D51348118D0CCD801165761736865722024284429204153544D204634333600AA
310
451554D7D84D4D8CD7DA195E08139D5D0B991899802471554D7D98D0CCD8810DA5C98DD5B185C8815D85CDA195C8B991899802A41D846118458D09A90927
 94
        0
  0
ACAD_PROXY_OBJECT
  5
4BB
102
{ACAD_REACTORS
330
4A1
102
}
330
4A1
100
AcDbProxyObject
 90
      499
 91
      509
 95
  4980761
 70
     0
 93
     2488
310
40C2C0002002C00000112424F4C545354594C45524544312E626D700042904CCC8D4814D213D40010D613332355F6865782E646266004050446D4D213D408109BDB1D08090A110A5E090A130A48104CCC8D4B53801165761736865722024284429204153544D20463433360044D39D5D08090A110A481054D51348104D4D8C
310
C02A46D4D213D408109BDB1D08090A110A5E090A130A48104CCC8D4B53801165761736865722024284429204153544D20463433360044D39D5D08090A110A481054D51348104D4D8CC02A45D4D8DA195A589948090A110A481054D51348118D0CCD801165761736865722024284429204153544D204634333600AA451554D7
310
D84D4D8CD7DA195E08139D5D0B991899802471554D7D98D0CCD8810DA5C98DD5B185C8815D85CDA195C8B991899802A451846118458D09A9090D
 94
        0
  0
ACAD_PROXY_OBJECT
  5
4BC
102
{ACAD_REACTORS
330
4A1
102
}
330
4A1
100
AcDbProxyObject
 90
      499
 91
      509
 95
  4980761
 70
     0
 93
     2584
310
40C2C0006002C00000114424F4C545354594C45475245454E312E626D700042D04D0E4C0811925153110010D613439305F6865782E646266004050448919251531108109BDB1D08090A110A5E090A130A48104D0E4C0B5388119A595B19001165761736865722024284429204153544D20463433360044D39D5D08090A110A
310
481054D51348104D4D8CC02A47119251531108109BDB1D08090A110A5E090A130A48104D0E4C0B53801165761736865722024284429204153544D20463433360044D39D5D08090A110A481054D51348104D4D8CC02A45D4D8DA195A589948090A110A481054D51348118D0CCD8011753636865696265202428442920415354
310
4D204634333600AA451554D7D84D4D8CD7DA195E08139D5D0B991899802471554D7D98D0CCD8810DA5C98DD5B185C8815D85CDA195C8B991899802A5798D6358D58D09A90900
 94
        0
  0
ACAD_PROXY_OBJECT
  5
4BD
102
{ACAD_REACTORS
330
4A1
102
}
330
4A1
100
AcDbProxyObject
 90
      499
 91
      509
 95
  4980761
 70
     0
 93
     2520
310
40C2C0002002C00000115424F4C545354594C45505552504C45312E626D700042904D0E4C0814D213D40010D613439305F6865782E646266004050446D4D213D408109BDB1D08090A110A5E090A130A48104D0E4C0B53801165761736865722024284429204153544D20463433360044D39D5D08090A110A481054D5134810
310
4D4D8CC02A46D4D213D408109BDB1D08090A110A5E090A130A48104D0E4C0B53801165761736865722024284429204153544D20463433360044D39D5D08090A110A481054D51348104D4D8CC02A45D4D8DA195A589948090A110A481054D51348118D0CCD80117536368656962652024284429204153544D204634333600AA
310
451554D7D84D4D8CD7DA195E08139D5D0B991899802471554D7D98D0CCD8810DA5C98DD5B185C8815D85CDA195C8B991899802A7298D6358D58D09A90900
 94
        0
  0
ACAD_PROXY_OBJECT
  5
4BE
102
{ACAD_REACTORS
330
4A1
102
}
330
4A1
100
AcDbProxyObject
 90
      499
 91
      509
 95
  4980761
 70
     0
 93
     1496
310
40C940002002C00000108434E422E626D70004150D397D080109434E5F422E6462660090444D3490A110A5E090A130A4810AF2DB0B772EA0010AB5E6C8A620242844290042B0B7712E08090A110A402A44D3490A110A5E090A130A4810AF2DB0B772EA0010AB5E6C8A620242844290042B0B7712E08090A110A402A42AD79B
310
22988090A110A4010AB5E6C8A6202428442900AA4350D397D0509395550B9918998024410D397D05095D054D211548B991899802A411C771DC7AA90700
 94
        0
  0
ACAD_PROXY_OBJECT
  5
4BF
102
{ACAD_REACTORS
330
4A1
102
}
330
4A1
100
AcDbProxyObject
 90
      499
 91
      509
 95
  4980761
 70
     0
 93
     1480
310
40C940002002C00000108434E432E626D70004150D397D0C0109434E5F432E6462660090444D3490A110A5E090A130A4810EF2DB0B772EA0010AB5E6C8A620242844290042B0B7712E08090A110A402A44D3490A110A5E090A130A4810EF2DB0B772EA0010AB5E6C8A620242844290042B0B7712E08090A110A402A42AD79B
310
22988090A110A4010AB5E6C8A6202428442900AA4310D397D0D395550B99189980243D0D397D0D5D054D211548B991899802A411C771DC7AA90700
 94
        0
  0
ACAD_PROXY_OBJECT
  5
4C1
102
{ACAD_REACTORS
330
4A1
102
}
330
4A1
100
AcDbProxyObject
 90
      499
 91
      509
 95
  4980761
 70
     0
 93
     2176
310
40C940002002C00000109434E38382E626D70004250D397D1D44E0B8E00115636E5F676A6779677164646C6A746C732E646266009044653490A110A5E090A130A482E37F1EFF0B772EA0E0B8E2F2D80112B8DFC7BFC2DDCBA8B5E6C8A620242844290044AE37F1EFF0B772EA30B7712E08090A110A402A4653490A110A5E09
310
0A130A482E37F1EFF0B772EA0E0B8E2F2D80112B8DFC7BFC2DDCBA8B5E6C8A620242844290044AE37F1EFF0B772EA30B7712E08090A110A402A44AE37F1EFF0B772EA2D79B22988090A110A40112B8DFC7BFC2DDCBA8B5E6C8A6202428442900AA4450D397D1D4511312951395550B9918998024510D397D1D45113129515D
310
054D211548B991899802A411CD735CDAA90746
 94
        0
  0
ACAD_PROXY_OBJECT
  5
4AB
102
{ACAD_REACTORS
330
4A1
102
}
330
4A1
100
AcDbProxyObject
 90
      499
 91
      509
 95
  4980761
 70
     0
 93
     2872
310
40CFC0002002C0000010B44494E3535382E626D700041D112538D4D4E0010B5343483535382E64626600904451348090A110A5E090A130A481254D3CD0C0C4E0011753636865696265204120242844292044494E373938390044135D48090A110A481254D3CD0C0CCD001114D7520242844292044494E20373936370045D54
310
B54D8DA195A589948090A110A48111253880D0CCD00117492D5363686569626520242844292044494E2034333500448D0C0C4E0B53490A110A5E090A130A53554010C373938392D53242844292D00448D0C0CCC8B5355490A110A4B504C8BCD4C00113373936372D4D55242844292D4653542D5A4E00438D0CCD0B54C90A11
310
0A504B54D50010E3433352D5324284429412D5354004594D8DA195A5899481048090A110A481112538C4C8D4010D3132352D53242844292D413200AA43935D5D1D195C8D4D4D4B9918998024414D8DA195A58994DCE4E0E4B991899802A4150624804920141D06A908D6
 94
        0
  0
ACAD_PROXY_OBJECT
  5
4AC
102
{ACAD_REACTORS
330
4A1
102
}
330
4A1
100
AcDbProxyObject
 90
      499
 91
      509
 95
  4980761
 70
     0
 93
     2904
310
40CFC0002002C0000010B44494E3630312E626D700041D112538D8C0C4010B5343483630312E64626600904451348090A110A5E090A130A481254D3CD0C0C4D8011653636865696265204120242844292044494E3133370044135D48090A110A481254D3CD0C0CCD001114D7520242844292044494E20373936370045D54B5
310
4D8DA195A589948090A110A48111253880D0CCD00117492D5363686569626520242844292044494E2034333500440D0C0C4D8B53490A110A5E090A130A4010D3133372D53242844292D413200448D0C0CCD0B5355490A110A4B504C8BCD4C00113373936372D4D55242844292D4653542D5A4E00438D0CCD0B54C90A110A50
310
4B54D50010E3433352D5324284429412D5354004594D8DA195A5899481048090A110A481112538C4C8D4010D3132352D53242844292D413200AA43935D5D1D195C8D4D4D4B9918998024594D8DA195A58994C4CCDC8119BDC9B48104B991899802A4150624804920141D06A908B6
 94
        0
  0
ACAD_PROXY_OBJECT
  5
4A3
102
{ACAD_REACTORS
330
4A1
102
}
330
4A1
100
AcDbProxyObject
 90
      499
 91
      509
 95
  4980761
 70
     0
 93
     4640
310
40DFCC022013C0000010C44494E363931342E626D7000421112538D8E4C4D0010C534348363931342E64626600904451348090A110A5E090A130A481112538D8E4C4D0011753636865696265204120242844292044494E363931360044135D48090A110A481112538D8E4C4D401114D7520242844292044494E20363931350
310
046154B54D8DA195A589948090A110A48111253880D8E4C4E00118492D5363686569626520242844292044494E203639313700474D8E4C4D0B53490A110A5E090A130A53554C94CB4C4C0B8E4B5516938010F363931362D53242844292D4334350044CD8E4C4D4B5355490A110A4B4C4C0B55169380113363931352D4D5524
310
2844292D31302D545A4E00440D8E4C4E0B54C90A110A504B50CD0D40110363931372D5324284429412D4334350045D4D8DA195A5899481048090A110A481112538D8E4C4D8010F363931362D53242844292D4334350046154B54D8DA195A589948090A110A48111253880D8E4C4E00118492D5363686569626520242844292
310
044494E203639313700440D8E4C4E0B54C90A110A504B50CD0D40110363931372D5324284429412D4334350043D35D5D1D195C8D8E4C4D4B9918998010F4D7574746572363931352E646266004414D8DA195A58994D8E4C4D8B9918998011053636865696265363931362E6462660045D4D8DA195A58994D8E4C4DCB8D8E4C
310
4E1D5A4B9918998011753636865696265363931372E3639313875692E6462660041909254049501424950125404000000000000594090900000000141ABE10000000000A06AF840A00
 94
        0
  0
ACAD_PROXY_OBJECT
  5
4A7
102
{ACAD_REACTORS
330
4A1
102
}
330
4A1
100
AcDbProxyObject
 90
      499
 91
      509
 95
  4980761
 70
     0
 93
     3192
310
40DFC400200AC0000010C44494E373936382E626D7000421112538DCE4D8E0010C534348373936382E64626600904451348090A110A5E090A130A481112538DCE4D8E0011753636865696265204120242844292044494E373938390044135D48090A110A481254D3CD0C0CCD001114D7520242844292044494E20363931350
310
046154B54D8DA195A589948090A110A48111253880D8E4C4E00118492D5363686569626520242844292044494E203639313700450DCE4D8E0B53490A110A5E090A130A53554C94C010B373938392D532428442900430D0C0CCD0B5355490A110A40113363931352D4D55242844292D31302D545A4E00440D8E4C4E0B54C90A
310
110A504B50CD0D40110363931372D5324284429412D4334350045D4D8DA195A5899481048090A110A481112538D8E4C4D8010F363931362D53242844292D43343500AA43935D5D1D195C8D4D4D4B9918998024414D8DA195A58994DCE4E0E4B99189980245D4D8DA195A58994D8E4C4DCB8D8E4C4E1D5A4B99189980241906
310
24804920142492018000000000000594090304
 94
        0
  0
ACAD_PROXY_OBJECT
  5
4A8
102
{ACAD_REACTORS
330
4A1
102
}
330
4A1
100
AcDbProxyObject
 90
      499
 91
      509
 95
  4980761
 70
     0
 93
     4096
310
40CFC400200AC0000010C44494E373936392E626D7000421112538DCE4D8E4010C534348373936392E6462660090445D348090A110A5E090A130A48135D481112538DCE4D8E4011753636865696265204120242844292044494E373938390044135D48090A110A481254D3CD0C0CCD001104D7520242844292044494E20353
310
5350045D54B54D8DA195A589948090A110A48111253880D0CCD00117492D5363686569626520242844292044494E2034333500470DCE4D8E4B53490A110A56090A130A53554C54CB4D0B8D8B5516938010E373938392D53242844292D53540043CD0C0CCD0B5355490A110A4B4D4B4011032343033342D4D55242844292D35
310
2D00438D0CCD0B54C90A110A504B54D50010E3433352D5324284429412D53540045D4D8DA195A5899481048090A110A481112538DCE4E0E4010E373938392D53242844292D53540045D54B54D8DA195A589948090A110A48111253880D0CCD00117492D5363686569626520242844292044494E2034333500438D0CCD0B54C
310
90A110A504B54D500243935D5D1D195C8D4D4D4B9918998010E4D75747465723535352E646266004414D8DA195A58994DCE4E0E4B9918998011053636865696265373938392E646266004554D8DA195A58994D0CCD0B8D0CCD5D5A4B99189980115536368656962653433342E34333575692E6462660041506248049201418
310
9201A90600
 94
        0
  0
ACAD_PROXY_OBJECT
  5
4AA
102
{ACAD_REACTORS
330
4A1
102
}
330
4A1
100
AcDbProxyObject
 90
      499
 91
      509
 95
  4980761
 70
     0
 93
     2456
310
40DFC0002002C0000010C44494E373938342E626D7000421112538DCE4E0D0010C534348373938342E64626600904451348090A110A5E090A130A481112538DCE4E0D0011653636865696265204120242844292044494E3132350044135D48090A110A48111253880E4CCD001114D7520242844292044494E203639313500A
310
448DCE4E0D0B53490A110A5E090A130A53554010D3132352D53242844292D41320044CC8D0C0CCC8B5355490A110A4B504C8BCD4C00113363931352D4D55242844292D31302D545A4E00A4594D8DA195A5899481048090A110A481112538C4C8D4010D3132352D53242844292D413200AA43935D5D1D195C8E4CCD0B991899
310
80243D4D8DA195A58994C4C8D4B9918998010F536368656962653132352E64626600A4190824C04930142680000000000005940908B0
 94
        0
  0
ACAD_PROXY_OBJECT
  5
4A2
102
{ACAD_REACTORS
330
4A1
102
}
330
4A1
100
AcDbProxyObject
 90
      499
 91
      509
 95
  4980761
 70
     0
 93
     4264
310
40DBCC402002C0000010C44494E373939302E626D7000421112538DCE4E4C0010C534348373939302E6462660090445D348090A110A5E090A130A48135D481112538DCE4E4C0011753636865696265204120242844292044494E373938390044135D48090A110A481254D3CD0C0CCD001114D7520242844292044494E20373
310
936370045D54B54D8DA195A589948090A110A48111253880D0CCD00117492D5363686569626520242844292044494E2034333500470DCE4E4C0B53490A110A56090A130A53554C54CB4D0B8D8B5516938010E373938392D53242844292D53540043CD0C0CCD0B5355490A110A4B4D4B40113373936372D4D55242844292D46
310
53542D5A4E00438D0CCD0B54C90A110A504B54D50010E3433352D5324284429412D53540045D4D8DA195A5899481048090A110A481112538DCE4E0E4010E373938392D53242844292D53540045D54B54D8DA195A589948090A110A48111253880D0CCD00117492D5363686569626520242844292044494E2034333500438D0
310
CCD0B54C90A110A504B54D50010E3433352D5324284429412D53540043935D5D1D195C8D4D4D4B9918998010E4D75747465723535352E646266004414D8DA195A58994DCE4E0E4B9918998011053636865696265373938392E646266004554D8DA195A58994D0CCD0B8D0CCD5D5A4B99189980115536368656962653433342
310
E34333575692E646266004110624804920141C91012440690700
 94
        0
  0
ACAD_PROXY_OBJECT
  5
4A6
102
{ACAD_REACTORS
330
4A1
102
}
330
4A1
100
AcDbProxyObject
 90
      499
 91
      509
 95
  4980761
 70
     0
 93
     3288
310
40CBC500200AC0000010C44494E373939312E626D7000421112538DCE4E4C4010C534348373939312E64626600904461348090A110A5E090A130A48135D481254D3CC4C0D8D0C8011753636865696265204120242844292049534F373039320044135D48090A110A481254D3CD0C0CCD001114D7520242844292044494E203
310
73936370045D54B54D8DA195A589948090A110A48111253880D0CCD00117492D5363686569626520242844292044494E2034333500474C4C0D8D0C8B53490A110A56090A130A53554C54CB4D4B8D8B5516938010E373039322D53242844292D53540043CD0C0CCD0B5355490A110A4B4D4B40113373936372D4D5524284429
310
2D4653542D5A4E00438D0CCD0B54C90A110A504B54D50010E3433352D5324284429412D5354004594D8DA195A5899481048090A110A481112538D0CCCC010D3433332D53242844292D535400AA43935D5D1D195C8D4D4D4B99189980243D4D8DA195A58994D0CCCCB9918998010B53636865696265343333004554D8DA195A
310
58994D0CCD0B8D0CCD5D5A4B99189980241D0724804920141C920141E90700
 94
        0
  0
ACAD_PROXY_OBJECT
  5
4A9
102
{ACAD_REACTORS
330
4A1
102
}
330
4A1
100
AcDbProxyObject
 90
      499
 91
      509
 95
  4980761
 70
     0
 93
     1928
310
40C2C0002002C0000010C44494E373939392E626D7000421112538DCE4E4E4010C534348373939392E64626600904451348090A110A5E090A130A481112538DCE4E4E4011753636865696265204120242844292044494E363931390044135D48090A110A481112538D8E4C4D402A440DCE4E4E4B53490A110A56090A130A40
310
10E363931392D53242844292D535400430D8E4C4D4B5355490A110A402A45D4D8DA195A5899481048090A110A481112538D8E4C4E4010E363931392D53242844292D535400AA43D35D5D1D195C8D8E4C4D4B9918998024414D8DA195A58994D8E4C4D8B991899802A909254049501AA8950100
 94
        0
  0
ACAD_PROXY_OBJECT
  5
4AD
102
{ACAD_REACTORS
330
4A1
102
}
330
4A1
100
AcDbProxyObject
 90
      499
 91
      509
 95
  4980761
 70
     0
 93
     3032
310
40DFC600200140000010B44494E3931322E626D700041D112538E4C4C8010B5343483931322E64626600904451348090A110A5E090A130A481254D3CD0DCD8C8011753636865696265204120242844292049534F373038390044135D48090A110A481112538D0C0CCC80246154B54D8DA195A589948090A110A48111253880
310
D8E4C4E00118492D5363686569626520242844292044494E203639313700450D0DCD8C8B53490A110A5E090A130A53554C94C010E373038392D53242844292D413200448D0C0CCC8B5355490A110A4B504C8BCD4C002440D8E4C4E0B54C90A110A504B50CD0D40110363931372D5324284429412D433435004594D8DA195A5
310
899481048090A110A481112538C4C8D4010D3132352D53242844292D413200AA43935D5D1D195C8E4CCD0B99189980243D4D8DA195A58994C4C8D4B9918998010F536368656962653132352E6462660045D4D8DA195A58994D8E4C4DCB8D8E4C4E1D5A4B9918998024190925404950142495018000000000000594090800
 94
        0
  0
ACAD_PROXY_OBJECT
  5
4A4
102
{ACAD_REACTORS
330
4A1
102
}
330
4A1
100
AcDbProxyObject
 90
      499
 91
      509
 95
  4980761
 70
     0
 93
     3056
310
40CBC480200140000010B44494E3933312E626D700041D112538E4CCC4010B5343483933312E64626600904451348090A110A5E090A130A481254D3CD0C0C4D0011753636865696265204120242844292049534F373038390044535D48090A110A481254D3C80D0C0CCC801114D7520242844292044494E203739363700445
310
54B54D8DA195A5899481112538D0CCD00111492D536368656962652044494E34333500458D0C0C4D0B53490A110A56090A130A4B504C8BCD4C0010E373038392D53242844292D413200448D0C0CCC8B5355490A110A4B504C8BCD4C00113373936372D4D55242844292D4653542D5A4E00438D0CCD0B54C90A110A504B54D5
310
00245D4D8DA195A5899481048090A110A481254D3CDCC0E0E4010E373038392D53242844292D413200AA43935D5D1D195C8E4CCD0B99189980243D4D8DA195A58994C4C8D4B9918998010F536368656962653132352E6462660045D4D8DA195A58994D8E4C4DCB8D8E4C4E1D5A4B9918998024090824C04950141C930141E9
310
0800
 94
        0
  0
ACAD_PROXY_OBJECT
  5
4A5
102
{ACAD_REACTORS
330
4A1
102
}
330
4A1
100
AcDbProxyObject
 90
      499
 91
      509
 95
  4980761
 70
     0
 93
     3448
310
40CFC400200140000010B44494E3933332E626D700041D112538E4CCCC010B5343483933332E64626600904451348090A110A5E090A130A481254D3CD0C0C4DC011753636865696265204120242844292049534F373038390044135D48090A110A481254D3CD0C0CCC801114D7520242844292044494E20373936370045D54
310
B54D8DA195A589948090A110A48111253880D0CCD00117492D5363686569626520242844292044494E2034333500460D0C0C4DCB53490A110A56090A130A4B4E0B8E081516938010E373038392D53242844292D413200448D0C0CCC8B5355490A110A4B504C8BCD4C00113373936372D4D55242844292D4653542D5A4E0043
310
8D0CCD0B54C90A110A504B54D50010E3433352D5324284429412D5354004594D8DA195A5899481048090A110A481112538C4C8D4010D3132352D53242844292D413200AA43935D5D1D195C8E4CCD0B99189980119536963686572756E67736D7574746572373936372E6462660043D4D8DA195A58994C4C8D4B9918998010F
310
536368656962653132352E646266004554D8DA195A58994D0CCD0B8D0CCD5D5A4B9918998024150824C04930141C9301A90800
 94
        0
  0
ACAD_PROXY_OBJECT
  5
4AE
102
{ACAD_REACTORS
330
4A1
102
}
330
4A1
100
AcDbProxyObject
 90
      499
 91
      509
 95
  4980761
 70
     0
 93
     2768
310
40DFC1002002C00000114424F4C545354594C45475245454E342E626D700041D112538E4D8D4010B5343483936352E64626600904451348090A110A5E090A130A481254D3CDCC0D0D8011753636865696265204120242844292049534F373038390044135D48090A110A481254D3CD0C0CCC80246154B54D8DA195A5899480
310
90A110A48111253880D8E4C4E00118492D5363686569626520242844292044494E20363931370044CDCC0D0D8B53490A110A5E090A130A535554C010E373038392D53242844292D413200448D0C0CCC8B5355490A110A4B504C8BCD4C002440D8E4C4E0B54C90A110A504B50CD0D40110363931372D5324284429412D43343
310
5004594D8DA195A5899481048090A110A481112538C4C8D4010D3132352D53242844292D413200AA43935D5D1D195C8E4CCD0B99189980243D4D8DA195A58994C4C8D4B991899802A41907248049201425038000000000000594090360
 94
        0
  0
ACAD_PROXY_OBJECT
  5
4B6
102
{ACAD_REACTORS
330
4A1
102
}
330
4A1
100
AcDbProxyObject
 90
      499
 91
      509
 95
  4980761
 70
     0
 93
     4480
310
40DBC0402003C00000113424F4C545354594C45424C5545312E626D70004391D95DDA5B99195CDD185B99D94010C534348373939302E646266009044951D95DDA5B99195CDD185B99D9481348090A110A5E090A130A48135D481112538DCE4E4C0011753636865696265204120242844292044494E373938390044135D4809
310
0A110A48111253880D4D4D401114D7520242844292044494E20373936370045D54B54D8DA195A589948090A110A48111253880D0CCD00117492D5363686569626520242844292044494E2034333500470DCE4E4C0B53490A110A56090A130A53554C54CB4D0B8D8B5516938010E373938392D53242844292D535400440C8D0
310
C0CCD0B5355490A110A4B4D4B40113373936372D4D55242844292D4653542D5A4E00438D0CCD0B54C90A110A504B54D50010E3433352D5324284429412D53540045D4D8DA195A5899481048090A110A481112538DCE4E0E4010E373938392D53242844292D53540045D54B54D8DA195A589948090A110A48111253880D0CCD
310
00117492D5363686569626520242844292044494E2034333500438D0CCD0B54C90A110A504B54D50010E3433352D5324284429412D53540043935D5D1D195C8D4D4D4B9918998010E4D75747465723535352E646266004414D8DA195A58994DCE4E0E4B9918998011053636865696265373938392E646266004554D8DA195A
310
58994D0CCD0B8D0CCD5D5A4B99189980115536368656962653433342E34333575692E646266004110824C04930141D0741E8930100
 94
        0
  0
ACAD_PROXY_OBJECT
  5
4DA
102
{ACAD_REACTORS
330
4D8
102
}
330
4D8
100
AcDbProxyObject
 90
      499
 91
      511
 95
  4980761
 70
     0
 93
      692
310
40C180002000000000117456C65766174696F6E5374796C65526564322E626D700042511C995A5958DAD9401094472656965636B650090280000000000000C4000000000000003102405034254DD185B99185C99002AA0
 94
        0
  0
ACAD_PROXY_OBJECT
  5
4D9
102
{ACAD_REACTORS
330
4D8
102
}
330
4D8
100
AcDbProxyObject
 90
      499
 91
      511
 95
  4980761
 70
     0
 93
      700
310
40C180002000000000117456C65766174696F6E5374796C65526564312E626D70004254DD185B99185C99001095374616E64617264009024040000000000000C4000000000000003102405034254DD185B99185C99002AA2
 94
        0
  0
ACAD_PROXY_OBJECT
  5
4E9
102
{ACAD_REACTORS
330
4DB
102
}
330
4DB
100
AcDbProxyObject
 90
      499
 91
      512
 95
  4980761
 70
     0
 93
      818
310
40C140002006400000111506F73466C6167426C7565312E626D700042505CDCD95B589B1E40109417373656D626C790040504409018000000000000104000000000000005100FFFF3FFFCFFFF3FFFD0244141BDCDA5D1A5BDB9CD9985A1B995B802AA9022F00A9
 94
        0
  0
ACAD_PROXY_OBJECT
  5
4EA
102
{ACAD_REACTORS
330
4DB
102
}
330
4DB
100
AcDbProxyObject
 90
      499
 91
      512
 95
  4980761
 70
     0
 93
      818
310
40C040002004400000111506F73466C6167426C7565312E626D70004290985D59DC9D5C1C194010A4261756772757070650040504409028000000000000104000000000000005100FFFF3FFFCFFFF3FFFD024254DD185B99185C9900290442472D00A9022F00A9
 94
        0
  0
ACAD_PROXY_OBJECT
  5
4DD
102
{ACAD_REACTORS
330
4DB
102
}
330
4DB
100
AcDbProxyObject
 90
      499
 91
      512
 95
  4980761
 70
     0
 93
      994
310
40C000002006400000111506F73466C6167426C7565312E626D70004510985D59DC9D5C1C195B9A185D5C1D1D195A5B001144261756772757070656E68617570747465696C0040504409028000000000000104000000000000005100FFFF3FFFCFFFF3FFFD0244141BDCDA5D1A5BDB9CD9985A1B995B802AA9022F0080
 94
        0
  0
ACAD_PROXY_OBJECT
  5
4E0
102
{ACAD_REACTORS
330
4DB
102
}
330
4DB
100
AcDbProxyObject
 90
      499
 91
      512
 95
  4980761
 70
     0
 93
      938
310
40C040002006400000111506F73466C6167426C7565312E626D70004510985D59DC9D5C1C195B9B9958995B9D195A5B001144261756772757070656E6E6562656E7465696C0040504409038000000000000104000000000000005100FFFF3FFFCFFFF3FFFD024254DD185B99185C99002AA9022F0080
 94
        0
  0
ACAD_PROXY_OBJECT
  5
4E5
102
{ACAD_REACTORS
330
4DB
102
}
330
4DB
100
AcDbProxyObject
 90
      499
 91
      512
 95
  4980761
 70
     0
 93
      850
310
40C000002006400000110506F73466C6167526564332E626D700043D0985D59DC9D5C1C195B9D195A5B0010F4261756772757070656E7465696C0040504409028000000000000104000000000000005100FFFF3FFFCFFFF3FFFD024254DD185B99185C99002AA9022F00A9
 94
        0
  0
ACAD_PROXY_OBJECT
  5
4E6
102
{ACAD_REACTORS
330
4DB
102
}
330
4DB
100
AcDbProxyObject
 90
      499
 91
      512
 95
  4980761
 70
     0
 93
      922
310
40C040002004000000111506F73466C6167426C7565312E626D7000435091CB7718995C9CDA58DA1D0010D42472DDC62657273696368740040504409038000000000000104000000000000004100FFFF3FFFCFFFF3FFFD0244141BDCDA5D1A5BDB9CD9985A1B995B80290442472D00A9022F00AF
 94
        0
  0
ACAD_PROXY_OBJECT
  5
4E7
102
{ACAD_REACTORS
330
4DB
102
}
330
4DB
100
AcDbProxyObject
 90
      499
 91
      512
 95
  4980761
 70
     0
 93
      794
310
40C000002006400000111506F73466C6167426C7565312E626D700042D15A5B9E995B1D195A5B0010B45696E7A656C7465696C004050440D018000000000000104000000000000005100FFFF3FFFCFFFF3FFFD024254DD185B99185C99002AA9022F0099
 94
        0
  0
ACAD_PROXY_OBJECT
  5
4DC
102
{ACAD_REACTORS
330
4DB
102
}
330
4DB
100
AcDbProxyObject
 90
      499
 91
      512
 95
  4980761
 70
     0
 93
      866
310
40C040002006400000111506F73466C6167426C7565312E626D700043115A5B9E995B1D195A5B194010C45696E7A656C7465696C650040504409018000000000000104000000000000005100FFFF3FFFCFFFF3FFFD0244141BDCDA5D1A5BDB9CD9985A1B995B802AA9022F009A
 94
        0
  0
ACAD_PROXY_OBJECT
  5
4E1
102
{ACAD_REACTORS
330
4DB
102
}
330
4DB
100
AcDbProxyObject
 90
      499
 91
      512
 95
  4980761
 70
     0
 93
      882
310
40C000002004000000111506F73466C6167426C7565312E626D70004352DD5C9E9C1BDCDA5D1A5BDB8010D4B75727A706F736974696F6E0040504409018000000000000104000000000000005100FFFF3FFFCFFFF3FFFD0244141BDCDA5D1A5BDB9CD9985A1B995B802AA9022F009B
 94
        0
  0
ACAD_PROXY_OBJECT
  5
4E3
102
{ACAD_REACTORS
330
4DB
102
}
330
4DB
100
AcDbProxyObject
 90
      499
 91
      512
 95
  4980761
 70
     0
 93
      802
310
40C000002004000000111506F73466C6167426C7565312E626D700042135BDB9D1859D9401084D6F6E746167650040504409048000000000000104000000000000005100FFFF3FFFCFFFF3FFFD0244141BDCDA5D1A5BDB9CD9985A1B995B802AA9022F009A
 94
        0
  0
ACAD_PROXY_OBJECT
  5
4DF
102
{ACAD_REACTORS
330
4DB
102
}
330
4DB
100
AcDbProxyObject
 90
      499
 91
      512
 95
  4980761
 70
     0
 93
      866
310
40C04000200E400000111506F73466C6167426C7565312E626D700043141BDB1E5C1B185D1D195B8010C506F6C79706C617474656E0040504409018000000000000104000000000000005100FFFF3FFFCFFFF3FFFD0244141BDCDA5D1A5BDB9CD9985A1B995B802AA9022F009A
 94
        0
  0
ACAD_PROXY_OBJECT
  5
4E2
102
{ACAD_REACTORS
330
4DB
102
}
330
4DB
100
AcDbProxyObject
 90
      499
 91
      512
 95
  4980761
 70
     0
 93
      810
310
40C000002000400000111506F73466C6167426C7565312E626D70004254D8DA1C985D5899401095363687261756265004050440A8000000000000104000000000000005100FFFF3FFFCFFFF3FFFD0244141BDCDA5D1A5BDB9CD9985A1B995B802AA9022F0082
 94
        0
  0
ACAD_PROXY_OBJECT
  5
4DE
102
{ACAD_REACTORS
330
4DB
102
}
330
4DB
100
AcDbProxyObject
 90
      499
 91
      512
 95
  4980761
 70
     0
 93
      898
310
40C04000200E400000111506F73466C6167426C7565312E626D70004394DBDB99195C9C1C9BD99A5B194010E536F6E64657270726F66696C650040504409018000000000000104000000000000005100FFFF3FFFCFFFF3FFFD0244141BDCDA5D1A5BDB9CD9985A1B995B802AA9022F0086
 94
        0
  0
ACAD_PROXY_OBJECT
  5
4E4
102
{ACAD_REACTORS
330
4DB
102
}
330
4DB
100
AcDbProxyObject
 90
      499
 91
      512
 95
  4980761
 70
     0
 93
      762
310
40C000002006400000111506F73466C6167426C7565312E626D70004254DD185B99185C99001095374616E64617264004050440D018000000000000104000000000000005100FFFF3FFFCFFFF3FFFD024254DD185B99185C99002AA9022F0080
 94
        0
  0
ACAD_PROXY_OBJECT
  5
4E8
102
{ACAD_REACTORS
330
4DB
102
}
330
4DB
100
AcDbProxyObject
 90
      499
 91
      512
 95
  4980761
 70
     0
 93
      834
310
40C140002006400000111506F73466C6167426C7565312E626D70004294DD5891DC9D5C1C194010A5375624772757070650040504409018000000000000104000000000000005100FFFF3FFFCFFFF3FFFD0244141BDCDA5D1A5BDB9CD9985A1B995B802AA9022F0080
 94
        0
  0
ACAD_PROXY_OBJECT
  5
1AD4
102
{ACAD_REACTORS
330
4C8
102
}
330
4C8
100
AcDbProxyObject
 90
      499
 91
      510
 95
  4980761
 70
     0
 93
      854
310
40C00000200002400011377656C647374796C65626C7565312E626D70004212154B53985A1D0010848552D4E616874009034080000000000000C40000000000000031014050440D095374616E6461726400AAA00000000000002102A422AA00000000000002102A406A418
 94
        0
  0
ACAD_PROXY_OBJECT
  5
4CB
102
{ACAD_REACTORS
330
4C8
102
}
330
4C8
100
AcDbProxyObject
 90
      499
 91
      510
 95
  4980761
 70
     0
 93
      854
310
40C00000200002400011377656C647374796C65626C7565312E626D70004212158B53985A1D0010848562D4E616874009034080000000000000C40000000000000031014050440D095374616E6461726400AAA00000000000002102A41AAA00000000000002102A406A41A
 94
        0
  0
ACAD_PROXY_OBJECT
  5
4CC
102
{ACAD_REACTORS
330
4C8
102
}
330
4C8
100
AcDbProxyObject
 90
      499
 91
      510
 95
  4980761
 70
     0
 93
     1518
310
40C000002000024000166633A5C70726F6772616D6D655C6B69776920736F66747761726520676D62685C70726F737465656C2033645C7231372E315C6175746F63616420323030365C7374696C655C73636877656973737374696C655C77656C647374796C65626C7565312E626D70004212164B53985A1D0010848592D4E
310
616874009034080000000000000C40000000000000031014050440D095374616E6461726400AAA00000000000002102A41EAA00000000000002102A406A41B
 94
        0
  0
ACAD_PROXY_OBJECT
  5
4CD
102
{ACAD_REACTORS
330
4C8
102
}
330
4C8
100
AcDbProxyObject
 90
      499
 91
      510
 95
  4980761
 70
     0
 93
      838
310
40C00000200002400011377656C647374796C65626C7565312E626D700041D24B53985A1D00107492D4E616874009034080000000000000C400000000000000310140503411095374616E6461726400AAA00000000000002102A416AA00000000000002102A406A41A
 94
        0
  0
ACAD_PROXY_OBJECT
  5
1AD5
102
{ACAD_REACTORS
330
4C8
102
}
330
4C8
100
AcDbProxyObject
 90
      499
 91
      510
 95
  4980761
 70
     0
 93
      838
310
40C00000200002424011377656C647374796C65626C7565312E626D700041D2CB53985A1D001074B2D4E616874009034080000000000000C400000000000000310140503411095374616E6461726400AAA00000000000002102A41AAA00000000000002102A41AA41B
 94
        0
  0
ACAD_PROXY_OBJECT
  5
4CE
102
{ACAD_REACTORS
330
4C8
102
}
330
4C8
100
AcDbProxyObject
 90
      499
 91
      510
 95
  4980761
 70
     0
 93
      870
310
40C00000201002424011357656C645374796C65426C7565312E626D70004252D95A1B080CDB5B401094B65686C20336D6D009034080000000000000C400000000000000310140503411095374616E6461726400AAA00000000000002102A406AA00000000000002102A406A41A
 94
        0
  0
ACAD_PROXY_OBJECT
  5
4CF
102
{ACAD_REACTORS
330
4C8
102
}
330
4C8
100
AcDbProxyObject
 90
      499
 91
      510
 95
  4980761
 70
     0
 93
      870
310
40C00000201002424011357656C645374796C65426C7565312E626D70004252D95A1B080D1B5B401094B65686C20346D6D009034080000000000000C40000000000000031014050440D095374616E6461726400AAA00000000000004102A406AA00000000000004102A406A418
 94
        0
  0
ACAD_PROXY_OBJECT
  5
4D0
102
{ACAD_REACTORS
330
4C8
102
}
330
4C8
100
AcDbProxyObject
 90
      499
 91
      510
 95
  4980761
 70
     0
 93
      870
310
40C00000201002424011357656C645374796C65426C7565312E626D70004252D95A1B080D5B5B401094B65686C20356D6D009034080000000000000C400000000000000310140503411095374616E6461726400AAA00000000000005102A406AA00000000000005102A406A41A
 94
        0
  0
ACAD_PROXY_OBJECT
  5
1AD6
102
{ACAD_REACTORS
330
4C8
102
}
330
4C8
100
AcDbProxyObject
 90
      499
 91
      510
 95
  4980761
 70
     0
 93
      886
310
40C00000200002400011377656C647374796C65626C7565312E626D70004292D95A1B0B53985A1D0010A4B65686C2D4E616874009034080000000000000C400000000000000310140503411095374616E6461726400AAA00000000000002102A406AA00000000000002102A406A418
 94
        0
  0
ACAD_PROXY_OBJECT
  5
4C9
102
{ACAD_REACTORS
330
4C8
102
}
330
4C8
100
AcDbProxyObject
 90
      499
 91
      510
 95
  4980761
 70
     0
 93
      870
310
40C00000200042400011377656C647374796C65626C7565312E626D70004252D95A1B1B985A1D001094B65686C6E616874009034080000000000000C40000000000000031014050440D095374616E6461726400AAA00000000000004102A406AA00000000000002102A406A418
 94
        0
  0
ACAD_PROXY_OBJECT
  5
4D1
102
{ACAD_REACTORS
330
4C8
102
}
330
4C8
100
AcDbProxyObject
 90
      499
 91
      510
 95
  4980761
 70
     0
 93
      918
310
40C00000200002400011377656C647374796C65626C7565312E626D700043131A5B9A595B8B53985A1D0010C4C696E69656E2D4E616874009034080000000000000C400000000000000310140503411095374616E6461726400AAA00000000000002102A432AA00000000000002102A406A41B
 94
        0
  0
ACAD_PROXY_OBJECT
  5
4D2
102
{ACAD_REACTORS
330
4C8
102
}
330
4C8
100
AcDbProxyObject
 90
      499
 91
      510
 95
  4980761
 70
     0
 93
      886
310
40C00000200002400011377656C647374796C65626C7565312E626D700042931BD8DA0B53985A1D0010A4C6F63682D4E616874009034080000000000000C400000000000000310140503411095374616E6461726400AAA00000000000002102A42AAA00000000000002102A406A41A
 94
        0
  0
ACAD_PROXY_OBJECT
  5
4D3
102
{ACAD_REACTORS
330
4C8
102
}
330
4C8
100
AcDbProxyObject
 90
      499
 91
      510
 95
  4980761
 70
     0
 93
      902
310
40C00000200002400011377656C647374796C65626C7565312E626D700042D41D5B9ADD0B53985A1D0010B50756E6B742D4E616874009034080000000000000C40000000000000031014050440D095374616E6461726400AAA00000000000002102A42EAA00000000000002102A406A418
 94
        0
  0
ACAD_PROXY_OBJECT
  5
4D4
102
{ACAD_REACTORS
330
4C8
102
}
330
4C8
100
AcDbProxyObject
 90
      499
 91
      510
 95
  4980761
 70
     0
 93
      870
310
40C00000201002424011357656C645374796C65426C7565312E626D70004254DD185B99185C99001095374616E64617264009034080000000000000C40000000000000031014050440D095374616E6461726400AAA00000000000002102A406AA00000000000002102A406A41A
 94
        0
  0
ACAD_PROXY_OBJECT
  5
4D5
102
{ACAD_REACTORS
330
4C8
102
}
330
4C8
100
AcDbProxyObject
 90
      499
 91
      510
 95
  4980761
 70
     0
 93
      854
310
40C00000200002400011377656C647374796C65626C7565312E626D700042154B4813985A1D00108552D204E616874009034080000000000000C400000000000000310140503411095374616E6461726400AAA00000000000002102A412AA00000000000002102A406A418
 94
        0
  0
ACAD_PROXY_OBJECT
  5
4CA
102
{ACAD_REACTORS
330
4C8
102
}
330
4C8
100
AcDbProxyObject
 90
      499
 91
      510
 95
  4980761
 70
     0
 93
      854
310
40C000002000C2400011477656C647374796C65677265656E312E626D700041D58B53985A1D00107562D4E616874009034080000000000000C400000000000000310140503411095374616E6461726400AAA00000000000005102A40901AA00000000000002102A406A41A
 94
        0
  0
ACAD_PROXY_OBJECT
  5
4D6
102
{ACAD_REACTORS
330
4C8
102
}
330
4C8
100
AcDbProxyObject
 90
      499
 91
      510
 95
  4980761
 70
     0
 93
      838
310
40C00000200002424011377656C647374796C65626C7565312E626D700041D60B53985A1D00107582D4E616874009034080000000000000C40000000000000031014050440D095374616E6461726400AAA00000000000002102A40AAA00000000000002102A40AA41A
 94
        0
  0
ACAD_PROXY_OBJECT
  5
4D7
102
{ACAD_REACTORS
330
4C8
102
}
330
4C8
100
AcDbProxyObject
 90
      499
 91
      510
 95
  4980761
 70
     0
 93
      838
310
40C00000200002400011377656C647374796C65626C7565312E626D700041D64B53985A1D00107592D4E616874009034080000000000000C400000000000000310140503411095374616E6461726400AAA00000000000002102A40EAA00000000000002102A406A41A
 94
        0
  0
XRECORD
  5
4ED
102
{ACAD_REACTORS
330
4EC
102
}
330
4EC
100
AcDbXrecord
280
     1
 70
     1
  0
XRECORD
  5
891
102
{ACAD_REACTORS
330
4EC
102
}
330
4EC
100
AcDbXrecord
280
     1
 70
     1
  1

 70
     0
  1

 70
     0
  1

 70
     0
  1

 70
     0
  1

 70
     0
  1

 70
     0
  1

 70
     0
  1

 70
     0
  1

 70
     0
  1

 70
     0
  1

 70
     0
  1

 70
     0
  1

 70
     0
  1

 70
     0
  1

 70
     0
  1

 70
     0
  1

 70
     0
  1

 70
     0
  1

 70
     0
  1

 70
     0
  1

 70
     0
  1

 70
     0
  1

 70
     0
  1

 70
     0
  1

 70
     0
  1

 70
     0
  1

 70
     0
  1

 70
     0
  1

 70
     0
  1

 70
     0
  1

 70
     0
  1

 70
     0
  1

 70
     0
  1

 70
     0
  1

 70
     0
  1

 70
     0
  1

 70
     0
  1

 70
     0
  1

 70
     0
  1

 70
     0
  1

 70
     0
  1

 70
     0
  1

 70
     0
  1

 70
     0
  1

 70
     0
  1

 70
     0
  1

 70
     0
  1

 70
     0
  1

 70
     0
  1

 70
     0
  1

 70
     0
  1

 70
     0
  1

 70
     0
  1

 70
     0
  1

 70
     0
  1

 70
     0
  1

 70
     0
  1

 70
     0
  1

 70
     0
  1

 70
     0
  1

 70
     0
  1

 70
     0
  1

 70
     0
  1

 70
     0
  1

 70
     0
  1

 70
     0
  1

 70
     0
  1

 70
     0
  1

 70
     0
  1

 70
     0
  1

 70
     0
  1

 70
     0
  1

 70
     0
  1

 70
     0
  1

 70
     0
  1

 70
     0
  1

 70
     0
  1

 70
     0
  1

 70
     0
  1

 70
     0
  1

 70
     0
  1

 70
     0
  1

 70
     0
  1

 70
     0
  1

 70
     0
  1

 70
     0
  1

 70
     0
  1

 70
     0
  1

 70
     0
  1

 70
     0
  1

 70
     0
  1

 70
     0
  1

 70
     0
  1

 70
     0
  1

 70
     0
  1

 70
     0
  1

 70
     0
  1

 70
     0
  1

 70
     0
  1

 70
     0
  1

 70
     0
  1

 70
     0
  1

 70
     0
  1

 70
     0
  1

 70
     0
  1

 70
     0
  1

 70
     0
  1

 70
     0
  1

 70
     0
  1

 70
     0
  1

 70
     0
  1

 70
     0
  1

 70
     0
  1

 70
     0
  1

 70
     0
  1

 70
     0
  1

 70
     0
  1

 70
     0
  1

 70
     0
  1

 70
     0
  1

 70
     0
  1

 70
     0
  1

 70
     0
  1

 70
     0
  1

 70
     0
  1

 70
     0
  1

 70
     0
  1

 70
     0
  0
XRECORD
  5
892
102
{ACAD_REACTORS
330
4EC
102
}
330
4EC
100
AcDbXrecord
280
     1
 70
     2
 70
   256
  1

 70
     0
  1

 70
     0
  1

 70
     0
  1

 70
     0
  1

 70
     0
  1

 70
     0
  1

 70
     0
  1

 70
     0
  1

 70
     0
  1

 70
     0
  1

 70
     0
  1

 70
     0
  1

 70
     0
  1

 70
     0
  1

 70
     0
  1

 70
     0
  1

 70
     0
  1

 70
     0
  1

 70
     0
  1

 70
     0
  1

 70
     0
  1

 70
     0
  1

 70
     0
  1

 70
     0
  1

 70
     0
  1

 70
     0
  1

 70
     0
  1

 70
     0
  1

 70
     0
  1

 70
     0
  1

 70
     0
  1

 70
     0
  1

 70
     0
  1

 70
     0
  1

 70
     0
  1

 70
     0
  1

 70
     0
  1

 70
     0
  1

 70
     0
  1

 70
     0
  1

 70
     0
  1

 70
     0
  1

 70
     0
  1

 70
     0
  1

 70
     0
  1

 70
     0
  1

 70
     0
  1

 70
     0
  1

 70
     0
  1

 70
     0
  1

 70
     0
  1

 70
     0
  1

 70
     0
  1

 70
     0
  1

 70
     0
  1

 70
     0
  1

 70
     0
  1

 70
     0
  1

 70
     0
  1

 70
     0
  1

 70
     0
  1

 70
     0
  1

 70
     0
  1

 70
     0
  1

 70
     0
  1

 70
     0
  1

 70
     0
  1

 70
     0
  1

 70
     0
  1

 70
     0
  1

 70
     0
  1

 70
     0
  1

 70
     0
  1

 70
     0
  1

 70
     0
  1

 70
     0
  1

 70
     0
  1

 70
     0
  1

 70
     0
  1

 70
     0
  1

 70
     0
  1

 70
     0
  1

 70
     0
  1

 70
     0
  1

 70
     0
  1

 70
     0
  1

 70
     0
  1

 70
     0
  1

 70
     0
  1

 70
     0
  1

 70
     0
  1

 70
     0
  1

 70
     0
  1

 70
     0
  1

 70
     0
  1

 70
     0
  1

 70
     0
  1

 70
     0
  1

 70
     0
  1

 70
     0
  1

 70
     0
  1

 70
     0
  1

 70
     0
  1

 70
     0
  1

 70
     0
  1

 70
     0
  1

 70
     0
  1

 70
     0
  1

 70
     0
  1

 70
     0
  1

 70
     0
  1

 70
     0
  1

 70
     0
  1

 70
     0
  1

 70
     0
  1

 70
     0
  1

 70
     0
  1

 70
     0
  1

 70
     0
  1

 70
     0
  1

 70
     0
  1

 70
     0
  1

 70
     0
  1

 70
     0
  1

 70
     0
  1

 70
     0
  1

 70
     0
  1

 70
     0
  1

 70
     0
  1

 70
     0
  1

 70
     0
  1

 70
     0
  1

 70
     0
  1

 70
     0
  1

 70
     0
  1

 70
     0
  1

 70
     0
  1

 70
     0
  1

 70
     0
  1

 70
     0
  1

 70
     0
  1

 70
     0
  1

 70
     0
  1

 70
     0
  1

 70
     0
  1

 70
     0
  1

 70
     0
  1

 70
     0
  1

 70
     0
  1

 70
     0
  1

 70
     0
  1

 70
     0
  1

 70
     0
  1

 70
     0
  1

 70
     0
  1

 70
     0
  1

 70
     0
  1

 70
     0
  1

 70
     0
  1

 70
     0
  1

 70
     0
  1

 70
     0
  1

 70
     0
  1

 70
     0
  1

 70
     0
  1

 70
     0
  1

 70
     0
  1

 70
     0
  1

 70
     0
  1

 70
     0
  1

 70
     0
  1

 70
     0
  1

 70
     0
  1

 70
     0
  1

 70
     0
  1

 70
     0
  1

 70
     0
  1

 70
     0
  1

 70
     0
  1

 70
     0
  1

 70
     0
  1

 70
     0
  1

 70
     0
  1

 70
     0
  1

 70
     0
  1

 70
     0
  1

 70
     0
  1

 70
     0
  1

 70
     0
  1

 70
     0
  1

 70
     0
  1

 70
     0
  1

 70
     0
  1

 70
     0
  1

 70
     0
  1

 70
     0
  1

 70
     0
  1

 70
     0
  1

 70
     0
  1

 70
     0
  1

 70
     0
  1

 70
     0
  1

 70
     0
  1

 70
     0
  1

 70
     0
  1

 70
     0
  1

 70
     0
  1

 70
     0
  1

 70
     0
  1

 70
     0
  1

 70
     0
  1

 70
     0
  1

 70
     0
  1

 70
     0
  1

 70
     0
  1

 70
     0
  1

 70
     0
  1

 70
     0
  1

 70
     0
  1

 70
     0
  1

 70
     0
  1

 70
     0
  1

 70
     0
  1

 70
     0
  1

 70
     0
  1

 70
     0
  1

 70
     0
  1

 70
     0
  1

 70
     0
  1

 70
     0
  1

 70
     0
  1

 70
     0
  1

 70
     0
  1

 70
     0
  1

 70
     0
  1

 70
     0
  1

 70
     0
  1

 70
     0
  1

 70
     0
  1

 70
     0
  1

 70
     0
  1

 70
     0
  1

 70
     0
  1

 70
     0
  1

 70
     0
  1

 70
     0
  1

 70
     0
  1

 70
     0
  1

 70
     0
  1

 70
     0
  1

 70
     0
  1

 70
     0
  1

 70
     0
  1

 70
     0
  1

 70
     0
  1

 70
     0
  0
XRECORD
  5
522
102
{ACAD_REACTORS
330
4EC
102
}
330
4EC
100
AcDbXrecord
280
     1
 90
1393298577
 90
     3615
 90
       51
 90
       52
 90
        3
 90
      256
  1
Standard
  1
Standard
  1

  1

140
0.0
140
0.0
140
0.0
140
0.0
 70
    31
 70
     9
 70
    23
 70
    63
 70
    31
 70
     1
 70
     1
 70
     2
 70
     2
 70
     7
 70
     2
 70
     1
 70
     1
 70
     1
 70
     1
 70
     1
 70
     1
 70
     0
 70
     1
140
0.000001
140
1.0
 70
     1
140
1.0
140
1.0
140
1.0
140
100.0
140
50.0
140
0.0
 70
     8
 70
   210
 70
     1
 70
     1
140
250.0
140
5.0
 70
     5
 70
     2
 70
     1
 70
     4
 70
     3
 70
     2
 70
     2
 70
     3
 70
     2
 70
    80
 70
     1
140
5.0
140
1.0
 70
     1
 70
     0
 70
     0
140
5.0
140
1.0
 70
     1
 70
     0
 70
     0
 70
     0
 70
     0
140
25.0
  1

  1
$(N) $(L)x$(W)x$(T)
 70
     1
 70
     0
  1
$(N) $(T)x$(W)
 70
     1
 70
     0
140
2.0
  1
$(N) $(T)x$(W)
 70
     0
 70
     0
 70
     0
 70
     0
 70
     0
 70
     5
 70
     1
 70
     7
 70
     2
 70
     0
 70
     1
 70
     0
 70
     0
 70
     1
 70
     1
 70
     4
 70
     7
 70
     1
 70
     1
 70
     2
 70
     8
 70
     2
 70
     1
 70
     7
 70
     0
 70
     0
140
10.0
140
0.0
140
10.0
140
0.2
140
0.0
140
0.0
140
1.0
140
500.0
140
7865.0
140
0.0
  1
RD $(D)
  1
RO $(D)x$(T)
  1
RQ $(D)x$(T)
  1
RR $(W)x$(H)x$(T)
  1
4KT $(D)
  1
BLECH $(W)x$(H)
 70
     0
 70
    -1
 70
    -1
 70
    -1
 70
  1025
 70
  1025
 70
  1025
 70
  1025
 70
  1025
 70
     3
 70
     1
 70
     1
 70
     0
 70
     0
 70
     0
 70
     0
 70
     0
 70
     0
 70
     0
 70
     0
 70
     0
 70
     0
 70
     0
 70
     0
 70
     0
 70
     0
 70
     0
 70
     0
 70
     0
 70
     0
 70
     0
 70
     0
 70
     0
 70
     0
 70
     0
 70
     0
 70
    34
 70
    34
 70
   100
 70
  6000
 70
     0
 70
   253
 70
   253
 70
   253
 90
        4
 70
     0
 70
     1
 70
     1
 70
     0
 70
     0
 70
     0
 70
     0
 70
     0
 90
       56
140
3.149999999999999
140
1.0
140
1.0
 70
     0
 70
     0
 70
     0
 70
     1
 70
     2
 70
    11
 70
    17
 70
    12
 70
   256
 70
   256
 70
   128
 90
        1
140
200.0
  1

  1

  1

  1

  1

  1

  0
XRECORD
  5
489
102
{ACAD_REACTORS
330
488
102
}
330
488
100
AcDbXrecord
280
     1
  1
13.20.0307
  1
2:2:2011 by PS 18.0
  0
DICTIONARY
  5
471
330
470
100
AcDbDictionary
280
     1
281
     1
  3
ACAD_XREC_ROUNDTRIP
360
2288
  3
BUMPTILE
360
473
  3
DIFFUSETILE
360
472
  3
OPACITYTILE
360
476
  3
REFLECTIONTILE
360
475
  3
REFRACTIONTILE
360
477
  3
SPECULARTILE
360
474
  0
DICTIONARY
  5
469
330
468
100
AcDbDictionary
280
     1
281
     1
  3
ACAD_XREC_ROUNDTRIP
360
2287
  3
BUMPTILE
360
46B
  3
DIFFUSETILE
360
46A
  3
OPACITYTILE
360
46E
  3
REFLECTIONTILE
360
46D
  3
REFRACTIONTILE
360
46F
  3
SPECULARTILE
360
46C
  0
DICTIONARY
  5
479
330
478
100
AcDbDictionary
280
     1
281
     1
  3
ACAD_XREC_ROUNDTRIP
360
2289
  3
BUMPTILE
360
47B
  3
DIFFUSETILE
360
47A
  3
OPACITYTILE
360
47E
  3
REFLECTIONTILE
360
47D
  3
REFRACTIONTILE
360
47F
  3
SPECULARTILE
360
47C
  0
DICTIONARY
  5
523
330
482
100
AcDbDictionary
280
     1
281
     1
  3
ACAD_ROUNDTRIP_2008_TABLESTYLE_CELLSTYLEMAP
360
2285
  3
ACAD_XREC_ROUNDTRIP
360
228A
  0
XRECORD
  5
2288
102
{ACAD_REACTORS
330
471
102
}
330
471
100
AcDbXrecord
280
     1
102
MATERIAL
148
0.0
149
0.0
149
0.0
 93
        0
 94
      127
282
     0
 72
     0
 77
     0
171
     0
175
     0
179
     0
273
     0
  0
XRECORD
  5
473
102
{ACAD_REACTORS
330
471
102
}
330
471
100
AcDbXrecord
280
     1
270
     1
271
     1
  0
XRECORD
  5
472
102
{ACAD_REACTORS
330
471
102
}
330
471
100
AcDbXrecord
280
     1
270
     1
271
     1
  0
XRECORD
  5
476
102
{ACAD_REACTORS
330
471
102
}
330
471
100
AcDbXrecord
280
     1
270
     1
271
     1
  0
XRECORD
  5
475
102
{ACAD_REACTORS
330
471
102
}
330
471
100
AcDbXrecord
280
     1
270
     1
271
     1
  0
XRECORD
  5
477
102
{ACAD_REACTORS
330
471
102
}
330
471
100
AcDbXrecord
280
     1
270
     1
271
     1
  0
XRECORD
  5
474
102
{ACAD_REACTORS
330
471
102
}
330
471
100
AcDbXrecord
280
     1
270
     1
271
     1
  0
XRECORD
  5
2287
102
{ACAD_REACTORS
330
469
102
}
330
469
100
AcDbXrecord
280
     1
102
MATERIAL
148
0.0
149
0.0
149
0.0
 93
        0
 94
      127
282
     0
 72
     0
 77
     0
171
     0
175
     0
179
     0
273
     0
  0
XRECORD
  5
46B
102
{ACAD_REACTORS
330
469
102
}
330
469
100
AcDbXrecord
280
     1
270
     1
271
     1
  0
XRECORD
  5
46A
102
{ACAD_REACTORS
330
469
102
}
330
469
100
AcDbXrecord
280
     1
270
     1
271
     1
  0
XRECORD
  5
46E
102
{ACAD_REACTORS
330
469
102
}
330
469
100
AcDbXrecord
280
     1
270
     1
271
     1
  0
XRECORD
  5
46D
102
{ACAD_REACTORS
330
469
102
}
330
469
100
AcDbXrecord
280
     1
270
     1
271
     1
  0
XRECORD
  5
46F
102
{ACAD_REACTORS
330
469
102
}
330
469
100
AcDbXrecord
280
     1
270
     1
271
     1
  0
XRECORD
  5
46C
102
{ACAD_REACTORS
330
469
102
}
330
469
100
AcDbXrecord
280
     1
270
     1
271
     1
  0
XRECORD
  5
2289
102
{ACAD_REACTORS
330
479
102
}
330
479
100
AcDbXrecord
280
     1
102
MATERIAL
148
0.0
149
0.0
149
0.0
 93
        0
 94
      127
282
     0
 72
     0
 77
     0
171
     0
175
     0
179
     0
273
     0
  0
XRECORD
  5
47B
102
{ACAD_REACTORS
330
479
102
}
330
479
100
AcDbXrecord
280
     1
270
     1
271
     1
  0
XRECORD
  5
47A
102
{ACAD_REACTORS
330
479
102
}
330
479
100
AcDbXrecord
280
     1
270
     1
271
     1
  0
XRECORD
  5
47E
102
{ACAD_REACTORS
330
479
102
}
330
479
100
AcDbXrecord
280
     1
270
     1
271
     1
  0
XRECORD
  5
47D
102
{ACAD_REACTORS
330
479
102
}
330
479
100
AcDbXrecord
280
     1
270
     1
271
     1
  0
XRECORD
  5
47F
102
{ACAD_REACTORS
330
479
102
}
330
479
100
AcDbXrecord
280
     1
270
     1
271
     1
  0
XRECORD
  5
47C
102
{ACAD_REACTORS
330
479
102
}
330
479
100
AcDbXrecord
280
     1
270
     1
271
     1
  0
ACAD_PROXY_OBJECT
  5
2285
102
{ACAD_REACTORS
330
523
102
}
330
523
100
AcDbProxyObject
 90
      499
 91
      513
 95
  4980761
 70
     0
 93
     5304
310
40D054060020000020000003200101A000080002A5058000000C10000000000000006101010000000000003E0FC000000000000F83F0000000000003E0FC000000000000F83F000000000000049000000000000001240419019018000000C1003FBFFFFFE0000000000003C8FD029018000000C1003FBFFFFFE00000000000
310
03C8FD049018000000C1003FBFFFFFE0000000000003C8FD089018000000C1003FBFFFFFE0000000000003C8FD109018000000C1003FBFFFFFE0000000000003C8FD209018000000C1003FBFFFFFE0000000000003C8FD01405075F5449544C450041501A8000000C800406800020000A94160000003040000000000000012
310
40404000000000000F83F0000000000003E0FC000000000000F83F0000000000003E0FC0000000000001240000000000000049010640640600000030400FEFFFFFF8000000000000F23F40A40600000030400FEFFFFFF8000000000000F23F41240600000030400FEFFFFFF8000000000000F23F42240600000030400FEFFF
310
FFF8000000000000F23F44240600000030400FEFFFFFF8000000000000F23F48240600000030400FEFFFFFF8000000000000F23F409014217D2115051115480105406A0000003200101A000080002A5028000000C10000000000000004901010000000000003E0FC000000000000F83F0000000000003E0FC000000000000F
310
83F000000000000049000000000000001240419019018000000C1003FBFFFFFE0000000000003C8FD029018000000C1003FBFFFFFE0000000000003C8FD049018000000C1003FBFFFFFE0000000000003C8FD089018000000C1003FBFFFFFE0000000000003C8FD109018000000C1003FBFFFFFE0000000000003C8FD20901
310
8000000C1003FBFFFFFE0000000000003C8FD03409065F444154410000
340
11
340
0
340
0
340
0
340
0
340
0
340
0
340
11
340
0
340
0
340
0
340
0
340
0
340
0
340
11
340
0
340
0
340
0
340
0
340
0
340
0
 94
        0
  0
XRECORD
  5
228A
102
{ACAD_REACTORS
330
523
102
}
330
523
100
AcDbXrecord
280
     1
102
ACAD_ROUNDTRIP_PRE2007_TABLESTYLE
 90
      512
 91
        0
  1

 92
      512
 93
        0
  2

 94
      512
 95
        0
  3

  0
ENDSEC
  0
EOF
