  0
SECTION
  2
HEADER
  9
$ACADVER
  1
AC1015
  9
$ACADMAINTVER
 70
    18
  9
$DWGCODEPAGE
  3
ANSI_1252
  9
$INSBASE
 10
35373.77654909316
 20
7143.965539815083
 30
0.0
  9
$EXTMIN
 10
-8041.742961063206
 20
-4876.034460184918
 30
0.0
  9
$EXTMAX
 10
39884.37403655774
 20
9089.639204691897
 30
0.0
  9
$LIMMIN
 10
0.0
 20
0.0
  9
$LIMMAX
 10
420.0
 20
297.0
  9
$ORTHOMODE
 70
     1
  9
$REGENMODE
 70
     1
  9
$FILLMODE
 70
     1
  9
$QTEXTMODE
 70
     0
  9
$MIRRTEXT
 70
     0
  9
$LTSCALE
 40
1.0
  9
$ATTMODE
 70
     1
  9
$TEXTSIZE
 40
2.5
  9
$TRACEWID
 40
1.0
  9
$TEXTSTYLE
  7
Standard
  9
$CLAYER
  8
DEFPOINTS
  9
$CELTYPE
  6
ByLayer
  9
$CECOLOR
 62
   256
  9
$CELTSCALE
 40
1.0
  9
$DISPSILH
 70
     0
  9
$DIMSCALE
 40
1.0
  9
$DIMASZ
 40
3.5
  9
$DIMEXO
 40
1.0
  9
$DIMDLI
 40
10.0
  9
$DIMRND
 40
0.0
  9
$DIMDLE
 40
0.0
  9
$DIMEXE
 40
1.0
  9
$DIMTP
 40
0.1
  9
$DIMTM
 40
0.1
  9
$DIMTXT
 40
3.5
  9
$DIMCEN
 40
0.0
  9
$DIMTSZ
 40
0.0
  9
$DIMTOL
 70
     0
  9
$DIMLIM
 70
     0
  9
$DIMTIH
 70
     0
  9
$DIMTOH
 70
     0
  9
$DIMSE1
 70
     0
  9
$DIMSE2
 70
     0
  9
$DIMTAD
 70
     1
  9
$DIMZIN
 70
     8
  9
$DIMBLK
  1

  9
$DIMASO
 70
     1
  9
$DIMSHO
 70
     1
  9
$DIMPOST
  1

  9
$DIMAPOST
  1
"
  9
$DIMALT
 70
     0
  9
$DIMALTD
 70
     2
  9
$DIMALTF
 40
0.0393701
  9
$DIMLFAC
 40
1.0
  9
$DIMTOFL
 70
     1
  9
$DIMTVP
 40
0.0
  9
$DIMTIX
 70
     0
  9
$DIMSOXD
 70
     0
  9
$DIMSAH
 70
     0
  9
$DIMBLK1
  1

  9
$DIMBLK2
  1

  9
$DIMSTYLE
  2
AM_DIN
  9
$DIMCLRD
 70
   256
  9
$DIMCLRE
 70
   256
  9
$DIMCLRT
 70
     2
  9
$DIMTFAC
 40
0.71
  9
$DIMGAP
 40
1.5
  9
$DIMJUST
 70
     0
  9
$DIMSD1
 70
     0
  9
$DIMSD2
 70
     0
  9
$DIMTOLJ
 70
     0
  9
$DIMTZIN
 70
     8
  9
$DIMALTZ
 70
     0
  9
$DIMALTTZ
 70
     0
  9
$DIMUPT
 70
     0
  9
$DIMDEC
 70
     2
  9
$DIMTDEC
 70
     3
  9
$DIMALTU
 70
     2
  9
$DIMALTTD
 70
     4
  9
$DIMTXSTY
  7
Standard
  9
$DIMAUNIT
 70
     0
  9
$DIMADEC
 70
     0
  9
$DIMALTRND
 40
0.0
  9
$DIMAZIN
 70
     2
  9
$DIMDSEP
 70
    46
  9
$DIMATFIT
 70
     3
  9
$DIMFRAC
 70
     0
  9
$DIMLDRBLK
  1

  9
$DIMLUNIT
 70
     2
  9
$DIMLWD
 70
    -1
  9
$DIMLWE
 70
    -1
  9
$DIMTMOVE
 70
     0
  9
$LUNITS
 70
     2
  9
$LUPREC
 70
     4
  9
$SKETCHINC
 40
1.0
  9
$FILLETRAD
 40
0.0
  9
$AUNITS
 70
     0
  9
$AUPREC
 70
     0
  9
$MENU
  1
.
  9
$ELEVATION
 40
0.0
  9
$PELEVATION
 40
0.0
  9
$THICKNESS
 40
0.0
  9
$LIMCHECK
 70
     0
  9
$CHAMFERA
 40
2.0
  9
$CHAMFERB
 40
2.0
  9
$CHAMFERC
 40
0.0
  9
$CHAMFERD
 40
0.0
  9
$SKPOLY
 70
     0
  9
$TDCREATE
 40
2458738.314456019
  9
$TDUCREATE
 40
2458738.231127095
  9
$TDUPDATE
 40
2460074.487210648
  9
$TDUUPDATE
 40
2460074.403877315
  9
$TDINDWG
 40
4.2070237384
  9
$TDUSRTIMER
 40
4.2070234144
  9
$USRTIMER
 70
     1
  9
$ANGBASE
 50
0.0
  9
$ANGDIR
 70
     0
  9
$PDMODE
 70
     0
  9
$PDSIZE
 40
0.0
  9
$PLINEWID
 40
0.0
  9
$SPLFRAME
 70
     0
  9
$SPLINETYPE
 70
     6
  9
$SPLINESEGS
 70
     8
  9
$HANDSEED
  5
26E
  9
$SURFTAB1
 70
     6
  9
$SURFTAB2
 70
     6
  9
$SURFTYPE
 70
     6
  9
$SURFU
 70
     6
  9
$SURFV
 70
     6
  9
$UCSBASE
  2

  9
$UCSNAME
  2

  9
$UCSORG
 10
0.0
 20
0.0
 30
0.0
  9
$UCSXDIR
 10
1.0
 20
0.0
 30
0.0
  9
$UCSYDIR
 10
0.0
 20
1.0
 30
0.0
  9
$UCSORTHOREF
  2

  9
$UCSORTHOVIEW
 70
     0
  9
$UCSORGTOP
 10
0.0
 20
0.0
 30
0.0
  9
$UCSORGBOTTOM
 10
0.0
 20
0.0
 30
0.0
  9
$UCSORGLEFT
 10
0.0
 20
0.0
 30
0.0
  9
$UCSORGRIGHT
 10
0.0
 20
0.0
 30
0.0
  9
$UCSORGFRONT
 10
0.0
 20
0.0
 30
0.0
  9
$UCSORGBACK
 10
0.0
 20
0.0
 30
0.0
  9
$PUCSBASE
  2

  9
$PUCSNAME
  2

  9
$PUCSORG
 10
0.0
 20
0.0
 30
0.0
  9
$PUCSXDIR
 10
1.0
 20
0.0
 30
0.0
  9
$PUCSYDIR
 10
0.0
 20
1.0
 30
0.0
  9
$PUCSORTHOREF
  2

  9
$PUCSORTHOVIEW
 70
     0
  9
$PUCSORGTOP
 10
0.0
 20
0.0
 30
0.0
  9
$PUCSORGBOTTOM
 10
0.0
 20
0.0
 30
0.0
  9
$PUCSORGLEFT
 10
0.0
 20
0.0
 30
0.0
  9
$PUCSORGRIGHT
 10
0.0
 20
0.0
 30
0.0
  9
$PUCSORGFRONT
 10
0.0
 20
0.0
 30
0.0
  9
$PUCSORGBACK
 10
0.0
 20
0.0
 30
0.0
  9
$USERI1
 70
     0
  9
$USERI2
 70
     0
  9
$USERI3
 70
     0
  9
$USERI4
 70
     0
  9
$USERI5
 70
     0
  9
$USERR1
 40
0.0
  9
$USERR2
 40
0.0
  9
$USERR3
 40
0.0
  9
$USERR4
 40
0.0
  9
$USERR5
 40
0.0
  9
$WORLDVIEW
 70
     1
  9
$SHADEDGE
 70
     3
  9
$SHADEDIF
 70
    70
  9
$TILEMODE
 70
     1
  9
$MAXACTVP
 70
    64
  9
$PINSBASE
 10
0.0
 20
0.0
 30
0.0
  9
$PLIMCHECK
 70
     0
  9
$PEXTMIN
 10
-336.0581622965808
 20
-2275.066915115365
 30
0.0
  9
$PEXTMAX
 10
2200.992315193187
 20
732.75702618344
 30
0.0
  9
$PLIMMIN
 10
0.0
 20
0.0
  9
$PLIMMAX
 10
12.0
 20
9.0
  9
$UNITMODE
 70
     0
  9
$VISRETAIN
 70
     1
  9
$PLINEGEN
 70
     0
  9
$PSLTSCALE
 70
     1
  9
$TREEDEPTH
 70
  3020
  9
$CMLSTYLE
  2
Standard
  9
$CMLJUST
 70
     0
  9
$CMLSCALE
 40
20.0
  9
$PROXYGRAPHICS
 70
     1
  9
$MEASUREMENT
 70
     1
  9
$CELWEIGHT
370
    -1
  9
$ENDCAPS
280
     0
  9
$JOINSTYLE
280
     0
  9
$LWDISPLAY
290
     0
  9
$INSUNITS
 70
     4
  9
$HYPERLINKBASE
  1

  9
$STYLESHEET
  1

  9
$XEDIT
290
     1
  9
$CEPSNTYPE
380
     0
  9
$PSTYLEMODE
290
     1
  9
$FINGERPRINTGUID
  2
{AB1CC459-83B8-CF46-9117-AB01371BEF41}
  9
$VERSIONGUID
  2
{0409BFC4-521C-2B4F-BF64-88BEF2A51C73}
  9
$EXTNAMES
290
     1
  9
$PSVPSCALE
 40
0.0
  9
$OLESTARTUP
290
     0
  0
ENDSEC
  0
SECTION
  2
CLASSES
  0
CLASS
  1
ACDBDICTIONARYWDFLT
  2
AcDbDictionaryWithDefault
  3
ObjectDBX Classes
 90
        0
280
     0
281
     0
  0
CLASS
  1
ACDBPLACEHOLDER
  2
AcDbPlaceHolder
  3
ObjectDBX Classes
 90
        0
280
     0
281
     0
  0
CLASS
  1
LAYOUT
  2
AcDbLayout
  3
ObjectDBX Classes
 90
        0
280
     0
281
     0
  0
CLASS
  1
DICTIONARYVAR
  2
AcDbDictionaryVar
  3
ObjectDBX Classes
 90
        0
280
     0
281
     0
  0
CLASS
  1
TABLESTYLE
  2
AcDbTableStyle
  3
ObjectDBX Classes
 90
     4095
280
     0
281
     0
  0
CLASS
  1
MATERIAL
  2
AcDbMaterial
  3
ObjectDBX Classes
 90
     1153
280
     0
281
     0
  0
CLASS
  1
VISUALSTYLE
  2
AcDbVisualStyle
  3
ObjectDBX Classes
 90
     4095
280
     0
281
     0
  0
CLASS
  1
SCALE
  2
AcDbScale
  3
ObjectDBX Classes
 90
     1153
280
     0
281
     0
  0
CLASS
  1
MLEADERSTYLE
  2
AcDbMLeaderStyle
  3
ACDB_MLEADERSTYLE_CLASS
 90
    36863
280
     0
281
     0
  0
CLASS
  1
CELLSTYLEMAP
  2
AcDbCellStyleMap
  3
ObjectDBX Classes
 90
     1152
280
     0
281
     0
  0
CLASS
  1
EXACXREFPANELOBJECT
  2
ExAcXREFPanelObject
  3
EXAC_ESW
 90
    33793
280
     1
281
     0
  0
CLASS
  1
NPOCOLLECTION
  2
AcDbImpNonPersistentObjectsCollection
  3
ObjectDBX Classes
 90
    33921
280
     0
281
     0
  0
CLASS
  1
LAYER_INDEX
  2
AcDbLayerIndex
  3
ObjectDBX Classes
 90
    32768
280
     0
281
     0
  0
CLASS
  1
SPATIAL_INDEX
  2
AcDbSpatialIndex
  3
ObjectDBX Classes
 90
    32768
280
     0
281
     0
  0
CLASS
  1
IDBUFFER
  2
AcDbIdBuffer
  3
ObjectDBX Classes
 90
    32768
280
     0
281
     0
  0
CLASS
  1
ACDBSECTIONVIEWSTYLE
  2
AcDbSectionViewStyle
  3
ObjectDBX Classes
 90
     1025
280
     0
281
     0
  0
CLASS
  1
ACDBDETAILVIEWSTYLE
  2
AcDbDetailViewStyle
  3
ObjectDBX Classes
 90
     1025
280
     0
281
     0
  0
CLASS
  1
ACME_DOCUMENT
  2
AcMeDbDoc
  3
AcMeServices
 90
    33792
280
     0
281
     0
  0
CLASS
  1
AMGSETTINGSOBJ
  2
AmgSettingsObj
  3
"AcadM|Product Description: AutoCAD Mechanical|Company: Autodesk, Inc."
 90
     1024
280
     0
281
     0
  0
CLASS
  1
ACMESCOPE
  2
AcMeScope
  3
AcMeServices
 90
     1024
280
     0
281
     0
  0
CLASS
  1
ACMECOMMANDHISTORY
  2
AcMeCommandHistory
  3
AcMeServices
 90
    33792
280
     0
281
     0
  0
CLASS
  1
ACIMSYSVARMAN
  2
AcImSysVarManager
  3
AcMeServices
 90
     1024
280
     0
281
     0
  0
CLASS
  1
ACIMINTSYSVAR
  2
AcImIntSysVar
  3
AcMeServices
 90
     1024
280
     0
281
     0
  0
CLASS
  1
ACMESTATEMGR
  2
AcMeStateMgr
  3
AcMeServices
 90
     1024
280
     0
281
     0
  0
CLASS
  1
ACDBENTITYCACHE
  2
AcMeEntityCache
  3
AcMeServices
 90
    33792
280
     0
281
     0
  0
CLASS
  1
ACGREFMASTER
  2
AcGrefMaster
  3
AcAttribServices
 90
     1024
280
     0
281
     0
  0
CLASS
  1
ACME_DATABASE
  2
AcMeDbDatabase
  3
AcMeServices
 90
    33792
280
     0
281
     0
  0
CLASS
  1
ACRFINSADJUSTERMGR
  2
AcRfInsAdjusterMgr
  3
AcMeServices
 90
    33792
280
     0
281
     0
  0
CLASS
  1
ACGREFACADMASTER
  2
AcGrefacadMaster
  3
AcGrefServices
 90
    33792
280
     0
281
     0
  0
CLASS
  1
AMDTMENUSTATEMGR
  2
AmdtMenuStateMgr
  3
McadcomServices
 90
    33792
280
     0
281
     0
  0
CLASS
  1
AMDTMCOMMENUSTATE
  2
AmdtMcomMenuState
  3
McadcomServices
 90
    33792
280
     0
281
     0
  0
CLASS
  1
AMIMASTER
  2
AmiMaster
  3
AmiServices
 90
    33792
280
     0
281
     0
  0
CLASS
  1
MAPIAMMOUDLE
  2
MApiAmModule
  3
MApiAmServices
 90
    33792
280
     0
281
     0
  0
CLASS
  1
ACIMSTRSYSVAR
  2
AcImStrSysVar
  3
AcMeServices
 90
     1024
280
     0
281
     0
  0
CLASS
  1
AMDTAMMENUSTATE
  2
AmdtAmMenuState
  3
DesignerAssemblies_arx
 90
    33792
280
     0
281
     0
  0
CLASS
  1
ACAMPROJECT
  2
AcAmProject
  3
DesignerAssemblies
 90
    33792
280
     0
281
     0
  0
CLASS
  1
ACAMGRCOMPDEF
  2
AcAmGrCompDef
  3
DesignerAssemblies
 90
    33792
280
     0
281
     0
  0
CLASS
  1
ACAMCOMPDEF
  2
AcAmCompDef
  3
DesignerAssemblies
 90
    33792
280
     0
281
     0
  0
CLASS
  1
ACAMCOMPDEFMGR
  2
AcAmCompDefMgr
  3
DesignerAssemblies
 90
    33792
280
     0
281
     0
  0
CLASS
  1
AMCONTEXTMGR
  2
AcAmContextMgr
  3
DesignerAssemblies
 90
    33792
280
     0
281
     0
  0
CLASS
  1
ACAMCONTEXTMODELER
  2
AcAmContextModeler
  3
DesignerAssemblies
 90
    33792
280
     0
281
     0
  0
CLASS
  1
ACMDATADICTIONARY
  2
AcmDataDictionary
  3
"AcmSymBB|Product Description: AutoCAD Mechanical|Company: Autodesk, Inc."
 90
    33792
280
     0
281
     0
  0
CLASS
  1
ACAMGRCOMPDEFSET
  2
AcAmGrCompDefSet
  3
DesignerAssemblies
 90
    33792
280
     0
281
     0
  0
CLASS
  1
AMDTBROWSERDBTAB
  2
AmdtBrowserDbTab
  3
McadcomServices
 90
    33792
280
     0
281
     0
  0
CLASS
  1
CBROWSERAPPOBJECT
  2
CBrowserAppObject
  3
McadcomServices
 90
    33792
280
     0
281
     0
  0
CLASS
  1
DM_PLACEHOLDER
  2
AcDmSelsetPlaceholder
  3
McadcomServices
 90
    33792
280
     0
281
     0
  0
CLASS
  1
ACMSTANDARDDIN
  2
AcmStandardDIN
  3
"Amdt_StdImp|Product Description: AutoCAD Mechanical|Company: Autodesk, Inc."
 90
     1024
280
     0
281
     0
  0
CLASS
  1
AMDTEDGESTANDARDDIN13715
  2
AmdtEdgeStdDIN13715
  3
"Amdt_StdImp|Product Description: AutoCAD Mechanical|Company: Autodesk, Inc."
 90
     1024
280
     0
281
     0
  0
CLASS
  1
ACMSURFSTANDARDDIN2002
  2
AcmSurfTextStdDIN2002
  3
"Amdt_StdImp|Product Description: AutoCAD Mechanical|Company: Autodesk, Inc."
 90
     1024
280
     0
281
     0
  0
CLASS
  1
ACMFCFSTANDARDDIN2008
  2
AcmFCFStdDIN2008
  3
"Amdt_StdImp|Product Description: AutoCAD Mechanical|Company: Autodesk, Inc."
 90
     1024
280
     0
281
     0
  0
CLASS
  1
ACMWELDSTANDARDDIN
  2
AcmWeldingStdDIN
  3
"Amdt_StdImp|Product Description: AutoCAD Mechanical|Company: Autodesk, Inc."
 90
     1024
280
     0
281
     0
  0
CLASS
  1
ACMIDSTANDARDDIN2012
  2
AcmIdStdDIN2012
  3
"Amdt_StdImp|Product Description: AutoCAD Mechanical|Company: Autodesk, Inc."
 90
     1024
280
     0
281
     0
  0
CLASS
  1
ACMDATUMSTANDARDDIN2008
  2
AcmDatumStdDIN2008
  3
"Amdt_StdImp|Product Description: AutoCAD Mechanical|Company: Autodesk, Inc."
 90
     1024
280
     0
281
     0
  0
CLASS
  1
ACMBOMSTANDARDDIN
  2
AcmBOMStdDIN
  3
"Amdt_StdImp|Product Description: AutoCAD Mechanical|Company: Autodesk, Inc."
 90
     1024
280
     0
281
     0
  0
CLASS
  1
ACMDETAILSTANDARDDIN
  2
AmdtDetailSymStdDIN
  3
"Amdt_StdImp|Product Description: AutoCAD Mechanical|Company: Autodesk, Inc."
 90
     1024
280
     0
281
     0
  0
CLASS
  1
ACMSECTIONSTANDARDDIN
  2
AmdtSectionSymStdDIN
  3
"Amdt_StdImp|Product Description: AutoCAD Mechanical|Company: Autodesk, Inc."
 90
     1024
280
     0
281
     0
  0
CLASS
  1
ACMCENTERLINESTANDARDDIN
  2
AmdtCenterLineStdDIN
  3
"Amdt_StdImp|Product Description: AutoCAD Mechanical|Company: Autodesk, Inc."
 90
     1024
280
     0
281
     0
  0
CLASS
  1
ACMTHREADLINESTANDARDDIN
  2
AmdtThreadLineStdDIN
  3
"Amdt_StdImp|Product Description: AutoCAD Mechanical|Company: Autodesk, Inc."
 90
     1024
280
     0
281
     0
  0
CLASS
  1
ACMNOTESTANDARDDIN
  2
AmdtNoteStdDIN
  3
"Amdt_StdImp|Product Description: AutoCAD Mechanical|Company: Autodesk, Inc."
 90
     1024
280
     0
281
     0
  0
CLASS
  1
ACMTAPERSTANDARDDIN
  2
AcmTaperStdDIN
  3
"Amdt_StdImp|Product Description: AutoCAD Mechanical|Company: Autodesk, Inc."
 90
     1024
280
     0
281
     0
  0
CLASS
  1
ACMANOOTATIONVIEWSTANDARDDIN
  2
AmdtAnViewStdDIN
  3
"Amdt_StdImp|Product Description: AutoCAD Mechanical|Company: Autodesk, Inc."
 90
     1024
280
     0
281
     0
  0
CLASS
  1
ACAMGLAYSTD
  2
AcAmgLayStd
  3
"AmgLay|Product Description: AutoCAD Mechanical|Company: Autodesk, Inc."
 90
     1024
280
     0
281
     0
  0
CLASS
  1
ACAMGDIMSTD
  2
AcAmgDimStd
  3
"AmgDim|Product Description: AutoCAD Mechanical|Company: Autodesk, Inc."
 90
     1024
280
     0
281
     0
  0
CLASS
  1
AMGOBJPROPCFG
  2
AmgObjPropCfg
  3
"AmgLay|Product Description: AutoCAD Mechanical|Company: Autodesk, Inc."
 90
     1024
280
     0
281
     0
  0
CLASS
  1
ACAMGHOLECHARTSTDDIN
  2
AcAmgHoleChartStdDIN
  3
"AmgDim" "Product Description: AutoCAD Mechanical|Company: Autodesk, Inc."
 90
     1024
280
     0
281
     0
  0
CLASS
  1
ACAMGTITLESTD
  2
AcAmgTitleStd
  3
"AmgTitle|Product Description: AutoCAD Mechanical|Company: Autodesk, Inc."
 90
     1024
280
     0
281
     0
  0
CLASS
  1
ACMSECTIONSTANDARDCUSTOM
  2
AmdtSectionSymStdCustom
  3
"Amdt_StdImp|Product Description: AutoCAD Mechanical|Company: Autodesk, Inc."
 90
     1024
280
     0
281
     0
  0
CLASS
  1
ACMDETAILTANDARDCUSTOM
  2
AmdtDetailSymStdCustom
  3
"Amdt_StdImp|Product Description: AutoCAD Mechanical|Company: Autodesk, Inc."
 90
     1024
280
     0
281
     0
  0
CLASS
  1
FIELD
  2
AcDbField
  3
ObjectDBX Classes
 90
     1152
280
     0
281
     0
  0
CLASS
  1
FIELDLIST
  2
AcDbFieldList
  3
ObjectDBX Classes
 90
     1152
280
     0
281
     0
  0
CLASS
  1
AMDTNOTETEMPLATEDB
  2
AmdtNoteTemplateDB
  3
"AcmSymBB" "Product Description: AutoCAD Mechanical|Company: Autodesk, Inc."
 90
     1024
280
     0
281
     0
  0
CLASS
  1
CAMSSTRUCTBTNSTATE
  2
StructBtnState
  3
DesignerAssemblies_arx
 90
    33792
280
     0
281
     0
  0
CLASS
  1
RAPIDRTRENDERSETTINGS
  2
AcDbRapidRTRenderSettings
  3
ObjectDBX Classes
 90
    33792
280
     0
281
     0
  0
CLASS
  1
SORTENTSTABLE
  2
AcDbSortentsTable
  3
ObjectDBX Classes
 90
        0
280
     0
281
     0
  0
CLASS
  1
ACAMGFILTERDAT
  2
AcAmgFilterDat
  3
"AcadM|Product Description: AutoCAD Mechanical|Company: Autodesk, Inc."
 90
    33792
280
     0
281
     0
  0
CLASS
  1
ACDBASSOCNETWORK
  2
AcDbAssocNetwork
  3
ObjectDBX Classes
 90
    33793
280
     0
281
     0
  0
CLASS
  1
ACDBASSOC2DCONSTRAINTGROUP
  2
AcDbAssoc2dConstraintGroup
  3
ObjectDBX Classes
 90
    33793
280
     0
281
     0
  0
CLASS
  1
ACDBASSOCGEOMDEPENDENCY
  2
AcDbAssocGeomDependency
  3
ObjectDBX Classes
 90
    33793
280
     0
281
     0
  0
CLASS
  1
ACAD_EVALUATION_GRAPH
  2
AcDbEvalGraph
  3
ObjectDBX Classes
 90
    33921
280
     0
281
     0
  0
CLASS
  1
BLOCKBASEPOINTPARAMETER
  2
AcDbBlockBasepointParameter
  3
ObjectDBX Classes
 90
    33921
280
     0
281
     0
  0
CLASS
  1
ACDB_DYNAMICBLOCKPROXYNODE
  2
AcDbDynamicBlockProxyNode
  3
ObjectDBX Classes
 90
    33921
280
     0
281
     0
  0
CLASS
  1
BLOCKVISIBILITYPARAMETER
  2
AcDbBlockVisibilityParameter
  3
ObjectDBX Classes
 90
    33921
280
     0
281
     0
  0
CLASS
  1
BLOCKVISIBILITYGRIP
  2
AcDbBlockVisibilityGrip
  3
ObjectDBX Classes
 90
    33921
280
     0
281
     0
  0
CLASS
  1
BLOCKGRIPLOCATIONCOMPONENT
  2
AcDbBlockGripExpr
  3
ObjectDBX Classes
 90
    33921
280
     0
281
     0
  0
CLASS
  1
BLOCKPOINTPARAMETER
  2
AcDbBlockPointParameter
  3
ObjectDBX Classes
 90
    33921
280
     0
281
     0
  0
CLASS
  1
BLOCKXYGRIP
  2
AcDbBlockXYGrip
  3
ObjectDBX Classes
 90
    33921
280
     0
281
     0
  0
CLASS
  1
BLOCKMOVEACTION
  2
AcDbBlockMoveAction
  3
ObjectDBX Classes
 90
    33921
280
     0
281
     0
  0
CLASS
  1
ACDB_DYNAMICBLOCKPURGEPREVENTER_VERSION
  2
AcDbDynamicBlockPurgePreventer
  3
ObjectDBX Classes
 90
    33921
280
     0
281
     0
  0
CLASS
  1
IMAGE
  2
AcDbRasterImage
  3
ISM
 90
     2175
280
     0
281
     1
  0
CLASS
  1
IMAGEDEF_REACTOR
  2
AcDbRasterImageDefReactor
  3
ISM
 90
        1
280
     0
281
     0
  0
CLASS
  1
ACDB_BLOCKREPRESENTATION_DATA
  2
AcDbBlockRepresentationData
  3
ObjectDBX Classes
 90
    33921
280
     0
281
     0
  0
CLASS
  1
IMAGEDEF
  2
AcDbRasterImageDef
  3
ISM
 90
        0
280
     0
281
     0
  0
CLASS
  1
ACMDATAENTRYBLOCK
  2
AcmDataEntryBlock
  3
"AcmSymBB" "Product Description: AutoCAD Mechanical|Company: Autodesk, Inc."
 90
    33792
280
     0
281
     0
  0
CLASS
  1
RASTERVARIABLES
  2
AcDbRasterVariables
  3
ISM
 90
        0
280
     0
281
     0
  0
CLASS
  1
ACAECUSTOBJ
  2
AcAeEditorObj
  3
AcAeEditorObj
 90
    33792
280
     0
281
     0
  0
CLASS
  1
ACDBASSOCVARIABLE
  2
AcDbAssocVariable
  3
ObjectDBX Classes
 90
    33793
280
     0
281
     0
  0
CLASS
  1
ACDBASSOCVALUEDEPENDENCY
  2
AcDbAssocValueDependency
  3
ObjectDBX Classes
 90
    33793
280
     0
281
     0
  0
CLASS
  1
ACDBASSOCDEPENDENCY
  2
AcDbAssocDependency
  3
ObjectDBX Classes
 90
    33793
280
     0
281
     0
  0
CLASS
  1
BLOCKPARAMDEPENDENCYBODY
  2
AcDbBlockParameterDependencyBody
  3
ObjectDBX Classes
 90
    32769
280
     0
281
     0
  0
CLASS
  1
BLOCKHORIZONTALCONSTRAINTPARAMETER
  2
AcDbBlockHorizontalConstraintParameter
  3
ObjectDBX Classes
 90
    33921
280
     0
281
     0
  0
CLASS
  1
BLOCKLINEARGRIP
  2
AcDbBlockLinearGrip
  3
ObjectDBX Classes
 90
    33921
280
     0
281
     0
  0
CLASS
  1
BLOCKVERTICALCONSTRAINTPARAMETER
  2
AcDbBlockVerticalConstraintParameter
  3
ObjectDBX Classes
 90
    33921
280
     0
281
     0
  0
CLASS
  1
DIMASSOC
  2
AcDbDimAssoc
  3
"AcDbDimAssoc|Product Desc:     AcDim ARX App For Dimension|Company:          Autodesk, Inc.|WEB Address:      www.autodesk.com"
 90
    32768
280
     0
281
     0
  0
CLASS
  1
ACAD_TABLE
  2
AcDbTable
  3
ObjectDBX Classes
 90
    33793
280
     0
281
     1
  0
CLASS
  1
TABLECONTENT
  2
AcDbTableContent
  3
ObjectDBX Classes
 90
    33920
280
     0
281
     0
  0
CLASS
  1
TABLEGEOMETRY
  2
AcDbTableGeometry
  3
ObjectDBX Classes
 90
    33920
280
     0
281
     0
  0
CLASS
  1
BLOCKLINEARPARAMETER
  2
AcDbBlockLinearParameter
  3
ObjectDBX Classes
 90
    33921
280
     0
281
     0
  0
CLASS
  1
BLOCKSCALEACTION
  2
AcDbBlockScaleAction
  3
ObjectDBX Classes
 90
    33921
280
     0
281
     0
  0
CLASS
  1
POINTPARAMETERENTITY
  2
AcDbBlockPointParameterEntity
  3
ObjectDBX Classes
 90
    33793
280
     0
281
     1
  0
CLASS
  1
ACAEEEMGROBJ
  2
AcAeEEMgrObj
  3
AcAeEEMgrObj
 90
    33792
280
     0
281
     0
  0
CLASS
  1
XYGRIPENTITY
  2
AcDbBlockXYGripEntity
  3
ObjectDBX Classes
 90
    33793
280
     0
281
     1
  0
CLASS
  1
VISIBILITYPARAMETERENTITY
  2
AcDbBlockVisibilityParameterEntity
  3
ObjectDBX Classes
 90
    33793
280
     0
281
     1
  0
CLASS
  1
VISIBILITYGRIPENTITY
  2
AcDbBlockVisibilityGripEntity
  3
ObjectDBX Classes
 90
    33793
280
     0
281
     1
  0
CLASS
  1
STDPART2D
  2
AmgStdPart
  3
"AmgStdPart" "Product Description: AutoCAD Mechanical|Company: Autodesk, Inc."
 90
    33792
280
     0
281
     1
  0
CLASS
  1
ACMDATAENTRYPART
  2
AcmDataEntryPart
  3
"AcmSymBB" "Product Description: AutoCAD Mechanical|Company: Autodesk, Inc."
 90
    33792
280
     0
281
     0
  0
CLASS
  1
ACMPARTREF
  2
AcmPartRef
  3
"AcmSymBB|Product Description: AutoCAD Mechanical|Company: Autodesk, Inc."
 90
    33792
280
     0
281
     1
  0
CLASS
  1
ACDBSTDPARTRES_LINE
  2
AcDbStdPartRes_Line
  3
"AmgStdPart" "Product Description: AutoCAD Mechanical|Company: Autodesk, Inc."
 90
    33792
280
     0
281
     0
  0
CLASS
  1
AMDTINTERNALREACTOR
  2
AmdtInternalReactor
  3
AcMeServices
 90
    33792
280
     0
281
     0
  0
CLASS
  1
ACMSTANDARDANSI
  2
AcmStandardANSI
  3
"Amdt_StdImp|Product Description: AutoCAD Mechanical|Company: Autodesk, Inc."
 90
    33792
280
     0
281
     0
  0
CLASS
  1
ACMSURFSTANDARDANSI
  2
AcmSurfTextStdANSI
  3
"Amdt_StdImp|Product Description: AutoCAD Mechanical|Company: Autodesk, Inc."
 90
    33792
280
     0
281
     0
  0
CLASS
  1
ACMFCFSTANDARDANSI
  2
AcmFCFStdANSI
  3
"Amdt_StdImp|Product Description: AutoCAD Mechanical|Company: Autodesk, Inc."
 90
    33792
280
     0
281
     0
  0
CLASS
  1
ACMWELDSTANDARDANSI
  2
AcmWeldingStdANSI
  3
"Amdt_StdImp|Product Description: AutoCAD Mechanical|Company: Autodesk, Inc."
 90
    33792
280
     0
281
     0
  0
CLASS
  1
ACMIDSTANDARDANSI
  2
AcmIdStdANSI
  3
"Amdt_StdImp|Product Description: AutoCAD Mechanical|Company: Autodesk, Inc."
 90
    33792
280
     0
281
     0
  0
CLASS
  1
ACMDATUMSTANDARDANSI
  2
AcmDatumStdANSI
  3
"Amdt_StdImp|Product Description: AutoCAD Mechanical|Company: Autodesk, Inc."
 90
    33792
280
     0
281
     0
  0
CLASS
  1
ACMBOMSTANDARDANSI
  2
AcmBOMStdANSI
  3
"Amdt_StdImp|Product Description: AutoCAD Mechanical|Company: Autodesk, Inc."
 90
    33792
280
     0
281
     0
  0
CLASS
  1
ACMDETAILSTANDARDANSI
  2
AmdtDetailSymStdANSI
  3
"Amdt_StdImp|Product Description: AutoCAD Mechanical|Company: Autodesk, Inc."
 90
    33792
280
     0
281
     0
  0
CLASS
  1
ACMSECTIONSTANDARDANSI
  2
AmdtSectionSymStdANSI
  3
"Amdt_StdImp|Product Description: AutoCAD Mechanical|Company: Autodesk, Inc."
 90
    33792
280
     0
281
     0
  0
CLASS
  1
ACMCENTERLINESTANDARDANSI
  2
AmdtCenterLineStdANSI
  3
"Amdt_StdImp|Product Description: AutoCAD Mechanical|Company: Autodesk, Inc."
 90
    33792
280
     0
281
     0
  0
CLASS
  1
ACMTHREADLINESTANDARDANSI
  2
AmdtThreadLineStdANSI
  3
"Amdt_StdImp|Product Description: AutoCAD Mechanical|Company: Autodesk, Inc."
 90
    33792
280
     0
281
     0
  0
CLASS
  1
ACMNOTESTANDARDANSI
  2
AmdtNoteStdANSI
  3
"Amdt_StdImp|Product Description: AutoCAD Mechanical|Company: Autodesk, Inc."
 90
    33792
280
     0
281
     0
  0
CLASS
  1
ACMTAPERSTANDARDANSI
  2
AcmTaperStdANSI
  3
"Amdt_StdImp|Product Description: AutoCAD Mechanical|Company: Autodesk, Inc."
 90
    33792
280
     0
281
     0
  0
CLASS
  1
ACMANOOTATIONVIEWSTANDARDANSI
  2
AmdtAnViewStdANSI
  3
"Amdt_StdImp|Product Description: AutoCAD Mechanical|Company: Autodesk, Inc."
 90
    33792
280
     0
281
     0
  0
CLASS
  1
ACAMGHOLECHARTSTDANSI
  2
AcAmgHoleChartStdANSI
  3
"AmgDim" "Product Description: AutoCAD Mechanical|Company: Autodesk, Inc."
 90
    33792
280
     0
281
     0
  0
CLASS
  1
AEC_REFEDIT_STATUS_TRACKER
  2
AecDbRefEditStatusTracker
  3
AecArchBase80|Product Desc: Autodesk Architectural Desktop 2007 |Company: Autodesk,Inc. |WEB Address: www.autodesk.com
 90
    32897
280
     1
281
     0
  0
CLASS
  1
SOLID_BACKGROUND
  2
AcDbSolidBackground
  3
SCENEOE
 90
    36863
280
     0
281
     0
  0
CLASS
  1
AMDTNOTE
  2
AmdtNote
  3
"AcmSymBB|Product Description: AutoCAD Mechanical|Company: Autodesk, Inc."
 90
    33792
280
     0
281
     1
  0
CLASS
  1
AMDTSECTIONSYM
  2
AmdtSectionSym
  3
"AcmSymBB|Product Description: AutoCAD Mechanical|Company: Autodesk, Inc."
 90
    33792
280
     0
281
     1
  0
CLASS
  1
AMDTSECTIONSYMLABEL
  2
AmdtSectionSymLabel
  3
"AcmSymBB|Product Description: AutoCAD Mechanical|Company: Autodesk, Inc."
 90
    33792
280
     0
281
     1
  0
CLASS
  1
ACSH_HISTORY_CLASS
  2
AcDbShHistory
  3
ObjectDBX Classes
 90
    33921
280
     0
281
     0
  0
CLASS
  1
ACSH_EXTRUSION_CLASS
  2
AcDbShExtrusion
  3
ObjectDBX Classes
 90
    33921
280
     0
281
     0
  0
CLASS
  1
ACSH_BOOLEAN_CLASS
  2
AcDbShBoolean
  3
ObjectDBX Classes
 90
    33921
280
     0
281
     0
  0
CLASS
  1
ACDBASSOCPERSSUBENTMANAGER
  2
AcDbAssocPersSubentManager
  3
ObjectDBX Classes
 90
    33792
280
     0
281
     0
  0
CLASS
  1
ACDBPERSSUBENTMANAGER
  2
AcDbPersSubentManager
  3
AcDbPersSubentManager
 90
    33792
280
     0
281
     0
  0
CLASS
  1
SURFACE
  2
AcDbSurface
  3
ObjectDBX Classes
 90
    36863
280
     0
281
     1
  0
CLASS
  1
ACDBOPPOLYLINERES
  2
AcDbOpPolylineRes
  3
AcGrefServices
 90
    33792
280
     0
281
     0
  0
CLASS
  1
AMDTFORMULAUPDATEDISPATCHER
  2
AmdtFormulaUpdateDispatcher
  3
AcMeServices
 90
    33792
280
     0
281
     0
  0
CLASS
  1
ACARRAYJIGENTITY
  2
AcArrayJigEntity
  3
ACAD_ARRAY
 90
    32897
280
     1
281
     1
  0
CLASS
  1
ACDBASSOCACTION
  2
AcDbAssocAction
  3
ObjectDBX Classes
 90
    33793
280
     0
281
     0
  0
CLASS
  1
ACDBASSOCARRAYACTIONBODY
  2
AcDbAssocArrayActionBody
  3
ObjectDBX Classes
 90
    33793
280
     0
281
     0
  0
CLASS
  1
ACDBASSOCVERTEXACTIONPARAM
  2
AcDbAssocVertexActionParam
  3
ObjectDBX Classes
 90
    33793
280
     0
281
     0
  0
CLASS
  1
ACDBASSOCARRAYRECTANGULARPARAMETERS
  2
AcDbAssocArrayRectangularParameters
  3
ObjectDBX Classes
 90
    33793
280
     0
281
     0
  0
CLASS
  1
MENTALRAYRENDERSETTINGS
  2
AcDbMentalRayRenderSettings
  3
SCENEOE
 90
    33792
280
     0
281
     0
  0
CLASS
  1
ACDBASSOCENTITYCLONEACTIONBODY
  2
AcDbAssocEntityCloneActionBody
  3
ObjectDBX Classes
 90
    33793
280
     0
281
     0
  0
CLASS
  1
ACDB_MTEXTOBJECTCONTEXTDATA_CLASS
  2
AcDbMTextObjectContextData
  3
ObjectDBX Classes
 90
    33921
280
     0
281
     0
  0
ENDSEC
  0
SECTION
  2
TABLES
  0
TABLE
  2
VPORT
  5
2D
330
0
100
AcDbSymbolTable
 70
     1
  0
VPORT
  5
2E
330
2D
100
AcDbSymbolTableRecord
100
AcDbViewportTableRecord
  2
*Active
 70
     0
 10
0.0
 20
0.0
 11
1.0
 21
1.0
 12
-519.6585792267614
 22
2055.218023933274
 13
0.0
 23
0.0
 14
10.0
 24
10.0
 15
10.0
 25
10.0
 16
0.0
 26
0.0
 36
73.92900907791593
 17
35982.36575583753
 27
5711.861408397168
 37
0.0
 40
1742.995755203839
 41
2.70281690140845
 42
50.0
 43
0.0
 44
0.0
 50
0.0
 51
0.0
 71
     0
 72
  1000
 73
     1
 74
     3
 75
     0
 76
     0
 77
     0
 78
     0
281
     0
 65
     1
110
0.0
120
0.0
130
0.0
111
1.0
121
0.0
131
0.0
112
0.0
122
1.0
132
0.0
 79
     0
146
0.0
1001
ACAD_NAV_VCDISPLAY
1070
     3
  0
ENDTAB
  0
TABLE
  2
LTYPE
  5
28
330
0
100
AcDbSymbolTable
 70
    14
  0
LTYPE
  5
29
330
28
100
AcDbSymbolTableRecord
100
AcDbLinetypeTableRecord
  2
ByBlock
 70
     0
  3

 72
    65
 73
     0
 40
0.0
  0
LTYPE
  5
2A
330
28
100
AcDbSymbolTableRecord
100
AcDbLinetypeTableRecord
  2
ByLayer
 70
     0
  3

 72
    65
 73
     0
 40
0.0
  0
LTYPE
  5
21
330
28
100
AcDbSymbolTableRecord
100
AcDbLinetypeTableRecord
  2
Continuous
 70
     0
  3
Solid line
 72
    65
 73
     0
 40
0.0
  0
LTYPE
  5
1E1
330
28
100
AcDbSymbolTableRecord
100
AcDbLinetypeTableRecord
  2
Amconstr
 70
     0
  3
_______________________
 72
    65
 73
     2
 40
9999.0
 49
9999.0
 74
     0
 49
0.0
 74
     0
  0
LTYPE
  5
1E3
330
28
100
AcDbSymbolTableRecord
100
AcDbLinetypeTableRecord
  2
Amzigzag
 70
     0
  3
/\/-/\/-/\/-/\/-/\/-/\/
 72
    65
 73
     2
 40
11.0001
 49
0.0001
 74
     4
 75
   136
340
1E4
 46
0.04
 50
0.0
 44
0.0
 45
0.0
 49
-11.0
 74
     0
  0
LTYPE
  5
1DE
330
28
100
AcDbSymbolTableRecord
100
AcDbLinetypeTableRecord
  2
AM_DIN_F_W050
 70
     0
  3
__ __ __ __ __ __ __ __ __ __ __ __ __ __ __
 72
    65
 73
     2
 40
6.25
 49
4.75
 74
     0
 49
-1.5
 74
     0
  0
LTYPE
  5
1DF
330
28
100
AcDbSymbolTableRecord
100
AcDbLinetypeTableRecord
  2
AM_DIN_G_W050
 70
     0
  3
____ . ____ . ____ . ____ . ____ . ____ . ____
 72
    65
 73
     4
 40
13.75
 49
9.75
 74
     0
 49
-1.5
 74
     0
 49
1.0
 74
     0
 49
-1.5
 74
     0
  0
LTYPE
  5
1E0
330
28
100
AcDbSymbolTableRecord
100
AcDbLinetypeTableRecord
  2
AM_DIN_K_W050
 70
     0
  3
_____ . . _____ . . _____ . . ____ .. ____
 72
    65
 73
     6
 40
16.25
 49
9.75
 74
     0
 49
-1.5
 74
     0
 49
1.0
 74
     0
 49
-1.5
 74
     0
 49
1.0
 74
     0
 49
-1.5
 74
     0
  0
LTYPE
  5
8B
330
28
100
AcDbSymbolTableRecord
100
AcDbLinetypeTableRecord
  2
AM_DIN_G_W050x2
 70
     0
  3
__ . __ . __ . __ . __ . __
 72
    65
 73
     4
 40
6.875
 49
4.75
 74
     0
 49
-0.875
 74
     0
 49
0.375
 74
     0
 49
-0.875
 74
     0
  0
LTYPE
  5
1E2
330
28
100
AcDbSymbolTableRecord
100
AcDbLinetypeTableRecord
  2
AM_DIN_F_W050x2
 70
     0
  3
 _ _ _ _ _ _ _ _ _ _ _ _
 72
    65
 73
     2
 40
3.125
 49
2.25
 74
     0
 49
-0.875
 74
     0
  0
LTYPE
  5
1F5
330
28
100
AcDbSymbolTableRecord
100
AcDbLinetypeTableRecord
  2
ACDINWELD
 70
     0
  3
_ _ _ _ _
 72
    65
 73
     2
 40
2.0
 49
2.0
 74
     0
 49
-1.0
 74
     0
  0
LTYPE
  5
1BA
330
28
100
AcDbSymbolTableRecord
100
AcDbLinetypeTableRecord
  2
ACDINTGL
 70
     0
  3
_ _ _ _ _
 72
    65
 73
     2
 40
3.0
 49
2.0
 74
     0
 49
-1.0
 74
     0
  0
LTYPE
  5
22E
330
28
100
AcDbSymbolTableRecord
100
AcDbLinetypeTableRecord
  2
ACDINTGB
 70
     0
  3
__ . . __ . .
 72
    65
 73
     6
 40
9.0
 49
4.0
 74
     0
 49
-1.0
 74
     0
 49
1.0
 74
     0
 49
-1.0
 74
     0
 49
1.0
 74
     0
 49
-1.0
 74
     0
  0
LTYPE
  5
8A
330
28
100
AcDbSymbolTableRecord
100
AcDbLinetypeTableRecord
  2
MITTE
 70
     0
  3
____ _ ____ _ ____ _ ____ _ ____ _ ____ _ ____
 72
    65
 73
     4
 40
2.0
 49
1.25
 74
     0
 49
-0.25
 74
     0
 49
0.25
 74
     0
 49
-0.25
 74
     0
  0
LTYPE
  5
53
330
28
100
AcDbSymbolTableRecord
100
AcDbLinetypeTableRecord
  2
AUSGEZOGEN
 70
     0
  3
____________________________________________
 72
    65
 73
     2
 40
2000.1
 49
2000.0
 74
     0
 49
-0.1
 74
     0
  0
LTYPE
  5
1BC
330
28
100
AcDbSymbolTableRecord
100
AcDbLinetypeTableRecord
  2
ACISOTGB
 70
     0
  3
__ . . __ . .
 72
    65
 73
     6
 40
9.0
 49
4.0
 74
     0
 49
-1.0
 74
     0
 49
1.0
 74
     0
 49
-1.0
 74
     0
 49
1.0
 74
     0
 49
-1.0
 74
     0
  0
ENDTAB
  0
TABLE
  2
LAYER
  5
13
102
{ACAD_XDICTIONARY
360
22
102
}
330
0
100
AcDbSymbolTable
 70
     5
  0
LAYER
  5
14
102
{ACAD_XDICTIONARY
360
15
102
}
330
13
100
AcDbSymbolTableRecord
100
AcDbLayerTableRecord
  2
0
 70
     0
 62
     7
  6
Continuous
370
    -3
390
16
  0
LAYER
  5
88
102
{ACAD_XDICTIONARY
360
89
102
}
330
13
100
AcDbSymbolTableRecord
100
AcDbLayerTableRecord
  2
-ACHSE
 70
     0
 62
     3
  6
MITTE
370
    -3
390
16
  0
LAYER
  5
51
102
{ACAD_XDICTIONARY
360
52
102
}
330
13
100
AcDbSymbolTableRecord
100
AcDbLayerTableRecord
  2
DEFPOINTS
 70
     0
 62
     5
  6
AUSGEZOGEN
290
     0
370
    -3
390
16
  0
LAYER
  5
75
330
13
100
AcDbSymbolTableRecord
100
AcDbLayerTableRecord
  2
-PROFILAUSSENKANTET
 70
     0
 62
     4
  6
Continuous
370
    -3
390
16
  0
LAYER
  5
94
330
13
100
AcDbSymbolTableRecord
100
AcDbLayerTableRecord
  2
AM_5
 70
     0
 62
     3
  6
Continuous
370
    25
390
16
1001
AcAecLayerStandard
1000

1000

  0
ENDTAB
  0
TABLE
  2
STYLE
  5
25
330
0
100
AcDbSymbolTable
 70
     4
  0
STYLE
  5
26
330
25
100
AcDbSymbolTableRecord
100
AcDbTextStyleTableRecord
  2
Standard
 70
     0
 40
0.0
 41
1.0
 50
0.0
 71
     0
 42
2.5
  3
arial.ttf
  4

1001
ACAD
1000
Arial
1071
       34
  0
STYLE
  5
1E4
330
25
100
AcDbSymbolTableRecord
100
AcDbTextStyleTableRecord
  2

 70
     1
 40
0.0
 41
1.0
 50
0.0
 71
     0
 42
2.5
  3
genltshp.shx
  4

  0
STYLE
  5
1F3
330
25
100
AcDbSymbolTableRecord
100
AcDbTextStyleTableRecord
  2
ACDINGDT
 70
     0
 40
0.0
 41
1.0
 50
0.0
 71
     0
 42
2.5
  3
amgdt.shx
  4

  0
STYLE
  5
1BE
330
25
100
AcDbSymbolTableRecord
100
AcDbTextStyleTableRecord
  2
FZ
 70
     0
 40
0.0
 41
1.0
 50
0.0
 71
     0
 42
3.0
  3
isocpeur.ttf
  4

1001
ACAD
1000
ISOCPEUR
1071
      256
  0
ENDTAB
  0
TABLE
  2
VIEW
  5
2B
330
0
100
AcDbSymbolTable
 70
     0
  0
ENDTAB
  0
TABLE
  2
UCS
  5
2C
330
0
100
AcDbSymbolTable
 70
     0
  0
ENDTAB
  0
TABLE
  2
APPID
  5
32
330
0
100
AcDbSymbolTable
 70
    20
  0
APPID
  5
20
330
32
100
AcDbSymbolTableRecord
100
AcDbRegAppTableRecord
  2
ACAD
 70
     0
  0
APPID
  5
C
330
32
100
AcDbSymbolTableRecord
100
AcDbRegAppTableRecord
  2
ACAD_PSEXT
 70
     0
  0
APPID
  5
35
330
32
100
AcDbSymbolTableRecord
100
AcDbRegAppTableRecord
  2
ACAD_DSTYLE_DIMJAG
 70
     0
  0
APPID
  5
31
330
32
100
AcDbSymbolTableRecord
100
AcDbRegAppTableRecord
  2
ACAD_NAV_VCDISPLAY
 70
     0
  0
APPID
  5
36
330
32
100
AcDbSymbolTableRecord
100
AcDbRegAppTableRecord
  2
ACAD_DSTYLE_DIMBREAK
 70
     0
  0
APPID
  5
95
330
32
100
AcDbSymbolTableRecord
100
AcDbRegAppTableRecord
  2
AcAecLayerStandard
 70
     0
  0
APPID
  5
1CE
330
32
100
AcDbSymbolTableRecord
100
AcDbRegAppTableRecord
  2
AcDbBlockRepETag
 70
     0
  0
APPID
  5
6B
330
32
100
AcDbSymbolTableRecord
100
AcDbRegAppTableRecord
  2
GENIUS_GENREC_14
 70
     0
  0
APPID
  5
6C
330
32
100
AcDbSymbolTableRecord
100
AcDbRegAppTableRecord
  2
GENIUS_GENODEF_13
 70
     0
  0
APPID
  5
6D
330
32
100
AcDbSymbolTableRecord
100
AcDbRegAppTableRecord
  2
GENIUS_GENOBJ-N-REC_13
 70
     0
  0
APPID
  5
A4
330
32
100
AcDbSymbolTableRecord
100
AcDbRegAppTableRecord
  2
ACAD_DSTYLE_DIMINSPECT
 70
     0
  0
APPID
  5
8F
330
32
100
AcDbSymbolTableRecord
100
AcDbRegAppTableRecord
  2
GENIUS_GENOBJ-N-HTC_13
 70
     0
  0
APPID
  5
90
330
32
100
AcDbSymbolTableRecord
100
AcDbRegAppTableRecord
  2
GENIUS_GENHATCH_13
 70
     0
  0
APPID
  5
8C
330
32
100
AcDbSymbolTableRecord
100
AcDbRegAppTableRecord
  2
GENIUS_GENOBJ-N-CEN_13
 70
     0
  0
APPID
  5
8D
330
32
100
AcDbSymbolTableRecord
100
AcDbRegAppTableRecord
  2
GENIUS_GENCEN_19
 70
     0
  0
APPID
  5
230
330
32
100
AcDbSymbolTableRecord
100
AcDbRegAppTableRecord
  2
ACATTRIBSERVICES
 70
     0
  0
APPID
  5
253
330
32
100
AcDbSymbolTableRecord
100
AcDbRegAppTableRecord
  2
ACAD_DSTYLE_DIMJOGGED_JOGANGLE_SYMBOL
 70
     0
  0
APPID
  5
254
330
32
100
AcDbSymbolTableRecord
100
AcDbRegAppTableRecord
  2
ACAD_DSTYLE_DIM_LINETYPE
 70
     0
  0
APPID
  5
255
330
32
100
AcDbSymbolTableRecord
100
AcDbRegAppTableRecord
  2
ACAD_DSTYLE_DIM_EXT1_LINETYPE
 70
     0
  0
APPID
  5
256
330
32
100
AcDbSymbolTableRecord
100
AcDbRegAppTableRecord
  2
ACAD_DSTYLE_DIM_EXT2_LINETYPE
 70
     0
  0
ENDTAB
  0
TABLE
  2
DIMSTYLE
  5
33
330
0
100
AcDbSymbolTable
 70
     9
100
AcDbDimStyleTable
 71
     1
340
34
  0
DIMSTYLE
105
34
102
{ACAD_REACTORS
330
1EF
102
}
330
33
100
AcDbSymbolTableRecord
100
AcDbDimStyleTableRecord
  2
AM_DIN
 70
     0
  4
"
 41
3.5
 42
1.0
 43
10.0
 44
1.0
 47
0.1
 48
0.1
 73
     0
 74
     0
 77
     1
 78
     8
 79
     2
140
3.5
141
0.0
143
0.0393701
146
0.71
147
1.5
172
     1
176
   256
177
   256
178
     2
271
     2
272
     3
274
     4
283
     0
284
     8
340
26
371
    -1
372
    -1
1001
ACAD_DSTYLE_DIMJAG
1070
   388
1040
1.5
1001
ACAD_DSTYLE_DIMBREAK
1070
   391
1040
3.75
1001
ACAD_DSTYLE_DIMJOGGED_JOGANGLE_SYMBOL
1070
   384
1040
1.570796326794896
1001
ACAD_DSTYLE_DIM_LINETYPE
1070
   380
1005
29
1001
ACAD_DSTYLE_DIM_EXT1_LINETYPE
1070
   381
1005
29
1001
ACAD_DSTYLE_DIM_EXT2_LINETYPE
1070
   382
1005
29
  0
DIMSTYLE
105
221
330
33
100
AcDbSymbolTableRecord
100
AcDbDimStyleTableRecord
  2
AM_DIN$3
 70
     0
  4
"
 41
3.5
 42
1.0
 43
10.0
 44
1.0
 47
0.1
 48
0.1
 73
     0
 77
     1
 78
     8
 79
     2
140
3.5
141
0.0
143
0.0393701
146
0.71
147
1.5
176
   256
177
   256
178
     2
271
     2
272
     3
274
     4
283
     0
284
     8
288
     1
289
     0
340
26
371
    -1
372
    -1
1001
ACAD_DSTYLE_DIMBREAK
1070
   391
1040
3.75
1001
ACAD_DSTYLE_DIMJAG
1070
   388
1040
1.5
1001
ACAD_DSTYLE_DIMJOGGED_JOGANGLE_SYMBOL
1070
   384
1040
1.570796326794896
1001
ACAD_DSTYLE_DIM_LINETYPE
1070
   380
1005
29
1001
ACAD_DSTYLE_DIM_EXT1_LINETYPE
1070
   381
1005
29
1001
ACAD_DSTYLE_DIM_EXT2_LINETYPE
1070
   382
1005
29
  0
DIMSTYLE
105
222
330
33
100
AcDbSymbolTableRecord
100
AcDbDimStyleTableRecord
  2
AM_DIN$4
 70
     0
  4
"
 41
3.5
 42
1.0
 43
10.0
 44
1.0
 47
0.1
 48
0.1
 73
     0
 74
     0
 77
     1
 78
     8
 79
     2
140
3.5
141
0.0
143
0.0393701
146
0.71
147
1.5
172
     1
176
   256
177
   256
178
     2
271
     2
272
     3
274
     4
283
     0
284
     8
340
26
371
    -1
372
    -1
1001
ACAD_DSTYLE_DIMBREAK
1070
   391
1040
3.75
1001
ACAD_DSTYLE_DIMJAG
1070
   388
1040
1.5
1001
ACAD_DSTYLE_DIMJOGGED_JOGANGLE_SYMBOL
1070
   384
1040
1.570796326794896
1001
ACAD_DSTYLE_DIM_LINETYPE
1070
   380
1005
29
1001
ACAD_DSTYLE_DIM_EXT1_LINETYPE
1070
   381
1005
29
1001
ACAD_DSTYLE_DIM_EXT2_LINETYPE
1070
   382
1005
29
  0
DIMSTYLE
105
223
330
33
100
AcDbSymbolTableRecord
100
AcDbDimStyleTableRecord
  2
AM_DIN$6
 70
     0
  4
"
 41
3.5
 42
1.0
 43
10.0
 44
1.0
 47
0.1
 48
0.1
 73
     0
 74
     0
 78
     8
 79
     2
140
3.5
141
0.0
143
0.0393701
146
0.71
147
1.5
172
     1
176
   256
177
   256
178
     2
271
     2
272
     3
274
     4
283
     0
284
     8
340
26
371
    -1
372
    -1
1001
ACAD_DSTYLE_DIMBREAK
1070
   391
1040
3.75
1001
ACAD_DSTYLE_DIMJAG
1070
   388
1040
1.5
1001
ACAD_DSTYLE_DIMJOGGED_JOGANGLE_SYMBOL
1070
   384
1040
1.570796326794896
1001
ACAD_DSTYLE_DIM_LINETYPE
1070
   380
1005
29
1001
ACAD_DSTYLE_DIM_EXT1_LINETYPE
1070
   381
1005
29
1001
ACAD_DSTYLE_DIM_EXT2_LINETYPE
1070
   382
1005
29
  0
DIMSTYLE
105
1BF
330
33
100
AcDbSymbolTableRecord
100
AcDbDimStyleTableRecord
  2
AM_DIN$7
 70
     0
  4
"
 41
3.5
 42
1.0
 43
10.0
 44
1.0
 47
0.1
 48
0.1
 73
     0
 74
     0
 77
     1
 78
     8
 79
     2
140
3.5
141
0.0
143
0.0393701
146
0.71
147
1.5
172
     1
176
   256
177
   256
178
     2
271
     2
272
     3
274
     4
283
     0
284
     8
340
26
371
    -1
372
    -1
1001
ACAD_DSTYLE_DIMBREAK
1070
   391
1040
3.75
1001
ACAD_DSTYLE_DIMJAG
1070
   388
1040
1.5
1001
ACAD_DSTYLE_DIMJOGGED_JOGANGLE_SYMBOL
1070
   384
1040
1.570796326794896
1001
ACAD_DSTYLE_DIM_LINETYPE
1070
   380
1005
29
1001
ACAD_DSTYLE_DIM_EXT1_LINETYPE
1070
   381
1005
29
1001
ACAD_DSTYLE_DIM_EXT2_LINETYPE
1070
   382
1005
29
  0
DIMSTYLE
105
224
330
33
100
AcDbSymbolTableRecord
100
AcDbDimStyleTableRecord
  2
AM_DIN$SF
 70
     0
  4
"
 41
3.5
 42
1.0
 43
10.0
 44
1.0
 47
0.1
 48
0.1
 73
     0
 74
     0
 75
     1
 76
     1
 77
     1
 78
     8
 79
     2
140
3.5
141
0.0
143
0.0393701
146
0.71
147
1.5
172
     1
176
   256
177
   256
178
     2
271
     2
272
     3
274
     4
283
     0
284
     8
340
26
371
    -1
372
    -1
1001
ACAD_DSTYLE_DIMBREAK
1070
   391
1040
3.75
1001
ACAD_DSTYLE_DIMJAG
1070
   388
1040
1.5
1001
ACAD_DSTYLE_DIMJOGGED_JOGANGLE_SYMBOL
1070
   384
1040
1.570796326794896
1001
ACAD_DSTYLE_DIM_LINETYPE
1070
   380
1005
29
1001
ACAD_DSTYLE_DIM_EXT1_LINETYPE
1070
   381
1005
29
1001
ACAD_DSTYLE_DIM_EXT2_LINETYPE
1070
   382
1005
29
  0
DIMSTYLE
105
225
330
33
100
AcDbSymbolTableRecord
100
AcDbDimStyleTableRecord
  2
AM_DIN$SH
 70
     0
  4
"
 41
3.5
 42
1.0
 43
10.0
 44
1.0
 47
0.1
 48
0.1
 73
     0
 74
     0
 75
     1
 76
     1
 77
     1
 78
     8
 79
     2
140
3.5
141
0.0
143
0.0393701
144
2.0
146
0.71
147
1.5
172
     1
173
     1
176
   256
177
   256
178
     2
271
     2
272
     3
274
     4
283
     0
284
     8
340
26
343
226
371
    -1
372
    -1
1001
ACAD_DSTYLE_DIMBREAK
1070
   391
1040
3.75
1001
ACAD_DSTYLE_DIMJAG
1070
   388
1040
1.5
1001
ACAD_DSTYLE_DIMJOGGED_JOGANGLE_SYMBOL
1070
   384
1040
1.570796326794896
1001
ACAD_DSTYLE_DIM_LINETYPE
1070
   380
1005
29
1001
ACAD_DSTYLE_DIM_EXT1_LINETYPE
1070
   381
1005
29
1001
ACAD_DSTYLE_DIM_EXT2_LINETYPE
1070
   382
1005
29
  0
DIMSTYLE
105
A3
102
{ACAD_REACTORS
330
BF
330
CE
330
ED
330
93
330
A5
330
B2
330
100
330
10D
330
11C
330
132
330
13F
330
14C
330
15F
330
16C
330
17B
330
191
330
19E
330
1AB
102
}
330
33
100
AcDbSymbolTableRecord
100
AcDbDimStyleTableRecord
  2
AM_DIN$0
 70
     0
  4
"
 41
3.5
 42
1.0
 43
10.0
 44
1.0
 47
0.1
 48
0.1
 73
     0
 74
     0
 77
     1
 78
     8
 79
     2
140
3.5
141
0.0
143
0.0393701
146
0.71
147
1.5
172
     1
176
   256
177
   256
178
     2
271
     2
272
     3
274
     4
283
     0
284
     8
340
26
371
    -1
372
    -1
1001
ACAD_DSTYLE_DIMBREAK
1070
   391
1040
3.75
1001
ACAD_DSTYLE_DIMJAG
1070
   388
1040
1.5
1001
ACAD_DSTYLE_DIMJOGGED_JOGANGLE_SYMBOL
1070
   384
1040
1.570796326794896
1001
ACAD_DSTYLE_DIM_LINETYPE
1070
   380
1005
29
1001
ACAD_DSTYLE_DIM_EXT1_LINETYPE
1070
   381
1005
29
1001
ACAD_DSTYLE_DIM_EXT2_LINETYPE
1070
   382
1005
29
  0
DIMSTYLE
105
EC
102
{ACAD_REACTORS
330
DD
102
}
330
33
100
AcDbSymbolTableRecord
100
AcDbDimStyleTableRecord
  2
AM_DIN$2
 70
     0
  4
"
 41
3.5
 42
1.0
 43
10.0
 44
1.0
 47
0.1
 48
0.1
 73
     0
 74
     0
 77
     1
 78
     8
 79
     2
140
3.5
141
0.0
143
0.0393701
146
0.71
147
1.5
172
     1
176
   256
177
   256
178
     2
271
     2
272
     3
274
     4
283
     0
284
     8
340
26
371
    -1
372
    -1
1001
ACAD_DSTYLE_DIMBREAK
1070
   391
1040
3.75
1001
ACAD_DSTYLE_DIMJAG
1070
   388
1040
1.5
1001
ACAD_DSTYLE_DIMJOGGED_JOGANGLE_SYMBOL
1070
   384
1040
1.570796326794896
1001
ACAD_DSTYLE_DIM_LINETYPE
1070
   380
1005
29
1001
ACAD_DSTYLE_DIM_EXT1_LINETYPE
1070
   381
1005
29
1001
ACAD_DSTYLE_DIM_EXT2_LINETYPE
1070
   382
1005
29
  0
ENDTAB
  0
TABLE
  2
BLOCK_RECORD
  5
1
330
0
100
AcDbSymbolTable
 70
    23
  0
BLOCK_RECORD
  5
2
102
{ACAD_XDICTIONARY
360
3
102
}
330
1
100
AcDbSymbolTableRecord
100
AcDbBlockTableRecord
  2
*Model_Space
340
8
  0
BLOCK_RECORD
  5
D
102
{ACAD_XDICTIONARY
360
E
102
}
330
1
100
AcDbSymbolTableRecord
100
AcDbBlockTableRecord
  2
*Paper_Space
340
12
  0
BLOCK_RECORD
  5
226
330
1
100
AcDbSymbolTableRecord
100
AcDbBlockTableRecord
  2
GENAXEH
340
0
  0
BLOCK_RECORD
  5
20B
330
1
100
AcDbSymbolTableRecord
100
AcDbBlockTableRecord
  2
_ACMFILLED30
340
0
  0
BLOCK_RECORD
  5
70
102
{ACAD_XDICTIONARY
360
71
102
}
330
1
100
AcDbSymbolTableRecord
100
AcDbBlockTableRecord
  2
BHL-0-T4(S)
340
0
310
28000000200000002000000001002000000000000010000001000000010000000000000000000000000000FF000000FF000000FF000000FF000000FF000000FF000000FF000000FF000000FF000000FF000000FF000000FF000000FF000000FF000000FF000000FF000000FF000000FF000000FF000000FF000000FF000000
310
FF000000FF000000FF000000FF000000FF000000FF000000FF000000FF000000FF000000FF000000FF000000FF000000FF000000FF000000FF000000FF000000FF000000FF000000FF000000FF000000FF000000FF000000FF000000FF000000FF000000FF00FF00FF000000FF000000FF000000FF000000FF000000FF0000
310
00FF000000FF000000FF000000FF000000FF000000FF000000FF000000FF000000FF000000FF000000FF000000FF000000FF000000FF000000FF000000FF000000FF000000FF000000FFFFFF00FFFFFF00FFFFFF00FFFF0000FFFFFF00FFFFFF00FFFFFF00FF00FF00FFFFFF00FFFFFF00FFFFFF00FFFFFF00FFFFFF00FFFF
310
FF00FFFFFF00FFFFFF00FF000000FF000000FF000000FF000000FF000000FF000000FF000000FF000000FF000000FF000000FF000000FF000000FF000000FF000000FF000000FF000000FFFF0000FFFFFF00FFFF0000FFFFFF00FFFF0000FFFFFF00FFFFFF00FF00FF00FFFFFF00FFFFFF00FF000000FFFFFF00FF000000FF
310
FFFF00FFFFFF00FFFFFF00FF000000FF000000FF000000FF000000FF000000FF000000FF000000FF000000FF000000FF000000FF000000FF000000FF000000FF000000FF000000FF000000FFFFFF00FFFFFF00FFFFFF00FFFFFF00FFFFFF00FFFFFF00FFFFFF00FF00FF00FFFFFF00FFFFFF00FFFFFF00FFFFFF00FFFFFF00
310
FF000000FFFFFF00FFFFFF00FF000000FF000000FF000000FF000000FF000000FF000000FF000000FF000000FF000000FF000000FF000000FF000000FF000000FF000000FF000000FF000000FFFFFF00FFFFFF00FF000000FFFFFF00FFFFFF00FFFFFF00FF000000FF00FF00FF000000FF000000FFFFFF00FFFFFF00FFFFFF
310
00FF000000FFFFFF00FFFFFF00FF000000FF000000FF000000FF000000FF000000FF000000FF000000FF000000FF000000FF000000FF000000FF000000FF000000FF000000FF000000FF000000FFFFFF00FFFFFF00FF000000FFFFFF00FFFFFF00FF000000FF000000FF00FF00FF000000FF000000FF000000FFFFFF00FFFF
310
FF00FF000000FFFFFF00FFFFFF00FF000000FF000000FF000000FF000000FF000000FF000000FF000000FF000000FF000000FF000000FF000000FF000000FF000000FF000000FF000000FF000000FFFFFF00FFFFFF00FF000000FFFFFF00FFFFFF00FF000000FF000000FF000000FF000000FF000000FF000000FFFFFF00FF
310
FFFF00FF000000FFFFFF00FFFFFF00FF000000FF000000FF000000FF000000FF000000FF000000FF000000FF000000FF000000FF000000FF000000FF000000FF000000FF000000FF000000FF000000FFFFFF00FFFFFF00FFFFFF00FF000000FFFFFF00FF000000FF000000FF000000FF000000FF000000FF000000FF000000
310
FFFFFF00FFFFFF00FFFFFF00FFFFFF00FF000000FF000000FF000000FF000000FF000000FF000000FF000000FF000000FF000000FF000000FF000000FF000000FF000000FF000000FF000000FF000000FFFFFF00FFFFFF00FFFFFF00FFFFFF00FF000000FF000000FF000000FF000000FF000000FF000000FF000000FF0000
310
00FFFFFF00FFFFFF00FFFFFF00FFFFFF00FF000000FF000000FF000000FF000000FF000000FF000000FF000000FF000000FF000000FF000000FF000000FF000000FF000000FF000000FF000000FF000000FFFFFF00FF000000FFFFFF00FFFFFF00FF000000FF000000FF000000FF000000FF000000FF000000FF000000FF00
310
0000FFFFFF00FF000000FFFFFF00FFFFFF00FF000000FF000000FF000000FF000000FF000000FF000000FF000000FF000000FF000000FF000000FF000000FF000000FF000000FF000000FF000000FF000000FFFFFF00FFFFFF00FF000000FFFFFF00FF000000FF000000FF000000FF000000FF000000FF000000FF000000FF
310
000000FF000000FFFFFF00FF000000FFFFFF00FF000000FF000000FF000000FF000000FF000000FF000000FF000000FF000000FF000000FF000000FF000000FF000000FF000000FF000000FF000000FF000000FFFFFF00FF000000FFFFFF00FFFFFF00FF000000FF000000FF000000FF000000FF000000FF000000FF000000
310
FF000000FF000000FFFFFF00FFFFFF00FFFFFF00FF000000FF000000FF000000FF000000FF000000FF000000FF000000FF000000FF000000FF000000FF000000FF000000FF000000FF000000FF000000FF000000FFFFFF00FFFFFF00FFFFFF00FF000000FF000000FF000000FF000000FF000000FF000000FF000000FF0000
310
00FF000000FF000000FFFFFF00FF000000FFFFFF00FF000000FF000000FF000000FF000000FF000000FF000000FF000000FF000000FF000000FF000000FF000000FF000000FF000000FF000000FF000000FF000000FFFFFF00FFFFFF00FFFFFF00FF000000FF000000FF000000FF000000FF000000FF000000FF000000FF00
310
0000FF000000FF000000FFFFFF00FFFFFF00FFFFFF00FF000000FF000000FF000000FF000000FF000000FF000000FF000000FF000000FF000000FF000000FF000000FF000000FF000000FF000000FF000000FF000000FFFFFF00FF000000FFFFFF00FF000000FF000000FF000000FF000000FF000000FF000000FF000000FF
310
000000FF000000FF000000FFFFFF00FF000000FFFFFF00FF000000FF000000FF000000FF000000FF000000FF000000FF000000FF000000FF000000FF000000FF000000FF000000FF000000FF000000FF000000FF000000FFFFFF00FFFFFF00FFFFFF00FF000000FF000000FF000000FF000000FF000000FF000000FF000000
310
FF000000FF000000FF000000FFFFFF00FFFFFF00FFFFFF00FF000000FF000000FF000000FF000000FF000000FF000000FF000000FF000000FF000000FF000000FF000000FF000000FF000000FF000000FF000000FF000000FFFFFF00FF000000FFFFFF00FF000000FF000000FF000000FF000000FF000000FF000000FF0000
310
00FF000000FF000000FF000000FFFFFF00FFFFFF00FFFFFF00FF000000FF000000FF000000FF000000FF000000FF000000FF000000FF000000FF000000FF000000FF000000FF000000FF000000FF000000FF000000FF000000FFFFFF00FF000000FFFFFF00FF000000FF000000FF000000FF000000FF000000FF000000FF00
310
0000FF000000FF000000FF000000FFFFFF00FF000000FFFFFF00FF000000FF000000FF000000FF000000FF000000FF000000FF000000FF000000FF000000FF000000FF000000FF000000FF000000FF000000FF000000FF000000FFFFFF00FFFFFF00FFFFFF00FFFFFF00FF000000FF000000FF000000FF000000FF000000FF
310
000000FF000000FF000000FF000000FFFFFF00FFFFFF00FFFFFF00FF000000FF000000FF000000FF000000FF000000FF000000FF000000FF000000FF000000FF000000FF000000FF000000FF000000FF000000FF000000FF000000FFFFFF00FFFFFF00FFFFFF00FFFFFF00FF000000FF000000FF000000FF000000FF000000
310
FF000000FF000000FF000000FFFFFF00FFFFFF00FF000000FFFFFF00FF000000FF000000FF000000FF000000FF000000FF000000FF000000FF000000FF000000FF000000FF000000FF000000FF000000FF000000FF000000FF000000FFFFFF00FF000000FFFFFF00FFFFFF00FF000000FF000000FF000000FF000000FF0000
310
00FF000000FF000000FF000000FFFFFF00FFFFFF00FFFFFF00FFFFFF00FF000000FF000000FF000000FF000000FF000000FF000000FF000000FF000000FF000000FF000000FF000000FF000000FF000000FF000000FF000000FF000000FFFFFF00FFFFFF00FFFFFF00FF000000FF000000FF000000FF000000FF000000FF00
310
0000FF000000FF000000FF000000FF000000FFFFFF00FF000000FFFFFF00FF000000FF000000FF000000FF000000FF000000FF000000FF000000FF000000FF000000FF000000FF000000FF000000FF000000FF000000FF000000FF000000FFFFFF00FF000000FFFFFF00FF000000FF000000FF000000FF000000FF000000FF
310
000000FF000000FF000000FF000000FF000000FFFFFF00FFFFFF00FFFFFF00FF000000FF000000FF000000FF000000FF000000FF000000FF000000FF000000FF000000FF000000FF000000FF000000FF000000FF000000FF000000FF000000FFFFFF00FF000000FFFFFF00FF000000FF000000FF000000FF000000FF000000
310
FF000000FF000000FF000000FF000000FF000000FFFFFF00FF000000FFFFFF00FF000000FF000000FF000000FF000000FF000000FF000000FF000000FF000000FF000000FF000000FF000000FF000000FF000000FF000000FF000000FF000000FFFFFF00FFFFFF00FF000000FF000000FF000000FF000000FF000000FF0000
310
00FF000000FF000000FF000000FF000000FF000000FF000000FFFFFF00FFFFFF00FF000000FF000000FF000000FF000000FF000000FF000000FF000000FF000000FF000000FF000000FF000000FF000000FF000000FF000000FF000000FF000000FFFFFF00FFFFFF00FF000000FF000000FF000000FF000000FF000000FF00
310
0000FF000000FF000000FF000000FF000000FF000000FF000000FFFFFF00FFFFFF00FF000000FF000000FF000000FF000000FF000000FF000000FF000000FF000000FF000000FF000000FF000000FF000000FF000000FF000000FF000000FF000000FFFFFF00FFFFFF00FF000000FF000000FF000000FF000000FF000000FF
310
000000FF000000FF000000FF000000FF000000FF000000FF000000FFFFFF00FFFFFF00FF000000FF000000FF000000FF000000FF000000FF000000FF000000FF000000FF000000FF000000FF000000FF000000FF000000FF000000FF000000FF000000FFFFFF00FFFFFF00FFFFFF00FF000000FF000000FF000000FF000000
310
FF000000FF000000FF000000FF000000FF000000FF000000FFFFFF00FFFFFF00FFFFFF00FF000000FF000000FF000000FF000000FF000000FF000000FF000000FF000000FF000000FF000000FF000000FF000000FF000000FF000000FF000000FF000000FFFFFF00FFFFFF00FFFFFF00FF000000FF000000FF000000FF0000
310
00FF000000FF000000FF000000FF000000FF000000FF000000FFFFFF00FFFFFF00FFFFFF00FF000000FF000000FF000000FF000000FF000000FF000000FF000000FF000000FF000000FF000000FF000000FF000000FF000000FF000000FF000000FF000000FFFFFF00FFFFFF00FF000000FF000000FF000000FF000000FF00
310
0000FF000000FF000000FF000000FF000000FF000000FF000000FF000000FFFFFF00FFFFFF00FF000000FF000000FF000000FF000000FF000000FF000000FF000000FF000000FF000000FF000000FF000000FF000000FF000000FF000000FF000000FF000000FF000000FF000000FF000000FF000000FF000000FF000000FF
310
000000FF000000FF000000FF000000FF000000FF000000FF000000FF000000FF000000FF000000FF000000FF000000FF000000FF000000FF000000FF000000FF000000FF000000FF
102
{BLKREFS
331
6F
102
}
1001
ACAD
1000
DesignCenter Data
1002
{
1070
     1
1070
     4
1002
}
  0
BLOCK_RECORD
  5
C0
330
1
100
AcDbSymbolTableRecord
100
AcDbBlockTableRecord
  2
*D3
340
0
  0
BLOCK_RECORD
  5
CF
330
1
100
AcDbSymbolTableRecord
100
AcDbBlockTableRecord
  2
*D4
340
0
  0
BLOCK_RECORD
  5
DE
330
1
100
AcDbSymbolTableRecord
100
AcDbBlockTableRecord
  2
*D5
340
0
  0
BLOCK_RECORD
  5
EE
330
1
100
AcDbSymbolTableRecord
100
AcDbBlockTableRecord
  2
*D6
340
0
  0
BLOCK_RECORD
  5
96
330
1
100
AcDbSymbolTableRecord
100
AcDbBlockTableRecord
  2
*D7
340
0
  0
BLOCK_RECORD
  5
A6
330
1
100
AcDbSymbolTableRecord
100
AcDbBlockTableRecord
  2
*D8
340
0
  0
BLOCK_RECORD
  5
B3
330
1
100
AcDbSymbolTableRecord
100
AcDbBlockTableRecord
  2
*D9
340
0
  0
BLOCK_RECORD
  5
101
330
1
100
AcDbSymbolTableRecord
100
AcDbBlockTableRecord
  2
*D10
340
0
  0
BLOCK_RECORD
  5
10E
330
1
100
AcDbSymbolTableRecord
100
AcDbBlockTableRecord
  2
*D11
340
0
  0
BLOCK_RECORD
  5
11D
330
1
100
AcDbSymbolTableRecord
100
AcDbBlockTableRecord
  2
*D12
340
0
  0
BLOCK_RECORD
  5
133
330
1
100
AcDbSymbolTableRecord
100
AcDbBlockTableRecord
  2
*D13
340
0
  0
BLOCK_RECORD
  5
140
330
1
100
AcDbSymbolTableRecord
100
AcDbBlockTableRecord
  2
*D14
340
0
  0
BLOCK_RECORD
  5
14D
330
1
100
AcDbSymbolTableRecord
100
AcDbBlockTableRecord
  2
*D15
340
0
  0
BLOCK_RECORD
  5
160
330
1
100
AcDbSymbolTableRecord
100
AcDbBlockTableRecord
  2
*D16
340
0
  0
BLOCK_RECORD
  5
16D
330
1
100
AcDbSymbolTableRecord
100
AcDbBlockTableRecord
  2
*D17
340
0
  0
BLOCK_RECORD
  5
17C
330
1
100
AcDbSymbolTableRecord
100
AcDbBlockTableRecord
  2
*D18
340
0
  0
BLOCK_RECORD
  5
192
330
1
100
AcDbSymbolTableRecord
100
AcDbBlockTableRecord
  2
*D19
340
0
  0
BLOCK_RECORD
  5
19F
330
1
100
AcDbSymbolTableRecord
100
AcDbBlockTableRecord
  2
*D20
340
0
  0
BLOCK_RECORD
  5
1AC
330
1
100
AcDbSymbolTableRecord
100
AcDbBlockTableRecord
  2
*D21
340
0
  0
BLOCK_RECORD
  5
1C8
330
1
100
AcDbSymbolTableRecord
100
AcDbBlockTableRecord
  2
Copyright_STEMPEL
340
0
310
28000000200000002000000001002000000000000010000001000000010000000000000000000000000000FF000000FF000000FF000000FF000000FF000000FF000000FF000000FF000000FF000000FF000000FF000000FF000000FF000000FF000000FF000000FF000000FF000000FF000000FF000000FF000000FF000000
310
FF000000FF000000FF000000FF000000FF000000FF000000FF000000FF000000FF000000FF000000FF000000FF000000FF000000FF000000FF000000FF000000FF000000FF000000FF000000FF000000FF000000FF000000FF000000FF000000FF000000FF000000FF000000FF000000FF000000FF000000FF000000FF0000
310
00FF000000FF000000FF000000FF000000FF000000FF000000FF000000FF000000FF000000FF000000FF000000FF000000FF000000FF000000FF000000FF000000FF000000FF000000FF000000FF000000FF000000FF000000FF000000FF000000FF000000FF000000FF000000FF000000FF000000FF000000FF000000FF00
310
0000FF000000FF000000FF000000FF000000FF000000FF000000FF000000FF000000FF000000FF000000FF000000FF000000FF000000FF000000FF000000FF000000FF000000FF000000FF000000FF000000FF000000FF000000FF000000FF000000FF000000FF000000FF000000FF000000FF000000FF000000FF000000FF
310
000000FF000000FF000000FF000000FF000000FF000000FF000000FF000000FF000000FF000000FF000000FF000000FF000000FF000000FF000000FF000000FF000000FF000000FF000000FF000000FF000000FF000000FF000000FF000000FF000000FF000000FF000000FF000000FF000000FF000000FF000000FF000000
310
FF000000FF000000FF000000FF000000FF000000FF000000FF000000FF000000FF000000FF000000FF000000FF000000FF000000FF000000FF000000FF000000FF000000FF000000FF000000FF000000FF000000FF000000FF000000FF000000FF000000FF000000FF000000FF000000FF000000FF000000FF000000FF0000
310
00FF000000FF000000FF000000FF000000FF000000FF000000FF000000FF000000FF000000FF000000FF000000FF000000FF000000FF000000FF000000FF000000FF000000FF000000FF000000FF000000FF000000FF000000FF000000FF000000FF000000FF000000FF000000FF000000FF000000FF000000FF000000FF00
310
0000FF000000FF000000FF000000FF000000FF000000FF000000FF000000FF000000FF000000FF000000FF000000FF000000FF000000FF000000FF000000FF000000FF000000FF000000FF000000FF000000FF000000FF000000FF000000FF000000FF000000FF000000FF000000FF000000FF000000FF000000FF000000FF
310
000000FF000000FF000000FF000000FF000000FF000000FF000000FF000000FF000000FF000000FF000000FF000000FF000000FF000000FF000000FF000000FF000000FF000000FF000000FF000000FF000000FF000000FF000000FF000000FF000000FF000000FF000000FF000000FF000000FF000000FF000000FF000000
310
FF000000FF000000FF000000FF000000FF000000FF000000FF000000FF000000FF000000FF000000FF000000FF000000FF000000FF000000FF000000FF000000FF000000FF000000FF000000FF000000FF000000FF000000FF000000FF000000FF000000FF000000FF000000FF000000FF000000FF000000FF000000FF0000
310
00FF000000FF000000FF000000FF000000FF000000FF000000FF000000FF000000FF000000FF000000FF000000FF000000FF000000FF000000FF000000FF000000FF000000FF000000FF000000FF000000FF000000FF000000FF000000FF000000FF000000FF000000FF000000FF000000FF000000FF000000FF000000FF00
310
0000FF000000FF000000FF000000FF000000FF000000FF000000FF000000FF000000FF000000FF000000FF000000FF000000FF000000FF000000FF000000FF000000FF000000FF000000FF000000FF000000FF000000FF000000FF000000FF000000FF000000FF000000FF000000FF000000FF000000FF000000FF000000FF
310
000000FF000000FF000000FF000000FF000000FF000000FF000000FF000000FF000000FF000000FF000000FF000000FF000000FF000000FFFF0000FFFF0000FFFF0000FFFF0000FFFF0000FFFF0000FFFF0000FFFF0000FFFF0000FFFF0000FFFF0000FFFF0000FFFF0000FFFF0000FFFF0000FFFF0000FFFF0000FFFF0000
310
FFFF0000FFFF0000FFFF0000FFFF0000FFFF0000FFFF0000FFFF0000FFFF0000FFFF0000FFFF0000FFFF0000FFFF0000FF000000FF000000FFFF0000FFFF0000FFFF0000FFFF0000FFFF0000FFFF0000FFFF0000FFFF0000FFFF0000FFFF0000FFFF0000FF000000FF000000FFFF0000FFFF0000FFFF0000FFFF0000FFFF00
310
00FFFF0000FFFF0000FF000000FF000000FFFF0000FFFF0000FFFF0000FF000000FF000000FFFF0000FFFF0000FFFF0000FF000000FF000000FFFF0000FFFF0000FFFF0000FFFF0000FFFF0000FFFF0000FFFF0000FFFF0000FFFF0000FFFF0000FF000000FF000000FF000000FFFF0000FFFF0000FFFF0000FFFF0000FFFF
310
0000FFFF0000FFFF0000FF000000FF000000FFFF0000FFFF0000FF000000FFFF0000FF000000FF000000FFFF0000FFFF0000FF000000FF000000FFFF0000FFFF0000FFFF0000FFFF0000FFFF0000FFFF0000FFFF0000FFFF0000FFFF0000FFFF0000FFFF0000FF000000FF000000FFFF0000FFFF0000FFFF0000FFFF0000FF
310
FF0000FFFF0000FFFF0000FF000000FF000000FFFF0000FFFF0000FFFF0000FF000000FFFF0000FFFF0000FFFF0000FFFF0000FF000000FF000000FFFF0000FFFF0000FFFF0000FFFF0000FFFF0000FFFF0000FFFF0000FFFF0000FFFF0000FFFF0000FFFF0000FFFF0000FF000000FFFF0000FFFF0000FFFF0000FFFF0000
310
FFFF0000FFFF0000FFFF0000FF000000FF000000FFFF0000FF000000FF000000FF000000FFFF0000FFFF0000FFFF0000FFFF0000FF000000FF000000FFFF0000FFFF0000FFFF0000FFFF0000FFFF0000FFFF0000FFFF0000FFFF0000FFFF0000FFFF0000FFFF0000FFFF0000FF000000FFFF0000FFFF0000FFFF0000FFFF00
310
00FFFF0000FFFF0000FFFF0000FFFF0000FFFF0000FFFF0000FFFF0000FF000000FFFF0000FFFF0000FF000000FFFF0000FFFF0000FF000000FF000000FFFF0000FFFF0000FFFF0000FFFF0000FFFF0000FFFF0000FFFF0000FFFF0000FFFF0000FFFF0000FFFF0000FF000000FF000000FFFF0000FF000000FFE1E1E1FF00
310
0000FF010101FFD7B950FFFDFDFFFFD8BA4BFFFF0000FFFF0000FFFF0000FFFF0000FF000000FF000000FFFF0000FFFF0000FFFF0000FF000000FF000000FFFF0000FFFF0000FFFF0000FFFF0000FFFF0000FFFF0000FFFF0000FFFF0000FFFF0000FFFF0000FFFF0000FFFF0000FFFF0000FFFF0000FFFF0000FFFF0000FF
310
FF0000FFFF0000FFFF0000FFFF0000FFFF0000FFFF0000FFFF0000FFFF0000FFFF0000FFFF0000FFFF0000FFFF0000FFFF0000FFFF0000FF000000FF000000FF000000FF000000FF000000FF000000FF000000FF000000FF000000FF000000FF000000FF000000FF000000FF000000FF000000FF000000FF000000FF000000
310
FF000000FF000000FF000000FF000000FF000000FF000000FF000000FF000000FF000000FF000000FF000000FF000000FF000000FF000000FF000000FF000000FF000000FF000000FF000000FF000000FF000000FF000000FF000000FF000000FF000000FF000000FF000000FF000000FF000000FF000000FF000000FF0000
310
00FF000000FF000000FF000000FF000000FF000000FF000000FF000000FF000000FF000000FF000000FF000000FF000000FF000000FF000000FF000000FF000000FF000000FF000000FF000000FF000000FF000000FF000000FF000000FF000000FF000000FF000000FF000000FF000000FF000000FF000000FF000000FF00
310
0000FF000000FF000000FF000000FF000000FF000000FF000000FF000000FF000000FF000000FF000000FF000000FF000000FF000000FF000000FF000000FF000000FF000000FF000000FF000000FF000000FF000000FF000000FF000000FF000000FF000000FF000000FF000000FF000000FF000000FF000000FF000000FF
310
000000FF000000FF000000FF000000FF000000FF000000FF000000FF000000FF000000FF000000FF000000FF000000FF000000FF000000FF000000FF000000FF000000FF000000FF000000FF000000FF000000FF000000FF000000FF000000FF000000FF000000FF000000FF000000FF000000FF000000FF000000FF000000
310
FF000000FF000000FF000000FF000000FF000000FF000000FF000000FF000000FF000000FF000000FF000000FF000000FF000000FF000000FF000000FF000000FF000000FF000000FF000000FF000000FF000000FF000000FF000000FF000000FF000000FF000000FF000000FF000000FF000000FF000000FF000000FF0000
310
00FF000000FF000000FF000000FF000000FF000000FF000000FF000000FF000000FF000000FF000000FF000000FF000000FF000000FF000000FF000000FF000000FF000000FF000000FF000000FF000000FF000000FF000000FF000000FF000000FF000000FF000000FF000000FF000000FF000000FF000000FF000000FF00
310
0000FF000000FF000000FF000000FF000000FF000000FF000000FF000000FF000000FF000000FF000000FF000000FF000000FF000000FF000000FF000000FF000000FF000000FF000000FF000000FF000000FF000000FF000000FF000000FF000000FF000000FF000000FF000000FF000000FF000000FF000000FF000000FF
310
000000FF000000FF000000FF000000FF000000FF000000FF000000FF000000FF000000FF000000FF000000FF000000FF000000FF000000FF000000FF000000FF000000FF000000FF000000FF000000FF000000FF000000FF000000FF000000FF000000FF000000FF000000FF000000FF000000FF000000FF000000FF000000
310
FF000000FF000000FF000000FF000000FF000000FF000000FF000000FF000000FF000000FF000000FF000000FF000000FF000000FF000000FF000000FF000000FF000000FF000000FF000000FF000000FF000000FF000000FF000000FF000000FF000000FF000000FF000000FF000000FF000000FF000000FF000000FF0000
310
00FF000000FF000000FF000000FF000000FF000000FF000000FF000000FF000000FF000000FF000000FF000000FF000000FF000000FF000000FF000000FF000000FF000000FF000000FF000000FF000000FF000000FF000000FF000000FF000000FF000000FF000000FF000000FF000000FF000000FF000000FF000000FF00
310
0000FF000000FF000000FF000000FF000000FF000000FF000000FF000000FF000000FF000000FF000000FF000000FF000000FF000000FF000000FF000000FF000000FF000000FF000000FF000000FF000000FF000000FF000000FF000000FF000000FF000000FF000000FF000000FF000000FF000000FF000000FF000000FF
310
000000FF000000FF000000FF000000FF000000FF000000FF000000FF000000FF000000FF000000FF000000FF000000FF000000FF000000FF000000FF000000FF000000FF000000FF
102
{BLKREFS
331
1C7
102
}
1001
ACAD
1000
DesignCenter Data
1002
{
1070
     1
1070
     4
1002
}
  0
ENDTAB
  0
ENDSEC
  0
SECTION
  2
BLOCKS
  0
BLOCK
  5
6
330
2
100
AcDbEntity
  8
0
100
AcDbBlockBegin
  2
*Model_Space
 70
     0
 10
0.0
 20
0.0
 30
0.0
  3
*Model_Space
  1

  0
ENDBLK
  5
7
330
2
100
AcDbEntity
  8
0
100
AcDbBlockEnd
  0
BLOCK
  5
10
330
D
100
AcDbEntity
 67
     1
  8
0
100
AcDbBlockBegin
  2
*Paper_Space
 70
     0
 10
0.0
 20
0.0
 30
0.0
  3
*Paper_Space
  1

  0
ENDBLK
  5
11
330
D
100
AcDbEntity
 67
     1
  8
0
100
AcDbBlockEnd
  0
BLOCK
  5
227
330
226
100
AcDbEntity
  8
0
100
AcDbBlockBegin
  2
GENAXEH
 70
     0
 10
0.0
 20
0.0
 30
0.0
  3
GENAXEH
  1

  0
LINE
  5
228
330
226
100
AcDbEntity
  8
0
100
AcDbLine
 10
-1.0
 20
0.0
 30
0.0
 11
1.0
 21
0.0
 31
0.0
  0
ENDBLK
  5
229
330
226
100
AcDbEntity
  8
0
100
AcDbBlockEnd
  0
BLOCK
  5
20C
330
20B
100
AcDbEntity
  8
0
100
AcDbBlockBegin
  2
_ACMFILLED30
 70
     0
 10
0.0
 20
0.0
 30
0.0
  3
_ACMFILLED30
  1

  0
TRACE
  5
20D
330
20B
100
AcDbEntity
  8
0
 62
     0
100
AcDbTrace
 10
-1.0
 20
-0.26794919
 30
0.0
 11
-1.0
 21
0.26794919
 31
0.0
 12
0.0
 22
0.0
 32
0.0
 13
0.0
 23
0.0
 33
0.0
  0
ENDBLK
  5
20E
330
20B
100
AcDbEntity
  8
0
100
AcDbBlockEnd
  0
BLOCK
  5
73
330
70
100
AcDbEntity
  8
0
100
AcDbBlockBegin
  2
BHL-0-T4(S)
 70
     0
 10
0.0
 20
0.0
 30
0.0
  3
BHL-0-T4(S)
  1

  0
LWPOLYLINE
  5
74
330
70
100
AcDbEntity
  8
-PROFILAUSSENKANTET
100
AcDbPolyline
 90
        9
 70
     1
 43
0.0
 10
14.45721389289974
 20
-0.3627365252241361
 42
0.5093553861990216
 10
14.64025905391463
 20
-1.970063830012804
 10
19.50678951096051
 20
-4.725491408100424
 42
0.1306250920707586
 10
20.5009257422862
 20
-4.985079434331964
 10
21.53910527723201
 20
-4.980549578056525
 42
0.4142135623730678
 10
22.53473253113771
 20
-3.97619586980636
 10
22.44759434473963
 20
15.99465449394301
 42
0.9148479595284715
 10
19.47010207955463
 20
16.24690380638367
 10
17.54975702164665
 20
5.283277488369094
 42
-0.1653367065086869
  0
LWPOLYLINE
  5
76
330
70
100
AcDbEntity
  8
-PROFILAUSSENKANTET
100
AcDbPolyline
 90
       29
 70
     1
 43
0.0
 10
-18.31207001113944
 20
-3.811296155173295
 42
-0.5209693068450073
 10
-19.24545929810847
 20
-5.158590857686249
 10
-21.09547297952667
 20
-5.16657569911149
 42
-0.4142135623730953
 10
-22.09982668777957
 20
-4.170948445203066
 10
-22.18696487418492
 20
15.7999019185454
 42
-0.9148479595284715
 10
-19.21178719966701
 20
16.07812432944502
 10
-17.19584258608665
 20
5.131673100967418
 42
0.0862030181758725
 10
-15.96227804534283
 20
1.825557509684585
 42
-0.4614022781870197
 10
-16.47849826870515
 20
0.3941367929601256
 42
1.006764276134483
 10
-16.060226104928
 20
-0.7305778171094062
 42
-0.1218785246024574
 10
-15.10640382220299
 20
-0.6153501580802186
 42
-0.3442028969464008
 10
-14.93230790997768
 20
-0.7894255528108261
 42
0.288694053129399
 10
-14.79750275913102
 20
-0.9545812319975084
 42
-0.0420521433086113
 10
-14.52992098398681
 20
-1.07030419590319
 42
0.2886940531271451
 10
-14.31725373842346
 20
-1.055422337050003
 42
-0.3442028969433905
 10
-14.07117799285333
 20
-1.063061521271265
 42
-0.2551015371608869
 10
-13.36541515118006
 20
-2.844467813743904
 42
-0.3442028969504105
 10
-13.53949054591794
 20
-3.018563725971944
 42
0.2886940531322008
 10
-13.70464622508734
 20
-3.153368876822241
 42
-0.0420521433094632
 10
-13.82036918900849
 20
-3.420950651959174
 42
0.2886940531187385
 10
-13.80548733014439
 20
-3.633617897513431
 42
-0.3442028969441777
 10
-13.81312651435292
 20
-3.879693643118116
 42
-0.2551015371623872
 10
-15.59453280684829
 20
-4.585456484764108
 42
-0.3442028969496849
 10
-15.76862871908088
 20
-4.411381090036229
 42
0.288694053129047
 10
-15.90343386992754
 20
-4.246225410872284
 42
-0.0420521433096605
 10
-16.17101564506447
 20
-4.130502446942045
 42
0.2886940531294967
 10
-16.38368289062782
 20
-4.14538430579887
 42
-0.344202896945726
 10
-16.62975863621977
 20
-4.137745121587613
 42
-0.1218785246048939
 10
-17.19903876666649
 20
-3.363810697028384
 42
0.9727510209109684
  0
LWPOLYLINE
  5
77
330
70
100
AcDbEntity
  8
-PROFILAUSSENKANTET
100
AcDbPolyline
 90
      154
 70
     1
 43
0.0
 10
3.520265795676095
 20
-7.220403547438763
 10
4.631420314872229
 20
-8.867757870812965
 42
0.5317094326691466
 10
5.128842858925054
 20
-8.867757870490095
 10
5.631420313169655
 20
-8.122656147317684
 42
-0.5317094326655699
 10
6.12884285722248
 20
-8.122656146993904
 10
6.631420314872229
 20
-8.867757870812965
 42
0.5317094326669717
 10
7.128842858925054
 20
-8.867757870490095
 10
7.631420313162379
 20
-8.122656147317684
 42
-0.5317094326655699
 10
8.12884285722248
 20
-8.122656146993904
 10
8.631420314872229
 20
-8.867757870812965
 42
0.5317094326691466
 10
9.128842858925054
 20
-8.867757870490095
 10
9.902743114806071
 20
-7.720403548574722
 42
-0.2493280038121568
 10
10.31726190209883
 20
-7.499999998797648
 10
15.44300126689632
 20
-7.499999998797648
 42
-0.2493280030843677
 10
15.85752005343238
 20
-7.720403547437854
 10
16.63142031487223
 20
-8.867757870812965
 42
0.5317094326691466
 10
17.12884285892505
 20
-8.867757870490095
 10
17.63142031316238
 20
-8.122656147317684
 42
-0.5317094326655699
 10
18.12884285722248
 20
-8.122656146993904
 10
18.63142031487223
 20
-8.867757870812965
 42
0.5317094326691466
 10
19.12884285892505
 20
-8.867757870490095
 10
19.63142031316238
 20
-8.122656147317684
 42
-0.5317094326655699
 10
20.12884285722248
 20
-8.122656146993904
 10
20.63142031487223
 20
-8.867757870812965
 42
0.5317094326691466
 10
21.12884285892505
 20
-8.867757870490095
 10
21.63142031316238
 20
-8.122656147317684
 42
-0.5317094326655699
 10
22.12884285722248
 20
-8.122656146993904
 10
22.63142031487223
 20
-8.867757870812965
 42
0.5317094326691466
 10
23.12884285892506
 20
-8.867757870490095
 10
23.63142031316238
 20
-8.122656147317684
 42
-0.5317094326655699
 10
24.12884285722248
 20
-8.122656146993904
 10
24.63142031487223
 20
-8.867757870812965
 42
0.5317094326691466
 10
25.12884285892506
 20
-8.867757870490095
 10
25.69871127237275
 20
-8.022893196875884
 42
0.1494510004166277
 10
25.74999999999273
 20
-7.855135326742129
 10
25.74999999999273
 20
90.69999999999982
 42
0.4142135623730951
 10
25.44999999999709
 20
91.0
 10
22.30925622599898
 20
91.0
 42
0.3711517135479172
 10
22.11147893813905
 20
90.82973456585113
 10
21.89903547638824
 20
89.41668243321419
 42
0.4557262555316655
 10
22.09489285160089
 20
89.18695708273753
 10
23.94621555990307
 20
89.16918437440017
 42
-0.4547895061460317
 10
24.14216427016072
 20
88.9400730116913
 10
23.90701160943718
 20
87.34225675215567
 42
-0.3747693336726329
 10
23.70722307387769
 20
87.17138654561678
 10
21.73841089125926
 20
87.190286217613
 42
0.3738843493752026
 10
21.53871392244036
 20
87.02002999660999
 10
21.49871806530427
 20
86.75400048103165
 42
0.235067192237052
 10
21.7726774059629
 20
85.90612865033746
 10
22.1955210738306
 20
85.47377334659268
 42
0.2683570427283379
 10
22.38841342425439
 20
85.41993997303142
 10
23.38118017640227
 20
85.67576240063408
 42
-0.5373193024981053
 10
23.62886440230795
 20
85.45235470982424
 10
19.66277965236804
 20
59.07218800077226
 42
-1.029696124502662
 10
18.08837832585414
 20
59.35338084703016
 42
0.1743995905227459
 10
17.99435781691136
 20
60.02382747720457
 10
17.33433096425142
 20
61.2773456260902
 42
0.8146628475673407
 10
16.3934147204709
 20
61.00566754705051
 10
16.58126772819378
 20
58.97761050300323
 42
0.2719136260880639
 10
17.94106679841206
 20
57.08632819855393
 10
18.3462819149936
 20
56.9070907438263
 42
-0.2980602833889838
 10
19.53722180936893
 20
55.06930629352883
 10
19.47276131014951
 20
40.29614184558886
 42
-0.0446666244643025
 10
18.22235104466381
 20
26.98142097868458
 10
14.2906901627357
 20
5.726749554095476
 42
-0.3604929881348012
 10
7.434736038449045
 20
0.0
 10
-7.434736038449045
 20
0.0
 42
-0.3604928781935519
 10
-14.29069016274297
 20
5.726749554095476
 10
-19.83214224874245
 20
35.6839983708287
 42
-0.0315574551628642
 10
-20.96264175197575
 20
45.07400836683427
 10
-21.15798245102633
 20
48.49714158400002
 42
-0.4304942020436328
 10
-18.16718521818257
 20
51.6672167525312
 42
0.1972790162495448
 10
-15.92006210351974
 20
52.59357505745902
 42
1.0
 10
-16.76448415014602
 20
53.44618951145367
 42
-0.1218785246025275
 10
-17.5895152815865
 20
52.95387051673333
 42
-0.344202896946296
 10
-17.81926612747338
 20
53.04233620790092
 42
0.2886940531295216
 10
-18.00948656704713
 20
53.13859113726085
 42
-0.0420521433086244
 10
-18.30100668407249
 20
53.13579254251999
 42
0.2886940531274815
 10
-18.48934413999086
 20
53.03590345522571
 42
-0.3442028969439721
 10
-18.7173542563105
 20
52.94304325624307
 42
-0.2551015371608596
 10
-20.08519856331259
 20
54.28487466122078
 42
-0.3442028969508068
 10
-19.99673287213227
 20
54.51462550711403
 42
0.2886940531328656
 10
-19.90047794277052
 20
54.70484594668687
 42
-0.0420521433096625
 10
-19.9032765375232
 20
54.99636606371587
 42
0.2886940531195052
 10
-20.00316562480293
 20
55.1847035196215
 42
-0.3442028969437973
 10
-20.09602582379739
 20
55.41271363596298
 42
-0.2551015371623073
 10
-18.75419441880513
 20
56.78055794295414
 42
-0.3442028969497126
 10
-18.52444357291097
 20
56.69209225177656
 42
0.2886940531283115
 10
-18.33422313334449
 20
56.59583732241753
 42
-0.0420521433100464
 10
-18.04270301631186
 20
56.59863591717112
 42
0.2886940531289807
 10
-17.85436556039349
 20
56.69852500444995
 42
-0.3442028969461302
 10
-17.62635544406657
 20
56.79138520343167
 42
-0.121878524604825
 10
-16.79202470937162
 20
56.31499609190541
 42
0.7364909623134746
 10
-15.54060416149878
 20
57.012078871644
 10
-16.40583114824403
 20
61.15062516995294
 42
0.7032654886887208
 10
-17.33797852595307
 20
61.28002647460471
 10
-17.99581556930934
 20
60.02535774534135
 42
0.1743995905227779
 10
-18.08866524931363
 20
59.35474796541075
 42
-1.029696124503302
 10
-19.6625731769891
 20
59.07080644163852
 10
-23.62887261537253
 20
85.45235677921937
 42
-0.5373193821392193
 10
-23.38118839681556
 20
85.67576451892
 10
-22.38841342426167
 20
85.41993997303142
 42
0.2683570427294486
 10
-22.19552107384516
 20
85.47377334659268
 10
-21.77267740597745
 20
85.90612865033746
 42
0.2350671922370521
 10
-21.49871806531883
 20
86.75400048103165
 10
-21.53871392244764
 20
87.02002999660999
 42
0.3738843493752025
 10
-21.73841089126654
 20
87.19028621761209
 10
-23.70722307389224
 20
87.17138654561678
 42
-0.374769333672633
 10
-23.90701160944445
 20
87.34225675215567
 10
-24.14216427017527
 20
88.9400730116913
 42
-0.4547895061462228
 10
-23.94621555991762
 20
89.16918437440017
 10
-22.09489285161544
 20
89.18695708273753
 42
0.4557262555313239
 10
-21.89903547640279
 20
89.41668243321419
 10
-22.11147893814632
 20
90.82973456585113
 42
0.3711517135485124
 10
-22.30925622601353
 20
91.0
 10
-25.45000000000437
 20
91.0
 42
0.4142135623730951
 10
-25.75000000000728
 20
90.69999999999982
 10
-25.75000000000728
 20
-7.855135326723939
 42
0.1494510004166011
 10
-25.6987112723873
 20
-8.022893196858603
 10
-25.12884285892506
 20
-8.867757870490095
 42
0.5317094326691466
 10
-24.63142031487223
 20
-8.867757870812965
 10
-24.12884285722248
 20
-8.122656146993904
 42
-0.5317094326655699
 10
-23.63142031316238
 20
-8.122656147317684
 10
-23.12884285892506
 20
-8.867757870490095
 42
0.5317094326691466
 10
-22.63142031487223
 20
-8.867757870812965
 10
-22.12884285722248
 20
-8.122656146993904
 42
-0.5317094326655699
 10
-21.63142031316238
 20
-8.122656147317684
 10
-21.12884285892505
 20
-8.867757870490095
 42
0.5317094326691466
 10
-20.63142031487223
 20
-8.867757870812965
 10
-20.12884285722248
 20
-8.122656146993904
 42
-0.5317094326655699
 10
-19.63142031316238
 20
-8.122656147317684
 10
-19.12884285892505
 20
-8.867757870490095
 42
0.5317094326691466
 10
-18.63142031487223
 20
-8.867757870812965
 10
-18.12884285722248
 20
-8.122656146993904
 42
-0.5317094326655699
 10
-17.63142031316238
 20
-8.122656147317684
 10
-17.12884285892505
 20
-8.867757870490095
 42
0.5317094326691466
 10
-16.63142031487223
 20
-8.867757870812965
 10
-15.85752005343238
 20
-7.720403547437854
 42
-0.2493280030843677
 10
-15.44300126689632
 20
-7.499999998797648
 10
-10.31726190209883
 20
-7.499999998797648
 42
-0.2493280038121568
 10
-9.902743114806071
 20
-7.720403548574722
 10
-9.128842858925054
 20
-8.867757870490095
 42
0.5317094326691466
 10
-8.631420314872229
 20
-8.867757870812965
 10
-8.12884285722248
 20
-8.122656146993904
 42
-0.5317094326655699
 10
-7.631420313162379
 20
-8.122656147317684
 10
-7.128842858925054
 20
-8.867757870490095
 42
0.5317094326669717
 10
-6.631420314872229
 20
-8.867757870812965
 10
-6.12884285722248
 20
-8.122656146993904
 42
-0.5317094326655699
 10
-5.631420313169655
 20
-8.122656147317684
 10
-5.128842858925054
 20
-8.867757870490095
 42
0.5317094326691466
 10
-4.631420314872229
 20
-8.867757870812965
 10
-3.520265795676095
 20
-7.220403547438763
 42
-0.2493280030843868
 10
-3.105747009147307
 20
-6.999999998797648
 10
3.105747009147307
 20
-6.999999998797648
 42
-0.2493280030843277
  0
MTEXT
  5
78
330
70
100
AcDbEntity
  8
DEFPOINTS
100
AcDbMText
 10
-19.42512820044794
 20
-6.442638688548868
 30
0.0
 40
1.5
 41
11.35918246370009
 71
     5
 72
     5
  1
BHL-0-T4(S)
 11
0.9999877757611519
 21
-0.0049445250797289
 31
0.0
 73
     1
 44
1.0
1001
ACAD
1000
MTEXTBEGIN
1070
    73
1070
     1
1070
    44
1040
1.0
1070
    74
1070
     0
1000
MTEXTEND
1000
ACAD_MTEXT_DEFINED_HEIGHT_BEGIN
1070
    46
1040
2.346582347408901
1000
ACAD_MTEXT_DEFINED_HEIGHT_END
  0
POLYLINE
  5
79
330
70
100
AcDbEntity
  8
-PROFILAUSSENKANTET
100
AcDb2dPolyline
 66
     1
 10
0.0
 20
0.0
 30
0.0
  0
VERTEX
  5
7A
330
79
100
AcDbEntity
  8
-PROFILAUSSENKANTET
100
AcDbVertex
100
AcDb2dVertex
 10
5.499355190157075
 20
-8.318450745535301
 30
0.0
  0
VERTEX
  5
7B
330
79
100
AcDbEntity
  8
-PROFILAUSSENKANTET
100
AcDbVertex
100
AcDb2dVertex
 10
5.499355190157075
 20
-4.945387501738878
 30
0.0
  0
VERTEX
  5
7C
330
79
100
AcDbEntity
  8
-PROFILAUSSENKANTET
100
AcDbVertex
100
AcDb2dVertex
 10
9.5
 20
-0.9447426918923156
 30
0.0
  0
VERTEX
  5
7D
330
79
100
AcDbEntity
  8
-PROFILAUSSENKANTET
100
AcDbVertex
100
AcDb2dVertex
 10
9.5
 20
0.3200577363068078
 30
0.0
  0
SEQEND
  5
7E
330
79
100
AcDbEntity
  8
-PROFILAUSSENKANTET
  0
POLYLINE
  5
7F
330
70
100
AcDbEntity
  8
-PROFILAUSSENKANTET
100
AcDb2dPolyline
 66
     1
 10
0.0
 20
0.0
 30
0.0
  0
VERTEX
  5
80
330
7F
100
AcDbEntity
  8
-PROFILAUSSENKANTET
100
AcDbVertex
100
AcDb2dVertex
 10
-5.499609847604006
 20
-8.318073200341132
 30
0.0
  0
VERTEX
  5
81
330
7F
100
AcDbEntity
  8
-PROFILAUSSENKANTET
100
AcDbVertex
100
AcDb2dVertex
 10
-5.499609847604006
 20
-4.945132844295585
 30
0.0
  0
VERTEX
  5
82
330
7F
100
AcDbEntity
  8
-PROFILAUSSENKANTET
100
AcDbVertex
100
AcDb2dVertex
 10
-9.5
 20
-0.9447426918914061
 30
0.0
  0
VERTEX
  5
83
330
7F
100
AcDbEntity
  8
-PROFILAUSSENKANTET
100
AcDbVertex
100
AcDb2dVertex
 10
-9.5
 20
0.3201811226335849
 30
0.0
  0
SEQEND
  5
84
330
7F
100
AcDbEntity
  8
-PROFILAUSSENKANTET
  0
LINE
  5
85
330
70
100
AcDbEntity
  8
-PROFILAUSSENKANTET
100
AcDbLine
 10
9.5
 20
-0.9447426918923156
 30
0.0
 11
-9.5
 21
-0.9447426918914061
 31
0.0
  0
LINE
  5
86
330
70
100
AcDbEntity
  8
-PROFILAUSSENKANTET
100
AcDbLine
 10
5.499355190157075
 20
-4.945387501738878
 30
0.0
 11
-5.499609847604006
 21
-4.945132844295585
 31
0.0
  0
LINE
  5
87
330
70
100
AcDbEntity
  8
-ACHSE
  6
AM_DIN_G_W050x2
100
AcDbLine
 10
0.0
 20
4.732444005304387
 30
0.0
 11
0.0
 21
-10.95146778672188
 31
0.0
1001
GENIUS_GENOBJ-N-CEN_13
1002
{
1000
OWNER
1000
GEN
1002
}
1001
GENIUS_GENODEF_13
1002
{
1000
HIER
1070
     0
1002
}
1002
{
1000
MANEDIT
1070
     0
1002
}
1002
{
1000
NOSEL
1070
     0
1002
}
1002
{
1000
BEHIND
1070
     0
1002
}
1002
{
1000
OTHER
1070
     0
1002
}
1002
{
1000
REACTOR
1002
}
1001
GENIUS_GENCEN_19
1002
{
1040
3.0
1002
}
  0
HATCH
  5
8E
330
70
100
AcDbEntity
  8
-PROFILAUSSENKANTET
100
AcDbHatch
 10
0.0
 20
0.0
 30
0.0
210
0.0
220
0.0
230
1.0
  2
_U
 70
     0
 71
     0
 91
        2
 92
        1
 93
       86
 72
     2
 10
-18.16280743935931
 20
48.66721994669024
 40
3.000000000002194
 50
176.7500000000181
 51
269.9163905535884
 73
     0
 72
     2
 10
-18.17185485021764
 20
54.86721422985102
 40
3.200000884423421
 50
270.0836094464057
 51
314.7234079997923
 73
     1
 72
     2
 10
-16.34227312682924
 20
53.01988228445861
 40
0.5999999999961389
 50
314.7234079995316
 51
494.7234080002698
 73
     1
 72
     2
 10
-18.17185485021764
 20
54.86721422984828
 40
2.000000884426954
 50
45.27659200021775
 51
73.07200542831059
 73
     0
 72
     2
 10
-17.64774921270145
 20
53.14520480342526
 40
0.1999999999925243
 50
73.0720054265565
 51
149.0464511964173
 73
     0
 72
     2
 10
-17.99078304225259
 20
52.93946761238021
 40
0.1999999999994472
 50
30.95354880161681
 51
95.36600607425986
 73
     1
 72
     2
 10
-18.17185485009395
 20
54.86721422983919
 40
1.736231912947645
 50
84.63399392962257
 51
94.26596026108624
 73
     0
 72
     2
 10
-18.31588394012942
 20
52.93634664194178
 40
0.2000000000130939
 50
85.73403974788993
 51
150.1464970187049
 73
     1
 72
     2
 10
-18.66280433983047
 20
53.13546026851236
 40
0.2000000000004778
 50
29.8535029850857
 51
105.8279487545465
 73
     0
 72
     2
 10
-18.17185485020309
 20
54.86721422982828
 40
2.000000884415507
 50
105.8279487550248
 51
163.0720054289131
 73
     0
 72
     2
 10
-19.8938642766152
 20
54.34310859233574
 40
0.1999999999977448
 50
163.0720054270117
 51
239.0464511991429
 73
     0
 72
     2
 10
-20.09960146764206
 20
54.68614242189961
 40
0.1999999999992935
 50
300.9535487979974
 51
365.3660060722089
 73
     1
 72
     2
 10
-18.17185485022491
 20
54.86721422985647
 40
1.736231912918379
 50
174.6339939254622
 51
184.2659602571868
 73
     0
 72
     2
 10
-20.10272243808868
 20
55.01124331977553
 40
0.2000000000006668
 50
355.7340397465793
 51
420.1464970178559
 73
     1
 72
     2
 10
-19.90360881151719
 20
55.3581637194693
 40
0.2000000000107462
 50
119.8535029855003
 51
195.8279487555195
 73
     0
 72
     2
 10
-18.17185485021764
 20
54.86721422984192
 40
2.000000884411119
 50
195.8279487552501
 51
253.0720054294843
 73
     0
 72
     2
 10
-18.69596048769017
 20
56.58922365626222
 40
0.1999999999925243
 50
253.0720054265565
 51
329.0464511988752
 73
     0
 72
     2
 10
-18.35292665813904
 20
56.79496084729726
 40
0.1999999999994472
 50
210.9535488016168
 51
275.3660060742842
 73
     1
 72
     2
 10
-18.17185485021764
 20
54.8672142298874
 40
1.736231912907138
 50
264.6339939268442
 51
274.2659602585395
 73
     0
 72
     2
 10
-18.02782576024037
 20
56.7980818177457
 40
0.2000000000110897
 50
265.7340397415765
 51
330.1464970134662
 73
     1
 72
     2
 10
-17.68090536056115
 20
56.59896819116511
 40
0.1999999999928092
 50
209.8535029854454
 51
285.8279487568362
 73
     0
 72
     2
 10
-18.17185485021764
 20
54.8672142298501
 40
2.000000884421055
 50
285.8279487560631
 51
313.6233621846902
 73
     0
 72
     2
 10
-16.27458863541687
 20
56.85791405024156
 40
0.7500000000757247
 50
226.3766378257766
 51
371.8618786239255
 73
     1
 72
     1
 10
-15.54060416149878
 20
57.012078871644
 11
-16.40583114824403
 21
61.15062516995294
 72
     2
 10
-16.89515413081244
 20
61.04784862237102
 40
0.5000000000025043
 50
11.86187862274389
 51
152.3314676830599
 73
     1
 72
     1
 10
-17.33797852595307
 20
61.28002647460471
 11
-17.99581556930934
 21
60.02535774534226
 72
     2
 10
-17.11016677902807
 20
59.5610020408767
 40
0.9999999999981884
 50
152.3314676831522
 51
191.9029212872112
 73
     1
 72
     2
 10
-18.87146402554208
 20
59.18974470504235
 40
0.7999999999980961
 50
348.0970787130947
 51
531.4499770931178
 73
     0
 72
     1
 10
-19.6625731769891
 20
59.07080644163852
 11
-23.62887261537253
 21
85.45235677921937
 72
     2
 10
-23.4310953275126
 20
85.48209134507123
 40
0.199999999999077
 50
171.4499770927828
 51
284.4499770938275
 73
     0
 72
     1
 10
-23.38118839681556
 20
85.67576451892
 11
-22.38841342426167
 21
85.41993997303142
 72
     2
 10
-22.33850649357191
 20
85.61361314687474
 40
0.1999999999935315
 50
255.5500229078009
 51
315.6372249513622
 73
     1
 72
     1
 10
-22.19552107384516
 20
85.47377334659268
 11
-21.77267740597745
 21
85.90612865033746
 72
     2
 10
-22.48760450462578
 20
86.60532765178141
 40
1.000000000000974
 50
315.6372249505667
 51
368.55002290664
 73
     1
 72
     1
 10
-21.49871806531883
 20
86.75400048103165
 11
-21.53871392245492
 21
87.0200299966109
 72
     2
 10
-21.73649121030758
 20
86.99029543076903
 40
0.1999999999903945
 50
8.550022904692927
 51
90.54995652956668
 73
     1
 72
     1
 10
-21.73841089126654
 20
87.19028621761209
 11
-23.70722307389224
 21
87.17138654561678
 72
     2
 10
-23.70914298653952
 20
87.37137733023791
 40
0.1999999999948909
 50
89.44997709356719
 51
171.6278072112937
 73
     0
 72
     1
 10
-23.90701160944445
 20
87.34225675215567
 11
-24.14216427017527
 21
88.9400730116913
 72
     2
 10
-23.94429564727034
 20
88.9691935897772
 40
0.1999999999958796
 50
171.6278072102626
 51
269.4499770935722
 73
     0
 72
     1
 10
-23.94621555991762
 20
89.16918437440017
 11
-22.09489285161544
 21
89.18695708273753
 72
     2
 10
-22.09681276426272
 20
89.38694786736778
 40
0.2000000000039855
 50
270.5500229064078
 51
368.5500229053614
 73
     1
 72
     1
 10
-21.89903547639551
 20
89.41668243321419
 11
-22.11147893815359
 21
90.82973456585113
 72
     2
 10
-22.30925622601353
 20
90.800000000002
 40
0.1999999999986713
 50
8.550022906444276
 51
90.0
 73
     1
 72
     1
 10
-22.30925622601353
 20
91.0
 11
-25.45000000000437
 21
91.0
 72
     2
 10
-25.45000000000437
 20
90.69999999999708
 40
0.3000000000029104
 50
90.0
 51
179.9999999994789
 73
     1
 72
     1
 10
-25.75000000000728
 20
90.69999999999982
 11
-25.75000000000728
 21
-7.855135326724848
 72
     2
 10
-25.45000000001164
 20
-7.855135326727577
 40
0.2999999999956344
 50
179.9999999994789
 51
213.9999997906848
 73
     1
 72
     1
 10
-25.6987112723873
 20
-8.022893196857694
 11
-25.12884285892506
 21
-8.867757870490095
 72
     2
 10
-24.8801315867895
 20
-8.699999999998908
 40
0.2999999999983702
 50
213.9999998734975
 51
326.0000000528463
 73
     1
 72
     1
 10
-24.63142031486496
 20
-8.867757870812965
 11
-24.12884285721521
 21
-8.122656146993904
 72
     2
 10
-23.88013158529793
 20
-8.290414017805233
 40
0.2999999999964302
 50
213.9999999474987
 51
326.0000001270786
 73
     0
 72
     1
 10
-23.63142031316238
 20
-8.122656147317684
 11
-23.12884285892506
 21
-8.867757870490095
 72
     2
 10
-22.8801315867895
 20
-8.699999999998908
 40
0.2999999999983702
 50
213.9999998734975
 51
326.0000000528463
 73
     1
 72
     1
 10
-22.63142031486495
 20
-8.867757870812965
 11
-22.1288428572152
 21
-8.122656146993904
 72
     2
 10
-21.88013158529793
 20
-8.290414017805233
 40
0.2999999999964302
 50
213.9999999474987
 51
326.0000001270786
 73
     0
 72
     1
 10
-21.63142031316238
 20
-8.122656147317684
 11
-21.12884285892505
 21
-8.867757870490095
 72
     2
 10
-20.8801315867895
 20
-8.699999999998908
 40
0.2999999999983702
 50
213.9999998734975
 51
326.0000000528463
 73
     1
 72
     1
 10
-20.63142031486496
 20
-8.867757870812965
 11
-20.1288428572152
 21
-8.122656146993904
 72
     2
 10
-19.88013158529793
 20
-8.290414017805233
 40
0.2999999999964302
 50
213.9999999474987
 51
326.0000001270786
 73
     0
 72
     1
 10
-19.63142031316238
 20
-8.122656147317684
 11
-19.12884285892505
 21
-8.867757870490095
 72
     2
 10
-18.8801315867895
 20
-8.699999999998908
 40
0.2999999999983702
 50
213.9999998734975
 51
326.0000000528463
 73
     1
 72
     1
 10
-18.63142031486495
 20
-8.867757870812965
 11
-18.1288428572152
 21
-8.122656146993904
 72
     2
 10
-17.88013158529793
 20
-8.290414017805233
 40
0.2999999999964302
 50
213.9999999474987
 51
326.0000001270786
 73
     0
 72
     1
 10
-17.63142031316238
 20
-8.122656147317684
 11
-17.12884285892505
 21
-8.867757870490095
 72
     2
 10
-16.8801315867895
 20
-8.699999999998908
 40
0.2999999999983702
 50
213.9999998734975
 51
326.0000000528463
 73
     1
 72
     1
 10
-16.63142031486495
 20
-8.867757870812965
 11
-15.8575200534251
 21
-7.720403547438763
 72
     2
 10
-15.44300126689632
 20
-7.999999998794919
 40
0.4999999999962541
 50
213.9999999478731
 51
270.0
 73
     0
 72
     1
 10
-15.44300126689632
 20
-7.499999998797648
 11
-10.31726190209883
 21
-7.499999998797648
 72
     2
 10
-10.31726190209883
 20
-7.999999998790372
 40
0.4999999999927241
 50
270.0
 51
326.0000002094304
 73
     0
 72
     1
 10
-9.902743114806071
 20
-7.720403548574722
 11
-9.128842858925054
 21
-8.867757870490095
 72
     2
 10
-8.880131586789502
 20
-8.699999999998908
 40
0.2999999999983702
 50
213.9999998734975
 51
326.0000000528463
 73
     1
 72
     1
 10
-8.631420314864953
 20
-8.867757870812965
 11
-8.128842857215204
 21
-8.122656146993904
 72
     2
 10
-7.880131585297931
 20
-8.290414017805233
 40
0.2999999999964302
 50
213.9999999474987
 51
326.0000001270786
 73
     0
 72
     1
 10
-7.631420313162379
 20
-8.122656147317684
 11
-7.128842858925054
 21
-8.867757870490095
 72
     2
 10
-6.880131586789502
 20
-8.700000000001637
 40
0.2999999999968445
 50
213.9999998730655
 51
326.0000000525013
 73
     1
 72
     1
 10
-6.631420314872229
 20
-8.867757870812965
 11
-6.12884285722248
 21
-8.122656146993904
 72
     2
 10
-5.880131585305207
 20
-8.290414017805233
 40
0.2999999999964302
 50
213.9999999474987
 51
326.0000001270786
 73
     0
 72
     1
 10
-5.631420313169655
 20
-8.122656147317684
 11
-5.499609847604006
 21
-8.318073200341132
 72
     1
 10
-5.499609847604006
 20
-8.318073200341132
 11
-5.499609847604006
 21
-4.945132844295585
 72
     1
 10
-5.499609847604006
 20
-4.945132844295585
 11
-9.5
 21
-0.9447426918914061
 72
     1
 10
-9.5
 20
-0.9447426918914061
 11
-9.5
 21
0.3201811226344944
 72
     2
 10
-7.407754648702393
 20
6.999861015733586
 40
6.999686713296441
 50
107.3918810219877
 51
169.5206460491329
 73
     0
 72
     1
 10
-14.29069016275025
 20
5.726749554095476
 11
-19.83214224874245
 21
35.6839983708287
 72
     2
 10
53.91673353968508
 20
49.32596743404338
 40
74.99999999985746
 50
169.5199634569555
 51
176.7500000000276
 73
     0
 72
     1
 10
-20.96264175197575
 20
45.07400836683427
 11
-21.15798245103361
 21
48.49714158400093
 97
        0
 92
       16
 93
       29
 72
     2
 10
-7.062143023031239
 20
7.029529175507377
 40
10.30988479634655
 50
190.6075696958759
 51
210.3151271848405
 73
     1
 72
     2
 10
-16.83085469650541
 20
1.330002672120826
 40
0.9999999979951464
 50
330.2936563247076
 51
429.3684872845475
 73
     0
 72
     2
 10
-16.27315334790182
 20
-0.1696304138731648
 40
0.6000000000011335
 50
110.0134994502378
 51
290.7860127162921
 73
     1
 72
     2
 10
-15.35046831447107
 20
-2.600403321420344
 40
2.000000884418713
 50
249.2139872841489
 51
277.0094007122487
 73
     0
 72
     2
 10
-15.13081026064901
 20
-0.8138553866328948
 40
0.2000000000000363
 50
277.0094007138063
 51
352.9838464844937
 73
     0
 72
     2
 10
-14.73380555930634
 20
-0.7649957189960333
 40
0.2000000000128799
 50
187.0161535129283
 51
251.4286107861072
 73
     1
 72
     2
 10
-15.35046831439831
 20
-2.600403321448538
 40
1.736231912919473
 50
288.571389207179
 51
298.2033555388944
 73
     0
 72
     2
 10
-14.43540050841693
 20
-0.8940490408031109
 40
0.2000000000032734
 50
241.7966444566558
 51
306.2091017287676
 73
     1
 72
     2
 10
-14.19910696844454
 20
-1.216795633285983
 40
0.1999999999862928
 50
233.7908982727491
 51
309.7653440424902
 73
     0
 72
     2
 10
-15.35046831451473
 20
-2.600403321439443
 40
2.000000884410015
 50
309.7653440397093
 51
367.0094007135345
 73
     0
 72
     2
 10
-13.56392037973273
 20
-2.820061375313343
 40
0.1999999999918158
 50
7.00940071173327
 51
82.98384648430273
 73
     0
 72
     2
 10
-13.51506071209587
 20
-3.217066076640548
 40
0.2000000000029503
 50
97.01615351327841
 51
161.4286107870062
 73
     1
 72
     2
 10
-15.35046831453655
 20
-2.600403321451267
 40
1.736231912949908
 50
18.57138921045098
 51
28.20335554196768
 73
     0
 72
     2
 10
-13.64411403390841
 20
-3.51547112751632
 40
0.1999999999972558
 50
151.7966444598705
 51
216.2091017314555
 73
     1
 72
     2
 10
-13.96686062640219
 20
-3.751764667509633
 40
0.2000000000141131
 50
323.7908982724487
 51
399.7653440412958
 73
     0
 72
     2
 10
-15.350468314522
 20
-2.600403321436715
 40
2.00000088441792
 50
39.76534404026657
 51
97.00940071436203
 73
     0
 72
     2
 10
-15.57012636841682
 20
-4.386951256212341
 40
0.1999999999991336
 50
97.00940071383813
 51
172.9838464842351
 73
     0
 72
     2
 10
-15.96713106974493
 20
-4.435810923860117
 40
0.1999999999996589
 50
7.016153516282143
 51
71.42861078692135
 73
     1
 72
     2
 10
-15.350468314522
 20
-2.600403321418525
 40
1.736231912965226
 50
108.5713892114843
 51
118.2033555432552
 73
     0
 72
     2
 10
-16.26553612063435
 20
-4.306757602036668
 40
0.1999999999950257
 50
61.79664445775396
 51
126.2091017303067
 73
     1
 72
     2
 10
-16.5018296606213
 20
-3.984011009551068
 40
0.200000000004429
 50
53.7908982713863
 51
129.7653440415282
 73
     0
 72
     2
 10
-15.35046831450745
 20
-2.600403321443081
 40
2.00000088442977
 50
129.7653440414077
 51
157.5607574699576
 73
     0
 72
     2
 10
-17.74937223586312
 20
-3.602930304557958
 40
0.6000375938348258
 50
23.48492132858568
 51
200.3194894989586
 73
     1
 72
     2
 10
-19.24982252528571
 20
-4.158600376603317
 40
1.000000000005064
 50
339.6774823734698
 51
449.7500047044592
 73
     0
 72
     1
 10
-19.24545929810847
 20
-5.158590857685339
 11
-21.09547297952667
 21
-5.16657569911149
 72
     2
 10
-21.09983620669664
 20
-4.166585218030377
 40
1.000000000002086
 50
89.75000470487598
 51
179.7500047047201
 73
     0
 72
     1
 10
-22.09982668777957
 20
-4.170948445203066
 11
-22.18696487418492
 21
15.7999019185454
 72
     2
 10
-20.6869791525678
 20
15.80644675930216
 40
1.49999999999859
 50
179.7500047048057
 51
349.5650909461706
 73
     0
 72
     1
 10
-19.21178719967429
 20
16.07812432944502
 11
-17.19584258608665
 21
5.131673100967418
 97
        0
 75
     0
 76
     0
 52
45.0
 41
5.0
 77
     0
 78
     1
 53
45.0
 43
2218.303701497782
 44
-1574.970506423319
 45
-3.535533905932737
 46
3.535533905932737
 79
     0
 98
        1
 10
2218.303701497782
 20
-1574.970506423319
1001
ACAD
1010
0.0
1020
0.0
1030
0.0
1001
GENIUS_GENOBJ-N-HTC_13
1002
{
1000
OWNER
1000
GEN
1002
}
1001
GENIUS_GENODEF_13
1002
{
1000
HIER
1070
     0
1002
}
1002
{
1000
MANEDIT
1070
     0
1002
}
1002
{
1000
NOSEL
1070
     0
1002
}
1002
{
1000
BEHIND
1070
     0
1002
}
1002
{
1000
OTHER
1070
     0
1002
}
1002
{
1000
REACTOR
1002
}
1001
GENIUS_GENHATCH_13
1002
{
1000
DATA
1040
45.0
1042
2.5
1000
_U
1070
     0
1011
-22.59636169425357
1021
37.24100491729496
1031
0.0
1002
}
1002
{
1000
UCS
1010
0.0
1020
0.0
1030
0.0
1010
1.0
1020
0.0
1030
0.0
1010
0.0
1020
1.0
1030
0.0
1002
}
  0
HATCH
  5
91
330
70
100
AcDbEntity
  8
-PROFILAUSSENKANTET
100
AcDbHatch
 10
0.0
 20
0.0
 30
0.0
210
0.0
220
0.0
230
1.0
  2
_U
 70
     0
 71
     0
 91
        2
 92
        1
 93
       66
 72
     1
 10
25.44999999998982
 20
91.0
 11
22.30925622599898
 21
91.0
 72
     2
 10
22.30925622599898
 20
90.800000000002
 40
0.1999999999979991
 50
90.0
 51
171.4499770935557
 73
     1
 72
     1
 10
22.11147893813905
 20
90.82973456585113
 11
21.89903547638824
 21
89.41668243321419
 72
     2
 10
22.09681276425545
 20
89.38694786736688
 40
0.200000000005596
 50
171.4499770943809
 51
269.4499770915054
 73
     1
 72
     1
 10
22.09489285160089
 20
89.18695708273753
 11
23.94621555990307
 21
89.16918437440017
 72
     2
 10
23.94429564725578
 20
88.9691935897772
 40
0.1999999999967098
 50
270.5500229064278
 51
368.3721927897374
 73
     0
 72
     1
 10
24.14216427016072
 20
88.9400730116913
 11
23.90701160943718
 21
87.34225675215567
 72
     2
 10
23.70914298653224
 20
87.37137733024065
 40
0.1999999999957472
 50
8.372192789479628
 51
90.55002290850957
 73
     0
 72
     1
 10
23.70722307387769
 20
87.17138654561678
 11
21.73841089125926
 21
87.19028621761209
 72
     2
 10
21.7364912103003
 20
86.99029543076177
 40
0.1999999999999873
 50
89.45004347045331
 51
171.4499770938134
 73
     1
 72
     1
 10
21.53871392244036
 20
87.02002999660999
 11
21.49871806530427
 21
86.75400048103256
 72
     2
 10
22.48760450461123
 20
86.60532765178141
 40
1.000000000001362
 50
171.4499770933085
 51
224.3627750494333
 73
     1
 72
     1
 10
21.7726774059629
 20
85.90612865033746
 11
22.1955210738306
 21
85.47377334659268
 72
     2
 10
22.33850649356464
 20
85.61361314688292
 40
0.2000000000043335
 50
224.3627750488569
 51
284.449977091614
 73
     1
 72
     1
 10
22.38841342425439
 20
85.41993997303142
 11
23.38118017639499
 21
85.67576240063317
 72
     2
 10
23.4310871070993
 20
85.48208922678623
 40
0.2000000000006856
 50
255.550022904024
 51
368.550008743958
 73
     0
 72
     1
 10
23.62886440230795
 20
85.45235470982424
 11
19.66277965236804
 21
59.07218800077135
 72
     2
 10
18.8714640255348
 20
59.18974470504327
 40
0.799999999993598
 50
8.449977093265893
 51
191.8028754730403
 73
     0
 72
     2
 10
17.10952120127331
 20
59.55792602451674
 40
0.9999999999947666
 50
348.1971245268661
 51
387.7685781309578
 73
     1
 72
     1
 10
17.99435781691136
 20
60.02382747720457
 11
17.33433096425142
 21
61.27734562609112
 72
     2
 10
16.89191265642875
 20
61.04439489974447
 40
0.5000000000020979
 50
27.76857813104022
 51
184.4422770033937
 73
     1
 72
     1
 10
16.3934147204709
 20
61.00566754705051
 11
16.58126772820105
 21
58.97761050300323
 72
     2
 10
18.8714640255348
 20
59.18974470503872
 40
2.299999999998794
 50
185.2920405436169
 51
246.1389152032756
 73
     1
 72
     1
 10
17.94106679841206
 20
57.08632819855393
 11
18.3462819149936
 21
56.9070907438263
 72
     2
 10
17.53724084793794
 20
55.0780329121053
 40
1.999999999990623
 50
293.8610847965824
 51
360.2500000002013
 73
     0
 72
     1
 10
19.53722180936893
 20
55.06930629352883
 11
19.47276131014951
 21
40.29614184558886
 72
     2
 10
-55.52652474387286
 20
40.62339004191199
 40
74.99999999996714
 50
0.249999999974998
 51
10.48003654303889
 73
     0
 72
     1
 10
18.22235104466381
 20
26.98142097868458
 11
14.2906901627357
 21
5.726749554096386
 72
     2
 10
7.407355530565837
 20
7.0000622223979
 40
7.000115771163084
 50
10.48037918912113
 51
72.60579568176838
 73
     0
 72
     1
 10
9.5
 20
0.3200577363068078
 11
9.5
 21
-0.9447426918923156
 72
     1
 10
9.5
 20
-0.9447426918923156
 11
5.499355190157075
 21
-4.945387501738878
 72
     1
 10
5.499355190157075
 20
-4.945387501738878
 11
5.499355190157075
 21
-8.318450745535301
 72
     1
 10
5.499355190157075
 20
-8.318450745535301
 11
5.631420313169655
 21
-8.122656147317684
 72
     2
 10
5.880131585305207
 20
-8.290414017804323
 40
0.2999999999958273
 50
213.9999998727774
 51
326.0000000525013
 73
     0
 72
     1
 10
6.12884285722248
 20
-8.122656146992994
 11
6.631420314872229
 21
-8.867757870812965
 72
     2
 10
6.880131586789502
 20
-8.700000000002546
 40
0.2999999999959216
 50
213.9999999473547
 51
326.0000001272226
 73
     1
 72
     1
 10
7.128842858925054
 20
-8.867757870489185
 11
7.631420313162379
 21
-8.122656147317684
 72
     2
 10
7.880131585305207
 20
-8.290414017807052
 40
0.3000000000033851
 50
213.9999998724324
 51
326.0000000520692
 73
     0
 72
     1
 10
8.12884285722248
 20
-8.122656146992994
 11
8.631420314872229
 21
-8.867757870812965
 72
     2
 10
8.880131586789502
 20
-8.700000000003456
 40
0.299999999995413
 50
213.9999999472107
 51
326.0000001273665
 73
     1
 72
     1
 10
9.128842858925054
 20
-8.867757870489185
 11
9.902743114798795
 21
-7.720403548574722
 72
     2
 10
10.31726190209883
 20
-7.999999998801285
 40
0.5000000000039905
 50
213.9999997911402
 51
270.0
 73
     0
 72
     1
 10
10.31726190209883
 20
-7.499999998798557
 11
15.44300126689632
 21
-7.499999998796738
 72
     2
 10
15.44300126689632
 20
-7.999999998803104
 40
0.5000000000063665
 50
270.0
 51
326.0000000518155
 73
     0
 72
     1
 10
15.85752005343238
 20
-7.720403547438763
 11
16.63142031487223
 21
-8.867757870812965
 72
     2
 10
16.8801315867895
 20
-8.700000000003456
 40
0.299999999995413
 50
213.9999999472107
 51
326.0000001273665
 73
     1
 72
     1
 10
17.12884285892505
 20
-8.867757870489185
 11
17.63142031316238
 21
-8.122656147317684
 72
     2
 10
17.88013158530521
 20
-8.290414017807052
 40
0.3000000000033851
 50
213.9999998724324
 51
326.0000000520692
 73
     0
 72
     1
 10
18.12884285722248
 20
-8.122656146992994
 11
18.63142031487223
 21
-8.867757870812965
 72
     2
 10
18.8801315867895
 20
-8.700000000003456
 40
0.299999999995413
 50
213.9999999472107
 51
326.0000001273665
 73
     1
 72
     1
 10
19.12884285892505
 20
-8.867757870489185
 11
19.63142031316238
 21
-8.122656147317684
 72
     2
 10
19.8801315853052
 20
-8.290414017807052
 40
0.3000000000033851
 50
213.9999998724324
 51
326.0000000520692
 73
     0
 72
     1
 10
20.12884285722248
 20
-8.122656146992994
 11
20.63142031487223
 21
-8.867757870812965
 72
     2
 10
20.8801315867895
 20
-8.700000000003456
 40
0.299999999995413
 50
213.9999999472107
 51
326.0000001273665
 73
     1
 72
     1
 10
21.12884285892505
 20
-8.867757870489185
 11
21.63142031316238
 21
-8.122656147317684
 72
     2
 10
21.88013158530521
 20
-8.290414017807052
 40
0.3000000000033851
 50
213.9999998724324
 51
326.0000000520692
 73
     0
 72
     1
 10
22.12884285722248
 20
-8.122656146992994
 11
22.63142031487223
 21
-8.867757870812965
 72
     2
 10
22.8801315867895
 20
-8.700000000003456
 40
0.299999999995413
 50
213.9999999472107
 51
326.0000001273665
 73
     1
 72
     1
 10
23.12884285892506
 20
-8.867757870489185
 11
23.63142031316238
 21
-8.122656147317684
 72
     2
 10
23.88013158530521
 20
-8.290414017807052
 40
0.3000000000033851
 50
213.9999998724324
 51
326.0000000520692
 73
     0
 72
     1
 10
24.12884285722248
 20
-8.122656146992994
 11
24.63142031487223
 21
-8.867757870812965
 72
     2
 10
24.8801315867895
 20
-8.700000000003456
 40
0.299999999995413
 50
213.9999999472107
 51
326.0000001273665
 73
     1
 72
     1
 10
25.12884285892506
 20
-8.867757870489185
 11
25.69871127236547
 21
-8.022893196875884
 72
     2
 10
25.44999999998982
 20
-7.855135326733034
 40
0.3000000000026403
 50
326.0000002072991
 51
359.999999998263
 73
     1
 72
     1
 10
25.74999999999273
 20
-7.855135326742129
 11
25.75
 21
90.69999999999982
 72
     2
 10
25.44999999999709
 20
90.69999999999527
 40
0.3000000000029104
 50
0.0000000008685035
 51
90.0000000013896
 73
     1
 97
        0
 92
       16
 93
        9
 72
     2
 10
21.53474205006205
 20
-3.98055909697905
 40
0.9999999999966412
 50
359.7500047047183
 51
449.750004704875
 73
     0
 72
     1
 10
21.53910527723201
 20
-4.980549578056525
 11
20.5009257422862
 21
-4.985079434331055
 72
     2
 10
20.492199287939
 20
-2.985098472178833
 40
1.9999999999942
 50
89.75000470466627
 51
119.5185216271709
 73
     0
 72
     1
 10
19.50678951096051
 20
-4.725491408100424
 11
14.64025905391463
 21
-1.970063830012804
 72
     2
 10
15.13296394240024
 20
-1.099867362050645
 40
0.999999999995715
 50
119.518521626951
 51
227.4875770288274
 73
     0
 72
     2
 10
7.699713397894811
 20
7.008571843035497
 40
10.00000000000323
 50
312.5124229715317
 51
350.065081536508
 73
     1
 72
     1
 10
17.54975702164665
 20
5.283277488369094
 11
19.47010207955463
 21
16.24690380638367
 72
     2
 10
20.9476086231225
 20
15.98810965318534
 40
1.50000000000517
 50
189.9349184633968
 51
359.750004704771
 73
     0
 72
     1
 10
22.44759434473963
 20
15.99465449394301
 11
22.53473253113771
 21
-3.97619586980636
 97
        0
 75
     0
 76
     0
 52
45.0
 41
5.0
 77
     0
 78
     1
 53
45.0
 43
2218.303701497782
 44
-1574.970506423319
 45
-3.535533905932737
 46
3.535533905932737
 79
     0
 98
        1
 10
2218.303701497782
 20
-1574.970506423319
1001
ACAD
1010
0.0
1020
0.0
1030
0.0
1001
GENIUS_GENOBJ-N-HTC_13
1002
{
1000
OWNER
1000
GEN
1002
}
1001
GENIUS_GENODEF_13
1002
{
1000
HIER
1070
     0
1002
}
1002
{
1000
MANEDIT
1070
     0
1002
}
1002
{
1000
NOSEL
1070
     0
1002
}
1002
{
1000
BEHIND
1070
     0
1002
}
1002
{
1000
OTHER
1070
     0
1002
}
1002
{
1000
REACTOR
1002
}
1001
GENIUS_GENHATCH_13
1002
{
1000
DATA
1040
45.0
1042
2.5
1000
_U
1070
     0
1011
22.69757420567476
1021
38.78826100677997
1031
0.0
1002
}
1002
{
1000
UCS
1010
0.0
1020
0.0
1030
0.0
1010
1.0
1020
0.0
1030
0.0
1010
0.0
1020
1.0
1030
0.0
1002
}
  0
ENDBLK
  5
92
330
70
100
AcDbEntity
  8
0
100
AcDbBlockEnd
  0
BLOCK
  5
C1
330
C0
100
AcDbEntity
  8
0
100
AcDbBlockBegin
  2
*D3
 70
     1
 10
0.0
 20
0.0
 30
0.0
  3
*D3
  1

  0
LINE
  5
C2
330
C0
100
AcDbEntity
  8
AM_5
  6
ByBlock
100
AcDbLine
 10
35480.81691686347
 20
7982.455386083599
 30
0.0
 11
35480.81691686347
 21
7996.168892406497
 31
0.0
  0
LINE
  5
C3
330
C0
100
AcDbEntity
  8
AM_5
  6
ByBlock
100
AcDbLine
 10
35491.81588190123
 20
7982.455131426156
 30
0.0
 11
35491.81588190123
 21
7996.168892406497
 31
0.0
  0
LINE
  5
C4
330
C0
100
AcDbEntity
  8
AM_5
  6
ByBlock
100
AcDbLine
 10
35473.81691686347
 20
7994.168892406498
 30
0.0
 11
35466.81691686347
 21
7994.168892406498
 31
0.0
  0
LINE
  5
C5
330
C0
100
AcDbEntity
  8
AM_5
  6
ByBlock
100
AcDbLine
 10
35498.81588190123
 20
7994.168892406498
 30
0.0
 11
35505.81588190123
 21
7994.168892406498
 31
0.0
  0
LINE
  5
C6
330
C0
100
AcDbEntity
  8
AM_5
  6
ByBlock
100
AcDbLine
 10
35480.81691686347
 20
7994.168892406498
 30
0.0
 11
35491.81588190123
 21
7994.168892406498
 31
0.0
  0
SOLID
  5
C7
330
C0
100
AcDbEntity
  8
AM_5
100
AcDbTrace
 10
35473.81691686347
 20
7995.335559073165
 30
0.0
 11
35473.81691686347
 21
7993.00222573983
 31
0.0
 12
35480.81691686347
 22
7994.168892406498
 32
0.0
 13
35480.81691686347
 23
7994.168892406498
 33
0.0
  0
SOLID
  5
C8
330
C0
100
AcDbEntity
  8
AM_5
100
AcDbTrace
 10
35498.81588190123
 20
7995.335559073165
 30
0.0
 11
35498.81588190123
 21
7993.00222573983
 31
0.0
 12
35491.81588190123
 22
7994.168892406498
 32
0.0
 13
35491.81588190123
 23
7994.168892406498
 33
0.0
  0
MTEXT
  5
C9
330
C0
100
AcDbEntity
  8
AM_5
 62
     2
100
AcDbMText
 10
35486.31639938236
 20
8000.93867412546
 30
0.0
 40
7.0
 41
0.0
 71
     5
 72
     1
  1
%%C11
 73
     1
 44
1.0
1001
ACAD
1000
MTEXTBEGIN
1070
    73
1070
     1
1070
    44
1040
1.0
1070
    74
1070
     0
1000
MTEXTEND
1000
ACAD_MTEXT_BBRT
1070
    91
1071
        3
1070
    46
1040
1.1
1070
    64
1071
-1027028792
1070
    65
1000

1070
    66
1000

1070
   442
1071
        0
1000
ACAD_MTEXT_BERT
  0
POINT
  5
CA
330
C0
100
AcDbEntity
  8
DEFPOINTS
 62
     0
100
AcDbPoint
 10
35480.81691686347
 20
7980.455386083598
 30
0.0
  0
POINT
  5
CB
330
C0
100
AcDbEntity
  8
DEFPOINTS
 62
     0
100
AcDbPoint
 10
35491.81588190123
 20
7980.455131426156
 30
0.0
  0
POINT
  5
CC
330
C0
100
AcDbEntity
  8
DEFPOINTS
 62
     0
100
AcDbPoint
 10
35491.81588190123
 20
7994.168892406498
 30
0.0
  0
ENDBLK
  5
CD
330
C0
100
AcDbEntity
  8
0
100
AcDbBlockEnd
  0
BLOCK
  5
D0
330
CF
100
AcDbEntity
  8
0
100
AcDbBlockBegin
  2
*D4
 70
     1
 10
0.0
 20
0.0
 30
0.0
  3
*D4
  1

  0
LINE
  5
D1
330
CF
100
AcDbEntity
  8
AM_5
  6
ByBlock
100
AcDbLine
 10
35476.81652671108
 20
7986.455776236003
 30
0.0
 11
35476.81652671108
 21
8012.281130589881
 31
0.0
  0
LINE
  5
D2
330
CF
100
AcDbEntity
  8
AM_5
  6
ByBlock
100
AcDbLine
 10
35495.81652671108
 20
7986.455776236002
 30
0.0
 11
35495.81652671108
 21
8012.281130589881
 31
0.0
  0
LINE
  5
D3
330
CF
100
AcDbEntity
  8
AM_5
  6
ByBlock
100
AcDbLine
 10
35469.81652671107
 20
8010.281130589882
 30
0.0
 11
35462.81652671107
 21
8010.281130589882
 31
0.0
  0
LINE
  5
D4
330
CF
100
AcDbEntity
  8
AM_5
  6
ByBlock
100
AcDbLine
 10
35502.81652671107
 20
8010.281130589882
 30
0.0
 11
35509.81652671107
 21
8010.281130589882
 31
0.0
  0
LINE
  5
D5
330
CF
100
AcDbEntity
  8
AM_5
  6
ByBlock
100
AcDbLine
 10
35476.81652671108
 20
8010.281130589882
 30
0.0
 11
35495.81652671108
 21
8010.281130589882
 31
0.0
  0
SOLID
  5
D6
330
CF
100
AcDbEntity
  8
AM_5
100
AcDbTrace
 10
35469.81652671107
 20
8011.447797256549
 30
0.0
 11
35469.81652671107
 21
8009.114463923216
 31
0.0
 12
35476.81652671108
 22
8010.281130589882
 32
0.0
 13
35476.81652671108
 23
8010.281130589882
 33
0.0
  0
SOLID
  5
D7
330
CF
100
AcDbEntity
  8
AM_5
100
AcDbTrace
 10
35502.81652671107
 20
8011.447797256549
 30
0.0
 11
35502.81652671107
 21
8009.114463923216
 31
0.0
 12
35495.81652671108
 22
8010.281130589882
 32
0.0
 13
35495.81652671108
 23
8010.281130589882
 33
0.0
  0
MTEXT
  5
D8
330
CF
100
AcDbEntity
  8
AM_5
 62
     2
100
AcDbMText
 10
35486.31652671108
 20
8017.050912308844
 30
0.0
 40
7.0
 41
0.0
 71
     5
 72
     1
  1
%%C19
 73
     1
 44
1.0
1001
ACAD
1000
MTEXTBEGIN
1070
    73
1070
     1
1070
    44
1040
1.0
1070
    74
1070
     0
1000
MTEXTEND
1000
ACAD_MTEXT_BBRT
1070
    91
1071
        3
1070
    46
1040
1.1
1070
    64
1071
-1027028792
1070
    65
1000

1070
    66
1000

1070
   442
1071
        0
1000
ACAD_MTEXT_BERT
  0
POINT
  5
D9
330
CF
100
AcDbEntity
  8
DEFPOINTS
 62
     0
100
AcDbPoint
 10
35476.81652671108
 20
7984.455776236003
 30
0.0
  0
POINT
  5
DA
330
CF
100
AcDbEntity
  8
DEFPOINTS
 62
     0
100
AcDbPoint
 10
35495.81652671108
 20
7984.455776236003
 30
0.0
  0
POINT
  5
DB
330
CF
100
AcDbEntity
  8
DEFPOINTS
 62
     0
100
AcDbPoint
 10
35495.81652671108
 20
8010.281130589882
 30
0.0
  0
ENDBLK
  5
DC
330
CF
100
AcDbEntity
  8
0
100
AcDbBlockEnd
  0
BLOCK
  5
DF
330
DE
100
AcDbEntity
  8
0
100
AcDbBlockBegin
  2
*D5
 70
     1
 10
0.0
 20
0.0
 30
0.0
  3
*D5
  1

  0
LINE
  5
E0
330
DE
100
AcDbEntity
  8
AM_5
  6
ByBlock
100
AcDbLine
 10
35496.83074027345
 20
7985.469989798374
 30
0.0
 11
35523.97245430087
 21
8012.611703825822
 31
0.0
  0
LINE
  5
E1
330
DE
100
AcDbEntity
  8
AM_5
  6
ByBlock
100
AcDbLine
 10
35475.80231314871
 20
7985.469989798376
 30
0.0
 11
35448.66059912129
 21
8012.611703825852
 31
0.0
  0
ARC
  5
E2
330
DE
100
AcDbEntity
  8
AM_5
  6
ByBlock
100
AcDbCircle
 10
35486.31652671107
 20
7974.955776235988
 30
0.0
 40
51.25352350126309
100
AcDbArc
 50
52.83132164136773
 51
127.1686783585864
  0
SOLID
  5
E3
330
DE
100
AcDbEntity
  8
AM_5
100
AcDbTrace
 10
35518.04873686906
 20
8016.67704188403
 30
0.0
 11
35516.51534195803
 21
8014.918308109045
 31
0.0
 12
35522.5582407385
 22
8011.197490263448
 32
0.0
 13
35522.5582407385
 23
8011.197490263448
 33
0.0
  0
SOLID
  5
E4
330
DE
100
AcDbEntity
  8
AM_5
100
AcDbTrace
 10
35456.11771146413
 20
8014.918308109072
 30
0.0
 11
35454.58431655311
 21
8016.677041884056
 31
0.0
 12
35450.07481268366
 22
8011.197490263477
 32
0.0
 13
35450.07481268366
 23
8011.197490263477
 33
0.0
  0
MTEXT
  5
E5
330
DE
100
AcDbEntity
  8
AM_5
 62
     2
100
AcDbMText
 10
35486.31652671109
 20
8032.783310651302
 30
0.0
 40
7.0
 41
0.0
 71
     5
 72
     1
  1
90\U+00B0
 73
     1
 44
1.0
1001
ACAD
1000
MTEXTBEGIN
1070
    73
1070
     1
1070
    44
1040
1.0
1070
    74
1070
     0
1000
MTEXTEND
1000
ACAD_MTEXT_BBRT
1070
    91
1071
        3
1070
    46
1040
1.1
1070
    64
1071
-1027028792
1070
    65
1000

1070
    66
1000

1070
   442
1071
        0
1000
ACAD_MTEXT_BERT
  0
POINT
  5
E6
330
DE
100
AcDbEntity
  8
DEFPOINTS
 62
     0
100
AcDbPoint
 10
35499.58191472181
 20
8024.462878274169
 30
0.0
  0
POINT
  5
E7
330
DE
100
AcDbEntity
  8
DEFPOINTS
 62
     0
100
AcDbPoint
 10
35491.81588190123
 20
7980.455131426156
 30
0.0
  0
POINT
  5
E8
330
DE
100
AcDbEntity
  8
DEFPOINTS
 62
     0
100
AcDbPoint
 10
35477.21652671108
 20
7984.055776236001
 30
0.0
  0
POINT
  5
E9
330
DE
100
AcDbEntity
  8
DEFPOINTS
 62
     0
100
AcDbPoint
 10
35480.81691686347
 20
7980.455386083598
 30
0.0
  0
POINT
  5
EA
330
DE
100
AcDbEntity
  8
DEFPOINTS
 62
     0
100
AcDbPoint
 10
35495.41652671107
 20
7984.055776236001
 30
0.0
  0
ENDBLK
  5
EB
330
DE
100
AcDbEntity
  8
0
100
AcDbBlockEnd
  0
BLOCK
  5
EF
330
EE
100
AcDbEntity
  8
0
100
AcDbBlockBegin
  2
*D6
 70
     1
 10
0.0
 20
0.0
 30
0.0
  3
*D6
  1

  0
LINE
  5
F0
330
EE
100
AcDbEntity
  8
AM_5
  6
ByBlock
100
AcDbLine
 10
35511.19665829788
 20
7976.400518927897
 30
0.0
 11
35531.06652671112
 21
7976.400518927897
 31
0.0
  0
LINE
  5
F1
330
EE
100
AcDbEntity
  8
AM_5
  6
ByBlock
100
AcDbLine
 10
35513.76652671109
 20
8076.400518927897
 30
0.0
 11
35531.06652671112
 21
8076.400518927897
 31
0.0
  0
LINE
  5
F2
330
EE
100
AcDbEntity
  8
AM_5
  6
ByBlock
100
AcDbLine
 10
35529.06652671112
 20
7983.400518927898
 30
0.0
 11
35529.06652671112
 21
8069.400518927897
 31
0.0
  0
SOLID
  5
F3
330
EE
100
AcDbEntity
  8
AM_5
100
AcDbTrace
 10
35527.89986004445
 20
7983.400518927898
 30
0.0
 11
35530.23319337778
 21
7983.400518927898
 31
0.0
 12
35529.06652671112
 22
7976.400518927897
 32
0.0
 13
35529.06652671112
 23
7976.400518927897
 33
0.0
  0
SOLID
  5
F4
330
EE
100
AcDbEntity
  8
AM_5
100
AcDbTrace
 10
35527.89986004445
 20
8069.400518927897
 30
0.0
 11
35530.23319337778
 21
8069.400518927897
 31
0.0
 12
35529.06652671112
 22
8076.400518927897
 32
0.0
 13
35529.06652671112
 23
8076.400518927897
 33
0.0
  0
MTEXT
  5
F5
330
EE
100
AcDbEntity
  8
AM_5
 62
     2
100
AcDbMText
 10
35522.49251579706
 20
8026.400518927886
 30
0.0
 40
7.0
 41
0.0
 71
     5
 72
     1
  1
100
 11
0.0000000000000001
 21
1.0
 31
0.0
 73
     1
 44
1.0
1001
ACAD
1000
MTEXTBEGIN
1070
    73
1070
     1
1070
    44
1040
1.0
1070
    74
1070
     0
1000
MTEXTEND
  0
POINT
  5
F6
330
EE
100
AcDbEntity
  8
DEFPOINTS
 62
     0
100
AcDbPoint
 10
35509.19665829788
 20
7976.400518927897
 30
0.0
  0
POINT
  5
F7
330
EE
100
AcDbEntity
  8
DEFPOINTS
 62
     0
100
AcDbPoint
 10
35511.76652671109
 20
8076.400518927897
 30
0.0
  0
POINT
  5
F8
330
EE
100
AcDbEntity
  8
DEFPOINTS
 62
     0
100
AcDbPoint
 10
35529.06652671112
 20
8076.400518927897
 30
0.0
  0
ENDBLK
  5
F9
330
EE
100
AcDbEntity
  8
0
100
AcDbBlockEnd
  0
BLOCK
  5
97
330
96
100
AcDbEntity
  8
0
100
AcDbBlockBegin
  2
*D7
 70
     1
 10
0.0
 20
0.0
 30
0.0
  3
*D7
  1

  0
LINE
  5
98
330
96
100
AcDbEntity
  8
AM_5
  6
ByBlock
100
AcDbLine
 10
35512.06652671107
 20
7975.949051141173
 30
0.0
 11
35512.06652671107
 21
7958.648975013819
 31
0.0
  0
LINE
  5
99
330
96
100
AcDbEntity
  8
AM_5
  6
ByBlock
100
AcDbLine
 10
35486.31571499546
 20
7972.649051141172
 30
0.0
 11
35486.31571499546
 21
7958.648975013819
 31
0.0
  0
LINE
  5
9A
330
96
100
AcDbEntity
  8
AM_5
  6
ByBlock
100
AcDbLine
 10
35505.76652671106
 20
7960.448975013818
 30
0.0
 11
35492.61571499546
 21
7960.448975013818
 31
0.0
  0
SOLID
  5
9B
330
96
100
AcDbEntity
  8
AM_5
100
AcDbTrace
 10
35505.76652671106
 20
7961.498975013817
 30
0.0
 11
35505.76652671106
 21
7959.398975013818
 31
0.0
 12
35512.06652671107
 22
7960.448975013818
 32
0.0
 13
35512.06652671107
 23
7960.448975013818
 33
0.0
  0
SOLID
  5
9D
330
96
100
AcDbEntity
  8
AM_5
100
AcDbTrace
 10
35492.61571499546
 20
7961.498975013817
 30
0.0
 11
35492.61571499546
 21
7959.398975013818
 31
0.0
 12
35486.31571499546
 22
7960.448975013818
 32
0.0
 13
35486.31571499546
 23
7960.448975013818
 33
0.0
  0
MTEXT
  5
9E
330
96
100
AcDbEntity
  8
AM_5
 62
     2
100
AcDbMText
 10
35499.19112085326
 20
7966.365584836466
 30
0.0
 40
6.299999999999999
 41
0.0
 71
     5
 72
     1
  1
25.75
 73
     1
 44
1.0
1001
ACAD
1000
MTEXTBEGIN
1070
    73
1070
     1
1070
    44
1040
1.0
1070
    74
1070
     0
1000
MTEXTEND
  0
POINT
  5
9F
330
96
100
AcDbEntity
  8
DEFPOINTS
 62
     0
100
AcDbPoint
 10
35512.06652671107
 20
7977.749051141173
 30
0.0
  0
POINT
  5
A0
330
96
100
AcDbEntity
  8
DEFPOINTS
 62
     0
100
AcDbPoint
 10
35486.31571499546
 20
7974.449051141172
 30
0.0
  0
POINT
  5
A1
330
96
100
AcDbEntity
  8
DEFPOINTS
 62
     0
100
AcDbPoint
 10
35486.31571499546
 20
7960.448975013818
 30
0.0
  0
ENDBLK
  5
A2
330
96
100
AcDbEntity
  8
0
100
AcDbBlockEnd
  0
BLOCK
  5
A7
330
A6
100
AcDbEntity
  8
0
100
AcDbBlockBegin
  2
*D8
 70
     1
 10
0.0
 20
0.0
 30
0.0
  3
*D8
  1

  0
LINE
  5
A8
330
A6
100
AcDbEntity
  8
AM_5
  6
ByBlock
100
AcDbLine
 10
35486.31571499546
 20
7972.649051141172
 30
0.0
 11
35486.31571499546
 21
7958.648975013819
 31
0.0
  0
LINE
  5
A9
330
A6
100
AcDbEntity
  8
AM_5
  6
ByBlock
100
AcDbLine
 10
35460.56652671107
 20
7975.949051141153
 30
0.0
 11
35460.56652671107
 21
7958.648975013819
 31
0.0
  0
LINE
  5
AA
330
A6
100
AcDbEntity
  8
AM_5
  6
ByBlock
100
AcDbLine
 10
35480.01571499546
 20
7960.448975013818
 30
0.0
 11
35466.86652671107
 21
7960.448975013818
 31
0.0
  0
SOLID
  5
AB
330
A6
100
AcDbEntity
  8
AM_5
100
AcDbTrace
 10
35480.01571499546
 20
7961.498975013817
 30
0.0
 11
35480.01571499546
 21
7959.398975013818
 31
0.0
 12
35486.31571499546
 22
7960.448975013818
 32
0.0
 13
35486.31571499546
 23
7960.448975013818
 33
0.0
  0
SOLID
  5
AC
330
A6
100
AcDbEntity
  8
AM_5
100
AcDbTrace
 10
35466.86652671107
 20
7961.498975013817
 30
0.0
 11
35466.86652671107
 21
7959.398975013818
 31
0.0
 12
35460.56652671107
 22
7960.448975013818
 32
0.0
 13
35460.56652671107
 23
7960.448975013818
 33
0.0
  0
MTEXT
  5
AD
330
A6
100
AcDbEntity
  8
AM_5
 62
     2
100
AcDbMText
 10
35473.44112085326
 20
7966.365584836466
 30
0.0
 40
6.299999999999999
 41
0.0
 71
     5
 72
     1
  1
25.75
 73
     1
 44
1.0
1001
ACAD
1000
MTEXTBEGIN
1070
    73
1070
     1
1070
    44
1040
1.0
1070
    74
1070
     0
1000
MTEXTEND
  0
POINT
  5
AE
330
A6
100
AcDbEntity
  8
DEFPOINTS
 62
     0
100
AcDbPoint
 10
35486.31571499546
 20
7974.449051141172
 30
0.0
  0
POINT
  5
AF
330
A6
100
AcDbEntity
  8
DEFPOINTS
 62
     0
100
AcDbPoint
 10
35460.56652671107
 20
7977.749051141152
 30
0.0
  0
POINT
  5
B0
330
A6
100
AcDbEntity
  8
DEFPOINTS
 62
     0
100
AcDbPoint
 10
35460.56652671107
 20
7960.448975013818
 30
0.0
  0
ENDBLK
  5
B1
330
A6
100
AcDbEntity
  8
0
100
AcDbBlockEnd
  0
BLOCK
  5
B4
330
B3
100
AcDbEntity
  8
0
100
AcDbBlockBegin
  2
*D9
 70
     1
 10
0.0
 20
0.0
 30
0.0
  3
*D9
  1

  0
LINE
  5
B5
330
B3
100
AcDbEntity
  8
AM_5
  6
ByBlock
100
AcDbLine
 10
35512.06652671107
 20
7975.749051141173
 30
0.0
 11
35512.06652671107
 21
7941.448975013819
 31
0.0
  0
LINE
  5
B6
330
B3
100
AcDbEntity
  8
AM_5
  6
ByBlock
100
AcDbLine
 10
35460.56652671107
 20
7975.749051141153
 30
0.0
 11
35460.56652671107
 21
7941.448975013819
 31
0.0
  0
LINE
  5
B7
330
B3
100
AcDbEntity
  8
AM_5
  6
ByBlock
100
AcDbLine
 10
35505.06652671107
 20
7943.448975013819
 30
0.0
 11
35467.56652671107
 21
7943.448975013819
 31
0.0
  0
SOLID
  5
B8
330
B3
100
AcDbEntity
  8
AM_5
100
AcDbTrace
 10
35505.06652671107
 20
7944.615641680485
 30
0.0
 11
35505.06652671107
 21
7942.282308347151
 31
0.0
 12
35512.06652671107
 22
7943.448975013819
 32
0.0
 13
35512.06652671107
 23
7943.448975013819
 33
0.0
  0
SOLID
  5
B9
330
B3
100
AcDbEntity
  8
AM_5
100
AcDbTrace
 10
35467.56652671107
 20
7944.615641680485
 30
0.0
 11
35467.56652671107
 21
7942.282308347151
 31
0.0
 12
35460.56652671107
 22
7943.448975013819
 32
0.0
 13
35460.56652671107
 23
7943.448975013819
 33
0.0
  0
MTEXT
  5
BA
330
B3
100
AcDbEntity
  8
AM_5
 62
     2
100
AcDbMText
 10
35486.31652671107
 20
7950.02298592787
 30
0.0
 40
7.0
 41
0.0
 71
     5
 72
     1
  1
51.5
 73
     1
 44
1.0
1001
ACAD
1000
MTEXTBEGIN
1070
    73
1070
     1
1070
    44
1040
1.0
1070
    74
1070
     0
1000
MTEXTEND
  0
POINT
  5
BB
330
B3
100
AcDbEntity
  8
DEFPOINTS
 62
     0
100
AcDbPoint
 10
35512.06652671107
 20
7977.749051141173
 30
0.0
  0
POINT
  5
BC
330
B3
100
AcDbEntity
  8
DEFPOINTS
 62
     0
100
AcDbPoint
 10
35460.56652671107
 20
7977.749051141152
 30
0.0
  0
POINT
  5
BD
330
B3
100
AcDbEntity
  8
DEFPOINTS
 62
     0
100
AcDbPoint
 10
35460.56652671107
 20
7943.448975013819
 30
0.0
  0
ENDBLK
  5
BE
330
B3
100
AcDbEntity
  8
0
100
AcDbBlockEnd
  0
BLOCK
  5
102
330
101
100
AcDbEntity
  8
0
100
AcDbBlockBegin
  2
*D10
 70
     1
 10
0.0
 20
0.0
 30
0.0
  3
*D10
  1

  0
LINE
  5
103
330
101
100
AcDbEntity
  8
AM_5
  6
ByBlock
100
AcDbLine
 10
35460.56652671107
 20
7708.962156077181
 30
0.0
 11
35460.56652671107
 21
7764.962156077181
 31
0.0
  0
LINE
  5
104
330
101
100
AcDbEntity
  8
AM_5
  6
ByBlock
100
AcDbLine
 10
35512.06652671107
 20
7708.962156077181
 30
0.0
 11
35512.06652671107
 21
7764.962156077181
 31
0.0
  0
LINE
  5
105
330
101
100
AcDbEntity
  8
AM_5
  6
ByBlock
100
AcDbLine
 10
35474.56652671107
 20
7760.96215607718
 30
0.0
 11
35498.06652671107
 21
7760.96215607718
 31
0.0
  0
SOLID
  5
106
330
101
100
AcDbEntity
  8
AM_5
100
AcDbTrace
 10
35474.56652671107
 20
7763.295489410514
 30
0.0
 11
35474.56652671107
 21
7758.628822743848
 31
0.0
 12
35460.56652671107
 22
7760.96215607718
 32
0.0
 13
35460.56652671107
 23
7760.96215607718
 33
0.0
  0
SOLID
  5
107
330
101
100
AcDbEntity
  8
AM_5
100
AcDbTrace
 10
35498.06652671107
 20
7763.295489410514
 30
0.0
 11
35498.06652671107
 21
7758.628822743848
 31
0.0
 12
35512.06652671107
 22
7760.96215607718
 32
0.0
 13
35512.06652671107
 23
7760.96215607718
 33
0.0
  0
MTEXT
  5
108
330
101
100
AcDbEntity
  8
AM_5
 62
     2
100
AcDbMText
 10
35486.31652671107
 20
7774.110177905284
 30
0.0
 40
14.0
 41
0.0
 71
     5
 72
     1
  1
51.5
 73
     1
 44
1.0
1001
ACAD
1000
MTEXTBEGIN
1070
    73
1070
     1
1070
    44
1040
1.0
1070
    74
1070
     0
1000
MTEXTEND
  0
POINT
  5
109
330
101
100
AcDbEntity
  8
DEFPOINTS
 62
     0
100
AcDbPoint
 10
35460.56652671107
 20
7704.962156077179
 30
0.0
  0
POINT
  5
10A
330
101
100
AcDbEntity
  8
DEFPOINTS
 62
     0
100
AcDbPoint
 10
35512.06652671107
 20
7704.962156077179
 30
0.0
  0
POINT
  5
10B
330
101
100
AcDbEntity
  8
DEFPOINTS
 62
     0
100
AcDbPoint
 10
35512.06652671107
 20
7760.96215607718
 30
0.0
  0
ENDBLK
  5
10C
330
101
100
AcDbEntity
  8
0
100
AcDbBlockEnd
  0
BLOCK
  5
10F
330
10E
100
AcDbEntity
  8
0
100
AcDbBlockBegin
  2
*D11
 70
     1
 10
0.0
 20
0.0
 30
0.0
  3
*D11
  1

  0
LINE
  5
110
330
10E
100
AcDbEntity
  8
AM_5
  6
ByBlock
100
AcDbLine
 10
35486.31652671107
 20
7708.962156077181
 30
0.0
 11
35486.31652671107
 21
7736.96215607718
 31
0.0
  0
LINE
  5
111
330
10E
100
AcDbEntity
  8
AM_5
  6
ByBlock
100
AcDbLine
 10
35512.06652671107
 20
7708.962156077181
 30
0.0
 11
35512.06652671107
 21
7736.96215607718
 31
0.0
  0
LINE
  5
112
330
10E
100
AcDbEntity
  8
AM_5
  6
ByBlock
100
AcDbLine
 10
35472.31652671107
 20
7732.96215607718
 30
0.0
 11
35458.31652671107
 21
7732.96215607718
 31
0.0
  0
LINE
  5
113
330
10E
100
AcDbEntity
  8
AM_5
  6
ByBlock
100
AcDbLine
 10
35526.06652671107
 20
7732.96215607718
 30
0.0
 11
35599.65315699757
 21
7732.96215607718
 31
0.0
  0
LINE
  5
114
330
10E
100
AcDbEntity
  8
AM_5
  6
ByBlock
100
AcDbLine
 10
35486.31652671107
 20
7732.96215607718
 30
0.0
 11
35512.06652671107
 21
7732.96215607718
 31
0.0
  0
SOLID
  5
115
330
10E
100
AcDbEntity
  8
AM_5
100
AcDbTrace
 10
35472.31652671107
 20
7735.295489410514
 30
0.0
 11
35472.31652671107
 21
7730.628822743847
 31
0.0
 12
35486.31652671107
 22
7732.96215607718
 32
0.0
 13
35486.31652671107
 23
7732.96215607718
 33
0.0
  0
SOLID
  5
116
330
10E
100
AcDbEntity
  8
AM_5
100
AcDbTrace
 10
35526.06652671107
 20
7735.295489410514
 30
0.0
 11
35526.06652671107
 21
7730.628822743847
 31
0.0
 12
35512.06652671107
 22
7732.96215607718
 32
0.0
 13
35512.06652671107
 23
7732.96215607718
 33
0.0
  0
MTEXT
  5
117
330
10E
100
AcDbEntity
  8
AM_5
 62
     2
100
AcDbMText
 10
35569.85984185431
 20
7746.110177905284
 30
0.0
 40
14.0
 41
0.0
 71
     5
 72
     1
  1
25.75
 73
     1
 44
1.0
1001
ACAD
1000
MTEXTBEGIN
1070
    73
1070
     1
1070
    44
1040
1.0
1070
    74
1070
     0
1000
MTEXTEND
  0
POINT
  5
118
330
10E
100
AcDbEntity
  8
DEFPOINTS
 62
     0
100
AcDbPoint
 10
35486.31652671107
 20
7704.962156077179
 30
0.0
  0
POINT
  5
119
330
10E
100
AcDbEntity
  8
DEFPOINTS
 62
     0
100
AcDbPoint
 10
35512.06652671107
 20
7704.962156077179
 30
0.0
  0
POINT
  5
11A
330
10E
100
AcDbEntity
  8
DEFPOINTS
 62
     0
100
AcDbPoint
 10
35512.06652671107
 20
7732.96215607718
 30
0.0
  0
ENDBLK
  5
11B
330
10E
100
AcDbEntity
  8
0
100
AcDbBlockEnd
  0
BLOCK
  5
11E
330
11D
100
AcDbEntity
  8
0
100
AcDbBlockBegin
  2
*D12
 70
     1
 10
0.0
 20
0.0
 30
0.0
  3
*D12
  1

  0
LINE
  5
11F
330
11D
100
AcDbEntity
  8
AM_5
  6
ByBlock
100
AcDbLine
 10
35456.56652671108
 20
7304.962156077184
 30
0.0
 11
35428.56652671111
 21
7304.962156077184
 31
0.0
  0
LINE
  5
120
330
11D
100
AcDbEntity
  8
AM_5
  6
ByBlock
100
AcDbLine
 10
35456.56652671108
 20
7704.962156077184
 30
0.0
 11
35428.56652671111
 21
7704.962156077184
 31
0.0
  0
LINE
  5
121
330
11D
100
AcDbEntity
  8
AM_5
  6
ByBlock
100
AcDbLine
 10
35432.56652671111
 20
7318.962156077184
 30
0.0
 11
35432.56652671111
 21
7690.962156077183
 31
0.0
  0
SOLID
  5
122
330
11D
100
AcDbEntity
  8
AM_5
100
AcDbTrace
 10
35430.23319337778
 20
7318.962156077184
 30
0.0
 11
35434.89986004445
 21
7318.962156077184
 31
0.0
 12
35432.56652671111
 22
7304.962156077184
 32
0.0
 13
35432.56652671111
 23
7304.962156077184
 33
0.0
  0
SOLID
  5
123
330
11D
100
AcDbEntity
  8
AM_5
100
AcDbTrace
 10
35430.23319337778
 20
7690.962156077183
 30
0.0
 11
35434.89986004445
 21
7690.962156077183
 31
0.0
 12
35432.56652671111
 22
7704.962156077184
 32
0.0
 13
35432.56652671111
 23
7704.962156077184
 33
0.0
  0
MTEXT
  5
124
330
11D
100
AcDbEntity
  8
AM_5
 62
     2
100
AcDbMText
 10
35419.418504883
 20
7504.962156077173
 30
0.0
 40
14.0
 41
0.0
 71
     5
 72
     1
  1
400
 11
0.0000000000000001
 21
1.0
 31
0.0
 73
     1
 44
1.0
1001
ACAD
1000
MTEXTBEGIN
1070
    73
1070
     1
1070
    44
1040
1.0
1070
    74
1070
     0
1000
MTEXTEND
  0
POINT
  5
125
330
11D
100
AcDbEntity
  8
DEFPOINTS
 62
     0
100
AcDbPoint
 10
35460.56652671108
 20
7304.962156077184
 30
0.0
  0
POINT
  5
126
330
11D
100
AcDbEntity
  8
DEFPOINTS
 62
     0
100
AcDbPoint
 10
35460.56652671108
 20
7704.962156077184
 30
0.0
  0
POINT
  5
127
330
11D
100
AcDbEntity
  8
DEFPOINTS
 62
     0
100
AcDbPoint
 10
35432.56652671111
 20
7704.962156077184
 30
0.0
  0
ENDBLK
  5
128
330
11D
100
AcDbEntity
  8
0
100
AcDbBlockEnd
  0
BLOCK
  5
134
330
133
100
AcDbEntity
  8
0
100
AcDbBlockBegin
  2
*D13
 70
     1
 10
0.0
 20
0.0
 30
0.0
  3
*D13
  1

  0
LINE
  5
135
330
133
100
AcDbEntity
  8
AM_5
  6
ByBlock
100
AcDbLine
 10
35503.31652671109
 20
7642.462156077184
 30
0.0
 11
35544.06733842685
 21
7642.462156077184
 31
0.0
  0
LINE
  5
136
330
133
100
AcDbEntity
  8
AM_5
  6
ByBlock
100
AcDbLine
 10
35516.06652671108
 20
7704.962156077184
 30
0.0
 11
35544.06733842685
 21
7704.962156077184
 31
0.0
  0
LINE
  5
137
330
133
100
AcDbEntity
  8
AM_5
  6
ByBlock
100
AcDbLine
 10
35540.06733842685
 20
7656.462156077184
 30
0.0
 11
35540.06733842685
 21
7690.962156077183
 31
0.0
  0
SOLID
  5
138
330
133
100
AcDbEntity
  8
AM_5
100
AcDbTrace
 10
35537.73400509351
 20
7656.462156077184
 30
0.0
 11
35542.40067176018
 21
7656.462156077184
 31
0.0
 12
35540.06733842685
 22
7642.462156077184
 32
0.0
 13
35540.06733842685
 23
7642.462156077184
 33
0.0
  0
SOLID
  5
139
330
133
100
AcDbEntity
  8
AM_5
100
AcDbTrace
 10
35537.73400509351
 20
7690.962156077183
 30
0.0
 11
35542.40067176018
 21
7690.962156077183
 31
0.0
 12
35540.06733842685
 22
7704.962156077184
 32
0.0
 13
35540.06733842685
 23
7704.962156077184
 33
0.0
  0
MTEXT
  5
13A
330
133
100
AcDbEntity
  8
AM_5
 62
     2
100
AcDbMText
 10
35526.91931659873
 20
7673.712156077172
 30
0.0
 40
14.0
 41
0.0
 71
     5
 72
     1
  1
62.5
 11
0.0000000000000001
 21
1.0
 31
0.0
 73
     1
 44
1.0
1001
ACAD
1000
MTEXTBEGIN
1070
    73
1070
     1
1070
    44
1040
1.0
1070
    74
1070
     0
1000
MTEXTEND
  0
POINT
  5
13B
330
133
100
AcDbEntity
  8
DEFPOINTS
 62
     0
100
AcDbPoint
 10
35499.31652671109
 20
7642.462156077184
 30
0.0
  0
POINT
  5
13C
330
133
100
AcDbEntity
  8
DEFPOINTS
 62
     0
100
AcDbPoint
 10
35512.06652671108
 20
7704.962156077184
 30
0.0
  0
POINT
  5
13D
330
133
100
AcDbEntity
  8
DEFPOINTS
 62
     0
100
AcDbPoint
 10
35540.06733842685
 20
7704.962156077184
 30
0.0
  0
ENDBLK
  5
13E
330
133
100
AcDbEntity
  8
0
100
AcDbBlockEnd
  0
BLOCK
  5
141
330
140
100
AcDbEntity
  8
0
100
AcDbBlockBegin
  2
*D14
 70
     1
 10
0.0
 20
0.0
 30
0.0
  3
*D14
  1

  0
LINE
  5
142
330
140
100
AcDbEntity
  8
AM_5
  6
ByBlock
100
AcDbLine
 10
35503.31652671109
 20
7517.462156077184
 30
0.0
 11
35544.06733842683
 21
7517.462156077184
 31
0.0
  0
LINE
  5
143
330
140
100
AcDbEntity
  8
AM_5
  6
ByBlock
100
AcDbLine
 10
35503.31652671109
 20
7642.462156077184
 30
0.0
 11
35544.06733842683
 21
7642.462156077184
 31
0.0
  0
LINE
  5
144
330
140
100
AcDbEntity
  8
AM_5
  6
ByBlock
100
AcDbLine
 10
35540.06733842683
 20
7531.462156077184
 30
0.0
 11
35540.06733842683
 21
7628.462156077183
 31
0.0
  0
SOLID
  5
145
330
140
100
AcDbEntity
  8
AM_5
100
AcDbTrace
 10
35537.7340050935
 20
7531.462156077184
 30
0.0
 11
35542.40067176017
 21
7531.462156077184
 31
0.0
 12
35540.06733842683
 22
7517.462156077184
 32
0.0
 13
35540.06733842683
 23
7517.462156077184
 33
0.0
  0
SOLID
  5
146
330
140
100
AcDbEntity
  8
AM_5
100
AcDbTrace
 10
35537.7340050935
 20
7628.462156077183
 30
0.0
 11
35542.40067176017
 21
7628.462156077183
 31
0.0
 12
35540.06733842683
 22
7642.462156077184
 32
0.0
 13
35540.06733842683
 23
7642.462156077184
 33
0.0
  0
MTEXT
  5
147
330
140
100
AcDbEntity
  8
AM_5
 62
     2
100
AcDbMText
 10
35526.91931659872
 20
7579.962156077172
 30
0.0
 40
14.0
 41
0.0
 71
     5
 72
     1
  1
125
 11
0.0000000000000001
 21
1.0
 31
0.0
 73
     1
 44
1.0
1001
ACAD
1000
MTEXTBEGIN
1070
    73
1070
     1
1070
    44
1040
1.0
1070
    74
1070
     0
1000
MTEXTEND
  0
POINT
  5
148
330
140
100
AcDbEntity
  8
DEFPOINTS
 62
     0
100
AcDbPoint
 10
35499.31652671109
 20
7517.462156077184
 30
0.0
  0
POINT
  5
149
330
140
100
AcDbEntity
  8
DEFPOINTS
 62
     0
100
AcDbPoint
 10
35499.31652671109
 20
7642.462156077184
 30
0.0
  0
POINT
  5
14A
330
140
100
AcDbEntity
  8
DEFPOINTS
 62
     0
100
AcDbPoint
 10
35540.06733842683
 20
7642.462156077184
 30
0.0
  0
ENDBLK
  5
14B
330
140
100
AcDbEntity
  8
0
100
AcDbBlockEnd
  0
BLOCK
  5
14E
330
14D
100
AcDbEntity
  8
0
100
AcDbBlockBegin
  2
*D15
 70
     1
 10
0.0
 20
0.0
 30
0.0
  3
*D15
  1

  0
LINE
  5
14F
330
14D
100
AcDbEntity
  8
AM_5
  6
ByBlock
100
AcDbLine
 10
35503.31652671109
 20
7392.462156077184
 30
0.0
 11
35544.06733842686
 21
7392.462156077184
 31
0.0
  0
LINE
  5
150
330
14D
100
AcDbEntity
  8
AM_5
  6
ByBlock
100
AcDbLine
 10
35503.31652671109
 20
7517.462156077184
 30
0.0
 11
35544.06733842686
 21
7517.462156077184
 31
0.0
  0
LINE
  5
151
330
14D
100
AcDbEntity
  8
AM_5
  6
ByBlock
100
AcDbLine
 10
35540.06733842686
 20
7406.462156077184
 30
0.0
 11
35540.06733842686
 21
7503.462156077183
 31
0.0
  0
SOLID
  5
152
330
14D
100
AcDbEntity
  8
AM_5
100
AcDbTrace
 10
35537.73400509352
 20
7406.462156077184
 30
0.0
 11
35542.40067176019
 21
7406.462156077184
 31
0.0
 12
35540.06733842686
 22
7392.462156077184
 32
0.0
 13
35540.06733842686
 23
7392.462156077184
 33
0.0
  0
SOLID
  5
153
330
14D
100
AcDbEntity
  8
AM_5
100
AcDbTrace
 10
35537.73400509352
 20
7503.462156077183
 30
0.0
 11
35542.40067176019
 21
7503.462156077183
 31
0.0
 12
35540.06733842686
 22
7517.462156077184
 32
0.0
 13
35540.06733842686
 23
7517.462156077184
 33
0.0
  0
MTEXT
  5
154
330
14D
100
AcDbEntity
  8
AM_5
 62
     2
100
AcDbMText
 10
35526.91931659875
 20
7454.962156077172
 30
0.0
 40
14.0
 41
0.0
 71
     5
 72
     1
  1
125
 11
0.0000000000000001
 21
1.0
 31
0.0
 73
     1
 44
1.0
1001
ACAD
1000
MTEXTBEGIN
1070
    73
1070
     1
1070
    44
1040
1.0
1070
    74
1070
     0
1000
MTEXTEND
  0
POINT
  5
155
330
14D
100
AcDbEntity
  8
DEFPOINTS
 62
     0
100
AcDbPoint
 10
35499.31652671109
 20
7392.462156077184
 30
0.0
  0
POINT
  5
156
330
14D
100
AcDbEntity
  8
DEFPOINTS
 62
     0
100
AcDbPoint
 10
35499.31652671109
 20
7517.462156077184
 30
0.0
  0
POINT
  5
157
330
14D
100
AcDbEntity
  8
DEFPOINTS
 62
     0
100
AcDbPoint
 10
35540.06733842686
 20
7517.462156077184
 30
0.0
  0
ENDBLK
  5
158
330
14D
100
AcDbEntity
  8
0
100
AcDbBlockEnd
  0
BLOCK
  5
161
330
160
100
AcDbEntity
  8
0
100
AcDbBlockBegin
  2
*D16
 70
     1
 10
0.0
 20
0.0
 30
0.0
  3
*D16
  1

  0
LINE
  5
162
330
160
100
AcDbEntity
  8
AM_5
  6
ByBlock
100
AcDbLine
 10
35864.56652671108
 20
7304.962156077174
 30
0.0
 11
35920.56652671108
 21
7304.962156077174
 31
0.0
  0
LINE
  5
163
330
160
100
AcDbEntity
  8
AM_5
  6
ByBlock
100
AcDbLine
 10
35864.56652671108
 20
7356.462156077174
 30
0.0
 11
35920.56652671108
 21
7356.462156077174
 31
0.0
  0
LINE
  5
164
330
160
100
AcDbEntity
  8
AM_5
  6
ByBlock
100
AcDbLine
 10
35916.56652671108
 20
7318.962156077174
 30
0.0
 11
35916.56652671108
 21
7342.462156077174
 31
0.0
  0
SOLID
  5
165
330
160
100
AcDbEntity
  8
AM_5
100
AcDbTrace
 10
35914.23319337775
 20
7318.962156077174
 30
0.0
 11
35918.89986004442
 21
7318.962156077174
 31
0.0
 12
35916.56652671108
 22
7304.962156077174
 32
0.0
 13
35916.56652671108
 23
7304.962156077174
 33
0.0
  0
SOLID
  5
166
330
160
100
AcDbEntity
  8
AM_5
100
AcDbTrace
 10
35914.23319337775
 20
7342.462156077174
 30
0.0
 11
35918.89986004442
 21
7342.462156077174
 31
0.0
 12
35916.56652671108
 22
7356.462156077174
 32
0.0
 13
35916.56652671108
 23
7356.462156077174
 33
0.0
  0
MTEXT
  5
167
330
160
100
AcDbEntity
  8
AM_5
 62
     2
100
AcDbMText
 10
35903.41850488297
 20
7330.712156077161
 30
0.0
 40
14.0
 41
0.0
 71
     5
 72
     1
  1
51.5
 11
0.0000000000000001
 21
1.0
 31
0.0
 73
     1
 44
1.0
1001
ACAD
1000
MTEXTBEGIN
1070
    73
1070
     1
1070
    44
1040
1.0
1070
    74
1070
     0
1000
MTEXTEND
  0
POINT
  5
168
330
160
100
AcDbEntity
  8
DEFPOINTS
 62
     0
100
AcDbPoint
 10
35860.56652671108
 20
7304.962156077174
 30
0.0
  0
POINT
  5
169
330
160
100
AcDbEntity
  8
DEFPOINTS
 62
     0
100
AcDbPoint
 10
35860.56652671108
 20
7356.462156077174
 30
0.0
  0
POINT
  5
16A
330
160
100
AcDbEntity
  8
DEFPOINTS
 62
     0
100
AcDbPoint
 10
35916.56652671108
 20
7356.462156077174
 30
0.0
  0
ENDBLK
  5
16B
330
160
100
AcDbEntity
  8
0
100
AcDbBlockEnd
  0
BLOCK
  5
16E
330
16D
100
AcDbEntity
  8
0
100
AcDbBlockBegin
  2
*D17
 70
     1
 10
0.0
 20
0.0
 30
0.0
  3
*D17
  1

  0
LINE
  5
16F
330
16D
100
AcDbEntity
  8
AM_5
  6
ByBlock
100
AcDbLine
 10
35864.56652671108
 20
7330.712156077173
 30
0.0
 11
35892.56652671108
 21
7330.712156077173
 31
0.0
  0
LINE
  5
170
330
16D
100
AcDbEntity
  8
AM_5
  6
ByBlock
100
AcDbLine
 10
35864.56652671108
 20
7356.462156077174
 30
0.0
 11
35892.56652671108
 21
7356.462156077174
 31
0.0
  0
LINE
  5
171
330
16D
100
AcDbEntity
  8
AM_5
  6
ByBlock
100
AcDbLine
 10
35888.56652671108
 20
7316.712156077175
 30
0.0
 11
35888.56652671108
 21
7302.712156077174
 31
0.0
  0
LINE
  5
172
330
16D
100
AcDbEntity
  8
AM_5
  6
ByBlock
100
AcDbLine
 10
35888.56652671108
 20
7370.462156077174
 30
0.0
 11
35888.56652671108
 21
7444.048786363667
 31
0.0
  0
LINE
  5
173
330
16D
100
AcDbEntity
  8
AM_5
  6
ByBlock
100
AcDbLine
 10
35888.56652671108
 20
7330.712156077173
 30
0.0
 11
35888.56652671108
 21
7356.462156077174
 31
0.0
  0
SOLID
  5
174
330
16D
100
AcDbEntity
  8
AM_5
100
AcDbTrace
 10
35886.23319337775
 20
7316.712156077175
 30
0.0
 11
35890.89986004442
 21
7316.712156077175
 31
0.0
 12
35888.56652671108
 22
7330.712156077173
 32
0.0
 13
35888.56652671108
 23
7330.712156077173
 33
0.0
  0
SOLID
  5
175
330
16D
100
AcDbEntity
  8
AM_5
100
AcDbTrace
 10
35886.23319337775
 20
7370.462156077174
 30
0.0
 11
35890.89986004442
 21
7370.462156077174
 31
0.0
 12
35888.56652671108
 22
7356.462156077174
 32
0.0
 13
35888.56652671108
 23
7356.462156077174
 33
0.0
  0
MTEXT
  5
176
330
16D
100
AcDbEntity
  8
AM_5
 62
     2
100
AcDbMText
 10
35875.41850488297
 20
7414.255471220409
 30
0.0
 40
14.0
 41
0.0
 71
     5
 72
     1
  1
25.75
 11
0.0000000000000001
 21
1.0
 31
0.0
 73
     1
 44
1.0
1001
ACAD
1000
MTEXTBEGIN
1070
    73
1070
     1
1070
    44
1040
1.0
1070
    74
1070
     0
1000
MTEXTEND
  0
POINT
  5
177
330
16D
100
AcDbEntity
  8
DEFPOINTS
 62
     0
100
AcDbPoint
 10
35860.56652671108
 20
7330.712156077173
 30
0.0
  0
POINT
  5
178
330
16D
100
AcDbEntity
  8
DEFPOINTS
 62
     0
100
AcDbPoint
 10
35860.56652671108
 20
7356.462156077174
 30
0.0
  0
POINT
  5
179
330
16D
100
AcDbEntity
  8
DEFPOINTS
 62
     0
100
AcDbPoint
 10
35888.56652671108
 20
7356.462156077174
 30
0.0
  0
ENDBLK
  5
17A
330
16D
100
AcDbEntity
  8
0
100
AcDbBlockEnd
  0
BLOCK
  5
17D
330
17C
100
AcDbEntity
  8
0
100
AcDbBlockBegin
  2
*D18
 70
     1
 10
0.0
 20
0.0
 30
0.0
  3
*D18
  1

  0
LINE
  5
17E
330
17C
100
AcDbEntity
  8
AM_5
  6
ByBlock
100
AcDbLine
 10
35460.56652671107
 20
7300.962156077178
 30
0.0
 11
35460.56652671107
 21
7272.962156077229
 31
0.0
  0
LINE
  5
17F
330
17C
100
AcDbEntity
  8
AM_5
  6
ByBlock
100
AcDbLine
 10
35860.56652671107
 20
7300.96215607717
 30
0.0
 11
35860.56652671107
 21
7272.962156077229
 31
0.0
  0
LINE
  5
180
330
17C
100
AcDbEntity
  8
AM_5
  6
ByBlock
100
AcDbLine
 10
35474.56652671107
 20
7276.962156077228
 30
0.0
 11
35846.56652671107
 21
7276.962156077228
 31
0.0
  0
SOLID
  5
181
330
17C
100
AcDbEntity
  8
AM_5
100
AcDbTrace
 10
35474.56652671107
 20
7279.295489410562
 30
0.0
 11
35474.56652671107
 21
7274.628822743895
 31
0.0
 12
35460.56652671107
 22
7276.962156077228
 32
0.0
 13
35460.56652671107
 23
7276.962156077228
 33
0.0
  0
SOLID
  5
182
330
17C
100
AcDbEntity
  8
AM_5
100
AcDbTrace
 10
35846.56652671107
 20
7279.295489410562
 30
0.0
 11
35846.56652671107
 21
7274.628822743895
 31
0.0
 12
35860.56652671107
 22
7276.962156077228
 32
0.0
 13
35860.56652671107
 23
7276.962156077228
 33
0.0
  0
MTEXT
  5
183
330
17C
100
AcDbEntity
  8
AM_5
 62
     2
100
AcDbMText
 10
35660.56652671107
 20
7290.110177905332
 30
0.0
 40
14.0
 41
0.0
 71
     5
 72
     1
  1
400
 73
     1
 44
1.0
1001
ACAD
1000
MTEXTBEGIN
1070
    73
1070
     1
1070
    44
1040
1.0
1070
    74
1070
     0
1000
MTEXTEND
  0
POINT
  5
184
330
17C
100
AcDbEntity
  8
DEFPOINTS
 62
     0
100
AcDbPoint
 10
35460.56652671107
 20
7304.962156077178
 30
0.0
  0
POINT
  5
185
330
17C
100
AcDbEntity
  8
DEFPOINTS
 62
     0
100
AcDbPoint
 10
35860.56652671107
 20
7304.96215607717
 30
0.0
  0
POINT
  5
186
330
17C
100
AcDbEntity
  8
DEFPOINTS
 62
     0
100
AcDbPoint
 10
35860.56652671107
 20
7276.962156077228
 30
0.0
  0
ENDBLK
  5
187
330
17C
100
AcDbEntity
  8
0
100
AcDbBlockEnd
  0
BLOCK
  5
193
330
192
100
AcDbEntity
  8
0
100
AcDbBlockBegin
  2
*D19
 70
     1
 10
0.0
 20
0.0
 30
0.0
  3
*D19
  1

  0
LINE
  5
194
330
192
100
AcDbEntity
  8
AM_5
  6
ByBlock
100
AcDbLine
 10
35798.06652671107
 20
7347.712156077178
 30
0.0
 11
35798.06652671107
 21
7388.733238063203
 31
0.0
  0
LINE
  5
195
330
192
100
AcDbEntity
  8
AM_5
  6
ByBlock
100
AcDbLine
 10
35860.56652671107
 20
7360.46215607717
 30
0.0
 11
35860.56652671107
 21
7388.733238063203
 31
0.0
  0
LINE
  5
196
330
192
100
AcDbEntity
  8
AM_5
  6
ByBlock
100
AcDbLine
 10
35812.06652671107
 20
7384.733238063202
 30
0.0
 11
35846.56652671107
 21
7384.733238063202
 31
0.0
  0
SOLID
  5
197
330
192
100
AcDbEntity
  8
AM_5
100
AcDbTrace
 10
35812.06652671107
 20
7387.066571396535
 30
0.0
 11
35812.06652671107
 21
7382.39990472987
 31
0.0
 12
35798.06652671107
 22
7384.733238063202
 32
0.0
 13
35798.06652671107
 23
7384.733238063202
 33
0.0
  0
SOLID
  5
198
330
192
100
AcDbEntity
  8
AM_5
100
AcDbTrace
 10
35846.56652671107
 20
7387.066571396535
 30
0.0
 11
35846.56652671107
 21
7382.39990472987
 31
0.0
 12
35860.56652671107
 22
7384.733238063202
 32
0.0
 13
35860.56652671107
 23
7384.733238063202
 33
0.0
  0
MTEXT
  5
199
330
192
100
AcDbEntity
  8
AM_5
 62
     2
100
AcDbMText
 10
35829.31652671107
 20
7397.881259891306
 30
0.0
 40
14.0
 41
0.0
 71
     5
 72
     1
  1
62.5
 73
     1
 44
1.0
1001
ACAD
1000
MTEXTBEGIN
1070
    73
1070
     1
1070
    44
1040
1.0
1070
    74
1070
     0
1000
MTEXTEND
  0
POINT
  5
19A
330
192
100
AcDbEntity
  8
DEFPOINTS
 62
     0
100
AcDbPoint
 10
35798.06652671107
 20
7343.712156077177
 30
0.0
  0
POINT
  5
19B
330
192
100
AcDbEntity
  8
DEFPOINTS
 62
     0
100
AcDbPoint
 10
35860.56652671107
 20
7356.46215607717
 30
0.0
  0
POINT
  5
19C
330
192
100
AcDbEntity
  8
DEFPOINTS
 62
     0
100
AcDbPoint
 10
35860.56652671107
 20
7384.733238063202
 30
0.0
  0
ENDBLK
  5
19D
330
192
100
AcDbEntity
  8
0
100
AcDbBlockEnd
  0
BLOCK
  5
1A0
330
19F
100
AcDbEntity
  8
0
100
AcDbBlockBegin
  2
*D20
 70
     1
 10
0.0
 20
0.0
 30
0.0
  3
*D20
  1

  0
LINE
  5
1A1
330
19F
100
AcDbEntity
  8
AM_5
  6
ByBlock
100
AcDbLine
 10
35673.06652671107
 20
7347.712156077185
 30
0.0
 11
35673.06652671107
 21
7388.462967792934
 31
0.0
  0
LINE
  5
1A2
330
19F
100
AcDbEntity
  8
AM_5
  6
ByBlock
100
AcDbLine
 10
35798.06652671107
 20
7347.712156077178
 30
0.0
 11
35798.06652671107
 21
7388.462967792934
 31
0.0
  0
LINE
  5
1A3
330
19F
100
AcDbEntity
  8
AM_5
  6
ByBlock
100
AcDbLine
 10
35687.06652671107
 20
7384.462967792933
 30
0.0
 11
35784.06652671107
 21
7384.462967792933
 31
0.0
  0
SOLID
  5
1A4
330
19F
100
AcDbEntity
  8
AM_5
100
AcDbTrace
 10
35687.06652671107
 20
7386.796301126266
 30
0.0
 11
35687.06652671107
 21
7382.129634459601
 31
0.0
 12
35673.06652671107
 22
7384.462967792933
 32
0.0
 13
35673.06652671107
 23
7384.462967792933
 33
0.0
  0
SOLID
  5
1A5
330
19F
100
AcDbEntity
  8
AM_5
100
AcDbTrace
 10
35784.06652671107
 20
7386.796301126266
 30
0.0
 11
35784.06652671107
 21
7382.129634459601
 31
0.0
 12
35798.06652671107
 22
7384.462967792933
 32
0.0
 13
35798.06652671107
 23
7384.462967792933
 33
0.0
  0
MTEXT
  5
1A6
330
19F
100
AcDbEntity
  8
AM_5
 62
     2
100
AcDbMText
 10
35735.56652671107
 20
7397.610989621037
 30
0.0
 40
14.0
 41
0.0
 71
     5
 72
     1
  1
125
 73
     1
 44
1.0
1001
ACAD
1000
MTEXTBEGIN
1070
    73
1070
     1
1070
    44
1040
1.0
1070
    74
1070
     0
1000
MTEXTEND
  0
POINT
  5
1A7
330
19F
100
AcDbEntity
  8
DEFPOINTS
 62
     0
100
AcDbPoint
 10
35673.06652671107
 20
7343.712156077184
 30
0.0
  0
POINT
  5
1A8
330
19F
100
AcDbEntity
  8
DEFPOINTS
 62
     0
100
AcDbPoint
 10
35798.06652671107
 20
7343.712156077177
 30
0.0
  0
POINT
  5
1A9
330
19F
100
AcDbEntity
  8
DEFPOINTS
 62
     0
100
AcDbPoint
 10
35798.06652671107
 20
7384.462967792933
 30
0.0
  0
ENDBLK
  5
1AA
330
19F
100
AcDbEntity
  8
0
100
AcDbBlockEnd
  0
BLOCK
  5
1AD
330
1AC
100
AcDbEntity
  8
0
100
AcDbBlockBegin
  2
*D21
 70
     1
 10
0.0
 20
0.0
 30
0.0
  3
*D21
  1

  0
LINE
  5
1AE
330
1AC
100
AcDbEntity
  8
AM_5
  6
ByBlock
100
AcDbLine
 10
35548.06652671107
 20
7347.712156077185
 30
0.0
 11
35548.06652671107
 21
7388.462967792969
 31
0.0
  0
LINE
  5
1AF
330
1AC
100
AcDbEntity
  8
AM_5
  6
ByBlock
100
AcDbLine
 10
35673.06652671107
 20
7347.712156077185
 30
0.0
 11
35673.06652671107
 21
7388.462967792969
 31
0.0
  0
LINE
  5
1B0
330
1AC
100
AcDbEntity
  8
AM_5
  6
ByBlock
100
AcDbLine
 10
35562.06652671107
 20
7384.46296779297
 30
0.0
 11
35659.06652671107
 21
7384.46296779297
 31
0.0
  0
SOLID
  5
1B1
330
1AC
100
AcDbEntity
  8
AM_5
100
AcDbTrace
 10
35562.06652671107
 20
7386.796301126302
 30
0.0
 11
35562.06652671107
 21
7382.129634459636
 31
0.0
 12
35548.06652671107
 22
7384.46296779297
 32
0.0
 13
35548.06652671107
 23
7384.46296779297
 33
0.0
  0
SOLID
  5
1B2
330
1AC
100
AcDbEntity
  8
AM_5
100
AcDbTrace
 10
35659.06652671107
 20
7386.796301126302
 30
0.0
 11
35659.06652671107
 21
7382.129634459636
 31
0.0
 12
35673.06652671107
 22
7384.46296779297
 32
0.0
 13
35673.06652671107
 23
7384.46296779297
 33
0.0
  0
MTEXT
  5
1B3
330
1AC
100
AcDbEntity
  8
AM_5
 62
     2
100
AcDbMText
 10
35610.56652671107
 20
7397.610989621075
 30
0.0
 40
14.0
 41
0.0
 71
     5
 72
     1
  1
125
 73
     1
 44
1.0
1001
ACAD
1000
MTEXTBEGIN
1070
    73
1070
     1
1070
    44
1040
1.0
1070
    74
1070
     0
1000
MTEXTEND
  0
POINT
  5
1B4
330
1AC
100
AcDbEntity
  8
DEFPOINTS
 62
     0
100
AcDbPoint
 10
35548.06652671107
 20
7343.712156077184
 30
0.0
  0
POINT
  5
1B5
330
1AC
100
AcDbEntity
  8
DEFPOINTS
 62
     0
100
AcDbPoint
 10
35673.06652671107
 20
7343.712156077184
 30
0.0
  0
POINT
  5
1B6
330
1AC
100
AcDbEntity
  8
DEFPOINTS
 62
     0
100
AcDbPoint
 10
35673.06652671107
 20
7384.46296779297
 30
0.0
  0
ENDBLK
  5
1B7
330
1AC
100
AcDbEntity
  8
0
100
AcDbBlockEnd
  0
BLOCK
  5
1C9
330
1C8
100
AcDbEntity
  8
0
100
AcDbBlockBegin
  2
Copyright_STEMPEL
 70
     0
 10
0.0
 20
0.0
 30
0.0
  3
Copyright_STEMPEL
  1

  0
LWPOLYLINE
  5
1CA
330
1C8
100
AcDbEntity
  8
DEFPOINTS
 62
     5
100
AcDbPolyline
 90
        4
 70
     1
 43
0.0
 10
0.0
 20
0.0
 10
1202.677593405797
 20
0.0
 10
1202.726711620808
 20
262.8636621728074
 10
-0.0491182150117311
 20
262.8636621728074
  0
LINE
  5
1CB
330
1C8
100
AcDbEntity
  8
DEFPOINTS
 62
     5
100
AcDbLine
 10
526.7915803193163
 20
262.8636621728074
 30
0.0
 11
526.7915803193163
 21
0.0
 31
0.0
  0
MTEXT
  5
1CC
102
{ACAD_XDICTIONARY
360
1CD
102
}
330
1C8
100
AcDbEntity
  8
DEFPOINTS
 62
     5
100
AcDbMText
 10
536.8054341163797
 20
178.9138493061764
 30
0.0
 40
21.02909297382428
 41
282.9929776334785
 71
     1
 72
     5
  1
{\fCentury Gothic|b0|i0|c0|p34;Industriestra\U+00DFe 7-10\P74740 Adelsheim\PTel.: 06291-6259-0\PFax: 06291-6259-11\Pwww.glassline.de}
 73
     1
 44
1.0
1001
AcDbBlockRepETag
1070
     1
1071
        4
1005
0
1001
ACAD
1000
MTEXTBEGIN
1070
    73
1070
     1
1070
    44
1040
1.0
1070
    74
1070
     0
1000
MTEXTEND
1000
ACAD_MTEXT_DEFINED_HEIGHT_BEGIN
1070
    46
1040
143.7440021806846
1000
ACAD_MTEXT_DEFINED_HEIGHT_END
  0
IMAGE
  5
1CF
330
1C8
100
AcDbEntity
  8
DEFPOINTS
 92
      140
310
8C00000001000000840000000600000005000000F8FC0F2855768040001A6BBEAF9D67400000000000000000F8FC0F2855768040D02F6D8FD16D704000000000000000007AC75832366A8B40D02F6D8FD16D704000000000000000007AC75832366A8B40001A6BBEAF9D67400000000000000000F8FC0F2855768040001A6B
310
BEAF9D67400000000000000000
100
AcDbRasterImage
 90
        0
 10
526.7915803193163
 20
188.9277031032397
 30
0.0
 11
0.7109226833612007
 21
0.0
 31
0.0
 12
0.0
 22
0.7109226833612007
 32
0.0
 13
493.0
 23
104.0
340
1D0
 70
     7
280
     0
281
    50
282
    50
283
     0
360
1D2
 71
     1
 91
        2
 14
-0.5
 24
-0.5
 14
492.4999999999999
 24
103.5
1001
AcDbBlockRepETag
1070
     1
1071
       21
1005
0
  0
IMAGE
  5
1D4
330
1C8
100
AcDbEntity
  8
DEFPOINTS
 62
     5
 92
      140
310
8C0000000100000084000000060000000500000038107886E75E8D400000000000000000000000000000000038107886E75E8D40C02F6D8FD16D704000000000000000000C541727E8CA9240C02F6D8FD16D704000000000000000000C541727E8CA92400000000000000000000000000000000038107886E75E8D40000000
310
00000000000000000000000000
100
AcDbRasterImage
 90
        0
 10
939.8630494480086
 20
0.0
 30
0.0
 11
0.7965565520387993
 21
0.0
 31
0.0
 12
0.0
 22
0.7965565520387993
 32
0.0
 13
330.0
 23
330.0
340
1D5
 70
     7
280
     0
281
    50
282
    50
283
     0
360
1D6
 71
     1
 91
        2
 14
-0.5
 24
-0.5
 14
329.5
 24
329.5
1001
AcDbBlockRepETag
1070
     1
1071
       64
1005
0
  0
MTEXT
  5
1D7
102
{ACAD_XDICTIONARY
360
1D8
102
}
330
1C8
100
AcDbEntity
  8
DEFPOINTS
 62
     5
100
AcDbMText
 10
10.02435788320417
 20
252.8636621728074
 30
0.0
 40
14.0
 41
751.0390347794382
 71
     1
 72
     5
  3
{\fCentury Gothic|b0|i0|c0|p34;\C256;Alle Rechte vorbehalten, einschlie\U+00DFlich\PVervielf\U+00E4ltigung, Einlesen auf elektronischen\PDatentr\U+00E4gern und die Weitergabe an dritte\PPersonen nur nach ausdr\U+00FCcklicher Genehmigung\Pder Firma GL
  1
ASSLINE GmbH.\P\PAll rights reserved, including duplication, \Pimport on electronic data carries and \Pdisclosure to third parties only with \Pthe explicit permission of GLASSLINE GmbH.}
 73
     1
 44
1.0
1001
ACAD
1000
MTEXTBEGIN
1070
    73
1070
     1
1070
    44
1040
1.0
1070
    74
1070
     0
1000
MTEXTEND
  0
ENDBLK
  5
1D9
330
1C8
100
AcDbEntity
  8
0
100
AcDbBlockEnd
  0
ENDSEC
  0
SECTION
  2
ENTITIES
  0
LWPOLYLINE
  5
6A
330
2
100
AcDbEntity
  8
DEFPOINTS
100
AcDbPolyline
 90
        4
 70
     1
 43
0.0
 10
35373.77654909316
 20
8269.639204691896
 10
35948.26678736991
 20
8269.639204691896
 10
35948.26678736991
 20
7143.965539815083
 10
35373.77654909316
 20
7143.965539815083
1001
GENIUS_GENREC_14
1002
{
1000
PYDIR
1011
35422.75703756817
1021
7143.965539815083
1031
0.0
1002
}
1002
{
1000
PXDIR
1011
35998.26678736991
1021
8269.639204691896
1031
0.0
1002
}
1002
{
1000
PORI
1011
35422.75703756817
1021
8269.639204691896
1031
0.0
1002
}
1002
{
1000
PINS
1011
35422.75703756817
1021
8269.639204691896
1031
0.0
1002
}
1002
{
1000
PINS2
1011
35998.26678736991
1021
7143.965539815083
1031
0.0
1002
}
1002
{
1000
C
1070
     1
1002
}
1001
GENIUS_GENODEF_13
1002
{
1000
HIER
1070
     0
1002
}
1002
{
1000
MANEDIT
1070
     0
1002
}
1002
{
1000
NOSEL
1070
     0
1002
}
1002
{
1000
BEHIND
1070
     0
1002
}
1002
{
1000
OTHER
1070
     0
1002
}
1002
{
1000
REACTOR
1002
}
1001
GENIUS_GENOBJ-N-REC_13
1002
{
1000
OWNER
1000
GEN
1002
}
  0
MTEXT
  5
6E
102
{ACAD_XDICTIONARY
360
260
102
}
330
2
100
AcDbEntity
  8
DEFPOINTS
100
AcDbMText
 10
35388.74836457538
 20
8252.279884210894
 30
0.0
 40
20.0
 41
555.8235716177769
 71
     1
 72
     5
  1
BALARDO hybrid lite, Top 4\PAu\U+00DFenecke ({\fISOCPEUR|b0|i0|c0|p34;outer corner)}
 73
     1
 44
1.0
1001
ACAD
1000
ACAD_MTEXT_COLUMN_INFO_BEGIN
1070
    75
1070
     2
1070
    79
1070
     0
1070
    76
1070
     1
1070
    78
1070
     0
1070
    48
1040
555.8235716177769
1070
    49
1040
12.5
1070
    50
1070
     1
1040
0.0
1000
ACAD_MTEXT_COLUMN_INFO_END
1000
MTEXTBEGIN
1070
    73
1070
     1
1070
    44
1040
1.0
1070
    74
1070
     0
1000
MTEXTEND
  0
INSERT
  5
6F
330
2
100
AcDbEntity
  8
0
100
AcDbBlockReference
  2
BHL-0-T4(S)
 10
35486.31652671108
 20
7985.400518927893
 30
0.0
  0
DIMENSION
  5
93
330
2
100
AcDbEntity
  8
AM_5
100
AcDbDimension
  2
*D7
 10
35486.31571499546
 20
7960.448975013818
 30
0.0
 11
35499.19112085326
 21
7960.448975013818
 31
0.0
 70
   128
  1
<>
 71
     5
 42
25.75081171561033
  3
AM_DIN$0
100
AcDbAlignedDimension
 13
35512.06652671107
 23
7977.749051141173
 33
0.0
 14
35486.31571499546
 24
7974.449051141172
 34
0.0
 50
180.0
100
AcDbRotatedDimension
1001
ACAD_DSTYLE_DIMINSPECT
1070
   396
1000
100%
1070
   395
1000

1070
   394
1070
    33
1070
   393
1070
     0
1001
ACAD
1000
DSTYLE
1002
{
1070
    40
1040
1.8
1002
}
  0
DIMENSION
  5
A5
330
2
100
AcDbEntity
  8
AM_5
100
AcDbDimension
  2
*D8
 10
35460.56652671107
 20
7960.448975013818
 30
0.0
 11
35473.44112085326
 21
7960.448975013818
 31
0.0
 70
   128
 71
     5
 42
25.74918828438967
  3
AM_DIN$0
100
AcDbAlignedDimension
 13
35486.31571499546
 23
7974.449051141172
 33
0.0
 14
35460.56652671107
 24
7977.749051141152
 34
0.0
 50
180.0
100
AcDbRotatedDimension
1001
ACAD
1000
DSTYLE
1002
{
1070
    40
1040
1.8
1002
}
1001
ACAD_DSTYLE_DIMINSPECT
1070
   396
1000
100%
1070
   395
1000

1070
   394
1070
    33
1070
   393
1070
     0
  0
DIMENSION
  5
B2
330
2
100
AcDbEntity
  8
AM_5
100
AcDbDimension
  2
*D9
 10
35460.56652671107
 20
7943.448975013819
 30
0.0
 11
35486.31652671107
 21
7950.02298592787
 31
0.0
 71
     5
 42
51.5
  3
AM_DIN$0
100
AcDbAlignedDimension
 13
35512.06652671107
 23
7977.749051141173
 33
0.0
 14
35460.56652671107
 24
7977.749051141152
 34
0.0
 50
180.0
100
AcDbRotatedDimension
1001
ACAD_DSTYLE_DIMINSPECT
1070
   396
1000
100%
1070
   395
1000

1070
   394
1070
    33
1070
   393
1070
     0
1001
ACAD
1000
DSTYLE
1002
{
1070
    40
1040
2.0
1002
}
  0
DIMENSION
  5
BF
330
2
100
AcDbEntity
  8
AM_5
100
AcDbDimension
  2
*D3
 10
35491.81588190123
 20
7994.168892406498
 30
0.0
 11
35486.31639938236
 21
7994.168892406498
 31
0.0
 70
   128
  1
%%C<>
 71
     5
 42
10.99896503776108
  3
AM_DIN$0
100
AcDbAlignedDimension
 13
35480.81691686347
 23
7980.455386083598
 33
0.0
 14
35491.81588190123
 24
7980.455131426156
 34
0.0
100
AcDbRotatedDimension
1001
ACAD_DSTYLE_DIMINSPECT
1070
   396
1000
100%
1070
   395
1000

1070
   394
1070
    33
1070
   393
1070
     0
1001
ACAD
1000
DSTYLE
1002
{
1070
    40
1040
2.0
1070
    69
1070
     1
1002
}
  0
DIMENSION
  5
CE
330
2
100
AcDbEntity
  8
AM_5
100
AcDbDimension
  2
*D4
 10
35495.81652671108
 20
8010.281130589882
 30
0.0
 11
35486.31652671108
 21
8010.281130589882
 31
0.0
 70
   128
  1
%%C<>
 71
     5
 42
19.0
  3
AM_DIN$0
100
AcDbAlignedDimension
 13
35476.81652671108
 23
7984.455776236003
 33
0.0
 14
35495.81652671108
 24
7984.455776236003
 34
0.0
100
AcDbRotatedDimension
1001
ACAD_DSTYLE_DIMINSPECT
1070
   396
1000
100%
1070
   395
1000

1070
   394
1070
    33
1070
   393
1070
     0
1001
ACAD
1000
DSTYLE
1002
{
1070
    40
1040
2.0
1070
    69
1070
     1
1070
   271
1070
     0
1002
}
  0
DIMENSION
  5
DD
330
2
100
AcDbEntity
  8
AM_5
100
AcDbDimension
  2
*D5
 10
35495.41652671107
 20
7984.055776236001
 30
0.0
 11
35486.31652671109
 21
8032.783310651302
 31
0.0
 70
     2
  1
<>
 71
     5
 42
1.570796326793399
  3
AM_DIN$2
100
AcDb2LineAngularDimension
 13
35477.21652671108
 23
7984.055776236001
 33
0.0
 14
35480.81691686347
 24
7980.455386083598
 34
0.0
 15
35491.81588190123
 25
7980.455131426156
 35
0.0
 16
35499.58191472181
 26
8024.462878274169
 36
0.0
1001
ACAD_DSTYLE_DIMINSPECT
1070
   396
1000
100%
1070
   395
1000

1070
   394
1070
    33
1070
   393
1070
     0
1001
ACAD
1000
DSTYLE
1002
{
1070
    40
1040
2.0
1070
    69
1070
     1
1070
   179
1070
     2
1002
}
  0
DIMENSION
  5
ED
330
2
100
AcDbEntity
  8
AM_5
100
AcDbDimension
  2
*D6
 10
35529.06652671112
 20
8076.400518927897
 30
0.0
 11
35522.49251579706
 21
8026.400518927886
 31
0.0
  1
<>
 71
     5
 42
100.0
  3
AM_DIN$0
100
AcDbAlignedDimension
 13
35509.19665829786
 23
7976.400518927895
 33
0.0
 14
35511.76652671107
 24
8076.400518927895
 34
0.0
 50
90.0
100
AcDbRotatedDimension
1001
ACAD_DSTYLE_DIMINSPECT
1070
   396
1000
100%
1070
   395
1000

1070
   394
1070
    33
1070
   393
1070
     0
1001
ACAD
1000
DSTYLE
1002
{
1070
    40
1040
2.0
1002
}
  0
LINE
  5
FA
330
2
100
AcDbEntity
  8
-PROFILAUSSENKANTET
100
AcDbLine
 10
35464.82892220646
 20
7704.962156077179
 30
0.0
 11
35464.82892220646
 21
7309.224551572569
 31
0.0
  0
LINE
  5
FB
330
2
100
AcDbEntity
  8
-PROFILAUSSENKANTET
100
AcDbLine
 10
35507.80413121569
 20
7704.962156077179
 30
0.0
 11
35507.80413121569
 21
7352.199760581799
 31
0.0
  0
CIRCLE
  5
FC
330
2
100
AcDbEntity
  8
-PROFILAUSSENKANTET
100
AcDbCircle
 10
35486.31652671108
 20
7642.462156077179
 30
0.0
 40
5.5
  0
LINE
  5
FD
330
2
100
AcDbEntity
  8
-ACHSE
  6
AM_DIN_G_W050x2
100
AcDbLine
 10
35499.31652671108
 20
7642.462156077179
 30
0.0
 11
35473.31652671108
 21
7642.462156077179
 31
0.0
  0
LINE
  5
FE
330
2
100
AcDbEntity
  8
-ACHSE
  6
AM_DIN_G_W050x2
100
AcDbLine
 10
35486.31652671108
 20
7629.46215607718
 30
0.0
 11
35486.31652671108
 21
7655.462156077181
 31
0.0
  0
LWPOLYLINE
  5
FF
330
2
100
AcDbEntity
  8
-PROFILAUSSENKANTET
100
AcDbPolyline
 90
        4
 70
     1
 43
0.0
 10
35512.06652671107
 20
7356.46215607718
 10
35512.06652671107
 20
7704.962156077179
 10
35460.56652671107
 20
7704.962156077179
 10
35460.56652671107
 20
7304.96215607718
1001
GENIUS_GENREC_14
1002
{
1000
PYDIR
1011
35585.56571499545
1021
7704.962156077179
1031
0.0
1002
}
1002
{
1000
PXDIR
1011
35460.56652671107
1021
7164.26492232869
1031
0.0
1002
}
1002
{
1000
PORI
1011
35460.56652671107
1021
7704.962156077179
1031
0.0
1002
}
1002
{
1000
PINS
1011
35460.56652671107
1021
7704.962156077179
1031
0.0
1002
}
1002
{
1000
PINS2
1011
35585.56571499545
1021
7164.26492232869
1031
0.0
1002
}
1002
{
1000
C
1070
     1
1002
}
1001
GENIUS_GENODEF_13
1002
{
1000
HIER
1070
     0
1002
}
1002
{
1000
MANEDIT
1070
     0
1002
}
1002
{
1000
NOSEL
1070
     0
1002
}
1002
{
1000
BEHIND
1070
     0
1002
}
1002
{
1000
OTHER
1070
     0
1002
}
1002
{
1000
REACTOR
1002
}
1001
GENIUS_GENOBJ-N-REC_13
1002
{
1000
OWNER
1000
GEN
1002
}
  0
DIMENSION
  5
100
330
2
100
AcDbEntity
  8
AM_5
100
AcDbDimension
  2
*D10
 10
35512.06652671107
 20
7760.96215607718
 30
0.0
 11
35486.31652671107
 21
7774.110177905284
 31
0.0
  1
<>
 71
     5
 42
51.5
  3
AM_DIN$0
100
AcDbAlignedDimension
 13
35460.56652671107
 23
7704.962156077179
 33
0.0
 14
35512.06652671107
 24
7704.962156077179
 34
0.0
100
AcDbRotatedDimension
1001
ACAD_DSTYLE_DIMINSPECT
1070
   396
1000
100%
1070
   395
1000

1070
   394
1070
    33
1070
   393
1070
     0
1001
ACAD
1000
DSTYLE
1002
{
1070
    40
1040
4.0
1002
}
  0
DIMENSION
  5
10D
330
2
100
AcDbEntity
  8
AM_5
100
AcDbDimension
  2
*D11
 10
35512.06652671107
 20
7732.96215607718
 30
0.0
 11
35569.85984185431
 21
7746.110177905284
 31
0.0
  1
<>
 71
     5
 42
25.75
  3
AM_DIN$0
100
AcDbAlignedDimension
 13
35486.31652671107
 23
7704.962156077179
 33
0.0
 14
35512.06652671107
 24
7704.962156077179
 34
0.0
100
AcDbRotatedDimension
1001
ACAD_DSTYLE_DIMINSPECT
1070
   396
1000
100%
1070
   395
1000

1070
   394
1070
    33
1070
   393
1070
     0
1001
ACAD
1000
DSTYLE
1002
{
1070
    40
1040
4.0
1002
}
  0
DIMENSION
  5
11C
330
2
100
AcDbEntity
  8
AM_5
100
AcDbDimension
  2
*D12
 10
35432.56652671111
 20
7704.962156077184
 30
0.0
 11
35419.418504883
 21
7504.962156077173
 31
0.0
  1
<>
 71
     5
 42
400.0
  3
AM_DIN$0
100
AcDbAlignedDimension
 13
35460.56652671107
 23
7304.96215607718
 33
0.0
 14
35460.56652671107
 24
7704.962156077179
 34
0.0
 50
90.0
100
AcDbRotatedDimension
1001
ACAD_DSTYLE_DIMINSPECT
1070
   396
1000
100%
1070
   395
1000

1070
   394
1070
    33
1070
   393
1070
     0
1001
ACAD
1000
DSTYLE
1002
{
1070
    40
1040
4.0
1002
}
  0
CIRCLE
  5
129
330
2
100
AcDbEntity
  8
-PROFILAUSSENKANTET
100
AcDbCircle
 10
35486.31652671108
 20
7642.462156077179
 30
0.0
 40
9.5
  0
CIRCLE
  5
12A
330
2
100
AcDbEntity
  8
-PROFILAUSSENKANTET
100
AcDbCircle
 10
35486.31652671108
 20
7517.462156077179
 30
0.0
 40
5.5
  0
LINE
  5
12B
330
2
100
AcDbEntity
  8
-ACHSE
  6
AM_DIN_G_W050x2
100
AcDbLine
 10
35499.31652671108
 20
7517.462156077179
 30
0.0
 11
35473.31652671108
 21
7517.462156077179
 31
0.0
  0
LINE
  5
12C
330
2
100
AcDbEntity
  8
-ACHSE
  6
AM_DIN_G_W050x2
100
AcDbLine
 10
35486.31652671108
 20
7504.46215607718
 30
0.0
 11
35486.31652671108
 21
7530.462156077181
 31
0.0
  0
CIRCLE
  5
12D
330
2
100
AcDbEntity
  8
-PROFILAUSSENKANTET
100
AcDbCircle
 10
35486.31652671108
 20
7517.462156077179
 30
0.0
 40
9.5
  0
CIRCLE
  5
12E
330
2
100
AcDbEntity
  8
-PROFILAUSSENKANTET
100
AcDbCircle
 10
35486.31652671108
 20
7392.462156077179
 30
0.0
 40
5.5
  0
LINE
  5
12F
330
2
100
AcDbEntity
  8
-ACHSE
  6
AM_DIN_G_W050x2
100
AcDbLine
 10
35499.31652671108
 20
7392.462156077179
 30
0.0
 11
35473.31652671108
 21
7392.462156077179
 31
0.0
  0
LINE
  5
130
330
2
100
AcDbEntity
  8
-ACHSE
  6
AM_DIN_G_W050x2
100
AcDbLine
 10
35486.31652671108
 20
7379.46215607718
 30
0.0
 11
35486.31652671108
 21
7405.462156077181
 31
0.0
  0
CIRCLE
  5
131
330
2
100
AcDbEntity
  8
-PROFILAUSSENKANTET
100
AcDbCircle
 10
35486.31652671108
 20
7392.462156077179
 30
0.0
 40
9.5
  0
DIMENSION
  5
132
330
2
100
AcDbEntity
  8
AM_5
100
AcDbDimension
  2
*D13
 10
35540.06733842685
 20
7704.962156077184
 30
0.0
 11
35526.91931659873
 21
7673.712156077172
 31
0.0
  1
<>
 71
     5
 42
62.5
  3
AM_DIN$0
100
AcDbAlignedDimension
 13
35499.31652671108
 23
7642.462156077179
 33
0.0
 14
35512.06652671107
 24
7704.962156077179
 34
0.0
 50
90.0
100
AcDbRotatedDimension
1001
ACAD_DSTYLE_DIMINSPECT
1070
   396
1000
100%
1070
   395
1000

1070
   394
1070
    33
1070
   393
1070
     0
1001
ACAD
1000
DSTYLE
1002
{
1070
    40
1040
4.0
1002
}
  0
DIMENSION
  5
13F
330
2
100
AcDbEntity
  8
AM_5
100
AcDbDimension
  2
*D14
 10
35540.06733842683
 20
7642.462156077184
 30
0.0
 11
35526.91931659872
 21
7579.962156077172
 31
0.0
  1
<>
 71
     5
 42
125.0
  3
AM_DIN$0
100
AcDbAlignedDimension
 13
35499.31652671108
 23
7517.462156077179
 33
0.0
 14
35499.31652671108
 24
7642.462156077179
 34
0.0
 50
90.0
100
AcDbRotatedDimension
1001
ACAD_DSTYLE_DIMINSPECT
1070
   396
1000
100%
1070
   395
1000

1070
   394
1070
    33
1070
   393
1070
     0
1001
ACAD
1000
DSTYLE
1002
{
1070
    40
1040
4.0
1002
}
  0
DIMENSION
  5
14C
330
2
100
AcDbEntity
  8
AM_5
100
AcDbDimension
  2
*D15
 10
35540.06733842686
 20
7517.462156077184
 30
0.0
 11
35526.91931659875
 21
7454.962156077172
 31
0.0
  1
<>
 71
     5
 42
125.0
  3
AM_DIN$0
100
AcDbAlignedDimension
 13
35499.31652671108
 23
7392.462156077179
 33
0.0
 14
35499.31652671108
 24
7517.462156077179
 34
0.0
 50
90.0
100
AcDbRotatedDimension
1001
ACAD_DSTYLE_DIMINSPECT
1070
   396
1000
100%
1070
   395
1000

1070
   394
1070
    33
1070
   393
1070
     0
1001
ACAD
1000
DSTYLE
1002
{
1070
    40
1040
4.0
1002
}
  0
LINE
  5
159
330
2
100
AcDbEntity
  8
-PROFILAUSSENKANTET
100
AcDbLine
 10
35860.56652671107
 20
7309.224551572559
 30
0.0
 11
35464.82892220646
 21
7309.224551572566
 31
0.0
  0
LINE
  5
15A
330
2
100
AcDbEntity
  8
-PROFILAUSSENKANTET
100
AcDbLine
 10
35860.56652671107
 20
7352.199760581789
 30
0.0
 11
35507.80413121569
 21
7352.199760581796
 31
0.0
  0
CIRCLE
  5
15B
330
2
100
AcDbEntity
  8
-PROFILAUSSENKANTET
100
AcDbCircle
 10
35798.06652671107
 20
7330.712156077177
 30
0.0
 40
5.5
  0
LINE
  5
15C
330
2
100
AcDbEntity
  8
-ACHSE
  6
AM_DIN_G_W050x2
100
AcDbLine
 10
35798.06652671107
 20
7343.712156077177
 30
0.0
 11
35798.06652671107
 21
7317.712156077178
 31
0.0
  0
LINE
  5
15D
330
2
100
AcDbEntity
  8
-ACHSE
  6
AM_DIN_G_W050x2
100
AcDbLine
 10
35785.06652671107
 20
7330.712156077177
 30
0.0
 11
35811.06652671107
 21
7330.712156077177
 31
0.0
  0
LWPOLYLINE
  5
15E
330
2
100
AcDbEntity
  8
-PROFILAUSSENKANTET
100
AcDbPolyline
 90
        4
 70
     1
 43
0.0
 10
35512.06652671107
 20
7356.462156077178
 10
35860.56652671107
 20
7356.46215607717
 10
35860.56652671107
 20
7304.96215607717
 10
35460.56652671107
 20
7304.962156077178
1001
GENIUS_GENREC_14
1002
{
1000
PYDIR
1011
35860.56652671107
1021
7429.961344361553
1031
0.0
1002
}
1002
{
1000
PXDIR
1011
35319.86929296258
1021
7304.962156077185
1031
0.0
1002
}
1002
{
1000
PORI
1011
35860.56652671107
1021
7304.96215607717
1031
0.0
1002
}
1002
{
1000
PINS
1011
35860.56652671107
1021
7304.96215607717
1031
0.0
1002
}
1002
{
1000
PINS2
1011
35319.86929296258
1021
7429.961344361567
1031
0.0
1002
}
1002
{
1000
C
1070
     1
1002
}
1001
GENIUS_GENODEF_13
1002
{
1000
HIER
1070
     0
1002
}
1002
{
1000
MANEDIT
1070
     0
1002
}
1002
{
1000
NOSEL
1070
     0
1002
}
1002
{
1000
BEHIND
1070
     0
1002
}
1002
{
1000
OTHER
1070
     0
1002
}
1002
{
1000
REACTOR
1002
}
1001
GENIUS_GENOBJ-N-REC_13
1002
{
1000
OWNER
1000
GEN
1002
}
  0
DIMENSION
  5
15F
330
2
100
AcDbEntity
  8
AM_5
100
AcDbDimension
  2
*D16
 10
35916.56652671108
 20
7356.462156077174
 30
0.0
 11
35903.41850488297
 21
7330.712156077161
 31
0.0
  1
<>
 71
     5
 42
51.5
  3
AM_DIN$0
100
AcDbAlignedDimension
 13
35860.56652671107
 23
7304.96215607717
 33
0.0
 14
35860.56652671107
 24
7356.46215607717
 34
0.0
 50
90.0
100
AcDbRotatedDimension
1001
ACAD_DSTYLE_DIMINSPECT
1070
   396
1000
100%
1070
   395
1000

1070
   394
1070
    33
1070
   393
1070
     0
1001
ACAD
1000
DSTYLE
1002
{
1070
    40
1040
4.0
1002
}
  0
DIMENSION
  5
16C
330
2
100
AcDbEntity
  8
AM_5
100
AcDbDimension
  2
*D17
 10
35888.56652671108
 20
7356.462156077174
 30
0.0
 11
35875.41850488297
 21
7414.255471220409
 31
0.0
  1
<>
 71
     5
 42
25.75
  3
AM_DIN$0
100
AcDbAlignedDimension
 13
35860.56652671107
 23
7330.71215607717
 33
0.0
 14
35860.56652671107
 24
7356.46215607717
 34
0.0
 50
90.0
100
AcDbRotatedDimension
1001
ACAD_DSTYLE_DIMINSPECT
1070
   396
1000
100%
1070
   395
1000

1070
   394
1070
    33
1070
   393
1070
     0
1001
ACAD
1000
DSTYLE
1002
{
1070
    40
1040
4.0
1002
}
  0
DIMENSION
  5
17B
330
2
100
AcDbEntity
  8
AM_5
100
AcDbDimension
  2
*D18
 10
35860.56652671107
 20
7276.962156077228
 30
0.0
 11
35660.56652671107
 21
7290.110177905332
 31
0.0
  1
<>
 71
     5
 42
400.0
  3
AM_DIN$0
100
AcDbAlignedDimension
 13
35460.56652671107
 23
7304.962156077178
 33
0.0
 14
35860.56652671107
 24
7304.96215607717
 34
0.0
100
AcDbRotatedDimension
1001
ACAD_DSTYLE_DIMINSPECT
1070
   396
1000
100%
1070
   395
1000

1070
   394
1070
    33
1070
   393
1070
     0
1001
ACAD
1000
DSTYLE
1002
{
1070
    40
1040
4.0
1002
}
  0
CIRCLE
  5
188
330
2
100
AcDbEntity
  8
-PROFILAUSSENKANTET
100
AcDbCircle
 10
35798.06652671107
 20
7330.712156077177
 30
0.0
 40
9.5
  0
CIRCLE
  5
189
330
2
100
AcDbEntity
  8
-PROFILAUSSENKANTET
100
AcDbCircle
 10
35673.06652671107
 20
7330.712156077185
 30
0.0
 40
5.5
  0
LINE
  5
18A
330
2
100
AcDbEntity
  8
-ACHSE
  6
AM_DIN_G_W050x2
100
AcDbLine
 10
35673.06652671107
 20
7343.712156077184
 30
0.0
 11
35673.06652671107
 21
7317.712156077185
 31
0.0
  0
LINE
  5
18B
330
2
100
AcDbEntity
  8
-ACHSE
  6
AM_DIN_G_W050x2
100
AcDbLine
 10
35660.06652671107
 20
7330.712156077185
 30
0.0
 11
35686.06652671107
 21
7330.712156077185
 31
0.0
  0
CIRCLE
  5
18C
330
2
100
AcDbEntity
  8
-PROFILAUSSENKANTET
100
AcDbCircle
 10
35673.06652671107
 20
7330.712156077185
 30
0.0
 40
9.5
  0
CIRCLE
  5
18D
330
2
100
AcDbEntity
  8
-PROFILAUSSENKANTET
100
AcDbCircle
 10
35548.06652671107
 20
7330.712156077185
 30
0.0
 40
5.5
  0
LINE
  5
18E
330
2
100
AcDbEntity
  8
-ACHSE
  6
AM_DIN_G_W050x2
100
AcDbLine
 10
35548.06652671107
 20
7343.712156077184
 30
0.0
 11
35548.06652671107
 21
7317.712156077185
 31
0.0
  0
LINE
  5
18F
330
2
100
AcDbEntity
  8
-ACHSE
  6
AM_DIN_G_W050x2
100
AcDbLine
 10
35535.06652671107
 20
7330.712156077185
 30
0.0
 11
35561.06652671107
 21
7330.712156077185
 31
0.0
  0
CIRCLE
  5
190
330
2
100
AcDbEntity
  8
-PROFILAUSSENKANTET
100
AcDbCircle
 10
35548.06652671107
 20
7330.712156077185
 30
0.0
 40
9.5
  0
DIMENSION
  5
191
330
2
100
AcDbEntity
  8
AM_5
100
AcDbDimension
  2
*D19
 10
35860.56652671107
 20
7384.733238063202
 30
0.0
 11
35829.31652671107
 21
7397.881259891306
 31
0.0
  1
<>
 71
     5
 42
62.5
  3
AM_DIN$0
100
AcDbAlignedDimension
 13
35798.06652671107
 23
7343.712156077177
 33
0.0
 14
35860.56652671107
 24
7356.46215607717
 34
0.0
100
AcDbRotatedDimension
1001
ACAD_DSTYLE_DIMINSPECT
1070
   396
1000
100%
1070
   395
1000

1070
   394
1070
    33
1070
   393
1070
     0
1001
ACAD
1000
DSTYLE
1002
{
1070
    40
1040
4.0
1002
}
  0
DIMENSION
  5
19E
330
2
100
AcDbEntity
  8
AM_5
100
AcDbDimension
  2
*D20
 10
35798.06652671107
 20
7384.462967792933
 30
0.0
 11
35735.56652671107
 21
7397.610989621037
 31
0.0
  1
<>
 71
     5
 42
125.0
  3
AM_DIN$0
100
AcDbAlignedDimension
 13
35673.06652671107
 23
7343.712156077184
 33
0.0
 14
35798.06652671107
 24
7343.712156077177
 34
0.0
100
AcDbRotatedDimension
1001
ACAD_DSTYLE_DIMINSPECT
1070
   396
1000
100%
1070
   395
1000

1070
   394
1070
    33
1070
   393
1070
     0
1001
ACAD
1000
DSTYLE
1002
{
1070
    40
1040
4.0
1002
}
  0
DIMENSION
  5
1AB
330
2
100
AcDbEntity
  8
AM_5
100
AcDbDimension
  2
*D21
 10
35673.06652671107
 20
7384.46296779297
 30
0.0
 11
35610.56652671107
 21
7397.610989621075
 31
0.0
  1
<>
 71
     5
 42
125.0
  3
AM_DIN$0
100
AcDbAlignedDimension
 13
35548.06652671107
 23
7343.712156077184
 33
0.0
 14
35673.06652671107
 24
7343.712156077184
 34
0.0
100
AcDbRotatedDimension
1001
ACAD_DSTYLE_DIMINSPECT
1070
   396
1000
100%
1070
   395
1000

1070
   394
1070
    33
1070
   393
1070
     0
1001
ACAD
1000
DSTYLE
1002
{
1070
    40
1040
4.0
1002
}
  0
LINE
  5
1B8
330
2
100
AcDbEntity
  8
-PROFILAUSSENKANTET
100
AcDbLine
 10
35470.79193807573
 20
7704.962156077179
 30
0.0
 11
35470.79193807573
 21
7315.187567441843
 31
0.0
  0
LINE
  5
1B9
330
2
100
AcDbEntity
  8
-PROFILAUSSENKANTET
  6
ACDINTGL
100
AcDbLine
 10
35466.40843994793
 20
7704.962156077179
 30
0.0
 11
35466.40843994793
 21
7310.804069314038
 31
0.0
  0
LWPOLYLINE
  5
1BB
330
2
100
AcDbEntity
  8
DEFPOINTS
  6
ACISOTGB
100
AcDbPolyline
 90
        3
 70
     0
 43
0.0
 10
35863.56652671107
 20
7330.71215607717
 10
35486.31652671108
 20
7330.712156077186
 10
35486.31652671108
 20
7707.962156077179
  0
LEADER
  5
1BD
330
2
100
AcDbEntity
  8
AM_5
100
AcDbLeader
  3
AM_DIN$7
 76
     3
 10
35468.14467186087
 20
8040.26773315773
 30
0.0
 10
35440.56652671107
 20
8028.838601533859
 30
0.0
 10
35440.56652671107
 20
7975.455158233491
 30
0.0
211
0.0000000000000001
221
-1.0
231
0.0
213
-8.749999999999962
223
-595.958697500414
233
0.0
1001
ACAD
1000
DSTYLE
1002
{
1070
    40
1040
2.0
1070
   179
1070
     2
1070
   340
1005
1BE
1002
}
  0
MTEXT
  5
1C0
330
2
100
AcDbEntity
  8
AM_5
 62
     2
100
AcDbMText
 10
35440.56652671107
 20
8002.423877105369
 30
0.0
 40
5.5
 41
0.0
 71
     5
 72
     1
  1
Schraubenkanal\P(screw channel)
  7
FZ
 11
0.0000000000000001
 21
1.0
 31
0.0
 73
     1
 44
1.0
1001
ACAD
1000
MTEXTBEGIN
1070
    73
1070
     1
1070
    44
1040
1.0
1070
    74
1070
     0
1000
MTEXTEND
  0
LEADER
  5
1C1
330
2
100
AcDbEntity
  8
AM_5
100
AcDbLeader
  3
AM_DIN$7
 76
     3
 10
35743.19119773063
 20
7310.804069314035
 30
0.0
 10
35743.19119773063
 20
7256.962156077229
 30
0.0
 10
35835.46713049977
 20
7256.962156077229
 30
0.0
211
1.0
221
0.0000000000000001
231
0.0
213
1048.887307600729
223
15.40000000000013
233
0.0
1001
ACAD
1000
DSTYLE
1002
{
1070
    40
1040
2.0
1070
   179
1070
     2
1070
   340
1005
1BE
1002
}
  0
MTEXT
  5
1C2
330
2
100
AcDbEntity
  8
AM_5
 62
     2
100
AcDbMText
 10
35791.17979490275
 20
7256.962156077229
 30
0.0
 40
9.680000000000001
 41
0.0
 71
     5
 72
     1
  1
Schraubenkanal\P(screw channel)
  7
FZ
 73
     1
 44
1.0
1001
ACAD
1000
MTEXTBEGIN
1070
    73
1070
     1
1070
    44
1040
1.0
1070
    74
1070
     0
1000
MTEXTEND
  0
LINE
  5
1C3
330
2
100
AcDbEntity
  8
-PROFILAUSSENKANTET
100
AcDbLine
 10
35502.7084393675
 20
7704.962156077179
 30
0.0
 11
35502.7084393675
 21
7347.104068733615
 31
0.0
  0
LINE
  5
1C4
330
2
100
AcDbEntity
  8
-PROFILAUSSENKANTET
100
AcDbLine
 10
35860.56652671107
 20
7347.104068733584
 30
0.0
 11
35502.7084393675
 21
7347.104068733614
 31
0.0
  0
LINE
  5
1C5
330
2
100
AcDbEntity
  8
-PROFILAUSSENKANTET
100
AcDbLine
 10
35860.56652671107
 20
7315.18756744184
 30
0.0
 11
35470.79193807573
 21
7315.18756744184
 31
0.0
  0
LINE
  5
1C6
330
2
100
AcDbEntity
  8
-PROFILAUSSENKANTET
  6
ACDINTGL
100
AcDbLine
 10
35860.56652671107
 20
7310.804069314035
 30
0.0
 11
35466.40843994793
 21
7310.804069314035
 31
0.0
  0
INSERT
  5
1C7
330
2
100
AcDbEntity
  8
DEFPOINTS
100
AcDbBlockReference
  2
Copyright_STEMPEL
 10
35765.24769977891
 20
8229.639205391498
 30
0.0
 41
0.1521701362600958
 42
0.1521701362600958
 43
0.1521701362600958
  0
ENDSEC
  0
SECTION
  2
OBJECTS
  0
DICTIONARY
  5
A
330
0
100
AcDbDictionary
281
     1
  3
ACAD_2007HEADERVARS_RT
350
240
  3
ACAD_COLOR
350
41
  3
ACAD_DETAILVIEWSTYLE
350
1F9
  3
ACAD_FIELDLIST
350
22F
  3
ACAD_GROUP
350
38
  3
ACAD_IMAGE_DICT
350
1D1
  3
ACAD_IMAGE_VARS
350
1D3
  3
ACAD_LAYOUT
350
9
  3
ACAD_MATERIAL
350
19
  3
ACAD_MLEADERSTYLE
350
44
  3
ACAD_MLINESTYLE
350
39
  3
ACAD_PLOTSETTINGS
350
3A
  3
ACAD_PLOTSTYLENAME
350
17
  3
ACAD_SCALELIST
350
42
  3
ACAD_SECTIONVIEWSTYLE
350
205
  3
ACAD_TABLESTYLE
350
43
  3
ACAD_VISUALSTYLE
350
30
  3
ACDB_RECOMPOSE_DATA
350
23F
  3
AcDbVariableDictionary
350
45
  3
AcDsDecomposeData
350
24A
  3
AcmDictionary
350
1ED
  3
AcmSystemVariableManager
350
257
  3
AMG
350
1DD
  0
DICTIONARY
  5
22
330
13
100
AcDbDictionary
280
     1
281
     1
  3
ACAD_LAYERSTATES
360
23
  3
AMLAYER_GROUPCOLORS
360
24
  0
DICTIONARY
  5
15
330
14
100
AcDbDictionary
280
     1
281
     1
  0
DICTIONARY
  5
89
330
88
100
AcDbDictionary
280
     1
281
     1
  0
DICTIONARY
  5
52
330
51
100
AcDbDictionary
280
     1
281
     1
  0
DICTIONARY
  5
3
330
2
100
AcDbDictionary
280
     1
281
     1
  3
ACAD_ASSOCNETWORK
360
4
  3
ACAD_SORTENTS
360
1DB
  0
DICTIONARY
  5
E
330
D
100
AcDbDictionary
280
     1
281
     1
  3
ACAD_SORTENTS
360
F
  0
DICTIONARY
  5
71
330
70
100
AcDbDictionary
280
     1
281
     1
  3
ACAD_SORTENTS
360
1DA
  0
DICTIONARY
  5
1CD
330
1CC
100
AcDbDictionary
280
     1
281
     1
  3
ACAD_MTEXT_2008_RT
360
23E
  3
ACAD_MTEXT_RT
360
264
  0
IMAGEDEF_REACTOR
  5
1D2
330
1CF
100
AcDbRasterImageDefReactor
 90
        2
330
1CF
  0
IMAGEDEF_REACTOR
  5
1D6
330
1D4
100
AcDbRasterImageDefReactor
 90
        2
330
1D4
  0
DICTIONARY
  5
1D8
330
1D7
100
AcDbDictionary
280
     1
281
     1
  3
ACAD_MTEXT_RT
360
265
  0
DICTIONARY
  5
260
330
6E
100
AcDbDictionary
280
     1
281
     1
  3
ACAD_MTEXT_RT
360
261
  0
DICTIONARY
  5
240
102
{ACAD_REACTORS
330
A
102
}
330
A
100
AcDbDictionary
281
     1
  3
DIMJOGANG
350
241
  3
DIMLTEX1
350
243
  3
DIMLTEX2
350
244
  3
DIMLTYPE
350
242
  0
DICTIONARY
  5
41
102
{ACAD_REACTORS
330
A
102
}
330
A
100
AcDbDictionary
281
     1
  0
DICTIONARY
  5
1F9
102
{ACAD_REACTORS
330
A
102
}
330
A
100
AcDbDictionary
281
     1
  3
Imperial24
350
200
  3
Metric50
350
202
  0
FIELDLIST
  5
22F
102
{ACAD_REACTORS
330
A
102
}
330
A
100
AcDbIdSet
 90
        6
330
1FC
330
1FD
330
1FE
330
208
330
209
330
20A
100
AcDbFieldList
  0
DICTIONARY
  5
38
102
{ACAD_REACTORS
330
A
102
}
330
A
100
AcDbDictionary
281
     1
  0
DICTIONARY
  5
1D1
102
{ACAD_REACTORS
330
A
102
}
330
A
100
AcDbDictionary
281
     1
  3
Glassline_Logo_RGB_72dpi
350
1D0
  3
www
350
1D5
  0
RASTERVARIABLES
  5
1D3
102
{ACAD_REACTORS
330
A
102
}
330
A
100
AcDbRasterVariables
 90
        0
 70
     1
 71
     1
 72
     1
  0
DICTIONARY
  5
9
102
{ACAD_REACTORS
330
A
102
}
330
A
100
AcDbDictionary
281
     1
  3
hybrid lite
350
12
  3
Model
350
8
  0
DICTIONARY
  5
19
102
{ACAD_REACTORS
330
A
102
}
330
A
100
AcDbDictionary
281
     1
  3
ByBlock
350
3E
  3
ByLayer
350
3B
  3
Global
350
18
  0
DICTIONARY
  5
44
102
{ACAD_REACTORS
330
A
102
}
330
A
100
AcDbDictionary
281
     1
  0
DICTIONARY
  5
39
102
{ACAD_REACTORS
330
A
102
}
330
A
100
AcDbDictionary
281
     1
  3
Standard
350
54
  0
DICTIONARY
  5
3A
102
{ACAD_REACTORS
330
A
102
}
330
A
100
AcDbDictionary
281
     1
  0
ACDBDICTIONARYWDFLT
  5
17
102
{ACAD_REACTORS
330
A
102
}
330
A
100
AcDbDictionary
281
     1
  3
Normal
350
16
100
AcDbDictionaryWithDefault
340
16
  0
DICTIONARY
  5
42
102
{ACAD_REACTORS
330
A
102
}
330
A
100
AcDbDictionary
281
     1
  3
A0
350
59
  3
A1
350
5A
  3
A2
350
5B
  3
A3
350
5C
  3
A4
350
5D
  3
A5
350
5E
  3
A6
350
5F
  3
A7
350
60
  3
A8
350
61
  3
A9
350
62
  3
B0
350
63
  3
B1
350
64
  3
B2
350
65
  3
B3
350
66
  3
B4
350
67
  3
B5
350
68
  3
B6
350
69
  0
DICTIONARY
  5
205
102
{ACAD_REACTORS
330
A
102
}
330
A
100
AcDbDictionary
281
     1
  3
Imperial24
350
210
  3
Metric50
350
212
  0
DICTIONARY
  5
43
102
{ACAD_REACTORS
330
A
102
}
330
A
100
AcDbDictionary
281
     1
  3
Standard
350
55
  0
DICTIONARY
  5
30
102
{ACAD_REACTORS
330
A
102
}
330
A
100
AcDbDictionary
281
     1
  3
2dWireframe
350
2F
  3
EdgeColorOff
350
9C
  3
Realistic
350
57
  3
Wireframe
350
58
  0
XRECORD
  5
23F
102
{ACAD_REACTORS
330
A
102
}
330
A
100
AcDbXrecord
280
     1
 90
        1
330
55
330
6E
330
1CC
  0
DICTIONARY
  5
45
102
{ACAD_REACTORS
330
A
102
}
330
A
100
AcDbDictionary
281
     1
  3
CANNOSCALE
350
46
  3
CMLEADERSTYLE
350
47
  3
CTABLESTYLE
350
48
  3
CVIEWDETAILSTYLE
350
49
  3
CVIEWSECTIONSTYLE
350
4A
  3
DIMASSOC
350
4B
  3
HIDETEXT
350
4C
  3
HPCOLOR
350
4D
  3
HPTRANSPARENCY
350
4E
  3
INDEXCTL
350
239
  3
LAYEREVAL
350
4F
  3
LAYERNOTIFY
350
50
  3
LIGHTINGUNITS
350
237
  3
MSLTSCALE
350
236
  3
PSOLHEIGHT
350
23B
  3
PSOLWIDTH
350
23A
  3
SORTENTS
350
238
  3
XCLIPFRAME
350
23C
  0
DICTIONARY
  5
24A
102
{ACAD_REACTORS
330
A
102
}
330
A
100
AcDbDictionary
281
     1
  3
AcDsRecords
350
24C
  3
AcDsSchemas
350
24B
1001
ACAD
1070
     2
  0
DICTIONARY
  5
1ED
102
{ACAD_REACTORS
330
A
102
}
330
A
100
AcDbDictionary
281
     1
  3
AcmStdDictionary
350
1EE
  0
DICTIONARY
  5
1DD
102
{ACAD_REACTORS
330
A
102
}
330
A
100
AcDbDictionary
281
     1
  3
AcMgSettings
350
1E6
  0
DICTIONARY
  5
23
102
{ACAD_REACTORS
330
22
102
}
330
22
100
AcDbDictionary
281
     1
  0
DICTIONARY
  5
24
102
{ACAD_REACTORS
330
22
102
}
330
22
100
AcDbDictionary
280
     1
281
     1
  0
DICTIONARY
  5
4
102
{ACAD_REACTORS
330
3
102
}
330
3
100
AcDbDictionary
281
     1
  0
SORTENTSTABLE
  5
1DB
102
{ACAD_REACTORS
330
3
102
}
330
3
100
AcDbSortentsTable
330
2
  0
SORTENTSTABLE
  5
F
102
{ACAD_REACTORS
330
E
102
}
330
E
100
AcDbSortentsTable
330
D
  0
SORTENTSTABLE
  5
1DA
102
{ACAD_REACTORS
330
71
102
}
330
71
100
AcDbSortentsTable
330
70
  0
XRECORD
  5
23E
102
{ACAD_REACTORS
330
1CD
102
}
330
1CD
100
AcDbXrecord
280
     1
 40
643794.0
  1
\pxql;{\fCentury Gothic|b0|i0|c0|p34;Industriestraße 7-10\P74740 Adelsheim\PTel.: 06291-6259-0\PFax: 06291-6259-11\Pwww.glassline.de}
  0
XRECORD
  5
264
102
{ACAD_REACTORS
330
1CD
102
}
330
1CD
100
AcDbXrecord
280
     1
 40
691654.0
  1
{\fCentury Gothic|b0|i0|c0|p34;Industriestraße 7-10\P74740 Adelsheim\PTel.: 06291-6259-0\PFax: 06291-6259-11\Pwww.glassline.de}
  0
XRECORD
  5
265
102
{ACAD_REACTORS
330
1D8
102
}
330
1D8
100
AcDbXrecord
280
     1
 40
8772606.0
  1
{\fCentury Gothic|b0|i0|c0|p34;\C256;Alle Rechte vorbehalten, einschließlich\PVervielfältigung, Einlesen auf elektronischen\PDatenträgern und die Weitergabe an dritte\PPersonen nur nach ausdrücklicher Genehmigung\Pder Firma GLASSLINE GmbH.\P\PAll rig
  1
hts reserved, including duplication, \Pimport on electronic data carries and \Pdisclosure to third parties only with \Pthe explicit permission of GLASSLINE GmbH.}
  0
XRECORD
  5
261
102
{ACAD_REACTORS
330
260
102
}
330
260
100
AcDbXrecord
280
     1
 40
314839.0
  1
BALARDO hybrid lite, Top 4\PAußenecke ({\fISOCPEUR|b0|i0|c0|p34;outer corner)}
  0
XRECORD
  5
241
102
{ACAD_REACTORS
330
240
102
}
330
240
100
AcDbXrecord
280
     1
 40
1.570796326794896
  0
XRECORD
  5
243
102
{ACAD_REACTORS
330
240
102
}
330
240
100
AcDbXrecord
280
     1
340
29
  0
XRECORD
  5
244
102
{ACAD_REACTORS
330
240
102
}
330
240
100
AcDbXrecord
280
     1
340
29
  0
XRECORD
  5
242
102
{ACAD_REACTORS
330
240
102
}
330
240
100
AcDbXrecord
280
     1
340
29
  0
ACDBDETAILVIEWSTYLE
  5
200
102
{ACAD_XDICTIONARY
360
266
102
}
102
{ACAD_REACTORS
330
1F9
330
1FF
102
}
330
1F9
100
AcDbModelDocViewStyle
 70
     0
  3
Imperial24
290
     0
100
AcDbDetailViewStyle
 70
     0
 71
     0
 90
        3
 71
     1
340
26
 40
0.24
340
0
 40
0.24
300

 40
0.36
280
     3
 71
     2
340
21
 90
       25
 71
     3
340
26
 40
0.24
 90
        1
 40
0.75
 90
        1
300
%<\AcVar ViewType \f "%tc1">% %<\AcVar ViewDetailId>%\PVARIA %<\AcVar ViewScale \f "%sn">%
 71
     4
340
21
 90
       25
340
21
 90
       25
280
     0
  0
ACDBDETAILVIEWSTYLE
  5
202
102
{ACAD_XDICTIONARY
360
268
102
}
102
{ACAD_REACTORS
330
1F9
330
201
102
}
330
1F9
100
AcDbModelDocViewStyle
 70
     0
  3
Metric50
290
     0
100
AcDbDetailViewStyle
 70
     0
 71
     0
 90
        3
 71
     1
340
26
 40
5.0
340
0
 40
5.0
300

 40
0.0
280
     1
 71
     2
340
21
 90
       25
 71
     3
340
26
 40
5.0
 90
        0
 40
15.0
 90
        1
300
%<\AcVar ViewDetailId>% (%<\AcVar ViewScale \f "%sn">%)
 71
     4
340
21
 90
       25
340
21
 90
       25
280
     0
  0
IMAGEDEF
  5
1D0
102
{ACAD_REACTORS
330
1D1
330
1D2
102
}
330
1D1
100
AcDbRasterImageDef
 90
        0
  1
T:\Marketing\Öffentlich\Logo\Glassline_Logo_RGB_72dpi.jpg
 10
493.0
 20
104.0
 11
0.3527777777777778
 21
0.3527777777777778
280
     1
281
     5
  0
IMAGEDEF
  5
1D5
102
{ACAD_REACTORS
330
1D1
330
1D6
102
}
330
1D1
100
AcDbRasterImageDef
 90
        0
  1
T:\Technik\Öffentlich\www.glassline.de-QR.jpg
 10
330.0
 20
330.0
 11
0.003030303030303
 21
0.003030303030303
280
     1
281
     0
  0
LAYOUT
  5
12
102
{ACAD_XDICTIONARY
360
24E
102
}
102
{ACAD_REACTORS
330
9
102
}
330
9
100
AcDbPlotSettings
  1

  2
Kein
  4
ISO_A4_(210.00_x_297.00_MM)
  6

 40
7.5
 41
20.0
 42
7.5
 43
20.0
 44
210.0
 45
297.0
 46
0.0
 47
0.0
 48
0.0
 49
0.0
140
0.0
141
0.0
142
1.0
143
1.0
 70
   688
 72
     1
 73
     1
 74
     5
  7

 75
    16
147
1.0
148
0.0
149
0.0
100
AcDbLayout
  1
hybrid lite
 70
     1
 71
     7
 10
0.0
 20
0.0
 11
12.0
 21
9.0
 12
0.0
 22
0.0
 32
0.0
 14
-336.0581622965808
 24
-2275.066915115365
 34
0.0
 15
2200.992315193187
 25
732.75702618344
 35
0.0
146
0.0
 13
0.0
 23
0.0
 33
0.0
 16
1.0
 26
0.0
 36
0.0
 17
0.0
 27
1.0
 37
0.0
 76
     0
330
D
1001
ACAD_PSEXT
1000
Kein
1000
Kein
1000
Nicht anwendbar
1000
Das Layout wird erst geplottet, wenn ein neuer Plotter-Konfigurationsname ausgewählt wird.
1070
     0
  0
LAYOUT
  5
8
102
{ACAD_XDICTIONARY
360
B
102
}
102
{ACAD_REACTORS
330
9
102
}
330
9
100
AcDbPlotSettings
  1

  2
none_device
  4
ISO_A4_(210.00_x_297.00_MM)
  6

 40
7.5
 41
20.0
 42
7.5
 43
20.0
 44
210.0
 45
297.0
 46
11.54999923706054
 47
-13.65000009536743
 48
0.0
 49
0.0
140
0.0
141
0.0
142
1.0
143
8.704084754739808
 70
 11952
 72
     1
 73
     0
 74
     0
  7

 75
     0
147
0.1148885871608098
148
0.0
149
0.0
100
AcDbLayout
  1
Model
 70
     1
 71
     0
 10
0.0
 20
0.0
 11
12.0
 21
9.0
 12
0.0
 22
0.0
 32
0.0
 14
0.0
 24
0.0
 34
0.0
 15
0.0
 25
0.0
 35
0.0
146
0.0
 13
0.0
 23
0.0
 33
0.0
 16
1.0
 26
0.0
 36
0.0
 17
0.0
 27
1.0
 37
0.0
 76
     0
330
2
331
2E
1001
ACAD_PSEXT
1000
None
1000
None
1000
Not applicable
1000
The layout will not be plotted unless a new plotter configuration name is selected.
1070
     0
  0
MATERIAL
  5
3E
102
{ACAD_XDICTIONARY
360
3F
102
}
102
{ACAD_REACTORS
330
19
102
}
330
19
100
AcDbMaterial
  1
ByBlock
  0
MATERIAL
  5
3B
102
{ACAD_XDICTIONARY
360
3C
102
}
102
{ACAD_REACTORS
330
19
102
}
330
19
100
AcDbMaterial
  1
ByLayer
  0
MATERIAL
  5
18
102
{ACAD_XDICTIONARY
360
1A
102
}
102
{ACAD_REACTORS
330
19
102
}
330
19
100
AcDbMaterial
  1
Global
 43
0.0007999999797903
 43
0.0
 43
0.0
 43
0.0
 43
0.0
 43
0.0007999999797903
 43
0.0
 43
0.0
 43
0.0
 43
0.0
 43
1.0
 43
0.0
 43
0.0
 43
0.0
 43
0.0
 43
1.0
 49
0.0007999999797903
 49
0.0
 49
0.0
 49
0.0
 49
0.0
 49
0.0007999999797903
 49
0.0
 49
0.0
 49
0.0
 49
0.0
 49
1.0
 49
0.0
 49
0.0
 49
0.0
 49
0.0
 49
1.0
142
0.0007999999797903
142
0.0
142
0.0
142
0.0
142
0.0
142
0.0007999999797903
142
0.0
142
0.0
142
0.0
142
0.0
142
1.0
142
0.0
142
0.0
142
0.0
142
0.0
142
1.0
144
0.0007999999797903
144
0.0
144
0.0
144
0.0
144
0.0
144
0.0007999999797903
144
0.0
144
0.0
144
0.0
144
0.0
144
1.0
144
0.0
144
0.0
144
0.0
144
0.0
144
1.0
1001
ACAD
1070
    -1
1070
     3
1070
     0
1000

1071
        0
1070
     0
  0
MLINESTYLE
  5
54
102
{ACAD_REACTORS
330
39
102
}
330
39
100
AcDbMlineStyle
  2
STANDARD
 70
     0
  3

 62
   256
 51
90.0
 52
90.0
 71
     2
 49
0.5
 62
   256
  6
BYLAYER
 49
-0.5
 62
   256
  6
BYLAYER
  0
ACDBPLACEHOLDER
  5
16
102
{ACAD_REACTORS
330
17
102
}
330
17
  0
SCALE
  5
59
102
{ACAD_REACTORS
330
42
102
}
330
42
100
AcDbScale
 70
     0
300
1:1
140
1.0
141
1.0
290
     1
  0
SCALE
  5
5A
102
{ACAD_REACTORS
330
42
102
}
330
42
100
AcDbScale
 70
     0
300
1:2
140
1.0
141
2.0
290
     0
  0
SCALE
  5
5B
102
{ACAD_REACTORS
330
42
102
}
330
42
100
AcDbScale
 70
     0
300
1:4
140
1.0
141
4.0
290
     0
  0
SCALE
  5
5C
102
{ACAD_REACTORS
330
42
102
}
330
42
100
AcDbScale
 70
     0
300
1:5
140
1.0
141
5.0
290
     0
  0
SCALE
  5
5D
102
{ACAD_REACTORS
330
42
102
}
330
42
100
AcDbScale
 70
     0
300
1:8
140
1.0
141
8.0
290
     0
  0
SCALE
  5
5E
102
{ACAD_REACTORS
330
42
102
}
330
42
100
AcDbScale
 70
     0
300
1:10
140
1.0
141
10.0
290
     0
  0
SCALE
  5
5F
102
{ACAD_REACTORS
330
42
102
}
330
42
100
AcDbScale
 70
     0
300
1:16
140
1.0
141
16.0
290
     0
  0
SCALE
  5
60
102
{ACAD_REACTORS
330
42
102
}
330
42
100
AcDbScale
 70
     0
300
1:20
140
1.0
141
20.0
290
     0
  0
SCALE
  5
61
102
{ACAD_REACTORS
330
42
102
}
330
42
100
AcDbScale
 70
     0
300
1:30
140
1.0
141
30.0
290
     0
  0
SCALE
  5
62
102
{ACAD_REACTORS
330
42
102
}
330
42
100
AcDbScale
 70
     0
300
1:40
140
1.0
141
40.0
290
     0
  0
SCALE
  5
63
102
{ACAD_REACTORS
330
42
102
}
330
42
100
AcDbScale
 70
     0
300
1:50
140
1.0
141
50.0
290
     0
  0
SCALE
  5
64
102
{ACAD_REACTORS
330
42
102
}
330
42
100
AcDbScale
 70
     0
300
1:100
140
1.0
141
100.0
290
     0
  0
SCALE
  5
65
102
{ACAD_REACTORS
330
42
102
}
330
42
100
AcDbScale
 70
     0
300
2:1
140
2.0
141
1.0
290
     0
  0
SCALE
  5
66
102
{ACAD_REACTORS
330
42
102
}
330
42
100
AcDbScale
 70
     0
300
4:1
140
4.0
141
1.0
290
     0
  0
SCALE
  5
67
102
{ACAD_REACTORS
330
42
102
}
330
42
100
AcDbScale
 70
     0
300
8:1
140
8.0
141
1.0
290
     0
  0
SCALE
  5
68
102
{ACAD_REACTORS
330
42
102
}
330
42
100
AcDbScale
 70
     0
300
10:1
140
10.0
141
1.0
290
     0
  0
SCALE
  5
69
102
{ACAD_REACTORS
330
42
102
}
330
42
100
AcDbScale
 70
     0
300
100:1
140
100.0
141
1.0
290
     0
  0
ACDBSECTIONVIEWSTYLE
  5
210
102
{ACAD_XDICTIONARY
360
26A
102
}
102
{ACAD_REACTORS
330
205
330
20F
102
}
330
205
100
AcDbModelDocViewStyle
 70
     0
  3
Imperial24
290
     0
100
AcDbSectionViewStyle
 70
     0
 71
     0
 90
       78
 71
     1
340
26
 40
0.24
340
0
340
0
 40
0.24
300
I, O, Q, S, X, Z
 40
0.48
 90
        3
 40
0.18
 90
        1
 71
     2
340
21
 90
       25
340
21
 90
       50
 40
0.24
 40
0.0
 40
0.24
 71
     3
340
26
 40
0.24
 90
        1
 40
0.75
 90
        1
300
%<\AcVar ViewType \f "%tc1">% %<\AcVar ViewSectionStartId>%-%<\AcVar ViewSectionEndId>%\PVARIA %<\AcVar ViewScale \f "%sn">%
 71
     4
300
ANSI31
 40
1.0
 90
        0
290
     0
290
     0
 90
        6
 40
0.0
 40
1.570796326794896
 40
0.2617993877991494
 40
1.308996938995747
 40
-0.2617993877991494
 40
1.832595714594046
  0
ACDBSECTIONVIEWSTYLE
  5
212
102
{ACAD_XDICTIONARY
360
26C
102
}
102
{ACAD_REACTORS
330
205
330
211
102
}
330
205
100
AcDbModelDocViewStyle
 70
     0
  3
Metric50
290
     0
100
AcDbSectionViewStyle
 70
     0
 71
     0
 90
      102
 71
     1
340
26
 40
5.0
340
0
340
0
 40
5.0
300
I, O, Q, S, X, Z
 40
10.0
 90
        0
 40
2.5
 90
        0
 71
     2
340
21
 90
       25
340
21
 90
       50
 40
5.0
 40
2.5
 40
5.0
 71
     3
340
26
 40
5.0
 90
        0
 40
15.0
 90
        1
300
%<\AcVar ViewSectionStartId>%-%<\AcVar ViewSectionEndId>% (%<\AcVar ViewScale \f "%sn">%)
 71
     4
300
ANSI31
 40
1.0
 90
        0
290
     0
290
     0
 90
        6
 40
0.0
 40
1.570796326794896
 40
0.2617993877991494
 40
1.308996938995747
 40
-0.2617993877991494
 40
1.832595714594046
  0
TABLESTYLE
  5
55
102
{ACAD_XDICTIONARY
360
56
102
}
102
{ACAD_REACTORS
330
43
102
}
330
43
100
AcDbTableStyle
  3
Standard
 70
     0
 71
     0
 40
1.5
 41
1.5
280
     0
281
     0
  7
Standard
140
4.5
170
     2
 62
     0
 63
     7
283
     0
274
    -2
284
     1
 64
     0
275
    -2
285
     1
 65
     0
276
    -2
286
     1
 66
     0
277
    -2
287
     1
 67
     0
278
    -2
288
     1
 68
     0
279
    -2
289
     1
 69
     0
  7
Standard
140
6.0
170
     5
 62
     0
 63
     7
283
     0
274
    -2
284
     1
 64
     0
275
    -2
285
     1
 65
     0
276
    -2
286
     1
 66
     0
277
    -2
287
     1
 67
     0
278
    -2
288
     1
 68
     0
279
    -2
289
     1
 69
     0
  7
Standard
140
4.5
170
     5
 62
     0
 63
     7
283
     0
274
    -2
284
     1
 64
     0
275
    -2
285
     1
 65
     0
276
    -2
286
     1
 66
     0
277
    -2
287
     1
 67
     0
278
    -2
288
     1
 68
     0
279
    -2
289
     1
 69
     0
  0
VISUALSTYLE
  5
2F
102
{ACAD_XDICTIONARY
360
251
102
}
102
{ACAD_REACTORS
330
30
102
}
330
30
100
AcDbVisualStyle
  2
2dWireframe
 70
     4
 71
     0
 72
     2
 73
     1
 90
        0
 40
-0.6
 41
-30.0
 62
     5
 63
     7
 74
     1
 91
        4
 64
     7
 65
   257
 75
     1
175
     1
 42
1.0
 92
        0
 66
   257
 43
1.0
 76
     1
 77
     6
 78
     2
 67
     7
 79
     5
170
     0
171
     0
290
     0
174
     0
 93
        1
 44
0.0
173
     0
291
     0
 45
0.0
1001
ACAD
1000
AcDbSavedByObjectVersion
1070
     0
  0
VISUALSTYLE
  5
9C
102
{ACAD_XDICTIONARY
360
262
102
}
102
{ACAD_REACTORS
330
30
102
}
330
30
100
AcDbVisualStyle
  2
EdgeColorOff
 70
    22
 71
     2
 72
     2
 73
     0
 90
        0
 40
-0.6
 41
-30.0
 62
     5
 63
     7
 74
     1
 91
        4
 64
     7
 65
   257
 75
     1
175
     1
 42
1.0
 92
        8
 66
     7
 43
1.0
 76
     1
 77
     6
 78
     2
 67
     7
 79
     5
170
     0
171
     0
290
     0
174
     0
 93
        1
 44
0.0
173
     0
291
     1
 45
0.0
1001
ACAD
1000
AcDbSavedByObjectVersion
1070
     0
  0
VISUALSTYLE
  5
57
102
{ACAD_XDICTIONARY
360
25C
102
}
102
{ACAD_REACTORS
330
30
102
}
330
30
100
AcDbVisualStyle
  2
Realistic
 70
     8
 71
     2
 72
     3
 73
     0
 90
        2
 40
-0.6
 41
30.0
 62
     5
 63
     7
 74
     0
 91
        0
 64
     7
 65
   257
 75
     1
175
     1
 42
1.0
 92
        8
 66
   257
 43
1.0
 76
     1
 77
     6
 78
     2
 67
     7
 79
     3
170
     0
171
     0
290
     0
174
     0
 93
       13
 44
0.0
173
     0
291
     0
 45
0.0
1001
ACAD
1000
AcDbSavedByObjectVersion
1070
     0
  0
VISUALSTYLE
  5
58
102
{ACAD_XDICTIONARY
360
25E
102
}
102
{ACAD_REACTORS
330
30
102
}
330
30
100
AcDbVisualStyle
  2
Wireframe
 70
     5
 71
     0
 72
     2
 73
     0
 90
        0
 40
-0.6
 41
-30.0
 62
     5
 63
     7
 74
     1
 91
        4
 64
     7
 65
   257
 75
     1
175
     1
 42
1.0
 92
        0
 66
   257
 43
1.0
 76
     1
 77
     6
 78
     2
 67
     7
 79
     3
170
     0
171
     0
290
     0
174
     0
 93
        1
 44
0.0
173
     0
291
     0
 45
0.0
1001
ACAD
1000
AcDbSavedByObjectVersion
1070
     0
  0
DICTIONARYVAR
  5
46
102
{ACAD_REACTORS
330
45
102
}
330
45
100
DictionaryVariables
280
     0
  1
1:1
  0
DICTIONARYVAR
  5
47
102
{ACAD_REACTORS
330
45
102
}
330
45
100
DictionaryVariables
280
     0
  1
STANDARD
  0
DICTIONARYVAR
  5
48
102
{ACAD_REACTORS
330
45
102
}
330
45
100
DictionaryVariables
280
     0
  1
STANDARD
  0
DICTIONARYVAR
  5
49
102
{ACAD_REACTORS
330
45
102
}
330
45
100
DictionaryVariables
280
     0
  1

  0
DICTIONARYVAR
  5
4A
102
{ACAD_REACTORS
330
45
102
}
330
45
100
DictionaryVariables
280
     0
  1

  0
DICTIONARYVAR
  5
4B
102
{ACAD_REACTORS
330
45
102
}
330
45
100
DictionaryVariables
280
     0
  1
2
  0
DICTIONARYVAR
  5
4C
102
{ACAD_REACTORS
330
45
102
}
330
45
100
DictionaryVariables
280
     0
  1
1
  0
DICTIONARYVAR
  5
4D
102
{ACAD_REACTORS
330
45
102
}
330
45
100
DictionaryVariables
280
     0
  1
BYLAYER
  0
DICTIONARYVAR
  5
4E
102
{ACAD_REACTORS
330
45
102
}
330
45
100
DictionaryVariables
280
     0
  1
ByLayer
  0
DICTIONARYVAR
  5
239
102
{ACAD_REACTORS
330
45
102
}
330
45
100
DictionaryVariables
280
     0
  1
0
  0
DICTIONARYVAR
  5
4F
102
{ACAD_REACTORS
330
45
102
}
330
45
100
DictionaryVariables
280
     0
  1
0
  0
DICTIONARYVAR
  5
50
102
{ACAD_REACTORS
330
45
102
}
330
45
100
DictionaryVariables
280
     0
  1
0
  0
DICTIONARYVAR
  5
237
102
{ACAD_REACTORS
330
45
102
}
330
45
100
DictionaryVariables
280
     0
  1
2
  0
DICTIONARYVAR
  5
236
102
{ACAD_REACTORS
330
45
102
}
330
45
100
DictionaryVariables
280
     0
  1
1
  0
DICTIONARYVAR
  5
23B
102
{ACAD_REACTORS
330
45
102
}
330
45
100
DictionaryVariables
280
     0
  1
80.000000
  0
DICTIONARYVAR
  5
23A
102
{ACAD_REACTORS
330
45
102
}
330
45
100
DictionaryVariables
280
     0
  1
5.000000
  0
DICTIONARYVAR
  5
238
102
{ACAD_REACTORS
330
45
102
}
330
45
100
DictionaryVariables
280
     0
  1
127
  0
DICTIONARYVAR
  5
23C
102
{ACAD_REACTORS
330
45
102
}
330
45
100
DictionaryVariables
280
     0
  1
2
  0
DICTIONARY
  5
24C
102
{ACAD_REACTORS
330
24A
102
}
330
24A
100
AcDbDictionary
281
     1
  0
DICTIONARY
  5
24B
102
{ACAD_REACTORS
330
24A
102
}
330
24A
100
AcDbDictionary
281
     1
  3
2004930231888
350
245
  3
2004930231904
350
246
  3
2004930231920
350
247
  3
2004930231936
350
248
  3
2004930231952
350
249
  0
DICTIONARY
  5
1EE
102
{ACAD_REACTORS
330
1ED
102
}
330
1ED
100
AcDbDictionary
281
     1
  0
DICTIONARY
  5
1E6
102
{ACAD_REACTORS
330
1DD
102
}
330
1DD
100
AcDbDictionary
281
     1
  3
DWGSETTINGS
350
1E5
  3
Shaft
350
1E7
  3
TRANSSETTINGS
350
1E8
  0
DICTIONARY
  5
266
330
200
100
AcDbDictionary
280
     1
281
     1
  3
ACAD_XREC_ROUNDTRIP
360
267
  0
DICTIONARY
  5
268
330
202
100
AcDbDictionary
280
     1
281
     1
  3
ACAD_XREC_ROUNDTRIP
360
269
  0
DICTIONARY
  5
24E
330
12
100
AcDbDictionary
280
     1
281
     1
  3
ACAD_XREC_ROUNDTRIP
360
24F
  0
DICTIONARY
  5
B
330
8
100
AcDbDictionary
280
     1
281
     1
  3
ACAD_XREC_ROUNDTRIP
360
24D
  0
DICTIONARY
  5
3F
330
3E
100
AcDbDictionary
280
     1
281
     1
  3
ACAD_XREC_ROUNDTRIP
360
25A
  3
FBXASSET
360
40
  0
DICTIONARY
  5
3C
330
3B
100
AcDbDictionary
280
     1
281
     1
  3
ACAD_XREC_ROUNDTRIP
360
259
  3
FBXASSET
360
3D
  0
DICTIONARY
  5
1A
330
18
100
AcDbDictionary
280
     1
281
     1
  3
ACAD_XREC_ROUNDTRIP
360
250
  3
BUMPTILE
360
1B
  3
DIFFUSETILE
360
1C
  3
FBXASSET
360
1D
  3
OPACITYTILE
360
1E
  3
REFLECTIONTILE
360
1F
  0
DICTIONARY
  5
26A
330
210
100
AcDbDictionary
280
     1
281
     1
  3
ACAD_XREC_ROUNDTRIP
360
26B
  0
DICTIONARY
  5
26C
330
212
100
AcDbDictionary
280
     1
281
     1
  3
ACAD_XREC_ROUNDTRIP
360
26D
  0
DICTIONARY
  5
56
330
55
100
AcDbDictionary
280
     1
281
     1
  3
ACAD_ROUNDTRIP_2008_TABLESTYLE_CELLSTYLEMAP
360
23D
  3
ACAD_XREC_ROUNDTRIP
360
25B
  0
DICTIONARY
  5
251
330
2F
100
AcDbDictionary
280
     1
281
     1
  3
ACAD_XREC_ROUNDTRIP
360
252
  0
DICTIONARY
  5
262
330
9C
100
AcDbDictionary
280
     1
281
     1
  3
ACAD_XREC_ROUNDTRIP
360
263
  0
DICTIONARY
  5
25C
330
57
100
AcDbDictionary
280
     1
281
     1
  3
ACAD_XREC_ROUNDTRIP
360
25D
  0
DICTIONARY
  5
25E
330
58
100
AcDbDictionary
280
     1
281
     1
  3
ACAD_XREC_ROUNDTRIP
360
25F
  0
XRECORD
  5
245
102
{ACAD_REACTORS
330
24B
102
}
330
24B
100
AcDbXrecord
280
     1
  1
AcDb_Thumbnail_Schema
102
{ATTRRECORD
341
246
  2
AcDbDs::TreatedAsObjectData
280
     1
291
     1
102
ATTRRECORD}
102
{ATTRRECORD
341
247
  2
AcDbDs::Legacy
280
     1
291
     1
102
ATTRRECORD}
  2
AcDbDs::ID
280
    10
 91
        8
102
{ATTRRECORD
341
248
  2
AcDs:Indexable
280
     1
291
     1
102
ATTRRECORD}
102
{ATTRRECORD
341
249
  2
AcDbDs::HandleAttribute
280
     7
282
     1
102
ATTRRECORD}
  2
Thumbnail_Data
280
    15
 91
        0
  0
XRECORD
  5
246
102
{ACAD_REACTORS
330
24B
102
}
330
24B
100
AcDbXrecord
280
     1
  1
AcDbDs::TreatedAsObjectDataSchema
  2
AcDbDs::TreatedAsObjectData
280
     1
 91
        0
  0
XRECORD
  5
247
102
{ACAD_REACTORS
330
24B
102
}
330
24B
100
AcDbXrecord
280
     1
  1
AcDbDs::LegacySchema
  2
AcDbDs::Legacy
280
     1
 91
        0
  0
XRECORD
  5
248
102
{ACAD_REACTORS
330
24B
102
}
330
24B
100
AcDbXrecord
280
     1
  1
AcDbDs::IndexedPropertySchema
  2
AcDs:Indexable
280
     1
 91
        0
  0
XRECORD
  5
249
102
{ACAD_REACTORS
330
24B
102
}
330
24B
100
AcDbXrecord
280
     1
  1
AcDbDs::HandleAttributeSchema
  2
AcDbDs::HandleAttribute
280
     7
 91
        1
284
     1
  0
XRECORD
  5
267
102
{ACAD_REACTORS
330
266
102
}
330
266
100
AcDbXrecord
280
     1
102
DISPLAYNAME
  1
Imperial24
102
FLAGS
 90
        0
  0
XRECORD
  5
269
102
{ACAD_REACTORS
330
268
102
}
330
268
100
AcDbXrecord
280
     1
102
DISPLAYNAME
  1
Metric50
102
FLAGS
 90
        0
  0
XRECORD
  5
24F
102
{ACAD_REACTORS
330
24E
102
}
330
24E
100
AcDbXrecord
280
     1
102
SHADEPLOT
 70
     0
102
SHADEPLOTRESLEVEL
 70
     2
102
SHADEPLOTCUSTOMDPI
 70
   300
  0
XRECORD
  5
24D
102
{ACAD_REACTORS
330
B
102
}
330
B
100
AcDbXrecord
280
     1
102
SHADEPLOT
 70
     0
102
SHADEPLOTRESLEVEL
 70
     2
102
SHADEPLOTCUSTOMDPI
 70
   300
  0
XRECORD
  5
25A
102
{ACAD_REACTORS
330
3F
102
}
330
3F
100
AcDbXrecord
280
     1
102
MATERIAL
148
0.0
149
0.0
149
0.0
 93
        0
 94
       63
282
     0
 72
     1
 77
     1
171
     1
175
     1
179
     1
273
     0
  0
XRECORD
  5
40
102
{ACAD_REACTORS
330
3F
102
}
330
3F
100
AcDbXrecord
280
     1
 70
     1
 90
429727718
  1
D62C5603-E3A1-4AEA-B7FB-FE5D8D0755AF
310
504B03040A0000080000CC70623B3DEE336E79000000790000001B0000006175746F6465736B2D64657369676E2D7061636B6167652E786D6C3C3F786D6C2076657273696F6E3D22312E302220656E636F64696E673D227574662D3822203F3E3C666F726D6174733E3C666F726D61743E687474703A2F2F736368656D612E
310
6175746F6465736B2E636F6D2F64657369676E2D7061636B6167652F323030393C2F666F726D61743E3C2F666F726D6174733E504B0304140006080800CC70623BD486FD9CA0000000F4000000130000005B436F6E74656E745F54797065735D2E786D6C7D8EC10E82300C865F65E91D8A1E8C310C0EEA1BF002731658846E
310
D98AC1B77784ABF1D8FE5FBFBF75BBCE937A534CCEB38643598122B6FEE978D0B0485F9C41B54DDD7D022595594E1A469170414C76A4D9A4D207E29CF43ECE46F218070CC6BECC4078ACAA135ACF422C856C0E68EA1BF5669944DDD7BCDE7B1F8E415D77AECB980613C2E4AC91FC167A2B244592486606FC29C8FD7F045B9A
310
EF7053A7E60B504B0304140006080800CC70623B853B8169EB0000007C01000008000000636F72652E786D6C8D90416EC3201045AF62CDB6C206821CC7C244919D9CA01740401C94182C03558F5F9C3852BBEB6A467FFE9B197D7EFC9E1EC5975982F5AE035262288C535E5B377690E21535501C055FBC8FBF6C503839990E
310
5619041F179FE64D52DE45E362569DD7661365082642A11EB9E920A89B99642953CC8E702F67A9EE7234257977194EC9EAE275C4EABCCF5EAD5940D4AC6F0E35A568B8F43562CD7046CD199FD07E60174276A7BE677B5EADB0E0D14EEFFB6A31321A0D82627C4084204C3F096B71DD52F6819B16635EADF63F509AF53FA164
310
5DDCD1EDDD17164090FCC8732078B56691CB33A85CD7DCC40F504B0304140006080800CC70623B55019EA25F0000007C00000007000000636E782E786D6C4DCB3B0E80201045D1AD90E915ED2CF8AC45050C11660C8261F98AB1B07AC9C97D42D718D865D3E909258CFD00CCE24AC6E326A164D74DC0B4128928FF32603847
310
2BA13128B1252AC747C6BAB984FC68F0B87FE8960A5C09FE86CFB69FBA01504B0304140006080800CC70623BDBABAAF470010000D40300000C0000006662782F636F72652E786D6CC553D16E823014FD95A6AF4B694182CC941A83FA05FB810A9511A125A5257EFE2E82712ECEB8A7F100CD39F7F69E734AF9FADC366850B6
310
AF8DCE7018308C942E4C59EB2AC3DE1D498AD15A706B8CFB56869196ADCAF00863C12B6B7C374385D14E6907A836A59A41D9F7CA615434B0C8705F7CAA5606D23BA8E84F41278B93AC54100640439DE0BDB320004D43C63716C7C399D30917DCFBBA9CD9BA8469F5B156168B24CED3F7248AC8769F27244EB73B92EED8862C
310
B7F13E0C179B3C8F979C8ECD82BBBABDAA2BAC924E9558448CBD9330242CFA08E3154B5651FCC6D215639C8EE5774DBE2B5F6CF2B5768B68963BB5F5588420E442FC700B1139D4CB01F450C1E918227C2E09DF070D8140C84E1E9AAB8F1340832A9CB13130A5F1376A908D57309505ECF2A0DF179C4E9D30F5B239B87E3823
310
7A79C6F31DE1A8A5AEC08474B03C7837EAE4938639B44E5932B833D2C6B6B279CDC613877FA26EE21F4A2A4C63EC7F29A2F301D1F9F7A0E37D145F504B0304140006080800CC70623B9C113CC27E0000009D0000000B0000006662782F636E782E786D6C4DCCDF0A83201C86E15B91DFB94BFB330DD428C8FB886521330DA7
310
6397BF1A1DECE883878F57749FCDA1B7892F1BBC047A23808C7F84D9FA55424E0BE6803A256208E9EF06C84F9B91703228B1C690F78B66B34CD9A5439DF5CF0BFBF65E35BCA1B8D6A5C6F540381E886698B5741C695F9503EBA150A2F8958E3DC3EA0B504B0304140006080800CC70623B7DF2F77C2A010000120200003100
310
00006662782F41393633353835312D344632462D344230382D423046372D3739314545314133324237412F636F72652E786D6C8D51DB8EC22014FC15C2939B0D2DB4B45643319AE817EC0F6041255A68B86CFCFC856D4D76DF7CE190393373060EDB3DC707F856CE6B6B7A480A0C81328395DA5C7B18C3057510EC3873D686
310
3F34088C18550F330C39BB3A1BA7051AAC09CA84841A2BD5020AEF55806078A44B0FFD7053A328440C89E1EFC52486BBB8AA8214A99D789CF9E05200300FC927E4FB4D5B375D43103D5527440FB843077C5AA3F5861C8F645F5787F59E95B390B318B55CE45AA638FAA2957BD7248B390B7A7CC51F9C124149C82B8C378810
310
84AB2F42B7B8DD56F413775B8C5999E9FF4471926F8AA236A1AE96B8B3CC434E5839373893369E1FAF30EA395917409EB7F26AF8801C171837A4A6AC9C89E9F9C9B1A58BA30FD6A5EF5DDDCF894B9AD9B6A59C957943A9FCAE2FD5BC4DFE03504B0304140006080800CC70623BAD7543B64E01000033030000300000006662
310
782F41393633353835312D344632462D344230382D423046372D3739314545314133324237412F636E782E786D6CD593CD6EC32010845F0571AD6CE3D48AD20813A9873E410FBD12D82434182C7EAAE6EDBB2424CD25871E7B41D6EC30B3FA84F9E67BB2E40B4234DE8DB46F1925E094D7C6ED479AD3AE5951B2113C789FEE
310
6C943839C1488B4C05DF079FE72A69D8C96C13AAD6B8631503449F83828872B949AC57D26200B826A308D316B4064D6E46FCDA41C05550DC9E483A00797BFD207EFB092A45DE9514C1BBD22178396BD39D891265658C238DEA00936C654E5E433CB65A26D9F6EDB5EBC14EBF49A45CB856E66048291F6939A9A81BB5C89177
310
38143CA680F4AA299D66A042CEB3354A2684DC9D8D178FE0D9B8B41CAAD720F880EE7EF93C0C18769E099ECC04D5A102C8049A8A05632F4DDF376CF1DE0F6BB65C2F8627B65A33C6BB62177CEBBDAD973006829F89F22E814B54F4BC2BE347F8AA8F681390B50FA73F804400B5F542E796F19FF974E7F78DB802FE05E20750
310
4B0304140006080800CC70623BE75B7789680500003C100000340000006662782F41393633353835312D344632462D344230382D423046372D3739314545314133324237412F6F626A656374732E786D6CAD575B8F9B3818FD2B887D06C22499CB8AA1CA655245D5B455A356FB305264C061D8018C6C3393D95FBFC7600890
310
A4CD5EF210B0B1BFEBF98E3F7B1FF6596ABC522E1296DF9BAE3D320D9A872C4AF2F8DE2CE5CEBA358D0FBEC719939D65A691938CDE9B6ADAF4BD98B3B2D05311DD91329583D9D5FC0F438434A7A611A644887B5384CF34233629258BA878B12322891DEFF6B66BD70BFB62634E8AE781D082709A4B588AF91C528CDA28B73F
310
1C998EEF39EABBEFA97FBD6A7C7E9553F9D3D79FE442923C3C523610337627CB87ABE99D359D4CC6D6E4FACAB5E6ABF9D2726FC6A3C5F56271377BB88362213924694B38DD99FE47C48627A1E7D49F5A8BB5E1A74C0A599ED3B0F21F1E56366B89112D681E218F0915D0D6F17AD41FBA2A369DCF6335D62ABBD39779D5DDD1
310
11D4D8DE3CBB96B2E04FB8202E41051754A1AA8E8F76B4C6DFE810B580B1547F4B84911149794252234D024EF8BBE963A95AE27B3D310A9D5C215C7960FAEE415ED75694C6AFB17BCACA5D99A60A9AA65F217B0BFC53292ACB92BF283FAD0D3621576592CB5BED907C2FA8E9DF794E35E97BEA31BED21FEB401ABB94C44839
310
DCACBF0E1C5DA8DA5B2F4DFFD32AD86F543D9E565E7056502E157C00AD2671CD534549AB752FCA9CDA00677A313F04E51B22FF19E57B300579E3C97EB29F682D92935CEC18CF901B7B54FD8C51F362B56FC72FE0B3C1EAE335EDCCBF5AEC39ADB17DC238973F804BA5E6F6BFE7AF1FB32E523BE9F3BD571418E3631DCA4D48
310
5250CF639223210A9446CA30052EDF057BD35F8329C1ECD84552BF0DC8D18BE7BCE23BFE6BD960AB4A7DE79923A103BEBD80F911CBAA2C60DB19B01CF164A5583B772EE6D3FFA56666CBCDA74DC97724A48F9A58967497E489C4D979006FD7A05E227A1EBDD0F737C623387A9C844D3709995625106D157315F8B8392CD4E0
310
A0B9A720C4BE9829CEF37EA1E13111214D53925356365ADA634861B52519DD27A00AEB808EAF0628E6F435519D446F45CF2C9CF5214F0A15B2F6D06B79DA3EE3CBF7F56780D2F4E7EF73A0F5E5B02A38D07DC852C6B7C1FBB6664213E0C39E3EBA7FF4E1AD23EA2829407C85E586727488B751B2DB9502BC7B228A3FD68B6E
310
A65A22397E690AA8D158D7E404EC8CDA235CC3B7D1898680131CEC2CDF2638C65196279577750F15884AEE19F94199155B92B13297978469D4F8D358DF0AEF7631E28DC8F0D9F437D5D39A83B2231A1D52D543813A824EF8D44BCFF2FA6A31BD1E8DAD87F1CCB526B3879935BF59CDADD5C37479BB1CDD4CA7B3556B516589
310
EF352754B706114D9C885EC9131DE6EFEB43D99AFE2391C2F958179413D7CFEF6B1B6DB1E7600F00DE6E5C67454A339A4BA2E0FBA85ED26F045D454F463DBFCE484C2F90F2E5E3666003662ED8F755951A7D1BECD5B30B550B2785C8E7320B7292A4838DDA71BBC863ED7613CAF659337A3354231D4FF4A182A54904C2898C
310
98B28C4AD0CE056CCF332A80986E571EE9DBC305BB5FEB7E509220A58D25CF042D712A806AC0AD0C657FDEF80D2D9CEAA2EE4D1C76F60BFE74219A06527D6F82DF6412526107381E55E353090704D085B52408A8913C4ED159D79BDA71BB4BC506F4831350EB6F975CD22D69BF7AC49B91A2C0A9DDA3D5CA36AD20FC478E37
310
E61844E2352865EBCB61A275A65283CAAA9DD27703B4102F5AF51EF5F573B75CBB5AD38BC845F7A49F82A0966A49C2E3EA5EA0ECD326CD965F1DB402C6FA8B51A4658C5C5E2EC9E214602E55810345408596591009A82E7E7FFACA19EEA299B14A0081A705CB3296EBC14CDF658DCD336EA6D1136881AAEB87B81AB9EE53D5
310
F5EB8BC8362082DA24122F98680A4E7930C01A0079749CEA14382A0783E5EBA5A10F8C098456A03D6A4AEB6BB881E2513747552A5DB22C7EDAF83BD5528081A365F7FF06504B0304140006080000CC70623B000000000000000000000000350000006662782F41393633353835312D344632462D344230382D423046372D37
310
39314545314133324237412F76657274696365732E62696E504B0304140006080800CC70623BF270F1330600000004000000360000006662782F41393633353835312D344632462D344230382D423046372D3739314545314133324237412F747269616E676C65732E62696E636660600000504B0304140006080000CC7062
310
3B000000000000000000000000370000006662782F41393633353835312D344632462D344230382D423046372D3739314545314133324237412F617474726962757465732E62696E504B0304140006080800CC70623B08DA0BD19000000041010000360000006662782F41393633353835312D344632462D344230382D4230
310
46372D3739314545314133324237412F6469726563746F72792E786D6C858F410AC3201045AF22B36F53E9A60B35CBEEBAE80D244E44489C6234F4F835464A48035D0DF398FF9F8AF63D0E6CC63039F212F8F9020C7D47C6792B21C5FE7403D62A1188E2E60C98D7234A5830286103A55745067B9D86B8A3CF9C7F90C11DE6
310
07FB144396D7B6A82D282E9A152AD114D5EF2CB866EEE831B8EEA07A7BB5A8D7D61A2BAAEB7FD5F70921FF497D00504B0304140006080800CC70623BEDD1DC58FD000000A00100003B0000006662782F41393633353835312D344632462D344230382D423046372D3739314545314133324237412F7265736F75726365732F
310
636F72652E786D6C8D504B6E833010BD0A9A6D65B00922041947112427E8052C33A156828DFCA97AFC9A40A576D7CDCCE87D344F8F9FBFE667F689CE6B6B3A6039850C8DB2A336530731DC4903D95970676DF82583CCC8193B5861107C72362E3BA4AC096842428D1D7107A5F7182053CF7474E0D507CE32973124857FE48B
310
540F3961CEF244279DE03EB81420DB9EAC1384436FA353E879B1B182C7A8C75DA3C7F453DF353A1075D537A7BA6464B8F535A99AE14A9A2BBD90E350DD183B5CFABE3AF262350B1EF4FC9351399401471025A527C218A1E53BAB5A5AB765F5469B96525EACF23FA6B88CFF34456DC2A1DCE36E360F82A5202F42F062ED2BAD
310
579969AFDD8A6F504B010214000A0000080000CC70623B3DEE336E79000000790000001B00000000000000000000000000000000006175746F6465736B2D64657369676E2D7061636B6167652E786D6C504B01021400140006080800CC70623BD486FD9CA0000000F40000001300000000000000000000000000B20000005B
310
436F6E74656E745F54797065735D2E786D6C504B01021400140006080800CC70623B853B8169EB0000007C010000080000000000000000000000000083010000636F72652E786D6C504B01021400140006080800CC70623B55019EA25F0000007C000000070000000000000000000000000094020000636E782E786D6C504B
310
01021400140006080800CC70623BDBABAAF470010000D40300000C00000000000000000000000000180300006662782F636F72652E786D6C504B01021400140006080800CC70623B9C113CC27E0000009D0000000B00000000000000000000000000B20400006662782F636E782E786D6C504B01021400140006080800CC70
310
623B7DF2F77C2A010000120200003100000000000000000000000000590500006662782F41393633353835312D344632462D344230382D423046372D3739314545314133324237412F636F72652E786D6C504B01021400140006080800CC70623BAD7543B64E010000330300003000000000000000000000000000D2060000
310
6662782F41393633353835312D344632462D344230382D423046372D3739314545314133324237412F636E782E786D6C504B01021400140006080800CC70623BE75B7789680500003C10000034000000000000000000000000006E0800006662782F41393633353835312D344632462D344230382D423046372D3739314545
310
314133324237412F6F626A656374732E786D6C504B01021400140006080000CC70623B0000000000000000000000003500000000000000000000000000280E00006662782F41393633353835312D344632462D344230382D423046372D3739314545314133324237412F76657274696365732E62696E504B01021400140006
310
080800CC70623BF270F133060000000400000036000000000000000000000000007B0E00006662782F41393633353835312D344632462D344230382D423046372D3739314545314133324237412F747269616E676C65732E62696E504B01021400140006080000CC70623B0000000000000000000000003700000000000000
310
000000000000D50E00006662782F41393633353835312D344632462D344230382D423046372D3739314545314133324237412F617474726962757465732E62696E504B01021400140006080800CC70623B08DA0BD1900000004101000036000000000000000000000000002A0F00006662782F41393633353835312D344632
310
462D344230382D423046372D3739314545314133324237412F6469726563746F72792E786D6C504B01021400140006080800CC70623BEDD1DC58FD000000A00100003B000000000000000000000000000E1000006662782F41393633353835312D344632462D344230382D423046372D3739314545314133324237412F7265
310
736F75726365732F636F72652E786D6C504B0506000000000E000E0080040000641100000000
  0
XRECORD
  5
259
102
{ACAD_REACTORS
330
3C
102
}
330
3C
100
AcDbXrecord
280
     1
102
MATERIAL
148
0.0
149
0.0
149
0.0
 93
        0
 94
       63
282
     0
 72
     1
 77
     1
171
     1
175
     1
179
     1
273
     0
  0
XRECORD
  5
3D
102
{ACAD_REACTORS
330
3C
102
}
330
3C
100
AcDbXrecord
280
     1
 70
     1
 90
429727718
  1
30362254-06B7-45E0-A893-8CFA70E3D6BC
310
504B03040A0000080000CC70623B3DEE336E79000000790000001B0000006175746F6465736B2D64657369676E2D7061636B6167652E786D6C3C3F786D6C2076657273696F6E3D22312E302220656E636F64696E673D227574662D3822203F3E3C666F726D6174733E3C666F726D61743E687474703A2F2F736368656D612E
310
6175746F6465736B2E636F6D2F64657369676E2D7061636B6167652F323030393C2F666F726D61743E3C2F666F726D6174733E504B0304140006080800CC70623BD486FD9CA0000000F4000000130000005B436F6E74656E745F54797065735D2E786D6C7D8EC10E82300C865F65E91D8A1E8C310C0EEA1BF002731658846E
310
D98AC1B77784ABF1D8FE5FBFBF75BBCE937A534CCEB38643598122B6FEE978D0B0485F9C41B54DDD7D022595594E1A469170414C76A4D9A4D207E29CF43ECE46F218070CC6BECC4078ACAA135ACF422C856C0E68EA1BF5669944DDD7BCDE7B1F8E415D77AECB980613C2E4AC91FC167A2B244592486606FC29C8FD7F045B9A
310
EF7053A7E60B504B0304140006080800CC70623B1EC5D7A3EB0000007C01000008000000636F72652E786D6C8D90416EC3201045AF82665B6103C6756C6122AB4D4ED00B204C5C94182C03558F5F9C3852BBEB6A467FFE9B197D71FC9E6FE8CBACC17AD7032D0820E3B41FAD9B7A48F1820F808E52ACDEC75F36404ECDA687
310
4D0629A6D5A76597B477D1B89855E747B38B2A041301E95B6E7A08FAD3CCAA50296647B8168BD2573599823EBB0CA76447F43862C7BCCF5EAC59410E4DDD9C7973C2755553CCCFA4C603E3040F1565ED3B1FDE4E432BCA0D9622DAF9795FAF464533826484B498524CD807E51D79ED187F21878E10516EF63F505AC67F42C9
310
BA58B1FDDD071640D2FCC87D2045B96591CB3DA85CB7DCE40F504B0304140006080800CC70623B55019EA25F0000007C00000007000000636E782E786D6C4DCB3B0E80201045D1AD90E915ED2CF8AC45050C11660C8261F98AB1B07AC9C97D42D718D865D3E909258CFD00CCE24AC6E326A164D74DC0B4128928FF32603847
310
2BA13128B1252AC747C6BAB984FC68F0B87FE8960A5C09FE86CFB69FBA01504B0304140006080800CC70623B8C9102E971010000D40300000C0000006662782F636F72652E786D6CC5535B6E833010BC8AE5DF0A6C08340F1947A84D4ED00B38C6A128602363A31CBFCB234A53A551FA553EC09AD9F5CE8C31DB9E9B1AF5CA
310
7695D1198E428A91D2D214952E33ECDD315861B4E5CC1AE3BE9561A445A3323CC098B3D21ADFCE9034DA29ED00D5A6503328BA4E398C640D8B0C77F253352214DE4145770A5B214FA2546114020D759C75CE8200340D19DE981F0F6746269C33EFAB6266AB02A655C74A59CCF365BADC27CB5D902ED22848F6340DF238A141
310
BE88E2F57B92BFEDF23523433367AE6A2EEAA455C2A902F398D2751045018D3FA264435F3771F242571B4A1919CA6F9A7C5B3CD9E42BED16F12C776AEB308F40C848FC700B1139D4891EF410CEC810227CC6846F8386402064270EF5C5C709A05E49676C024C61FC95EA45ED154CA5211D1FF4FB8291A913A68E9B83EBBB33
310
E2A7673CDE118E5AE8124C0807CB8377834E366998436B950D7A7746DAD846D4CFD978E0F04FD455FC5D49D2D4C6FE9722321F10997F0F32DC47FE05504B0304140006080800CC70623BFFEA85907E0000009D0000000B0000006662782F636E782E786D6C4DCCD10A83201886E15B91FFDC95D95A811AB6F23E625948A6C3
310
E9D8E5AF46073BFAE0E1E365ED67B3E8ADC3CB78C7815C7240DA3DFC64DCC221C519D7805AC182F7F1EF06C88D9BE6703008B6049F9E274D7A1E938DBB5AE3D6131B2589BA0D3D965551E0B2EA732C9B9A624AAEB41E3A557677029960D9AFB4EF11165F504B0304140006080800CC70623B4FEEA4082C0100001202000031
310
0000006662782F39464131463745442D413632322D343644302D413938332D3331353338454246344243312F636F72652E786D6C8D515B6EC32010BC0AE2AB55850DD871ED0813254D72825EC00192A2C460F1A872FC42ED48ED5F7E00CDCECCCEB26C731F6FE05B39AFADE921293004CA082BB5B9F43086336A21D870E6AC
310
0D7F68109861543DCC30E4ECE26C9C164858139409093556AA051CBC570102714B8F1E7AF1A5C6A11862480C7F2DA6415C878B2A4891CA89C7990F2E050073937C42DE1DB7E4F87ED8A36D4329AA9B3D46DBAEAD504556557BD81DEBDD0761E52CE42C462D17B996298E3E6BE59E35C962CE821E1FF18553435012728A7187
310
0841987E927A8D9B35ADDF70BBC6989599FE4F1427F9A4286A132ABAC49D651EF234CD5CE04CDA78BA3DC2A8FB645D00B9DF8B57E215725C60BCA2A463E54C4CE327C7A65E1C7DB02E7DEFCBF594B864C5CA6CDBD49C957943E9FA5D5FBAF336F90F504B0304140006080800CC70623BAD7543B64E01000033030000300000
310
006662782F39464131463745442D413632322D343644302D413938332D3331353338454246344243312F636E782E786D6CD593CD6EC32010845F0571AD6CE3D48AD20813A9873E410FBD12D82434182C7EAAE6EDBB2424CD25871E7B41D6EC30B3FA84F9E67BB2E40B4234DE8DB46F1925E094D7C6ED479AD3AE5951B2113C
310
789FEE6C943839C1488B4C05DF079FE72A69D8C96C13AAD6B8631503449F83828872B949AC57D26200B826A308D316B4064D6E46FCDA41C05550DC9E483A00797BFD207EFB092A45DE9514C1BBD22178396BD39D891265658C238DEA00936C654E5E433CB65A26D9F6EDB5EBC14EBF49A45CB856E66048291F6939A9A81BB5
310
C8917738143CA680F4AA299D66A042CEB3354A2684DC9D8D178FE0D9B8B41CAAD720F880EE7EF93C0C18769E099ECC04D5A102C8049A8A05632F4DDF376CF1DE0F6BB65C2F8627B65A33C6BB62177CEBBDAD973006829F89F22E814B54F4BC2BE347F8AA8F681390B50FA73F804400B5F542E796F19FF974E7F78DB802FE05
310
E207504B0304140006080800CC70623B16AB87BA640500003C100000340000006662782F39464131463745442D413632322D343644302D413938332D3331353338454246344243312F6F626A656374732E786D6CAD575B6FA33818FD2B887DE6924B3BED8A326A92B68A663B534DD4D13E548A0C38942D60649B369D5FBFC7
310
600890A493BDE42160637FD7F31D7FF63E6FB3D478A55C242CBF3247B66B1A340F5994E4F19559CA8D75611A9F7D8F33263BCB4C232719BD32D5B4E97B316765A1A722BA21652A07B3B7B33F0D11D29C9A46981221AE4C113ED38CD8A4942CA2E2C58E882476BCD9DA23BB5ED8171B73523C0F841684D35CC252CCE79062D4
310
468DFA43D7747CCF51DF7D4FFDEB5593E3AB9CCA9FBEFE241792E4E19EB28198C968BAB8199F5D5A67D3E9C49A9E8F47D6EC76B6B0469F26EEFC7C3EBFBCBEB98462213924694B38DD98FE1D62C393D073EA4FADC5DAF04326852CCF6958F90F0F2B9BB5C48816348F90C7840A68EB78EDF68723159BCEE7891A6B95DDE9D3
310
BCEAEEE8086A6C6F9E5D4B59F0175C10A7A0820BAA5055C7473B5AE3CFDD452D602CD5DF12616444529E90D448938013FE6EFA58AA96F85E4F8C42275708571E98FE6827AF6B2B4AE3D7D83D64E5A64C53054DD3AF90BD06FEA9149565C94FCA0F6B834DC85599E4F2423B24DF0B6AFA979E534DFA9E7A4CC6FA631D486393
310
921829879BF5D781A373557BCB85E97FB90DB62B558F8795179C15944B051F40AB495CF35451D26A4727654E6D8033BD98EF82F21D91FF8AF2DD9982BCF1643BDD4EB516C9492E368C67C88DED563FC36D5EACF66DFF057C3658BDBFA69DF9578B3DA735B64F18C7F20770A9D45CFCF7FCF563D6456A277DBEF78A02637CA2
310
43B90A490AEAB94F72244481D24819A6C0E59B606BFA4B3025981DBB48EAB701D97BF19C577CC77F2D1B6C55A9EF3C732474C0B727303F625995056C3B02963D9EAC146BE78EC5FCEC7FA999EBC5EACBAAE41B12D27B4D2C0BBA49F244E2ECDC81B76B502F113D8F5EE8FB1BE3111CDD4FC2AA9B844CAB1288B68AB90A7CDC
310
1C166AB0D3DC5310625FCC14E779BFD0709F8890A629C9292B1B2DED31A4B0DA928CEE135085754027E3018A397D4D5427D15BD1330B677DC8934285AC3DF45A9EB68FF8F2B8FC0A509AFEECFD0FF2DE25CC6047F7214B195F07EFEB9A094D800F7BFAE8FED187B78EA8A3A400F115961BCAD1215E47C966530AF0EE8128FE
310
58CEBB996A8964FFA529A046635D9353B0336A8F700DDF46271A024E70B0B37C9DE01847591E54DED53D54202AB947E4076556AC49C6CA5C9E1226B7F1A7B1BE15DEED62C41B91E1B3E9AFAAA735036547343A925075041DF0A9979E893B391F8FCFA6967B3EFB644DCF6E5CEBFAE272625DCC6FAF3FB93793C5F90CE1EF57
310
407342756B10D1C489E8953CD1617E5CEECAD6F4EF8914CE5D5D504E5C3F1F9736DA62CFC11E00BCDDB8CC8A9466349744C1F75EBDA4DF09BA8A9E8C7A7E9991989E20E5DBDD6A6003664ED8F7A04A8DBE0DF6EAD9B9AA858342E47399053949D2C146EDB85DE4B176BB0965FBAC19BD19AA918E27FA50C1D22402E144464C
310
59462568E704B6E71915404CB72B8FF4EDE184DDAF753F284990D2C6926782963815403548A70C657FDEF80D2D9CEAA2AE4C1C76F60BFE74219A06527D6582DF6412526107381E55E353090704D085B52408D0933C4ED159D79BDA71BB4BC506F4831350EB6F979CD22D69BF7AC49B91A2C0A9DDA3D5CA36AD20FC478E37E6
310
1844E2352865EBCB6EA275A652E3836BE04EFB400BF1A2556F515F1FBB35B2AB35BD889C744FFA1004B5544B121E57F70215746DD2F5E2C1412B602CBF19455AC6C8E5E9922C4E01E65215385004546899059180EAFCF7A707CE7017CD8CDB0410789AB32C63B91E5CEBBBACB17AC6CD347A022D5075FD106377347AAABA7E
310
7D11590744509B44E205134DC1290F06580320F78E537D3D73540E06CB970B431F185308AD40BBD794D6D77003C5A36E8EAA54BA64597CD8F83BD552A080A365F7FF06504B0304140006080000CC70623B000000000000000000000000350000006662782F39464131463745442D413632322D343644302D413938332D3331
310
353338454246344243312F76657274696365732E62696E504B0304140006080800CC70623BF270F1330600000004000000360000006662782F39464131463745442D413632322D343644302D413938332D3331353338454246344243312F747269616E676C65732E62696E636660600000504B0304140006080000CC70623B
310
000000000000000000000000370000006662782F39464131463745442D413632322D343644302D413938332D3331353338454246344243312F617474726962757465732E62696E504B0304140006080800CC70623B08DA0BD19000000041010000360000006662782F39464131463745442D413632322D343644302D413938
310
332D3331353338454246344243312F6469726563746F72792E786D6C858F410AC3201045AF22B36F53E9A60B35CBEEBAE80D244E44489C6234F4F835464A48035D0DF398FF9F8AF63D0E6CC63039F212F8F9020C7D47C6792B21C5FE7403D62A1188E2E60C98D7234A5830286103A55745067B9D86B8A3CF9C7F90C11DE607
310
FB144396D7B6A82D282E9A152AD114D5EF2CB866EEE831B8EEA07A7BB5A8D7D61A2BAAEB7FD5F70921FF497D00504B0304140006080800CC70623B0D6EF93BFE000000A00100003B0000006662782F39464131463745442D413632322D343644302D413938332D3331353338454246344243312F7265736F75726365732F63
310
6F72652E786D6C8D50596E833010BD0A9ADFCA60B334011947A8694ED00B586642AC041B79A97AFC9A40A5F6AF3F33A3B7689E1E3F7DCD8FEC139DD7D6F4C0720A191A65476DA61E62B892236427C19DB5E1970C322367EC618541F0C9D9B8EC90B226A009093576C41D94DE63804C3DD2D18357379C652E63480A7FCF17A9
310
EE72C29CE5894E3AC17D702940B63D59270887DE46A7D0F36263058F518FBB468FE9A7BE6A7420864373B8D4873369AA8691FA421B3294352543C5CAF65C0F6FEF43CB8BD52C78D0F34F46E550061C419494B6843142CB0F5677F4B52BEB177AEC28E5C52AFF638ACBF84F53D42654E51E77B379102C05791282176B5F693D
310
CB4C7BED567C03504B010214000A0000080000CC70623B3DEE336E79000000790000001B00000000000000000000000000000000006175746F6465736B2D64657369676E2D7061636B6167652E786D6C504B01021400140006080800CC70623BD486FD9CA0000000F40000001300000000000000000000000000B20000005B
310
436F6E74656E745F54797065735D2E786D6C504B01021400140006080800CC70623B1EC5D7A3EB0000007C010000080000000000000000000000000083010000636F72652E786D6C504B01021400140006080800CC70623B55019EA25F0000007C000000070000000000000000000000000094020000636E782E786D6C504B
310
01021400140006080800CC70623B8C9102E971010000D40300000C00000000000000000000000000180300006662782F636F72652E786D6C504B01021400140006080800CC70623BFFEA85907E0000009D0000000B00000000000000000000000000B30400006662782F636E782E786D6C504B01021400140006080800CC70
310
623B4FEEA4082C0100001202000031000000000000000000000000005A0500006662782F39464131463745442D413632322D343644302D413938332D3331353338454246344243312F636F72652E786D6C504B01021400140006080800CC70623BAD7543B64E010000330300003000000000000000000000000000D5060000
310
6662782F39464131463745442D413632322D343644302D413938332D3331353338454246344243312F636E782E786D6C504B01021400140006080800CC70623B16AB87BA640500003C1000003400000000000000000000000000710800006662782F39464131463745442D413632322D343644302D413938332D3331353338
310
454246344243312F6F626A656374732E786D6C504B01021400140006080000CC70623B0000000000000000000000003500000000000000000000000000270E00006662782F39464131463745442D413632322D343644302D413938332D3331353338454246344243312F76657274696365732E62696E504B01021400140006
310
080800CC70623BF270F133060000000400000036000000000000000000000000007A0E00006662782F39464131463745442D413632322D343644302D413938332D3331353338454246344243312F747269616E676C65732E62696E504B01021400140006080000CC70623B0000000000000000000000003700000000000000
310
000000000000D40E00006662782F39464131463745442D413632322D343644302D413938332D3331353338454246344243312F617474726962757465732E62696E504B01021400140006080800CC70623B08DA0BD190000000410100003600000000000000000000000000290F00006662782F39464131463745442D413632
310
322D343644302D413938332D3331353338454246344243312F6469726563746F72792E786D6C504B01021400140006080800CC70623B0D6EF93BFE000000A00100003B000000000000000000000000000D1000006662782F39464131463745442D413632322D343644302D413938332D3331353338454246344243312F7265
310
736F75726365732F636F72652E786D6C504B0506000000000E000E0080040000641100000000
  0
XRECORD
  5
250
102
{ACAD_REACTORS
330
1A
102
}
330
1A
100
AcDbXrecord
280
     1
102
MATERIAL
148
0.0
149
0.0
149
0.0
 93
        0
 94
       63
282
     0
 72
     1
 77
     1
171
     1
175
     1
179
     1
273
     0
  0
XRECORD
  5
1B
102
{ACAD_REACTORS
330
1A
102
}
330
1A
100
AcDbXrecord
280
     1
270
     1
271
     1
  0
XRECORD
  5
1C
102
{ACAD_REACTORS
330
1A
102
}
330
1A
100
AcDbXrecord
280
     1
270
     1
271
     1
  0
XRECORD
  5
1D
102
{ACAD_REACTORS
330
1A
102
}
330
1A
100
AcDbXrecord
280
     1
 70
     0
 90
1673772943
  1
ECE7A1D2-D628-4531-984C-D00F80459256
310
504B03040A0000080000CC70623B3DEE336E79000000790000001B0000006175746F6465736B2D64657369676E2D7061636B6167652E786D6C3C3F786D6C2076657273696F6E3D22312E302220656E636F64696E673D227574662D3822203F3E3C666F726D6174733E3C666F726D61743E687474703A2F2F736368656D612E
310
6175746F6465736B2E636F6D2F64657369676E2D7061636B6167652F323030393C2F666F726D61743E3C2F666F726D6174733E504B0304140006080800CC70623BD486FD9CA0000000F4000000130000005B436F6E74656E745F54797065735D2E786D6C7D8EC10E82300C865F65E91D8A1E8C310C0EEA1BF002731658846E
310
D98AC1B77784ABF1D8FE5FBFBF75BBCE937A534CCEB38643598122B6FEE978D0B0485F9C41B54DDD7D022595594E1A469170414C76A4D9A4D207E29CF43ECE46F218070CC6BECC4078ACAA135ACF422C856C0E68EA1BF5669944DDD7BCDE7B1F8E415D77AECB980613C2E4AC91FC167A2B244592486606FC29C8FD7F045B9A
310
EF7053A7E60B504B0304140006080800CC70623BD9DDAED0EC0000007C01000008000000636F72652E786D6C8D90416EC3201045AF82665B61836D9CD8C2444DD39CA01740405C94182C03558F5F9C3852BBEB6A467FFE9B197D7EF89E6EE8CB2CC17A37002D0820E394D7D68D03A478C17B4007C117EFE32F1B20272733C0
310
2A83E0E3E2D3BC49CABB685CCCAAF3DA6CA20CC14440EA969B0182FA34932C648AD911AEC52CD5558EA6A0CF2EC329598D1E47ACCEFBECC59A050463A7EA5833865FEBDD0E37353BE3EE8DBDE3F6786A48D375FBF6CC78B9C282473B3DEFABC5C86834888A900E538A49F5419B9EB47DD5BC907D4F082F57FB1F28CDFA9F50
310
B22ED6D5F6EE030B20687EE43E10BC5CB3C8E51E54AE6B6EE207504B0304140006080800CC70623B55019EA25F0000007C00000007000000636E782E786D6C4DCB3B0E80201045D1AD90E915ED2CF8AC45050C11660C8261F98AB1B07AC9C97D42D718D865D3E909258CFD00CCE24AC6E326A164D74DC0B4128928FF326038
310
472BA13128B1252AC747C6BAB984FC68F0B87FE8960A5C09FE86CFB69FBA01504B0304140006080800CC70623BA24EB22D72010000D40300000C0000006662782F636F72652E786D6CC5535B6E833010BC8AE5DF0A6C5E49888CA3A6694ED00B38E05014B091B1518EDFE511A5A9D228FD2A1F60CDEC7A67C6986DCE4D8D7A
310
69BA4AAB0C073EC548AA5C17952A33ECECD15B61B4E1CC686DBF9561A44423333CC098B3D268D7CE50AE9595CA02AA74216750749DB418E5352C32DCE59FB211BE70162ABA93DF8AFC244AE9073ED050C759670D0840D390E18DF9F1706664C23973AE2A66B62A605A75ACA4C13C4976E1364A12EF355A2EBD384AF65EFA96
310
BC7B8BED2EA6719AAE16FB8491A199335B351775B991C2CA02F390D2D40B028F861F41BCA68B7518BFD0D59A524686F29B26D7164F36B94AD9289CE54E6D1DE6010819891F6E21228B3AD1831EC219194284CF98F06DD01008846CC5A1BEF83801D4CBDC6A1303536877A57A513B0953A94FC707FDBE6064EA84A9E3E6E0FA
310
EE8CF0E9198F7784A316AA0413C2C2F2E0ECA0934D1AE6D05A69BCDE9E91D2A611F573361E38FC1375157F5752AE6B6DFE4B11990F88CCBF0719EE23FF02504B0304140006080800CC70623B408A7D3B7C0000009D0000000B0000006662782F636E782E786D6C4DCCD10A83201886E15B91FFDC552A92A0064DBC8F581632
310
D3703A76F9ABD1C18E3E78F878E5F0D9027ABBFCF2292AE86E2D20171F69F6715550CB827B40839639A5F2770314A7CD293819B45C73AAFB45B35BA61ACAA1C1C7E7855C58C15BC331339661262CC762340413D68D77DA5B42298546CBE6573AF60CEB2F504B0304140006080800CC70623B449FB9BD290100001202000031
310
0000006662782F36394639363044362D344446342D343946362D394244322D3234314243333846323333332F636F72652E786D6C8D515B6EC32010BC0AE22B55850D98B871848994463E412FE002495162B07854397EA176A4F62F3F2C9A9D991D587EB84F37F0AD7D30CEF6905418026DA553C65E7A98E219ED203808EE9D
310
8B7F6810D871D23D2C3014FCE25D9A57483A1BB58D19B54EE9151C43D0110279CB971E06F9A5A7B11A53CC8C70ADE6515EC78BAE4895DB992778883E0700CB907242D17643D7E2538BD869608875438BBAE38922CAC8F1BDD90DB4691A5E2F42C153326A951B95E398B3D1FE599322163C9AE9115F7A3D46ADA0A018778810
310
84E907617BDCEE297BC5BB3DC6BC2EF47FA234AB2745C9D8D8D035EE220B50105E2F0DC1954B9FB747187D9F9D8FA0CCDB042D5FA0C015C65B42DF78BD10F3F3B363CB56C7109DCFDFBBB97E662ED92EB62D13BC2E1BCAE5777DB9966D8A1F504B0304140006080800CC70623BAD7543B64E01000033030000300000006662
310
782F36394639363044362D344446342D343946362D394244322D3234314243333846323333332F636E782E786D6CD593CD6EC32010845F0571AD6CE3D48AD20813A9873E410FBD12D82434182C7EAAE6EDBB2424CD25871E7B41D6EC30B3FA84F9E67BB2E40B4234DE8DB46F1925E094D7C6ED479AD3AE5951B2113C789FEE
310
6C943839C1488B4C05DF079FE72A69D8C96C13AAD6B8631503449F83828872B949AC57D26200B826A308D316B4064D6E46FCDA41C05550DC9E483A00797BFD207EFB092A45DE9514C1BBD22178396BD39D891265658C238DEA00936C654E5E433CB65A26D9F6EDB5EBC14EBF49A45CB856E66048291F6939A9A81BB5C89177
310
38143CA680F4AA299D66A042CEB3354A2684DC9D8D178FE0D9B8B41CAAD720F880EE7EF93C0C18769E099ECC04D5A102C8049A8A05632F4DDF376CF1DE0F6BB65C2F8627B65A33C6BB62177CEBBDAD973006829F89F22E814B54F4BC2BE347F8AA8F681390B50FA73F804400B5F542E796F19FF974E7F78DB802FE05E20750
310
4B0304140006080800CC70623B8D05915C650500003B100000340000006662782F36394639363044362D344446342D343946362D394244322D3234314243333846323333332F6F626A656374732E786D6CAD575B6FA33814FE2B887D06429276DA1565D4266D158D3A339A6846FB502932E050B66023DB74D2FDF5FB190C01
310
9276B2973C046C8ECFF53B17071F77456EBD502133CEAE6CDF9DD81665314F32965ED995DA3A17B6F5310C04E7AA47665B8C14F4CAD6DB7618A48257A5D94AE89654B91AEDDEDDFC61C998326A5B714EA4BCB265FC440BE2924AF184CA6737218AB8E976E7FA6E4338649B0A523E8D98964450A6A029F619B8588D52FE7039
310
B1BD30F0F4F730D0FF866AF6369557DB33949F31A9088B0F848DD8CCFCF9F2767A76E99CCDE733677E3EF59D9BBB9BA5E37F984D16E78BC5E5F5ED25044B25C0C96822E8D60EEFE11B91C581D77CEA34368A1F5329E68CD1B8B61F16D63A1B8E092D294B10C78C4A48EB593D192E7DED9BDEE7995E1B91FDEDD3ACEA9FE831
310
6A756F9F7D4D79F4274C90A7A04248AA51D5F8C718DAE06FB2F75AC4796EBE65D22A88A22223B995679120E2D50E41AA49C260C046A35368846B0BECD0DFF3EBEB8AD4F835768F69B9ADF25C43D30E6B646F807FAA64AD59F61715C7A54127C4AACA98BA3006A9D792DAE165E0D59B61A01FB3A9F9D838D2DAE62445C86166
310
F37564E842E7DE6A69879FEEA2DD5AE7E371E1A5E025154AC307D06A03D73EB5978C58FFA4C8E9033066E0F3BD53BEC1F39F91BE7B55103791EDE6BBB991A2046172CB4581D8B893FA674DDA17A77B3B7C413D1B511FD2743BFF8A38F03A658705E3ADF8015C3A3417FF3D7E439FF591DA0B5F18BC20C1B8981957AE6392A3
310
F43C640C01D1A0B4728E2DD4F26DB4B3C3152A252A3B4E913CEC1C72F012782FF88EFF8637AA552DBEF76408E8A8DE9E50F9E1CB3A2DA0DB1B6039A893B56063DC5B3E3FFB5F72E67AB9FEB4AEC496C4F4C1149625DD662C53E89D7BF0F6151A046260D1337DFDC94502430F83B0EE07A130A224BCAD7DAE1D9FB6CD422FF6
310
920702629C4BB9AE79C12F243C6432A6794E18E5552BA56B431AAB5D91317302B2B071E86C3A42B1A02F999E24061403B5D0EB639195DA655DD3EBEAB4FB862DDF579F014AD0E73C22F99E28DA57FB98E75C6CA2D74D53086D600F4786E0FE3144B771A8A7B900F03594DB8A633CBC49B2EDB69228BB479CF863B5E807AAAB
310
23872F6DFEB4129B949CA33823F58830E86D65621E10047D9DB34D862E8EAC3C2ABC2F7B2C40D67CDFE01F5545B92105AF983AC54D93D69E56FB8E797F88913F898A9FEC705D3F9D1B54EC8426FB500D40A03BD0119B06E1B95DDC7EB8F6975367793EBD70E66733DFB9BC982F9CE564727731999F5D4ECFCE3B8D6A4DC2A0
310
6D50FD148437D110834A64C6CDDF57FBACB5C307A2A477DFE4939736CFEF2B175371E0E10CF0DD1D5C15654E0BCA14D1E87DD02FF93782A162C0A3D95F1524A52770F972BF1EE9809D13CE7DD599467F8ECE9ADD85CE85A34CD45355448C64F9E8A031DC2D596ACC6E5DD93D9B82DE2EF5CAF81363A8E47996A0DE24564A79
310
4115AACE09C55E14540231FDA13C319787134EBF34E3A022514E5B4D9E0826E25C02D5805B15ABE1BEF51B26383D445DD9E875EE33FE4C22DA16427D65A3BCA92CA6D28DD01DF5DC53330704308475351050232CCD31583787BA75774AFB06E5070DD0C8EF484E19968C5D83BA5B90B244D31E54D55A372320FE4786B7EA58
310
44E135AA5467CB7EA333A61683CC6A8C3257034C10CF46F40EF9F5BE59BE5BD30C3C72D235E95D10345C1D45445A5F0BB47E46A5EBE5570F9380B5FA629579952296A773720405982B9DE04011506178964401AA8BDF1FBF0A8EAB6861DD6580C0E38217056766716DAEB2D6FA0917D3E4116581EADB879C4E7CFFB11EFACD
310
3D641311495D92C8676CB409A72D18610D803CE8A626049E8EC1887CB5B44CC39883690DDA8399B4B9855B481E7D71D4A9D22F96E5BB73BF5793020C02137BF837504B0304140006080000CC70623B000000000000000000000000350000006662782F36394639363044362D344446342D343946362D394244322D32343142
310
43333846323333332F76657274696365732E62696E504B0304140006080800CC70623BF270F1330600000004000000360000006662782F36394639363044362D344446342D343946362D394244322D3234314243333846323333332F747269616E676C65732E62696E636660600000504B0304140006080000CC70623B0000
310
00000000000000000000370000006662782F36394639363044362D344446342D343946362D394244322D3234314243333846323333332F617474726962757465732E62696E504B0304140006080800CC70623B08DA0BD19000000041010000360000006662782F36394639363044362D344446342D343946362D394244322D
310
3234314243333846323333332F6469726563746F72792E786D6C858F410AC3201045AF22B36F53E9A60B35CBEEBAE80D244E44489C6234F4F835464A48035D0DF398FF9F8AF63D0E6CC63039F212F8F9020C7D47C6792B21C5FE7403D62A1188E2E60C98D7234A5830286103A55745067B9D86B8A3CF9C7F90C11DE607FB14
310
4396D7B6A82D282E9A152AD114D5EF2CB866EEE831B8EEA07A7BB5A8D7D61A2BAAEB7FD5F70921FF497D00504B0304140006080800CC70623BCA768048FE000000A00100003B0000006662782F36394639363044362D344446342D343946362D394244322D3234314243333846323333332F7265736F75726365732F636F72
310
652E786D6C8D50596E833010BD0A9ADFCA60D600328E9AA639412F609909B1126CE4A5EAF16B0295DABFFECC8CDEA2797AECF8353F924FB44E193D409E5248504B332A3D0D10FC95B4901C39B3C6F85F3248B49871801506CE266BC2B243D2688FDA47549B11775038871E12F988C7004EDE7016A9083E2ADC3D5D84BC8B09
310
D33C8D74D471E6BC8D0192EDC93A815B742658898E651BCB59086ADC356A8C3FD555A1055ED7E7E254D615792D0F075295F585746FF53B694EE78A565DD736979A65AB9933AFE69F8CD2A2F038022F28ED489E135A7CE4554F9BBEA85E68DB53CAB255FEC71496F19FA6A0B42F8B3DEE6673C0F318E4497096AD7DC5F52C33
310
EEB55BFE0D504B010214000A0000080000CC70623B3DEE336E79000000790000001B00000000000000000000000000000000006175746F6465736B2D64657369676E2D7061636B6167652E786D6C504B01021400140006080800CC70623BD486FD9CA0000000F40000001300000000000000000000000000B20000005B436F
310
6E74656E745F54797065735D2E786D6C504B01021400140006080800CC70623BD9DDAED0EC0000007C010000080000000000000000000000000083010000636F72652E786D6C504B01021400140006080800CC70623B55019EA25F0000007C000000070000000000000000000000000095020000636E782E786D6C504B0102
310
1400140006080800CC70623BA24EB22D72010000D40300000C00000000000000000000000000190300006662782F636F72652E786D6C504B01021400140006080800CC70623B408A7D3B7C0000009D0000000B00000000000000000000000000B50400006662782F636E782E786D6C504B01021400140006080800CC70623B
310
449FB9BD290100001202000031000000000000000000000000005A0500006662782F36394639363044362D344446342D343946362D394244322D3234314243333846323333332F636F72652E786D6C504B01021400140006080800CC70623BAD7543B64E010000330300003000000000000000000000000000D20600006662
310
782F36394639363044362D344446342D343946362D394244322D3234314243333846323333332F636E782E786D6C504B01021400140006080800CC70623B8D05915C650500003B10000034000000000000000000000000006E0800006662782F36394639363044362D344446342D343946362D394244322D32343142433338
310
46323333332F6F626A656374732E786D6C504B01021400140006080000CC70623B0000000000000000000000003500000000000000000000000000250E00006662782F36394639363044362D344446342D343946362D394244322D3234314243333846323333332F76657274696365732E62696E504B010214001400060808
310
00CC70623BF270F13306000000040000003600000000000000000000000000780E00006662782F36394639363044362D344446342D343946362D394244322D3234314243333846323333332F747269616E676C65732E62696E504B01021400140006080000CC70623B00000000000000000000000037000000000000000000
310
00000000D20E00006662782F36394639363044362D344446342D343946362D394244322D3234314243333846323333332F617474726962757465732E62696E504B01021400140006080800CC70623B08DA0BD190000000410100003600000000000000000000000000270F00006662782F36394639363044362D344446342D
310
343946362D394244322D3234314243333846323333332F6469726563746F72792E786D6C504B01021400140006080800CC70623BCA768048FE000000A00100003B000000000000000000000000000B1000006662782F36394639363044362D344446342D343946362D394244322D3234314243333846323333332F7265736F
310
75726365732F636F72652E786D6C504B0506000000000E000E0080040000621100000000
  0
XRECORD
  5
1E
102
{ACAD_REACTORS
330
1A
102
}
330
1A
100
AcDbXrecord
280
     1
270
     1
271
     1
  0
XRECORD
  5
1F
102
{ACAD_REACTORS
330
1A
102
}
330
1A
100
AcDbXrecord
280
     1
270
     1
271
     1
  0
XRECORD
  5
26B
102
{ACAD_REACTORS
330
26A
102
}
330
26A
100
AcDbXrecord
280
     1
102
DISPLAYNAME
  1
Imperial24
102
FLAGS
 90
        0
  0
XRECORD
  5
26D
102
{ACAD_REACTORS
330
26C
102
}
330
26C
100
AcDbXrecord
280
     1
102
DISPLAYNAME
  1
Metric50
102
FLAGS
 90
        0
  0
CELLSTYLEMAP
  5
23D
102
{ACAD_REACTORS
330
56
102
}
330
56
100
AcDbCellStyleMap
 90
        3
300
CELLSTYLE
  1
TABLEFORMAT_BEGIN
 90
        5
170
     1
 91
        0
 92
    32768
 62
   257
 93
        1
300
CONTENTFORMAT
  1
CONTENTFORMAT_BEGIN
 90
        0
 91
        0
 92
      512
 93
        0
300

 40
0.0
140
1.0
 94
        5
 62
     0
340
26
144
6.0
309
CONTENTFORMAT_END
171
     1
301
MARGIN
  1
CELLMARGIN_BEGIN
 40
1.5
 40
1.5
 40
1.5
 40
1.5
 40
4.5
 40
4.5
309
CELLMARGIN_END
 94
        6
 95
        1
302
GRIDFORMAT
  1
GRIDFORMAT_BEGIN
 90
        0
 91
        1
 62
     0
 92
       -2
340
29
 93
        0
 40
1.125
309
GRIDFORMAT_END
 95
        2
302
GRIDFORMAT
  1
GRIDFORMAT_BEGIN
 90
        0
 91
        1
 62
     0
 92
       -2
340
29
 93
        0
 40
1.125
309
GRIDFORMAT_END
 95
        4
302
GRIDFORMAT
  1
GRIDFORMAT_BEGIN
 90
        0
 91
        1
 62
     0
 92
       -2
340
29
 93
        0
 40
1.125
309
GRIDFORMAT_END
 95
        8
302
GRIDFORMAT
  1
GRIDFORMAT_BEGIN
 90
        0
 91
        1
 62
     0
 92
       -2
340
29
 93
        0
 40
1.125
309
GRIDFORMAT_END
 95
       16
302
GRIDFORMAT
  1
GRIDFORMAT_BEGIN
 90
        0
 91
        1
 62
     0
 92
       -2
340
29
 93
        0
 40
1.125
309
GRIDFORMAT_END
 95
       32
302
GRIDFORMAT
  1
GRIDFORMAT_BEGIN
 90
        0
 91
        1
 62
     0
 92
       -2
340
29
 93
        0
 40
1.125
309
GRIDFORMAT_END
309
TABLEFORMAT_END
  1
CELLSTYLE_BEGIN
 90
        1
 91
        1
300
_TITLE
309
CELLSTYLE_END
300
CELLSTYLE
  1
TABLEFORMAT_BEGIN
 90
        5
170
     1
 91
        0
 92
        0
 62
   257
 93
        1
300
CONTENTFORMAT
  1
CONTENTFORMAT_BEGIN
 90
        0
 91
        0
 92
      512
 93
        0
300

 40
0.0
140
1.0
 94
        5
 62
     0
340
26
144
4.5
309
CONTENTFORMAT_END
171
     1
301
MARGIN
  1
CELLMARGIN_BEGIN
 40
1.5
 40
1.5
 40
1.5
 40
1.5
 40
4.5
 40
4.5
309
CELLMARGIN_END
 94
        6
 95
        1
302
GRIDFORMAT
  1
GRIDFORMAT_BEGIN
 90
        0
 91
        1
 62
     0
 92
       -2
340
29
 93
        0
 40
1.125
309
GRIDFORMAT_END
 95
        2
302
GRIDFORMAT
  1
GRIDFORMAT_BEGIN
 90
        0
 91
        1
 62
     0
 92
       -2
340
29
 93
        0
 40
1.125
309
GRIDFORMAT_END
 95
        4
302
GRIDFORMAT
  1
GRIDFORMAT_BEGIN
 90
        0
 91
        1
 62
     0
 92
       -2
340
29
 93
        0
 40
1.125
309
GRIDFORMAT_END
 95
        8
302
GRIDFORMAT
  1
GRIDFORMAT_BEGIN
 90
        0
 91
        1
 62
     0
 92
       -2
340
29
 93
        0
 40
1.125
309
GRIDFORMAT_END
 95
       16
302
GRIDFORMAT
  1
GRIDFORMAT_BEGIN
 90
        0
 91
        1
 62
     0
 92
       -2
340
29
 93
        0
 40
1.125
309
GRIDFORMAT_END
 95
       32
302
GRIDFORMAT
  1
GRIDFORMAT_BEGIN
 90
        0
 91
        1
 62
     0
 92
       -2
340
29
 93
        0
 40
1.125
309
GRIDFORMAT_END
309
TABLEFORMAT_END
  1
CELLSTYLE_BEGIN
 90
        2
 91
        1
300
_HEADER
309
CELLSTYLE_END
300
CELLSTYLE
  1
TABLEFORMAT_BEGIN
 90
        5
170
     1
 91
        0
 92
        0
 62
   257
 93
        1
300
CONTENTFORMAT
  1
CONTENTFORMAT_BEGIN
 90
        0
 91
        0
 92
      512
 93
        0
300

 40
0.0
140
1.0
 94
        2
 62
     0
340
26
144
4.5
309
CONTENTFORMAT_END
171
     1
301
MARGIN
  1
CELLMARGIN_BEGIN
 40
1.5
 40
1.5
 40
1.5
 40
1.5
 40
4.5
 40
4.5
309
CELLMARGIN_END
 94
        6
 95
        1
302
GRIDFORMAT
  1
GRIDFORMAT_BEGIN
 90
        0
 91
        1
 62
     0
 92
       -2
340
29
 93
        0
 40
1.125
309
GRIDFORMAT_END
 95
        2
302
GRIDFORMAT
  1
GRIDFORMAT_BEGIN
 90
        0
 91
        1
 62
     0
 92
       -2
340
29
 93
        0
 40
1.125
309
GRIDFORMAT_END
 95
        4
302
GRIDFORMAT
  1
GRIDFORMAT_BEGIN
 90
        0
 91
        1
 62
     0
 92
       -2
340
29
 93
        0
 40
1.125
309
GRIDFORMAT_END
 95
        8
302
GRIDFORMAT
  1
GRIDFORMAT_BEGIN
 90
        0
 91
        1
 62
     0
 92
       -2
340
29
 93
        0
 40
1.125
309
GRIDFORMAT_END
 95
       16
302
GRIDFORMAT
  1
GRIDFORMAT_BEGIN
 90
        0
 91
        1
 62
     0
 92
       -2
340
29
 93
        0
 40
1.125
309
GRIDFORMAT_END
 95
       32
302
GRIDFORMAT
  1
GRIDFORMAT_BEGIN
 90
        0
 91
        1
 62
     0
 92
       -2
340
29
 93
        0
 40
1.125
309
GRIDFORMAT_END
309
TABLEFORMAT_END
  1
CELLSTYLE_BEGIN
 90
        3
 91
        2
300
_DATA
309
CELLSTYLE_END
  0
XRECORD
  5
25B
102
{ACAD_REACTORS
330
56
102
}
330
56
100
AcDbXrecord
280
     1
102
ACAD_ROUNDTRIP_PRE2007_TABLESTYLE
 90
      512
 91
        0
  1

 92
      512
 93
        0
  2

 94
      512
 95
        0
  3

  0
XRECORD
  5
252
102
{ACAD_REACTORS
330
251
102
}
330
251
100
AcDbXrecord
280
     1
102
RTVSPost2010Prop28
280
     1
102
RTVSPost2010PropOp28
 70
     1
102
RTVSPost2010Prop29
280
     1
102
RTVSPost2010PropOp29
 70
     1
102
RTVSPost2010Prop30
280
     0
102
RTVSPost2010PropOp30
 70
     1
102
RTVSPost2010Prop31
280
     0
102
RTVSPost2010PropOp31
 70
     1
102
RTVSPost2010Prop32
280
     0
102
RTVSPost2010PropOp32
 70
     1
102
RTVSPost2010Prop33
280
     0
102
RTVSPost2010PropOp33
 70
     1
102
RTVSPost2010Prop34
280
     0
102
RTVSPost2010PropOp34
 70
     1
102
RTVSPost2010Prop35
280
     0
102
RTVSPost2010PropOp35
 70
     1
102
RTVSPost2010Prop36
280
     0
102
RTVSPost2010PropOp36
 70
     1
102
RTVSPost2010Prop37
 90
       50
102
RTVSPost2010PropOp37
 70
     1
102
RTVSPost2010Prop38
140
0.0
102
RTVSPost2010PropOp38
 70
     1
102
RTVSPost2010Prop39
140
1.0
102
RTVSPost2010PropOp39
 70
     1
102
RTVSPost2010Prop40
 90
        0
102
RTVSPost2010PropOp40
 70
     1
102
RTVSPost2010Prop41ColorIndex
 90
       18
102
RTVSPost2010Prop41ColorRGB
 90
        0
102
RTVSPost2010PropOp41
 70
     1
102
RTVSPost2010Prop42
 90
       50
102
RTVSPost2010PropOp42
 70
     1
102
RTVSPost2010Prop43
 90
        3
102
RTVSPost2010PropOp43
 70
     1
102
RTVSPost2010Prop44ColorIndex
 90
        5
102
RTVSPost2010Prop44ColorRGB
 90
      255
102
RTVSPost2010PropOp44
 70
     1
102
RTVSPost2010Prop45
280
     0
102
RTVSPost2010PropOp45
 70
     1
102
RTVSPost2010Prop46
 90
       50
102
RTVSPost2010PropOp46
 70
     1
102
RTVSPost2010Prop47
 90
       50
102
RTVSPost2010PropOp47
 70
     1
102
RTVSPost2010Prop48
 90
       50
102
RTVSPost2010PropOp48
 70
     1
102
RTVSPost2010Prop49
280
     0
102
RTVSPost2010PropOp49
 70
     1
102
RTVSPost2010Prop50
 90
       50
102
RTVSPost2010PropOp50
 70
     1
102
RTVSPost2010Prop51ColorIndex
 90
      256
102
RTVSPost2010Prop51ColorRGB
 90
-16777216
102
RTVSPost2010PropOp51
 70
     0
102
RTVSPost2010Prop52
140
1.0
102
RTVSPost2010PropOp52
 70
     0
102
RTVSPost2010Prop53
 90
        2
102
RTVSPost2010PropOp53
 70
     1
102
RTVSPost2010Prop54
  1
strokes_ogs.tif
102
RTVSPost2010PropOp54
 70
     1
102
RTVSPost2010Prop55
280
     0
102
RTVSPost2010PropOp55
 70
     1
102
RTVSPost2010Prop56
140
1.0
102
RTVSPost2010PropOp56
 70
     1
102
RTVSPost2010Prop57
140
1.0
102
RTVSPost2010PropOp57
 70
     1
102
RTVSPropertyOp0
 70
     1
102
RTVSPropertyOp1
 70
     1
102
RTVSPropertyOp2
 70
     1
102
RTVSPropertyOp3
 70
     1
102
RTVSPropertyOp4
 70
     1
102
RTVSPropertyOp5
 70
     1
102
RTVSPropertyOp6
 70
     1
102
RTVSPropertyOp7
 70
     1
102
RTVSPropertyOp8
 70
     1
102
RTVSPropertyOp9
 70
     1
102
RTVSPropertyOp10
 70
     1
102
RTVSPropertyOp11
 70
     1
102
RTVSPropertyOp12
 70
     1
102
RTVSPropertyOp13
 70
     1
102
RTVSPropertyOp14
 70
     1
102
RTVSPropertyOp15
 70
     1
102
RTVSPropertyOp16
 70
     1
102
RTVSPropertyOp17
 70
     1
102
RTVSPropertyOp18
 70
     1
102
RTVSPropertyOp19
 70
     1
102
RTVSPropertyOp20
 70
     1
102
RTVSPropertyOp21
 70
     1
102
RTVSPropertyOp22
 70
     1
102
RTVSPropertyOp23
 70
     1
102
RTVSPropertyOp24
 70
     1
102
RTVSPropertyOp25
 70
     1
102
RTVSPropertyOp26
 70
     1
102
RTVSPropertyOp27
 70
     1
102
RTVSPropertyOp28
 70
     1
102
RTVSPropertyOp29
 70
     1
102
RTVSPropertyOp30
 70
     1
102
RTVSPropertyOp31
 70
     1
102
RTVSPropertyOp32
 70
     1
102
RTVSPropertyOp33
 70
     1
102
RTVSPropertyOp34
 70
     1
102
RTVSPropertyOp35
 70
     1
102
RTVSPropertyOp36
 70
     1
102
RTVSPropertyOp37
 70
     1
102
RTVSPropertyOp38
 70
     1
102
RTVSPropertyOp39
 70
     1
102
RTVSPropertyOp40
 70
     1
102
RTVSPropertyOp41
 70
     1
102
RTVSPropertyOp42
 70
     1
102
RTVSPropertyOp43
 70
     1
102
RTVSPropertyOp44
 70
     1
102
RTVSPropertyOp45
 70
     1
102
RTVSPropertyOp46
 70
     1
102
RTVSPropertyOp47
 70
     1
102
RTVSPropertyOp48
 70
     1
102
RTVSPropertyOp49
 70
     1
102
RTVSPropertyOp50
 70
     1
102
RTVSPropertyOp51
 70
     0
102
RTVSPropertyOp52
 70
     0
102
RTVSPropertyOp53
 70
     1
102
RTVSPropertyOp54
 70
     1
102
RTVSPropertyOp55
 70
     1
102
RTVSPropertyOp56
 70
     1
102
RTVSPropertyOp57
 70
     1
102
RTVSPropertyOp58
 70
     1
102
RTVSPropertyOp59
 70
     1
102
RTVSPropertyOp60
 70
     1
102
RTVSPropertyOp61
 70
     1
102
RTVSPropertyOp62
 70
     1
  0
XRECORD
  5
263
102
{ACAD_REACTORS
330
262
102
}
330
262
100
AcDbXrecord
280
     1
102
RTVSPost2010Prop28
280
     0
102
RTVSPost2010PropOp28
 70
     1
102
RTVSPost2010Prop29
280
     1
102
RTVSPost2010PropOp29
 70
     1
102
RTVSPost2010Prop30
280
     1
102
RTVSPost2010PropOp30
 70
     1
102
RTVSPost2010Prop31
280
     0
102
RTVSPost2010PropOp31
 70
     1
102
RTVSPost2010Prop32
280
     0
102
RTVSPost2010PropOp32
 70
     1
102
RTVSPost2010Prop33
280
     0
102
RTVSPost2010PropOp33
 70
     1
102
RTVSPost2010Prop34
280
     0
102
RTVSPost2010PropOp34
 70
     1
102
RTVSPost2010Prop35
280
     0
102
RTVSPost2010PropOp35
 70
     1
102
RTVSPost2010Prop36
280
     0
102
RTVSPost2010PropOp36
 70
     1
102
RTVSPost2010Prop37
 90
       50
102
RTVSPost2010PropOp37
 70
     1
102
RTVSPost2010Prop38
140
0.0
102
RTVSPost2010PropOp38
 70
     1
102
RTVSPost2010Prop39
140
1.0
102
RTVSPost2010PropOp39
 70
     1
102
RTVSPost2010Prop40
 90
        0
102
RTVSPost2010PropOp40
 70
     1
102
RTVSPost2010Prop41ColorIndex
 90
       18
102
RTVSPost2010Prop41ColorRGB
 90
        0
102
RTVSPost2010PropOp41
 70
     1
102
RTVSPost2010Prop42
 90
       50
102
RTVSPost2010PropOp42
 70
     1
102
RTVSPost2010Prop43
 90
        3
102
RTVSPost2010PropOp43
 70
     1
102
RTVSPost2010Prop44ColorIndex
 90
        5
102
RTVSPost2010Prop44ColorRGB
 90
      255
102
RTVSPost2010PropOp44
 70
     1
102
RTVSPost2010Prop45
280
     0
102
RTVSPost2010PropOp45
 70
     1
102
RTVSPost2010Prop46
 90
       50
102
RTVSPost2010PropOp46
 70
     1
102
RTVSPost2010Prop47
 90
       50
102
RTVSPost2010PropOp47
 70
     1
102
RTVSPost2010Prop48
 90
       50
102
RTVSPost2010PropOp48
 70
     1
102
RTVSPost2010Prop49
280
     0
102
RTVSPost2010PropOp49
 70
     1
102
RTVSPost2010Prop50
 90
       50
102
RTVSPost2010PropOp50
 70
     1
102
RTVSPost2010Prop51ColorIndex
 90
      256
102
RTVSPost2010Prop51ColorRGB
 90
-16777216
102
RTVSPost2010PropOp51
 70
     0
102
RTVSPost2010Prop52
140
1.0
102
RTVSPost2010PropOp52
 70
     0
102
RTVSPost2010Prop53
 90
        2
102
RTVSPost2010PropOp53
 70
     1
102
RTVSPost2010Prop54
  1
strokes_ogs.tif
102
RTVSPost2010PropOp54
 70
     1
102
RTVSPost2010Prop55
280
     0
102
RTVSPost2010PropOp55
 70
     1
102
RTVSPost2010Prop56
140
1.0
102
RTVSPost2010PropOp56
 70
     1
102
RTVSPost2010Prop57
140
1.0
102
RTVSPost2010PropOp57
 70
     1
102
RTVSPropertyOp0
 70
     0
102
RTVSPropertyOp1
 70
     0
102
RTVSPropertyOp2
 70
     0
102
RTVSPropertyOp3
 70
     0
102
RTVSPropertyOp4
 70
     0
102
RTVSPropertyOp5
 70
     0
102
RTVSPropertyOp6
 70
     0
102
RTVSPropertyOp7
 70
     0
102
RTVSPropertyOp8
 70
     0
102
RTVSPropertyOp9
 70
     0
102
RTVSPropertyOp10
 70
     0
102
RTVSPropertyOp11
 70
     0
102
RTVSPropertyOp12
 70
     0
102
RTVSPropertyOp13
 70
     0
102
RTVSPropertyOp14
 70
     2
102
RTVSPropertyOp15
 70
     0
102
RTVSPropertyOp16
 70
     0
102
RTVSPropertyOp17
 70
     0
102
RTVSPropertyOp18
 70
     0
102
RTVSPropertyOp19
 70
     0
102
RTVSPropertyOp20
 70
     0
102
RTVSPropertyOp21
 70
     0
102
RTVSPropertyOp22
 70
     0
102
RTVSPropertyOp23
 70
     0
102
RTVSPropertyOp24
 70
     0
102
RTVSPropertyOp25
 70
     0
102
RTVSPropertyOp26
 70
     0
102
RTVSPropertyOp27
 70
     0
102
RTVSPropertyOp28
 70
     1
102
RTVSPropertyOp29
 70
     1
102
RTVSPropertyOp30
 70
     1
102
RTVSPropertyOp31
 70
     1
102
RTVSPropertyOp32
 70
     1
102
RTVSPropertyOp33
 70
     1
102
RTVSPropertyOp34
 70
     1
102
RTVSPropertyOp35
 70
     1
102
RTVSPropertyOp36
 70
     1
102
RTVSPropertyOp37
 70
     1
102
RTVSPropertyOp38
 70
     1
102
RTVSPropertyOp39
 70
     1
102
RTVSPropertyOp40
 70
     1
102
RTVSPropertyOp41
 70
     1
102
RTVSPropertyOp42
 70
     1
102
RTVSPropertyOp43
 70
     1
102
RTVSPropertyOp44
 70
     1
102
RTVSPropertyOp45
 70
     1
102
RTVSPropertyOp46
 70
     1
102
RTVSPropertyOp47
 70
     1
102
RTVSPropertyOp48
 70
     1
102
RTVSPropertyOp49
 70
     1
102
RTVSPropertyOp50
 70
     1
102
RTVSPropertyOp51
 70
     0
102
RTVSPropertyOp52
 70
     0
102
RTVSPropertyOp53
 70
     1
102
RTVSPropertyOp54
 70
     1
102
RTVSPropertyOp55
 70
     1
102
RTVSPropertyOp56
 70
     1
102
RTVSPropertyOp57
 70
     1
102
RTVSPropertyOp58
 70
     1
102
RTVSPropertyOp59
 70
     1
102
RTVSPropertyOp60
 70
     1
102
RTVSPropertyOp61
 70
     1
102
RTVSPropertyOp62
 70
     1
  0
XRECORD
  5
25D
102
{ACAD_REACTORS
330
25C
102
}
330
25C
100
AcDbXrecord
280
     1
102
RTVSPost2010Prop28
280
     0
102
RTVSPost2010PropOp28
 70
     1
102
RTVSPost2010Prop29
280
     1
102
RTVSPost2010PropOp29
 70
     1
102
RTVSPost2010Prop30
280
     1
102
RTVSPost2010PropOp30
 70
     1
102
RTVSPost2010Prop31
280
     0
102
RTVSPost2010PropOp31
 70
     1
102
RTVSPost2010Prop32
280
     0
102
RTVSPost2010PropOp32
 70
     1
102
RTVSPost2010Prop33
280
     0
102
RTVSPost2010PropOp33
 70
     1
102
RTVSPost2010Prop34
280
     0
102
RTVSPost2010PropOp34
 70
     1
102
RTVSPost2010Prop35
280
     0
102
RTVSPost2010PropOp35
 70
     1
102
RTVSPost2010Prop36
280
     0
102
RTVSPost2010PropOp36
 70
     1
102
RTVSPost2010Prop37
 90
       50
102
RTVSPost2010PropOp37
 70
     1
102
RTVSPost2010Prop38
140
0.0
102
RTVSPost2010PropOp38
 70
     1
102
RTVSPost2010Prop39
140
1.0
102
RTVSPost2010PropOp39
 70
     1
102
RTVSPost2010Prop40
 90
        0
102
RTVSPost2010PropOp40
 70
     1
102
RTVSPost2010Prop41ColorIndex
 90
       18
102
RTVSPost2010Prop41ColorRGB
 90
        0
102
RTVSPost2010PropOp41
 70
     1
102
RTVSPost2010Prop42
 90
       50
102
RTVSPost2010PropOp42
 70
     1
102
RTVSPost2010Prop43
 90
        3
102
RTVSPost2010PropOp43
 70
     1
102
RTVSPost2010Prop44ColorIndex
 90
        5
102
RTVSPost2010Prop44ColorRGB
 90
      255
102
RTVSPost2010PropOp44
 70
     1
102
RTVSPost2010Prop45
280
     0
102
RTVSPost2010PropOp45
 70
     1
102
RTVSPost2010Prop46
 90
       50
102
RTVSPost2010PropOp46
 70
     1
102
RTVSPost2010Prop47
 90
       50
102
RTVSPost2010PropOp47
 70
     1
102
RTVSPost2010Prop48
 90
       50
102
RTVSPost2010PropOp48
 70
     1
102
RTVSPost2010Prop49
280
     0
102
RTVSPost2010PropOp49
 70
     1
102
RTVSPost2010Prop50
 90
       50
102
RTVSPost2010PropOp50
 70
     1
102
RTVSPost2010Prop51ColorIndex
 90
      256
102
RTVSPost2010Prop51ColorRGB
 90
-16777216
102
RTVSPost2010PropOp51
 70
     0
102
RTVSPost2010Prop52
140
1.0
102
RTVSPost2010PropOp52
 70
     0
102
RTVSPost2010Prop53
 90
        2
102
RTVSPost2010PropOp53
 70
     1
102
RTVSPost2010Prop54
  1
strokes_ogs.tif
102
RTVSPost2010PropOp54
 70
     1
102
RTVSPost2010Prop55
280
     0
102
RTVSPost2010PropOp55
 70
     1
102
RTVSPost2010Prop56
140
1.0
102
RTVSPost2010PropOp56
 70
     1
102
RTVSPost2010Prop57
140
1.0
102
RTVSPost2010PropOp57
 70
     1
102
RTVSPropertyOp0
 70
     1
102
RTVSPropertyOp1
 70
     1
102
RTVSPropertyOp2
 70
     1
102
RTVSPropertyOp3
 70
     1
102
RTVSPropertyOp4
 70
     1
102
RTVSPropertyOp5
 70
     1
102
RTVSPropertyOp6
 70
     1
102
RTVSPropertyOp7
 70
     1
102
RTVSPropertyOp8
 70
     1
102
RTVSPropertyOp9
 70
     1
102
RTVSPropertyOp10
 70
     1
102
RTVSPropertyOp11
 70
     1
102
RTVSPropertyOp12
 70
     1
102
RTVSPropertyOp13
 70
     1
102
RTVSPropertyOp14
 70
     1
102
RTVSPropertyOp15
 70
     1
102
RTVSPropertyOp16
 70
     1
102
RTVSPropertyOp17
 70
     1
102
RTVSPropertyOp18
 70
     1
102
RTVSPropertyOp19
 70
     1
102
RTVSPropertyOp20
 70
     1
102
RTVSPropertyOp21
 70
     1
102
RTVSPropertyOp22
 70
     1
102
RTVSPropertyOp23
 70
     1
102
RTVSPropertyOp24
 70
     1
102
RTVSPropertyOp25
 70
     1
102
RTVSPropertyOp26
 70
     1
102
RTVSPropertyOp27
 70
     1
102
RTVSPropertyOp28
 70
     1
102
RTVSPropertyOp29
 70
     1
102
RTVSPropertyOp30
 70
     1
102
RTVSPropertyOp31
 70
     1
102
RTVSPropertyOp32
 70
     1
102
RTVSPropertyOp33
 70
     1
102
RTVSPropertyOp34
 70
     1
102
RTVSPropertyOp35
 70
     1
102
RTVSPropertyOp36
 70
     1
102
RTVSPropertyOp37
 70
     1
102
RTVSPropertyOp38
 70
     1
102
RTVSPropertyOp39
 70
     1
102
RTVSPropertyOp40
 70
     1
102
RTVSPropertyOp41
 70
     1
102
RTVSPropertyOp42
 70
     1
102
RTVSPropertyOp43
 70
     1
102
RTVSPropertyOp44
 70
     1
102
RTVSPropertyOp45
 70
     1
102
RTVSPropertyOp46
 70
     1
102
RTVSPropertyOp47
 70
     1
102
RTVSPropertyOp48
 70
     1
102
RTVSPropertyOp49
 70
     1
102
RTVSPropertyOp50
 70
     1
102
RTVSPropertyOp51
 70
     0
102
RTVSPropertyOp52
 70
     0
102
RTVSPropertyOp53
 70
     1
102
RTVSPropertyOp54
 70
     1
102
RTVSPropertyOp55
 70
     1
102
RTVSPropertyOp56
 70
     1
102
RTVSPropertyOp57
 70
     1
102
RTVSPropertyOp58
 70
     1
102
RTVSPropertyOp59
 70
     1
102
RTVSPropertyOp60
 70
     1
102
RTVSPropertyOp61
 70
     1
102
RTVSPropertyOp62
 70
     1
  0
XRECORD
  5
25F
102
{ACAD_REACTORS
330
25E
102
}
330
25E
100
AcDbXrecord
280
     1
102
RTVSPost2010Prop28
280
     0
102
RTVSPost2010PropOp28
 70
     1
102
RTVSPost2010Prop29
280
     1
102
RTVSPost2010PropOp29
 70
     1
102
RTVSPost2010Prop30
280
     1
102
RTVSPost2010PropOp30
 70
     1
102
RTVSPost2010Prop31
280
     0
102
RTVSPost2010PropOp31
 70
     1
102
RTVSPost2010Prop32
280
     0
102
RTVSPost2010PropOp32
 70
     1
102
RTVSPost2010Prop33
280
     0
102
RTVSPost2010PropOp33
 70
     1
102
RTVSPost2010Prop34
280
     0
102
RTVSPost2010PropOp34
 70
     1
102
RTVSPost2010Prop35
280
     0
102
RTVSPost2010PropOp35
 70
     1
102
RTVSPost2010Prop36
280
     0
102
RTVSPost2010PropOp36
 70
     1
102
RTVSPost2010Prop37
 90
       50
102
RTVSPost2010PropOp37
 70
     1
102
RTVSPost2010Prop38
140
0.0
102
RTVSPost2010PropOp38
 70
     1
102
RTVSPost2010Prop39
140
1.0
102
RTVSPost2010PropOp39
 70
     1
102
RTVSPost2010Prop40
 90
        0
102
RTVSPost2010PropOp40
 70
     1
102
RTVSPost2010Prop41ColorIndex
 90
       18
102
RTVSPost2010Prop41ColorRGB
 90
        0
102
RTVSPost2010PropOp41
 70
     1
102
RTVSPost2010Prop42
 90
       50
102
RTVSPost2010PropOp42
 70
     1
102
RTVSPost2010Prop43
 90
        3
102
RTVSPost2010PropOp43
 70
     1
102
RTVSPost2010Prop44ColorIndex
 90
        5
102
RTVSPost2010Prop44ColorRGB
 90
      255
102
RTVSPost2010PropOp44
 70
     1
102
RTVSPost2010Prop45
280
     0
102
RTVSPost2010PropOp45
 70
     1
102
RTVSPost2010Prop46
 90
       50
102
RTVSPost2010PropOp46
 70
     1
102
RTVSPost2010Prop47
 90
       50
102
RTVSPost2010PropOp47
 70
     1
102
RTVSPost2010Prop48
 90
       50
102
RTVSPost2010PropOp48
 70
     1
102
RTVSPost2010Prop49
280
     0
102
RTVSPost2010PropOp49
 70
     1
102
RTVSPost2010Prop50
 90
       50
102
RTVSPost2010PropOp50
 70
     1
102
RTVSPost2010Prop51ColorIndex
 90
      256
102
RTVSPost2010Prop51ColorRGB
 90
-16777216
102
RTVSPost2010PropOp51
 70
     0
102
RTVSPost2010Prop52
140
1.0
102
RTVSPost2010PropOp52
 70
     0
102
RTVSPost2010Prop53
 90
        2
102
RTVSPost2010PropOp53
 70
     1
102
RTVSPost2010Prop54
  1
strokes_ogs.tif
102
RTVSPost2010PropOp54
 70
     1
102
RTVSPost2010Prop55
280
     0
102
RTVSPost2010PropOp55
 70
     1
102
RTVSPost2010Prop56
140
1.0
102
RTVSPost2010PropOp56
 70
     1
102
RTVSPost2010Prop57
140
1.0
102
RTVSPost2010PropOp57
 70
     1
102
RTVSPropertyOp0
 70
     1
102
RTVSPropertyOp1
 70
     1
102
RTVSPropertyOp2
 70
     1
102
RTVSPropertyOp3
 70
     1
102
RTVSPropertyOp4
 70
     1
102
RTVSPropertyOp5
 70
     1
102
RTVSPropertyOp6
 70
     1
102
RTVSPropertyOp7
 70
     1
102
RTVSPropertyOp8
 70
     1
102
RTVSPropertyOp9
 70
     1
102
RTVSPropertyOp10
 70
     1
102
RTVSPropertyOp11
 70
     1
102
RTVSPropertyOp12
 70
     1
102
RTVSPropertyOp13
 70
     1
102
RTVSPropertyOp14
 70
     1
102
RTVSPropertyOp15
 70
     1
102
RTVSPropertyOp16
 70
     1
102
RTVSPropertyOp17
 70
     1
102
RTVSPropertyOp18
 70
     1
102
RTVSPropertyOp19
 70
     1
102
RTVSPropertyOp20
 70
     1
102
RTVSPropertyOp21
 70
     1
102
RTVSPropertyOp22
 70
     1
102
RTVSPropertyOp23
 70
     1
102
RTVSPropertyOp24
 70
     1
102
RTVSPropertyOp25
 70
     1
102
RTVSPropertyOp26
 70
     1
102
RTVSPropertyOp27
 70
     1
102
RTVSPropertyOp28
 70
     1
102
RTVSPropertyOp29
 70
     1
102
RTVSPropertyOp30
 70
     1
102
RTVSPropertyOp31
 70
     1
102
RTVSPropertyOp32
 70
     1
102
RTVSPropertyOp33
 70
     1
102
RTVSPropertyOp34
 70
     1
102
RTVSPropertyOp35
 70
     1
102
RTVSPropertyOp36
 70
     1
102
RTVSPropertyOp37
 70
     1
102
RTVSPropertyOp38
 70
     1
102
RTVSPropertyOp39
 70
     1
102
RTVSPropertyOp40
 70
     1
102
RTVSPropertyOp41
 70
     1
102
RTVSPropertyOp42
 70
     1
102
RTVSPropertyOp43
 70
     1
102
RTVSPropertyOp44
 70
     1
102
RTVSPropertyOp45
 70
     1
102
RTVSPropertyOp46
 70
     1
102
RTVSPropertyOp47
 70
     1
102
RTVSPropertyOp48
 70
     1
102
RTVSPropertyOp49
 70
     1
102
RTVSPropertyOp50
 70
     1
102
RTVSPropertyOp51
 70
     0
102
RTVSPropertyOp52
 70
     0
102
RTVSPropertyOp53
 70
     1
102
RTVSPropertyOp54
 70
     1
102
RTVSPropertyOp55
 70
     1
102
RTVSPropertyOp56
 70
     1
102
RTVSPropertyOp57
 70
     1
102
RTVSPropertyOp58
 70
     1
102
RTVSPropertyOp59
 70
     1
102
RTVSPropertyOp60
 70
     1
102
RTVSPropertyOp61
 70
     1
102
RTVSPropertyOp62
 70
     1
  0
ENDSEC
  0
EOF
