  0
SECTION
  2
HEADER
  9
$ACADVER
  1
AC1015
  9
$ACADMAINTVER
 70
    18
  9
$DWGCODEPAGE
  3
ANSI_1252
  9
$INSBASE
 10
34222.75704948967
 20
7143.965539815083
 30
0.0
  9
$EXTMIN
 10
-8041.742961063206
 20
-4876.034460184918
 30
0.0
  9
$EXTMAX
 10
39884.37403655774
 20
9089.639204691897
 30
0.0
  9
$LIMMIN
 10
0.0
 20
0.0
  9
$LIMMAX
 10
420.0
 20
297.0
  9
$ORTHOMODE
 70
     1
  9
$REGENMODE
 70
     1
  9
$FILLMODE
 70
     1
  9
$QTEXTMODE
 70
     0
  9
$MIRRTEXT
 70
     0
  9
$LTSCALE
 40
1.0
  9
$ATTMODE
 70
     1
  9
$TEXTSIZE
 40
2.5
  9
$TRACEWID
 40
1.0
  9
$TEXTSTYLE
  7
Standard
  9
$CLAYER
  8
DEFPOINTS
  9
$CELTYPE
  6
ByLayer
  9
$CECOLOR
 62
   256
  9
$CELTSCALE
 40
1.0
  9
$DISPSILH
 70
     0
  9
$DIMSCALE
 40
1.0
  9
$DIMASZ
 40
3.5
  9
$DIMEXO
 40
1.0
  9
$DIMDLI
 40
10.0
  9
$DIMRND
 40
0.0
  9
$DIMDLE
 40
0.0
  9
$DIMEXE
 40
1.0
  9
$DIMTP
 40
0.1
  9
$DIMTM
 40
0.1
  9
$DIMTXT
 40
3.5
  9
$DIMCEN
 40
0.0
  9
$DIMTSZ
 40
0.0
  9
$DIMTOL
 70
     0
  9
$DIMLIM
 70
     0
  9
$DIMTIH
 70
     0
  9
$DIMTOH
 70
     0
  9
$DIMSE1
 70
     0
  9
$DIMSE2
 70
     0
  9
$DIMTAD
 70
     1
  9
$DIMZIN
 70
     8
  9
$DIMBLK
  1

  9
$DIMASO
 70
     1
  9
$DIMSHO
 70
     1
  9
$DIMPOST
  1

  9
$DIMAPOST
  1
"
  9
$DIMALT
 70
     0
  9
$DIMALTD
 70
     2
  9
$DIMALTF
 40
0.0393701
  9
$DIMLFAC
 40
1.0
  9
$DIMTOFL
 70
     1
  9
$DIMTVP
 40
0.0
  9
$DIMTIX
 70
     0
  9
$DIMSOXD
 70
     0
  9
$DIMSAH
 70
     0
  9
$DIMBLK1
  1

  9
$DIMBLK2
  1

  9
$DIMSTYLE
  2
AM_DIN
  9
$DIMCLRD
 70
   256
  9
$DIMCLRE
 70
   256
  9
$DIMCLRT
 70
     2
  9
$DIMTFAC
 40
0.71
  9
$DIMGAP
 40
1.5
  9
$DIMJUST
 70
     0
  9
$DIMSD1
 70
     0
  9
$DIMSD2
 70
     0
  9
$DIMTOLJ
 70
     0
  9
$DIMTZIN
 70
     8
  9
$DIMALTZ
 70
     0
  9
$DIMALTTZ
 70
     0
  9
$DIMUPT
 70
     0
  9
$DIMDEC
 70
     2
  9
$DIMTDEC
 70
     3
  9
$DIMALTU
 70
     2
  9
$DIMALTTD
 70
     4
  9
$DIMTXSTY
  7
Standard
  9
$DIMAUNIT
 70
     0
  9
$DIMADEC
 70
     0
  9
$DIMALTRND
 40
0.0
  9
$DIMAZIN
 70
     2
  9
$DIMDSEP
 70
    46
  9
$DIMATFIT
 70
     3
  9
$DIMFRAC
 70
     0
  9
$DIMLDRBLK
  1

  9
$DIMLUNIT
 70
     2
  9
$DIMLWD
 70
    -1
  9
$DIMLWE
 70
    -1
  9
$DIMTMOVE
 70
     0
  9
$LUNITS
 70
     2
  9
$LUPREC
 70
     4
  9
$SKETCHINC
 40
1.0
  9
$FILLETRAD
 40
0.0
  9
$AUNITS
 70
     0
  9
$AUPREC
 70
     0
  9
$MENU
  1
.
  9
$ELEVATION
 40
0.0
  9
$PELEVATION
 40
0.0
  9
$THICKNESS
 40
0.0
  9
$LIMCHECK
 70
     0
  9
$CHAMFERA
 40
2.0
  9
$CHAMFERB
 40
2.0
  9
$CHAMFERC
 40
0.0
  9
$CHAMFERD
 40
0.0
  9
$SKPOLY
 70
     0
  9
$TDCREATE
 40
2458738.314456019
  9
$TDUCREATE
 40
2458738.231127095
  9
$TDUPDATE
 40
2460074.487210648
  9
$TDUUPDATE
 40
2460074.403877315
  9
$TDINDWG
 40
4.2064450347
  9
$TDUSRTIMER
 40
4.2064447106
  9
$USRTIMER
 70
     1
  9
$ANGBASE
 50
0.0
  9
$ANGDIR
 70
     0
  9
$PDMODE
 70
     0
  9
$PDSIZE
 40
0.0
  9
$PLINEWID
 40
0.0
  9
$SPLFRAME
 70
     0
  9
$SPLINETYPE
 70
     6
  9
$SPLINESEGS
 70
     8
  9
$HANDSEED
  5
26C
  9
$SURFTAB1
 70
     6
  9
$SURFTAB2
 70
     6
  9
$SURFTYPE
 70
     6
  9
$SURFU
 70
     6
  9
$SURFV
 70
     6
  9
$UCSBASE
  2

  9
$UCSNAME
  2

  9
$UCSORG
 10
0.0
 20
0.0
 30
0.0
  9
$UCSXDIR
 10
1.0
 20
0.0
 30
0.0
  9
$UCSYDIR
 10
0.0
 20
1.0
 30
0.0
  9
$UCSORTHOREF
  2

  9
$UCSORTHOVIEW
 70
     0
  9
$UCSORGTOP
 10
0.0
 20
0.0
 30
0.0
  9
$UCSORGBOTTOM
 10
0.0
 20
0.0
 30
0.0
  9
$UCSORGLEFT
 10
0.0
 20
0.0
 30
0.0
  9
$UCSORGRIGHT
 10
0.0
 20
0.0
 30
0.0
  9
$UCSORGFRONT
 10
0.0
 20
0.0
 30
0.0
  9
$UCSORGBACK
 10
0.0
 20
0.0
 30
0.0
  9
$PUCSBASE
  2

  9
$PUCSNAME
  2

  9
$PUCSORG
 10
0.0
 20
0.0
 30
0.0
  9
$PUCSXDIR
 10
1.0
 20
0.0
 30
0.0
  9
$PUCSYDIR
 10
0.0
 20
1.0
 30
0.0
  9
$PUCSORTHOREF
  2

  9
$PUCSORTHOVIEW
 70
     0
  9
$PUCSORGTOP
 10
0.0
 20
0.0
 30
0.0
  9
$PUCSORGBOTTOM
 10
0.0
 20
0.0
 30
0.0
  9
$PUCSORGLEFT
 10
0.0
 20
0.0
 30
0.0
  9
$PUCSORGRIGHT
 10
0.0
 20
0.0
 30
0.0
  9
$PUCSORGFRONT
 10
0.0
 20
0.0
 30
0.0
  9
$PUCSORGBACK
 10
0.0
 20
0.0
 30
0.0
  9
$USERI1
 70
     0
  9
$USERI2
 70
     0
  9
$USERI3
 70
     0
  9
$USERI4
 70
     0
  9
$USERI5
 70
     0
  9
$USERR1
 40
0.0
  9
$USERR2
 40
0.0
  9
$USERR3
 40
0.0
  9
$USERR4
 40
0.0
  9
$USERR5
 40
0.0
  9
$WORLDVIEW
 70
     1
  9
$SHADEDGE
 70
     3
  9
$SHADEDIF
 70
    70
  9
$TILEMODE
 70
     1
  9
$MAXACTVP
 70
    64
  9
$PINSBASE
 10
0.0
 20
0.0
 30
0.0
  9
$PLIMCHECK
 70
     0
  9
$PEXTMIN
 10
-336.0581622965808
 20
-2275.066915115365
 30
0.0
  9
$PEXTMAX
 10
2200.992315193187
 20
732.75702618344
 30
0.0
  9
$PLIMMIN
 10
0.0
 20
0.0
  9
$PLIMMAX
 10
12.0
 20
9.0
  9
$UNITMODE
 70
     0
  9
$VISRETAIN
 70
     1
  9
$PLINEGEN
 70
     0
  9
$PSLTSCALE
 70
     1
  9
$TREEDEPTH
 70
  3020
  9
$CMLSTYLE
  2
Standard
  9
$CMLJUST
 70
     0
  9
$CMLSCALE
 40
20.0
  9
$PROXYGRAPHICS
 70
     1
  9
$MEASUREMENT
 70
     1
  9
$CELWEIGHT
370
    -1
  9
$ENDCAPS
280
     0
  9
$JOINSTYLE
280
     0
  9
$LWDISPLAY
290
     0
  9
$INSUNITS
 70
     4
  9
$HYPERLINKBASE
  1

  9
$STYLESHEET
  1

  9
$XEDIT
290
     1
  9
$CEPSNTYPE
380
     0
  9
$PSTYLEMODE
290
     1
  9
$FINGERPRINTGUID
  2
{14628F12-64A4-8E4E-AE7B-C95F1FE3D0D9}
  9
$VERSIONGUID
  2
{0409BFC4-521C-2B4F-BF64-88BEF2A51C73}
  9
$EXTNAMES
290
     1
  9
$PSVPSCALE
 40
0.0
  9
$OLESTARTUP
290
     0
  0
ENDSEC
  0
SECTION
  2
CLASSES
  0
CLASS
  1
ACDBDICTIONARYWDFLT
  2
AcDbDictionaryWithDefault
  3
ObjectDBX Classes
 90
        0
280
     0
281
     0
  0
CLASS
  1
ACDBPLACEHOLDER
  2
AcDbPlaceHolder
  3
ObjectDBX Classes
 90
        0
280
     0
281
     0
  0
CLASS
  1
LAYOUT
  2
AcDbLayout
  3
ObjectDBX Classes
 90
        0
280
     0
281
     0
  0
CLASS
  1
DICTIONARYVAR
  2
AcDbDictionaryVar
  3
ObjectDBX Classes
 90
        0
280
     0
281
     0
  0
CLASS
  1
TABLESTYLE
  2
AcDbTableStyle
  3
ObjectDBX Classes
 90
     4095
280
     0
281
     0
  0
CLASS
  1
MATERIAL
  2
AcDbMaterial
  3
ObjectDBX Classes
 90
     1153
280
     0
281
     0
  0
CLASS
  1
VISUALSTYLE
  2
AcDbVisualStyle
  3
ObjectDBX Classes
 90
     4095
280
     0
281
     0
  0
CLASS
  1
SCALE
  2
AcDbScale
  3
ObjectDBX Classes
 90
     1153
280
     0
281
     0
  0
CLASS
  1
MLEADERSTYLE
  2
AcDbMLeaderStyle
  3
ACDB_MLEADERSTYLE_CLASS
 90
    36863
280
     0
281
     0
  0
CLASS
  1
CELLSTYLEMAP
  2
AcDbCellStyleMap
  3
ObjectDBX Classes
 90
     1152
280
     0
281
     0
  0
CLASS
  1
EXACXREFPANELOBJECT
  2
ExAcXREFPanelObject
  3
EXAC_ESW
 90
    33793
280
     1
281
     0
  0
CLASS
  1
NPOCOLLECTION
  2
AcDbImpNonPersistentObjectsCollection
  3
ObjectDBX Classes
 90
    33921
280
     0
281
     0
  0
CLASS
  1
LAYER_INDEX
  2
AcDbLayerIndex
  3
ObjectDBX Classes
 90
    32768
280
     0
281
     0
  0
CLASS
  1
SPATIAL_INDEX
  2
AcDbSpatialIndex
  3
ObjectDBX Classes
 90
    32768
280
     0
281
     0
  0
CLASS
  1
IDBUFFER
  2
AcDbIdBuffer
  3
ObjectDBX Classes
 90
    32768
280
     0
281
     0
  0
CLASS
  1
ACDBSECTIONVIEWSTYLE
  2
AcDbSectionViewStyle
  3
ObjectDBX Classes
 90
     1025
280
     0
281
     0
  0
CLASS
  1
ACDBDETAILVIEWSTYLE
  2
AcDbDetailViewStyle
  3
ObjectDBX Classes
 90
     1025
280
     0
281
     0
  0
CLASS
  1
ACME_DOCUMENT
  2
AcMeDbDoc
  3
AcMeServices
 90
    33792
280
     0
281
     0
  0
CLASS
  1
AMGSETTINGSOBJ
  2
AmgSettingsObj
  3
"AcadM|Product Description: AutoCAD Mechanical|Company: Autodesk, Inc."
 90
     1024
280
     0
281
     0
  0
CLASS
  1
ACMESCOPE
  2
AcMeScope
  3
AcMeServices
 90
     1024
280
     0
281
     0
  0
CLASS
  1
ACMECOMMANDHISTORY
  2
AcMeCommandHistory
  3
AcMeServices
 90
    33792
280
     0
281
     0
  0
CLASS
  1
ACIMSYSVARMAN
  2
AcImSysVarManager
  3
AcMeServices
 90
     1024
280
     0
281
     0
  0
CLASS
  1
ACIMINTSYSVAR
  2
AcImIntSysVar
  3
AcMeServices
 90
     1024
280
     0
281
     0
  0
CLASS
  1
ACMESTATEMGR
  2
AcMeStateMgr
  3
AcMeServices
 90
     1024
280
     0
281
     0
  0
CLASS
  1
ACDBENTITYCACHE
  2
AcMeEntityCache
  3
AcMeServices
 90
    33792
280
     0
281
     0
  0
CLASS
  1
ACGREFMASTER
  2
AcGrefMaster
  3
AcAttribServices
 90
     1024
280
     0
281
     0
  0
CLASS
  1
ACME_DATABASE
  2
AcMeDbDatabase
  3
AcMeServices
 90
    33792
280
     0
281
     0
  0
CLASS
  1
ACRFINSADJUSTERMGR
  2
AcRfInsAdjusterMgr
  3
AcMeServices
 90
    33792
280
     0
281
     0
  0
CLASS
  1
ACGREFACADMASTER
  2
AcGrefacadMaster
  3
AcGrefServices
 90
    33792
280
     0
281
     0
  0
CLASS
  1
AMDTMENUSTATEMGR
  2
AmdtMenuStateMgr
  3
McadcomServices
 90
    33792
280
     0
281
     0
  0
CLASS
  1
AMDTMCOMMENUSTATE
  2
AmdtMcomMenuState
  3
McadcomServices
 90
    33792
280
     0
281
     0
  0
CLASS
  1
AMIMASTER
  2
AmiMaster
  3
AmiServices
 90
    33792
280
     0
281
     0
  0
CLASS
  1
MAPIAMMOUDLE
  2
MApiAmModule
  3
MApiAmServices
 90
    33792
280
     0
281
     0
  0
CLASS
  1
ACIMSTRSYSVAR
  2
AcImStrSysVar
  3
AcMeServices
 90
     1024
280
     0
281
     0
  0
CLASS
  1
AMDTAMMENUSTATE
  2
AmdtAmMenuState
  3
DesignerAssemblies_arx
 90
    33792
280
     0
281
     0
  0
CLASS
  1
ACAMPROJECT
  2
AcAmProject
  3
DesignerAssemblies
 90
    33792
280
     0
281
     0
  0
CLASS
  1
ACAMGRCOMPDEF
  2
AcAmGrCompDef
  3
DesignerAssemblies
 90
    33792
280
     0
281
     0
  0
CLASS
  1
ACAMCOMPDEF
  2
AcAmCompDef
  3
DesignerAssemblies
 90
    33792
280
     0
281
     0
  0
CLASS
  1
ACAMCOMPDEFMGR
  2
AcAmCompDefMgr
  3
DesignerAssemblies
 90
    33792
280
     0
281
     0
  0
CLASS
  1
AMCONTEXTMGR
  2
AcAmContextMgr
  3
DesignerAssemblies
 90
    33792
280
     0
281
     0
  0
CLASS
  1
ACAMCONTEXTMODELER
  2
AcAmContextModeler
  3
DesignerAssemblies
 90
    33792
280
     0
281
     0
  0
CLASS
  1
ACMDATADICTIONARY
  2
AcmDataDictionary
  3
"AcmSymBB|Product Description: AutoCAD Mechanical|Company: Autodesk, Inc."
 90
    33792
280
     0
281
     0
  0
CLASS
  1
ACAMGRCOMPDEFSET
  2
AcAmGrCompDefSet
  3
DesignerAssemblies
 90
    33792
280
     0
281
     0
  0
CLASS
  1
AMDTBROWSERDBTAB
  2
AmdtBrowserDbTab
  3
McadcomServices
 90
    33792
280
     0
281
     0
  0
CLASS
  1
CBROWSERAPPOBJECT
  2
CBrowserAppObject
  3
McadcomServices
 90
    33792
280
     0
281
     0
  0
CLASS
  1
DM_PLACEHOLDER
  2
AcDmSelsetPlaceholder
  3
McadcomServices
 90
    33792
280
     0
281
     0
  0
CLASS
  1
ACMSTANDARDDIN
  2
AcmStandardDIN
  3
"Amdt_StdImp|Product Description: AutoCAD Mechanical|Company: Autodesk, Inc."
 90
     1024
280
     0
281
     0
  0
CLASS
  1
AMDTEDGESTANDARDDIN13715
  2
AmdtEdgeStdDIN13715
  3
"Amdt_StdImp|Product Description: AutoCAD Mechanical|Company: Autodesk, Inc."
 90
     1024
280
     0
281
     0
  0
CLASS
  1
ACMSURFSTANDARDDIN2002
  2
AcmSurfTextStdDIN2002
  3
"Amdt_StdImp|Product Description: AutoCAD Mechanical|Company: Autodesk, Inc."
 90
     1024
280
     0
281
     0
  0
CLASS
  1
ACMFCFSTANDARDDIN2008
  2
AcmFCFStdDIN2008
  3
"Amdt_StdImp|Product Description: AutoCAD Mechanical|Company: Autodesk, Inc."
 90
     1024
280
     0
281
     0
  0
CLASS
  1
ACMWELDSTANDARDDIN
  2
AcmWeldingStdDIN
  3
"Amdt_StdImp|Product Description: AutoCAD Mechanical|Company: Autodesk, Inc."
 90
     1024
280
     0
281
     0
  0
CLASS
  1
ACMIDSTANDARDDIN2012
  2
AcmIdStdDIN2012
  3
"Amdt_StdImp|Product Description: AutoCAD Mechanical|Company: Autodesk, Inc."
 90
     1024
280
     0
281
     0
  0
CLASS
  1
ACMDATUMSTANDARDDIN2008
  2
AcmDatumStdDIN2008
  3
"Amdt_StdImp|Product Description: AutoCAD Mechanical|Company: Autodesk, Inc."
 90
     1024
280
     0
281
     0
  0
CLASS
  1
ACMBOMSTANDARDDIN
  2
AcmBOMStdDIN
  3
"Amdt_StdImp|Product Description: AutoCAD Mechanical|Company: Autodesk, Inc."
 90
     1024
280
     0
281
     0
  0
CLASS
  1
ACMDETAILSTANDARDDIN
  2
AmdtDetailSymStdDIN
  3
"Amdt_StdImp|Product Description: AutoCAD Mechanical|Company: Autodesk, Inc."
 90
     1024
280
     0
281
     0
  0
CLASS
  1
ACMSECTIONSTANDARDDIN
  2
AmdtSectionSymStdDIN
  3
"Amdt_StdImp|Product Description: AutoCAD Mechanical|Company: Autodesk, Inc."
 90
     1024
280
     0
281
     0
  0
CLASS
  1
ACMCENTERLINESTANDARDDIN
  2
AmdtCenterLineStdDIN
  3
"Amdt_StdImp|Product Description: AutoCAD Mechanical|Company: Autodesk, Inc."
 90
     1024
280
     0
281
     0
  0
CLASS
  1
ACMTHREADLINESTANDARDDIN
  2
AmdtThreadLineStdDIN
  3
"Amdt_StdImp|Product Description: AutoCAD Mechanical|Company: Autodesk, Inc."
 90
     1024
280
     0
281
     0
  0
CLASS
  1
ACMNOTESTANDARDDIN
  2
AmdtNoteStdDIN
  3
"Amdt_StdImp|Product Description: AutoCAD Mechanical|Company: Autodesk, Inc."
 90
     1024
280
     0
281
     0
  0
CLASS
  1
ACMTAPERSTANDARDDIN
  2
AcmTaperStdDIN
  3
"Amdt_StdImp|Product Description: AutoCAD Mechanical|Company: Autodesk, Inc."
 90
     1024
280
     0
281
     0
  0
CLASS
  1
ACMANOOTATIONVIEWSTANDARDDIN
  2
AmdtAnViewStdDIN
  3
"Amdt_StdImp|Product Description: AutoCAD Mechanical|Company: Autodesk, Inc."
 90
     1024
280
     0
281
     0
  0
CLASS
  1
ACAMGLAYSTD
  2
AcAmgLayStd
  3
"AmgLay|Product Description: AutoCAD Mechanical|Company: Autodesk, Inc."
 90
     1024
280
     0
281
     0
  0
CLASS
  1
ACAMGDIMSTD
  2
AcAmgDimStd
  3
"AmgDim|Product Description: AutoCAD Mechanical|Company: Autodesk, Inc."
 90
     1024
280
     0
281
     0
  0
CLASS
  1
AMGOBJPROPCFG
  2
AmgObjPropCfg
  3
"AmgLay|Product Description: AutoCAD Mechanical|Company: Autodesk, Inc."
 90
     1024
280
     0
281
     0
  0
CLASS
  1
ACAMGHOLECHARTSTDDIN
  2
AcAmgHoleChartStdDIN
  3
"AmgDim" "Product Description: AutoCAD Mechanical|Company: Autodesk, Inc."
 90
     1024
280
     0
281
     0
  0
CLASS
  1
ACAMGTITLESTD
  2
AcAmgTitleStd
  3
"AmgTitle|Product Description: AutoCAD Mechanical|Company: Autodesk, Inc."
 90
     1024
280
     0
281
     0
  0
CLASS
  1
ACMSECTIONSTANDARDCUSTOM
  2
AmdtSectionSymStdCustom
  3
"Amdt_StdImp|Product Description: AutoCAD Mechanical|Company: Autodesk, Inc."
 90
     1024
280
     0
281
     0
  0
CLASS
  1
ACMDETAILTANDARDCUSTOM
  2
AmdtDetailSymStdCustom
  3
"Amdt_StdImp|Product Description: AutoCAD Mechanical|Company: Autodesk, Inc."
 90
     1024
280
     0
281
     0
  0
CLASS
  1
FIELD
  2
AcDbField
  3
ObjectDBX Classes
 90
     1152
280
     0
281
     0
  0
CLASS
  1
FIELDLIST
  2
AcDbFieldList
  3
ObjectDBX Classes
 90
     1152
280
     0
281
     0
  0
CLASS
  1
AMDTNOTETEMPLATEDB
  2
AmdtNoteTemplateDB
  3
"AcmSymBB" "Product Description: AutoCAD Mechanical|Company: Autodesk, Inc."
 90
     1024
280
     0
281
     0
  0
CLASS
  1
CAMSSTRUCTBTNSTATE
  2
StructBtnState
  3
DesignerAssemblies_arx
 90
    33792
280
     0
281
     0
  0
CLASS
  1
RAPIDRTRENDERSETTINGS
  2
AcDbRapidRTRenderSettings
  3
ObjectDBX Classes
 90
    33792
280
     0
281
     0
  0
CLASS
  1
SORTENTSTABLE
  2
AcDbSortentsTable
  3
ObjectDBX Classes
 90
        0
280
     0
281
     0
  0
CLASS
  1
ACAMGFILTERDAT
  2
AcAmgFilterDat
  3
"AcadM|Product Description: AutoCAD Mechanical|Company: Autodesk, Inc."
 90
    33792
280
     0
281
     0
  0
CLASS
  1
ACDBASSOCNETWORK
  2
AcDbAssocNetwork
  3
ObjectDBX Classes
 90
    33793
280
     0
281
     0
  0
CLASS
  1
ACDBASSOC2DCONSTRAINTGROUP
  2
AcDbAssoc2dConstraintGroup
  3
ObjectDBX Classes
 90
    33793
280
     0
281
     0
  0
CLASS
  1
ACDBASSOCGEOMDEPENDENCY
  2
AcDbAssocGeomDependency
  3
ObjectDBX Classes
 90
    33793
280
     0
281
     0
  0
CLASS
  1
ACAD_EVALUATION_GRAPH
  2
AcDbEvalGraph
  3
ObjectDBX Classes
 90
    33921
280
     0
281
     0
  0
CLASS
  1
BLOCKBASEPOINTPARAMETER
  2
AcDbBlockBasepointParameter
  3
ObjectDBX Classes
 90
    33921
280
     0
281
     0
  0
CLASS
  1
ACDB_DYNAMICBLOCKPROXYNODE
  2
AcDbDynamicBlockProxyNode
  3
ObjectDBX Classes
 90
    33921
280
     0
281
     0
  0
CLASS
  1
BLOCKVISIBILITYPARAMETER
  2
AcDbBlockVisibilityParameter
  3
ObjectDBX Classes
 90
    33921
280
     0
281
     0
  0
CLASS
  1
BLOCKVISIBILITYGRIP
  2
AcDbBlockVisibilityGrip
  3
ObjectDBX Classes
 90
    33921
280
     0
281
     0
  0
CLASS
  1
BLOCKGRIPLOCATIONCOMPONENT
  2
AcDbBlockGripExpr
  3
ObjectDBX Classes
 90
    33921
280
     0
281
     0
  0
CLASS
  1
BLOCKPOINTPARAMETER
  2
AcDbBlockPointParameter
  3
ObjectDBX Classes
 90
    33921
280
     0
281
     0
  0
CLASS
  1
BLOCKXYGRIP
  2
AcDbBlockXYGrip
  3
ObjectDBX Classes
 90
    33921
280
     0
281
     0
  0
CLASS
  1
BLOCKMOVEACTION
  2
AcDbBlockMoveAction
  3
ObjectDBX Classes
 90
    33921
280
     0
281
     0
  0
CLASS
  1
ACDB_DYNAMICBLOCKPURGEPREVENTER_VERSION
  2
AcDbDynamicBlockPurgePreventer
  3
ObjectDBX Classes
 90
    33921
280
     0
281
     0
  0
CLASS
  1
IMAGE
  2
AcDbRasterImage
  3
ISM
 90
     2175
280
     0
281
     1
  0
CLASS
  1
IMAGEDEF_REACTOR
  2
AcDbRasterImageDefReactor
  3
ISM
 90
        1
280
     0
281
     0
  0
CLASS
  1
ACDB_BLOCKREPRESENTATION_DATA
  2
AcDbBlockRepresentationData
  3
ObjectDBX Classes
 90
    33921
280
     0
281
     0
  0
CLASS
  1
IMAGEDEF
  2
AcDbRasterImageDef
  3
ISM
 90
        0
280
     0
281
     0
  0
CLASS
  1
ACMDATAENTRYBLOCK
  2
AcmDataEntryBlock
  3
"AcmSymBB" "Product Description: AutoCAD Mechanical|Company: Autodesk, Inc."
 90
    33792
280
     0
281
     0
  0
CLASS
  1
RASTERVARIABLES
  2
AcDbRasterVariables
  3
ISM
 90
        0
280
     0
281
     0
  0
CLASS
  1
ACAECUSTOBJ
  2
AcAeEditorObj
  3
AcAeEditorObj
 90
    33792
280
     0
281
     0
  0
CLASS
  1
ACDBASSOCVARIABLE
  2
AcDbAssocVariable
  3
ObjectDBX Classes
 90
    33793
280
     0
281
     0
  0
CLASS
  1
ACDBASSOCVALUEDEPENDENCY
  2
AcDbAssocValueDependency
  3
ObjectDBX Classes
 90
    33793
280
     0
281
     0
  0
CLASS
  1
ACDBASSOCDEPENDENCY
  2
AcDbAssocDependency
  3
ObjectDBX Classes
 90
    33793
280
     0
281
     0
  0
CLASS
  1
BLOCKPARAMDEPENDENCYBODY
  2
AcDbBlockParameterDependencyBody
  3
ObjectDBX Classes
 90
    32769
280
     0
281
     0
  0
CLASS
  1
BLOCKHORIZONTALCONSTRAINTPARAMETER
  2
AcDbBlockHorizontalConstraintParameter
  3
ObjectDBX Classes
 90
    33921
280
     0
281
     0
  0
CLASS
  1
BLOCKLINEARGRIP
  2
AcDbBlockLinearGrip
  3
ObjectDBX Classes
 90
    33921
280
     0
281
     0
  0
CLASS
  1
BLOCKVERTICALCONSTRAINTPARAMETER
  2
AcDbBlockVerticalConstraintParameter
  3
ObjectDBX Classes
 90
    33921
280
     0
281
     0
  0
CLASS
  1
DIMASSOC
  2
AcDbDimAssoc
  3
"AcDbDimAssoc|Product Desc:     AcDim ARX App For Dimension|Company:          Autodesk, Inc.|WEB Address:      www.autodesk.com"
 90
    32768
280
     0
281
     0
  0
CLASS
  1
ACAD_TABLE
  2
AcDbTable
  3
ObjectDBX Classes
 90
    33793
280
     0
281
     1
  0
CLASS
  1
TABLECONTENT
  2
AcDbTableContent
  3
ObjectDBX Classes
 90
    33920
280
     0
281
     0
  0
CLASS
  1
TABLEGEOMETRY
  2
AcDbTableGeometry
  3
ObjectDBX Classes
 90
    33920
280
     0
281
     0
  0
CLASS
  1
BLOCKLINEARPARAMETER
  2
AcDbBlockLinearParameter
  3
ObjectDBX Classes
 90
    33921
280
     0
281
     0
  0
CLASS
  1
BLOCKSCALEACTION
  2
AcDbBlockScaleAction
  3
ObjectDBX Classes
 90
    33921
280
     0
281
     0
  0
CLASS
  1
POINTPARAMETERENTITY
  2
AcDbBlockPointParameterEntity
  3
ObjectDBX Classes
 90
    33793
280
     0
281
     1
  0
CLASS
  1
ACAEEEMGROBJ
  2
AcAeEEMgrObj
  3
AcAeEEMgrObj
 90
    33792
280
     0
281
     0
  0
CLASS
  1
XYGRIPENTITY
  2
AcDbBlockXYGripEntity
  3
ObjectDBX Classes
 90
    33793
280
     0
281
     1
  0
CLASS
  1
VISIBILITYPARAMETERENTITY
  2
AcDbBlockVisibilityParameterEntity
  3
ObjectDBX Classes
 90
    33793
280
     0
281
     1
  0
CLASS
  1
VISIBILITYGRIPENTITY
  2
AcDbBlockVisibilityGripEntity
  3
ObjectDBX Classes
 90
    33793
280
     0
281
     1
  0
CLASS
  1
STDPART2D
  2
AmgStdPart
  3
"AmgStdPart" "Product Description: AutoCAD Mechanical|Company: Autodesk, Inc."
 90
    33792
280
     0
281
     1
  0
CLASS
  1
ACMDATAENTRYPART
  2
AcmDataEntryPart
  3
"AcmSymBB" "Product Description: AutoCAD Mechanical|Company: Autodesk, Inc."
 90
    33792
280
     0
281
     0
  0
CLASS
  1
ACMPARTREF
  2
AcmPartRef
  3
"AcmSymBB|Product Description: AutoCAD Mechanical|Company: Autodesk, Inc."
 90
    33792
280
     0
281
     1
  0
CLASS
  1
ACDBSTDPARTRES_LINE
  2
AcDbStdPartRes_Line
  3
"AmgStdPart" "Product Description: AutoCAD Mechanical|Company: Autodesk, Inc."
 90
    33792
280
     0
281
     0
  0
CLASS
  1
AMDTINTERNALREACTOR
  2
AmdtInternalReactor
  3
AcMeServices
 90
    33792
280
     0
281
     0
  0
CLASS
  1
ACMSTANDARDANSI
  2
AcmStandardANSI
  3
"Amdt_StdImp|Product Description: AutoCAD Mechanical|Company: Autodesk, Inc."
 90
    33792
280
     0
281
     0
  0
CLASS
  1
ACMSURFSTANDARDANSI
  2
AcmSurfTextStdANSI
  3
"Amdt_StdImp|Product Description: AutoCAD Mechanical|Company: Autodesk, Inc."
 90
    33792
280
     0
281
     0
  0
CLASS
  1
ACMFCFSTANDARDANSI
  2
AcmFCFStdANSI
  3
"Amdt_StdImp|Product Description: AutoCAD Mechanical|Company: Autodesk, Inc."
 90
    33792
280
     0
281
     0
  0
CLASS
  1
ACMWELDSTANDARDANSI
  2
AcmWeldingStdANSI
  3
"Amdt_StdImp|Product Description: AutoCAD Mechanical|Company: Autodesk, Inc."
 90
    33792
280
     0
281
     0
  0
CLASS
  1
ACMIDSTANDARDANSI
  2
AcmIdStdANSI
  3
"Amdt_StdImp|Product Description: AutoCAD Mechanical|Company: Autodesk, Inc."
 90
    33792
280
     0
281
     0
  0
CLASS
  1
ACMDATUMSTANDARDANSI
  2
AcmDatumStdANSI
  3
"Amdt_StdImp|Product Description: AutoCAD Mechanical|Company: Autodesk, Inc."
 90
    33792
280
     0
281
     0
  0
CLASS
  1
ACMBOMSTANDARDANSI
  2
AcmBOMStdANSI
  3
"Amdt_StdImp|Product Description: AutoCAD Mechanical|Company: Autodesk, Inc."
 90
    33792
280
     0
281
     0
  0
CLASS
  1
ACMDETAILSTANDARDANSI
  2
AmdtDetailSymStdANSI
  3
"Amdt_StdImp|Product Description: AutoCAD Mechanical|Company: Autodesk, Inc."
 90
    33792
280
     0
281
     0
  0
CLASS
  1
ACMSECTIONSTANDARDANSI
  2
AmdtSectionSymStdANSI
  3
"Amdt_StdImp|Product Description: AutoCAD Mechanical|Company: Autodesk, Inc."
 90
    33792
280
     0
281
     0
  0
CLASS
  1
ACMCENTERLINESTANDARDANSI
  2
AmdtCenterLineStdANSI
  3
"Amdt_StdImp|Product Description: AutoCAD Mechanical|Company: Autodesk, Inc."
 90
    33792
280
     0
281
     0
  0
CLASS
  1
ACMTHREADLINESTANDARDANSI
  2
AmdtThreadLineStdANSI
  3
"Amdt_StdImp|Product Description: AutoCAD Mechanical|Company: Autodesk, Inc."
 90
    33792
280
     0
281
     0
  0
CLASS
  1
ACMNOTESTANDARDANSI
  2
AmdtNoteStdANSI
  3
"Amdt_StdImp|Product Description: AutoCAD Mechanical|Company: Autodesk, Inc."
 90
    33792
280
     0
281
     0
  0
CLASS
  1
ACMTAPERSTANDARDANSI
  2
AcmTaperStdANSI
  3
"Amdt_StdImp|Product Description: AutoCAD Mechanical|Company: Autodesk, Inc."
 90
    33792
280
     0
281
     0
  0
CLASS
  1
ACMANOOTATIONVIEWSTANDARDANSI
  2
AmdtAnViewStdANSI
  3
"Amdt_StdImp|Product Description: AutoCAD Mechanical|Company: Autodesk, Inc."
 90
    33792
280
     0
281
     0
  0
CLASS
  1
ACAMGHOLECHARTSTDANSI
  2
AcAmgHoleChartStdANSI
  3
"AmgDim" "Product Description: AutoCAD Mechanical|Company: Autodesk, Inc."
 90
    33792
280
     0
281
     0
  0
CLASS
  1
AEC_REFEDIT_STATUS_TRACKER
  2
AecDbRefEditStatusTracker
  3
AecArchBase80|Product Desc: Autodesk Architectural Desktop 2007 |Company: Autodesk,Inc. |WEB Address: www.autodesk.com
 90
    32897
280
     1
281
     0
  0
CLASS
  1
SOLID_BACKGROUND
  2
AcDbSolidBackground
  3
SCENEOE
 90
    36863
280
     0
281
     0
  0
CLASS
  1
AMDTNOTE
  2
AmdtNote
  3
"AcmSymBB|Product Description: AutoCAD Mechanical|Company: Autodesk, Inc."
 90
    33792
280
     0
281
     1
  0
CLASS
  1
AMDTSECTIONSYM
  2
AmdtSectionSym
  3
"AcmSymBB|Product Description: AutoCAD Mechanical|Company: Autodesk, Inc."
 90
    33792
280
     0
281
     1
  0
CLASS
  1
AMDTSECTIONSYMLABEL
  2
AmdtSectionSymLabel
  3
"AcmSymBB|Product Description: AutoCAD Mechanical|Company: Autodesk, Inc."
 90
    33792
280
     0
281
     1
  0
CLASS
  1
ACSH_HISTORY_CLASS
  2
AcDbShHistory
  3
ObjectDBX Classes
 90
    33921
280
     0
281
     0
  0
CLASS
  1
ACSH_EXTRUSION_CLASS
  2
AcDbShExtrusion
  3
ObjectDBX Classes
 90
    33921
280
     0
281
     0
  0
CLASS
  1
ACSH_BOOLEAN_CLASS
  2
AcDbShBoolean
  3
ObjectDBX Classes
 90
    33921
280
     0
281
     0
  0
CLASS
  1
ACDBASSOCPERSSUBENTMANAGER
  2
AcDbAssocPersSubentManager
  3
ObjectDBX Classes
 90
    33792
280
     0
281
     0
  0
CLASS
  1
ACDBPERSSUBENTMANAGER
  2
AcDbPersSubentManager
  3
AcDbPersSubentManager
 90
    33792
280
     0
281
     0
  0
CLASS
  1
SURFACE
  2
AcDbSurface
  3
ObjectDBX Classes
 90
    36863
280
     0
281
     1
  0
CLASS
  1
ACDBOPPOLYLINERES
  2
AcDbOpPolylineRes
  3
AcGrefServices
 90
    33792
280
     0
281
     0
  0
CLASS
  1
AMDTFORMULAUPDATEDISPATCHER
  2
AmdtFormulaUpdateDispatcher
  3
AcMeServices
 90
    33792
280
     0
281
     0
  0
CLASS
  1
ACARRAYJIGENTITY
  2
AcArrayJigEntity
  3
ACAD_ARRAY
 90
    32897
280
     1
281
     1
  0
CLASS
  1
ACDBASSOCACTION
  2
AcDbAssocAction
  3
ObjectDBX Classes
 90
    33793
280
     0
281
     0
  0
CLASS
  1
ACDBASSOCARRAYACTIONBODY
  2
AcDbAssocArrayActionBody
  3
ObjectDBX Classes
 90
    33793
280
     0
281
     0
  0
CLASS
  1
ACDBASSOCVERTEXACTIONPARAM
  2
AcDbAssocVertexActionParam
  3
ObjectDBX Classes
 90
    33793
280
     0
281
     0
  0
CLASS
  1
ACDBASSOCARRAYRECTANGULARPARAMETERS
  2
AcDbAssocArrayRectangularParameters
  3
ObjectDBX Classes
 90
    33793
280
     0
281
     0
  0
CLASS
  1
MENTALRAYRENDERSETTINGS
  2
AcDbMentalRayRenderSettings
  3
SCENEOE
 90
    33792
280
     0
281
     0
  0
CLASS
  1
ACDBASSOCENTITYCLONEACTIONBODY
  2
AcDbAssocEntityCloneActionBody
  3
ObjectDBX Classes
 90
    33793
280
     0
281
     0
  0
CLASS
  1
ACDB_MTEXTOBJECTCONTEXTDATA_CLASS
  2
AcDbMTextObjectContextData
  3
ObjectDBX Classes
 90
    33921
280
     0
281
     0
  0
ENDSEC
  0
SECTION
  2
TABLES
  0
TABLE
  2
VPORT
  5
2D
330
0
100
AcDbSymbolTable
 70
     1
  0
VPORT
  5
2E
330
2D
100
AcDbSymbolTableRecord
100
AcDbViewportTableRecord
  2
*Active
 70
     0
 10
0.0
 20
0.0
 11
1.0
 21
1.0
 12
-1047.663868069311
 22
1838.898867756328
 13
0.0
 23
0.0
 14
10.0
 24
10.0
 15
10.0
 25
10.0
 16
0.0
 26
0.0
 36
73.92900907791593
 17
35982.36575583753
 27
5711.861408397168
 37
0.0
 40
1721.885467108099
 41
2.70281690140845
 42
50.0
 43
0.0
 44
0.0
 50
0.0
 51
0.0
 71
     0
 72
  1000
 73
     1
 74
     3
 75
     0
 76
     0
 77
     0
 78
     0
281
     0
 65
     1
110
0.0
120
0.0
130
0.0
111
1.0
121
0.0
131
0.0
112
0.0
122
1.0
132
0.0
 79
     0
146
0.0
1001
ACAD_NAV_VCDISPLAY
1070
     3
  0
ENDTAB
  0
TABLE
  2
LTYPE
  5
28
330
0
100
AcDbSymbolTable
 70
    14
  0
LTYPE
  5
29
330
28
100
AcDbSymbolTableRecord
100
AcDbLinetypeTableRecord
  2
ByBlock
 70
     0
  3

 72
    65
 73
     0
 40
0.0
  0
LTYPE
  5
2A
330
28
100
AcDbSymbolTableRecord
100
AcDbLinetypeTableRecord
  2
ByLayer
 70
     0
  3

 72
    65
 73
     0
 40
0.0
  0
LTYPE
  5
15
330
28
100
AcDbSymbolTableRecord
100
AcDbLinetypeTableRecord
  2
Continuous
 70
     0
  3
Solid line
 72
    65
 73
     0
 40
0.0
  0
LTYPE
  5
1DC
330
28
100
AcDbSymbolTableRecord
100
AcDbLinetypeTableRecord
  2
Amconstr
 70
     0
  3
_______________________
 72
    65
 73
     2
 40
9999.0
 49
9999.0
 74
     0
 49
0.0
 74
     0
  0
LTYPE
  5
1DE
330
28
100
AcDbSymbolTableRecord
100
AcDbLinetypeTableRecord
  2
Amzigzag
 70
     0
  3
/\/-/\/-/\/-/\/-/\/-/\/
 72
    65
 73
     2
 40
11.0001
 49
0.0001
 74
     4
 75
   136
340
1DF
 46
0.04
 50
0.0
 44
0.0
 45
0.0
 49
-11.0
 74
     0
  0
LTYPE
  5
1D9
330
28
100
AcDbSymbolTableRecord
100
AcDbLinetypeTableRecord
  2
AM_DIN_F_W050
 70
     0
  3
__ __ __ __ __ __ __ __ __ __ __ __ __ __ __
 72
    65
 73
     2
 40
6.25
 49
4.75
 74
     0
 49
-1.5
 74
     0
  0
LTYPE
  5
1DA
330
28
100
AcDbSymbolTableRecord
100
AcDbLinetypeTableRecord
  2
AM_DIN_G_W050
 70
     0
  3
____ . ____ . ____ . ____ . ____ . ____ . ____
 72
    65
 73
     4
 40
13.75
 49
9.75
 74
     0
 49
-1.5
 74
     0
 49
1.0
 74
     0
 49
-1.5
 74
     0
  0
LTYPE
  5
1DB
330
28
100
AcDbSymbolTableRecord
100
AcDbLinetypeTableRecord
  2
AM_DIN_K_W050
 70
     0
  3
_____ . . _____ . . _____ . . ____ .. ____
 72
    65
 73
     6
 40
16.25
 49
9.75
 74
     0
 49
-1.5
 74
     0
 49
1.0
 74
     0
 49
-1.5
 74
     0
 49
1.0
 74
     0
 49
-1.5
 74
     0
  0
LTYPE
  5
78
330
28
100
AcDbSymbolTableRecord
100
AcDbLinetypeTableRecord
  2
AM_DIN_G_W050x2
 70
     0
  3
__ . __ . __ . __ . __ . __
 72
    65
 73
     4
 40
6.875
 49
4.75
 74
     0
 49
-0.875
 74
     0
 49
0.375
 74
     0
 49
-0.875
 74
     0
  0
LTYPE
  5
1DD
330
28
100
AcDbSymbolTableRecord
100
AcDbLinetypeTableRecord
  2
AM_DIN_F_W050x2
 70
     0
  3
 _ _ _ _ _ _ _ _ _ _ _ _
 72
    65
 73
     2
 40
3.125
 49
2.25
 74
     0
 49
-0.875
 74
     0
  0
LTYPE
  5
1F0
330
28
100
AcDbSymbolTableRecord
100
AcDbLinetypeTableRecord
  2
ACDINWELD
 70
     0
  3
_ _ _ _ _
 72
    65
 73
     2
 40
2.0
 49
2.0
 74
     0
 49
-1.0
 74
     0
  0
LTYPE
  5
22A
330
28
100
AcDbSymbolTableRecord
100
AcDbLinetypeTableRecord
  2
ACDINTGL
 70
     0
  3
_ _ _ _ _
 72
    65
 73
     2
 40
3.0
 49
2.0
 74
     0
 49
-1.0
 74
     0
  0
LTYPE
  5
22C
330
28
100
AcDbSymbolTableRecord
100
AcDbLinetypeTableRecord
  2
ACDINTGB
 70
     0
  3
__ . . __ . .
 72
    65
 73
     6
 40
9.0
 49
4.0
 74
     0
 49
-1.0
 74
     0
 49
1.0
 74
     0
 49
-1.0
 74
     0
 49
1.0
 74
     0
 49
-1.0
 74
     0
  0
LTYPE
  5
77
330
28
100
AcDbSymbolTableRecord
100
AcDbLinetypeTableRecord
  2
MITTE
 70
     0
  3
____ _ ____ _ ____ _ ____ _ ____ _ ____ _ ____
 72
    65
 73
     4
 40
2.0
 49
1.25
 74
     0
 49
-0.25
 74
     0
 49
0.25
 74
     0
 49
-0.25
 74
     0
  0
LTYPE
  5
53
330
28
100
AcDbSymbolTableRecord
100
AcDbLinetypeTableRecord
  2
AUSGEZOGEN
 70
     0
  3
____________________________________________
 72
    65
 73
     2
 40
2000.1
 49
2000.0
 74
     0
 49
-0.1
 74
     0
  0
LTYPE
  5
EF
330
28
100
AcDbSymbolTableRecord
100
AcDbLinetypeTableRecord
  2
ACISOTGB
 70
     0
  3
__ . . __ . .
 72
    65
 73
     6
 40
9.0
 49
4.0
 74
     0
 49
-1.0
 74
     0
 49
1.0
 74
     0
 49
-1.0
 74
     0
 49
1.0
 74
     0
 49
-1.0
 74
     0
  0
ENDTAB
  0
TABLE
  2
LAYER
  5
21
102
{ACAD_XDICTIONARY
360
22
102
}
330
0
100
AcDbSymbolTable
 70
     5
  0
LAYER
  5
7
102
{ACAD_XDICTIONARY
360
8
102
}
330
21
100
AcDbSymbolTableRecord
100
AcDbLayerTableRecord
  2
0
 70
     0
 62
     7
  6
Continuous
370
    -3
390
9
  0
LAYER
  5
75
102
{ACAD_XDICTIONARY
360
76
102
}
330
21
100
AcDbSymbolTableRecord
100
AcDbLayerTableRecord
  2
-ACHSE
 70
     0
 62
     3
  6
MITTE
370
    -3
390
9
  0
LAYER
  5
51
102
{ACAD_XDICTIONARY
360
52
102
}
330
21
100
AcDbSymbolTableRecord
100
AcDbLayerTableRecord
  2
DEFPOINTS
 70
     0
 62
     5
  6
AUSGEZOGEN
290
     0
370
    -3
390
9
  0
LAYER
  5
70
330
21
100
AcDbSymbolTableRecord
100
AcDbLayerTableRecord
  2
-PROFILAUSSENKANTET
 70
     0
 62
     4
  6
Continuous
370
    -3
390
9
  0
LAYER
  5
8B
330
21
100
AcDbSymbolTableRecord
100
AcDbLayerTableRecord
  2
AM_5
 70
     0
 62
     3
  6
Continuous
370
    25
390
9
1001
AcAecLayerStandard
1000

1000

  0
ENDTAB
  0
TABLE
  2
STYLE
  5
25
330
0
100
AcDbSymbolTable
 70
     3
  0
STYLE
  5
26
330
25
100
AcDbSymbolTableRecord
100
AcDbTextStyleTableRecord
  2
Standard
 70
     0
 40
0.0
 41
1.0
 50
0.0
 71
     0
 42
2.5
  3
arial.ttf
  4

1001
ACAD
1000
Arial
1071
       34
  0
STYLE
  5
1DF
330
25
100
AcDbSymbolTableRecord
100
AcDbTextStyleTableRecord
  2

 70
     1
 40
0.0
 41
1.0
 50
0.0
 71
     0
 42
2.5
  3
genltshp.shx
  4

  0
STYLE
  5
1EE
330
25
100
AcDbSymbolTableRecord
100
AcDbTextStyleTableRecord
  2
ACDINGDT
 70
     0
 40
0.0
 41
1.0
 50
0.0
 71
     0
 42
2.5
  3
amgdt.shx
  4

  0
ENDTAB
  0
TABLE
  2
VIEW
  5
2B
330
0
100
AcDbSymbolTable
 70
     0
  0
ENDTAB
  0
TABLE
  2
UCS
  5
2C
330
0
100
AcDbSymbolTable
 70
     0
  0
ENDTAB
  0
TABLE
  2
APPID
  5
32
330
0
100
AcDbSymbolTable
 70
    18
  0
APPID
  5
14
330
32
100
AcDbSymbolTableRecord
100
AcDbRegAppTableRecord
  2
ACAD
 70
     0
  0
APPID
  5
1A
330
32
100
AcDbSymbolTableRecord
100
AcDbRegAppTableRecord
  2
ACAD_PSEXT
 70
     0
  0
APPID
  5
35
330
32
100
AcDbSymbolTableRecord
100
AcDbRegAppTableRecord
  2
ACAD_DSTYLE_DIMJAG
 70
     0
  0
APPID
  5
31
330
32
100
AcDbSymbolTableRecord
100
AcDbRegAppTableRecord
  2
ACAD_NAV_VCDISPLAY
 70
     0
  0
APPID
  5
36
330
32
100
AcDbSymbolTableRecord
100
AcDbRegAppTableRecord
  2
ACAD_DSTYLE_DIMBREAK
 70
     0
  0
APPID
  5
8C
330
32
100
AcDbSymbolTableRecord
100
AcDbRegAppTableRecord
  2
AcAecLayerStandard
 70
     0
  0
APPID
  5
1CA
330
32
100
AcDbSymbolTableRecord
100
AcDbRegAppTableRecord
  2
AcDbBlockRepETag
 70
     0
  0
APPID
  5
6C
330
32
100
AcDbSymbolTableRecord
100
AcDbRegAppTableRecord
  2
GENIUS_GENREC_14
 70
     0
  0
APPID
  5
6D
330
32
100
AcDbSymbolTableRecord
100
AcDbRegAppTableRecord
  2
GENIUS_GENODEF_13
 70
     0
  0
APPID
  5
6E
330
32
100
AcDbSymbolTableRecord
100
AcDbRegAppTableRecord
  2
GENIUS_GENOBJ-N-REC_13
 70
     0
  0
APPID
  5
9B
330
32
100
AcDbSymbolTableRecord
100
AcDbRegAppTableRecord
  2
ACAD_DSTYLE_DIMINSPECT
 70
     0
  0
APPID
  5
86
330
32
100
AcDbSymbolTableRecord
100
AcDbRegAppTableRecord
  2
GENIUS_GENOBJ-N-HTC_13
 70
     0
  0
APPID
  5
87
330
32
100
AcDbSymbolTableRecord
100
AcDbRegAppTableRecord
  2
GENIUS_GENHATCH_13
 70
     0
  0
APPID
  5
22E
330
32
100
AcDbSymbolTableRecord
100
AcDbRegAppTableRecord
  2
ACATTRIBSERVICES
 70
     0
  0
APPID
  5
251
330
32
100
AcDbSymbolTableRecord
100
AcDbRegAppTableRecord
  2
ACAD_DSTYLE_DIMJOGGED_JOGANGLE_SYMBOL
 70
     0
  0
APPID
  5
252
330
32
100
AcDbSymbolTableRecord
100
AcDbRegAppTableRecord
  2
ACAD_DSTYLE_DIM_LINETYPE
 70
     0
  0
APPID
  5
253
330
32
100
AcDbSymbolTableRecord
100
AcDbRegAppTableRecord
  2
ACAD_DSTYLE_DIM_EXT1_LINETYPE
 70
     0
  0
APPID
  5
254
330
32
100
AcDbSymbolTableRecord
100
AcDbRegAppTableRecord
  2
ACAD_DSTYLE_DIM_EXT2_LINETYPE
 70
     0
  0
ENDTAB
  0
TABLE
  2
DIMSTYLE
  5
33
330
0
100
AcDbSymbolTable
 70
     9
100
AcDbDimStyleTable
 71
     1
340
34
  0
DIMSTYLE
105
34
102
{ACAD_REACTORS
330
1EA
102
}
330
33
100
AcDbSymbolTableRecord
100
AcDbDimStyleTableRecord
  2
AM_DIN
 70
     0
  4
"
 41
3.5
 42
1.0
 43
10.0
 44
1.0
 47
0.1
 48
0.1
 73
     0
 74
     0
 77
     1
 78
     8
 79
     2
140
3.5
141
0.0
143
0.0393701
146
0.71
147
1.5
172
     1
176
   256
177
   256
178
     2
271
     2
272
     3
274
     4
283
     0
284
     8
340
26
371
    -1
372
    -1
1001
ACAD_DSTYLE_DIMJAG
1070
   388
1040
1.5
1001
ACAD_DSTYLE_DIMBREAK
1070
   391
1040
3.75
1001
ACAD_DSTYLE_DIMJOGGED_JOGANGLE_SYMBOL
1070
   384
1040
1.570796326794896
1001
ACAD_DSTYLE_DIM_LINETYPE
1070
   380
1005
29
1001
ACAD_DSTYLE_DIM_EXT1_LINETYPE
1070
   381
1005
29
1001
ACAD_DSTYLE_DIM_EXT2_LINETYPE
1070
   382
1005
29
  0
DIMSTYLE
105
21D
330
33
100
AcDbSymbolTableRecord
100
AcDbDimStyleTableRecord
  2
AM_DIN$3
 70
     0
  4
"
 41
3.5
 42
1.0
 43
10.0
 44
1.0
 47
0.1
 48
0.1
 73
     0
 77
     1
 78
     8
 79
     2
140
3.5
141
0.0
143
0.0393701
146
0.71
147
1.5
176
   256
177
   256
178
     2
271
     2
272
     3
274
     4
283
     0
284
     8
288
     1
289
     0
340
26
371
    -1
372
    -1
1001
ACAD_DSTYLE_DIMBREAK
1070
   391
1040
3.75
1001
ACAD_DSTYLE_DIMJAG
1070
   388
1040
1.5
1001
ACAD_DSTYLE_DIMJOGGED_JOGANGLE_SYMBOL
1070
   384
1040
1.570796326794896
1001
ACAD_DSTYLE_DIM_LINETYPE
1070
   380
1005
29
1001
ACAD_DSTYLE_DIM_EXT1_LINETYPE
1070
   381
1005
29
1001
ACAD_DSTYLE_DIM_EXT2_LINETYPE
1070
   382
1005
29
  0
DIMSTYLE
105
21E
330
33
100
AcDbSymbolTableRecord
100
AcDbDimStyleTableRecord
  2
AM_DIN$4
 70
     0
  4
"
 41
3.5
 42
1.0
 43
10.0
 44
1.0
 47
0.1
 48
0.1
 73
     0
 74
     0
 77
     1
 78
     8
 79
     2
140
3.5
141
0.0
143
0.0393701
146
0.71
147
1.5
172
     1
176
   256
177
   256
178
     2
271
     2
272
     3
274
     4
283
     0
284
     8
340
26
371
    -1
372
    -1
1001
ACAD_DSTYLE_DIMBREAK
1070
   391
1040
3.75
1001
ACAD_DSTYLE_DIMJAG
1070
   388
1040
1.5
1001
ACAD_DSTYLE_DIMJOGGED_JOGANGLE_SYMBOL
1070
   384
1040
1.570796326794896
1001
ACAD_DSTYLE_DIM_LINETYPE
1070
   380
1005
29
1001
ACAD_DSTYLE_DIM_EXT1_LINETYPE
1070
   381
1005
29
1001
ACAD_DSTYLE_DIM_EXT2_LINETYPE
1070
   382
1005
29
  0
DIMSTYLE
105
21F
330
33
100
AcDbSymbolTableRecord
100
AcDbDimStyleTableRecord
  2
AM_DIN$6
 70
     0
  4
"
 41
3.5
 42
1.0
 43
10.0
 44
1.0
 47
0.1
 48
0.1
 73
     0
 74
     0
 78
     8
 79
     2
140
3.5
141
0.0
143
0.0393701
146
0.71
147
1.5
172
     1
176
   256
177
   256
178
     2
271
     2
272
     3
274
     4
283
     0
284
     8
340
26
371
    -1
372
    -1
1001
ACAD_DSTYLE_DIMBREAK
1070
   391
1040
3.75
1001
ACAD_DSTYLE_DIMJAG
1070
   388
1040
1.5
1001
ACAD_DSTYLE_DIMJOGGED_JOGANGLE_SYMBOL
1070
   384
1040
1.570796326794896
1001
ACAD_DSTYLE_DIM_LINETYPE
1070
   380
1005
29
1001
ACAD_DSTYLE_DIM_EXT1_LINETYPE
1070
   381
1005
29
1001
ACAD_DSTYLE_DIM_EXT2_LINETYPE
1070
   382
1005
29
  0
DIMSTYLE
105
220
330
33
100
AcDbSymbolTableRecord
100
AcDbDimStyleTableRecord
  2
AM_DIN$7
 70
     0
  4
"
 41
3.5
 42
1.0
 43
10.0
 44
1.0
 47
0.1
 48
0.1
 73
     0
 74
     0
 77
     1
 78
     8
 79
     2
140
3.5
141
0.0
143
0.0393701
146
0.71
147
1.5
172
     1
176
   256
177
   256
178
     2
271
     2
272
     3
274
     4
283
     0
284
     8
340
26
371
    -1
372
    -1
1001
ACAD_DSTYLE_DIMBREAK
1070
   391
1040
3.75
1001
ACAD_DSTYLE_DIMJAG
1070
   388
1040
1.5
1001
ACAD_DSTYLE_DIMJOGGED_JOGANGLE_SYMBOL
1070
   384
1040
1.570796326794896
1001
ACAD_DSTYLE_DIM_LINETYPE
1070
   380
1005
29
1001
ACAD_DSTYLE_DIM_EXT1_LINETYPE
1070
   381
1005
29
1001
ACAD_DSTYLE_DIM_EXT2_LINETYPE
1070
   382
1005
29
  0
DIMSTYLE
105
221
330
33
100
AcDbSymbolTableRecord
100
AcDbDimStyleTableRecord
  2
AM_DIN$SF
 70
     0
  4
"
 41
3.5
 42
1.0
 43
10.0
 44
1.0
 47
0.1
 48
0.1
 73
     0
 74
     0
 75
     1
 76
     1
 77
     1
 78
     8
 79
     2
140
3.5
141
0.0
143
0.0393701
146
0.71
147
1.5
172
     1
176
   256
177
   256
178
     2
271
     2
272
     3
274
     4
283
     0
284
     8
340
26
371
    -1
372
    -1
1001
ACAD_DSTYLE_DIMBREAK
1070
   391
1040
3.75
1001
ACAD_DSTYLE_DIMJAG
1070
   388
1040
1.5
1001
ACAD_DSTYLE_DIMJOGGED_JOGANGLE_SYMBOL
1070
   384
1040
1.570796326794896
1001
ACAD_DSTYLE_DIM_LINETYPE
1070
   380
1005
29
1001
ACAD_DSTYLE_DIM_EXT1_LINETYPE
1070
   381
1005
29
1001
ACAD_DSTYLE_DIM_EXT2_LINETYPE
1070
   382
1005
29
  0
DIMSTYLE
105
222
330
33
100
AcDbSymbolTableRecord
100
AcDbDimStyleTableRecord
  2
AM_DIN$SH
 70
     0
  4
"
 41
3.5
 42
1.0
 43
10.0
 44
1.0
 47
0.1
 48
0.1
 73
     0
 74
     0
 75
     1
 76
     1
 77
     1
 78
     8
 79
     2
140
3.5
141
0.0
143
0.0393701
144
2.0
146
0.71
147
1.5
172
     1
173
     1
176
   256
177
   256
178
     2
271
     2
272
     3
274
     4
283
     0
284
     8
340
26
343
223
371
    -1
372
    -1
1001
ACAD_DSTYLE_DIMBREAK
1070
   391
1040
3.75
1001
ACAD_DSTYLE_DIMJAG
1070
   388
1040
1.5
1001
ACAD_DSTYLE_DIMJOGGED_JOGANGLE_SYMBOL
1070
   384
1040
1.570796326794896
1001
ACAD_DSTYLE_DIM_LINETYPE
1070
   380
1005
29
1001
ACAD_DSTYLE_DIM_EXT1_LINETYPE
1070
   381
1005
29
1001
ACAD_DSTYLE_DIM_EXT2_LINETYPE
1070
   382
1005
29
  0
DIMSTYLE
105
9A
102
{ACAD_REACTORS
330
B6
330
C5
330
D4
330
E1
330
8A
330
9C
330
A9
330
175
330
15B
330
168
330
182
330
18F
330
19C
330
1A9
330
1B6
102
}
330
33
100
AcDbSymbolTableRecord
100
AcDbDimStyleTableRecord
  2
AM_DIN$0
 70
     0
  4
"
 41
3.5
 42
1.0
 43
10.0
 44
1.0
 47
0.1
 48
0.1
 73
     0
 74
     0
 77
     1
 78
     8
 79
     2
140
3.5
141
0.0
143
0.0393701
146
0.71
147
1.5
172
     1
176
   256
177
   256
178
     2
271
     2
272
     3
274
     4
283
     0
284
     8
340
26
371
    -1
372
    -1
1001
ACAD_DSTYLE_DIMBREAK
1070
   391
1040
3.75
1001
ACAD_DSTYLE_DIMJAG
1070
   388
1040
1.5
1001
ACAD_DSTYLE_DIMJOGGED_JOGANGLE_SYMBOL
1070
   384
1040
1.570796326794896
1001
ACAD_DSTYLE_DIM_LINETYPE
1070
   380
1005
29
1001
ACAD_DSTYLE_DIM_EXT1_LINETYPE
1070
   381
1005
29
1001
ACAD_DSTYLE_DIM_EXT2_LINETYPE
1070
   382
1005
29
  0
DIMSTYLE
105
21C
330
33
100
AcDbSymbolTableRecord
100
AcDbDimStyleTableRecord
  2
AM_DIN$2
 70
     0
  4
"
 41
3.5
 42
1.0
 43
10.0
 44
1.0
 47
0.1
 48
0.1
 73
     0
 74
     0
 77
     1
 78
     8
 79
     2
140
3.5
141
0.0
143
0.0393701
146
0.71
147
1.5
172
     1
176
   256
177
   256
178
     2
271
     2
272
     3
274
     4
283
     0
284
     8
340
26
371
    -1
372
    -1
1001
ACAD_DSTYLE_DIMBREAK
1070
   391
1040
3.75
1001
ACAD_DSTYLE_DIMJAG
1070
   388
1040
1.5
1001
ACAD_DSTYLE_DIMJOGGED_JOGANGLE_SYMBOL
1070
   384
1040
1.570796326794896
1001
ACAD_DSTYLE_DIM_LINETYPE
1070
   380
1005
29
1001
ACAD_DSTYLE_DIM_EXT1_LINETYPE
1070
   381
1005
29
1001
ACAD_DSTYLE_DIM_EXT2_LINETYPE
1070
   382
1005
29
  0
ENDTAB
  0
TABLE
  2
BLOCK_RECORD
  5
1
330
0
100
AcDbSymbolTable
 70
    19
  0
BLOCK_RECORD
  5
2
102
{ACAD_XDICTIONARY
360
3
102
}
330
1
100
AcDbSymbolTableRecord
100
AcDbBlockTableRecord
  2
*Model_Space
340
17
  0
BLOCK_RECORD
  5
1B
102
{ACAD_XDICTIONARY
360
1C
102
}
330
1
100
AcDbSymbolTableRecord
100
AcDbBlockTableRecord
  2
*Paper_Space
340
20
  0
BLOCK_RECORD
  5
223
330
1
100
AcDbSymbolTableRecord
100
AcDbBlockTableRecord
  2
GENAXEH
340
0
  0
BLOCK_RECORD
  5
206
330
1
100
AcDbSymbolTableRecord
100
AcDbBlockTableRecord
  2
_ACMFILLED30
340
0
  0
BLOCK_RECORD
  5
7C
330
1
100
AcDbSymbolTableRecord
100
AcDbBlockTableRecord
  2
BHL-0-T1(S)
340
0
310
28000000200000002000000001002000000000000010000001000000010000000000000000000000000000FF000000FF000000FF000000FF000000FF000000FF000000FF000000FF000000FF000000FF000000FF000000FF000000FF000000FF000000FF000000FF000000FF000000FF000000FF000000FF000000FF000000
310
FF000000FF000000FF000000FF000000FF000000FF000000FF000000FF000000FF000000FF000000FF000000FF000000FF000000FF000000FF000000FF000000FF000000FF000000FF000000FF000000FF000000FF000000FF000000FF000000FF000000FF000000FF000000FF000000FF000000FF000000FF000000FF0000
310
00FF000000FF000000FF000000FF000000FF000000FF000000FF000000FF000000FF000000FF000000FF000000FF000000FF000000FF000000FF000000FF000000FF000000FF000000FF000000FF000000FF000000FF000000FF000000FF000000FF000000FF000000FF000000FF000000FF000000FF000000FF000000FF00
310
0000FF000000FF000000FF000000FF000000FF000000FF000000FF000000FF000000FF000000FF000000FF000000FF000000FF000000FF000000FF000000FF000000FF000000FF000000FF000000FF000000FF000000FF000000FF000000FF000000FF000000FF000000FF000000FF000000FF000000FF000000FF000000FF
310
000000FF000000FF000000FF000000FF000000FF000000FF000000FF000000FF000000FF000000FF000000FF000000FF000000FF000000FF000000FF000000FF000000FF000000FF000000FF000000FF000000FF000000FF000000FF000000FF000000FF000000FF000000FF000000FF000000FF00FF00FF000000FF000000
310
FF000000FF000000FF000000FF000000FF000000FF000000FF000000FF000000FF000000FF000000FF000000FF000000FFFFFF00FFFF0000FFFFFF00FFFFFF00FFFFFF00FFFFFF00FFFFFF00FFFFFF00FFFFFF00FFFFFF00FFFFFF00FFFFFF00FFFFFF00FFFFFF00FFFFFF00FFFFFF00FFFFFF00FF00FF00FFFFFF00FFFFFF
310
00FFFFFF00FFFFFF00FFFFFF00FFFFFF00FFFFFF00FFFFFF00FFFFFF00FFFFFF00FFFFFF00FFFFFF00FF000000FF000000FFFFFF00FFFFFF00FFFFFF00FFFFFF00FFFFFF00FF000000FFFFFF00FF000000FFFFFF00FFFFFF00FFFFFF00FFFFFF00FFFFFF00FFFFFF00FFFFFF00FFFFFF00FF000000FF00FF00FF000000FFFF
310
FF00FFFFFF00FF000000FFFFFF00FFFFFF00FF000000FFFFFF00FF000000FFFFFF00FFFFFF00FFFFFF00FF000000FF000000FFFFFF00FFFFFF00FFFFFF00FFFFFF00FFFFFF00FFFFFF00FFFFFF00FFFFFF00FFFFFF00FFFFFF00FFFFFF00FFFFFF00FFFFFF00FFFFFF00FFFFFF00FFFFFF00FFFFFF00FF00FF00FFFFFF00FF
310
FFFF00FFFFFF00FFFFFF00FFFFFF00FFFFFF00FFFFFF00FFFFFF00FFFFFF00FFFFFF00FFFFFF00FFFFFF00FF000000FF000000FFFFFF00FFFFFF00FFFFFF00FFFFFF00FF000000FF000000FF000000FF000000FF000000FFFFFF00FFFFFF00FFFFFF00FFFFFF00FF000000FF000000FF000000FF000000FF000000FF000000
310
FF000000FF000000FF000000FF000000FF000000FF000000FF000000FF000000FF000000FF000000FF000000FF000000FF000000FFFFFF00FFFFFF00FFFFFF00FFFFFF00FF000000FF000000FF000000FF000000FF000000FFFFFF00FFFFFF00FFFFFF00FFFFFF00FF000000FF000000FF000000FF000000FF000000FF0000
310
00FF000000FF000000FF000000FF000000FF000000FF000000FF000000FF000000FF000000FF000000FF000000FF000000FF000000FFFFFF00FFFFFF00FFFFFF00FFFFFF00FF000000FF000000FF000000FF000000FF000000FFFFFF00FF000000FFFFFF00FFFFFF00FF000000FF000000FF000000FF000000FF000000FF00
310
0000FF000000FF000000FF000000FF000000FF000000FF000000FF000000FF000000FF000000FF000000FF000000FF000000FF000000FFFFFF00FFFFFF00FF000000FFFFFF00FF000000FF000000FF000000FF000000FF000000FF000000FFFFFF00FFFFFF00FFFFFF00FF000000FF000000FF000000FF000000FF000000FF
310
000000FF000000FF000000FF000000FF000000FF000000FF000000FF000000FF000000FF000000FF000000FF000000FF000000FF000000FFFFFF00FFFFFF00FFFFFF00FF000000FF000000FF000000FF000000FF000000FF000000FF000000FFFFFF00FFFFFF00FFFFFF00FF000000FF000000FF000000FF000000FF000000
310
FF000000FF000000FF000000FF000000FF000000FF000000FF000000FF000000FF000000FF000000FF000000FF000000FF000000FF000000FFFFFF00FFFFFF00FFFFFF00FF000000FF000000FF000000FF000000FF000000FF000000FF000000FFFFFF00FF000000FFFFFF00FF000000FF000000FF000000FF000000FF0000
310
00FF000000FF000000FF000000FF000000FF000000FF000000FF000000FF000000FF000000FF000000FF000000FF000000FF000000FF000000FFFFFF00FF000000FFFFFF00FF000000FF000000FF000000FF000000FF000000FF000000FF000000FFFFFF00FFFFFF00FFFFFF00FF000000FF000000FF000000FF000000FF00
310
0000FF000000FF000000FF000000FF000000FF000000FF000000FF000000FF000000FF000000FF000000FF000000FF000000FF000000FF000000FFFFFF00FFFFFF00FFFFFF00FF000000FF000000FF000000FF000000FF000000FF000000FF000000FF000000FFFFFF00FFFFFF00FF000000FF000000FF000000FF000000FF
310
000000FF000000FF000000FF000000FF000000FF000000FF000000FF000000FF000000FF000000FF000000FF000000FF000000FF000000FF000000FFFFFF00FF000000FFFFFF00FF000000FF000000FF000000FF000000FF000000FF000000FF000000FF000000FFFFFF00FFFFFF00FF000000FF000000FF000000FF000000
310
FF000000FF000000FF000000FF000000FF000000FF000000FF000000FF000000FF000000FF000000FF000000FF000000FF000000FF000000FF000000FFFFFF00FFFFFF00FF000000FF000000FF000000FF000000FF000000FF000000FF000000FF000000FF000000FFFFFF00FFFFFF00FF000000FF000000FF000000FF0000
310
00FF000000FF000000FF000000FF000000FF000000FF000000FF000000FF000000FF000000FF000000FF000000FF000000FF000000FF000000FF000000FFFFFF00FFFFFF00FFFFFF00FFFFFF00FF000000FF000000FF000000FF000000FF000000FF000000FF000000FFFFFF00FFFFFF00FF000000FF000000FF000000FF00
310
0000FF000000FF000000FF000000FF000000FF000000FF000000FF000000FF000000FF000000FF000000FF000000FF000000FF000000FF000000FF000000FFFFFF00FFFFFF00FFFFFF00FFFFFF00FF000000FF000000FF000000FF000000FF000000FF000000FFFFFF00FFFFFF00FFFFFF00FF000000FF000000FF000000FF
310
000000FF000000FF000000FF000000FF000000FF000000FF000000FF000000FF000000FF000000FF000000FF000000FF000000FF000000FF000000FF000000FFFFFF00FF000000FFFFFF00FFFFFF00FF000000FF000000FF000000FF000000FF000000FF000000FFFFFF00FFFFFF00FFFFFF00FF000000FF000000FF000000
310
FF000000FF000000FF000000FF000000FF000000FF000000FF000000FF000000FF000000FF000000FF000000FF000000FF000000FF000000FF000000FF000000FFFFFF00FF000000FFFFFF00FF000000FF000000FF000000FF000000FF000000FF000000FF000000FF000000FFFFFF00FFFFFF00FF000000FF000000FF0000
310
00FF000000FF000000FF000000FF000000FF000000FF000000FF000000FF000000FF000000FF000000FF000000FF000000FF000000FF000000FF000000FF000000FFFFFF00FFFFFF00FFFFFF00FF000000FF000000FF000000FF000000FF000000FF000000FF000000FF000000FFFFFF00FFFFFF00FF000000FF000000FF00
310
0000FF000000FF000000FF000000FF000000FF000000FF000000FF000000FF000000FF000000FF000000FF000000FF000000FF000000FF000000FF000000FF000000FFFFFF00FFFFFF00FF000000FF000000FF000000FF000000FF000000FF000000FF000000FF000000FF000000FF000000FFFFFF00FF000000FF000000FF
310
000000FF000000FF000000FF000000FF000000FF000000FF000000FF000000FF000000FF000000FF000000FF000000FF000000FF000000FF000000FF000000FF000000FFFFFF00FFFFFF00FF000000FF000000FF000000FF000000FF000000FF000000FF000000FF000000FF000000FFFFFF00FFFFFF00FF000000FF000000
310
FF000000FF000000FF000000FF000000FF000000FF000000FF000000FF000000FF000000FF000000FF000000FF000000FF000000FF000000FF000000FF000000FF000000FFFFFF00FFFFFF00FF000000FF000000FF000000FF000000FF000000FF000000FF000000FF000000FF000000FF000000FFFFFF00FF000000FF0000
310
00FF000000FF000000FF000000FF000000FF000000FF000000FF000000FF000000FF000000FF000000FF000000FF000000FF000000FF000000FF000000FF000000FF000000FFFFFF00FFFFFF00FF000000FF000000FF000000FF000000FF000000FF000000FF000000FF000000FF000000FFFFFF00FFFFFF00FF000000FF00
310
0000FF000000FF000000FF000000FF000000FF000000FF000000FF000000FF000000FF000000FF000000FF000000FF000000FF000000FF000000FF000000FF000000FF000000FFFFFF00FFFFFF00FF000000FF000000FF000000FF000000FF000000FF000000FF000000FF000000FF000000FFFFFF00FFFFFF00FF000000FF
310
000000FF000000FF000000FF000000FF000000FF000000FF000000FF000000FF000000FF000000FF000000FF000000FF000000FF000000FF000000FF000000FF000000FF000000FF000000FF000000FF000000FF000000FF000000FF000000FF000000FF000000FF000000FF000000FF000000FF000000FF000000FF000000
310
FF000000FF000000FF000000FF000000FF000000FF000000FF000000FF000000FF000000FF000000FF000000FF000000FF000000FF000000FF000000FF000000FF000000FF000000FF000000FF000000FF000000FF000000FF000000FF000000FF000000FF000000FF000000FF000000FF000000FF000000FF000000FF0000
310
00FF000000FF000000FF000000FF000000FF000000FF000000FF000000FF000000FF000000FF000000FF000000FF000000FF000000FF000000FF000000FF000000FF000000FF000000FF000000FF000000FF000000FF000000FF000000FF000000FF000000FF000000FF000000FF000000FF000000FF000000FF000000FF00
310
0000FF000000FF000000FF000000FF000000FF000000FF000000FF000000FF000000FF000000FF000000FF000000FF000000FF000000FF000000FF000000FF000000FF000000FF000000FF000000FF000000FF000000FF000000FF000000FF000000FF000000FF000000FF000000FF000000FF000000FF000000FF000000FF
310
000000FF000000FF000000FF000000FF000000FF000000FF000000FF000000FF000000FF000000FF000000FF000000FF000000FF000000FF000000FF000000FF000000FF000000FF
102
{BLKREFS
331
7B
102
}
1001
ACAD
1000
DesignCenter Data
1002
{
1070
     1
1070
     4
1002
}
  0
BLOCK_RECORD
  5
B7
330
1
100
AcDbSymbolTableRecord
100
AcDbBlockTableRecord
  2
*D3
340
0
  0
BLOCK_RECORD
  5
C6
330
1
100
AcDbSymbolTableRecord
100
AcDbBlockTableRecord
  2
*D4
340
0
  0
BLOCK_RECORD
  5
D5
330
1
100
AcDbSymbolTableRecord
100
AcDbBlockTableRecord
  2
*D5
340
0
  0
BLOCK_RECORD
  5
E2
330
1
100
AcDbSymbolTableRecord
100
AcDbBlockTableRecord
  2
*D6
340
0
  0
BLOCK_RECORD
  5
8D
330
1
100
AcDbSymbolTableRecord
100
AcDbBlockTableRecord
  2
*D7
340
0
  0
BLOCK_RECORD
  5
9D
330
1
100
AcDbSymbolTableRecord
100
AcDbBlockTableRecord
  2
*D8
340
0
  0
BLOCK_RECORD
  5
AA
330
1
100
AcDbSymbolTableRecord
100
AcDbBlockTableRecord
  2
*D9
340
0
  0
BLOCK_RECORD
  5
15C
330
1
100
AcDbSymbolTableRecord
100
AcDbBlockTableRecord
  2
*D10
340
0
  0
BLOCK_RECORD
  5
169
330
1
100
AcDbSymbolTableRecord
100
AcDbBlockTableRecord
  2
*D11
340
0
  0
BLOCK_RECORD
  5
176
330
1
100
AcDbSymbolTableRecord
100
AcDbBlockTableRecord
  2
*D12
340
0
  0
BLOCK_RECORD
  5
183
330
1
100
AcDbSymbolTableRecord
100
AcDbBlockTableRecord
  2
*D13
340
0
  0
BLOCK_RECORD
  5
190
330
1
100
AcDbSymbolTableRecord
100
AcDbBlockTableRecord
  2
*D14
340
0
  0
BLOCK_RECORD
  5
19D
330
1
100
AcDbSymbolTableRecord
100
AcDbBlockTableRecord
  2
*D15
340
0
  0
BLOCK_RECORD
  5
1AA
330
1
100
AcDbSymbolTableRecord
100
AcDbBlockTableRecord
  2
*D16
340
0
  0
BLOCK_RECORD
  5
1B7
330
1
100
AcDbSymbolTableRecord
100
AcDbBlockTableRecord
  2
*D17
340
0
  0
BLOCK_RECORD
  5
1C4
330
1
100
AcDbSymbolTableRecord
100
AcDbBlockTableRecord
  2
Copyright_STEMPEL
340
0
310
28000000200000002000000001002000000000000010000001000000010000000000000000000000000000FF000000FF000000FF000000FF000000FF000000FF000000FF000000FF000000FF000000FF000000FF000000FF000000FF000000FF000000FF000000FF000000FF000000FF000000FF000000FF000000FF000000
310
FF000000FF000000FF000000FF000000FF000000FF000000FF000000FF000000FF000000FF000000FF000000FF000000FF000000FF000000FF000000FF000000FF000000FF000000FF000000FF000000FF000000FF000000FF000000FF000000FF000000FF000000FF000000FF000000FF000000FF000000FF000000FF0000
310
00FF000000FF000000FF000000FF000000FF000000FF000000FF000000FF000000FF000000FF000000FF000000FF000000FF000000FF000000FF000000FF000000FF000000FF000000FF000000FF000000FF000000FF000000FF000000FF000000FF000000FF000000FF000000FF000000FF000000FF000000FF000000FF00
310
0000FF000000FF000000FF000000FF000000FF000000FF000000FF000000FF000000FF000000FF000000FF000000FF000000FF000000FF000000FF000000FF000000FF000000FF000000FF000000FF000000FF000000FF000000FF000000FF000000FF000000FF000000FF000000FF000000FF000000FF000000FF000000FF
310
000000FF000000FF000000FF000000FF000000FF000000FF000000FF000000FF000000FF000000FF000000FF000000FF000000FF000000FF000000FF000000FF000000FF000000FF000000FF000000FF000000FF000000FF000000FF000000FF000000FF000000FF000000FF000000FF000000FF000000FF000000FF000000
310
FF000000FF000000FF000000FF000000FF000000FF000000FF000000FF000000FF000000FF000000FF000000FF000000FF000000FF000000FF000000FF000000FF000000FF000000FF000000FF000000FF000000FF000000FF000000FF000000FF000000FF000000FF000000FF000000FF000000FF000000FF000000FF0000
310
00FF000000FF000000FF000000FF000000FF000000FF000000FF000000FF000000FF000000FF000000FF000000FF000000FF000000FF000000FF000000FF000000FF000000FF000000FF000000FF000000FF000000FF000000FF000000FF000000FF000000FF000000FF000000FF000000FF000000FF000000FF000000FF00
310
0000FF000000FF000000FF000000FF000000FF000000FF000000FF000000FF000000FF000000FF000000FF000000FF000000FF000000FF000000FF000000FF000000FF000000FF000000FF000000FF000000FF000000FF000000FF000000FF000000FF000000FF000000FF000000FF000000FF000000FF000000FF000000FF
310
000000FF000000FF000000FF000000FF000000FF000000FF000000FF000000FF000000FF000000FF000000FF000000FF000000FF000000FF000000FF000000FF000000FF000000FF000000FF000000FF000000FF000000FF000000FF000000FF000000FF000000FF000000FF000000FF000000FF000000FF000000FF000000
310
FF000000FF000000FF000000FF000000FF000000FF000000FF000000FF000000FF000000FF000000FF000000FF000000FF000000FF000000FF000000FF000000FF000000FF000000FF000000FF000000FF000000FF000000FF000000FF000000FF000000FF000000FF000000FF000000FF000000FF000000FF000000FF0000
310
00FF000000FF000000FF000000FF000000FF000000FF000000FF000000FF000000FF000000FF000000FF000000FF000000FF000000FF000000FF000000FF000000FF000000FF000000FF000000FF000000FF000000FF000000FF000000FF000000FF000000FF000000FF000000FF000000FF000000FF000000FF000000FF00
310
0000FF000000FF000000FF000000FF000000FF000000FF000000FF000000FF000000FF000000FF000000FF000000FF000000FF000000FF000000FF000000FF000000FF000000FF000000FF000000FF000000FF000000FF000000FF000000FF000000FF000000FF000000FF000000FF000000FF000000FF000000FF000000FF
310
000000FF000000FF000000FF000000FF000000FF000000FF000000FF000000FF000000FF000000FF000000FF000000FF000000FF000000FFFF0000FFFF0000FFFF0000FFFF0000FFFF0000FFFF0000FFFF0000FFFF0000FFFF0000FFFF0000FFFF0000FFFF0000FFFF0000FFFF0000FFFF0000FFFF0000FFFF0000FFFF0000
310
FFFF0000FFFF0000FFFF0000FFFF0000FFFF0000FFFF0000FFFF0000FFFF0000FFFF0000FFFF0000FFFF0000FFFF0000FF000000FF000000FFFF0000FFFF0000FFFF0000FFFF0000FFFF0000FFFF0000FFFF0000FFFF0000FFFF0000FFFF0000FFFF0000FF000000FF000000FFFF0000FFFF0000FFFF0000FFFF0000FFFF00
310
00FFFF0000FFFF0000FF000000FF000000FFFF0000FFFF0000FFFF0000FF000000FF000000FFFF0000FFFF0000FFFF0000FF000000FF000000FFFF0000FFFF0000FFFF0000FFFF0000FFFF0000FFFF0000FFFF0000FFFF0000FFFF0000FFFF0000FF000000FF000000FF000000FFFF0000FFFF0000FFFF0000FFFF0000FFFF
310
0000FFFF0000FFFF0000FF000000FF000000FFFF0000FFFF0000FF000000FFFF0000FF000000FF000000FFFF0000FFFF0000FF000000FF000000FFFF0000FFFF0000FFFF0000FFFF0000FFFF0000FFFF0000FFFF0000FFFF0000FFFF0000FFFF0000FFFF0000FF000000FF000000FFFF0000FFFF0000FFFF0000FFFF0000FF
310
FF0000FFFF0000FFFF0000FF000000FF000000FFFF0000FFFF0000FFFF0000FF000000FFFF0000FFFF0000FFFF0000FFFF0000FF000000FF000000FFFF0000FFFF0000FFFF0000FFFF0000FFFF0000FFFF0000FFFF0000FFFF0000FFFF0000FFFF0000FFFF0000FFFF0000FF000000FFFF0000FFFF0000FFFF0000FFFF0000
310
FFFF0000FFFF0000FFFF0000FF000000FF000000FFFF0000FF000000FF000000FF000000FFFF0000FFFF0000FFFF0000FFFF0000FF000000FF000000FFFF0000FFFF0000FFFF0000FFFF0000FFFF0000FFFF0000FFFF0000FFFF0000FFFF0000FFFF0000FFFF0000FFFF0000FF000000FFFF0000FFFF0000FFFF0000FFFF00
310
00FFFF0000FFFF0000FFFF0000FFFF0000FFFF0000FFFF0000FFFF0000FF000000FFFF0000FFFF0000FF000000FFFF0000FFFF0000FF000000FF000000FFFF0000FFFF0000FFFF0000FFFF0000FFFF0000FFFF0000FFFF0000FFFF0000FFFF0000FFFF0000FFFF0000FF000000FF000000FFFF0000FF000000FFE1E1E1FF00
310
0000FF010101FFD7B950FFFDFDFFFFD8BA4BFFFF0000FFFF0000FFFF0000FFFF0000FF000000FF000000FFFF0000FFFF0000FFFF0000FF000000FF000000FFFF0000FFFF0000FFFF0000FFFF0000FFFF0000FFFF0000FFFF0000FFFF0000FFFF0000FFFF0000FFFF0000FFFF0000FFFF0000FFFF0000FFFF0000FFFF0000FF
310
FF0000FFFF0000FFFF0000FFFF0000FFFF0000FFFF0000FFFF0000FFFF0000FFFF0000FFFF0000FFFF0000FFFF0000FFFF0000FFFF0000FF000000FF000000FF000000FF000000FF000000FF000000FF000000FF000000FF000000FF000000FF000000FF000000FF000000FF000000FF000000FF000000FF000000FF000000
310
FF000000FF000000FF000000FF000000FF000000FF000000FF000000FF000000FF000000FF000000FF000000FF000000FF000000FF000000FF000000FF000000FF000000FF000000FF000000FF000000FF000000FF000000FF000000FF000000FF000000FF000000FF000000FF000000FF000000FF000000FF000000FF0000
310
00FF000000FF000000FF000000FF000000FF000000FF000000FF000000FF000000FF000000FF000000FF000000FF000000FF000000FF000000FF000000FF000000FF000000FF000000FF000000FF000000FF000000FF000000FF000000FF000000FF000000FF000000FF000000FF000000FF000000FF000000FF000000FF00
310
0000FF000000FF000000FF000000FF000000FF000000FF000000FF000000FF000000FF000000FF000000FF000000FF000000FF000000FF000000FF000000FF000000FF000000FF000000FF000000FF000000FF000000FF000000FF000000FF000000FF000000FF000000FF000000FF000000FF000000FF000000FF000000FF
310
000000FF000000FF000000FF000000FF000000FF000000FF000000FF000000FF000000FF000000FF000000FF000000FF000000FF000000FF000000FF000000FF000000FF000000FF000000FF000000FF000000FF000000FF000000FF000000FF000000FF000000FF000000FF000000FF000000FF000000FF000000FF000000
310
FF000000FF000000FF000000FF000000FF000000FF000000FF000000FF000000FF000000FF000000FF000000FF000000FF000000FF000000FF000000FF000000FF000000FF000000FF000000FF000000FF000000FF000000FF000000FF000000FF000000FF000000FF000000FF000000FF000000FF000000FF000000FF0000
310
00FF000000FF000000FF000000FF000000FF000000FF000000FF000000FF000000FF000000FF000000FF000000FF000000FF000000FF000000FF000000FF000000FF000000FF000000FF000000FF000000FF000000FF000000FF000000FF000000FF000000FF000000FF000000FF000000FF000000FF000000FF000000FF00
310
0000FF000000FF000000FF000000FF000000FF000000FF000000FF000000FF000000FF000000FF000000FF000000FF000000FF000000FF000000FF000000FF000000FF000000FF000000FF000000FF000000FF000000FF000000FF000000FF000000FF000000FF000000FF000000FF000000FF000000FF000000FF000000FF
310
000000FF000000FF000000FF000000FF000000FF000000FF000000FF000000FF000000FF000000FF000000FF000000FF000000FF000000FF000000FF000000FF000000FF000000FF000000FF000000FF000000FF000000FF000000FF000000FF000000FF000000FF000000FF000000FF000000FF000000FF000000FF000000
310
FF000000FF000000FF000000FF000000FF000000FF000000FF000000FF000000FF000000FF000000FF000000FF000000FF000000FF000000FF000000FF000000FF000000FF000000FF000000FF000000FF000000FF000000FF000000FF000000FF000000FF000000FF000000FF000000FF000000FF000000FF000000FF0000
310
00FF000000FF000000FF000000FF000000FF000000FF000000FF000000FF000000FF000000FF000000FF000000FF000000FF000000FF000000FF000000FF000000FF000000FF000000FF000000FF000000FF000000FF000000FF000000FF000000FF000000FF000000FF000000FF000000FF000000FF000000FF000000FF00
310
0000FF000000FF000000FF000000FF000000FF000000FF000000FF000000FF000000FF000000FF000000FF000000FF000000FF000000FF000000FF000000FF000000FF000000FF000000FF000000FF000000FF000000FF000000FF000000FF000000FF000000FF000000FF000000FF000000FF000000FF000000FF000000FF
310
000000FF000000FF000000FF000000FF000000FF000000FF000000FF000000FF000000FF000000FF000000FF000000FF000000FF000000FF000000FF000000FF000000FF000000FF
102
{BLKREFS
331
1C3
102
}
1001
ACAD
1000
DesignCenter Data
1002
{
1070
     1
1070
     4
1002
}
  0
ENDTAB
  0
ENDSEC
  0
SECTION
  2
BLOCKS
  0
BLOCK
  5
6
330
2
100
AcDbEntity
  8
0
100
AcDbBlockBegin
  2
*Model_Space
 70
     0
 10
0.0
 20
0.0
 30
0.0
  3
*Model_Space
  1

  0
ENDBLK
  5
16
330
2
100
AcDbEntity
  8
0
100
AcDbBlockEnd
  0
BLOCK
  5
1E
330
1B
100
AcDbEntity
 67
     1
  8
0
100
AcDbBlockBegin
  2
*Paper_Space
 70
     0
 10
0.0
 20
0.0
 30
0.0
  3
*Paper_Space
  1

  0
ENDBLK
  5
1F
330
1B
100
AcDbEntity
 67
     1
  8
0
100
AcDbBlockEnd
  0
BLOCK
  5
224
330
223
100
AcDbEntity
  8
0
100
AcDbBlockBegin
  2
GENAXEH
 70
     0
 10
0.0
 20
0.0
 30
0.0
  3
GENAXEH
  1

  0
LINE
  5
225
330
223
100
AcDbEntity
  8
0
100
AcDbLine
 10
-1.0
 20
0.0
 30
0.0
 11
1.0
 21
0.0
 31
0.0
  0
ENDBLK
  5
226
330
223
100
AcDbEntity
  8
0
100
AcDbBlockEnd
  0
BLOCK
  5
207
330
206
100
AcDbEntity
  8
0
100
AcDbBlockBegin
  2
_ACMFILLED30
 70
     0
 10
0.0
 20
0.0
 30
0.0
  3
_ACMFILLED30
  1

  0
TRACE
  5
208
330
206
100
AcDbEntity
  8
0
 62
     0
100
AcDbTrace
 10
-1.0
 20
-0.26794919
 30
0.0
 11
-1.0
 21
0.26794919
 31
0.0
 12
0.0
 22
0.0
 32
0.0
 13
0.0
 23
0.0
 33
0.0
  0
ENDBLK
  5
209
330
206
100
AcDbEntity
  8
0
100
AcDbBlockEnd
  0
BLOCK
  5
7D
330
7C
100
AcDbEntity
  8
0
100
AcDbBlockBegin
  2
BHL-0-T1(S)
 70
     0
 10
0.0
 20
0.0
 30
0.0
  3
BHL-0-T1(S)
  1

  0
LWPOLYLINE
  5
7E
330
7C
100
AcDbEntity
  8
-PROFILAUSSENKANTET
100
AcDbPolyline
 90
       30
 70
     1
 43
0.0
 10
-16.46979909286551
 20
0.3878493421289022
 42
0.0011304035936953
 10
-16.48333803407559
 20
0.3827451499651033
 42
0.9999999999999998
 10
-16.05748514453444
 20
-0.7391450306540719
 42
-0.121878524597679
 10
-15.10366286573139
 20
-0.6239172592354408
 42
-0.3442028969462203
 10
-14.92956693156361
 20
-0.7979926352313669
 42
0.2886940532654682
 10
-14.79476175991317
 20
-0.9631483003022367
 42
-0.0420521432990613
 10
-14.52717996857996
 20
-1.078871234071812
 42
0.2886940531609949
 10
-14.31451272263098
 20
-1.063989350235715
 42
-0.3442028969441612
 10
-14.0684369737321
 20
-1.071628505855187
 42
-0.2551015371102868
 10
-13.36267391682668
 20
-2.853034733655022
 42
-0.3442028969505215
 10
-13.53674929296017
 20
-3.027130667963319
 42
0.2886940531313618
 10
-13.70190495811789
 20
-3.161935839430498
 42
-0.0420521433055474
 10
-13.81762789186564
 20
-3.429517630813734
 42
0.2886940530882527
 10
-13.80274600799748
 20
-3.642184876739975
 42
-0.3442028969423892
 10
-13.81038516356784
 20
-3.888260625672046
 42
-0.2551015371593935
 10
-15.59179139145135
 20
-4.594023682917168
 42
-0.3442028969508626
 10
-15.76588732609389
 20
-4.419948306455353
 42
0.2886940528029833
 10
-15.90069249720932
 20
-4.254792641340372
 42
-0.0420521433159672
 10
-16.16827428856982
 20
-4.139069707557155
 42
0.2886940530872917
 10
-16.38094153450083
 20
-4.153951591365512
 42
-0.3442028969138275
 10
-16.62701728339243
 20
-4.146312435796744
 42
-0.1210249855781917
 10
-17.19371854609403
 20
-3.378593303205207
 42
0.9782471007635683
 10
-18.30934081554596
 20
-3.819830982773737
 42
-0.5209508456915306
 10
-19.24275011487248
 20
-5.167071327589837
 10
-21.0927315587744
 20
-5.175143509862209
 42
-0.4142135485596449
 10
-22.0970853798483
 20
-4.179516397023235
 10
-22.18422590037722
 20
15.79133415648402
 42
-0.9148479595283477
 10
-19.20904822858233
 20
16.06955691776738
 10
-17.19310231590884
 20
5.123105815227518
 42
0.0884934661856347
 10
-15.96026906186694
 20
1.834350703382824
 42
-0.4670328546850692
  0
LWPOLYLINE
  5
7F
330
7C
100
AcDbEntity
  8
-PROFILAUSSENKANTET
100
AcDbPolyline
 90
       10
 70
     1
 43
0.0
 10
22.45033374265199
 20
15.98609194860819
 10
22.49025035348655
 20
6.838009463016078
 42
0.2704913634208021
 10
28.1225582122313
 20
-2.715504322023662
 42
-0.7710998742668333
 10
27.54223923294171
 20
-4.962930415332721
 10
20.50366757183088
 20
-4.993642417140108
 42
-0.1306250920707175
 10
19.50953130022367
 20
-4.734054504457617
 10
14.64300047253687
 20
-1.97862746734836
 42
-0.5093553861990943
 10
14.45995512190689
 20
-0.3713001678638648
 42
0.1653367065087253
 10
17.55249762196922
 20
5.274714263569876
 10
19.47284141819159
 20
16.23834091570643
 42
-0.9148479595284555
  0
LWPOLYLINE
  5
80
330
7C
100
AcDbEntity
  8
-PROFILAUSSENKANTET
100
AcDbPolyline
 90
      223
 70
     1
 43
0.0
 10
7.434736038451546
 20
0.0
 10
-7.434736038451774
 20
0.0
 42
-0.3604928781933065
 10
-14.29069016274047
 20
5.726749554095476
 10
-19.8321422487345
 20
35.6839983708287
 42
-0.0315574551628642
 10
-20.96264175197211
 20
45.07400836683473
 10
-21.15798245102087
 20
48.49714158400047
 42
-0.4304942020436328
 10
-18.16718521817506
 20
51.6672167525312
 42
0.1972790162495448
 10
-15.92006210351405
 20
52.59357505745902
 42
1.0
 10
-16.7644841501392
 20
53.44618951145367
 42
-0.1218785246025275
 10
-17.58951528158013
 20
52.95387051673379
 42
-0.344202896946296
 10
-17.81926612746474
 20
53.04233620790092
 42
0.2886940531295216
 10
-18.00948656704077
 20
53.13859113726085
 42
-0.0420521433086244
 10
-18.30100668406771
 20
53.13579254251999
 42
0.2886940531274815
 10
-18.48934413998495
 20
53.03590345522571
 42
-0.3442028969439721
 10
-18.717354256308
 20
52.94304325624262
 42
-0.2551015371608596
 10
-20.08519856330895
 20
54.28487466122124
 42
-0.3442028969508068
 10
-19.99673287212545
 20
54.51462550711403
 42
0.2886940531328656
 10
-19.90047794276279
 20
54.70484594668687
 42
-0.0420521433096625
 10
-19.90327653752024
 20
54.99636606371542
 42
0.2886940531195052
 10
-20.00316562479998
 20
55.18470351962196
 42
-0.3442028969437973
 10
-20.09602582378966
 20
55.41271363596298
 42
-0.2551015371623073
 10
-18.75419441880194
 20
56.7805579429546
 42
-0.3442028969497126
 10
-18.52444357290824
 20
56.69209225177656
 42
0.2886940531283115
 10
-18.3342231333379
 20
56.59583732241799
 42
-0.0420521433100464
 10
-18.04270301630731
 20
56.59863591717112
 42
0.2886940531289807
 10
-17.85436556038985
 20
56.69852500444995
 42
-0.3442028969461302
 10
-17.62635544405952
 20
56.79138520343212
 42
-0.121878524604825
 10
-16.79202470936252
 20
56.31499609190541
 42
0.7364909623134746
 10
-15.54060416149195
 20
57.012078871644
 10
-16.40583114823698
 20
61.15062516995294
 42
0.7032654886887208
 10
-17.33797852594421
 20
61.28002647460471
 10
-17.99581556930275
 20
60.0253577453418
 42
0.1743995905227779
 10
-18.08866524930704
 20
59.35474796541121
 42
-1.029696124503302
 10
-19.66257317698091
 20
59.07080644163852
 10
-23.6288726153648
 20
85.45235677921937
 42
-0.5373193821392193
 10
-23.38118839681147
 20
85.67576451892
 10
-22.38841342425826
 20
85.41993997303142
 42
0.2683570427294486
 10
-22.19552107383583
 20
85.47377334659268
 10
-21.77267740596835
 20
85.90612865033746
 42
0.2350671922370521
 10
-21.49871806531042
 20
86.75400048103211
 10
-21.53871392244468
 20
87.02002999661045
 42
0.3738843493752025
 10
-21.73841089126245
 20
87.19028621761209
 10
-23.70722307388565
 20
87.17138654561678
 42
-0.374769333672633
 10
-23.90701160944218
 20
87.34225675215567
 10
-24.14216427016868
 20
88.94007301169086
 42
-0.4547895061462228
 10
-23.94621555991125
 20
89.16918437440017
 10
-22.09489285160635
 20
89.18695708273753
 42
0.4557262555313239
 10
-21.89903547639324
 20
89.41668243321373
 10
-22.11147893814336
 20
90.82973456585069
 42
0.3711517135485124
 10
-22.30925622600466
 20
91.0
 10
-25.45000000000005
 20
91.0
 42
0.4142135623730943
 10
-25.75
 20
90.70000000000005
 10
-25.75000000000023
 20
-8.700000000000045
 42
0.4142135623730959
 10
-25.45000000000027
 20
-9.0
 10
-13.75000000000023
 20
-9.0
 10
-13.75000000000023
 20
-8.699999999999818
 10
-7.381745639217342
 20
-8.699999999999818
 42
0.1576179774176633
 10
-6.211020203287489
 20
-8.321543082628977
 10
-5.416621803946554
 20
-7.527144683287133
 42
-0.1987413213158011
 10
-4.003616192876734
 20
-6.941620115754176
 10
4.400537748617125
 20
-6.941620115754176
 42
-0.1974159537470308
 10
5.805654873416415
 20
-7.52153830222096
 10
6.668370755820205
 20
-8.38425418462566
 42
0.1433655006596282
 10
7.746928985223121
 20
-8.699999999999818
 10
17.99281053839127
 20
-8.699999999999818
 10
17.99281053839127
 20
-9.0
 10
39.99999999999977
 20
-9.0
 10
39.99999999999977
 20
-8.699999999999818
 10
77.19167096665819
 20
-8.699999999999818
 42
0.1989123673797152
 10
78.60588452903153
 20
-8.114213562373151
 10
79.15655050737746
 20
-7.563547584028128
 42
-0.1989123673796461
 10
80.57076408390798
 20
-6.977761140536131
 10
91.98325680257743
 20
-6.977761140536586
 42
0.5725270229890302
 10
92.50716725676808
 20
-6.085326812883522
 42
-0.1210249855501813
 10
92.25095742811005
 20
-5.166142667492749
 42
-0.34420289694647
 10
92.39640786991708
 20
-4.967507829972873
 42
0.2886940531290177
 10
92.53904270908037
 20
-4.809065002066745
 42
-0.0420521433086341
 10
92.61255014961875
 20
-4.526950722116453
 42
0.2886940531291036
 10
92.56536951879729
 20
-4.319049747769895
 42
-0.3442028969499463
 10
92.53534451330029
 20
-4.074693187085813
 42
-0.255101537163912
 10
94.18809415619739
 20
-3.105194251792454
 42
-0.3442028969439967
 10
94.38672899372591
 20
-3.250644693649519
 42
0.2886940531183804
 10
94.54517182162431
 20
-3.393279532811902
 42
-0.0420521433103533
 10
94.8272861015846
 20
-3.466786973309808
 42
0.2886940531324857
 10
95.03518707591842
 20
-3.419606342528368
 42
-0.3442028969505542
 10
95.27954363660297
 20
-3.389581337028175
 42
-0.2551015371653956
 10
96.24904257187132
 20
-5.042330979930284
 42
-0.3442028969429145
 10
96.10359213003881
 20
-5.24096581744061
 42
0.2886940531280414
 10
95.96095729087734
 20
-5.399408645349922
 42
-0.0420521433095737
 10
95.88744985035715
 20
-5.681522925303397
 42
0.2886940531298969
 10
95.93463048115678
 20
-5.8894238996495
 42
-0.3442028969468228
 10
95.96465548665923
 20
-6.133780460330399
 42
-0.1218785246024392
 10
95.28672314085975
 20
-6.81456096455895
 42
0.486531924112465
 10
95.17347587686321
 20
-7.751922048643791
 10
95.83576738472743
 20
-8.414213556508457
 42
0.198912367379585
 10
97.24998096125979
 20
-9.000000000000227
 10
98.94999999999981
 20
-9.0
 42
0.4142135623730617
 10
99.24999999999977
 20
-8.700000000000045
 10
99.24999999999977
 20
-0.300000000004502
 42
0.4142135623774576
 10
98.94999999999527
 20
-0.0000000000045475
 10
71.25367654374509
 20
-0.0000000004170033
 42
-0.2493280030846645
 10
71.00496527182599
 20
0.1322421287673023
 10
70.50240313787958
 20
0.8773211342609101
 42
0.5317094326634213
 10
70.00498059382312
 20
0.87732113393713
 10
69.50240313958215
 20
0.1322194107647192
 42
-0.2318440568758588
 10
69.27350983401424
 20
0.0006325832887342
 42
-0.2669566149117684
 10
69.00498059552569
 20
0.1322194104409391
 10
68.50240313787958
 20
0.8773211342609101
 42
0.5317094326634213
 10
68.00498059382312
 20
0.87732113393713
 10
67.50240313958215
 20
0.1322194107647192
 42
-0.2318440568758588
 10
67.27350983401425
 20
0.0006325832887342
 42
-0.2669566149117684
 10
67.00498059552569
 20
0.1322194104409391
 10
66.50240313787958
 20
0.8773211342609101
 42
0.5317094326634213
 10
66.00498059382312
 20
0.87732113393713
 10
65.50240313958216
 20
0.1322194107647192
 42
-0.2318440568758588
 10
65.27350983401425
 20
0.0006325832887342
 42
-0.2669566149117684
 10
65.00498059552569
 20
0.1322194104409391
 10
64.50240313787958
 20
0.8773211342609101
 42
0.5317094326634213
 10
64.00498059382312
 20
0.87732113393713
 10
63.50240313958216
 20
0.1322194107647192
 42
-0.2318440568758588
 10
63.27350983401425
 20
0.0006325832887342
 42
-0.2669566149117684
 10
63.0049805955257
 20
0.1322194104409391
 10
62.50240313787958
 20
0.8773211342609101
 42
0.5317094326634213
 10
62.00498059382312
 20
0.87732113393713
 10
61.50240313958216
 20
0.1322194107647192
 42
-0.2318440568758588
 10
61.27350983401425
 20
0.0006325832887342
 42
-0.2669566149117684
 10
61.00498059552569
 20
0.1322194104409391
 10
60.50240313787958
 20
0.8773211342609101
 42
0.5317094326634213
 10
60.00498059382312
 20
0.87732113393713
 10
59.50240313958215
 20
0.1322194107647192
 42
-0.2318440568758588
 10
59.27350983401424
 20
0.0006325832887342
 42
-0.2669566149117684
 10
59.00498059552569
 20
0.1322194104409391
 10
58.50240313787958
 20
0.8773211342609101
 42
0.5317094326634213
 10
58.00498059382312
 20
0.87732113393713
 10
57.50240313958215
 20
0.1322194107647192
 42
-0.2318440568758588
 10
57.27350983401425
 20
0.0006325832887342
 42
-0.2669566149117684
 10
57.00498059552569
 20
0.1322194104409391
 10
56.50240313787958
 20
0.8773211342609101
 42
0.5317094326634213
 10
56.00498059382312
 20
0.87732113393713
 10
55.50240313958216
 20
0.1322194107647192
 42
-0.2318440568758588
 10
55.27350983401425
 20
0.0006325832887342
 42
-0.2669566149117684
 10
55.00498059552569
 20
0.1322194104409391
 10
54.50240313787958
 20
0.8773211342609101
 42
0.5317094326634213
 10
54.00498059382312
 20
0.87732113393713
 10
53.50240313958216
 20
0.1322194107647192
 42
-0.2318440568758588
 10
53.27350983401425
 20
0.0006325832887342
 42
-0.2669566149117684
 10
53.0049805955257
 20
0.1322194104409391
 10
52.50240313787958
 20
0.8773211342609101
 42
0.5317094326634213
 10
52.00498059382312
 20
0.87732113393713
 10
51.50240313958216
 20
0.1322194107647192
 42
-0.2318440568758588
 10
51.27350983401425
 20
0.0006325832887342
 42
-0.2669566149117684
 10
51.00498059552569
 20
0.1322194104409391
 10
50.50240313787958
 20
0.8773211342609101
 42
0.5317094326634213
 10
50.00498059382312
 20
0.87732113393713
 10
49.50240313958215
 20
0.1322194107647192
 42
-0.2318440568758588
 10
49.27350983401424
 20
0.0006325832887342
 42
-0.2669566149117684
 10
49.00498059552569
 20
0.1322194104409391
 10
48.50240313787958
 20
0.8773211342609101
 42
0.5317094326634213
 10
48.00498059382312
 20
0.87732113393713
 10
47.50240313958215
 20
0.1322194107647192
 42
-0.2318440568758588
 10
47.27350983401424
 20
0.0006325832887342
 42
-0.2669566149117684
 10
47.00498059552569
 20
0.1322194104409391
 10
46.50240313787958
 20
0.8773211342609101
 42
0.5317094326634213
 10
46.00498059382312
 20
0.87732113393713
 10
45.50240313958215
 20
0.1322194107647192
 42
-0.2318440568758588
 10
45.27350983401425
 20
0.0006325832887342
 42
-0.2669566149117684
 10
45.00498059552569
 20
0.1322194104409391
 10
44.50240313787958
 20
0.8773211342609101
 42
0.5317094326634213
 10
44.00498059382312
 20
0.87732113393713
 10
43.50240313958216
 20
0.1322194107647192
 42
-0.2318440568758588
 10
43.27350983401425
 20
0.0006325832887342
 42
-0.2669566149117684
 10
43.00498059552569
 20
0.1322194104409391
 10
42.50240313787958
 20
0.8773211342609101
 42
0.5317094326634213
 10
42.00498059382312
 20
0.87732113393713
 10
41.50240313958216
 20
0.1322194107647192
 42
-0.2318440568758588
 10
41.27350983401425
 20
0.0006325832887342
 42
-0.2669566149117684
 10
41.00498059552569
 20
0.1322194104409391
 10
40.50240313787958
 20
0.8773211342609101
 42
0.5317094326585469
 10
40.00498059382311
 20
0.87732113393713
 10
39.50240313958216
 20
0.1322194107647192
 42
-0.2318440568758588
 10
39.27350983401425
 20
0.0006325832887342
 42
-0.2669566149117684
 10
39.0049805955257
 20
0.1322194104409391
 10
38.50240313787958
 20
0.8773211342609101
 42
0.5317094326634213
 10
38.00498059382312
 20
0.87732113393713
 10
37.50240313958216
 20
0.1322194107647192
 42
-0.2318440568763711
 10
37.27350983401425
 20
0.0006325832887342
 42
-0.2669566149121301
 10
37.0049805955257
 20
0.1322194104409391
 10
36.50240313787958
 20
0.8773211342609101
 42
0.531709432658264
 10
36.00498059382289
 20
0.87732113393713
 10
35.50240313958193
 20
0.1322194107647192
 42
-0.2302274711924234
 10
35.27350702898343
 20
0.0001967498328668
 10
35.25
 20
0.0001967498328668
 42
-0.4142135623730951
 10
25.75
 20
9.500196749832866
 10
25.75
 20
90.70000000000005
 42
0.4142135623730951
 10
25.45000000000005
 20
91.0
 10
22.30925622600489
 20
91.0
 42
0.3711517135479172
 10
22.11147893814359
 20
90.82973456585069
 10
21.89903547639324
 20
89.41668243321373
 42
0.4557262555316655
 10
22.09489285160612
 20
89.18695708273707
 10
23.94621555991125
 20
89.16918437440017
 42
-0.4547895061460317
 10
24.14216427016891
 20
88.94007301169086
 10
23.90701160944218
 20
87.34225675215567
 42
-0.3747693336726329
 10
23.70722307388565
 20
87.17138654561678
 10
21.73841089126222
 20
87.19028621761253
 42
0.3738843493752026
 10
21.53871392244491
 20
87.02002999661045
 10
21.49871806531042
 20
86.75400048103211
 42
0.235067192237052
 10
21.77267740596835
 20
85.90612865033746
 10
22.19552107383583
 20
85.47377334659268
 42
0.2683570427283379
 10
22.38841342425826
 20
85.41993997303142
 10
23.38118017640568
 20
85.67576240063363
 42
-0.5373193024981053
 10
23.62886440231182
 20
85.4523547098247
 10
19.66277965237736
 20
59.0721880007718
 42
-1.029696124502662
 10
18.08837832586187
 20
59.35338084703062
 42
0.1743995905227459
 10
17.99435781691568
 20
60.02382747720503
 10
17.33433096425688
 20
61.27734562609067
 42
0.8146628475673407
 10
16.39341472047908
 20
61.00566754705051
 10
16.58126772820242
 20
58.97761050300323
 42
0.2719136260880639
 10
17.94106679841729
 20
57.08632819855438
 10
18.34628191499769
 20
56.90709074382676
 42
-0.2980602833889838
 10
19.53722180937757
 20
55.06930629352837
 10
19.47276131015815
 20
40.29614184558863
 42
-0.0446666244643025
 10
18.22235104466699
 20
26.98142097868413
 10
14.29069016274047
 20
5.726749554095931
 42
-0.3604929881350539
  0
LINE
  5
81
330
7C
100
AcDbEntity
  8
-PROFILAUSSENKANTET
100
AcDbLine
 10
40.24999999999977
 20
1.009540546127482
 30
0.0
 11
40.24999999999977
 21
-8.699999999999818
 31
0.0
  0
LINE
  5
82
330
7C
100
AcDbEntity
  8
-PROFILAUSSENKANTET
100
AcDbLine
 10
58.24999999999977
 20
1.009540546128846
 30
0.0
 11
58.24999999999977
 21
-8.699999999999818
 31
0.0
  0
LINE
  5
83
330
7C
100
AcDbEntity
  8
-ACHSE
  6
AM_DIN_G_W050x2
100
AcDbLine
 10
49.24999999999977
 20
-11.77618308388628
 30
0.0
 11
49.24999999999977
 21
3.669088369584642
 31
0.0
  0
MTEXT
  5
84
330
7C
100
AcDbEntity
  8
DEFPOINTS
100
AcDbMText
 10
-19.4251282004484
 20
-7.142906577742451
 30
0.0
 40
1.5
 41
11.35918246370009
 71
     5
 72
     5
  1
BHL-0-T1(S)
 11
0.9999877757611519
 21
-0.0049445250797289
 31
0.0
 73
     1
 44
1.0
1001
ACAD
1000
MTEXTBEGIN
1070
    73
1070
     1
1070
    44
1040
1.0
1070
    74
1070
     0
1000
MTEXTEND
1000
ACAD_MTEXT_DEFINED_HEIGHT_BEGIN
1070
    46
1040
2.346582347408901
1000
ACAD_MTEXT_DEFINED_HEIGHT_END
  0
HATCH
  5
85
330
7C
100
AcDbEntity
  8
-PROFILAUSSENKANTET
100
AcDbHatch
 10
0.0
 20
0.0
 30
0.0
210
0.0
220
0.0
230
1.0
  2
_U
 70
     0
 71
     0
 91
        1
 92
        1
 93
       61
 72
     2
 10
68.25369186596095
 20
0.709563263446853
 40
0.2999999999990869
 50
33.99999994778506
 51
146.0000001269011
 73
     1
 72
     1
 10
68.00498059382334
 20
0.8773211339369026
 11
67.50240313958215
 21
0.1322194107647192
 72
     2
 10
67.25369186744501
 20
0.2999773045337406
 40
0.3000000130164903
 50
34.00000355901196
 51
145.999996366435
 73
     0
 72
     1
 10
67.00498059552592
 20
0.1322194104409391
 11
66.50240313787958
 21
0.8773211342609101
 72
     2
 10
66.25369186596095
 20
0.709563263446853
 40
0.2999999999990869
 50
33.99999994778506
 51
146.0000001269011
 73
     1
 72
     1
 10
66.00498059382335
 20
0.8773211339369026
 11
65.50240313958216
 21
0.1322194107647192
 72
     2
 10
65.25369186744502
 20
0.2999773045337406
 40
0.3000000130164903
 50
34.00000355901196
 51
145.999996366435
 73
     0
 72
     1
 10
65.00498059552592
 20
0.1322194104409391
 11
64.50240313787958
 21
0.8773211342609101
 72
     2
 10
64.25369186596094
 20
0.709563263446853
 40
0.2999999999990869
 50
33.99999994778506
 51
146.0000001269011
 73
     1
 72
     1
 10
64.00498059382335
 20
0.8773211339369026
 11
63.50240313958216
 21
0.1322194107647192
 72
     2
 10
63.25369186744501
 20
0.2999773045337406
 40
0.3000000130164903
 50
34.00000355901196
 51
145.999996366435
 73
     0
 72
     1
 10
63.00498059552592
 20
0.1322194104409391
 11
62.50240313787958
 21
0.8773211342609101
 72
     2
 10
62.25369186596094
 20
0.709563263446853
 40
0.2999999999990869
 50
33.99999994778506
 51
146.0000001269011
 73
     1
 72
     1
 10
62.00498059382335
 20
0.8773211339369026
 11
61.50240313958216
 21
0.1322194107647192
 72
     2
 10
61.25369186744501
 20
0.2999773045337406
 40
0.3000000130164903
 50
34.00000355901196
 51
145.999996366435
 73
     0
 72
     1
 10
61.00498059552592
 20
0.1322194104409391
 11
60.50240313787958
 21
0.8773211342609101
 72
     2
 10
60.25369186596094
 20
0.709563263446853
 40
0.2999999999990869
 50
33.99999994778506
 51
146.0000001269011
 73
     1
 72
     1
 10
60.00498059382334
 20
0.8773211339369026
 11
59.50240313958215
 21
0.1322194107647192
 72
     2
 10
59.25369186744501
 20
0.2999773045337406
 40
0.3000000130164903
 50
34.00000355901196
 51
145.999996366435
 73
     0
 72
     1
 10
59.00498059552592
 20
0.1322194104409391
 11
58.50240313787958
 21
0.8773211342609101
 72
     2
 10
58.25369186596072
 20
0.7095632634466256
 40
0.2999999999994026
 50
33.99999994779678
 51
90.70511225845713
 73
     1
 72
     1
 10
58.24999999999977
 20
1.009540546128846
 11
58.24999999999977
 21
-8.699999999999818
 72
     1
 10
58.24999999999977
 20
-8.699999999999818
 11
77.19167096665819
 21
-8.699999999999818
 72
     2
 10
77.19167096665888
 20
-6.700000000000272
 40
1.999999999999545
 50
269.9999999999804
 51
314.9999999999954
 73
     1
 72
     1
 10
78.60588452903153
 20
-8.114213562373151
 11
79.15655050737746
 21
-7.563547584028128
 72
     2
 10
80.57076408390958
 20
-8.977761160559566
 40
2.000000020023402
 50
224.9999999999862
 51
269.9999999999544
 73
     0
 72
     1
 10
80.57076408390798
 20
-6.977761140536131
 11
91.98325680257743
 21
-6.977761140536586
 72
     2
 10
91.98325680257767
 20
-6.377761140536904
 40
0.5999999999996817
 50
269.9999999999783
 51
389.1692135590281
 73
     1
 72
     2
 10
94.25000000001659
 20
-5.104236823714245
 40
2.000000884446954
 50
150.6236054809126
 51
178.226245685659
 73
     0
 72
     2
 10
92.45086159688936
 20
-5.159952085837403
 40
0.1999999999914483
 50
178.2262456812505
 51
254.200691451468
 73
     0
 72
     2
 10
92.34195414295777
 20
-4.775063574093792
 40
0.2000000000013122
 50
285.7993085438598
 51
350.2117658164085
 73
     1
 72
     2
 10
94.25000000000114
 20
-5.104236823775181
 40
1.736231912990192
 50
189.7882341849562
 51
199.4202005163764
 73
     0
 72
     2
 10
92.42392905145766
 20
-4.460451990326419
 40
0.2000000000029489
 50
340.57979948821
 51
404.9922567608953
 73
     1
 72
     2
 10
92.70680998614194
 20
-4.177647505223603
 40
0.1999999999997957
 50
135.0077432421908
 51
210.9821890130365
 73
     0
 72
     2
 10
94.2499999999884
 20
-5.104236823663541
 40
2.000000884411642
 50
210.9821890107034
 51
268.2262456852693
 73
     0
 72
     2
 10
94.19428473782431
 20
-3.305098420602689
 40
0.2000000000212493
 50
268.226245689661
 51
344.2006914595882
 73
     0
 72
     2
 10
94.57917324960499
 20
-3.196190966689755
 40
0.2000000000018736
 50
195.7993085439497
 51
260.2117658141927
 73
     1
 72
     2
 10
94.25000000017893
 20
-5.1042368236956
 40
1.73623191290917
 50
279.7882341766079
 51
289.4202005084558
 73
     0
 72
     2
 10
94.89378483340033
 20
-3.27816587518032
 40
0.1999999999817605
 50
250.5797994781964
 51
314.9922567514063
 73
     1
 72
     2
 10
95.17658931846767
 20
-3.561046809870276
 40
0.1999999999996343
 50
225.0077432410393
 51
300.9821890123774
 73
     0
 72
     2
 10
94.25000000001796
 20
-5.104236823690143
 40
2.000000884393282
 50
300.98218901127
 51
358.2262456861457
 73
     0
 72
     2
 10
96.04913840308382
 20
-5.04852156156312
 40
0.1999999999989331
 50
358.2262456877686
 51
434.2006914572423
 73
     0
 72
     2
 10
96.15804585700153
 20
-5.433410073319464
 40
0.2000000000020221
 50
105.7993085448177
 51
170.2117658174488
 73
     1
 72
     2
 10
94.2499999999975
 20
-5.104236823764267
 40
1.736231912928987
 50
9.788234181193036
 51
19.42020051290367
 73
     0
 72
     2
 10
96.07607094850596
 20
-5.748021657110712
 40
0.1999999999971149
 50
160.5797994823716
 51
224.9922567553219
 73
     1
 72
     2
 10
95.79319001381554
 20
-6.030826142198066
 40
0.1999999999988304
 50
315.0077432409933
 51
390.9821890113386
 73
     0
 72
     2
 10
94.24999999999863
 20
-5.104236823656492
 40
2.000000884437449
 50
30.98218901346574
 51
58.77760244157782
 73
     0
 72
     2
 10
95.59773994557554
 20
-7.327657979931927
 40
0.600000000000232
 50
121.222397557841
 51
224.9999999999693
 73
     1
 72
     1
 10
95.17347587686321
 20
-7.751922048643791
 11
95.83576738472743
 21
-8.414213556508457
 72
     2
 10
97.24998096125979
 20
-6.999999979976792
 40
2.000000020023724
 50
224.9999999999862
 51
270.0
 73
     1
 72
     1
 10
97.24998096125979
 20
-9.000000000000454
 11
98.94999999999981
 21
-9.0
 72
     2
 10
98.95000000000004
 20
-8.700000000000272
 40
0.2999999999997271
 50
269.9999999999566
 51
360.0000000000434
 73
     1
 72
     1
 10
99.24999999999954
 20
-8.700000000000045
 11
99.24999999999977
 21
-0.300000000004502
 72
     2
 10
98.94999999999937
 20
-0.3000000000051841
 40
0.3000000000004093
 50
0.0000000001302755
 51
90.00000000078165
 73
     1
 72
     1
 10
98.94999999999527
 20
-0.0000000000045475
 11
71.25367654374509
 21
-0.0000000004170033
 72
     2
 10
71.2536765437444
 20
0.2999999995822691
 40
0.2999999999992724
 50
89.99999999986973
 51
146.0000000520826
 73
     0
 72
     1
 10
71.00496527182599
 20
0.1322421287675297
 11
70.50240313787958
 21
0.8773211342609101
 72
     2
 10
70.25369186596094
 20
0.709563263446853
 40
0.2999999999990869
 50
33.99999994778506
 51
146.0000001269011
 73
     1
 72
     1
 10
70.00498059382334
 20
0.8773211339369026
 11
69.50240313958215
 21
0.1322194107647192
 72
     2
 10
69.25369186744501
 20
0.2999773045337406
 40
0.3000000130164903
 50
34.00000355901196
 51
145.999996366435
 73
     0
 72
     1
 10
69.00498059552592
 20
0.1322194104409391
 11
68.50240313787958
 21
0.8773211342609101
 97
        0
 75
     0
 76
     0
 52
45.0
 41
5.0
 77
     0
 78
     1
 53
45.0
 43
1976.909175428478
 44
-1561.690764944267
 45
-3.535533905932737
 46
3.535533905932737
 79
     0
 98
        1
 10
1976.909175428478
 20
-1561.690764944267
1001
ACAD
1010
0.0
1020
0.0
1030
0.0
1001
GENIUS_GENOBJ-N-HTC_13
1002
{
1000
OWNER
1000
GEN
1002
}
1001
GENIUS_GENODEF_13
1002
{
1000
HIER
1070
     0
1002
}
1002
{
1000
MANEDIT
1070
     0
1002
}
1002
{
1000
NOSEL
1070
     0
1002
}
1002
{
1000
BEHIND
1070
     0
1002
}
1002
{
1000
OTHER
1070
     0
1002
}
1002
{
1000
REACTOR
1002
}
1001
GENIUS_GENHATCH_13
1002
{
1000
DATA
1040
45.0
1042
2.5
1000
_U
1070
     0
1011
69.6384843050364
1021
-3.612849284820185
1031
0.0
1002
}
1002
{
1000
UCS
1010
0.0
1020
0.0
1030
0.0
1010
1.0
1020
0.0
1030
0.0
1010
0.0
1020
1.0
1030
0.0
1002
}
  0
HATCH
  5
88
330
7C
100
AcDbEntity
  8
-PROFILAUSSENKANTET
100
AcDbHatch
 10
0.0
 20
0.0
 30
0.0
210
0.0
220
0.0
230
1.0
  2
_U
 70
     0
 71
     0
 91
        3
 92
        1
 93
      113
 72
     1
 10
-20.96264175197211
 20
45.07400836683473
 11
-21.15798245102087
 21
48.49714158400047
 72
     2
 10
-18.16280743934976
 20
48.66721994669115
 40
2.999999999999094
 50
176.7499999999887
 51
269.9163905535493
 73
     0
 72
     2
 10
-18.1718548502115
 20
54.86721422984851
 40
3.200000884422059
 50
270.0836094464301
 51
314.7234079998094
 73
     1
 72
     2
 10
-16.34227312682651
 20
53.01988228445679
 40
0.5999999999974112
 50
314.7234079998086
 51
494.7234079998239
 73
     1
 72
     2
 10
-18.17185485021173
 20
54.8672142298501
 40
2.000000884428724
 50
45.27659200022212
 51
73.07200542830947
 73
     0
 72
     2
 10
-17.64774921269668
 20
53.14520480342344
 40
0.1999999999908125
 50
73.07200542593067
 51
149.0464511962946
 73
     0
 72
     2
 10
-17.9907830422469
 20
52.93946761237908
 40
0.2000000000025668
 50
30.95354880146057
 51
95.3660060740105
 73
     1
 72
     2
 10
-18.17185485009622
 20
54.86721422984669
 40
1.736231912955018
 50
84.63399392935906
 51
94.26596026083592
 73
     0
 72
     2
 10
-18.31588394013033
 20
52.93634664194496
 40
0.2000000000103423
 50
85.73403974619814
 51
150.1464970184907
 73
     1
 72
     2
 10
-18.66280433982115
 20
53.13546026850963
 40
0.1999999999963588
 50
29.85350298486174
 51
105.8279487546699
 73
     0
 72
     2
 10
-18.17185485019649
 20
54.86721422983373
 40
2.000000884419451
 50
105.827948754898
 51
163.0720054288007
 73
     0
 72
     2
 10
-19.89386427660838
 20
54.3431085923321
 40
0.1999999999995984
 50
163.0720054283989
 51
239.0464511996455
 73
     0
 72
     2
 10
-20.09960146764001
 20
54.68614242189528
 40
0.1999999999982395
 50
300.9535487997735
 51
365.3660060734777
 73
     1
 72
     2
 10
-18.17185485019718
 20
54.86721422984283
 40
1.736231912944042
 50
174.6339939259939
 51
184.2659602575898
 73
     0
 72
     2
 10
-20.10272243808413
 20
55.01124331978189
 40
0.1999999999995194
 50
355.7340397448565
 51
420.146497015657
 73
     1
 72
     2
 10
-19.90360881150718
 20
55.35816371947158
 40
0.2000000000123238
 50
119.8535029852408
 51
195.8279487547152
 73
     0
 72
     2
 10
-18.17185485021014
 20
54.86721422984601
 40
2.000000884409784
 50
195.827948755139
 51
253.0720054293356
 73
     0
 72
     2
 10
-18.69596048768699
 20
56.58922365625563
 40
0.1999999999992674
 50
253.0720054271445
 51
329.0464511982603
 73
     0
 72
     2
 10
-18.35292665813017
 20
56.79496084729453
 40
0.1999999999970689
 50
210.953548801114
 51
275.3660060736966
 73
     1
 72
     2
 10
-18.17185485020832
 20
54.86721422985943
 40
1.736231912934784
 50
264.6339939268394
 51
274.2659602585531
 73
     0
 72
     2
 10
-18.02782576023128
 20
56.79808181773705
 40
0.2000000000022704
 50
265.7340397421718
 51
330.1464970150608
 73
     1
 72
     2
 10
-17.68090536055115
 20
56.59896819116261
 40
0.2000000000000285
 50
209.8535029853849
 51
285.8279487557906
 73
     0
 72
     2
 10
-18.17185485020741
 20
54.86721422985306
 40
2.00000088441778
 50
285.8279487559949
 51
313.623362184725
 73
     0
 72
     2
 10
-16.2745886354096
 20
56.85791405024042
 40
0.7500000000736468
 50
226.3766378258172
 51
371.8618786240176
 73
     1
 72
     1
 10
-15.54060416149195
 20
57.012078871644
 11
-16.40583114823698
 21
61.15062516995294
 72
     2
 10
-16.89515413080266
 20
61.04784862237079
 40
0.4999999999998809
 50
11.86187862283365
 51
152.3314676830731
 73
     1
 72
     1
 10
-17.33797852594398
 20
61.28002647460471
 11
-17.99581556930275
 21
60.0253577453418
 72
     2
 10
-17.11016677901875
 20
59.56100204087533
 40
1.000000000001027
 50
152.3314676831787
 51
191.902921287077
 73
     1
 72
     2
 10
-18.87146402553708
 20
59.1897447050419
 40
0.799999999999841
 50
348.0970787130545
 51
531.4499770931162
 73
     0
 72
     1
 10
-19.66257317698091
 20
59.07080644163852
 11
-23.6288726153648
 21
85.45235677921937
 72
     2
 10
-23.43109532750464
 20
85.48209134507169
 40
0.1999999999993694
 50
171.4499770926636
 51
284.4499770927876
 73
     0
 72
     1
 10
-23.38118839681147
 20
85.67576451892
 11
-22.38841342425826
 21
85.41993997303142
 72
     2
 10
-22.33850649356555
 20
85.61361314687951
 40
0.1999999999988929
 50
255.5500229073222
 51
315.6372249509763
 73
     1
 72
     1
 10
-22.19552107383583
 20
85.47377334659268
 11
-21.77267740596835
 21
85.90612865033746
 72
     2
 10
-22.4876045046185
 20
86.60532765178141
 40
1.000000000002275
 50
315.6372249506396
 51
368.5500229066561
 73
     1
 72
     1
 10
-21.49871806531042
 20
86.75400048103211
 11
-21.53871392244468
 21
87.02002999661045
 72
     2
 10
-21.73649121030485
 20
86.99029543076244
 40
0.1999999999987272
 50
8.550022906112522
 51
90.5499565291584
 73
     1
 72
     1
 10
-21.73841089126245
 20
87.19028621761186
 11
-23.70722307388565
 21
87.17138654561678
 72
     2
 10
-23.70914298653429
 20
87.37137733024178
 40
0.1999999999987692
 50
89.44997709318705
 51
171.6278072103214
 73
     0
 72
     1
 10
-23.90701160944218
 20
87.34225675215567
 11
-24.14216427016868
 21
88.94007301169086
 72
     2
 10
-23.94429564726215
 20
88.9691935897763
 40
0.199999999997388
 50
171.6278072104579
 51
269.449977093053
 73
     0
 72
     1
 10
-23.94621555991125
 20
89.16918437439994
 11
-22.09489285160635
 21
89.18695708273753
 72
     2
 10
-22.09681276425454
 20
89.38694786736391
 40
0.200000000000129
 50
270.5500229066789
 51
368.5500229065794
 73
     1
 72
     1
 10
-21.89903547639324
 20
89.41668243321373
 11
-22.11147893814336
 21
90.82973456585069
 72
     2
 10
-22.30925622600444
 20
90.8000000000004
 40
0.1999999999999646
 50
8.550022906717924
 51
90.00000000006513
 73
     1
 72
     1
 10
-22.30925622600466
 20
91.00000000000022
 11
-25.45000000000005
 21
91.0
 72
     2
 10
-25.44999999999982
 20
90.69999999999982
 40
0.3000000000001819
 50
90.00000000004341
 51
179.9999999999566
 73
     1
 72
     1
 10
-25.75
 20
90.70000000000005
 11
-25.75000000000023
 21
-8.700000000000045
 72
     2
 10
-25.45000000000005
 20
-8.69999999999959
 40
0.3000000000001819
 50
180.0000000000868
 51
269.9999999999566
 73
     1
 72
     1
 10
-25.45000000000027
 20
-9.0
 11
-13.75000000000023
 21
-9.0
 72
     1
 10
-13.75000000000023
 20
-9.0
 11
-13.75000000000023
 21
-8.699999999999818
 72
     1
 10
-13.75000000000023
 20
-8.699999999999818
 11
-7.381745639217342
 21
-8.699999999999818
 72
     2
 10
-7.381745639216433
 20
-6.699999979979793
 40
2.000000020020024
 50
269.9999999999739
 51
305.828618092135
 73
     1
 72
     1
 10
-6.211020203287489
 20
-8.321543082628977
 11
-5.416621803946554
 21
-7.527144683287133
 72
     2
 10
-4.002669927938086
 20
-8.941619911922543
 40
2.000000020022766
 50
225.01060161541
 51
269.9728915056172
 73
     0
 72
     1
 10
-4.003616192876734
 20
-6.941620115754176
 11
4.400537748617125
 21
-6.941620115754176
 72
     2
 10
4.397331414219024
 20
-8.94161756562994
 40
2.000000020022457
 50
270.0918547527865
 51
314.7618606140651
 73
     0
 72
     1
 10
5.805654873416415
 20
-7.52153830222096
 11
6.668370755820205
 21
-8.38425418462566
 72
     2
 10
7.746928985222439
 20
-6.699999979982521
 40
2.000000020017343
 50
237.3654218324476
 51
270.0000000000196
 73
     1
 72
     1
 10
7.746928985223121
 20
-8.699999999999818
 11
17.99281053839127
 21
-8.699999999999818
 72
     1
 10
17.99281053839127
 20
-8.699999999999818
 11
17.99281053839127
 21
-9.0
 72
     1
 10
17.99281053839127
 20
-9.0
 11
39.99999999999977
 21
-9.0
 72
     1
 10
39.99999999999977
 20
-9.0
 11
39.99999999999977
 21
-8.699999999999818
 72
     1
 10
39.99999999999977
 20
-8.699999999999818
 11
40.24999999999977
 21
-8.699999999999818
 72
     1
 10
40.24999999999977
 20
-8.699999999999818
 11
40.24999999999977
 21
1.009540546127482
 72
     2
 10
40.25369186596072
 20
0.7095632634441245
 40
0.3000000000006079
 50
90.70511225845447
 51
146.0000001264448
 73
     1
 72
     1
 10
40.00498059382334
 20
0.8773211339369026
 11
39.50240313958216
 21
0.1322194107647192
 72
     2
 10
39.25369186744502
 20
0.2999773045337406
 40
0.3000000130164903
 50
34.00000355901196
 51
145.999996366435
 73
     0
 72
     1
 10
39.00498059552592
 20
0.1322194104409391
 11
38.50240313787958
 21
0.8773211342609101
 72
     2
 10
38.25369186596095
 20
0.709563263446853
 40
0.2999999999990869
 50
33.99999994778506
 51
146.0000001269011
 73
     1
 72
     1
 10
38.00498059382335
 20
0.8773211339369026
 11
37.50240313958216
 21
0.1322194107647192
 72
     2
 10
37.25369186744501
 20
0.2999773045337406
 40
0.3000000130164903
 50
34.00000355901196
 51
145.999996366435
 73
     0
 72
     1
 10
37.00498059552592
 20
0.1322194104409391
 11
36.50240313787958
 21
0.8773211342609101
 72
     2
 10
36.25369186596027
 20
0.7095632634441245
 40
0.3000000000011782
 50
33.99999994814423
 51
146.0000001264088
 73
     1
 72
     1
 10
36.00498059382289
 20
0.87732113393713
 11
35.50240313958193
 21
0.1322194107647192
 72
     2
 10
35.25219278768509
 20
0.3015878358473856
 40
0.3021438127966931
 50
34.09423420500926
 51
85.95480310090305
 73
     0
 72
     1
 10
35.27350702898343
 20
0.0001967498326394
 11
35.25
 21
0.0001967498328668
 72
     2
 10
35.25
 20
9.500196749832866
 40
9.5
 50
90.0
 51
180.0
 73
     0
 72
     1
 10
25.75
 20
9.500196749832866
 11
25.75
 21
90.70000000000005
 72
     2
 10
25.44999999999982
 20
90.69999999999982
 40
0.3000000000001819
 50
0.0000000000434252
 51
89.99999999995656
 73
     1
 72
     1
 10
25.45000000000005
 20
91.0
 11
22.30925622600489
 21
91.0
 72
     2
 10
22.30925622600489
 20
90.80000000000017
 40
0.1999999999998181
 50
90.0
 51
171.4499770932176
 73
     1
 72
     1
 10
22.11147893814382
 20
90.82973456585069
 11
21.89903547639324
 21
89.41668243321373
 72
     2
 10
22.09681276425476
 20
89.38694786736368
 40
0.2000000000003804
 50
171.4499770933658
 51
269.4499770931908
 73
     1
 72
     1
 10
22.09489285160612
 20
89.1869570827373
 11
23.94621555991125
 21
89.16918437440017
 72
     2
 10
23.94429564726215
 20
88.9691935897763
 40
0.1999999999976368
 50
270.5500229069464
 51
368.3721927895327
 73
     0
 72
     1
 10
24.14216427016891
 20
88.94007301169086
 11
23.90701160944218
 21
87.34225675215567
 72
     2
 10
23.70914298653474
 20
87.37137733024111
 40
0.1999999999982878
 50
8.372192789504207
 51
90.55002290694515
 73
     0
 72
     1
 10
23.70722307388565
 20
87.17138654561678
 11
21.73841089126222
 21
87.19028621761253
 72
     2
 10
21.73649121030508
 20
86.99029543076358
 40
0.1999999999986057
 50
89.45004347097064
 51
171.4499770941451
 73
     1
 72
     1
 10
21.53871392244491
 20
87.02002999661067
 11
21.49871806531042
 21
86.75400048103211
 72
     2
 10
22.48760450461828
 20
86.60532765178164
 40
1.00000000000216
 50
171.4499770933549
 51
224.3627750493879
 73
     1
 72
     1
 10
21.77267740596858
 20
85.90612865033746
 11
22.19552107383583
 21
85.47377334659268
 72
     2
 10
22.33850649356555
 20
85.61361314687951
 40
0.1999999999988602
 50
224.3627750490237
 51
284.4499770926777
 73
     1
 72
     1
 10
22.38841342425826
 20
85.41993997303142
 11
23.38118017640568
 21
85.67576240063363
 72
     2
 10
23.43108710710067
 20
85.48208922678531
 40
0.1999999999996804
 50
255.5500229067077
 51
368.5500087434649
 73
     0
 72
     1
 10
23.62886440231182
 20
85.4523547098247
 11
19.66277965237736
 21
59.0721880007718
 72
     2
 10
18.87146402553708
 20
59.18974470504259
 40
0.800000000000403
 50
8.449977093111138
 51
191.8028754730262
 73
     0
 72
     2
 10
17.10952120127081
 20
59.55792602452266
 40
0.9999999999987396
 50
348.1971245265409
 51
387.768578130499
 73
     1
 72
     1
 10
17.99435781691568
 20
60.02382747720503
 11
17.33433096425688
 21
61.27734562609067
 72
     2
 10
16.89191265643581
 20
61.04439489974493
 40
0.5000000000002658
 50
27.76857813103297
 51
184.4422770034517
 73
     1
 72
     1
 10
16.39341472047863
 20
61.00566754705051
 11
16.58126772820242
 21
58.97761050300323
 72
     2
 10
18.87146402553685
 20
59.18974470504281
 40
2.29999999999985
 50
185.2920405437168
 51
246.1389152033847
 73
     1
 72
     1
 10
17.94106679841729
 20
57.08632819855438
 11
18.34628191499769
 21
56.90709074382676
 72
     2
 10
17.53724084793748
 20
55.07803291209916
 40
1.999999999998492
 50
293.8610847966251
 51
360.2500000000373
 73
     0
 72
     1
 10
19.53722180937757
 20
55.06930629352837
 11
19.47276131015815
 21
40.29614184558863
 72
     2
 10
-55.52652474386741
 20
40.62339004194223
 40
74.99999999997047
 50
0.2499999999982542
 51
10.48003654306225
 73
     0
 72
     1
 10
18.22235104466699
 20
26.98142097868413
 11
14.29069016274047
 21
5.726749554095931
 72
     2
 10
7.407355530572203
 20
7.00006222239881
 40
7.000115771161767
 50
10.48037918913446
 51
89.77589062896134
 73
     0
 72
     1
 10
7.434736038451546
 20
0.0
 11
-7.434736038451774
 21
0.0
 72
     2
 10
-7.407354161965486
 20
7.000063860868294
 40
7.000117414971997
 50
90.22412052050972
 51
169.5196096613933
 73
     0
 72
     1
 10
-14.29069016274047
 20
5.726749554095476
 11
-19.8321422487345
 21
35.6839983708287
 72
     2
 10
53.91673353985243
 20
49.32596743409613
 40
75.00000000002379
 50
169.519963456938
 51
176.7499999999948
 73
     0
 97
        0
 92
       16
 93
       10
 72
     2
 10
33.49014563975015
 20
6.886006247047362
 40
11.00000000000189
 50
180.2500019892193
 51
240.7932500690334
 73
     1
 72
     2
 10
27.53700322013833
 20
-3.762941838649794
 40
1.20000000000038
 50
299.2067499309619
 51
449.7499980107821
 73
     0
 72
     1
 10
27.54223923294171
 20
-4.962930415332948
 11
20.50366757183088
 21
-4.993642417140108
 72
     2
 10
20.49494088373854
 20
-2.993661435980357
 40
2.000000020021445
 50
89.74999801080096
 51
119.5185149332456
 73
     0
 72
     1
 10
19.50953130022367
 20
-4.73405450445739
 11
14.64300047253687
 21
-1.97862746734836
 72
     2
 10
15.13570526429066
 20
-1.108430933114277
 40
1.000000010005079
 50
119.5185149331895
 51
227.4875703343859
 73
     0
 72
     2
 10
7.702453698028648
 20
7.000007484697562
 40
10.00000010012135
 50
312.5124296655632
 51
350.0650882305571
 73
     1
 72
     1
 10
17.55249762196922
 20
5.274714263569876
 11
19.47284141819159
 21
16.23834091570643
 72
     2
 10
20.9503480067815
 20
15.97954693253837
 40
1.500000015016855
 50
189.9349117694097
 51
359.7499980107794
 73
     0
 72
     1
 10
22.45033374265199
 20
15.98609194860819
 11
22.49025035348655
 21
6.838009463016078
 97
        0
 92
       16
 93
       30
 72
     2
 10
-7.358489409766434
 20
6.934290783330197
 40
10.0000001001172
 50
190.434915747926
 51
210.663430278685
 73
     1
 72
     2
 10
-16.82044701846439
 20
1.324356700494263
 40
0.9999999999992345
 50
329.3365697213062
 51
429.4730497475108
 73
     0
 72
     2
 10
-15.34772714791461
 20
-2.608970420523519
 40
3.199995959289852
 50
110.5269502505863
 51
110.786019564073
 73
     1
 72
     2
 10
-16.27041158930501
 20
-0.1781999403444843
 40
0.5999975543492387
 50
110.7860198354771
 51
290.7860198354771
 73
     1
 72
     2
 10
-15.34772712892118
 20
-2.608970470951589
 40
2.000000904477565
 50
249.2139806027411
 51
277.009394029776
 73
     0
 72
     2
 10
-15.1280692812054
 20
-0.8224224924706504
 40
0.2000000018451368
 50
277.0093940203628
 51
352.9838397904185
 73
     0
 72
     2
 10
-14.73106458176335
 20
-0.7735627779100014
 40
0.2000000020124223
 50
187.0161602273744
 51
251.4286175290478
 73
     1
 72
     2
 10
-15.347727128413
 20
-2.608970471163502
 40
1.736231930606806
 50
288.5713825091622
 51
298.2033488384366
 73
     0
 72
     2
 10
-14.43265951264607
 20
-0.9026160661978792
 40
0.2000000019805462
 50
241.7966511435534
 51
306.2091084229553
 73
     1
 72
     2
 10
-14.19636593267819
 20
-1.225362634301291
 40
0.2000000019653257
 50
233.790891596168
 51
309.7653373661387
 73
     0
 72
     2
 10
-15.34772712888502
 20
-2.608970471040038
 40
2.000000904747196
 50
309.7653373492203
 51
367.009394012236
 73
     0
 72
     2
 10
-13.561179150219
 20
-2.828628318164646
 40
0.2000000020030756
 50
7.009394019524959
 51
82.98383979034857
 73
     0
 72
     2
 10
-13.5123194357684
 20
-3.225633017813606
 40
0.200000002046239
 50
97.01616018877352
 51
161.4286174617965
 73
     1
 72
     2
 10
-15.34772712905828
 20
-2.608970471174643
 40
1.73623193060411
 50
18.57138250069873
 51
28.20334883122166
 73
     0
 72
     2
 10
-13.6413727239435
 20
-3.524038086706696
 40
0.2000000020036842
 50
151.7966511604125
 51
216.2091084244523
 73
     1
 72
     2
 10
-13.96411929206124
 20
-3.760331666740512
 40
0.2000000019925659
 50
323.7908915848475
 51
399.765337354318
 73
     0
 72
     2
 10
-15.34772712896324
 20
-2.608970470970916
 40
2.000000904620197
 50
39.76533733541833
 51
97.00939400902109
 73
     0
 72
     2
 10
-15.56738497591914
 20
-4.395518449147402
 40
0.2000000023825747
 50
97.00939401823355
 51
172.9838397895443
 73
     0
 72
     2
 10
-15.96438967591007
 20
-4.444378163532519
 40
0.2000000019983905
 50
7.01616015738341
 51
71.4286173611816
 73
     1
 72
     2
 10
-15.34772712892595
 20
-2.608970470966369
 40
1.736231930075977
 50
108.5713825075121
 51
118.203348840747
 73
     0
 72
     2
 10
-16.26279474451235
 20
-4.315324875453597
 40
0.2000000020044671
 50
61.79665114441973
 51
126.209108408274
 73
     1
 72
     2
 10
-16.49908832448136
 20
-3.992578307311759
 40
0.200000001972808
 50
53.79089158772696
 51
129.7653373513033
 73
     0
 72
     2
 10
-15.34772712892482
 20
-2.608970470953636
 40
2.000000904046157
 50
129.7653373403916
 51
157.3679775514719
 73
     0
 72
     2
 10
-17.74667722357776
 20
-3.611481062013126
 40
0.6000000060059426
 50
22.83920340910072
 51
200.3191965034872
 73
     1
 72
     2
 10
-19.24711345908122
 20
-4.167080847324768
 40
0.9999999996971174
 50
339.6808034844243
 51
449.7499979989076
 73
     0
 72
     1
 10
-19.24275011487248
 20
-5.167071327590065
 11
-21.0927315587744
 21
-5.175143509862209
 72
     2
 10
-21.09709488941394
 20
-4.175153019222307
 40
1.000000010012251
 50
89.7499987789522
 51
179.7499960767777
 73
     0
 72
     1
 10
-22.09708537984807
 20
-4.179516397023235
 11
-22.18422590037722
 21
15.79133415648402
 72
     2
 10
-20.68424016450513
 20
15.79787917255362
 40
1.500000015018359
 50
179.7499980107883
 51
349.5650842521438
 73
     0
 72
     1
 10
-19.20904822858256
 20
16.06955691776738
 11
-17.19310231590884
 21
5.123105815227518
 97
        0
 75
     0
 76
     0
 52
45.0
 41
5.0
 77
     0
 78
     1
 53
45.0
 43
1976.909175428478
 44
-1561.690764944267
 45
-3.535533905932737
 46
3.535533905932737
 79
     0
 98
        1
 10
1976.909175428478
 20
-1561.690764944267
1001
ACAD
1010
0.0
1020
0.0
1030
0.0
1001
GENIUS_GENOBJ-N-HTC_13
1002
{
1000
OWNER
1000
GEN
1002
}
1001
GENIUS_GENODEF_13
1002
{
1000
HIER
1070
     0
1002
}
1002
{
1000
MANEDIT
1070
     0
1002
}
1002
{
1000
NOSEL
1070
     0
1002
}
1002
{
1000
BEHIND
1070
     0
1002
}
1002
{
1000
OTHER
1070
     0
1002
}
1002
{
1000
REACTOR
1002
}
1001
GENIUS_GENHATCH_13
1002
{
1000
DATA
1040
45.0
1042
2.5
1000
_U
1070
     0
1011
-20.8219497852042
1021
28.00439838229977
1031
0.0
1002
}
1002
{
1000
UCS
1010
0.0
1020
0.0
1030
0.0
1010
1.0
1020
0.0
1030
0.0
1010
0.0
1020
1.0
1030
0.0
1002
}
  0
ENDBLK
  5
89
330
7C
100
AcDbEntity
  8
0
100
AcDbBlockEnd
  0
BLOCK
  5
B8
330
B7
100
AcDbEntity
  8
0
100
AcDbBlockBegin
  2
*D3
 70
     1
 10
0.0
 20
0.0
 30
0.0
  3
*D3
  1

  0
LINE
  5
B9
330
B7
100
AcDbEntity
  8
AM_5
  6
ByBlock
100
AcDbLine
 10
34427.26652671108
 20
7976.400518927897
 30
0.0
 11
34444.56652671108
 21
7976.400518927897
 31
0.0
  0
LINE
  5
BA
330
B7
100
AcDbEntity
  8
AM_5
  6
ByBlock
100
AcDbLine
 10
34427.26652671107
 20
7985.400518927893
 30
0.0
 11
34444.56652671108
 21
7985.400518927893
 31
0.0
  0
LINE
  5
BB
330
B7
100
AcDbEntity
  8
AM_5
  6
ByBlock
100
AcDbLine
 10
34442.56652671108
 20
7969.400518927898
 30
0.0
 11
34442.56652671108
 21
7962.400518927897
 31
0.0
  0
LINE
  5
BC
330
B7
100
AcDbEntity
  8
AM_5
  6
ByBlock
100
AcDbLine
 10
34442.56652671108
 20
7992.400518927893
 30
0.0
 11
34442.56652671108
 21
7999.400518927894
 31
0.0
  0
LINE
  5
BD
330
B7
100
AcDbEntity
  8
AM_5
  6
ByBlock
100
AcDbLine
 10
34442.56652671108
 20
7976.400518927897
 30
0.0
 11
34442.56652671108
 21
7985.400518927893
 31
0.0
  0
SOLID
  5
BE
330
B7
100
AcDbEntity
  8
AM_5
100
AcDbTrace
 10
34441.39986004441
 20
7969.400518927898
 30
0.0
 11
34443.73319337774
 21
7969.400518927898
 31
0.0
 12
34442.56652671108
 22
7976.400518927897
 32
0.0
 13
34442.56652671108
 23
7976.400518927897
 33
0.0
  0
SOLID
  5
BF
330
B7
100
AcDbEntity
  8
AM_5
100
AcDbTrace
 10
34441.39986004441
 20
7992.400518927893
 30
0.0
 11
34443.73319337774
 21
7992.400518927893
 31
0.0
 12
34442.56652671108
 22
7985.400518927893
 32
0.0
 13
34442.56652671108
 23
7985.400518927893
 33
0.0
  0
MTEXT
  5
C0
330
B7
100
AcDbEntity
  8
AM_5
 62
     2
100
AcDbMText
 10
34435.99251579701
 20
7980.900518927885
 30
0.0
 40
7.0
 41
0.0
 71
     5
 72
     1
  1
9
 11
0.0000000000000001
 21
1.0
 31
0.0
 73
     1
 44
1.0
1001
ACAD
1000
MTEXTBEGIN
1070
    73
1070
     1
1070
    44
1040
1.0
1070
    74
1070
     0
1000
MTEXTEND
  0
POINT
  5
C1
330
B7
100
AcDbEntity
  8
DEFPOINTS
 62
     0
100
AcDbPoint
 10
34425.26652671108
 20
7976.400518927897
 30
0.0
  0
POINT
  5
C2
330
B7
100
AcDbEntity
  8
DEFPOINTS
 62
     0
100
AcDbPoint
 10
34425.26652671107
 20
7985.400518927893
 30
0.0
  0
POINT
  5
C3
330
B7
100
AcDbEntity
  8
DEFPOINTS
 62
     0
100
AcDbPoint
 10
34442.56652671108
 20
7985.400518927893
 30
0.0
  0
ENDBLK
  5
C4
330
B7
100
AcDbEntity
  8
0
100
AcDbBlockEnd
  0
BLOCK
  5
C7
330
C6
100
AcDbEntity
  8
0
100
AcDbBlockBegin
  2
*D4
 70
     1
 10
0.0
 20
0.0
 30
0.0
  3
*D4
  1

  0
LINE
  5
C8
330
C6
100
AcDbEntity
  8
AM_5
  6
ByBlock
100
AcDbLine
 10
34366.57021857703
 20
7988.110082191338
 30
0.0
 11
34366.57021857703
 21
8005.069607297478
 31
0.0
  0
LINE
  5
C9
330
C6
100
AcDbEntity
  8
AM_5
  6
ByBlock
100
AcDbLine
 10
34384.57021857703
 20
7988.11008219134
 30
0.0
 11
34384.57021857703
 21
8005.069607297478
 31
0.0
  0
LINE
  5
CA
330
C6
100
AcDbEntity
  8
AM_5
  6
ByBlock
100
AcDbLine
 10
34359.57021857703
 20
8003.069607297479
 30
0.0
 11
34352.57021857703
 21
8003.069607297479
 31
0.0
  0
LINE
  5
CB
330
C6
100
AcDbEntity
  8
AM_5
  6
ByBlock
100
AcDbLine
 10
34391.57021857703
 20
8003.069607297479
 30
0.0
 11
34398.57021857703
 21
8003.069607297479
 31
0.0
  0
LINE
  5
CC
330
C6
100
AcDbEntity
  8
AM_5
  6
ByBlock
100
AcDbLine
 10
34366.57021857703
 20
8003.069607297479
 30
0.0
 11
34384.57021857703
 21
8003.069607297479
 31
0.0
  0
SOLID
  5
CD
330
C6
100
AcDbEntity
  8
AM_5
100
AcDbTrace
 10
34359.57021857703
 20
8004.236273964146
 30
0.0
 11
34359.57021857703
 21
8001.902940630811
 31
0.0
 12
34366.57021857703
 22
8003.069607297479
 32
0.0
 13
34366.57021857703
 23
8003.069607297479
 33
0.0
  0
SOLID
  5
CE
330
C6
100
AcDbEntity
  8
AM_5
100
AcDbTrace
 10
34391.57021857703
 20
8004.236273964146
 30
0.0
 11
34391.57021857703
 21
8001.902940630811
 31
0.0
 12
34384.57021857703
 22
8003.069607297479
 32
0.0
 13
34384.57021857703
 23
8003.069607297479
 33
0.0
  0
MTEXT
  5
CF
330
C6
100
AcDbEntity
  8
AM_5
 62
     2
100
AcDbMText
 10
34375.57021857703
 20
8009.839389016441
 30
0.0
 40
7.0
 41
0.0
 71
     5
 72
     1
  1
%%C18
 73
     1
 44
1.0
1001
ACAD
1000
MTEXTBEGIN
1070
    73
1070
     1
1070
    44
1040
1.0
1070
    74
1070
     0
1000
MTEXTEND
  0
POINT
  5
D0
330
C6
100
AcDbEntity
  8
DEFPOINTS
 62
     0
100
AcDbPoint
 10
34366.57021857703
 20
7986.110082191338
 30
0.0
  0
POINT
  5
D1
330
C6
100
AcDbEntity
  8
DEFPOINTS
 62
     0
100
AcDbPoint
 10
34384.57021857703
 20
7986.110082191341
 30
0.0
  0
POINT
  5
D2
330
C6
100
AcDbEntity
  8
DEFPOINTS
 62
     0
100
AcDbPoint
 10
34384.57021857703
 20
8003.069607297479
 30
0.0
  0
ENDBLK
  5
D3
330
C6
100
AcDbEntity
  8
0
100
AcDbBlockEnd
  0
BLOCK
  5
D6
330
D5
100
AcDbEntity
  8
0
100
AcDbBlockBegin
  2
*D5
 70
     1
 10
0.0
 20
0.0
 30
0.0
  3
*D5
  1

  0
LINE
  5
D7
330
D5
100
AcDbEntity
  8
AM_5
  6
ByBlock
100
AcDbLine
 10
34352.06652671107
 20
8078.100518927893
 30
0.0
 11
34352.06652671107
 21
8095.600518927893
 31
0.0
  0
LINE
  5
D8
330
D5
100
AcDbEntity
  8
AM_5
  6
ByBlock
100
AcDbLine
 10
34300.56652671107
 20
8078.100518927893
 30
0.0
 11
34300.56652671107
 21
8095.600518927893
 31
0.0
  0
LINE
  5
D9
330
D5
100
AcDbEntity
  8
AM_5
  6
ByBlock
100
AcDbLine
 10
34345.06652671107
 20
8093.600518927893
 30
0.0
 11
34307.56652671107
 21
8093.600518927893
 31
0.0
  0
SOLID
  5
DA
330
D5
100
AcDbEntity
  8
AM_5
100
AcDbTrace
 10
34345.06652671107
 20
8094.767185594559
 30
0.0
 11
34345.06652671107
 21
8092.433852261226
 31
0.0
 12
34352.06652671107
 22
8093.600518927893
 32
0.0
 13
34352.06652671107
 23
8093.600518927893
 33
0.0
  0
SOLID
  5
DB
330
D5
100
AcDbEntity
  8
AM_5
100
AcDbTrace
 10
34307.56652671107
 20
8094.767185594559
 30
0.0
 11
34307.56652671107
 21
8092.433852261226
 31
0.0
 12
34300.56652671107
 22
8093.600518927893
 32
0.0
 13
34300.56652671107
 23
8093.600518927893
 33
0.0
  0
MTEXT
  5
DC
330
D5
100
AcDbEntity
  8
AM_5
 62
     2
100
AcDbMText
 10
34326.31652671107
 20
8100.174529841943
 30
0.0
 40
7.0
 41
0.0
 71
     5
 72
     1
  1
51.5
 73
     1
 44
1.0
1001
ACAD
1000
MTEXTBEGIN
1070
    73
1070
     1
1070
    44
1040
1.0
1070
    74
1070
     0
1000
MTEXTEND
1000
ACAD_MTEXT_BBRT
1070
    91
1071
        3
1070
    46
1040
1.1
1070
    64
1071
-1027028792
1070
    65
1000

1070
    66
1000

1070
   442
1071
        0
1000
ACAD_MTEXT_BERT
  0
POINT
  5
DD
330
D5
100
AcDbEntity
  8
DEFPOINTS
 62
     0
100
AcDbPoint
 10
34352.06652671107
 20
8076.100518927892
 30
0.0
  0
POINT
  5
DE
330
D5
100
AcDbEntity
  8
DEFPOINTS
 62
     0
100
AcDbPoint
 10
34300.56652671107
 20
8076.100518927892
 30
0.0
  0
POINT
  5
DF
330
D5
100
AcDbEntity
  8
DEFPOINTS
 62
     0
100
AcDbPoint
 10
34300.56652671107
 20
8093.600518927893
 30
0.0
  0
ENDBLK
  5
E0
330
D5
100
AcDbEntity
  8
0
100
AcDbBlockEnd
  0
BLOCK
  5
E3
330
E2
100
AcDbEntity
  8
0
100
AcDbBlockBegin
  2
*D6
 70
     1
 10
0.0
 20
0.0
 30
0.0
  3
*D6
  1

  0
LINE
  5
E4
330
E2
100
AcDbEntity
  8
AM_5
  6
ByBlock
100
AcDbLine
 10
34298.96874001351
 20
7976.400518927897
 30
0.0
 11
34281.56652671111
 21
7976.400518927897
 31
0.0
  0
LINE
  5
E5
330
E2
100
AcDbEntity
  8
AM_5
  6
ByBlock
100
AcDbLine
 10
34298.86652671108
 20
8076.400518927897
 30
0.0
 11
34281.56652671111
 21
8076.400518927897
 31
0.0
  0
LINE
  5
E6
330
E2
100
AcDbEntity
  8
AM_5
  6
ByBlock
100
AcDbLine
 10
34283.56652671111
 20
7983.400518927898
 30
0.0
 11
34283.56652671111
 21
8069.400518927897
 31
0.0
  0
SOLID
  5
E7
330
E2
100
AcDbEntity
  8
AM_5
100
AcDbTrace
 10
34282.39986004445
 20
7983.400518927898
 30
0.0
 11
34284.73319337778
 21
7983.400518927898
 31
0.0
 12
34283.56652671111
 22
7976.400518927897
 32
0.0
 13
34283.56652671111
 23
7976.400518927897
 33
0.0
  0
SOLID
  5
E8
330
E2
100
AcDbEntity
  8
AM_5
100
AcDbTrace
 10
34282.39986004445
 20
8069.400518927897
 30
0.0
 11
34284.73319337778
 21
8069.400518927897
 31
0.0
 12
34283.56652671111
 22
8076.400518927897
 32
0.0
 13
34283.56652671111
 23
8076.400518927897
 33
0.0
  0
MTEXT
  5
E9
330
E2
100
AcDbEntity
  8
AM_5
 62
     2
100
AcDbMText
 10
34276.99251579705
 20
8026.400518927887
 30
0.0
 40
7.0
 41
0.0
 71
     5
 72
     1
  1
100
 11
0.0000000000000001
 21
1.0
 31
0.0
 73
     1
 44
1.0
1001
ACAD
1000
MTEXTBEGIN
1070
    73
1070
     1
1070
    44
1040
1.0
1070
    74
1070
     0
1000
MTEXTEND
  0
POINT
  5
EA
330
E2
100
AcDbEntity
  8
DEFPOINTS
 62
     0
100
AcDbPoint
 10
34300.96874001351
 20
7976.400518927897
 30
0.0
  0
POINT
  5
EB
330
E2
100
AcDbEntity
  8
DEFPOINTS
 62
     0
100
AcDbPoint
 10
34300.86652671108
 20
8076.400518927897
 30
0.0
  0
POINT
  5
EC
330
E2
100
AcDbEntity
  8
DEFPOINTS
 62
     0
100
AcDbPoint
 10
34283.56652671111
 20
8076.400518927897
 30
0.0
  0
ENDBLK
  5
ED
330
E2
100
AcDbEntity
  8
0
100
AcDbBlockEnd
  0
BLOCK
  5
8E
330
8D
100
AcDbEntity
  8
0
100
AcDbBlockBegin
  2
*D7
 70
     1
 10
0.0
 20
0.0
 30
0.0
  3
*D7
  1

  0
LINE
  5
8F
330
8D
100
AcDbEntity
  8
AM_5
  6
ByBlock
100
AcDbLine
 10
34425.56652671107
 20
7974.700518927895
 30
0.0
 11
34425.56652671107
 21
7957.624335844006
 31
0.0
  0
LINE
  5
90
330
8D
100
AcDbEntity
  8
AM_5
  6
ByBlock
100
AcDbLine
 10
34375.56652671107
 20
7971.624335844008
 30
0.0
 11
34375.56652671107
 21
7957.624335844006
 31
0.0
  0
LINE
  5
91
330
8D
100
AcDbEntity
  8
AM_5
  6
ByBlock
100
AcDbLine
 10
34418.56652671107
 20
7959.624335844008
 30
0.0
 11
34382.56652671107
 21
7959.624335844008
 31
0.0
  0
SOLID
  5
92
330
8D
100
AcDbEntity
  8
AM_5
100
AcDbTrace
 10
34418.56652671107
 20
7960.791002510674
 30
0.0
 11
34418.56652671107
 21
7958.457669177341
 31
0.0
 12
34425.56652671107
 22
7959.624335844008
 32
0.0
 13
34425.56652671107
 23
7959.624335844008
 33
0.0
  0
SOLID
  5
94
330
8D
100
AcDbEntity
  8
AM_5
100
AcDbTrace
 10
34382.56652671107
 20
7960.791002510674
 30
0.0
 11
34382.56652671107
 21
7958.457669177341
 31
0.0
 12
34375.56652671107
 22
7959.624335844008
 32
0.0
 13
34375.56652671107
 23
7959.624335844008
 33
0.0
  0
MTEXT
  5
95
330
8D
100
AcDbEntity
  8
AM_5
 62
     2
100
AcDbMText
 10
34400.56652671107
 20
7966.198346758059
 30
0.0
 40
7.0
 41
0.0
 71
     5
 72
     1
  1
50
 73
     1
 44
1.0
1001
ACAD
1000
MTEXTBEGIN
1070
    73
1070
     1
1070
    44
1040
1.0
1070
    74
1070
     0
1000
MTEXTEND
  0
POINT
  5
96
330
8D
100
AcDbEntity
  8
DEFPOINTS
 62
     0
100
AcDbPoint
 10
34425.56652671107
 20
7976.700518927895
 30
0.0
  0
POINT
  5
97
330
8D
100
AcDbEntity
  8
DEFPOINTS
 62
     0
100
AcDbPoint
 10
34375.56652671107
 20
7973.624335844007
 30
0.0
  0
POINT
  5
98
330
8D
100
AcDbEntity
  8
DEFPOINTS
 62
     0
100
AcDbPoint
 10
34375.56652671107
 20
7959.624335844008
 30
0.0
  0
ENDBLK
  5
99
330
8D
100
AcDbEntity
  8
0
100
AcDbBlockEnd
  0
BLOCK
  5
9E
330
9D
100
AcDbEntity
  8
0
100
AcDbBlockBegin
  2
*D8
 70
     1
 10
0.0
 20
0.0
 30
0.0
  3
*D8
  1

  0
LINE
  5
9F
330
9D
100
AcDbEntity
  8
AM_5
  6
ByBlock
100
AcDbLine
 10
34375.56652671107
 20
7971.624335844008
 30
0.0
 11
34375.56652671107
 21
7957.624335844006
 31
0.0
  0
LINE
  5
A0
330
9D
100
AcDbEntity
  8
AM_5
  6
ByBlock
100
AcDbLine
 10
34300.56652671107
 20
7974.700518927895
 30
0.0
 11
34300.56652671107
 21
7957.624335844006
 31
0.0
  0
LINE
  5
A1
330
9D
100
AcDbEntity
  8
AM_5
  6
ByBlock
100
AcDbLine
 10
34368.56652671107
 20
7959.624335844008
 30
0.0
 11
34307.56652671107
 21
7959.624335844008
 31
0.0
  0
SOLID
  5
A2
330
9D
100
AcDbEntity
  8
AM_5
100
AcDbTrace
 10
34368.56652671107
 20
7960.791002510674
 30
0.0
 11
34368.56652671107
 21
7958.457669177341
 31
0.0
 12
34375.56652671107
 22
7959.624335844008
 32
0.0
 13
34375.56652671107
 23
7959.624335844008
 33
0.0
  0
SOLID
  5
A3
330
9D
100
AcDbEntity
  8
AM_5
100
AcDbTrace
 10
34307.56652671107
 20
7960.791002510674
 30
0.0
 11
34307.56652671107
 21
7958.457669177341
 31
0.0
 12
34300.56652671107
 22
7959.624335844008
 32
0.0
 13
34300.56652671107
 23
7959.624335844008
 33
0.0
  0
MTEXT
  5
A4
330
9D
100
AcDbEntity
  8
AM_5
 62
     2
100
AcDbMText
 10
34338.06652671107
 20
7966.184022065016
 30
0.0
 40
7.0
 41
0.0
 71
     5
 72
     1
  1
75
 73
     1
 44
1.0
1001
ACAD
1000
MTEXTBEGIN
1070
    73
1070
     1
1070
    44
1040
1.0
1070
    74
1070
     0
1000
MTEXTEND
  0
POINT
  5
A5
330
9D
100
AcDbEntity
  8
DEFPOINTS
 62
     0
100
AcDbPoint
 10
34375.56652671107
 20
7973.624335844007
 30
0.0
  0
POINT
  5
A6
330
9D
100
AcDbEntity
  8
DEFPOINTS
 62
     0
100
AcDbPoint
 10
34300.56652671107
 20
7976.700518927895
 30
0.0
  0
POINT
  5
A7
330
9D
100
AcDbEntity
  8
DEFPOINTS
 62
     0
100
AcDbPoint
 10
34300.56652671107
 20
7959.624335844008
 30
0.0
  0
ENDBLK
  5
A8
330
9D
100
AcDbEntity
  8
0
100
AcDbBlockEnd
  0
BLOCK
  5
AB
330
AA
100
AcDbEntity
  8
0
100
AcDbBlockBegin
  2
*D9
 70
     1
 10
0.0
 20
0.0
 30
0.0
  3
*D9
  1

  0
LINE
  5
AC
330
AA
100
AcDbEntity
  8
AM_5
  6
ByBlock
100
AcDbLine
 10
34425.56652671107
 20
7974.700518927895
 30
0.0
 11
34425.56652671107
 21
7940.624335844006
 31
0.0
  0
LINE
  5
AD
330
AA
100
AcDbEntity
  8
AM_5
  6
ByBlock
100
AcDbLine
 10
34300.56652671107
 20
7974.700518927895
 30
0.0
 11
34300.56652671107
 21
7940.624335844006
 31
0.0
  0
LINE
  5
AE
330
AA
100
AcDbEntity
  8
AM_5
  6
ByBlock
100
AcDbLine
 10
34418.56652671107
 20
7942.624335844008
 30
0.0
 11
34307.56652671107
 21
7942.624335844008
 31
0.0
  0
SOLID
  5
AF
330
AA
100
AcDbEntity
  8
AM_5
100
AcDbTrace
 10
34418.56652671107
 20
7943.791002510675
 30
0.0
 11
34418.56652671107
 21
7941.45766917734
 31
0.0
 12
34425.56652671107
 22
7942.624335844008
 32
0.0
 13
34425.56652671107
 23
7942.624335844008
 33
0.0
  0
SOLID
  5
B0
330
AA
100
AcDbEntity
  8
AM_5
100
AcDbTrace
 10
34307.56652671107
 20
7943.791002510675
 30
0.0
 11
34307.56652671107
 21
7941.45766917734
 31
0.0
 12
34300.56652671107
 22
7942.624335844008
 32
0.0
 13
34300.56652671107
 23
7942.624335844008
 33
0.0
  0
MTEXT
  5
B1
330
AA
100
AcDbEntity
  8
AM_5
 62
     2
100
AcDbMText
 10
34363.06652671107
 20
7949.198346758058
 30
0.0
 40
7.0
 41
0.0
 71
     5
 72
     1
  1
125
 73
     1
 44
1.0
1001
ACAD
1000
MTEXTBEGIN
1070
    73
1070
     1
1070
    44
1040
1.0
1070
    74
1070
     0
1000
MTEXTEND
  0
POINT
  5
B2
330
AA
100
AcDbEntity
  8
DEFPOINTS
 62
     0
100
AcDbPoint
 10
34425.56652671107
 20
7976.700518927895
 30
0.0
  0
POINT
  5
B3
330
AA
100
AcDbEntity
  8
DEFPOINTS
 62
     0
100
AcDbPoint
 10
34300.56652671107
 20
7976.700518927895
 30
0.0
  0
POINT
  5
B4
330
AA
100
AcDbEntity
  8
DEFPOINTS
 62
     0
100
AcDbPoint
 10
34300.56652671107
 20
7942.624335844008
 30
0.0
  0
ENDBLK
  5
B5
330
AA
100
AcDbEntity
  8
0
100
AcDbBlockEnd
  0
BLOCK
  5
15D
330
15C
100
AcDbEntity
  8
0
100
AcDbBlockBegin
  2
*D10
 70
     1
 10
0.0
 20
0.0
 30
0.0
  3
*D10
  1

  0
LINE
  5
15E
330
15C
100
AcDbEntity
  8
AM_5
  6
ByBlock
100
AcDbLine
 10
34300.56652671107
 20
7708.962156077181
 30
0.0
 11
34300.56652671107
 21
7764.962156077181
 31
0.0
  0
LINE
  5
15F
330
15C
100
AcDbEntity
  8
AM_5
  6
ByBlock
100
AcDbLine
 10
34425.56571499545
 20
7708.962156077181
 30
0.0
 11
34425.56571499545
 21
7764.962156077181
 31
0.0
  0
LINE
  5
160
330
15C
100
AcDbEntity
  8
AM_5
  6
ByBlock
100
AcDbLine
 10
34314.56652671107
 20
7760.96215607718
 30
0.0
 11
34411.56571499545
 21
7760.96215607718
 31
0.0
  0
SOLID
  5
161
330
15C
100
AcDbEntity
  8
AM_5
100
AcDbTrace
 10
34314.56652671107
 20
7763.295489410514
 30
0.0
 11
34314.56652671107
 21
7758.628822743848
 31
0.0
 12
34300.56652671107
 22
7760.96215607718
 32
0.0
 13
34300.56652671107
 23
7760.96215607718
 33
0.0
  0
SOLID
  5
162
330
15C
100
AcDbEntity
  8
AM_5
100
AcDbTrace
 10
34411.56571499545
 20
7763.295489410514
 30
0.0
 11
34411.56571499545
 21
7758.628822743848
 31
0.0
 12
34425.56571499545
 22
7760.96215607718
 32
0.0
 13
34425.56571499545
 23
7760.96215607718
 33
0.0
  0
MTEXT
  5
163
330
15C
100
AcDbEntity
  8
AM_5
 62
     2
100
AcDbMText
 10
34363.06612085326
 20
7774.110177905284
 30
0.0
 40
14.0
 41
0.0
 71
     5
 72
     1
  1
125
 73
     1
 44
1.0
1001
ACAD
1000
MTEXTBEGIN
1070
    73
1070
     1
1070
    44
1040
1.0
1070
    74
1070
     0
1000
MTEXTEND
  0
POINT
  5
164
330
15C
100
AcDbEntity
  8
DEFPOINTS
 62
     0
100
AcDbPoint
 10
34300.56652671107
 20
7704.962156077179
 30
0.0
  0
POINT
  5
165
330
15C
100
AcDbEntity
  8
DEFPOINTS
 62
     0
100
AcDbPoint
 10
34425.56571499545
 20
7704.962156077179
 30
0.0
  0
POINT
  5
166
330
15C
100
AcDbEntity
  8
DEFPOINTS
 62
     0
100
AcDbPoint
 10
34425.56571499545
 20
7760.96215607718
 30
0.0
  0
ENDBLK
  5
167
330
15C
100
AcDbEntity
  8
0
100
AcDbBlockEnd
  0
BLOCK
  5
16A
330
169
100
AcDbEntity
  8
0
100
AcDbBlockBegin
  2
*D11
 70
     1
 10
0.0
 20
0.0
 30
0.0
  3
*D11
  1

  0
LINE
  5
16B
330
169
100
AcDbEntity
  8
AM_5
  6
ByBlock
100
AcDbLine
 10
34375.57021859555
 20
7708.962156077181
 30
0.0
 11
34375.57021859555
 21
7736.96215607718
 31
0.0
  0
LINE
  5
16C
330
169
100
AcDbEntity
  8
AM_5
  6
ByBlock
100
AcDbLine
 10
34425.56571499545
 20
7708.962156077181
 30
0.0
 11
34425.56571499545
 21
7736.96215607718
 31
0.0
  0
LINE
  5
16D
330
169
100
AcDbEntity
  8
AM_5
  6
ByBlock
100
AcDbLine
 10
34389.57021859555
 20
7732.96215607718
 30
0.0
 11
34411.56571499545
 21
7732.96215607718
 31
0.0
  0
SOLID
  5
16E
330
169
100
AcDbEntity
  8
AM_5
100
AcDbTrace
 10
34389.57021859555
 20
7735.295489410514
 30
0.0
 11
34389.57021859555
 21
7730.628822743847
 31
0.0
 12
34375.57021859555
 22
7732.96215607718
 32
0.0
 13
34375.57021859555
 23
7732.96215607718
 33
0.0
  0
SOLID
  5
16F
330
169
100
AcDbEntity
  8
AM_5
100
AcDbTrace
 10
34411.56571499545
 20
7735.295489410514
 30
0.0
 11
34411.56571499545
 21
7730.628822743847
 31
0.0
 12
34425.56571499545
 22
7732.96215607718
 32
0.0
 13
34425.56571499545
 23
7732.96215607718
 33
0.0
  0
MTEXT
  5
170
330
169
100
AcDbEntity
  8
AM_5
 62
     2
100
AcDbMText
 10
34400.5679667955
 20
7746.110177905284
 30
0.0
 40
14.0
 41
0.0
 71
     5
 72
     1
  1
50
 73
     1
 44
1.0
1001
ACAD
1000
MTEXTBEGIN
1070
    73
1070
     1
1070
    44
1040
1.0
1070
    74
1070
     0
1000
MTEXTEND
  0
POINT
  5
171
330
169
100
AcDbEntity
  8
DEFPOINTS
 62
     0
100
AcDbPoint
 10
34375.57021859555
 20
7704.962156077179
 30
0.0
  0
POINT
  5
172
330
169
100
AcDbEntity
  8
DEFPOINTS
 62
     0
100
AcDbPoint
 10
34425.56571499545
 20
7704.962156077179
 30
0.0
  0
POINT
  5
173
330
169
100
AcDbEntity
  8
DEFPOINTS
 62
     0
100
AcDbPoint
 10
34425.56571499545
 20
7732.96215607718
 30
0.0
  0
ENDBLK
  5
174
330
169
100
AcDbEntity
  8
0
100
AcDbBlockEnd
  0
BLOCK
  5
177
330
176
100
AcDbEntity
  8
0
100
AcDbBlockBegin
  2
*D12
 70
     1
 10
0.0
 20
0.0
 30
0.0
  3
*D12
  1

  0
LINE
  5
178
330
176
100
AcDbEntity
  8
AM_5
  6
ByBlock
100
AcDbLine
 10
34296.56652671108
 20
7304.962156077184
 30
0.0
 11
34268.56652671108
 21
7304.962156077184
 31
0.0
  0
LINE
  5
179
330
176
100
AcDbEntity
  8
AM_5
  6
ByBlock
100
AcDbLine
 10
34296.56652671108
 20
7704.962156077184
 30
0.0
 11
34268.56652671108
 21
7704.962156077184
 31
0.0
  0
LINE
  5
17A
330
176
100
AcDbEntity
  8
AM_5
  6
ByBlock
100
AcDbLine
 10
34272.56652671108
 20
7318.962156077184
 30
0.0
 11
34272.56652671108
 21
7690.962156077183
 31
0.0
  0
SOLID
  5
17B
330
176
100
AcDbEntity
  8
AM_5
100
AcDbTrace
 10
34270.23319337775
 20
7318.962156077184
 30
0.0
 11
34274.89986004442
 21
7318.962156077184
 31
0.0
 12
34272.56652671108
 22
7304.962156077184
 32
0.0
 13
34272.56652671108
 23
7304.962156077184
 33
0.0
  0
SOLID
  5
17C
330
176
100
AcDbEntity
  8
AM_5
100
AcDbTrace
 10
34270.23319337775
 20
7690.962156077183
 30
0.0
 11
34274.89986004442
 21
7690.962156077183
 31
0.0
 12
34272.56652671108
 22
7704.962156077184
 32
0.0
 13
34272.56652671108
 23
7704.962156077184
 33
0.0
  0
MTEXT
  5
17D
330
176
100
AcDbEntity
  8
AM_5
 62
     2
100
AcDbMText
 10
34259.41850488297
 20
7504.962156077173
 30
0.0
 40
14.0
 41
0.0
 71
     5
 72
     1
  1
400
 11
0.0000000000000001
 21
1.0
 31
0.0
 73
     1
 44
1.0
1001
ACAD
1000
MTEXTBEGIN
1070
    73
1070
     1
1070
    44
1040
1.0
1070
    74
1070
     0
1000
MTEXTEND
  0
POINT
  5
17E
330
176
100
AcDbEntity
  8
DEFPOINTS
 62
     0
100
AcDbPoint
 10
34300.56652671108
 20
7304.962156077184
 30
0.0
  0
POINT
  5
17F
330
176
100
AcDbEntity
  8
DEFPOINTS
 62
     0
100
AcDbPoint
 10
34300.56652671108
 20
7704.962156077184
 30
0.0
  0
POINT
  5
180
330
176
100
AcDbEntity
  8
DEFPOINTS
 62
     0
100
AcDbPoint
 10
34272.56652671108
 20
7704.962156077184
 30
0.0
  0
ENDBLK
  5
181
330
176
100
AcDbEntity
  8
0
100
AcDbBlockEnd
  0
BLOCK
  5
184
330
183
100
AcDbEntity
  8
0
100
AcDbBlockBegin
  2
*D13
 70
     1
 10
0.0
 20
0.0
 30
0.0
  3
*D13
  1

  0
LINE
  5
185
330
183
100
AcDbEntity
  8
AM_5
  6
ByBlock
100
AcDbLine
 10
34392.56652671108
 20
7579.962156077184
 30
0.0
 11
34457.56571499547
 21
7579.962156077184
 31
0.0
  0
LINE
  5
186
330
183
100
AcDbEntity
  8
AM_5
  6
ByBlock
100
AcDbLine
 10
34429.56490327985
 20
7704.962156077184
 30
0.0
 11
34457.56571499547
 21
7704.962156077184
 31
0.0
  0
LINE
  5
187
330
183
100
AcDbEntity
  8
AM_5
  6
ByBlock
100
AcDbLine
 10
34453.56571499547
 20
7593.962156077184
 30
0.0
 11
34453.56571499547
 21
7690.962156077183
 31
0.0
  0
SOLID
  5
188
330
183
100
AcDbEntity
  8
AM_5
100
AcDbTrace
 10
34451.23238166213
 20
7593.962156077184
 30
0.0
 11
34455.8990483288
 21
7593.962156077184
 31
0.0
 12
34453.56571499547
 22
7579.962156077184
 32
0.0
 13
34453.56571499547
 23
7579.962156077184
 33
0.0
  0
SOLID
  5
189
330
183
100
AcDbEntity
  8
AM_5
100
AcDbTrace
 10
34451.23238166213
 20
7690.962156077183
 30
0.0
 11
34455.8990483288
 21
7690.962156077183
 31
0.0
 12
34453.56571499547
 22
7704.962156077184
 32
0.0
 13
34453.56571499547
 23
7704.962156077184
 33
0.0
  0
MTEXT
  5
18A
330
183
100
AcDbEntity
  8
AM_5
 62
     2
100
AcDbMText
 10
34440.41769316735
 20
7642.462156077172
 30
0.0
 40
14.0
 41
0.0
 71
     5
 72
     1
  1
125
 11
0.0000000000000001
 21
1.0
 31
0.0
 73
     1
 44
1.0
1001
ACAD
1000
MTEXTBEGIN
1070
    73
1070
     1
1070
    44
1040
1.0
1070
    74
1070
     0
1000
MTEXTEND
  0
POINT
  5
18B
330
183
100
AcDbEntity
  8
DEFPOINTS
 62
     0
100
AcDbPoint
 10
34388.56652671108
 20
7579.962156077184
 30
0.0
  0
POINT
  5
18C
330
183
100
AcDbEntity
  8
DEFPOINTS
 62
     0
100
AcDbPoint
 10
34425.56490327985
 20
7704.962156077184
 30
0.0
  0
POINT
  5
18D
330
183
100
AcDbEntity
  8
DEFPOINTS
 62
     0
100
AcDbPoint
 10
34453.56571499547
 20
7704.962156077184
 30
0.0
  0
ENDBLK
  5
18E
330
183
100
AcDbEntity
  8
0
100
AcDbBlockEnd
  0
BLOCK
  5
191
330
190
100
AcDbEntity
  8
0
100
AcDbBlockBegin
  2
*D14
 70
     1
 10
0.0
 20
0.0
 30
0.0
  3
*D14
  1

  0
LINE
  5
192
330
190
100
AcDbEntity
  8
AM_5
  6
ByBlock
100
AcDbLine
 10
34704.56652671108
 20
7304.962156077178
 30
0.0
 11
34760.56652671108
 21
7304.962156077178
 31
0.0
  0
LINE
  5
193
330
190
100
AcDbEntity
  8
AM_5
  6
ByBlock
100
AcDbLine
 10
34704.56652671108
 20
7429.96134436156
 30
0.0
 11
34760.56652671108
 21
7429.96134436156
 31
0.0
  0
LINE
  5
194
330
190
100
AcDbEntity
  8
AM_5
  6
ByBlock
100
AcDbLine
 10
34756.56652671108
 20
7318.962156077178
 30
0.0
 11
34756.56652671108
 21
7415.961344361559
 31
0.0
  0
SOLID
  5
195
330
190
100
AcDbEntity
  8
AM_5
100
AcDbTrace
 10
34754.23319337775
 20
7318.962156077178
 30
0.0
 11
34758.89986004442
 21
7318.962156077178
 31
0.0
 12
34756.56652671108
 22
7304.962156077178
 32
0.0
 13
34756.56652671108
 23
7304.962156077178
 33
0.0
  0
SOLID
  5
196
330
190
100
AcDbEntity
  8
AM_5
100
AcDbTrace
 10
34754.23319337775
 20
7415.961344361559
 30
0.0
 11
34758.89986004442
 21
7415.961344361559
 31
0.0
 12
34756.56652671108
 22
7429.96134436156
 32
0.0
 13
34756.56652671108
 23
7429.96134436156
 33
0.0
  0
MTEXT
  5
197
330
190
100
AcDbEntity
  8
AM_5
 62
     2
100
AcDbMText
 10
34743.41850488297
 20
7367.461750219359
 30
0.0
 40
14.0
 41
0.0
 71
     5
 72
     1
  1
125
 11
0.0000000000000001
 21
1.0
 31
0.0
 73
     1
 44
1.0
1001
ACAD
1000
MTEXTBEGIN
1070
    73
1070
     1
1070
    44
1040
1.0
1070
    74
1070
     0
1000
MTEXTEND
  0
POINT
  5
198
330
190
100
AcDbEntity
  8
DEFPOINTS
 62
     0
100
AcDbPoint
 10
34700.56652671108
 20
7304.962156077178
 30
0.0
  0
POINT
  5
199
330
190
100
AcDbEntity
  8
DEFPOINTS
 62
     0
100
AcDbPoint
 10
34700.56652671108
 20
7429.96134436156
 30
0.0
  0
POINT
  5
19A
330
190
100
AcDbEntity
  8
DEFPOINTS
 62
     0
100
AcDbPoint
 10
34756.56652671108
 20
7429.96134436156
 30
0.0
  0
ENDBLK
  5
19B
330
190
100
AcDbEntity
  8
0
100
AcDbBlockEnd
  0
BLOCK
  5
19E
330
19D
100
AcDbEntity
  8
0
100
AcDbBlockBegin
  2
*D15
 70
     1
 10
0.0
 20
0.0
 30
0.0
  3
*D15
  1

  0
LINE
  5
19F
330
19D
100
AcDbEntity
  8
AM_5
  6
ByBlock
100
AcDbLine
 10
34704.56652671108
 20
7379.965847961662
 30
0.0
 11
34732.56652671108
 21
7379.965847961662
 31
0.0
  0
LINE
  5
1A0
330
19D
100
AcDbEntity
  8
AM_5
  6
ByBlock
100
AcDbLine
 10
34704.56652671108
 20
7429.96134436156
 30
0.0
 11
34732.56652671108
 21
7429.96134436156
 31
0.0
  0
LINE
  5
1A1
330
19D
100
AcDbEntity
  8
AM_5
  6
ByBlock
100
AcDbLine
 10
34728.56652671108
 20
7393.965847961663
 30
0.0
 11
34728.56652671108
 21
7415.961344361559
 31
0.0
  0
SOLID
  5
1A2
330
19D
100
AcDbEntity
  8
AM_5
100
AcDbTrace
 10
34726.23319337775
 20
7393.965847961663
 30
0.0
 11
34730.89986004442
 21
7393.965847961663
 31
0.0
 12
34728.56652671108
 22
7379.965847961662
 32
0.0
 13
34728.56652671108
 23
7379.965847961662
 33
0.0
  0
SOLID
  5
1A3
330
19D
100
AcDbEntity
  8
AM_5
100
AcDbTrace
 10
34726.23319337775
 20
7415.961344361559
 30
0.0
 11
34730.89986004442
 21
7415.961344361559
 31
0.0
 12
34728.56652671108
 22
7429.96134436156
 32
0.0
 13
34728.56652671108
 23
7429.96134436156
 33
0.0
  0
MTEXT
  5
1A4
330
19D
100
AcDbEntity
  8
AM_5
 62
     2
100
AcDbMText
 10
34715.41850488297
 20
7404.9635961616
 30
0.0
 40
14.0
 41
0.0
 71
     5
 72
     1
  1
50
 11
0.0000000000000001
 21
1.0
 31
0.0
 73
     1
 44
1.0
1001
ACAD
1000
MTEXTBEGIN
1070
    73
1070
     1
1070
    44
1040
1.0
1070
    74
1070
     0
1000
MTEXTEND
  0
POINT
  5
1A5
330
19D
100
AcDbEntity
  8
DEFPOINTS
 62
     0
100
AcDbPoint
 10
34700.56652671108
 20
7379.965847961662
 30
0.0
  0
POINT
  5
1A6
330
19D
100
AcDbEntity
  8
DEFPOINTS
 62
     0
100
AcDbPoint
 10
34700.56652671108
 20
7429.96134436156
 30
0.0
  0
POINT
  5
1A7
330
19D
100
AcDbEntity
  8
DEFPOINTS
 62
     0
100
AcDbPoint
 10
34728.56652671108
 20
7429.96134436156
 30
0.0
  0
ENDBLK
  5
1A8
330
19D
100
AcDbEntity
  8
0
100
AcDbBlockEnd
  0
BLOCK
  5
1AB
330
1AA
100
AcDbEntity
  8
0
100
AcDbBlockBegin
  2
*D16
 70
     1
 10
0.0
 20
0.0
 30
0.0
  3
*D16
  1

  0
LINE
  5
1AC
330
1AA
100
AcDbEntity
  8
AM_5
  6
ByBlock
100
AcDbLine
 10
34300.56652671107
 20
7300.962156077182
 30
0.0
 11
34300.56652671107
 21
7272.962156077203
 31
0.0
  0
LINE
  5
1AD
330
1AA
100
AcDbEntity
  8
AM_5
  6
ByBlock
100
AcDbLine
 10
34700.56652671107
 20
7300.962156077173
 30
0.0
 11
34700.56652671107
 21
7272.962156077203
 31
0.0
  0
LINE
  5
1AE
330
1AA
100
AcDbEntity
  8
AM_5
  6
ByBlock
100
AcDbLine
 10
34314.56652671107
 20
7276.962156077203
 30
0.0
 11
34686.56652671107
 21
7276.962156077203
 31
0.0
  0
SOLID
  5
1AF
330
1AA
100
AcDbEntity
  8
AM_5
100
AcDbTrace
 10
34314.56652671107
 20
7279.295489410536
 30
0.0
 11
34314.56652671107
 21
7274.62882274387
 31
0.0
 12
34300.56652671107
 22
7276.962156077203
 32
0.0
 13
34300.56652671107
 23
7276.962156077203
 33
0.0
  0
SOLID
  5
1B0
330
1AA
100
AcDbEntity
  8
AM_5
100
AcDbTrace
 10
34686.56652671107
 20
7279.295489410536
 30
0.0
 11
34686.56652671107
 21
7274.62882274387
 31
0.0
 12
34700.56652671107
 22
7276.962156077203
 32
0.0
 13
34700.56652671107
 23
7276.962156077203
 33
0.0
  0
MTEXT
  5
1B1
330
1AA
100
AcDbEntity
  8
AM_5
 62
     2
100
AcDbMText
 10
34500.56652671107
 20
7290.110177905306
 30
0.0
 40
14.0
 41
0.0
 71
     5
 72
     1
  1
400
 73
     1
 44
1.0
1001
ACAD
1000
MTEXTBEGIN
1070
    73
1070
     1
1070
    44
1040
1.0
1070
    74
1070
     0
1000
MTEXTEND
  0
POINT
  5
1B2
330
1AA
100
AcDbEntity
  8
DEFPOINTS
 62
     0
100
AcDbPoint
 10
34300.56652671107
 20
7304.962156077181
 30
0.0
  0
POINT
  5
1B3
330
1AA
100
AcDbEntity
  8
DEFPOINTS
 62
     0
100
AcDbPoint
 10
34700.56652671107
 20
7304.962156077174
 30
0.0
  0
POINT
  5
1B4
330
1AA
100
AcDbEntity
  8
DEFPOINTS
 62
     0
100
AcDbPoint
 10
34700.56652671107
 20
7276.962156077203
 30
0.0
  0
ENDBLK
  5
1B5
330
1AA
100
AcDbEntity
  8
0
100
AcDbBlockEnd
  0
BLOCK
  5
1B8
330
1B7
100
AcDbEntity
  8
0
100
AcDbBlockBegin
  2
*D17
 70
     1
 10
0.0
 20
0.0
 30
0.0
  3
*D17
  1

  0
LINE
  5
1B9
330
1B7
100
AcDbEntity
  8
AM_5
  6
ByBlock
100
AcDbLine
 10
34575.56652671107
 20
7396.962156077174
 30
0.0
 11
34575.56652671107
 21
7461.961344361586
 31
0.0
  0
LINE
  5
1BA
330
1B7
100
AcDbEntity
  8
AM_5
  6
ByBlock
100
AcDbLine
 10
34700.56652671107
 20
7433.960532645939
 30
0.0
 11
34700.56652671107
 21
7461.961344361586
 31
0.0
  0
LINE
  5
1BB
330
1B7
100
AcDbEntity
  8
AM_5
  6
ByBlock
100
AcDbLine
 10
34589.56652671107
 20
7457.961344361585
 30
0.0
 11
34686.56652671107
 21
7457.961344361585
 31
0.0
  0
SOLID
  5
1BC
330
1B7
100
AcDbEntity
  8
AM_5
100
AcDbTrace
 10
34589.56652671107
 20
7460.294677694918
 30
0.0
 11
34589.56652671107
 21
7455.628011028252
 31
0.0
 12
34575.56652671107
 22
7457.961344361585
 32
0.0
 13
34575.56652671107
 23
7457.961344361585
 33
0.0
  0
SOLID
  5
1BD
330
1B7
100
AcDbEntity
  8
AM_5
100
AcDbTrace
 10
34686.56652671107
 20
7460.294677694918
 30
0.0
 11
34686.56652671107
 21
7455.628011028252
 31
0.0
 12
34700.56652671107
 22
7457.961344361585
 32
0.0
 13
34700.56652671107
 23
7457.961344361585
 33
0.0
  0
MTEXT
  5
1BE
330
1B7
100
AcDbEntity
  8
AM_5
 62
     2
100
AcDbMText
 10
34638.06652671107
 20
7471.10936618969
 30
0.0
 40
14.0
 41
0.0
 71
     5
 72
     1
  1
125
 73
     1
 44
1.0
1001
ACAD
1000
MTEXTBEGIN
1070
    73
1070
     1
1070
    44
1040
1.0
1070
    74
1070
     0
1000
MTEXTEND
  0
POINT
  5
1BF
330
1B7
100
AcDbEntity
  8
DEFPOINTS
 62
     0
100
AcDbPoint
 10
34575.56652671107
 20
7392.962156077174
 30
0.0
  0
POINT
  5
1C0
330
1B7
100
AcDbEntity
  8
DEFPOINTS
 62
     0
100
AcDbPoint
 10
34700.56652671107
 20
7429.960532645939
 30
0.0
  0
POINT
  5
1C1
330
1B7
100
AcDbEntity
  8
DEFPOINTS
 62
     0
100
AcDbPoint
 10
34700.56652671107
 20
7457.961344361585
 30
0.0
  0
ENDBLK
  5
1C2
330
1B7
100
AcDbEntity
  8
0
100
AcDbBlockEnd
  0
BLOCK
  5
1C5
330
1C4
100
AcDbEntity
  8
0
100
AcDbBlockBegin
  2
Copyright_STEMPEL
 70
     0
 10
0.0
 20
0.0
 30
0.0
  3
Copyright_STEMPEL
  1

  0
LWPOLYLINE
  5
1C6
330
1C4
100
AcDbEntity
  8
DEFPOINTS
 62
     5
100
AcDbPolyline
 90
        4
 70
     1
 43
0.0
 10
0.0
 20
0.0
 10
1202.677593405797
 20
0.0
 10
1202.726711620808
 20
262.8636621728074
 10
-0.0491182150117311
 20
262.8636621728074
  0
LINE
  5
1C7
330
1C4
100
AcDbEntity
  8
DEFPOINTS
 62
     5
100
AcDbLine
 10
526.7915803193163
 20
262.8636621728074
 30
0.0
 11
526.7915803193163
 21
0.0
 31
0.0
  0
MTEXT
  5
1C8
102
{ACAD_XDICTIONARY
360
1C9
102
}
330
1C4
100
AcDbEntity
  8
DEFPOINTS
 62
     5
100
AcDbMText
 10
536.8054341163797
 20
178.9138493061764
 30
0.0
 40
21.02909297382428
 41
282.9929776334785
 71
     1
 72
     5
  1
{\fCentury Gothic|b0|i0|c0|p34;Industriestra\U+00DFe 7-10\P74740 Adelsheim\PTel.: 06291-6259-0\PFax: 06291-6259-11\Pwww.glassline.de}
 73
     1
 44
1.0
1001
AcDbBlockRepETag
1070
     1
1071
        4
1005
0
1001
ACAD
1000
MTEXTBEGIN
1070
    73
1070
     1
1070
    44
1040
1.0
1070
    74
1070
     0
1000
MTEXTEND
1000
ACAD_MTEXT_DEFINED_HEIGHT_BEGIN
1070
    46
1040
143.7440021806846
1000
ACAD_MTEXT_DEFINED_HEIGHT_END
  0
IMAGE
  5
1CB
330
1C4
100
AcDbEntity
  8
DEFPOINTS
 92
      140
310
8C00000001000000840000000600000005000000F8FC0F2855768040001A6BBEAF9D67400000000000000000F8FC0F2855768040D02F6D8FD16D704000000000000000007AC75832366A8B40D02F6D8FD16D704000000000000000007AC75832366A8B40001A6BBEAF9D67400000000000000000F8FC0F2855768040001A6B
310
BEAF9D67400000000000000000
100
AcDbRasterImage
 90
        0
 10
526.7915803193163
 20
188.9277031032397
 30
0.0
 11
0.7109226833612007
 21
0.0
 31
0.0
 12
0.0
 22
0.7109226833612007
 32
0.0
 13
493.0
 23
104.0
340
1CC
 70
     7
280
     0
281
    50
282
    50
283
     0
360
1CE
 71
     1
 91
        2
 14
-0.5
 24
-0.5
 14
492.4999999999999
 24
103.5
1001
AcDbBlockRepETag
1070
     1
1071
       21
1005
0
  0
IMAGE
  5
1D0
330
1C4
100
AcDbEntity
  8
DEFPOINTS
 62
     5
 92
      140
310
8C0000000100000084000000060000000500000038107886E75E8D400000000000000000000000000000000038107886E75E8D40C02F6D8FD16D704000000000000000000C541727E8CA9240C02F6D8FD16D704000000000000000000C541727E8CA92400000000000000000000000000000000038107886E75E8D40000000
310
00000000000000000000000000
100
AcDbRasterImage
 90
        0
 10
939.8630494480086
 20
0.0
 30
0.0
 11
0.7965565520387993
 21
0.0
 31
0.0
 12
0.0
 22
0.7965565520387993
 32
0.0
 13
330.0
 23
330.0
340
1D1
 70
     7
280
     0
281
    50
282
    50
283
     0
360
1D2
 71
     1
 91
        2
 14
-0.5
 24
-0.5
 14
329.5
 24
329.5
1001
AcDbBlockRepETag
1070
     1
1071
       64
1005
0
  0
MTEXT
  5
1D3
102
{ACAD_XDICTIONARY
360
1D4
102
}
330
1C4
100
AcDbEntity
  8
DEFPOINTS
 62
     5
100
AcDbMText
 10
10.02435788320417
 20
252.8636621728074
 30
0.0
 40
14.0
 41
751.0390347794382
 71
     1
 72
     5
  3
{\fCentury Gothic|b0|i0|c0|p34;\C256;Alle Rechte vorbehalten, einschlie\U+00DFlich\PVervielf\U+00E4ltigung, Einlesen auf elektronischen\PDatentr\U+00E4gern und die Weitergabe an dritte\PPersonen nur nach ausdr\U+00FCcklicher Genehmigung\Pder Firma GL
  1
ASSLINE GmbH.\P\PAll rights reserved, including duplication, \Pimport on electronic data carries and \Pdisclosure to third parties only with \Pthe explicit permission of GLASSLINE GmbH.}
 73
     1
 44
1.0
1001
ACAD
1000
MTEXTBEGIN
1070
    73
1070
     1
1070
    44
1040
1.0
1070
    74
1070
     0
1000
MTEXTEND
  0
ENDBLK
  5
1D5
330
1C4
100
AcDbEntity
  8
0
100
AcDbBlockEnd
  0
ENDSEC
  0
SECTION
  2
ENTITIES
  0
MTEXT
  5
6A
102
{ACAD_XDICTIONARY
360
25E
102
}
330
2
100
AcDbEntity
  8
DEFPOINTS
100
AcDbMText
 10
34237.72886497189
 20
8252.279884210894
 30
0.0
 40
20.0
 41
555.8235716177769
 71
     1
 72
     5
  1
BALARDO hybrid lite, Top 1\PAu\U+00DFenecke ({\fISOCPEUR|b0|i0|c0|p34;outer corner)}
 73
     1
 44
1.0
1001
ACAD
1000
ACAD_MTEXT_COLUMN_INFO_BEGIN
1070
    75
1070
     2
1070
    79
1070
     0
1070
    76
1070
     1
1070
    78
1070
     0
1070
    48
1040
555.8235716177769
1070
    49
1040
12.5
1070
    50
1070
     1
1040
0.0
1000
ACAD_MTEXT_COLUMN_INFO_END
1000
MTEXTBEGIN
1070
    73
1070
     1
1070
    44
1040
1.0
1070
    74
1070
     0
1000
MTEXTEND
  0
LWPOLYLINE
  5
6B
330
2
100
AcDbEntity
  8
DEFPOINTS
100
AcDbPolyline
 90
        4
 70
     1
 43
0.0
 10
34222.75704948967
 20
8269.639204691896
 10
34798.26679929142
 20
8269.639204691896
 10
34798.26679929142
 20
7143.965539815083
 10
34222.75704948967
 20
7143.965539815083
1001
GENIUS_GENREC_14
1002
{
1000
PYDIR
1011
34222.75704948967
1021
7143.965539815083
1031
0.0
1002
}
1002
{
1000
PXDIR
1011
34798.26679929142
1021
8269.639204691896
1031
0.0
1002
}
1002
{
1000
PORI
1011
34222.75704948967
1021
8269.639204691896
1031
0.0
1002
}
1002
{
1000
PINS
1011
34222.75704948967
1021
8269.639204691896
1031
0.0
1002
}
1002
{
1000
PINS2
1011
34798.26679929142
1021
7143.965539815083
1031
0.0
1002
}
1002
{
1000
C
1070
     1
1002
}
1001
GENIUS_GENODEF_13
1002
{
1000
HIER
1070
     0
1002
}
1002
{
1000
MANEDIT
1070
     0
1002
}
1002
{
1000
NOSEL
1070
     0
1002
}
1002
{
1000
BEHIND
1070
     0
1002
}
1002
{
1000
OTHER
1070
     0
1002
}
1002
{
1000
REACTOR
1002
}
1001
GENIUS_GENOBJ-N-REC_13
1002
{
1000
OWNER
1000
GEN
1002
}
  0
LINE
  5
6F
330
2
100
AcDbEntity
  8
-PROFILAUSSENKANTET
100
AcDbLine
 10
34304.82892220646
 20
7704.962156077179
 30
0.0
 11
34304.82892220646
 21
7309.224551572569
 31
0.0
  0
LINE
  5
71
330
2
100
AcDbEntity
  8
-PROFILAUSSENKANTET
100
AcDbLine
 10
34347.80413121569
 20
7704.962156077179
 30
0.0
 11
34347.80413121569
 21
7352.199760581799
 31
0.0
  0
LINE
  5
72
330
2
100
AcDbEntity
  8
-PROFILAUSSENKANTET
100
AcDbLine
 10
34352.06652671107
 20
7704.962156077179
 30
0.0
 11
34352.06652671107
 21
7356.46215607718
 31
0.0
  0
CIRCLE
  5
73
330
2
100
AcDbEntity
  8
-PROFILAUSSENKANTET
100
AcDbCircle
 10
34375.56652671107
 20
7579.962156077179
 30
0.0
 40
9.0
  0
LINE
  5
74
330
2
100
AcDbEntity
  8
-ACHSE
  6
AM_DIN_G_W050x2
100
AcDbLine
 10
34388.56652671107
 20
7579.962156077179
 30
0.0
 11
34362.56652671107
 21
7579.962156077179
 31
0.0
  0
LINE
  5
79
330
2
100
AcDbEntity
  8
-ACHSE
  6
AM_DIN_G_W050x2
100
AcDbLine
 10
34375.56652671107
 20
7566.96215607718
 30
0.0
 11
34375.56652671107
 21
7592.962156077181
 31
0.0
  0
LWPOLYLINE
  5
7A
330
2
100
AcDbEntity
  8
-PROFILAUSSENKANTET
100
AcDbPolyline
 90
        4
 70
     1
 43
0.0
 10
34425.56571499545
 20
7429.961344361562
 10
34425.56571499545
 20
7704.962156077179
 10
34300.56652671107
 20
7704.962156077179
 10
34300.56652671107
 20
7304.96215607718
1001
GENIUS_GENREC_14
1002
{
1000
PYDIR
1011
34425.56571499545
1021
7704.962156077179
1031
0.0
1002
}
1002
{
1000
PXDIR
1011
34300.56652671107
1021
7164.26492232869
1031
0.0
1002
}
1002
{
1000
PORI
1011
34300.56652671107
1021
7704.962156077179
1031
0.0
1002
}
1002
{
1000
PINS
1011
34300.56652671107
1021
7704.962156077179
1031
0.0
1002
}
1002
{
1000
PINS2
1011
34425.56571499545
1021
7164.26492232869
1031
0.0
1002
}
1002
{
1000
C
1070
     1
1002
}
1001
GENIUS_GENODEF_13
1002
{
1000
HIER
1070
     0
1002
}
1002
{
1000
MANEDIT
1070
     0
1002
}
1002
{
1000
NOSEL
1070
     0
1002
}
1002
{
1000
BEHIND
1070
     0
1002
}
1002
{
1000
OTHER
1070
     0
1002
}
1002
{
1000
REACTOR
1002
}
1001
GENIUS_GENOBJ-N-REC_13
1002
{
1000
OWNER
1000
GEN
1002
}
  0
INSERT
  5
7B
330
2
100
AcDbEntity
  8
0
100
AcDbBlockReference
  2
BHL-0-T1(S)
 10
34326.31652671107
 20
7985.400518927893
 30
0.0
  0
DIMENSION
  5
8A
330
2
100
AcDbEntity
  8
AM_5
100
AcDbDimension
  2
*D7
 10
34375.56652671107
 20
7959.624335844008
 30
0.0
 11
34400.56652671107
 21
7966.198346758059
 31
0.0
  1
<>
 71
     5
 42
50.0
  3
AM_DIN$0
100
AcDbAlignedDimension
 13
34425.56652671107
 23
7976.700518927895
 33
0.0
 14
34375.56652671107
 24
7973.624335844007
 34
0.0
 50
180.0
100
AcDbRotatedDimension
1001
ACAD_DSTYLE_DIMINSPECT
1070
   396
1000
100%
1070
   395
1000

1070
   394
1070
    33
1070
   393
1070
     0
1001
ACAD
1000
DSTYLE
1002
{
1070
    40
1040
2.0
1002
}
  0
DIMENSION
  5
9C
330
2
100
AcDbEntity
  8
AM_5
100
AcDbDimension
  2
*D8
 10
34300.56652671107
 20
7959.624335844008
 30
0.0
 11
34338.06652671107
 21
7966.184022065016
 31
0.0
 71
     5
 42
75.0
  3
AM_DIN$0
100
AcDbAlignedDimension
 13
34375.56652671107
 23
7973.624335844007
 33
0.0
 14
34300.56652671107
 24
7976.700518927895
 34
0.0
 50
180.0
100
AcDbRotatedDimension
1001
ACAD_DSTYLE_DIMINSPECT
1070
   396
1000
100%
1070
   395
1000

1070
   394
1070
    33
1070
   393
1070
     0
1001
ACAD
1000
DSTYLE
1002
{
1070
    40
1040
2.0
1002
}
  0
DIMENSION
  5
A9
330
2
100
AcDbEntity
  8
AM_5
100
AcDbDimension
  2
*D9
 10
34300.56652671107
 20
7942.624335844008
 30
0.0
 11
34363.06652671107
 21
7949.198346758058
 31
0.0
 71
     5
 42
125.0
  3
AM_DIN$0
100
AcDbAlignedDimension
 13
34425.56652671107
 23
7976.700518927895
 33
0.0
 14
34300.56652671107
 24
7976.700518927895
 34
0.0
 50
180.0
100
AcDbRotatedDimension
1001
ACAD_DSTYLE_DIMINSPECT
1070
   396
1000
100%
1070
   395
1000

1070
   394
1070
    33
1070
   393
1070
     0
1001
ACAD
1000
DSTYLE
1002
{
1070
    40
1040
2.0
1002
}
  0
DIMENSION
  5
B6
330
2
100
AcDbEntity
  8
AM_5
100
AcDbDimension
  2
*D3
 10
34442.56652671108
 20
7985.400518927893
 30
0.0
 11
34442.56652671107
 21
7980.900518927885
 31
0.0
 70
   128
  1
<>
 71
     5
 42
8.999999999995452
  3
AM_DIN$0
100
AcDbAlignedDimension
 13
34425.26652671106
 23
7976.400518927895
 33
0.0
 14
34425.26652671106
 24
7985.400518927889
 34
0.0
 50
90.0
100
AcDbRotatedDimension
1001
ACAD_DSTYLE_DIMINSPECT
1070
   396
1000
100%
1070
   395
1000

1070
   394
1070
    33
1070
   393
1070
     0
1001
ACAD
1000
DSTYLE
1002
{
1070
    40
1040
2.0
1002
}
  0
DIMENSION
  5
C5
330
2
100
AcDbEntity
  8
AM_5
100
AcDbDimension
  2
*D4
 10
34384.57021857703
 20
8003.069607297479
 30
0.0
 11
34375.57021857703
 21
8003.069607297479
 31
0.0
 70
   128
  1
%%C<>
 71
     5
 42
18.0
  3
AM_DIN$0
100
AcDbAlignedDimension
 13
34366.57021857703
 23
7986.110082191338
 33
0.0
 14
34384.57021857703
 24
7986.110082191341
 34
0.0
100
AcDbRotatedDimension
1001
ACAD_DSTYLE_DIMINSPECT
1070
   396
1000
100%
1070
   395
1000

1070
   394
1070
    33
1070
   393
1070
     0
1001
ACAD
1000
DSTYLE
1002
{
1070
    40
1040
2.0
1002
}
  0
DIMENSION
  5
D4
330
2
100
AcDbEntity
  8
AM_5
100
AcDbDimension
  2
*D5
 10
34300.56652671107
 20
8093.600518927893
 30
0.0
 11
34326.31652671107
 21
8100.174529841943
 31
0.0
 71
     5
 42
51.5
  3
AM_DIN$0
100
AcDbAlignedDimension
 13
34352.06652671107
 23
8076.100518927892
 33
0.0
 14
34300.56652671107
 24
8076.100518927892
 34
0.0
 50
180.0
100
AcDbRotatedDimension
1001
ACAD_DSTYLE_DIMINSPECT
1070
   396
1000
100%
1070
   395
1000

1070
   394
1070
    33
1070
   393
1070
     0
1001
ACAD
1000
DSTYLE
1002
{
1070
    69
1070
     1
1070
    40
1040
2.0
1002
}
  0
DIMENSION
  5
E1
330
2
100
AcDbEntity
  8
AM_5
100
AcDbDimension
  2
*D6
 10
34283.56652671111
 20
8076.400518927897
 30
0.0
 11
34276.99251579705
 21
8026.400518927887
 31
0.0
  1
<>
 71
     5
 42
100.0
  3
AM_DIN$0
100
AcDbAlignedDimension
 13
34300.96874001349
 23
7976.400518927895
 33
0.0
 14
34300.86652671107
 24
8076.400518927895
 34
0.0
 50
90.0
100
AcDbRotatedDimension
1001
ACAD_DSTYLE_DIMINSPECT
1070
   396
1000
100%
1070
   395
1000

1070
   394
1070
    33
1070
   393
1070
     0
1001
ACAD
1000
DSTYLE
1002
{
1070
    40
1040
2.0
1002
}
  0
LWPOLYLINE
  5
EE
330
2
100
AcDbEntity
  8
DEFPOINTS
  6
ACISOTGB
100
AcDbPolyline
 90
        3
 70
     0
 43
0.0
 10
34703.56652671107
 20
7330.712156077173
 10
34326.31652671107
 20
7330.71215607718
 10
34326.31652671107
 20
7707.962156077179
  0
LINE
  5
F0
330
2
100
AcDbEntity
  8
-PROFILAUSSENKANTET
100
AcDbLine
 10
34700.56652671107
 20
7309.224551572571
 30
0.0
 11
34304.82892220646
 21
7309.224551572571
 31
0.0
  0
LINE
  5
F1
330
2
100
AcDbEntity
  8
-PROFILAUSSENKANTET
100
AcDbLine
 10
34700.56652671107
 20
7352.1997605818
 30
0.0
 11
34347.80413121569
 21
7352.1997605818
 31
0.0
  0
LINE
  5
F2
330
2
100
AcDbEntity
  8
-PROFILAUSSENKANTET
100
AcDbLine
 10
34700.56652671107
 20
7356.462156077181
 30
0.0
 11
34352.06652671107
 21
7356.462156077181
 31
0.0
  0
CIRCLE
  5
F3
330
2
100
AcDbEntity
  8
-PROFILAUSSENKANTET
100
AcDbCircle
 10
34575.56652671107
 20
7379.962156077181
 30
0.0
 40
9.0
  0
LINE
  5
F4
330
2
100
AcDbEntity
  8
-ACHSE
  6
AM_DIN_G_W050x2
100
AcDbLine
 10
34575.56652671107
 20
7392.962156077181
 30
0.0
 11
34575.56652671107
 21
7366.962156077182
 31
0.0
  0
LINE
  5
F5
330
2
100
AcDbEntity
  8
-ACHSE
  6
AM_DIN_G_W050x2
100
AcDbLine
 10
34562.56652671107
 20
7379.962156077181
 30
0.0
 11
34588.56652671107
 21
7379.962156077181
 31
0.0
  0
LWPOLYLINE
  5
F6
330
2
100
AcDbEntity
  8
-PROFILAUSSENKANTET
100
AcDbPolyline
 90
        4
 70
     1
 43
0.0
 10
34425.56571499545
 20
7429.961344361564
 10
34700.56652671107
 20
7429.961344361564
 10
34700.56652671107
 20
7304.962156077181
 10
34300.56652671107
 20
7304.962156077181
1001
GENIUS_GENREC_14
1002
{
1000
PYDIR
1011
34700.56652671107
1021
7429.961344361564
1031
0.0
1002
}
1002
{
1000
PXDIR
1011
34159.86929296258
1021
7304.962156077181
1031
0.0
1002
}
1002
{
1000
PORI
1011
34700.56652671107
1021
7304.962156077181
1031
0.0
1002
}
1002
{
1000
PINS
1011
34700.56652671107
1021
7304.962156077181
1031
0.0
1002
}
1002
{
1000
PINS2
1011
34159.86929296258
1021
7429.961344361564
1031
0.0
1002
}
1002
{
1000
C
1070
     1
1002
}
1001
GENIUS_GENODEF_13
1002
{
1000
HIER
1070
     0
1002
}
1002
{
1000
MANEDIT
1070
     0
1002
}
1002
{
1000
NOSEL
1070
     0
1002
}
1002
{
1000
BEHIND
1070
     0
1002
}
1002
{
1000
OTHER
1070
     0
1002
}
1002
{
1000
REACTOR
1002
}
1001
GENIUS_GENOBJ-N-REC_13
1002
{
1000
OWNER
1000
GEN
1002
}
  0
LINE
  5
F7
330
2
100
AcDbEntity
  8
-PROFILAUSSENKANTET
100
AcDbLine
 10
34361.56871949876
 20
7704.962156077179
 30
0.0
 11
34361.56871949876
 21
7365.964348864868
 31
0.0
  0
LINE
  5
F8
330
2
100
AcDbEntity
  8
-PROFILAUSSENKANTET
100
AcDbLine
 10
34362.57021857703
 20
7704.962156077179
 30
0.0
 11
34362.57021857703
 21
7366.965847943141
 31
0.0
  0
LINE
  5
F9
330
2
100
AcDbEntity
  8
-PROFILAUSSENKANTET
100
AcDbLine
 10
34363.57021857851
 20
7704.962156077179
 30
0.0
 11
34363.57021857851
 21
7367.965847944626
 31
0.0
  0
LINE
  5
FA
330
2
100
AcDbEntity
  8
-PROFILAUSSENKANTET
100
AcDbLine
 10
34364.57021857703
 20
7704.962156077179
 30
0.0
 11
34364.57021857703
 21
7368.965847943141
 31
0.0
  0
LINE
  5
FB
330
2
100
AcDbEntity
  8
-PROFILAUSSENKANTET
100
AcDbLine
 10
34365.57021859556
 20
7704.962156077179
 30
0.0
 11
34365.57021859556
 21
7369.965847961665
 31
0.0
  0
LINE
  5
FC
330
2
100
AcDbEntity
  8
-PROFILAUSSENKANTET
100
AcDbLine
 10
34366.56652671107
 20
7704.962156077179
 30
0.0
 11
34366.56652671107
 21
7370.96215607718
 31
0.0
  0
LINE
  5
FD
330
2
100
AcDbEntity
  8
-PROFILAUSSENKANTET
100
AcDbLine
 10
34367.57021859556
 20
7704.962156077179
 30
0.0
 11
34367.57021859556
 21
7584.092417149037
 31
0.0
  0
LINE
  5
FE
330
2
100
AcDbEntity
  8
-PROFILAUSSENKANTET
100
AcDbLine
 10
34367.57021859556
 20
7575.831895005324
 30
0.0
 11
34367.57021859556
 21
7371.965847961665
 31
0.0
  0
LINE
  5
FF
330
2
100
AcDbEntity
  8
-PROFILAUSSENKANTET
100
AcDbLine
 10
34368.57021857703
 20
7704.962156077179
 30
0.0
 11
34368.57021857703
 21
7585.623575730732
 31
0.0
  0
LINE
  5
100
330
2
100
AcDbEntity
  8
-PROFILAUSSENKANTET
100
AcDbLine
 10
34368.57021857703
 20
7574.300736423629
 30
0.0
 11
34368.57021857703
 21
7372.965847943141
 31
0.0
  0
LINE
  5
101
330
2
100
AcDbEntity
  8
-PROFILAUSSENKANTET
100
AcDbLine
 10
34369.57021857852
 20
7704.962156077179
 30
0.0
 11
34369.57021857852
 21
7586.673660288567
 31
0.0
  0
LINE
  5
102
330
2
100
AcDbEntity
  8
-PROFILAUSSENKANTET
100
AcDbLine
 10
34369.57021857852
 20
7573.250651865794
 30
0.0
 11
34369.57021857852
 21
7373.965847944624
 31
0.0
  0
LINE
  5
103
330
2
100
AcDbEntity
  8
-PROFILAUSSENKANTET
100
AcDbLine
 10
34370.57021857703
 20
7704.962156077179
 30
0.0
 11
34370.57021857703
 21
7587.447936265627
 31
0.0
  0
LINE
  5
104
330
2
100
AcDbEntity
  8
-PROFILAUSSENKANTET
100
AcDbLine
 10
34370.57021857703
 20
7572.476375888733
 30
0.0
 11
34370.57021857703
 21
7374.965847943141
 31
0.0
  0
LINE
  5
105
330
2
100
AcDbEntity
  8
-PROFILAUSSENKANTET
100
AcDbLine
 10
34371.57021857851
 20
7704.962156077179
 30
0.0
 11
34371.57021857851
 21
7588.026244451551
 31
0.0
  0
LINE
  5
106
330
2
100
AcDbEntity
  8
-PROFILAUSSENKANTET
100
AcDbLine
 10
34371.57021857851
 20
7571.89806770281
 30
0.0
 11
34371.57021857851
 21
7375.965847944626
 31
0.0
  0
LINE
  5
107
330
2
100
AcDbEntity
  8
-PROFILAUSSENKANTET
100
AcDbLine
 10
34372.57021857703
 20
7704.962156077179
 30
0.0
 11
34372.57021857703
 21
7588.448741819743
 31
0.0
  0
LINE
  5
108
330
2
100
AcDbEntity
  8
-PROFILAUSSENKANTET
100
AcDbLine
 10
34372.57021857703
 20
7571.475570334617
 30
0.0
 11
34372.57021857703
 21
7376.965847943141
 31
0.0
  0
LINE
  5
109
330
2
100
AcDbEntity
  8
-PROFILAUSSENKANTET
100
AcDbLine
 10
34373.57021857851
 20
7704.962156077179
 30
0.0
 11
34373.57021857851
 21
7588.737961102355
 31
0.0
  0
LINE
  5
10A
330
2
100
AcDbEntity
  8
-PROFILAUSSENKANTET
100
AcDbLine
 10
34373.57021857851
 20
7571.186351052005
 30
0.0
 11
34373.57021857851
 21
7377.965847944626
 31
0.0
  0
LINE
  5
10B
330
2
100
AcDbEntity
  8
-PROFILAUSSENKANTET
100
AcDbLine
 10
34374.57021857703
 20
7704.962156077179
 30
0.0
 11
34374.57021857703
 21
7588.906839978921
 31
0.0
  0
LINE
  5
10C
330
2
100
AcDbEntity
  8
-PROFILAUSSENKANTET
100
AcDbLine
 10
34374.57021857703
 20
7571.01747217544
 30
0.0
 11
34374.57021857703
 21
7378.965847943141
 31
0.0
  0
LINE
  5
10D
330
2
100
AcDbEntity
  8
-PROFILAUSSENKANTET
100
AcDbLine
 10
34375.57021859555
 20
7704.962156077179
 30
0.0
 11
34375.57021859555
 21
7588.962155319958
 31
0.0
  0
LINE
  5
10E
330
2
100
AcDbEntity
  8
-PROFILAUSSENKANTET
100
AcDbLine
 10
34375.57021859555
 20
7570.962156834403
 30
0.0
 11
34375.57021859555
 21
7379.965847961665
 31
0.0
  0
LINE
  5
10F
330
2
100
AcDbEntity
  8
-PROFILAUSSENKANTET
100
AcDbLine
 10
34376.57021857703
 20
7704.962156077179
 30
0.0
 11
34376.57021857703
 21
7588.906014452525
 31
0.0
  0
LINE
  5
110
330
2
100
AcDbEntity
  8
-PROFILAUSSENKANTET
100
AcDbLine
 10
34376.57021857703
 20
7571.018297701836
 30
0.0
 11
34376.57021857703
 21
7380.965847943141
 31
0.0
  0
LINE
  5
111
330
2
100
AcDbEntity
  8
-PROFILAUSSENKANTET
100
AcDbLine
 10
34377.57021857851
 20
7704.962156077179
 30
0.0
 11
34377.57021857851
 21
7588.73627819283
 31
0.0
  0
LINE
  5
112
330
2
100
AcDbEntity
  8
-PROFILAUSSENKANTET
100
AcDbLine
 10
34377.57021857851
 20
7571.18803396153
 30
0.0
 11
34377.57021857851
 21
7381.965847944626
 31
0.0
  0
LINE
  5
113
330
2
100
AcDbEntity
  8
-PROFILAUSSENKANTET
100
AcDbLine
 10
34378.57021857703
 20
7704.962156077179
 30
0.0
 11
34378.57021857703
 21
7588.446131276011
 31
0.0
  0
LINE
  5
114
330
2
100
AcDbEntity
  8
-PROFILAUSSENKANTET
100
AcDbLine
 10
34378.57021857703
 20
7571.47818087835
 30
0.0
 11
34378.57021857703
 21
7382.965847943141
 31
0.0
  0
LINE
  5
115
330
2
100
AcDbEntity
  8
-PROFILAUSSENKANTET
100
AcDbLine
 10
34379.57021859555
 20
7704.962156077179
 30
0.0
 11
34379.57021859555
 21
7588.022581084221
 31
0.0
  0
LINE
  5
116
330
2
100
AcDbEntity
  8
-PROFILAUSSENKANTET
100
AcDbLine
 10
34379.57021859555
 20
7571.90173107014
 30
0.0
 11
34379.57021859555
 21
7383.965847961666
 31
0.0
  0
LINE
  5
117
330
2
100
AcDbEntity
  8
-PROFILAUSSENKANTET
100
AcDbLine
 10
34380.57021857703
 20
7704.962156077179
 30
0.0
 11
34380.57021857703
 21
7587.443002801349
 31
0.0
  0
LINE
  5
118
330
2
100
AcDbEntity
  8
-PROFILAUSSENKANTET
100
AcDbLine
 10
34380.57021857703
 20
7572.481309353012
 30
0.0
 11
34380.57021857703
 21
7384.965847943141
 31
0.0
  0
LINE
  5
119
330
2
100
AcDbEntity
  8
-PROFILAUSSENKANTET
100
AcDbLine
 10
34381.57021857851
 20
7704.962156077179
 30
0.0
 11
34381.57021857851
 21
7586.667056073512
 31
0.0
  0
LINE
  5
11A
330
2
100
AcDbEntity
  8
-PROFILAUSSENKANTET
100
AcDbLine
 10
34381.57021857851
 20
7573.257256080849
 30
0.0
 11
34381.57021857851
 21
7385.965847944625
 31
0.0
  0
LINE
  5
11B
330
2
100
AcDbEntity
  8
-PROFILAUSSENKANTET
100
AcDbLine
 10
34382.57021857703
 20
7704.962156077179
 30
0.0
 11
34382.57021857703
 21
7585.614438823707
 31
0.0
  0
LINE
  5
11C
330
2
100
AcDbEntity
  8
-PROFILAUSSENKANTET
100
AcDbLine
 10
34382.57021857703
 20
7574.309873330654
 30
0.0
 11
34382.57021857703
 21
7386.965847943141
 31
0.0
  0
LINE
  5
11D
330
2
100
AcDbEntity
  8
-PROFILAUSSENKANTET
100
AcDbLine
 10
34383.57021857851
 20
7704.962156077179
 30
0.0
 11
34383.57021857851
 21
7584.078090538639
 31
0.0
  0
LINE
  5
11E
330
2
100
AcDbEntity
  8
-PROFILAUSSENKANTET
100
AcDbLine
 10
34383.57021857851
 20
7575.846221615721
 30
0.0
 11
34383.57021857851
 21
7387.965847944625
 31
0.0
  0
LINE
  5
11F
330
2
100
AcDbEntity
  8
-PROFILAUSSENKANTET
100
AcDbLine
 10
34384.57021857703
 20
7704.962156077179
 30
0.0
 11
34384.57021857703
 21
7388.965847943142
 31
0.0
  0
LINE
  5
120
330
2
100
AcDbEntity
  8
-PROFILAUSSENKANTET
100
AcDbLine
 10
34385.57021857851
 20
7704.962156077179
 30
0.0
 11
34385.57021857851
 21
7389.965847944626
 31
0.0
  0
LINE
  5
121
330
2
100
AcDbEntity
  8
-PROFILAUSSENKANTET
100
AcDbLine
 10
34386.57021857703
 20
7704.962156077179
 30
0.0
 11
34386.57021857703
 21
7390.965847943141
 31
0.0
  0
LINE
  5
122
330
2
100
AcDbEntity
  8
-PROFILAUSSENKANTET
100
AcDbLine
 10
34387.57021857851
 20
7704.962156077179
 30
0.0
 11
34387.57021857851
 21
7391.965847944625
 31
0.0
  0
LINE
  5
123
330
2
100
AcDbEntity
  8
-PROFILAUSSENKANTET
100
AcDbLine
 10
34388.57021857703
 20
7704.962156077179
 30
0.0
 11
34388.57021857703
 21
7392.965847943141
 31
0.0
  0
LINE
  5
124
330
2
100
AcDbEntity
  8
-PROFILAUSSENKANTET
100
AcDbLine
 10
34389.57021857851
 20
7704.962156077179
 30
0.0
 11
34389.57021857851
 21
7393.965847944625
 31
0.0
  0
LINE
  5
125
330
2
100
AcDbEntity
  8
-PROFILAUSSENKANTET
100
AcDbLine
 10
34390.57021857703
 20
7704.962156077179
 30
0.0
 11
34390.57021857703
 21
7394.96584794314
 31
0.0
  0
LINE
  5
126
330
2
100
AcDbEntity
  8
-PROFILAUSSENKANTET
100
AcDbLine
 10
34391.57021857851
 20
7704.962156077179
 30
0.0
 11
34391.57021857851
 21
7395.965847944625
 31
0.0
  0
LINE
  5
127
330
2
100
AcDbEntity
  8
-PROFILAUSSENKANTET
100
AcDbLine
 10
34392.57021857703
 20
7704.962156077179
 30
0.0
 11
34392.57021857703
 21
7396.965847943142
 31
0.0
  0
LINE
  5
128
330
2
100
AcDbEntity
  8
-PROFILAUSSENKANTET
100
AcDbLine
 10
34393.57021857851
 20
7704.962156077179
 30
0.0
 11
34393.57021857851
 21
7397.965847944625
 31
0.0
  0
LINE
  5
129
330
2
100
AcDbEntity
  8
-PROFILAUSSENKANTET
100
AcDbLine
 10
34700.56652671107
 20
7365.964348864861
 30
0.0
 11
34361.56871949876
 21
7365.96434886487
 31
0.0
  0
LINE
  5
12A
330
2
100
AcDbEntity
  8
-PROFILAUSSENKANTET
100
AcDbLine
 10
34700.56652671107
 20
7366.965847943134
 30
0.0
 11
34362.57021857703
 21
7366.965847943141
 31
0.0
  0
LINE
  5
12B
330
2
100
AcDbEntity
  8
-PROFILAUSSENKANTET
100
AcDbLine
 10
34700.56652671107
 20
7367.965847944619
 30
0.0
 11
34363.57021857851
 21
7367.965847944626
 31
0.0
  0
LINE
  5
12C
330
2
100
AcDbEntity
  8
-PROFILAUSSENKANTET
100
AcDbLine
 10
34700.56652671107
 20
7368.965847943134
 30
0.0
 11
34364.57021857703
 21
7368.965847943141
 31
0.0
  0
LINE
  5
12D
330
2
100
AcDbEntity
  8
-PROFILAUSSENKANTET
100
AcDbLine
 10
34700.56652671107
 20
7369.965847961658
 30
0.0
 11
34365.57021859556
 21
7369.965847961667
 31
0.0
  0
LINE
  5
12E
330
2
100
AcDbEntity
  8
-PROFILAUSSENKANTET
100
AcDbLine
 10
34700.56652671107
 20
7370.962156077173
 30
0.0
 11
34366.56652671107
 21
7370.96215607718
 31
0.0
  0
LINE
  5
12F
330
2
100
AcDbEntity
  8
-PROFILAUSSENKANTET
100
AcDbLine
 10
34700.56652671107
 20
7371.96584796166
 30
0.0
 11
34579.69678778292
 21
7371.965847961662
 31
0.0
  0
LINE
  5
130
330
2
100
AcDbEntity
  8
-PROFILAUSSENKANTET
100
AcDbLine
 10
34571.43626563921
 20
7371.965847961662
 30
0.0
 11
34367.57021859556
 21
7371.965847961667
 31
0.0
  0
LINE
  5
131
330
2
100
AcDbEntity
  8
-PROFILAUSSENKANTET
100
AcDbLine
 10
34700.56652671107
 20
7372.965847943135
 30
0.0
 11
34581.22794636461
 21
7372.965847943138
 31
0.0
  0
LINE
  5
132
330
2
100
AcDbEntity
  8
-PROFILAUSSENKANTET
100
AcDbLine
 10
34569.90510705753
 20
7372.965847943138
 30
0.0
 11
34368.57021857703
 21
7372.965847943142
 31
0.0
  0
LINE
  5
133
330
2
100
AcDbEntity
  8
-PROFILAUSSENKANTET
100
AcDbLine
 10
34700.56652671107
 20
7373.965847944619
 30
0.0
 11
34582.27803092245
 21
7373.965847944622
 31
0.0
  0
LINE
  5
134
330
2
100
AcDbEntity
  8
-PROFILAUSSENKANTET
100
AcDbLine
 10
34568.85502249969
 20
7373.965847944622
 30
0.0
 11
34369.57021857852
 21
7373.965847944626
 31
0.0
  0
LINE
  5
135
330
2
100
AcDbEntity
  8
-PROFILAUSSENKANTET
100
AcDbLine
 10
34700.56652671107
 20
7374.965847943134
 30
0.0
 11
34583.05230689951
 21
7374.965847943136
 31
0.0
  0
LINE
  5
136
330
2
100
AcDbEntity
  8
-PROFILAUSSENKANTET
100
AcDbLine
 10
34568.08074652263
 20
7374.965847943136
 30
0.0
 11
34370.57021857703
 21
7374.965847943141
 31
0.0
  0
LINE
  5
137
330
2
100
AcDbEntity
  8
-PROFILAUSSENKANTET
100
AcDbLine
 10
34700.56652671107
 20
7375.965847944619
 30
0.0
 11
34583.63061508544
 21
7375.965847944623
 31
0.0
  0
LINE
  5
138
330
2
100
AcDbEntity
  8
-PROFILAUSSENKANTET
100
AcDbLine
 10
34567.5024383367
 20
7375.965847944623
 30
0.0
 11
34371.57021857851
 21
7375.965847944626
 31
0.0
  0
LINE
  5
139
330
2
100
AcDbEntity
  8
-PROFILAUSSENKANTET
100
AcDbLine
 10
34700.56652671107
 20
7376.965847943134
 30
0.0
 11
34584.05311245363
 21
7376.965847943137
 31
0.0
  0
LINE
  5
13A
330
2
100
AcDbEntity
  8
-PROFILAUSSENKANTET
100
AcDbLine
 10
34567.07994096851
 20
7376.965847943137
 30
0.0
 11
34372.57021857703
 21
7376.965847943141
 31
0.0
  0
LINE
  5
13B
330
2
100
AcDbEntity
  8
-PROFILAUSSENKANTET
100
AcDbLine
 10
34700.56652671107
 20
7377.965847944619
 30
0.0
 11
34584.34233173624
 21
7377.965847944621
 31
0.0
  0
LINE
  5
13C
330
2
100
AcDbEntity
  8
-PROFILAUSSENKANTET
100
AcDbLine
 10
34566.7907216859
 20
7377.965847944622
 30
0.0
 11
34373.57021857851
 21
7377.965847944627
 31
0.0
  0
LINE
  5
13D
330
2
100
AcDbEntity
  8
-PROFILAUSSENKANTET
100
AcDbLine
 10
34700.56652671107
 20
7378.965847943135
 30
0.0
 11
34584.51121061281
 21
7378.965847943138
 31
0.0
  0
LINE
  5
13E
330
2
100
AcDbEntity
  8
-PROFILAUSSENKANTET
100
AcDbLine
 10
34566.62184280933
 20
7378.965847943138
 30
0.0
 11
34374.57021857703
 21
7378.965847943142
 31
0.0
  0
LINE
  5
13F
330
2
100
AcDbEntity
  8
-PROFILAUSSENKANTET
100
AcDbLine
 10
34700.56652671107
 20
7379.96584796166
 30
0.0
 11
34584.56652595384
 21
7379.965847961661
 31
0.0
  0
LINE
  5
140
330
2
100
AcDbEntity
  8
-PROFILAUSSENKANTET
100
AcDbLine
 10
34566.56652746829
 20
7379.965847961662
 30
0.0
 11
34375.57021859555
 21
7379.965847961667
 31
0.0
  0
LINE
  5
141
330
2
100
AcDbEntity
  8
-PROFILAUSSENKANTET
100
AcDbLine
 10
34700.56652671107
 20
7380.965847943135
 30
0.0
 11
34584.51038508641
 21
7380.965847943137
 31
0.0
  0
LINE
  5
142
330
2
100
AcDbEntity
  8
-PROFILAUSSENKANTET
100
AcDbLine
 10
34566.62266833573
 20
7380.965847943137
 30
0.0
 11
34376.57021857703
 21
7380.965847943142
 31
0.0
  0
LINE
  5
143
330
2
100
AcDbEntity
  8
-PROFILAUSSENKANTET
100
AcDbLine
 10
34700.56652671107
 20
7381.965847944619
 30
0.0
 11
34584.34064882672
 21
7381.965847944622
 31
0.0
  0
LINE
  5
144
330
2
100
AcDbEntity
  8
-PROFILAUSSENKANTET
100
AcDbLine
 10
34566.79240459541
 20
7381.965847944622
 30
0.0
 11
34377.57021857851
 21
7381.965847944626
 31
0.0
  0
LINE
  5
145
330
2
100
AcDbEntity
  8
-PROFILAUSSENKANTET
100
AcDbLine
 10
34700.56652671107
 20
7382.965847943134
 30
0.0
 11
34584.0505019099
 21
7382.965847943137
 31
0.0
  0
LINE
  5
146
330
2
100
AcDbEntity
  8
-PROFILAUSSENKANTET
100
AcDbLine
 10
34567.08255151224
 20
7382.965847943137
 30
0.0
 11
34378.57021857703
 21
7382.965847943141
 31
0.0
  0
LINE
  5
147
330
2
100
AcDbEntity
  8
-PROFILAUSSENKANTET
100
AcDbLine
 10
34700.56652671107
 20
7383.965847961659
 30
0.0
 11
34583.62695171811
 21
7383.965847961661
 31
0.0
  0
LINE
  5
148
330
2
100
AcDbEntity
  8
-PROFILAUSSENKANTET
100
AcDbLine
 10
34567.50610170403
 20
7383.965847961661
 30
0.0
 11
34379.57021859555
 21
7383.965847961666
 31
0.0
  0
LINE
  5
149
330
2
100
AcDbEntity
  8
-PROFILAUSSENKANTET
100
AcDbLine
 10
34700.56652671107
 20
7384.965847943134
 30
0.0
 11
34583.04737343524
 21
7384.965847943137
 31
0.0
  0
LINE
  5
14A
330
2
100
AcDbEntity
  8
-PROFILAUSSENKANTET
100
AcDbLine
 10
34568.08567998689
 20
7384.965847943137
 30
0.0
 11
34380.57021857703
 21
7384.965847943142
 31
0.0
  0
LINE
  5
14B
330
2
100
AcDbEntity
  8
-PROFILAUSSENKANTET
100
AcDbLine
 10
34700.56652671107
 20
7385.965847944619
 30
0.0
 11
34582.2714267074
 21
7385.965847944622
 31
0.0
  0
LINE
  5
14C
330
2
100
AcDbEntity
  8
-PROFILAUSSENKANTET
100
AcDbLine
 10
34568.86162671474
 20
7385.965847944622
 30
0.0
 11
34381.57021857851
 21
7385.965847944627
 31
0.0
  0
LINE
  5
14D
330
2
100
AcDbEntity
  8
-PROFILAUSSENKANTET
100
AcDbLine
 10
34700.56652671107
 20
7386.965847943135
 30
0.0
 11
34581.2188094576
 21
7386.965847943137
 31
0.0
  0
LINE
  5
14E
330
2
100
AcDbEntity
  8
-PROFILAUSSENKANTET
100
AcDbLine
 10
34569.91424396454
 20
7386.965847943137
 30
0.0
 11
34382.57021857703
 21
7386.965847943142
 31
0.0
  0
LINE
  5
14F
330
2
100
AcDbEntity
  8
-PROFILAUSSENKANTET
100
AcDbLine
 10
34700.56652671107
 20
7387.965847944619
 30
0.0
 11
34579.68246117253
 21
7387.965847944622
 31
0.0
  0
LINE
  5
150
330
2
100
AcDbEntity
  8
-PROFILAUSSENKANTET
100
AcDbLine
 10
34571.45059224961
 20
7387.965847944622
 30
0.0
 11
34383.57021857851
 21
7387.965847944626
 31
0.0
  0
LINE
  5
151
330
2
100
AcDbEntity
  8
-PROFILAUSSENKANTET
100
AcDbLine
 10
34700.56652671107
 20
7388.965847943135
 30
0.0
 11
34384.57021857703
 21
7388.965847943142
 31
0.0
  0
LINE
  5
152
330
2
100
AcDbEntity
  8
-PROFILAUSSENKANTET
100
AcDbLine
 10
34700.56652671107
 20
7389.965847944619
 30
0.0
 11
34385.57021857851
 21
7389.965847944626
 31
0.0
  0
LINE
  5
153
330
2
100
AcDbEntity
  8
-PROFILAUSSENKANTET
100
AcDbLine
 10
34700.56652671107
 20
7390.965847943134
 30
0.0
 11
34386.57021857703
 21
7390.965847943141
 31
0.0
  0
LINE
  5
154
330
2
100
AcDbEntity
  8
-PROFILAUSSENKANTET
100
AcDbLine
 10
34700.56652671107
 20
7391.965847944618
 30
0.0
 11
34387.57021857851
 21
7391.965847944627
 31
0.0
  0
LINE
  5
155
330
2
100
AcDbEntity
  8
-PROFILAUSSENKANTET
100
AcDbLine
 10
34700.56652671107
 20
7392.965847943135
 30
0.0
 11
34388.57021857703
 21
7392.965847943142
 31
0.0
  0
LINE
  5
156
330
2
100
AcDbEntity
  8
-PROFILAUSSENKANTET
100
AcDbLine
 10
34700.56652671107
 20
7393.965847944619
 30
0.0
 11
34389.57021857851
 21
7393.965847944627
 31
0.0
  0
LINE
  5
157
330
2
100
AcDbEntity
  8
-PROFILAUSSENKANTET
100
AcDbLine
 10
34700.56652671107
 20
7394.965847943135
 30
0.0
 11
34390.57021857703
 21
7394.965847943142
 31
0.0
  0
LINE
  5
158
330
2
100
AcDbEntity
  8
-PROFILAUSSENKANTET
100
AcDbLine
 10
34700.56652671107
 20
7395.965847944619
 30
0.0
 11
34391.57021857851
 21
7395.965847944626
 31
0.0
  0
LINE
  5
159
330
2
100
AcDbEntity
  8
-PROFILAUSSENKANTET
100
AcDbLine
 10
34700.56652671107
 20
7396.965847943135
 30
0.0
 11
34392.57021857703
 21
7396.965847943142
 31
0.0
  0
LINE
  5
15A
330
2
100
AcDbEntity
  8
-PROFILAUSSENKANTET
100
AcDbLine
 10
34700.56652671107
 20
7397.965847944618
 30
0.0
 11
34393.57021857851
 21
7397.965847944625
 31
0.0
  0
DIMENSION
  5
15B
330
2
100
AcDbEntity
  8
AM_5
100
AcDbDimension
  2
*D10
 10
34425.56571499545
 20
7760.96215607718
 30
0.0
 11
34363.06612085326
 21
7774.110177905284
 31
0.0
  1
<>
 71
     5
 42
124.9991882843824
  3
AM_DIN$0
100
AcDbAlignedDimension
 13
34300.56652671107
 23
7704.962156077179
 33
0.0
 14
34425.56571499545
 24
7704.962156077179
 34
0.0
100
AcDbRotatedDimension
1001
ACAD_DSTYLE_DIMINSPECT
1070
   396
1000
100%
1070
   395
1000

1070
   394
1070
    33
1070
   393
1070
     0
1001
ACAD
1000
DSTYLE
1002
{
1070
    40
1040
4.0
1002
}
  0
DIMENSION
  5
168
330
2
100
AcDbEntity
  8
AM_5
100
AcDbDimension
  2
*D11
 10
34425.56571499545
 20
7732.96215607718
 30
0.0
 11
34400.5679667955
 21
7746.110177905284
 31
0.0
  1
<>
 71
     5
 42
49.99549639989709
  3
AM_DIN$0
100
AcDbAlignedDimension
 13
34375.57021859555
 23
7704.962156077179
 33
0.0
 14
34425.56571499545
 24
7704.962156077179
 34
0.0
100
AcDbRotatedDimension
1001
ACAD_DSTYLE_DIMINSPECT
1070
   396
1000
100%
1070
   395
1000

1070
   394
1070
    33
1070
   393
1070
     0
1001
ACAD
1000
DSTYLE
1002
{
1070
    40
1040
4.0
1002
}
  0
DIMENSION
  5
175
330
2
100
AcDbEntity
  8
AM_5
100
AcDbDimension
  2
*D12
 10
34272.56652671108
 20
7704.962156077184
 30
0.0
 11
34259.41850488297
 21
7504.962156077173
 31
0.0
  1
<>
 71
     5
 42
400.0
  3
AM_DIN$0
100
AcDbAlignedDimension
 13
34300.56652671107
 23
7304.96215607718
 33
0.0
 14
34300.56652671107
 24
7704.962156077179
 34
0.0
 50
90.0
100
AcDbRotatedDimension
1001
ACAD_DSTYLE_DIMINSPECT
1070
   396
1000
100%
1070
   395
1000

1070
   394
1070
    33
1070
   393
1070
     0
1001
ACAD
1000
DSTYLE
1002
{
1070
    40
1040
4.0
1002
}
  0
DIMENSION
  5
182
330
2
100
AcDbEntity
  8
AM_5
100
AcDbDimension
  2
*D13
 10
34453.56571499547
 20
7704.962156077184
 30
0.0
 11
34440.41769316735
 21
7642.462156077172
 31
0.0
  1
<>
 71
     5
 42
125.0
  3
AM_DIN$0
100
AcDbAlignedDimension
 13
34388.56652671107
 23
7579.962156077179
 33
0.0
 14
34425.56490327983
 24
7704.962156077179
 34
0.0
 50
90.0
100
AcDbRotatedDimension
1001
ACAD_DSTYLE_DIMINSPECT
1070
   396
1000
100%
1070
   395
1000

1070
   394
1070
    33
1070
   393
1070
     0
1001
ACAD
1000
DSTYLE
1002
{
1070
    40
1040
4.0
1002
}
  0
DIMENSION
  5
18F
330
2
100
AcDbEntity
  8
AM_5
100
AcDbDimension
  2
*D14
 10
34756.56652671108
 20
7429.96134436156
 30
0.0
 11
34743.41850488297
 21
7367.461750219359
 31
0.0
  1
<>
 71
     5
 42
124.9991882843824
  3
AM_DIN$0
100
AcDbAlignedDimension
 13
34700.56652671107
 23
7304.962156077174
 33
0.0
 14
34700.56652671107
 24
7429.961344361557
 34
0.0
 50
90.0
100
AcDbRotatedDimension
1001
ACAD_DSTYLE_DIMINSPECT
1070
   396
1000
100%
1070
   395
1000

1070
   394
1070
    33
1070
   393
1070
     0
1001
ACAD
1000
DSTYLE
1002
{
1070
    40
1040
4.0
1002
}
  0
DIMENSION
  5
19C
330
2
100
AcDbEntity
  8
AM_5
100
AcDbDimension
  2
*D15
 10
34728.56652671108
 20
7429.96134436156
 30
0.0
 11
34715.41850488297
 21
7404.9635961616
 31
0.0
  1
<>
 71
     5
 42
49.99549639989709
  3
AM_DIN$0
100
AcDbAlignedDimension
 13
34700.56652671107
 23
7379.96584796166
 33
0.0
 14
34700.56652671107
 24
7429.961344361557
 34
0.0
 50
90.0
100
AcDbRotatedDimension
1001
ACAD_DSTYLE_DIMINSPECT
1070
   396
1000
100%
1070
   395
1000

1070
   394
1070
    33
1070
   393
1070
     0
1001
ACAD
1000
DSTYLE
1002
{
1070
    40
1040
4.0
1002
}
  0
DIMENSION
  5
1A9
330
2
100
AcDbEntity
  8
AM_5
100
AcDbDimension
  2
*D16
 10
34700.56652671107
 20
7276.962156077203
 30
0.0
 11
34500.56652671107
 21
7290.110177905306
 31
0.0
  1
<>
 71
     5
 42
400.0
  3
AM_DIN$0
100
AcDbAlignedDimension
 13
34300.56652671107
 23
7304.962156077181
 33
0.0
 14
34700.56652671107
 24
7304.962156077174
 34
0.0
100
AcDbRotatedDimension
1001
ACAD_DSTYLE_DIMINSPECT
1070
   396
1000
100%
1070
   395
1000

1070
   394
1070
    33
1070
   393
1070
     0
1001
ACAD
1000
DSTYLE
1002
{
1070
    40
1040
4.0
1002
}
  0
DIMENSION
  5
1B6
330
2
100
AcDbEntity
  8
AM_5
100
AcDbDimension
  2
*D17
 10
34700.56652671107
 20
7457.961344361585
 30
0.0
 11
34638.06652671107
 21
7471.10936618969
 31
0.0
  1
<>
 71
     5
 42
125.0
  3
AM_DIN$0
100
AcDbAlignedDimension
 13
34575.56652671107
 23
7392.962156077174
 33
0.0
 14
34700.56652671107
 24
7429.960532645939
 34
0.0
100
AcDbRotatedDimension
1001
ACAD_DSTYLE_DIMINSPECT
1070
   396
1000
100%
1070
   395
1000

1070
   394
1070
    33
1070
   393
1070
     0
1001
ACAD
1000
DSTYLE
1002
{
1070
    40
1040
4.0
1002
}
  0
INSERT
  5
1C3
330
2
100
AcDbEntity
  8
DEFPOINTS
100
AcDbBlockReference
  2
Copyright_STEMPEL
 10
34615.24771170042
 20
8229.639205391498
 30
0.0
 41
0.1521701362600958
 42
0.1521701362600958
 43
0.1521701362600958
  0
ENDSEC
  0
SECTION
  2
OBJECTS
  0
DICTIONARY
  5
B
330
0
100
AcDbDictionary
281
     1
  3
ACAD_2007HEADERVARS_RT
350
23E
  3
ACAD_COLOR
350
41
  3
ACAD_DETAILVIEWSTYLE
350
1F4
  3
ACAD_FIELDLIST
350
22D
  3
ACAD_GROUP
350
38
  3
ACAD_IMAGE_DICT
350
1CD
  3
ACAD_IMAGE_VARS
350
1CF
  3
ACAD_LAYOUT
350
18
  3
ACAD_MATERIAL
350
D
  3
ACAD_MLEADERSTYLE
350
44
  3
ACAD_MLINESTYLE
350
39
  3
ACAD_PLOTSETTINGS
350
3A
  3
ACAD_PLOTSTYLENAME
350
A
  3
ACAD_SCALELIST
350
42
  3
ACAD_SECTIONVIEWSTYLE
350
200
  3
ACAD_TABLESTYLE
350
43
  3
ACAD_VISUALSTYLE
350
30
  3
ACDB_RECOMPOSE_DATA
350
23D
  3
AcDbVariableDictionary
350
45
  3
AcDsDecomposeData
350
248
  3
AcmDictionary
350
1E8
  3
AcmSystemVariableManager
350
255
  3
AMG
350
1D8
  0
DICTIONARY
  5
22
330
21
100
AcDbDictionary
280
     1
281
     1
  3
ACAD_LAYERSTATES
360
23
  3
AMLAYER_GROUPCOLORS
360
24
  0
DICTIONARY
  5
8
330
7
100
AcDbDictionary
280
     1
281
     1
  0
DICTIONARY
  5
76
330
75
100
AcDbDictionary
280
     1
281
     1
  0
DICTIONARY
  5
52
330
51
100
AcDbDictionary
280
     1
281
     1
  0
DICTIONARY
  5
3
330
2
100
AcDbDictionary
280
     1
281
     1
  3
ACAD_ASSOCNETWORK
360
4
  3
ACAD_SORTENTS
360
1D6
  0
DICTIONARY
  5
1C
330
1B
100
AcDbDictionary
280
     1
281
     1
  3
ACAD_SORTENTS
360
1D
  0
DICTIONARY
  5
1C9
330
1C8
100
AcDbDictionary
280
     1
281
     1
  3
ACAD_MTEXT_2008_RT
360
23C
  3
ACAD_MTEXT_RT
360
262
  0
IMAGEDEF_REACTOR
  5
1CE
330
1CB
100
AcDbRasterImageDefReactor
 90
        2
330
1CB
  0
IMAGEDEF_REACTOR
  5
1D2
330
1D0
100
AcDbRasterImageDefReactor
 90
        2
330
1D0
  0
DICTIONARY
  5
1D4
330
1D3
100
AcDbDictionary
280
     1
281
     1
  3
ACAD_MTEXT_RT
360
263
  0
DICTIONARY
  5
25E
330
6A
100
AcDbDictionary
280
     1
281
     1
  3
ACAD_MTEXT_RT
360
25F
  0
DICTIONARY
  5
23E
102
{ACAD_REACTORS
330
B
102
}
330
B
100
AcDbDictionary
281
     1
  3
DIMJOGANG
350
23F
  3
DIMLTEX1
350
241
  3
DIMLTEX2
350
242
  3
DIMLTYPE
350
240
  0
DICTIONARY
  5
41
102
{ACAD_REACTORS
330
B
102
}
330
B
100
AcDbDictionary
281
     1
  0
DICTIONARY
  5
1F4
102
{ACAD_REACTORS
330
B
102
}
330
B
100
AcDbDictionary
281
     1
  3
Imperial24
350
1FB
  3
Metric50
350
1FD
  0
FIELDLIST
  5
22D
102
{ACAD_REACTORS
330
B
102
}
330
B
100
AcDbIdSet
 90
        6
330
1F7
330
1F8
330
1F9
330
203
330
204
330
205
100
AcDbFieldList
  0
DICTIONARY
  5
38
102
{ACAD_REACTORS
330
B
102
}
330
B
100
AcDbDictionary
281
     1
  0
DICTIONARY
  5
1CD
102
{ACAD_REACTORS
330
B
102
}
330
B
100
AcDbDictionary
281
     1
  3
Glassline_Logo_RGB_72dpi
350
1CC
  3
www
350
1D1
  0
RASTERVARIABLES
  5
1CF
102
{ACAD_REACTORS
330
B
102
}
330
B
100
AcDbRasterVariables
 90
        0
 70
     1
 71
     1
 72
     1
  0
DICTIONARY
  5
18
102
{ACAD_REACTORS
330
B
102
}
330
B
100
AcDbDictionary
281
     1
  3
hybrid lite
350
20
  3
Model
350
17
  0
DICTIONARY
  5
D
102
{ACAD_REACTORS
330
B
102
}
330
B
100
AcDbDictionary
281
     1
  3
ByBlock
350
3E
  3
ByLayer
350
3B
  3
Global
350
C
  0
DICTIONARY
  5
44
102
{ACAD_REACTORS
330
B
102
}
330
B
100
AcDbDictionary
281
     1
  0
DICTIONARY
  5
39
102
{ACAD_REACTORS
330
B
102
}
330
B
100
AcDbDictionary
281
     1
  3
Standard
350
54
  0
DICTIONARY
  5
3A
102
{ACAD_REACTORS
330
B
102
}
330
B
100
AcDbDictionary
281
     1
  0
ACDBDICTIONARYWDFLT
  5
A
102
{ACAD_REACTORS
330
B
102
}
330
B
100
AcDbDictionary
281
     1
  3
Normal
350
9
100
AcDbDictionaryWithDefault
340
9
  0
DICTIONARY
  5
42
102
{ACAD_REACTORS
330
B
102
}
330
B
100
AcDbDictionary
281
     1
  3
A0
350
59
  3
A1
350
5A
  3
A2
350
5B
  3
A3
350
5C
  3
A4
350
5D
  3
A5
350
5E
  3
A6
350
5F
  3
A7
350
60
  3
A8
350
61
  3
A9
350
62
  3
B0
350
63
  3
B1
350
64
  3
B2
350
65
  3
B3
350
66
  3
B4
350
67
  3
B5
350
68
  3
B6
350
69
  0
DICTIONARY
  5
200
102
{ACAD_REACTORS
330
B
102
}
330
B
100
AcDbDictionary
281
     1
  3
Imperial24
350
20B
  3
Metric50
350
20D
  0
DICTIONARY
  5
43
102
{ACAD_REACTORS
330
B
102
}
330
B
100
AcDbDictionary
281
     1
  3
Standard
350
55
  0
DICTIONARY
  5
30
102
{ACAD_REACTORS
330
B
102
}
330
B
100
AcDbDictionary
281
     1
  3
2dWireframe
350
2F
  3
EdgeColorOff
350
93
  3
Realistic
350
57
  3
Wireframe
350
58
  0
XRECORD
  5
23D
102
{ACAD_REACTORS
330
B
102
}
330
B
100
AcDbXrecord
280
     1
 90
        1
330
55
330
6A
330
1C8
  0
DICTIONARY
  5
45
102
{ACAD_REACTORS
330
B
102
}
330
B
100
AcDbDictionary
281
     1
  3
CANNOSCALE
350
46
  3
CMLEADERSTYLE
350
47
  3
CTABLESTYLE
350
48
  3
CVIEWDETAILSTYLE
350
49
  3
CVIEWSECTIONSTYLE
350
4A
  3
DIMASSOC
350
4B
  3
HIDETEXT
350
4C
  3
HPCOLOR
350
4D
  3
HPTRANSPARENCY
350
4E
  3
INDEXCTL
350
237
  3
LAYEREVAL
350
4F
  3
LAYERNOTIFY
350
50
  3
LIGHTINGUNITS
350
235
  3
MSLTSCALE
350
234
  3
PSOLHEIGHT
350
239
  3
PSOLWIDTH
350
238
  3
SORTENTS
350
236
  3
XCLIPFRAME
350
23A
  0
DICTIONARY
  5
248
102
{ACAD_REACTORS
330
B
102
}
330
B
100
AcDbDictionary
281
     1
  3
AcDsRecords
350
24A
  3
AcDsSchemas
350
249
1001
ACAD
1070
     2
  0
DICTIONARY
  5
1E8
102
{ACAD_REACTORS
330
B
102
}
330
B
100
AcDbDictionary
281
     1
  3
AcmStdDictionary
350
1E9
  0
DICTIONARY
  5
1D8
102
{ACAD_REACTORS
330
B
102
}
330
B
100
AcDbDictionary
281
     1
  3
AcMgSettings
350
1E1
  0
DICTIONARY
  5
23
102
{ACAD_REACTORS
330
22
102
}
330
22
100
AcDbDictionary
281
     1
  0
DICTIONARY
  5
24
102
{ACAD_REACTORS
330
22
102
}
330
22
100
AcDbDictionary
280
     1
281
     1
  0
DICTIONARY
  5
4
102
{ACAD_REACTORS
330
3
102
}
330
3
100
AcDbDictionary
281
     1
  0
SORTENTSTABLE
  5
1D6
102
{ACAD_REACTORS
330
3
102
}
330
3
100
AcDbSortentsTable
330
2
  0
SORTENTSTABLE
  5
1D
102
{ACAD_REACTORS
330
1C
102
}
330
1C
100
AcDbSortentsTable
330
1B
  0
XRECORD
  5
23C
102
{ACAD_REACTORS
330
1C9
102
}
330
1C9
100
AcDbXrecord
280
     1
 40
643794.0
  1
\pxql;{\fCentury Gothic|b0|i0|c0|p34;Industriestraße 7-10\P74740 Adelsheim\PTel.: 06291-6259-0\PFax: 06291-6259-11\Pwww.glassline.de}
  0
XRECORD
  5
262
102
{ACAD_REACTORS
330
1C9
102
}
330
1C9
100
AcDbXrecord
280
     1
 40
691654.0
  1
{\fCentury Gothic|b0|i0|c0|p34;Industriestraße 7-10\P74740 Adelsheim\PTel.: 06291-6259-0\PFax: 06291-6259-11\Pwww.glassline.de}
  0
XRECORD
  5
263
102
{ACAD_REACTORS
330
1D4
102
}
330
1D4
100
AcDbXrecord
280
     1
 40
8772606.0
  1
{\fCentury Gothic|b0|i0|c0|p34;\C256;Alle Rechte vorbehalten, einschließlich\PVervielfältigung, Einlesen auf elektronischen\PDatenträgern und die Weitergabe an dritte\PPersonen nur nach ausdrücklicher Genehmigung\Pder Firma GLASSLINE GmbH.\P\PAll rig
  1
hts reserved, including duplication, \Pimport on electronic data carries and \Pdisclosure to third parties only with \Pthe explicit permission of GLASSLINE GmbH.}
  0
XRECORD
  5
25F
102
{ACAD_REACTORS
330
25E
102
}
330
25E
100
AcDbXrecord
280
     1
 40
314761.0
  1
BALARDO hybrid lite, Top 1\PAußenecke ({\fISOCPEUR|b0|i0|c0|p34;outer corner)}
  0
XRECORD
  5
23F
102
{ACAD_REACTORS
330
23E
102
}
330
23E
100
AcDbXrecord
280
     1
 40
1.570796326794896
  0
XRECORD
  5
241
102
{ACAD_REACTORS
330
23E
102
}
330
23E
100
AcDbXrecord
280
     1
340
29
  0
XRECORD
  5
242
102
{ACAD_REACTORS
330
23E
102
}
330
23E
100
AcDbXrecord
280
     1
340
29
  0
XRECORD
  5
240
102
{ACAD_REACTORS
330
23E
102
}
330
23E
100
AcDbXrecord
280
     1
340
29
  0
ACDBDETAILVIEWSTYLE
  5
1FB
102
{ACAD_XDICTIONARY
360
264
102
}
102
{ACAD_REACTORS
330
1F4
330
1FA
102
}
330
1F4
100
AcDbModelDocViewStyle
 70
     0
  3
Imperial24
290
     0
100
AcDbDetailViewStyle
 70
     0
 71
     0
 90
        3
 71
     1
340
26
 40
0.24
340
0
 40
0.24
300

 40
0.36
280
     3
 71
     2
340
15
 90
       25
 71
     3
340
26
 40
0.24
 90
        1
 40
0.75
 90
        1
300
%<\AcVar ViewType \f "%tc1">% %<\AcVar ViewDetailId>%\PVARIA %<\AcVar ViewScale \f "%sn">%
 71
     4
340
15
 90
       25
340
15
 90
       25
280
     0
  0
ACDBDETAILVIEWSTYLE
  5
1FD
102
{ACAD_XDICTIONARY
360
266
102
}
102
{ACAD_REACTORS
330
1F4
330
1FC
102
}
330
1F4
100
AcDbModelDocViewStyle
 70
     0
  3
Metric50
290
     0
100
AcDbDetailViewStyle
 70
     0
 71
     0
 90
        3
 71
     1
340
26
 40
5.0
340
0
 40
5.0
300

 40
0.0
280
     1
 71
     2
340
15
 90
       25
 71
     3
340
26
 40
5.0
 90
        0
 40
15.0
 90
        1
300
%<\AcVar ViewDetailId>% (%<\AcVar ViewScale \f "%sn">%)
 71
     4
340
15
 90
       25
340
15
 90
       25
280
     0
  0
IMAGEDEF
  5
1CC
102
{ACAD_REACTORS
330
1CD
330
1CE
102
}
330
1CD
100
AcDbRasterImageDef
 90
        0
  1
T:\Marketing\Öffentlich\Logo\Glassline_Logo_RGB_72dpi.jpg
 10
493.0
 20
104.0
 11
0.3527777777777778
 21
0.3527777777777778
280
     1
281
     5
  0
IMAGEDEF
  5
1D1
102
{ACAD_REACTORS
330
1CD
330
1D2
102
}
330
1CD
100
AcDbRasterImageDef
 90
        0
  1
T:\Technik\Öffentlich\www.glassline.de-QR.jpg
 10
330.0
 20
330.0
 11
0.003030303030303
 21
0.003030303030303
280
     1
281
     0
  0
LAYOUT
  5
20
102
{ACAD_XDICTIONARY
360
24D
102
}
102
{ACAD_REACTORS
330
18
102
}
330
18
100
AcDbPlotSettings
  1

  2
Kein
  4
ISO_A4_(210.00_x_297.00_MM)
  6

 40
7.5
 41
20.0
 42
7.5
 43
20.0
 44
210.0
 45
297.0
 46
0.0
 47
0.0
 48
0.0
 49
0.0
140
0.0
141
0.0
142
1.0
143
1.0
 70
   688
 72
     1
 73
     1
 74
     5
  7

 75
    16
147
1.0
148
0.0
149
0.0
100
AcDbLayout
  1
hybrid lite
 70
     1
 71
     7
 10
0.0
 20
0.0
 11
12.0
 21
9.0
 12
0.0
 22
0.0
 32
0.0
 14
-336.0581622965808
 24
-2275.066915115365
 34
0.0
 15
2200.992315193187
 25
732.75702618344
 35
0.0
146
0.0
 13
0.0
 23
0.0
 33
0.0
 16
1.0
 26
0.0
 36
0.0
 17
0.0
 27
1.0
 37
0.0
 76
     0
330
1B
1001
ACAD_PSEXT
1000
Kein
1000
Kein
1000
Nicht anwendbar
1000
Das Layout wird erst geplottet, wenn ein neuer Plotter-Konfigurationsname ausgewählt wird.
1070
     0
  0
LAYOUT
  5
17
102
{ACAD_XDICTIONARY
360
19
102
}
102
{ACAD_REACTORS
330
18
102
}
330
18
100
AcDbPlotSettings
  1

  2
none_device
  4
ISO_A4_(210.00_x_297.00_MM)
  6

 40
7.5
 41
20.0
 42
7.5
 43
20.0
 44
210.0
 45
297.0
 46
11.54999923706054
 47
-13.65000009536743
 48
0.0
 49
0.0
140
0.0
141
0.0
142
1.0
143
8.704084754739808
 70
 11952
 72
     1
 73
     0
 74
     0
  7

 75
     0
147
0.1148885871608098
148
0.0
149
0.0
100
AcDbLayout
  1
Model
 70
     1
 71
     0
 10
0.0
 20
0.0
 11
12.0
 21
9.0
 12
0.0
 22
0.0
 32
0.0
 14
0.0
 24
0.0
 34
0.0
 15
0.0
 25
0.0
 35
0.0
146
0.0
 13
0.0
 23
0.0
 33
0.0
 16
1.0
 26
0.0
 36
0.0
 17
0.0
 27
1.0
 37
0.0
 76
     0
330
2
331
2E
1001
ACAD_PSEXT
1000
None
1000
None
1000
Not applicable
1000
The layout will not be plotted unless a new plotter configuration name is selected.
1070
     0
  0
MATERIAL
  5
3E
102
{ACAD_XDICTIONARY
360
3F
102
}
102
{ACAD_REACTORS
330
D
102
}
330
D
100
AcDbMaterial
  1
ByBlock
  0
MATERIAL
  5
3B
102
{ACAD_XDICTIONARY
360
3C
102
}
102
{ACAD_REACTORS
330
D
102
}
330
D
100
AcDbMaterial
  1
ByLayer
  0
MATERIAL
  5
C
102
{ACAD_XDICTIONARY
360
E
102
}
102
{ACAD_REACTORS
330
D
102
}
330
D
100
AcDbMaterial
  1
Global
 43
0.0007999999797903
 43
0.0
 43
0.0
 43
0.0
 43
0.0
 43
0.0007999999797903
 43
0.0
 43
0.0
 43
0.0
 43
0.0
 43
1.0
 43
0.0
 43
0.0
 43
0.0
 43
0.0
 43
1.0
 49
0.0007999999797903
 49
0.0
 49
0.0
 49
0.0
 49
0.0
 49
0.0007999999797903
 49
0.0
 49
0.0
 49
0.0
 49
0.0
 49
1.0
 49
0.0
 49
0.0
 49
0.0
 49
0.0
 49
1.0
142
0.0007999999797903
142
0.0
142
0.0
142
0.0
142
0.0
142
0.0007999999797903
142
0.0
142
0.0
142
0.0
142
0.0
142
1.0
142
0.0
142
0.0
142
0.0
142
0.0
142
1.0
144
0.0007999999797903
144
0.0
144
0.0
144
0.0
144
0.0
144
0.0007999999797903
144
0.0
144
0.0
144
0.0
144
0.0
144
1.0
144
0.0
144
0.0
144
0.0
144
0.0
144
1.0
1001
ACAD
1070
    -1
1070
     3
1070
     0
1000

1071
        0
1070
     0
  0
MLINESTYLE
  5
54
102
{ACAD_REACTORS
330
39
102
}
330
39
100
AcDbMlineStyle
  2
STANDARD
 70
     0
  3

 62
   256
 51
90.0
 52
90.0
 71
     2
 49
0.5
 62
   256
  6
BYLAYER
 49
-0.5
 62
   256
  6
BYLAYER
  0
ACDBPLACEHOLDER
  5
9
102
{ACAD_REACTORS
330
A
102
}
330
A
  0
SCALE
  5
59
102
{ACAD_REACTORS
330
42
102
}
330
42
100
AcDbScale
 70
     0
300
1:1
140
1.0
141
1.0
290
     1
  0
SCALE
  5
5A
102
{ACAD_REACTORS
330
42
102
}
330
42
100
AcDbScale
 70
     0
300
1:2
140
1.0
141
2.0
290
     0
  0
SCALE
  5
5B
102
{ACAD_REACTORS
330
42
102
}
330
42
100
AcDbScale
 70
     0
300
1:4
140
1.0
141
4.0
290
     0
  0
SCALE
  5
5C
102
{ACAD_REACTORS
330
42
102
}
330
42
100
AcDbScale
 70
     0
300
1:5
140
1.0
141
5.0
290
     0
  0
SCALE
  5
5D
102
{ACAD_REACTORS
330
42
102
}
330
42
100
AcDbScale
 70
     0
300
1:8
140
1.0
141
8.0
290
     0
  0
SCALE
  5
5E
102
{ACAD_REACTORS
330
42
102
}
330
42
100
AcDbScale
 70
     0
300
1:10
140
1.0
141
10.0
290
     0
  0
SCALE
  5
5F
102
{ACAD_REACTORS
330
42
102
}
330
42
100
AcDbScale
 70
     0
300
1:16
140
1.0
141
16.0
290
     0
  0
SCALE
  5
60
102
{ACAD_REACTORS
330
42
102
}
330
42
100
AcDbScale
 70
     0
300
1:20
140
1.0
141
20.0
290
     0
  0
SCALE
  5
61
102
{ACAD_REACTORS
330
42
102
}
330
42
100
AcDbScale
 70
     0
300
1:30
140
1.0
141
30.0
290
     0
  0
SCALE
  5
62
102
{ACAD_REACTORS
330
42
102
}
330
42
100
AcDbScale
 70
     0
300
1:40
140
1.0
141
40.0
290
     0
  0
SCALE
  5
63
102
{ACAD_REACTORS
330
42
102
}
330
42
100
AcDbScale
 70
     0
300
1:50
140
1.0
141
50.0
290
     0
  0
SCALE
  5
64
102
{ACAD_REACTORS
330
42
102
}
330
42
100
AcDbScale
 70
     0
300
1:100
140
1.0
141
100.0
290
     0
  0
SCALE
  5
65
102
{ACAD_REACTORS
330
42
102
}
330
42
100
AcDbScale
 70
     0
300
2:1
140
2.0
141
1.0
290
     0
  0
SCALE
  5
66
102
{ACAD_REACTORS
330
42
102
}
330
42
100
AcDbScale
 70
     0
300
4:1
140
4.0
141
1.0
290
     0
  0
SCALE
  5
67
102
{ACAD_REACTORS
330
42
102
}
330
42
100
AcDbScale
 70
     0
300
8:1
140
8.0
141
1.0
290
     0
  0
SCALE
  5
68
102
{ACAD_REACTORS
330
42
102
}
330
42
100
AcDbScale
 70
     0
300
10:1
140
10.0
141
1.0
290
     0
  0
SCALE
  5
69
102
{ACAD_REACTORS
330
42
102
}
330
42
100
AcDbScale
 70
     0
300
100:1
140
100.0
141
1.0
290
     0
  0
ACDBSECTIONVIEWSTYLE
  5
20B
102
{ACAD_XDICTIONARY
360
268
102
}
102
{ACAD_REACTORS
330
200
330
20A
102
}
330
200
100
AcDbModelDocViewStyle
 70
     0
  3
Imperial24
290
     0
100
AcDbSectionViewStyle
 70
     0
 71
     0
 90
       78
 71
     1
340
26
 40
0.24
340
0
340
0
 40
0.24
300
I, O, Q, S, X, Z
 40
0.48
 90
        3
 40
0.18
 90
        1
 71
     2
340
15
 90
       25
340
15
 90
       50
 40
0.24
 40
0.0
 40
0.24
 71
     3
340
26
 40
0.24
 90
        1
 40
0.75
 90
        1
300
%<\AcVar ViewType \f "%tc1">% %<\AcVar ViewSectionStartId>%-%<\AcVar ViewSectionEndId>%\PVARIA %<\AcVar ViewScale \f "%sn">%
 71
     4
300
ANSI31
 40
1.0
 90
        0
290
     0
290
     0
 90
        6
 40
0.0
 40
1.570796326794896
 40
0.2617993877991494
 40
1.308996938995747
 40
-0.2617993877991494
 40
1.832595714594046
  0
ACDBSECTIONVIEWSTYLE
  5
20D
102
{ACAD_XDICTIONARY
360
26A
102
}
102
{ACAD_REACTORS
330
200
330
20C
102
}
330
200
100
AcDbModelDocViewStyle
 70
     0
  3
Metric50
290
     0
100
AcDbSectionViewStyle
 70
     0
 71
     0
 90
      102
 71
     1
340
26
 40
5.0
340
0
340
0
 40
5.0
300
I, O, Q, S, X, Z
 40
10.0
 90
        0
 40
2.5
 90
        0
 71
     2
340
15
 90
       25
340
15
 90
       50
 40
5.0
 40
2.5
 40
5.0
 71
     3
340
26
 40
5.0
 90
        0
 40
15.0
 90
        1
300
%<\AcVar ViewSectionStartId>%-%<\AcVar ViewSectionEndId>% (%<\AcVar ViewScale \f "%sn">%)
 71
     4
300
ANSI31
 40
1.0
 90
        0
290
     0
290
     0
 90
        6
 40
0.0
 40
1.570796326794896
 40
0.2617993877991494
 40
1.308996938995747
 40
-0.2617993877991494
 40
1.832595714594046
  0
TABLESTYLE
  5
55
102
{ACAD_XDICTIONARY
360
56
102
}
102
{ACAD_REACTORS
330
43
102
}
330
43
100
AcDbTableStyle
  3
Standard
 70
     0
 71
     0
 40
1.5
 41
1.5
280
     0
281
     0
  7
Standard
140
4.5
170
     2
 62
     0
 63
     7
283
     0
274
    -2
284
     1
 64
     0
275
    -2
285
     1
 65
     0
276
    -2
286
     1
 66
     0
277
    -2
287
     1
 67
     0
278
    -2
288
     1
 68
     0
279
    -2
289
     1
 69
     0
  7
Standard
140
6.0
170
     5
 62
     0
 63
     7
283
     0
274
    -2
284
     1
 64
     0
275
    -2
285
     1
 65
     0
276
    -2
286
     1
 66
     0
277
    -2
287
     1
 67
     0
278
    -2
288
     1
 68
     0
279
    -2
289
     1
 69
     0
  7
Standard
140
4.5
170
     5
 62
     0
 63
     7
283
     0
274
    -2
284
     1
 64
     0
275
    -2
285
     1
 65
     0
276
    -2
286
     1
 66
     0
277
    -2
287
     1
 67
     0
278
    -2
288
     1
 68
     0
279
    -2
289
     1
 69
     0
  0
VISUALSTYLE
  5
2F
102
{ACAD_XDICTIONARY
360
24F
102
}
102
{ACAD_REACTORS
330
30
102
}
330
30
100
AcDbVisualStyle
  2
2dWireframe
 70
     4
 71
     0
 72
     2
 73
     1
 90
        0
 40
-0.6
 41
-30.0
 62
     5
 63
     7
 74
     1
 91
        4
 64
     7
 65
   257
 75
     1
175
     1
 42
1.0
 92
        0
 66
   257
 43
1.0
 76
     1
 77
     6
 78
     2
 67
     7
 79
     5
170
     0
171
     0
290
     0
174
     0
 93
        1
 44
0.0
173
     0
291
     0
 45
0.0
1001
ACAD
1000
AcDbSavedByObjectVersion
1070
     0
  0
VISUALSTYLE
  5
93
102
{ACAD_XDICTIONARY
360
260
102
}
102
{ACAD_REACTORS
330
30
102
}
330
30
100
AcDbVisualStyle
  2
EdgeColorOff
 70
    22
 71
     2
 72
     2
 73
     0
 90
        0
 40
-0.6
 41
-30.0
 62
     5
 63
     7
 74
     1
 91
        4
 64
     7
 65
   257
 75
     1
175
     1
 42
1.0
 92
        8
 66
     7
 43
1.0
 76
     1
 77
     6
 78
     2
 67
     7
 79
     5
170
     0
171
     0
290
     0
174
     0
 93
        1
 44
0.0
173
     0
291
     1
 45
0.0
1001
ACAD
1000
AcDbSavedByObjectVersion
1070
     0
  0
VISUALSTYLE
  5
57
102
{ACAD_XDICTIONARY
360
25A
102
}
102
{ACAD_REACTORS
330
30
102
}
330
30
100
AcDbVisualStyle
  2
Realistic
 70
     8
 71
     2
 72
     3
 73
     0
 90
        2
 40
-0.6
 41
30.0
 62
     5
 63
     7
 74
     0
 91
        0
 64
     7
 65
   257
 75
     1
175
     1
 42
1.0
 92
        8
 66
   257
 43
1.0
 76
     1
 77
     6
 78
     2
 67
     7
 79
     3
170
     0
171
     0
290
     0
174
     0
 93
       13
 44
0.0
173
     0
291
     0
 45
0.0
1001
ACAD
1000
AcDbSavedByObjectVersion
1070
     0
  0
VISUALSTYLE
  5
58
102
{ACAD_XDICTIONARY
360
25C
102
}
102
{ACAD_REACTORS
330
30
102
}
330
30
100
AcDbVisualStyle
  2
Wireframe
 70
     5
 71
     0
 72
     2
 73
     0
 90
        0
 40
-0.6
 41
-30.0
 62
     5
 63
     7
 74
     1
 91
        4
 64
     7
 65
   257
 75
     1
175
     1
 42
1.0
 92
        0
 66
   257
 43
1.0
 76
     1
 77
     6
 78
     2
 67
     7
 79
     3
170
     0
171
     0
290
     0
174
     0
 93
        1
 44
0.0
173
     0
291
     0
 45
0.0
1001
ACAD
1000
AcDbSavedByObjectVersion
1070
     0
  0
DICTIONARYVAR
  5
46
102
{ACAD_REACTORS
330
45
102
}
330
45
100
DictionaryVariables
280
     0
  1
1:1
  0
DICTIONARYVAR
  5
47
102
{ACAD_REACTORS
330
45
102
}
330
45
100
DictionaryVariables
280
     0
  1
STANDARD
  0
DICTIONARYVAR
  5
48
102
{ACAD_REACTORS
330
45
102
}
330
45
100
DictionaryVariables
280
     0
  1
STANDARD
  0
DICTIONARYVAR
  5
49
102
{ACAD_REACTORS
330
45
102
}
330
45
100
DictionaryVariables
280
     0
  1

  0
DICTIONARYVAR
  5
4A
102
{ACAD_REACTORS
330
45
102
}
330
45
100
DictionaryVariables
280
     0
  1

  0
DICTIONARYVAR
  5
4B
102
{ACAD_REACTORS
330
45
102
}
330
45
100
DictionaryVariables
280
     0
  1
2
  0
DICTIONARYVAR
  5
4C
102
{ACAD_REACTORS
330
45
102
}
330
45
100
DictionaryVariables
280
     0
  1
1
  0
DICTIONARYVAR
  5
4D
102
{ACAD_REACTORS
330
45
102
}
330
45
100
DictionaryVariables
280
     0
  1
BYLAYER
  0
DICTIONARYVAR
  5
4E
102
{ACAD_REACTORS
330
45
102
}
330
45
100
DictionaryVariables
280
     0
  1
ByLayer
  0
DICTIONARYVAR
  5
237
102
{ACAD_REACTORS
330
45
102
}
330
45
100
DictionaryVariables
280
     0
  1
0
  0
DICTIONARYVAR
  5
4F
102
{ACAD_REACTORS
330
45
102
}
330
45
100
DictionaryVariables
280
     0
  1
0
  0
DICTIONARYVAR
  5
50
102
{ACAD_REACTORS
330
45
102
}
330
45
100
DictionaryVariables
280
     0
  1
0
  0
DICTIONARYVAR
  5
235
102
{ACAD_REACTORS
330
45
102
}
330
45
100
DictionaryVariables
280
     0
  1
2
  0
DICTIONARYVAR
  5
234
102
{ACAD_REACTORS
330
45
102
}
330
45
100
DictionaryVariables
280
     0
  1
1
  0
DICTIONARYVAR
  5
239
102
{ACAD_REACTORS
330
45
102
}
330
45
100
DictionaryVariables
280
     0
  1
80.000000
  0
DICTIONARYVAR
  5
238
102
{ACAD_REACTORS
330
45
102
}
330
45
100
DictionaryVariables
280
     0
  1
5.000000
  0
DICTIONARYVAR
  5
236
102
{ACAD_REACTORS
330
45
102
}
330
45
100
DictionaryVariables
280
     0
  1
127
  0
DICTIONARYVAR
  5
23A
102
{ACAD_REACTORS
330
45
102
}
330
45
100
DictionaryVariables
280
     0
  1
2
  0
DICTIONARY
  5
24A
102
{ACAD_REACTORS
330
248
102
}
330
248
100
AcDbDictionary
281
     1
  0
DICTIONARY
  5
249
102
{ACAD_REACTORS
330
248
102
}
330
248
100
AcDbDictionary
281
     1
  3
2002114637360
350
243
  3
2002114637376
350
244
  3
2002114637392
350
245
  3
2002114637408
350
246
  3
2002114637424
350
247
  0
DICTIONARY
  5
1E9
102
{ACAD_REACTORS
330
1E8
102
}
330
1E8
100
AcDbDictionary
281
     1
  0
DICTIONARY
  5
1E1
102
{ACAD_REACTORS
330
1D8
102
}
330
1D8
100
AcDbDictionary
281
     1
  3
DWGSETTINGS
350
1E0
  3
Shaft
350
1E2
  3
TRANSSETTINGS
350
1E3
  0
DICTIONARY
  5
264
330
1FB
100
AcDbDictionary
280
     1
281
     1
  3
ACAD_XREC_ROUNDTRIP
360
265
  0
DICTIONARY
  5
266
330
1FD
100
AcDbDictionary
280
     1
281
     1
  3
ACAD_XREC_ROUNDTRIP
360
267
  0
DICTIONARY
  5
24D
330
20
100
AcDbDictionary
280
     1
281
     1
  3
ACAD_XREC_ROUNDTRIP
360
24E
  0
DICTIONARY
  5
19
330
17
100
AcDbDictionary
280
     1
281
     1
  3
ACAD_XREC_ROUNDTRIP
360
24C
  0
DICTIONARY
  5
3F
330
3E
100
AcDbDictionary
280
     1
281
     1
  3
ACAD_XREC_ROUNDTRIP
360
258
  3
FBXASSET
360
40
  0
DICTIONARY
  5
3C
330
3B
100
AcDbDictionary
280
     1
281
     1
  3
ACAD_XREC_ROUNDTRIP
360
257
  3
FBXASSET
360
3D
  0
DICTIONARY
  5
E
330
C
100
AcDbDictionary
280
     1
281
     1
  3
ACAD_XREC_ROUNDTRIP
360
24B
  3
BUMPTILE
360
F
  3
DIFFUSETILE
360
10
  3
FBXASSET
360
11
  3
OPACITYTILE
360
12
  3
REFLECTIONTILE
360
13
  0
DICTIONARY
  5
268
330
20B
100
AcDbDictionary
280
     1
281
     1
  3
ACAD_XREC_ROUNDTRIP
360
269
  0
DICTIONARY
  5
26A
330
20D
100
AcDbDictionary
280
     1
281
     1
  3
ACAD_XREC_ROUNDTRIP
360
26B
  0
DICTIONARY
  5
56
330
55
100
AcDbDictionary
280
     1
281
     1
  3
ACAD_ROUNDTRIP_2008_TABLESTYLE_CELLSTYLEMAP
360
23B
  3
ACAD_XREC_ROUNDTRIP
360
259
  0
DICTIONARY
  5
24F
330
2F
100
AcDbDictionary
280
     1
281
     1
  3
ACAD_XREC_ROUNDTRIP
360
250
  0
DICTIONARY
  5
260
330
93
100
AcDbDictionary
280
     1
281
     1
  3
ACAD_XREC_ROUNDTRIP
360
261
  0
DICTIONARY
  5
25A
330
57
100
AcDbDictionary
280
     1
281
     1
  3
ACAD_XREC_ROUNDTRIP
360
25B
  0
DICTIONARY
  5
25C
330
58
100
AcDbDictionary
280
     1
281
     1
  3
ACAD_XREC_ROUNDTRIP
360
25D
  0
XRECORD
  5
243
102
{ACAD_REACTORS
330
249
102
}
330
249
100
AcDbXrecord
280
     1
  1
AcDb_Thumbnail_Schema
102
{ATTRRECORD
341
244
  2
AcDbDs::TreatedAsObjectData
280
     1
291
     1
102
ATTRRECORD}
102
{ATTRRECORD
341
245
  2
AcDbDs::Legacy
280
     1
291
     1
102
ATTRRECORD}
  2
AcDbDs::ID
280
    10
 91
        8
102
{ATTRRECORD
341
246
  2
AcDs:Indexable
280
     1
291
     1
102
ATTRRECORD}
102
{ATTRRECORD
341
247
  2
AcDbDs::HandleAttribute
280
     7
282
     1
102
ATTRRECORD}
  2
Thumbnail_Data
280
    15
 91
        0
  0
XRECORD
  5
244
102
{ACAD_REACTORS
330
249
102
}
330
249
100
AcDbXrecord
280
     1
  1
AcDbDs::TreatedAsObjectDataSchema
  2
AcDbDs::TreatedAsObjectData
280
     1
 91
        0
  0
XRECORD
  5
245
102
{ACAD_REACTORS
330
249
102
}
330
249
100
AcDbXrecord
280
     1
  1
AcDbDs::LegacySchema
  2
AcDbDs::Legacy
280
     1
 91
        0
  0
XRECORD
  5
246
102
{ACAD_REACTORS
330
249
102
}
330
249
100
AcDbXrecord
280
     1
  1
AcDbDs::IndexedPropertySchema
  2
AcDs:Indexable
280
     1
 91
        0
  0
XRECORD
  5
247
102
{ACAD_REACTORS
330
249
102
}
330
249
100
AcDbXrecord
280
     1
  1
AcDbDs::HandleAttributeSchema
  2
AcDbDs::HandleAttribute
280
     7
 91
        1
284
     1
  0
XRECORD
  5
265
102
{ACAD_REACTORS
330
264
102
}
330
264
100
AcDbXrecord
280
     1
102
DISPLAYNAME
  1
Imperial24
102
FLAGS
 90
        0
  0
XRECORD
  5
267
102
{ACAD_REACTORS
330
266
102
}
330
266
100
AcDbXrecord
280
     1
102
DISPLAYNAME
  1
Metric50
102
FLAGS
 90
        0
  0
XRECORD
  5
24E
102
{ACAD_REACTORS
330
24D
102
}
330
24D
100
AcDbXrecord
280
     1
102
SHADEPLOT
 70
     0
102
SHADEPLOTRESLEVEL
 70
     2
102
SHADEPLOTCUSTOMDPI
 70
   300
  0
XRECORD
  5
24C
102
{ACAD_REACTORS
330
19
102
}
330
19
100
AcDbXrecord
280
     1
102
SHADEPLOT
 70
     0
102
SHADEPLOTRESLEVEL
 70
     2
102
SHADEPLOTCUSTOMDPI
 70
   300
  0
XRECORD
  5
258
102
{ACAD_REACTORS
330
3F
102
}
330
3F
100
AcDbXrecord
280
     1
102
MATERIAL
148
0.0
149
0.0
149
0.0
 93
        0
 94
       63
282
     0
 72
     1
 77
     1
171
     1
175
     1
179
     1
273
     0
  0
XRECORD
  5
40
102
{ACAD_REACTORS
330
3F
102
}
330
3F
100
AcDbXrecord
280
     1
 70
     1
 90
429727718
  1
D62C5603-E3A1-4AEA-B7FB-FE5D8D0755AF
310
504B03040A0000080000CC70623B3DEE336E79000000790000001B0000006175746F6465736B2D64657369676E2D7061636B6167652E786D6C3C3F786D6C2076657273696F6E3D22312E302220656E636F64696E673D227574662D3822203F3E3C666F726D6174733E3C666F726D61743E687474703A2F2F736368656D612E
310
6175746F6465736B2E636F6D2F64657369676E2D7061636B6167652F323030393C2F666F726D61743E3C2F666F726D6174733E504B0304140006080800CC70623BD486FD9CA0000000F4000000130000005B436F6E74656E745F54797065735D2E786D6C7D8EC10E82300C865F65E91D8A1E8C310C0EEA1BF002731658846E
310
D98AC1B77784ABF1D8FE5FBFBF75BBCE937A534CCEB38643598122B6FEE978D0B0485F9C41B54DDD7D022595594E1A469170414C76A4D9A4D207E29CF43ECE46F218070CC6BECC4078ACAA135ACF422C856C0E68EA1BF5669944DDD7BCDE7B1F8E415D77AECB980613C2E4AC91FC167A2B244592486606FC29C8FD7F045B9A
310
EF7053A7E60B504B0304140006080800CC70623B853B8169EB0000007C01000008000000636F72652E786D6C8D90416EC3201045AF62CDB6C206821CC7C244919D9CA01740401C94182C03558F5F9C3852BBEB6A467FFE9B197D7EFC9E1EC5975982F5AE035262288C535E5B377690E21535501C055FBC8FBF6C503839990E
310
5619041F179FE64D52DE45E362569DD7661365082642A11EB9E920A89B99642953CC8E702F67A9EE7234257977194EC9EAE275C4EABCCF5EAD5940D4AC6F0E35A568B8F43562CD7046CD199FD07E60174276A7BE677B5EADB0E0D14EEFFB6A31321A0D82627C4084204C3F096B71DD52F6819B16635EADF63F509AF53FA164
310
5DDCD1EDDD17164090FCC8732078B56691CB33A85CD7DCC40F504B0304140006080800CC70623B55019EA25F0000007C00000007000000636E782E786D6C4DCB3B0E80201045D1AD90E915ED2CF8AC45050C11660C8261F98AB1B07AC9C97D42D718D865D3E909258CFD00CCE24AC6E326A164D74DC0B4128928FF32603847
310
2BA13128B1252AC747C6BAB984FC68F0B87FE8960A5C09FE86CFB69FBA01504B0304140006080800CC70623BDBABAAF470010000D40300000C0000006662782F636F72652E786D6CC553D16E823014FD95A6AF4B694182CC941A83FA05FB810A9511A125A5257EFE2E82712ECEB8A7F100CD39F7F69E734AF9FADC366850B6
310
AF8DCE7018308C942E4C59EB2AC3DE1D498AD15A706B8CFB56869196ADCAF00863C12B6B7C374385D14E6907A836A59A41D9F7CA615434B0C8705F7CAA5606D23BA8E84F41278B93AC54100640439DE0BDB320004D43C63716C7C399D30917DCFBBA9CD9BA8469F5B156168B24CED3F7248AC8769F27244EB73B92EED8862C
310
B7F13E0C179B3C8F979C8ECD82BBBABDAA2BAC924E9558448CBD9330242CFA08E3154B5651FCC6D215639C8EE5774DBE2B5F6CF2B5768B68963BB5F5588420E442FC700B1139D4CB01F450C1E918227C2E09DF070D8140C84E1E9AAB8F1340832A9CB13130A5F1376A908D57309505ECF2A0DF179C4E9D30F5B239B87E3823
310
7A79C6F31DE1A8A5AEC08474B03C7837EAE4938639B44E5932B833D2C6B6B279CDC613877FA26EE21F4A2A4C63EC7F29A2F301D1F9F7A0E37D145F504B0304140006080800CC70623B9C113CC27E0000009D0000000B0000006662782F636E782E786D6C4DCCDF0A83201C86E15B91DFB94BFB330DD428C8FB886521330DA7
310
6397BF1A1DECE883878F57749FCDA1B7892F1BBC047A23808C7F84D9FA55424E0BE6803A256208E9EF06C84F9B91703228B1C690F78B66B34CD9A5439DF5CF0BFBF65E35BCA1B8D6A5C6F540381E886698B5741C695F9503EBA150A2F8958E3DC3EA0B504B0304140006080800CC70623B7DF2F77C2A010000120200003100
310
00006662782F41393633353835312D344632462D344230382D423046372D3739314545314133324237412F636F72652E786D6C8D51DB8EC22014FC15C2939B0D2DB4B45643319AE817EC0F6041255A68B86CFCFC856D4D76DF7CE190393373060EDB3DC707F856CE6B6B7A480A0C81328395DA5C7B18C3057510EC3873D686
310
3F34088C18550F330C39BB3A1BA7051AAC09CA84841A2BD5020AEF55806078A44B0FFD7053A328440C89E1EFC52486BBB8AA8214A99D789CF9E05200300FC927E4FB4D5B375D43103D5527440FB843077C5AA3F5861C8F645F5787F59E95B390B318B55CE45AA638FAA2957BD7248B390B7A7CC51F9C124149C82B8C378810
310
84AB2F42B7B8DD56F413775B8C5999E9FF4471926F8AA236A1AE96B8B3CC434E5839373893369E1FAF30EA395917409EB7F26AF8801C171837A4A6AC9C89E9F9C9B1A58BA30FD6A5EF5DDDCF894B9AD9B6A59C957943A9FCAE2FD5BC4DFE03504B0304140006080800CC70623BAD7543B64E01000033030000300000006662
310
782F41393633353835312D344632462D344230382D423046372D3739314545314133324237412F636E782E786D6CD593CD6EC32010845F0571AD6CE3D48AD20813A9873E410FBD12D82434182C7EAAE6EDBB2424CD25871E7B41D6EC30B3FA84F9E67BB2E40B4234DE8DB46F1925E094D7C6ED479AD3AE5951B2113C789FEE
310
6C943839C1488B4C05DF079FE72A69D8C96C13AAD6B8631503449F83828872B949AC57D26200B826A308D316B4064D6E46FCDA41C05550DC9E483A00797BFD207EFB092A45DE9514C1BBD22178396BD39D891265658C238DEA00936C654E5E433CB65A26D9F6EDB5EBC14EBF49A45CB856E66048291F6939A9A81BB5C89177
310
38143CA680F4AA299D66A042CEB3354A2684DC9D8D178FE0D9B8B41CAAD720F880EE7EF93C0C18769E099ECC04D5A102C8049A8A05632F4DDF376CF1DE0F6BB65C2F8627B65A33C6BB62177CEBBDAD973006829F89F22E814B54F4BC2BE347F8AA8F681390B50FA73F804400B5F542E796F19FF974E7F78DB802FE05E20750
310
4B0304140006080800CC70623BE75B7789680500003C100000340000006662782F41393633353835312D344632462D344230382D423046372D3739314545314133324237412F6F626A656374732E786D6CAD575B8F9B3818FD2B887D06C22499CB8AA1CA655245D5B455A356FB305264C061D8018C6C3393D95FBFC7600890
310
A4CD5EF210B0B1BFEBF98E3F7B1FF6596ABC522E1296DF9BAE3D320D9A872C4AF2F8DE2CE5CEBA358D0FBEC719939D65A691938CDE9B6ADAF4BD98B3B2D05311DD91329583D9D5FC0F438434A7A611A644887B5384CF34233629258BA878B12322891DEFF6B66BD70BFB62634E8AE781D082709A4B588AF91C528CDA28B73F
310
1C998EEF39EABBEFA97FBD6A7C7E9553F9D3D79FE442923C3C523610337627CB87ABE99D359D4CC6D6E4FACAB5E6ABF9D2726FC6A3C5F56271377BB88362213924694B38DD99FE47C48627A1E7D49F5A8BB5E1A74C0A599ED3B0F21F1E56366B89112D681E218F0915D0D6F17AD41FBA2A369DCF6335D62ABBD39779D5DDD1
310
11D4D8DE3CBB96B2E04FB8202E41051754A1AA8E8F76B4C6DFE810B580B1547F4B84911149794252234D024EF8BBE963A95AE27B3D310A9D5C215C7960FAEE415ED75694C6AFB17BCACA5D99A60A9AA65F217B0BFC53292ACB92BF283FAD0D3621576592CB5BED907C2FA8E9DF794E35E97BEA31BED21FEB401ABB94C44839
310
DCACBF0E1C5DA8DA5B2F4DFFD32AD86F543D9E565E7056502E157C00AD2671CD534549AB752FCA9CDA00677A313F04E51B22FF19E57B300579E3C97EB29F682D92935CEC18CF901B7B54FD8C51F362B56FC72FE0B3C1EAE335EDCCBF5AEC39ADB17DC238973F804BA5E6F6BFE7AF1FB32E523BE9F3BD571418E3631DCA4D48
310
5250CF639223210A9446CA30052EDF057BD35F8329C1ECD84552BF0DC8D18BE7BCE23BFE6BD960AB4A7DE79923A103BEBD80F911CBAA2C60DB19B01CF164A5583B772EE6D3FFA56666CBCDA74DC97724A48F9A58967497E489C4D979006FD7A05E227A1EBDD0F737C623387A9C844D3709995625106D157315F8B8392CD4E0
310
A0B9A720C4BE9829CEF37EA1E13111214D53925356365ADA634861B52519DD27A00AEB808EAF0628E6F435519D446F45CF2C9CF5214F0A15B2F6D06B79DA3EE3CBF7F56780D2F4E7EF73A0F5E5B02A38D07DC852C6B7C1FBB6664213E0C39E3EBA7FF4E1AD23EA2829407C85E586727488B751B2DB9502BC7B228A3FD68B6E
310
A65A22397E690AA8D158D7E404EC8CDA235CC3B7D1898680131CEC2CDF2638C65196279577750F15884AEE19F94199155B92B13297978469D4F8D358DF0AEF7631E28DC8F0D9F437D5D39A83B2231A1D52D543813A824EF8D44BCFF2FA6A31BD1E8DAD87F1CCB526B3879935BF59CDADD5C37479BB1CDD4CA7B3556B516589
310
EF352754B706114D9C885EC9131DE6EFEB43D99AFE2391C2F958179413D7CFEF6B1B6DB1E7600F00DE6E5C67454A339A4BA2E0FBA85ED26F045D454F463DBFCE484C2F90F2E5E3666003662ED8F755951A7D1BECD5B30B550B2785C8E7320B7292A4838DDA71BBC863ED7613CAF659337A3354231D4FF4A182A54904C2898C
310
98B28C4AD0CE056CCF332A80986E571EE9DBC305BB5FEB7E509220A58D25CF042D712A806AC0AD0C657FDEF80D2D9CEAA2EE4D1C76F60BFE74219A06527D6F82DF6412526107381E55E353090704D085B52408A8913C4ED159D79BDA71BB4BC506F4831350EB6F975CD22D69BF7AC49B91A2C0A9DDA3D5CA36AD20FC478E37
310
E61844E2352865EBCB61A275A65283CAAA9DD27703B4102F5AF51EF5F573B75CBB5AD38BC845F7A49F82A0966A49C2E3EA5EA0ECD326CD965F1DB402C6FA8B51A4658C5C5E2EC9E214602E55810345408596591009A82E7E7FFACA19EEA299B14A0081A705CB3296EBC14CDF658DCD336EA6D1136881AAEB87B81AB9EE53D5
310
F5EB8BC8362082DA24122F98680A4E7930C01A0079749CEA14382A0783E5EBA5A10F8C098456A03D6A4AEB6BB881E2513747552A5DB22C7EDAF83BD5528081A365F7FF06504B0304140006080000CC70623B000000000000000000000000350000006662782F41393633353835312D344632462D344230382D423046372D37
310
39314545314133324237412F76657274696365732E62696E504B0304140006080800CC70623BF270F1330600000004000000360000006662782F41393633353835312D344632462D344230382D423046372D3739314545314133324237412F747269616E676C65732E62696E636660600000504B0304140006080000CC7062
310
3B000000000000000000000000370000006662782F41393633353835312D344632462D344230382D423046372D3739314545314133324237412F617474726962757465732E62696E504B0304140006080800CC70623B08DA0BD19000000041010000360000006662782F41393633353835312D344632462D344230382D4230
310
46372D3739314545314133324237412F6469726563746F72792E786D6C858F410AC3201045AF22B36F53E9A60B35CBEEBAE80D244E44489C6234F4F835464A48035D0DF398FF9F8AF63D0E6CC63039F212F8F9020C7D47C6792B21C5FE7403D62A1188E2E60C98D7234A5830286103A55745067B9D86B8A3CF9C7F90C11DE6
310
07FB144396D7B6A82D282E9A152AD114D5EF2CB866EEE831B8EEA07A7BB5A8D7D61A2BAAEB7FD5F70921FF497D00504B0304140006080800CC70623BEDD1DC58FD000000A00100003B0000006662782F41393633353835312D344632462D344230382D423046372D3739314545314133324237412F7265736F75726365732F
310
636F72652E786D6C8D504B6E833010BD0A9A6D65B00922041947112427E8052C33A156828DFCA97AFC9A40A576D7CDCCE87D344F8F9FBFE667F689CE6B6B3A6039850C8DB2A336530731DC4903D95970676DF82583CCC8193B5861107C72362E3BA4AC096842428D1D7107A5F7182053CF7474E0D507CE32973124857FE48B
310
540F3961CEF244279DE03EB81420DB9EAC1384436FA353E879B1B182C7A8C75DA3C7F453DF353A1075D537A7BA6464B8F535A99AE14A9A2BBD90E350DD183B5CFABE3AF262350B1EF4FC9351399401471025A527C218A1E53BAB5A5AB765F5469B96525EACF23FA6B88CFF34456DC2A1DCE36E360F82A5202F42F062ED2BAD
310
579969AFDD8A6F504B010214000A0000080000CC70623B3DEE336E79000000790000001B00000000000000000000000000000000006175746F6465736B2D64657369676E2D7061636B6167652E786D6C504B01021400140006080800CC70623BD486FD9CA0000000F40000001300000000000000000000000000B20000005B
310
436F6E74656E745F54797065735D2E786D6C504B01021400140006080800CC70623B853B8169EB0000007C010000080000000000000000000000000083010000636F72652E786D6C504B01021400140006080800CC70623B55019EA25F0000007C000000070000000000000000000000000094020000636E782E786D6C504B
310
01021400140006080800CC70623BDBABAAF470010000D40300000C00000000000000000000000000180300006662782F636F72652E786D6C504B01021400140006080800CC70623B9C113CC27E0000009D0000000B00000000000000000000000000B20400006662782F636E782E786D6C504B01021400140006080800CC70
310
623B7DF2F77C2A010000120200003100000000000000000000000000590500006662782F41393633353835312D344632462D344230382D423046372D3739314545314133324237412F636F72652E786D6C504B01021400140006080800CC70623BAD7543B64E010000330300003000000000000000000000000000D2060000
310
6662782F41393633353835312D344632462D344230382D423046372D3739314545314133324237412F636E782E786D6C504B01021400140006080800CC70623BE75B7789680500003C10000034000000000000000000000000006E0800006662782F41393633353835312D344632462D344230382D423046372D3739314545
310
314133324237412F6F626A656374732E786D6C504B01021400140006080000CC70623B0000000000000000000000003500000000000000000000000000280E00006662782F41393633353835312D344632462D344230382D423046372D3739314545314133324237412F76657274696365732E62696E504B01021400140006
310
080800CC70623BF270F133060000000400000036000000000000000000000000007B0E00006662782F41393633353835312D344632462D344230382D423046372D3739314545314133324237412F747269616E676C65732E62696E504B01021400140006080000CC70623B0000000000000000000000003700000000000000
310
000000000000D50E00006662782F41393633353835312D344632462D344230382D423046372D3739314545314133324237412F617474726962757465732E62696E504B01021400140006080800CC70623B08DA0BD1900000004101000036000000000000000000000000002A0F00006662782F41393633353835312D344632
310
462D344230382D423046372D3739314545314133324237412F6469726563746F72792E786D6C504B01021400140006080800CC70623BEDD1DC58FD000000A00100003B000000000000000000000000000E1000006662782F41393633353835312D344632462D344230382D423046372D3739314545314133324237412F7265
310
736F75726365732F636F72652E786D6C504B0506000000000E000E0080040000641100000000
  0
XRECORD
  5
257
102
{ACAD_REACTORS
330
3C
102
}
330
3C
100
AcDbXrecord
280
     1
102
MATERIAL
148
0.0
149
0.0
149
0.0
 93
        0
 94
       63
282
     0
 72
     1
 77
     1
171
     1
175
     1
179
     1
273
     0
  0
XRECORD
  5
3D
102
{ACAD_REACTORS
330
3C
102
}
330
3C
100
AcDbXrecord
280
     1
 70
     1
 90
429727718
  1
30362254-06B7-45E0-A893-8CFA70E3D6BC
310
504B03040A0000080000CC70623B3DEE336E79000000790000001B0000006175746F6465736B2D64657369676E2D7061636B6167652E786D6C3C3F786D6C2076657273696F6E3D22312E302220656E636F64696E673D227574662D3822203F3E3C666F726D6174733E3C666F726D61743E687474703A2F2F736368656D612E
310
6175746F6465736B2E636F6D2F64657369676E2D7061636B6167652F323030393C2F666F726D61743E3C2F666F726D6174733E504B0304140006080800CC70623BD486FD9CA0000000F4000000130000005B436F6E74656E745F54797065735D2E786D6C7D8EC10E82300C865F65E91D8A1E8C310C0EEA1BF002731658846E
310
D98AC1B77784ABF1D8FE5FBFBF75BBCE937A534CCEB38643598122B6FEE978D0B0485F9C41B54DDD7D022595594E1A469170414C76A4D9A4D207E29CF43ECE46F218070CC6BECC4078ACAA135ACF422C856C0E68EA1BF5669944DDD7BCDE7B1F8E415D77AECB980613C2E4AC91FC167A2B244592486606FC29C8FD7F045B9A
310
EF7053A7E60B504B0304140006080800CC70623B1EC5D7A3EB0000007C01000008000000636F72652E786D6C8D90416EC3201045AF82665B6103C6756C6122AB4D4ED00B204C5C94182C03558F5F9C3852BBEB6A467FFE9B197D71FC9E6FE8CBACC17AD7032D0820E3B41FAD9B7A48F1820F808E52ACDEC75F36404ECDA687
310
4D0629A6D5A76597B477D1B89855E747B38B2A041301E95B6E7A08FAD3CCAA50296647B8168BD2573599823EBB0CA76447F43862C7BCCF5EAC59410E4DDD9C7973C2755553CCCFA4C603E3040F1565ED3B1FDE4E432BCA0D9622DAF9795FAF464533826484B498524CD807E51D79ED187F21878E10516EF63F505AC67F42C9
310
BA58B1FDDD071640D2FCC87D2045B96591CB3DA85CB7DCE40F504B0304140006080800CC70623B55019EA25F0000007C00000007000000636E782E786D6C4DCB3B0E80201045D1AD90E915ED2CF8AC45050C11660C8261F98AB1B07AC9C97D42D718D865D3E909258CFD00CCE24AC6E326A164D74DC0B4128928FF32603847
310
2BA13128B1252AC747C6BAB984FC68F0B87FE8960A5C09FE86CFB69FBA01504B0304140006080800CC70623B8C9102E971010000D40300000C0000006662782F636F72652E786D6CC5535B6E833010BC8AE5DF0A6C08340F1947A84D4ED00B38C6A128602363A31CBFCB234A53A551FA553EC09AD9F5CE8C31DB9E9B1AF5CA
310
7695D1198E428A91D2D214952E33ECDD315861B4E5CC1AE3BE9561A445A3323CC098B3D21ADFCE9034DA29ED00D5A6503328BA4E398C640D8B0C77F253352214DE4145770A5B214FA2546114020D759C75CE8200340D19DE981F0F6746269C33EFAB6266AB02A655C74A59CCF365BADC27CB5D902ED22848F6340DF238A141
310
BE88E2F57B92BFEDF23523433367AE6A2EEAA455C2A902F398D2751045018D3FA264435F3771F242571B4A1919CA6F9A7C5B3CD9E42BED16F12C776AEB308F40C848FC700B1139D4891EF410CEC810227CC6846F8386402064270EF5C5C709A05E49676C024C61FC95EA45ED154CA5211D1FF4FB8291A913A68E9B83EBBB33
310
E2A7673CDE118E5AE8124C0807CB8377834E366998436B950D7A7746DAD846D4CFD978E0F04FD455FC5D49D2D4C6FE9722321F10997F0F32DC47FE05504B0304140006080800CC70623BFFEA85907E0000009D0000000B0000006662782F636E782E786D6C4DCCD10A83201886E15B91FFDC95D95A811AB6F23E625948A6C3
310
E9D8E5AF46073BFAE0E1E365ED67B3E8ADC3CB78C7815C7240DA3DFC64DCC221C519D7805AC182F7F1EF06C88D9BE6703008B6049F9E274D7A1E938DBB5AE3D6131B2589BA0D3D965551E0B2EA732C9B9A624AAEB41E3A557677029960D9AFB4EF11165F504B0304140006080800CC70623B4FEEA4082C0100001202000031
310
0000006662782F39464131463745442D413632322D343644302D413938332D3331353338454246344243312F636F72652E786D6C8D515B6EC32010BC0AE2AB55850DD871ED0813254D72825EC00192A2C460F1A872FC42ED48ED5F7E00CDCECCCEB26C731F6FE05B39AFADE921293004CA082BB5B9F43086336A21D870E6AC
310
0D7F68109861543DCC30E4ECE26C9C164858139409093556AA051CBC570102714B8F1E7AF1A5C6A11862480C7F2DA6415C878B2A4891CA89C7990F2E050073937C42DE1DB7E4F87ED8A36D4329AA9B3D46DBAEAD504556557BD81DEBDD0761E52CE42C462D17B996298E3E6BE59E35C962CE821E1FF18553435012728A7187
310
0841987E927A8D9B35ADDF70BBC6989599FE4F1427F9A4286A132ABAC49D651EF234CD5CE04CDA78BA3DC2A8FB645D00B9DF8B57E215725C60BCA2A463E54C4CE327C7A65E1C7DB02E7DEFCBF594B864C5CA6CDBD49C957943E9FA5D5FBAF336F90F504B0304140006080800CC70623BAD7543B64E01000033030000300000
310
006662782F39464131463745442D413632322D343644302D413938332D3331353338454246344243312F636E782E786D6CD593CD6EC32010845F0571AD6CE3D48AD20813A9873E410FBD12D82434182C7EAAE6EDBB2424CD25871E7B41D6EC30B3FA84F9E67BB2E40B4234DE8DB46F1925E094D7C6ED479AD3AE5951B2113C
310
789FEE6C943839C1488B4C05DF079FE72A69D8C96C13AAD6B8631503449F83828872B949AC57D26200B826A308D316B4064D6E46FCDA41C05550DC9E483A00797BFD207EFB092A45DE9514C1BBD22178396BD39D891265658C238DEA00936C654E5E433CB65A26D9F6EDB5EBC14EBF49A45CB856E66048291F6939A9A81BB5
310
C8917738143CA680F4AA299D66A042CEB3354A2684DC9D8D178FE0D9B8B41CAAD720F880EE7EF93C0C18769E099ECC04D5A102C8049A8A05632F4DDF376CF1DE0F6BB65C2F8627B65A33C6BB62177CEBBDAD973006829F89F22E814B54F4BC2BE347F8AA8F681390B50FA73F804400B5F542E796F19FF974E7F78DB802FE05
310
E207504B0304140006080800CC70623B16AB87BA640500003C100000340000006662782F39464131463745442D413632322D343644302D413938332D3331353338454246344243312F6F626A656374732E786D6CAD575B6FA33818FD2B887DE6924B3BED8A326A92B68A663B534DD4D13E548A0C38942D60649B369D5FBFC7
310
600890A493BDE42160637FD7F31D7FF63E6FB3D478A55C242CBF3247B66B1A340F5994E4F19559CA8D75611A9F7D8F33263BCB4C232719BD32D5B4E97B316765A1A722BA21652A07B3B7B33F0D11D29C9A46981221AE4C113ED38CD8A4942CA2E2C58E882476BCD9DA23BB5ED8171B73523C0F841684D35CC252CCE79062D4
310
468DFA43D7747CCF51DF7D4FFDEB5593E3AB9CCA9FBEFE241792E4E19EB28198C968BAB8199F5D5A67D3E9C49A9E8F47D6EC76B6B0469F26EEFC7C3EBFBCBEB98462213924694B38DD98FE1D62C393D073EA4FADC5DAF04326852CCF6958F90F0F2B9BB5C48816348F90C7840A68EB78EDF68723159BCEE7891A6B95DDE9D3
310
BCEAEEE8086A6C6F9E5D4B59F0175C10A7A0820BAA5055C7473B5AE3CFDD452D602CD5DF12616444529E90D448938013FE6EFA58AA96F85E4F8C42275708571E98FE6827AF6B2B4AE3D7D83D64E5A64C53054DD3AF90BD06FEA9149565C94FCA0F6B834DC85599E4F2423B24DF0B6AFA979E534DFA9E7A4CC6FA631D486393
310
921829879BF5D781A373557BCB85E97FB90DB62B558F8795179C15944B051F40AB495CF35451D26A4727654E6D8033BD98EF82F21D91FF8AF2DD9982BCF1643BDD4EB516C9492E368C67C88DED563FC36D5EACF66DFF057C3658BDBFA69DF9578B3DA735B64F18C7F20770A9D45CFCF7FCF563D6456A277DBEF78A02637CA2
310
43B90A490AEAB94F72244481D24819A6C0E59B606BFA4B3025981DBB48EAB701D97BF19C577CC77F2D1B6C55A9EF3C732474C0B727303F625995056C3B02963D9EAC146BE78EC5FCEC7FA999EBC5EACBAAE41B12D27B4D2C0BBA49F244E2ECDC81B76B502F113D8F5EE8FB1BE3111CDD4FC2AA9B844CAB1288B68AB90A7CDC
310
1C166AB0D3DC5310625FCC14E779BFD0709F8890A629C9292B1B2DED31A4B0DA928CEE135085754027E3018A397D4D5427D15BD1330B677DC8934285AC3DF45A9EB68FF8F2B8FC0A509AFEECFD0FF2DE25CC6047F7214B195F07EFEB9A094D800F7BFAE8FED187B78EA8A3A400F115961BCAD1215E47C966530AF0EE8128FE
310
58CEBB996A8964FFA529A046635D9353B0336A8F700DDF46271A024E70B0B37C9DE01847591E54DED53D54202AB947E4076556AC49C6CA5C9E1226B7F1A7B1BE15DEED62C41B91E1B3E9AFAAA735036547343A925075041DF0A9979E893B391F8FCFA6967B3EFB644DCF6E5CEBFAE272625DCC6FAF3FB93793C5F90CE1EF57
310
407342756B10D1C489E8953CD1617E5CEECAD6F4EF8914CE5D5D504E5C3F1F9736DA62CFC11E00BCDDB8CC8A9466349744C1F75EBDA4DF09BA8A9E8C7A7E9991989E20E5DBDD6A6003664ED8F7A04A8DBE0DF6EAD9B9AA858342E47399053949D2C146EDB85DE4B176BB0965FBAC19BD19AA918E27FA50C1D22402E144464C
310
59462568E704B6E71915404CB72B8FF4EDE184DDAF753F284990D2C6926782963815403548A70C657FDEF80D2D9CEAA2AE4C1C76F60BFE74219A06527D6582DF6412526107381E55E353090704D085B52408D0933C4ED159D79BDA71BB4BC506F4831350EB6F979CD22D69BF7AC49B91A2C0A9DDA3D5CA36AD20FC478E37E6
310
1844E2352865EBCB6EA275A652E3836BE04EFB400BF1A2556F515F1FBB35B2AB35BD889C744FFA1004B5544B121E57F70215746DD2F5E2C1412B602CBF19455AC6C8E5E9922C4E01E65215385004546899059180EAFCF7A707CE7017CD8CDB0410789AB32C63B91E5CEBBBACB17AC6CD347A022D5075FD106377347AAABA7E
310
7D11590744509B44E205134DC1290F06580320F78E537D3D73540E06CB970B431F185308AD40BBD794D6D77003C5A36E8EAA54BA64597CD8F83BD552A080A365F7FF06504B0304140006080000CC70623B000000000000000000000000350000006662782F39464131463745442D413632322D343644302D413938332D3331
310
353338454246344243312F76657274696365732E62696E504B0304140006080800CC70623BF270F1330600000004000000360000006662782F39464131463745442D413632322D343644302D413938332D3331353338454246344243312F747269616E676C65732E62696E636660600000504B0304140006080000CC70623B
310
000000000000000000000000370000006662782F39464131463745442D413632322D343644302D413938332D3331353338454246344243312F617474726962757465732E62696E504B0304140006080800CC70623B08DA0BD19000000041010000360000006662782F39464131463745442D413632322D343644302D413938
310
332D3331353338454246344243312F6469726563746F72792E786D6C858F410AC3201045AF22B36F53E9A60B35CBEEBAE80D244E44489C6234F4F835464A48035D0DF398FF9F8AF63D0E6CC63039F212F8F9020C7D47C6792B21C5FE7403D62A1188E2E60C98D7234A5830286103A55745067B9D86B8A3CF9C7F90C11DE607
310
FB144396D7B6A82D282E9A152AD114D5EF2CB866EEE831B8EEA07A7BB5A8D7D61A2BAAEB7FD5F70921FF497D00504B0304140006080800CC70623B0D6EF93BFE000000A00100003B0000006662782F39464131463745442D413632322D343644302D413938332D3331353338454246344243312F7265736F75726365732F63
310
6F72652E786D6C8D50596E833010BD0A9ADFCA60B334011947A8694ED00B586642AC041B79A97AFC9A40A5F6AF3F33A3B7689E1E3F7DCD8FEC139DD7D6F4C0720A191A65476DA61E62B892236427C19DB5E1970C322367EC618541F0C9D9B8EC90B226A009093576C41D94DE63804C3DD2D18357379C652E63480A7FCF17A9
310
EE72C29CE5894E3AC17D702940B63D59270887DE46A7D0F36263058F518FBB468FE9A7BE6A7420864373B8D4873369AA8691FA421B3294352543C5CAF65C0F6FEF43CB8BD52C78D0F34F46E550061C419494B6843142CB0F5677F4B52BEB177AEC28E5C52AFF638ACBF84F53D42654E51E77B379102C05791282176B5F693D
310
CB4C7BED567C03504B010214000A0000080000CC70623B3DEE336E79000000790000001B00000000000000000000000000000000006175746F6465736B2D64657369676E2D7061636B6167652E786D6C504B01021400140006080800CC70623BD486FD9CA0000000F40000001300000000000000000000000000B20000005B
310
436F6E74656E745F54797065735D2E786D6C504B01021400140006080800CC70623B1EC5D7A3EB0000007C010000080000000000000000000000000083010000636F72652E786D6C504B01021400140006080800CC70623B55019EA25F0000007C000000070000000000000000000000000094020000636E782E786D6C504B
310
01021400140006080800CC70623B8C9102E971010000D40300000C00000000000000000000000000180300006662782F636F72652E786D6C504B01021400140006080800CC70623BFFEA85907E0000009D0000000B00000000000000000000000000B30400006662782F636E782E786D6C504B01021400140006080800CC70
310
623B4FEEA4082C0100001202000031000000000000000000000000005A0500006662782F39464131463745442D413632322D343644302D413938332D3331353338454246344243312F636F72652E786D6C504B01021400140006080800CC70623BAD7543B64E010000330300003000000000000000000000000000D5060000
310
6662782F39464131463745442D413632322D343644302D413938332D3331353338454246344243312F636E782E786D6C504B01021400140006080800CC70623B16AB87BA640500003C1000003400000000000000000000000000710800006662782F39464131463745442D413632322D343644302D413938332D3331353338
310
454246344243312F6F626A656374732E786D6C504B01021400140006080000CC70623B0000000000000000000000003500000000000000000000000000270E00006662782F39464131463745442D413632322D343644302D413938332D3331353338454246344243312F76657274696365732E62696E504B01021400140006
310
080800CC70623BF270F133060000000400000036000000000000000000000000007A0E00006662782F39464131463745442D413632322D343644302D413938332D3331353338454246344243312F747269616E676C65732E62696E504B01021400140006080000CC70623B0000000000000000000000003700000000000000
310
000000000000D40E00006662782F39464131463745442D413632322D343644302D413938332D3331353338454246344243312F617474726962757465732E62696E504B01021400140006080800CC70623B08DA0BD190000000410100003600000000000000000000000000290F00006662782F39464131463745442D413632
310
322D343644302D413938332D3331353338454246344243312F6469726563746F72792E786D6C504B01021400140006080800CC70623B0D6EF93BFE000000A00100003B000000000000000000000000000D1000006662782F39464131463745442D413632322D343644302D413938332D3331353338454246344243312F7265
310
736F75726365732F636F72652E786D6C504B0506000000000E000E0080040000641100000000
  0
XRECORD
  5
24B
102
{ACAD_REACTORS
330
E
102
}
330
E
100
AcDbXrecord
280
     1
102
MATERIAL
148
0.0
149
0.0
149
0.0
 93
        0
 94
       63
282
     0
 72
     1
 77
     1
171
     1
175
     1
179
     1
273
     0
  0
XRECORD
  5
F
102
{ACAD_REACTORS
330
E
102
}
330
E
100
AcDbXrecord
280
     1
270
     1
271
     1
  0
XRECORD
  5
10
102
{ACAD_REACTORS
330
E
102
}
330
E
100
AcDbXrecord
280
     1
270
     1
271
     1
  0
XRECORD
  5
11
102
{ACAD_REACTORS
330
E
102
}
330
E
100
AcDbXrecord
280
     1
 70
     0
 90
1673772943
  1
ECE7A1D2-D628-4531-984C-D00F80459256
310
504B03040A0000080000CC70623B3DEE336E79000000790000001B0000006175746F6465736B2D64657369676E2D7061636B6167652E786D6C3C3F786D6C2076657273696F6E3D22312E302220656E636F64696E673D227574662D3822203F3E3C666F726D6174733E3C666F726D61743E687474703A2F2F736368656D612E
310
6175746F6465736B2E636F6D2F64657369676E2D7061636B6167652F323030393C2F666F726D61743E3C2F666F726D6174733E504B0304140006080800CC70623BD486FD9CA0000000F4000000130000005B436F6E74656E745F54797065735D2E786D6C7D8EC10E82300C865F65E91D8A1E8C310C0EEA1BF002731658846E
310
D98AC1B77784ABF1D8FE5FBFBF75BBCE937A534CCEB38643598122B6FEE978D0B0485F9C41B54DDD7D022595594E1A469170414C76A4D9A4D207E29CF43ECE46F218070CC6BECC4078ACAA135ACF422C856C0E68EA1BF5669944DDD7BCDE7B1F8E415D77AECB980613C2E4AC91FC167A2B244592486606FC29C8FD7F045B9A
310
EF7053A7E60B504B0304140006080800CC70623BD9DDAED0EC0000007C01000008000000636F72652E786D6C8D90416EC3201045AF82665B61836D9CD8C2444DD39CA01740405C94182C03558F5F9C3852BBEB6A467FFE9B197D7EF89E6EE8CB2CC17A37002D0820E394D7D68D03A478C17B4007C117EFE32F1B20272733C0
310
2A83E0E3E2D3BC49CABB685CCCAAF3DA6CA20CC14440EA969B0182FA34932C648AD911AEC52CD5558EA6A0CF2EC329598D1E47ACCEFBECC59A050463A7EA5833865FEBDD0E37353BE3EE8DBDE3F6786A48D375FBF6CC78B9C282473B3DEFABC5C86834888A900E538A49F5419B9EB47DD5BC907D4F082F57FB1F28CDFA9F50
310
B22ED6D5F6EE030B20687EE43E10BC5CB3C8E51E54AE6B6EE207504B0304140006080800CC70623B55019EA25F0000007C00000007000000636E782E786D6C4DCB3B0E80201045D1AD90E915ED2CF8AC45050C11660C8261F98AB1B07AC9C97D42D718D865D3E909258CFD00CCE24AC6E326A164D74DC0B4128928FF326038
310
472BA13128B1252AC747C6BAB984FC68F0B87FE8960A5C09FE86CFB69FBA01504B0304140006080800CC70623BA24EB22D72010000D40300000C0000006662782F636F72652E786D6CC5535B6E833010BC8AE5DF0A6C5E49888CA3A6694ED00B38E05014B091B1518EDFE511A5A9D228FD2A1F60CDEC7A67C6986DCE4D8D7A
310
69BA4AAB0C073EC548AA5C17952A33ECECD15B61B4E1CC686DBF9561A44423333CC098B3D268D7CE50AE9595CA02AA74216750749DB418E5352C32DCE59FB211BE70162ABA93DF8AFC244AE9073ED050C759670D0840D390E18DF9F1706664C23973AE2A66B62A605A75ACA4C13C4976E1364A12EF355A2EBD384AF65EFA96
310
BC7B8BED2EA6719AAE16FB8491A199335B351775B991C2CA02F390D2D40B028F861F41BCA68B7518BFD0D59A524686F29B26D7164F36B94AD9289CE54E6D1DE6010819891F6E21228B3AD1831EC219194284CF98F06DD01008846CC5A1BEF83801D4CBDC6A1303536877A57A513B0953A94FC707FDBE6064EA84A9E3E6E0FA
310
EE8CF0E9198F7784A316AA0413C2C2F2E0ECA0934D1AE6D05A69BCDE9E91D2A611F573361E38FC1375157F5752AE6B6DFE4B11990F88CCBF0719EE23FF02504B0304140006080800CC70623B408A7D3B7C0000009D0000000B0000006662782F636E782E786D6C4DCCD10A83201886E15B91FFDC552A92A0064DBC8F581632
310
D3703A76F9ABD1C18E3E78F878E5F0D9027ABBFCF2292AE86E2D20171F69F6715550CB827B40839639A5F2770314A7CD293819B45C73AAFB45B35BA61ACAA1C1C7E7855C58C15BC331339661262CC762340413D68D77DA5B42298546CBE6573AF60CEB2F504B0304140006080800CC70623B449FB9BD290100001202000031
310
0000006662782F36394639363044362D344446342D343946362D394244322D3234314243333846323333332F636F72652E786D6C8D515B6EC32010BC0AE22B55850D98B871848994463E412FE002495162B07854397EA176A4F62F3F2C9A9D991D587EB84F37F0AD7D30CEF6905418026DA553C65E7A98E219ED203808EE9D
310
8B7F6810D871D23D2C3014FCE25D9A57483A1BB58D19B54EE9151C43D0110279CB971E06F9A5A7B11A53CC8C70ADE6515EC78BAE4895DB992778883E0700CB907242D17643D7E2538BD869608875438BBAE38922CAC8F1BDD90DB4691A5E2F42C153326A951B95E398B3D1FE599322163C9AE9115F7A3D46ADA0A018778810
310
84E907617BDCEE297BC5BB3DC6BC2EF47FA234AB2745C9D8D8D035EE220B50105E2F0DC1954B9FB747187D9F9D8FA0CCDB042D5FA0C015C65B42DF78BD10F3F3B363CB56C7109DCFDFBBB97E662ED92EB62D13BC2E1BCAE5777DB9966D8A1F504B0304140006080800CC70623BAD7543B64E01000033030000300000006662
310
782F36394639363044362D344446342D343946362D394244322D3234314243333846323333332F636E782E786D6CD593CD6EC32010845F0571AD6CE3D48AD20813A9873E410FBD12D82434182C7EAAE6EDBB2424CD25871E7B41D6EC30B3FA84F9E67BB2E40B4234DE8DB46F1925E094D7C6ED479AD3AE5951B2113C789FEE
310
6C943839C1488B4C05DF079FE72A69D8C96C13AAD6B8631503449F83828872B949AC57D26200B826A308D316B4064D6E46FCDA41C05550DC9E483A00797BFD207EFB092A45DE9514C1BBD22178396BD39D891265658C238DEA00936C654E5E433CB65A26D9F6EDB5EBC14EBF49A45CB856E66048291F6939A9A81BB5C89177
310
38143CA680F4AA299D66A042CEB3354A2684DC9D8D178FE0D9B8B41CAAD720F880EE7EF93C0C18769E099ECC04D5A102C8049A8A05632F4DDF376CF1DE0F6BB65C2F8627B65A33C6BB62177CEBBDAD973006829F89F22E814B54F4BC2BE347F8AA8F681390B50FA73F804400B5F542E796F19FF974E7F78DB802FE05E20750
310
4B0304140006080800CC70623B8D05915C650500003B100000340000006662782F36394639363044362D344446342D343946362D394244322D3234314243333846323333332F6F626A656374732E786D6CAD575B6FA33814FE2B887D06429276DA1565D4266D158D3A339A6846FB502932E050B66023DB74D2FDF5FB190C01
310
9276B2973C046C8ECFF53B17071F77456EBD502133CEAE6CDF9DD81665314F32965ED995DA3A17B6F5310C04E7AA47665B8C14F4CAD6DB7618A48257A5D94AE89654B91AEDDEDDFC61C998326A5B714EA4BCB265FC440BE2924AF184CA6737218AB8E976E7FA6E4338649B0A523E8D98964450A6A029F619B8588D52FE7039
310
B1BD30F0F4F730D0FF866AF6369557DB33949F31A9088B0F848DD8CCFCF9F2767A76E99CCDE733677E3EF59D9BBB9BA5E37F984D16E78BC5E5F5ED25044B25C0C96822E8D60EEFE11B91C581D77CEA34368A1F5329E68CD1B8B61F16D63A1B8E092D294B10C78C4A48EB593D192E7DED9BDEE7995E1B91FDEDD3ACEA9FE831
310
6A756F9F7D4D79F4274C90A7A04248AA51D5F8C718DAE06FB2F75AC4796EBE65D22A88A22223B995679120E2D50E41AA49C260C046A35368846B0BECD0DFF3EBEB8AD4F835768F69B9ADF25C43D30E6B646F807FAA64AD59F61715C7A54127C4AACA98BA3006A9D792DAE165E0D59B61A01FB3A9F9D838D2DAE62445C86166
310
F37564E842E7DE6A69879FEEA2DD5AE7E371E1A5E025154AC307D06A03D73EB5978C58FFA4C8E9033066E0F3BD53BEC1F39F91BE7B55103791EDE6BBB991A2046172CB4581D8B893FA674DDA17A77B3B7C413D1B511FD2743BFF8A38F03A658705E3ADF8015C3A3417FF3D7E439FF591DA0B5F18BC20C1B8981957AE6392A3
310
F43C640C01D1A0B4728E2DD4F26DB4B3C3152A252A3B4E913CEC1C72F012782FF88EFF8637AA552DBEF76408E8A8DE9E50F9E1CB3A2DA0DB1B6039A893B56063DC5B3E3FFB5F72E67AB9FEB4AEC496C4F4C1149625DD662C53E89D7BF0F6151A046260D1337DFDC94502430F83B0EE07A130A224BCAD7DAE1D9FB6CD422FF6
310
920702629C4BB9AE79C12F243C6432A6794E18E5552BA56B431AAB5D91317302B2B071E86C3A42B1A02F999E24061403B5D0EB639195DA655DD3EBEAB4FB862DDF579F014AD0E73C22F99E28DA57FB98E75C6CA2D74D53086D600F4786E0FE3144B771A8A7B900F03594DB8A633CBC49B2EDB69228BB479CF863B5E807AAAB
310
23872F6DFEB4129B949CA33823F58830E86D65621E10047D9DB34D862E8EAC3C2ABC2F7B2C40D67CDFE01F5545B92105AF983AC54D93D69E56FB8E797F88913F898A9FEC705D3F9D1B54EC8426FB500D40A03BD0119B06E1B95DDC7EB8F6975367793EBD70E66733DFB9BC982F9CE564727731999F5D4ECFCE3B8D6A4DC2A0
310
6D50FD148437D110834A64C6CDDF57FBACB5C307A2A477DFE4939736CFEF2B175371E0E10CF0DD1D5C15654E0BCA14D1E87DD02FF93782A162C0A3D95F1524A52770F972BF1EE9809D13CE7DD599467F8ECE9ADD85CE85A34CD45355448C64F9E8A031DC2D596ACC6E5DD93D9B82DE2EF5CAF81363A8E47996A0DE24564A79
310
4115AACE09C55E14540231FDA13C319787134EBF34E3A022514E5B4D9E0826E25C02D5805B15ABE1BEF51B26383D445DD9E875EE33FE4C22DA16427D65A3BCA92CA6D28DD01DF5DC53330704308475351050232CCD31583787BA75774AFB06E5070DD0C8EF484E19968C5D83BA5B90B244D31E54D55A372320FE4786B7EA58
310
44E135AA5467CB7EA333A61683CC6A8C3257034C10CF46F40EF9F5BE59BE5BD30C3C72D235E95D10345C1D45445A5F0BB47E46A5EBE5570F9380B5FA629579952296A773720405982B9DE04011506178964401AA8BDF1FBF0A8EAB6861DD6580C0E38217056766716DAEB2D6FA0917D3E4116581EADB879C4E7CFFB11EFACD
310
3D641311495D92C8676CB409A72D18610D803CE8A626049E8EC1887CB5B44CC39883690DDA8399B4B9855B481E7D71D4A9D22F96E5BB73BF5793020C02137BF837504B0304140006080000CC70623B000000000000000000000000350000006662782F36394639363044362D344446342D343946362D394244322D32343142
310
43333846323333332F76657274696365732E62696E504B0304140006080800CC70623BF270F1330600000004000000360000006662782F36394639363044362D344446342D343946362D394244322D3234314243333846323333332F747269616E676C65732E62696E636660600000504B0304140006080000CC70623B0000
310
00000000000000000000370000006662782F36394639363044362D344446342D343946362D394244322D3234314243333846323333332F617474726962757465732E62696E504B0304140006080800CC70623B08DA0BD19000000041010000360000006662782F36394639363044362D344446342D343946362D394244322D
310
3234314243333846323333332F6469726563746F72792E786D6C858F410AC3201045AF22B36F53E9A60B35CBEEBAE80D244E44489C6234F4F835464A48035D0DF398FF9F8AF63D0E6CC63039F212F8F9020C7D47C6792B21C5FE7403D62A1188E2E60C98D7234A5830286103A55745067B9D86B8A3CF9C7F90C11DE607FB14
310
4396D7B6A82D282E9A152AD114D5EF2CB866EEE831B8EEA07A7BB5A8D7D61A2BAAEB7FD5F70921FF497D00504B0304140006080800CC70623BCA768048FE000000A00100003B0000006662782F36394639363044362D344446342D343946362D394244322D3234314243333846323333332F7265736F75726365732F636F72
310
652E786D6C8D50596E833010BD0A9ADFCA60D600328E9AA639412F609909B1126CE4A5EAF16B0295DABFFECC8CDEA2797AECF8353F924FB44E193D409E5248504B332A3D0D10FC95B4901C39B3C6F85F3248B49871801506CE266BC2B243D2688FDA47549B11775038871E12F988C7004EDE7016A9083E2ADC3D5D84BC8B09
310
D33C8D74D471E6BC8D0192EDC93A815B742658898E651BCB59086ADC356A8C3FD555A1055ED7E7E254D615792D0F075295F585746FF53B694EE78A565DD736979A65AB9933AFE69F8CD2A2F038022F28ED489E135A7CE4554F9BBEA85E68DB53CAB255FEC71496F19FA6A0B42F8B3DEE6673C0F318E4497096AD7DC5F52C33
310
EEB55BFE0D504B010214000A0000080000CC70623B3DEE336E79000000790000001B00000000000000000000000000000000006175746F6465736B2D64657369676E2D7061636B6167652E786D6C504B01021400140006080800CC70623BD486FD9CA0000000F40000001300000000000000000000000000B20000005B436F
310
6E74656E745F54797065735D2E786D6C504B01021400140006080800CC70623BD9DDAED0EC0000007C010000080000000000000000000000000083010000636F72652E786D6C504B01021400140006080800CC70623B55019EA25F0000007C000000070000000000000000000000000095020000636E782E786D6C504B0102
310
1400140006080800CC70623BA24EB22D72010000D40300000C00000000000000000000000000190300006662782F636F72652E786D6C504B01021400140006080800CC70623B408A7D3B7C0000009D0000000B00000000000000000000000000B50400006662782F636E782E786D6C504B01021400140006080800CC70623B
310
449FB9BD290100001202000031000000000000000000000000005A0500006662782F36394639363044362D344446342D343946362D394244322D3234314243333846323333332F636F72652E786D6C504B01021400140006080800CC70623BAD7543B64E010000330300003000000000000000000000000000D20600006662
310
782F36394639363044362D344446342D343946362D394244322D3234314243333846323333332F636E782E786D6C504B01021400140006080800CC70623B8D05915C650500003B10000034000000000000000000000000006E0800006662782F36394639363044362D344446342D343946362D394244322D32343142433338
310
46323333332F6F626A656374732E786D6C504B01021400140006080000CC70623B0000000000000000000000003500000000000000000000000000250E00006662782F36394639363044362D344446342D343946362D394244322D3234314243333846323333332F76657274696365732E62696E504B010214001400060808
310
00CC70623BF270F13306000000040000003600000000000000000000000000780E00006662782F36394639363044362D344446342D343946362D394244322D3234314243333846323333332F747269616E676C65732E62696E504B01021400140006080000CC70623B00000000000000000000000037000000000000000000
310
00000000D20E00006662782F36394639363044362D344446342D343946362D394244322D3234314243333846323333332F617474726962757465732E62696E504B01021400140006080800CC70623B08DA0BD190000000410100003600000000000000000000000000270F00006662782F36394639363044362D344446342D
310
343946362D394244322D3234314243333846323333332F6469726563746F72792E786D6C504B01021400140006080800CC70623BCA768048FE000000A00100003B000000000000000000000000000B1000006662782F36394639363044362D344446342D343946362D394244322D3234314243333846323333332F7265736F
310
75726365732F636F72652E786D6C504B0506000000000E000E0080040000621100000000
  0
XRECORD
  5
12
102
{ACAD_REACTORS
330
E
102
}
330
E
100
AcDbXrecord
280
     1
270
     1
271
     1
  0
XRECORD
  5
13
102
{ACAD_REACTORS
330
E
102
}
330
E
100
AcDbXrecord
280
     1
270
     1
271
     1
  0
XRECORD
  5
269
102
{ACAD_REACTORS
330
268
102
}
330
268
100
AcDbXrecord
280
     1
102
DISPLAYNAME
  1
Imperial24
102
FLAGS
 90
        0
  0
XRECORD
  5
26B
102
{ACAD_REACTORS
330
26A
102
}
330
26A
100
AcDbXrecord
280
     1
102
DISPLAYNAME
  1
Metric50
102
FLAGS
 90
        0
  0
CELLSTYLEMAP
  5
23B
102
{ACAD_REACTORS
330
56
102
}
330
56
100
AcDbCellStyleMap
 90
        3
300
CELLSTYLE
  1
TABLEFORMAT_BEGIN
 90
        5
170
     1
 91
        0
 92
    32768
 62
   257
 93
        1
300
CONTENTFORMAT
  1
CONTENTFORMAT_BEGIN
 90
        0
 91
        0
 92
      512
 93
        0
300

 40
0.0
140
1.0
 94
        5
 62
     0
340
26
144
6.0
309
CONTENTFORMAT_END
171
     1
301
MARGIN
  1
CELLMARGIN_BEGIN
 40
1.5
 40
1.5
 40
1.5
 40
1.5
 40
4.5
 40
4.5
309
CELLMARGIN_END
 94
        6
 95
        1
302
GRIDFORMAT
  1
GRIDFORMAT_BEGIN
 90
        0
 91
        1
 62
     0
 92
       -2
340
29
 93
        0
 40
1.125
309
GRIDFORMAT_END
 95
        2
302
GRIDFORMAT
  1
GRIDFORMAT_BEGIN
 90
        0
 91
        1
 62
     0
 92
       -2
340
29
 93
        0
 40
1.125
309
GRIDFORMAT_END
 95
        4
302
GRIDFORMAT
  1
GRIDFORMAT_BEGIN
 90
        0
 91
        1
 62
     0
 92
       -2
340
29
 93
        0
 40
1.125
309
GRIDFORMAT_END
 95
        8
302
GRIDFORMAT
  1
GRIDFORMAT_BEGIN
 90
        0
 91
        1
 62
     0
 92
       -2
340
29
 93
        0
 40
1.125
309
GRIDFORMAT_END
 95
       16
302
GRIDFORMAT
  1
GRIDFORMAT_BEGIN
 90
        0
 91
        1
 62
     0
 92
       -2
340
29
 93
        0
 40
1.125
309
GRIDFORMAT_END
 95
       32
302
GRIDFORMAT
  1
GRIDFORMAT_BEGIN
 90
        0
 91
        1
 62
     0
 92
       -2
340
29
 93
        0
 40
1.125
309
GRIDFORMAT_END
309
TABLEFORMAT_END
  1
CELLSTYLE_BEGIN
 90
        1
 91
        1
300
_TITLE
309
CELLSTYLE_END
300
CELLSTYLE
  1
TABLEFORMAT_BEGIN
 90
        5
170
     1
 91
        0
 92
        0
 62
   257
 93
        1
300
CONTENTFORMAT
  1
CONTENTFORMAT_BEGIN
 90
        0
 91
        0
 92
      512
 93
        0
300

 40
0.0
140
1.0
 94
        5
 62
     0
340
26
144
4.5
309
CONTENTFORMAT_END
171
     1
301
MARGIN
  1
CELLMARGIN_BEGIN
 40
1.5
 40
1.5
 40
1.5
 40
1.5
 40
4.5
 40
4.5
309
CELLMARGIN_END
 94
        6
 95
        1
302
GRIDFORMAT
  1
GRIDFORMAT_BEGIN
 90
        0
 91
        1
 62
     0
 92
       -2
340
29
 93
        0
 40
1.125
309
GRIDFORMAT_END
 95
        2
302
GRIDFORMAT
  1
GRIDFORMAT_BEGIN
 90
        0
 91
        1
 62
     0
 92
       -2
340
29
 93
        0
 40
1.125
309
GRIDFORMAT_END
 95
        4
302
GRIDFORMAT
  1
GRIDFORMAT_BEGIN
 90
        0
 91
        1
 62
     0
 92
       -2
340
29
 93
        0
 40
1.125
309
GRIDFORMAT_END
 95
        8
302
GRIDFORMAT
  1
GRIDFORMAT_BEGIN
 90
        0
 91
        1
 62
     0
 92
       -2
340
29
 93
        0
 40
1.125
309
GRIDFORMAT_END
 95
       16
302
GRIDFORMAT
  1
GRIDFORMAT_BEGIN
 90
        0
 91
        1
 62
     0
 92
       -2
340
29
 93
        0
 40
1.125
309
GRIDFORMAT_END
 95
       32
302
GRIDFORMAT
  1
GRIDFORMAT_BEGIN
 90
        0
 91
        1
 62
     0
 92
       -2
340
29
 93
        0
 40
1.125
309
GRIDFORMAT_END
309
TABLEFORMAT_END
  1
CELLSTYLE_BEGIN
 90
        2
 91
        1
300
_HEADER
309
CELLSTYLE_END
300
CELLSTYLE
  1
TABLEFORMAT_BEGIN
 90
        5
170
     1
 91
        0
 92
        0
 62
   257
 93
        1
300
CONTENTFORMAT
  1
CONTENTFORMAT_BEGIN
 90
        0
 91
        0
 92
      512
 93
        0
300

 40
0.0
140
1.0
 94
        2
 62
     0
340
26
144
4.5
309
CONTENTFORMAT_END
171
     1
301
MARGIN
  1
CELLMARGIN_BEGIN
 40
1.5
 40
1.5
 40
1.5
 40
1.5
 40
4.5
 40
4.5
309
CELLMARGIN_END
 94
        6
 95
        1
302
GRIDFORMAT
  1
GRIDFORMAT_BEGIN
 90
        0
 91
        1
 62
     0
 92
       -2
340
29
 93
        0
 40
1.125
309
GRIDFORMAT_END
 95
        2
302
GRIDFORMAT
  1
GRIDFORMAT_BEGIN
 90
        0
 91
        1
 62
     0
 92
       -2
340
29
 93
        0
 40
1.125
309
GRIDFORMAT_END
 95
        4
302
GRIDFORMAT
  1
GRIDFORMAT_BEGIN
 90
        0
 91
        1
 62
     0
 92
       -2
340
29
 93
        0
 40
1.125
309
GRIDFORMAT_END
 95
        8
302
GRIDFORMAT
  1
GRIDFORMAT_BEGIN
 90
        0
 91
        1
 62
     0
 92
       -2
340
29
 93
        0
 40
1.125
309
GRIDFORMAT_END
 95
       16
302
GRIDFORMAT
  1
GRIDFORMAT_BEGIN
 90
        0
 91
        1
 62
     0
 92
       -2
340
29
 93
        0
 40
1.125
309
GRIDFORMAT_END
 95
       32
302
GRIDFORMAT
  1
GRIDFORMAT_BEGIN
 90
        0
 91
        1
 62
     0
 92
       -2
340
29
 93
        0
 40
1.125
309
GRIDFORMAT_END
309
TABLEFORMAT_END
  1
CELLSTYLE_BEGIN
 90
        3
 91
        2
300
_DATA
309
CELLSTYLE_END
  0
XRECORD
  5
259
102
{ACAD_REACTORS
330
56
102
}
330
56
100
AcDbXrecord
280
     1
102
ACAD_ROUNDTRIP_PRE2007_TABLESTYLE
 90
      512
 91
        0
  1

 92
      512
 93
        0
  2

 94
      512
 95
        0
  3

  0
XRECORD
  5
250
102
{ACAD_REACTORS
330
24F
102
}
330
24F
100
AcDbXrecord
280
     1
102
RTVSPost2010Prop28
280
     1
102
RTVSPost2010PropOp28
 70
     1
102
RTVSPost2010Prop29
280
     1
102
RTVSPost2010PropOp29
 70
     1
102
RTVSPost2010Prop30
280
     0
102
RTVSPost2010PropOp30
 70
     1
102
RTVSPost2010Prop31
280
     0
102
RTVSPost2010PropOp31
 70
     1
102
RTVSPost2010Prop32
280
     0
102
RTVSPost2010PropOp32
 70
     1
102
RTVSPost2010Prop33
280
     0
102
RTVSPost2010PropOp33
 70
     1
102
RTVSPost2010Prop34
280
     0
102
RTVSPost2010PropOp34
 70
     1
102
RTVSPost2010Prop35
280
     0
102
RTVSPost2010PropOp35
 70
     1
102
RTVSPost2010Prop36
280
     0
102
RTVSPost2010PropOp36
 70
     1
102
RTVSPost2010Prop37
 90
       50
102
RTVSPost2010PropOp37
 70
     1
102
RTVSPost2010Prop38
140
0.0
102
RTVSPost2010PropOp38
 70
     1
102
RTVSPost2010Prop39
140
1.0
102
RTVSPost2010PropOp39
 70
     1
102
RTVSPost2010Prop40
 90
        0
102
RTVSPost2010PropOp40
 70
     1
102
RTVSPost2010Prop41ColorIndex
 90
       18
102
RTVSPost2010Prop41ColorRGB
 90
        0
102
RTVSPost2010PropOp41
 70
     1
102
RTVSPost2010Prop42
 90
       50
102
RTVSPost2010PropOp42
 70
     1
102
RTVSPost2010Prop43
 90
        3
102
RTVSPost2010PropOp43
 70
     1
102
RTVSPost2010Prop44ColorIndex
 90
        5
102
RTVSPost2010Prop44ColorRGB
 90
      255
102
RTVSPost2010PropOp44
 70
     1
102
RTVSPost2010Prop45
280
     0
102
RTVSPost2010PropOp45
 70
     1
102
RTVSPost2010Prop46
 90
       50
102
RTVSPost2010PropOp46
 70
     1
102
RTVSPost2010Prop47
 90
       50
102
RTVSPost2010PropOp47
 70
     1
102
RTVSPost2010Prop48
 90
       50
102
RTVSPost2010PropOp48
 70
     1
102
RTVSPost2010Prop49
280
     0
102
RTVSPost2010PropOp49
 70
     1
102
RTVSPost2010Prop50
 90
       50
102
RTVSPost2010PropOp50
 70
     1
102
RTVSPost2010Prop51ColorIndex
 90
      256
102
RTVSPost2010Prop51ColorRGB
 90
-16777216
102
RTVSPost2010PropOp51
 70
     0
102
RTVSPost2010Prop52
140
1.0
102
RTVSPost2010PropOp52
 70
     0
102
RTVSPost2010Prop53
 90
        2
102
RTVSPost2010PropOp53
 70
     1
102
RTVSPost2010Prop54
  1
strokes_ogs.tif
102
RTVSPost2010PropOp54
 70
     1
102
RTVSPost2010Prop55
280
     0
102
RTVSPost2010PropOp55
 70
     1
102
RTVSPost2010Prop56
140
1.0
102
RTVSPost2010PropOp56
 70
     1
102
RTVSPost2010Prop57
140
1.0
102
RTVSPost2010PropOp57
 70
     1
102
RTVSPropertyOp0
 70
     1
102
RTVSPropertyOp1
 70
     1
102
RTVSPropertyOp2
 70
     1
102
RTVSPropertyOp3
 70
     1
102
RTVSPropertyOp4
 70
     1
102
RTVSPropertyOp5
 70
     1
102
RTVSPropertyOp6
 70
     1
102
RTVSPropertyOp7
 70
     1
102
RTVSPropertyOp8
 70
     1
102
RTVSPropertyOp9
 70
     1
102
RTVSPropertyOp10
 70
     1
102
RTVSPropertyOp11
 70
     1
102
RTVSPropertyOp12
 70
     1
102
RTVSPropertyOp13
 70
     1
102
RTVSPropertyOp14
 70
     1
102
RTVSPropertyOp15
 70
     1
102
RTVSPropertyOp16
 70
     1
102
RTVSPropertyOp17
 70
     1
102
RTVSPropertyOp18
 70
     1
102
RTVSPropertyOp19
 70
     1
102
RTVSPropertyOp20
 70
     1
102
RTVSPropertyOp21
 70
     1
102
RTVSPropertyOp22
 70
     1
102
RTVSPropertyOp23
 70
     1
102
RTVSPropertyOp24
 70
     1
102
RTVSPropertyOp25
 70
     1
102
RTVSPropertyOp26
 70
     1
102
RTVSPropertyOp27
 70
     1
102
RTVSPropertyOp28
 70
     1
102
RTVSPropertyOp29
 70
     1
102
RTVSPropertyOp30
 70
     1
102
RTVSPropertyOp31
 70
     1
102
RTVSPropertyOp32
 70
     1
102
RTVSPropertyOp33
 70
     1
102
RTVSPropertyOp34
 70
     1
102
RTVSPropertyOp35
 70
     1
102
RTVSPropertyOp36
 70
     1
102
RTVSPropertyOp37
 70
     1
102
RTVSPropertyOp38
 70
     1
102
RTVSPropertyOp39
 70
     1
102
RTVSPropertyOp40
 70
     1
102
RTVSPropertyOp41
 70
     1
102
RTVSPropertyOp42
 70
     1
102
RTVSPropertyOp43
 70
     1
102
RTVSPropertyOp44
 70
     1
102
RTVSPropertyOp45
 70
     1
102
RTVSPropertyOp46
 70
     1
102
RTVSPropertyOp47
 70
     1
102
RTVSPropertyOp48
 70
     1
102
RTVSPropertyOp49
 70
     1
102
RTVSPropertyOp50
 70
     1
102
RTVSPropertyOp51
 70
     0
102
RTVSPropertyOp52
 70
     0
102
RTVSPropertyOp53
 70
     1
102
RTVSPropertyOp54
 70
     1
102
RTVSPropertyOp55
 70
     1
102
RTVSPropertyOp56
 70
     1
102
RTVSPropertyOp57
 70
     1
102
RTVSPropertyOp58
 70
     1
102
RTVSPropertyOp59
 70
     1
102
RTVSPropertyOp60
 70
     1
102
RTVSPropertyOp61
 70
     1
102
RTVSPropertyOp62
 70
     1
  0
XRECORD
  5
261
102
{ACAD_REACTORS
330
260
102
}
330
260
100
AcDbXrecord
280
     1
102
RTVSPost2010Prop28
280
     0
102
RTVSPost2010PropOp28
 70
     1
102
RTVSPost2010Prop29
280
     1
102
RTVSPost2010PropOp29
 70
     1
102
RTVSPost2010Prop30
280
     1
102
RTVSPost2010PropOp30
 70
     1
102
RTVSPost2010Prop31
280
     0
102
RTVSPost2010PropOp31
 70
     1
102
RTVSPost2010Prop32
280
     0
102
RTVSPost2010PropOp32
 70
     1
102
RTVSPost2010Prop33
280
     0
102
RTVSPost2010PropOp33
 70
     1
102
RTVSPost2010Prop34
280
     0
102
RTVSPost2010PropOp34
 70
     1
102
RTVSPost2010Prop35
280
     0
102
RTVSPost2010PropOp35
 70
     1
102
RTVSPost2010Prop36
280
     0
102
RTVSPost2010PropOp36
 70
     1
102
RTVSPost2010Prop37
 90
       50
102
RTVSPost2010PropOp37
 70
     1
102
RTVSPost2010Prop38
140
0.0
102
RTVSPost2010PropOp38
 70
     1
102
RTVSPost2010Prop39
140
1.0
102
RTVSPost2010PropOp39
 70
     1
102
RTVSPost2010Prop40
 90
        0
102
RTVSPost2010PropOp40
 70
     1
102
RTVSPost2010Prop41ColorIndex
 90
       18
102
RTVSPost2010Prop41ColorRGB
 90
        0
102
RTVSPost2010PropOp41
 70
     1
102
RTVSPost2010Prop42
 90
       50
102
RTVSPost2010PropOp42
 70
     1
102
RTVSPost2010Prop43
 90
        3
102
RTVSPost2010PropOp43
 70
     1
102
RTVSPost2010Prop44ColorIndex
 90
        5
102
RTVSPost2010Prop44ColorRGB
 90
      255
102
RTVSPost2010PropOp44
 70
     1
102
RTVSPost2010Prop45
280
     0
102
RTVSPost2010PropOp45
 70
     1
102
RTVSPost2010Prop46
 90
       50
102
RTVSPost2010PropOp46
 70
     1
102
RTVSPost2010Prop47
 90
       50
102
RTVSPost2010PropOp47
 70
     1
102
RTVSPost2010Prop48
 90
       50
102
RTVSPost2010PropOp48
 70
     1
102
RTVSPost2010Prop49
280
     0
102
RTVSPost2010PropOp49
 70
     1
102
RTVSPost2010Prop50
 90
       50
102
RTVSPost2010PropOp50
 70
     1
102
RTVSPost2010Prop51ColorIndex
 90
      256
102
RTVSPost2010Prop51ColorRGB
 90
-16777216
102
RTVSPost2010PropOp51
 70
     0
102
RTVSPost2010Prop52
140
1.0
102
RTVSPost2010PropOp52
 70
     0
102
RTVSPost2010Prop53
 90
        2
102
RTVSPost2010PropOp53
 70
     1
102
RTVSPost2010Prop54
  1
strokes_ogs.tif
102
RTVSPost2010PropOp54
 70
     1
102
RTVSPost2010Prop55
280
     0
102
RTVSPost2010PropOp55
 70
     1
102
RTVSPost2010Prop56
140
1.0
102
RTVSPost2010PropOp56
 70
     1
102
RTVSPost2010Prop57
140
1.0
102
RTVSPost2010PropOp57
 70
     1
102
RTVSPropertyOp0
 70
     0
102
RTVSPropertyOp1
 70
     0
102
RTVSPropertyOp2
 70
     0
102
RTVSPropertyOp3
 70
     0
102
RTVSPropertyOp4
 70
     0
102
RTVSPropertyOp5
 70
     0
102
RTVSPropertyOp6
 70
     0
102
RTVSPropertyOp7
 70
     0
102
RTVSPropertyOp8
 70
     0
102
RTVSPropertyOp9
 70
     0
102
RTVSPropertyOp10
 70
     0
102
RTVSPropertyOp11
 70
     0
102
RTVSPropertyOp12
 70
     0
102
RTVSPropertyOp13
 70
     0
102
RTVSPropertyOp14
 70
     2
102
RTVSPropertyOp15
 70
     0
102
RTVSPropertyOp16
 70
     0
102
RTVSPropertyOp17
 70
     0
102
RTVSPropertyOp18
 70
     0
102
RTVSPropertyOp19
 70
     0
102
RTVSPropertyOp20
 70
     0
102
RTVSPropertyOp21
 70
     0
102
RTVSPropertyOp22
 70
     0
102
RTVSPropertyOp23
 70
     0
102
RTVSPropertyOp24
 70
     0
102
RTVSPropertyOp25
 70
     0
102
RTVSPropertyOp26
 70
     0
102
RTVSPropertyOp27
 70
     0
102
RTVSPropertyOp28
 70
     1
102
RTVSPropertyOp29
 70
     1
102
RTVSPropertyOp30
 70
     1
102
RTVSPropertyOp31
 70
     1
102
RTVSPropertyOp32
 70
     1
102
RTVSPropertyOp33
 70
     1
102
RTVSPropertyOp34
 70
     1
102
RTVSPropertyOp35
 70
     1
102
RTVSPropertyOp36
 70
     1
102
RTVSPropertyOp37
 70
     1
102
RTVSPropertyOp38
 70
     1
102
RTVSPropertyOp39
 70
     1
102
RTVSPropertyOp40
 70
     1
102
RTVSPropertyOp41
 70
     1
102
RTVSPropertyOp42
 70
     1
102
RTVSPropertyOp43
 70
     1
102
RTVSPropertyOp44
 70
     1
102
RTVSPropertyOp45
 70
     1
102
RTVSPropertyOp46
 70
     1
102
RTVSPropertyOp47
 70
     1
102
RTVSPropertyOp48
 70
     1
102
RTVSPropertyOp49
 70
     1
102
RTVSPropertyOp50
 70
     1
102
RTVSPropertyOp51
 70
     0
102
RTVSPropertyOp52
 70
     0
102
RTVSPropertyOp53
 70
     1
102
RTVSPropertyOp54
 70
     1
102
RTVSPropertyOp55
 70
     1
102
RTVSPropertyOp56
 70
     1
102
RTVSPropertyOp57
 70
     1
102
RTVSPropertyOp58
 70
     1
102
RTVSPropertyOp59
 70
     1
102
RTVSPropertyOp60
 70
     1
102
RTVSPropertyOp61
 70
     1
102
RTVSPropertyOp62
 70
     1
  0
XRECORD
  5
25B
102
{ACAD_REACTORS
330
25A
102
}
330
25A
100
AcDbXrecord
280
     1
102
RTVSPost2010Prop28
280
     0
102
RTVSPost2010PropOp28
 70
     1
102
RTVSPost2010Prop29
280
     1
102
RTVSPost2010PropOp29
 70
     1
102
RTVSPost2010Prop30
280
     1
102
RTVSPost2010PropOp30
 70
     1
102
RTVSPost2010Prop31
280
     0
102
RTVSPost2010PropOp31
 70
     1
102
RTVSPost2010Prop32
280
     0
102
RTVSPost2010PropOp32
 70
     1
102
RTVSPost2010Prop33
280
     0
102
RTVSPost2010PropOp33
 70
     1
102
RTVSPost2010Prop34
280
     0
102
RTVSPost2010PropOp34
 70
     1
102
RTVSPost2010Prop35
280
     0
102
RTVSPost2010PropOp35
 70
     1
102
RTVSPost2010Prop36
280
     0
102
RTVSPost2010PropOp36
 70
     1
102
RTVSPost2010Prop37
 90
       50
102
RTVSPost2010PropOp37
 70
     1
102
RTVSPost2010Prop38
140
0.0
102
RTVSPost2010PropOp38
 70
     1
102
RTVSPost2010Prop39
140
1.0
102
RTVSPost2010PropOp39
 70
     1
102
RTVSPost2010Prop40
 90
        0
102
RTVSPost2010PropOp40
 70
     1
102
RTVSPost2010Prop41ColorIndex
 90
       18
102
RTVSPost2010Prop41ColorRGB
 90
        0
102
RTVSPost2010PropOp41
 70
     1
102
RTVSPost2010Prop42
 90
       50
102
RTVSPost2010PropOp42
 70
     1
102
RTVSPost2010Prop43
 90
        3
102
RTVSPost2010PropOp43
 70
     1
102
RTVSPost2010Prop44ColorIndex
 90
        5
102
RTVSPost2010Prop44ColorRGB
 90
      255
102
RTVSPost2010PropOp44
 70
     1
102
RTVSPost2010Prop45
280
     0
102
RTVSPost2010PropOp45
 70
     1
102
RTVSPost2010Prop46
 90
       50
102
RTVSPost2010PropOp46
 70
     1
102
RTVSPost2010Prop47
 90
       50
102
RTVSPost2010PropOp47
 70
     1
102
RTVSPost2010Prop48
 90
       50
102
RTVSPost2010PropOp48
 70
     1
102
RTVSPost2010Prop49
280
     0
102
RTVSPost2010PropOp49
 70
     1
102
RTVSPost2010Prop50
 90
       50
102
RTVSPost2010PropOp50
 70
     1
102
RTVSPost2010Prop51ColorIndex
 90
      256
102
RTVSPost2010Prop51ColorRGB
 90
-16777216
102
RTVSPost2010PropOp51
 70
     0
102
RTVSPost2010Prop52
140
1.0
102
RTVSPost2010PropOp52
 70
     0
102
RTVSPost2010Prop53
 90
        2
102
RTVSPost2010PropOp53
 70
     1
102
RTVSPost2010Prop54
  1
strokes_ogs.tif
102
RTVSPost2010PropOp54
 70
     1
102
RTVSPost2010Prop55
280
     0
102
RTVSPost2010PropOp55
 70
     1
102
RTVSPost2010Prop56
140
1.0
102
RTVSPost2010PropOp56
 70
     1
102
RTVSPost2010Prop57
140
1.0
102
RTVSPost2010PropOp57
 70
     1
102
RTVSPropertyOp0
 70
     1
102
RTVSPropertyOp1
 70
     1
102
RTVSPropertyOp2
 70
     1
102
RTVSPropertyOp3
 70
     1
102
RTVSPropertyOp4
 70
     1
102
RTVSPropertyOp5
 70
     1
102
RTVSPropertyOp6
 70
     1
102
RTVSPropertyOp7
 70
     1
102
RTVSPropertyOp8
 70
     1
102
RTVSPropertyOp9
 70
     1
102
RTVSPropertyOp10
 70
     1
102
RTVSPropertyOp11
 70
     1
102
RTVSPropertyOp12
 70
     1
102
RTVSPropertyOp13
 70
     1
102
RTVSPropertyOp14
 70
     1
102
RTVSPropertyOp15
 70
     1
102
RTVSPropertyOp16
 70
     1
102
RTVSPropertyOp17
 70
     1
102
RTVSPropertyOp18
 70
     1
102
RTVSPropertyOp19
 70
     1
102
RTVSPropertyOp20
 70
     1
102
RTVSPropertyOp21
 70
     1
102
RTVSPropertyOp22
 70
     1
102
RTVSPropertyOp23
 70
     1
102
RTVSPropertyOp24
 70
     1
102
RTVSPropertyOp25
 70
     1
102
RTVSPropertyOp26
 70
     1
102
RTVSPropertyOp27
 70
     1
102
RTVSPropertyOp28
 70
     1
102
RTVSPropertyOp29
 70
     1
102
RTVSPropertyOp30
 70
     1
102
RTVSPropertyOp31
 70
     1
102
RTVSPropertyOp32
 70
     1
102
RTVSPropertyOp33
 70
     1
102
RTVSPropertyOp34
 70
     1
102
RTVSPropertyOp35
 70
     1
102
RTVSPropertyOp36
 70
     1
102
RTVSPropertyOp37
 70
     1
102
RTVSPropertyOp38
 70
     1
102
RTVSPropertyOp39
 70
     1
102
RTVSPropertyOp40
 70
     1
102
RTVSPropertyOp41
 70
     1
102
RTVSPropertyOp42
 70
     1
102
RTVSPropertyOp43
 70
     1
102
RTVSPropertyOp44
 70
     1
102
RTVSPropertyOp45
 70
     1
102
RTVSPropertyOp46
 70
     1
102
RTVSPropertyOp47
 70
     1
102
RTVSPropertyOp48
 70
     1
102
RTVSPropertyOp49
 70
     1
102
RTVSPropertyOp50
 70
     1
102
RTVSPropertyOp51
 70
     0
102
RTVSPropertyOp52
 70
     0
102
RTVSPropertyOp53
 70
     1
102
RTVSPropertyOp54
 70
     1
102
RTVSPropertyOp55
 70
     1
102
RTVSPropertyOp56
 70
     1
102
RTVSPropertyOp57
 70
     1
102
RTVSPropertyOp58
 70
     1
102
RTVSPropertyOp59
 70
     1
102
RTVSPropertyOp60
 70
     1
102
RTVSPropertyOp61
 70
     1
102
RTVSPropertyOp62
 70
     1
  0
XRECORD
  5
25D
102
{ACAD_REACTORS
330
25C
102
}
330
25C
100
AcDbXrecord
280
     1
102
RTVSPost2010Prop28
280
     0
102
RTVSPost2010PropOp28
 70
     1
102
RTVSPost2010Prop29
280
     1
102
RTVSPost2010PropOp29
 70
     1
102
RTVSPost2010Prop30
280
     1
102
RTVSPost2010PropOp30
 70
     1
102
RTVSPost2010Prop31
280
     0
102
RTVSPost2010PropOp31
 70
     1
102
RTVSPost2010Prop32
280
     0
102
RTVSPost2010PropOp32
 70
     1
102
RTVSPost2010Prop33
280
     0
102
RTVSPost2010PropOp33
 70
     1
102
RTVSPost2010Prop34
280
     0
102
RTVSPost2010PropOp34
 70
     1
102
RTVSPost2010Prop35
280
     0
102
RTVSPost2010PropOp35
 70
     1
102
RTVSPost2010Prop36
280
     0
102
RTVSPost2010PropOp36
 70
     1
102
RTVSPost2010Prop37
 90
       50
102
RTVSPost2010PropOp37
 70
     1
102
RTVSPost2010Prop38
140
0.0
102
RTVSPost2010PropOp38
 70
     1
102
RTVSPost2010Prop39
140
1.0
102
RTVSPost2010PropOp39
 70
     1
102
RTVSPost2010Prop40
 90
        0
102
RTVSPost2010PropOp40
 70
     1
102
RTVSPost2010Prop41ColorIndex
 90
       18
102
RTVSPost2010Prop41ColorRGB
 90
        0
102
RTVSPost2010PropOp41
 70
     1
102
RTVSPost2010Prop42
 90
       50
102
RTVSPost2010PropOp42
 70
     1
102
RTVSPost2010Prop43
 90
        3
102
RTVSPost2010PropOp43
 70
     1
102
RTVSPost2010Prop44ColorIndex
 90
        5
102
RTVSPost2010Prop44ColorRGB
 90
      255
102
RTVSPost2010PropOp44
 70
     1
102
RTVSPost2010Prop45
280
     0
102
RTVSPost2010PropOp45
 70
     1
102
RTVSPost2010Prop46
 90
       50
102
RTVSPost2010PropOp46
 70
     1
102
RTVSPost2010Prop47
 90
       50
102
RTVSPost2010PropOp47
 70
     1
102
RTVSPost2010Prop48
 90
       50
102
RTVSPost2010PropOp48
 70
     1
102
RTVSPost2010Prop49
280
     0
102
RTVSPost2010PropOp49
 70
     1
102
RTVSPost2010Prop50
 90
       50
102
RTVSPost2010PropOp50
 70
     1
102
RTVSPost2010Prop51ColorIndex
 90
      256
102
RTVSPost2010Prop51ColorRGB
 90
-16777216
102
RTVSPost2010PropOp51
 70
     0
102
RTVSPost2010Prop52
140
1.0
102
RTVSPost2010PropOp52
 70
     0
102
RTVSPost2010Prop53
 90
        2
102
RTVSPost2010PropOp53
 70
     1
102
RTVSPost2010Prop54
  1
strokes_ogs.tif
102
RTVSPost2010PropOp54
 70
     1
102
RTVSPost2010Prop55
280
     0
102
RTVSPost2010PropOp55
 70
     1
102
RTVSPost2010Prop56
140
1.0
102
RTVSPost2010PropOp56
 70
     1
102
RTVSPost2010Prop57
140
1.0
102
RTVSPost2010PropOp57
 70
     1
102
RTVSPropertyOp0
 70
     1
102
RTVSPropertyOp1
 70
     1
102
RTVSPropertyOp2
 70
     1
102
RTVSPropertyOp3
 70
     1
102
RTVSPropertyOp4
 70
     1
102
RTVSPropertyOp5
 70
     1
102
RTVSPropertyOp6
 70
     1
102
RTVSPropertyOp7
 70
     1
102
RTVSPropertyOp8
 70
     1
102
RTVSPropertyOp9
 70
     1
102
RTVSPropertyOp10
 70
     1
102
RTVSPropertyOp11
 70
     1
102
RTVSPropertyOp12
 70
     1
102
RTVSPropertyOp13
 70
     1
102
RTVSPropertyOp14
 70
     1
102
RTVSPropertyOp15
 70
     1
102
RTVSPropertyOp16
 70
     1
102
RTVSPropertyOp17
 70
     1
102
RTVSPropertyOp18
 70
     1
102
RTVSPropertyOp19
 70
     1
102
RTVSPropertyOp20
 70
     1
102
RTVSPropertyOp21
 70
     1
102
RTVSPropertyOp22
 70
     1
102
RTVSPropertyOp23
 70
     1
102
RTVSPropertyOp24
 70
     1
102
RTVSPropertyOp25
 70
     1
102
RTVSPropertyOp26
 70
     1
102
RTVSPropertyOp27
 70
     1
102
RTVSPropertyOp28
 70
     1
102
RTVSPropertyOp29
 70
     1
102
RTVSPropertyOp30
 70
     1
102
RTVSPropertyOp31
 70
     1
102
RTVSPropertyOp32
 70
     1
102
RTVSPropertyOp33
 70
     1
102
RTVSPropertyOp34
 70
     1
102
RTVSPropertyOp35
 70
     1
102
RTVSPropertyOp36
 70
     1
102
RTVSPropertyOp37
 70
     1
102
RTVSPropertyOp38
 70
     1
102
RTVSPropertyOp39
 70
     1
102
RTVSPropertyOp40
 70
     1
102
RTVSPropertyOp41
 70
     1
102
RTVSPropertyOp42
 70
     1
102
RTVSPropertyOp43
 70
     1
102
RTVSPropertyOp44
 70
     1
102
RTVSPropertyOp45
 70
     1
102
RTVSPropertyOp46
 70
     1
102
RTVSPropertyOp47
 70
     1
102
RTVSPropertyOp48
 70
     1
102
RTVSPropertyOp49
 70
     1
102
RTVSPropertyOp50
 70
     1
102
RTVSPropertyOp51
 70
     0
102
RTVSPropertyOp52
 70
     0
102
RTVSPropertyOp53
 70
     1
102
RTVSPropertyOp54
 70
     1
102
RTVSPropertyOp55
 70
     1
102
RTVSPropertyOp56
 70
     1
102
RTVSPropertyOp57
 70
     1
102
RTVSPropertyOp58
 70
     1
102
RTVSPropertyOp59
 70
     1
102
RTVSPropertyOp60
 70
     1
102
RTVSPropertyOp61
 70
     1
102
RTVSPropertyOp62
 70
     1
  0
ENDSEC
  0
EOF
