  0
SECTION
  2
HEADER
  9
$ACADVER
  1
AC1015
  9
$ACADMAINTVER
 70
    18
  9
$DWGCODEPAGE
  3
ANSI_1252
  9
$INSBASE
 10
37198.26678736991
 20
7143.965539815083
 30
0.0
  9
$EXTMIN
 10
-8041.742961063206
 20
-4876.034460184918
 30
0.0
  9
$EXTMAX
 10
39884.37403655774
 20
9089.639204691897
 30
0.0
  9
$LIMMIN
 10
0.0
 20
0.0
  9
$LIMMAX
 10
420.0
 20
297.0
  9
$ORTHOMODE
 70
     1
  9
$REGENMODE
 70
     1
  9
$FILLMODE
 70
     1
  9
$QTEXTMODE
 70
     0
  9
$MIRRTEXT
 70
     0
  9
$LTSCALE
 40
1.0
  9
$ATTMODE
 70
     1
  9
$TEXTSIZE
 40
2.5
  9
$TRACEWID
 40
1.0
  9
$TEXTSTYLE
  7
Standard
  9
$CLAYER
  8
DEFPOINTS
  9
$CELTYPE
  6
ByLayer
  9
$CECOLOR
 62
   256
  9
$CELTSCALE
 40
1.0
  9
$DISPSILH
 70
     0
  9
$DIMSCALE
 40
1.0
  9
$DIMASZ
 40
3.5
  9
$DIMEXO
 40
1.0
  9
$DIMDLI
 40
10.0
  9
$DIMRND
 40
0.0
  9
$DIMDLE
 40
0.0
  9
$DIMEXE
 40
1.0
  9
$DIMTP
 40
0.1
  9
$DIMTM
 40
0.1
  9
$DIMTXT
 40
3.5
  9
$DIMCEN
 40
0.0
  9
$DIMTSZ
 40
0.0
  9
$DIMTOL
 70
     0
  9
$DIMLIM
 70
     0
  9
$DIMTIH
 70
     0
  9
$DIMTOH
 70
     0
  9
$DIMSE1
 70
     0
  9
$DIMSE2
 70
     0
  9
$DIMTAD
 70
     1
  9
$DIMZIN
 70
     8
  9
$DIMBLK
  1

  9
$DIMASO
 70
     1
  9
$DIMSHO
 70
     1
  9
$DIMPOST
  1

  9
$DIMAPOST
  1
"
  9
$DIMALT
 70
     0
  9
$DIMALTD
 70
     2
  9
$DIMALTF
 40
0.0393701
  9
$DIMLFAC
 40
1.0
  9
$DIMTOFL
 70
     1
  9
$DIMTVP
 40
0.0
  9
$DIMTIX
 70
     0
  9
$DIMSOXD
 70
     0
  9
$DIMSAH
 70
     0
  9
$DIMBLK1
  1

  9
$DIMBLK2
  1

  9
$DIMSTYLE
  2
AM_DIN
  9
$DIMCLRD
 70
   256
  9
$DIMCLRE
 70
   256
  9
$DIMCLRT
 70
     2
  9
$DIMTFAC
 40
0.71
  9
$DIMGAP
 40
1.5
  9
$DIMJUST
 70
     0
  9
$DIMSD1
 70
     0
  9
$DIMSD2
 70
     0
  9
$DIMTOLJ
 70
     0
  9
$DIMTZIN
 70
     8
  9
$DIMALTZ
 70
     0
  9
$DIMALTTZ
 70
     0
  9
$DIMUPT
 70
     0
  9
$DIMDEC
 70
     2
  9
$DIMTDEC
 70
     3
  9
$DIMALTU
 70
     2
  9
$DIMALTTD
 70
     4
  9
$DIMTXSTY
  7
Standard
  9
$DIMAUNIT
 70
     0
  9
$DIMADEC
 70
     0
  9
$DIMALTRND
 40
0.0
  9
$DIMAZIN
 70
     2
  9
$DIMDSEP
 70
    46
  9
$DIMATFIT
 70
     3
  9
$DIMFRAC
 70
     0
  9
$DIMLDRBLK
  1

  9
$DIMLUNIT
 70
     2
  9
$DIMLWD
 70
    -1
  9
$DIMLWE
 70
    -1
  9
$DIMTMOVE
 70
     0
  9
$LUNITS
 70
     2
  9
$LUPREC
 70
     4
  9
$SKETCHINC
 40
1.0
  9
$FILLETRAD
 40
0.0
  9
$AUNITS
 70
     0
  9
$AUPREC
 70
     0
  9
$MENU
  1
.
  9
$ELEVATION
 40
0.0
  9
$PELEVATION
 40
0.0
  9
$THICKNESS
 40
0.0
  9
$LIMCHECK
 70
     0
  9
$CHAMFERA
 40
2.0
  9
$CHAMFERB
 40
2.0
  9
$CHAMFERC
 40
0.0
  9
$CHAMFERD
 40
0.0
  9
$SKPOLY
 70
     0
  9
$TDCREATE
 40
2458738.314456019
  9
$TDUCREATE
 40
2458738.231127095
  9
$TDUPDATE
 40
2460074.487210648
  9
$TDUUPDATE
 40
2460074.403877315
  9
$TDINDWG
 40
4.2081811458
  9
$TDUSRTIMER
 40
4.2081808218
  9
$USRTIMER
 70
     1
  9
$ANGBASE
 50
0.0
  9
$ANGDIR
 70
     0
  9
$PDMODE
 70
     0
  9
$PDSIZE
 40
0.0
  9
$PLINEWID
 40
0.0
  9
$SPLFRAME
 70
     0
  9
$SPLINETYPE
 70
     6
  9
$SPLINESEGS
 70
     8
  9
$HANDSEED
  5
1EF
  9
$SURFTAB1
 70
     6
  9
$SURFTAB2
 70
     6
  9
$SURFTYPE
 70
     6
  9
$SURFU
 70
     6
  9
$SURFV
 70
     6
  9
$UCSBASE
  2

  9
$UCSNAME
  2

  9
$UCSORG
 10
0.0
 20
0.0
 30
0.0
  9
$UCSXDIR
 10
1.0
 20
0.0
 30
0.0
  9
$UCSYDIR
 10
0.0
 20
1.0
 30
0.0
  9
$UCSORTHOREF
  2

  9
$UCSORTHOVIEW
 70
     0
  9
$UCSORGTOP
 10
0.0
 20
0.0
 30
0.0
  9
$UCSORGBOTTOM
 10
0.0
 20
0.0
 30
0.0
  9
$UCSORGLEFT
 10
0.0
 20
0.0
 30
0.0
  9
$UCSORGRIGHT
 10
0.0
 20
0.0
 30
0.0
  9
$UCSORGFRONT
 10
0.0
 20
0.0
 30
0.0
  9
$UCSORGBACK
 10
0.0
 20
0.0
 30
0.0
  9
$PUCSBASE
  2

  9
$PUCSNAME
  2

  9
$PUCSORG
 10
0.0
 20
0.0
 30
0.0
  9
$PUCSXDIR
 10
1.0
 20
0.0
 30
0.0
  9
$PUCSYDIR
 10
0.0
 20
1.0
 30
0.0
  9
$PUCSORTHOREF
  2

  9
$PUCSORTHOVIEW
 70
     0
  9
$PUCSORGTOP
 10
0.0
 20
0.0
 30
0.0
  9
$PUCSORGBOTTOM
 10
0.0
 20
0.0
 30
0.0
  9
$PUCSORGLEFT
 10
0.0
 20
0.0
 30
0.0
  9
$PUCSORGRIGHT
 10
0.0
 20
0.0
 30
0.0
  9
$PUCSORGFRONT
 10
0.0
 20
0.0
 30
0.0
  9
$PUCSORGBACK
 10
0.0
 20
0.0
 30
0.0
  9
$USERI1
 70
     0
  9
$USERI2
 70
     0
  9
$USERI3
 70
     0
  9
$USERI4
 70
     0
  9
$USERI5
 70
     0
  9
$USERR1
 40
0.0
  9
$USERR2
 40
0.0
  9
$USERR3
 40
0.0
  9
$USERR4
 40
0.0
  9
$USERR5
 40
0.0
  9
$WORLDVIEW
 70
     1
  9
$SHADEDGE
 70
     3
  9
$SHADEDIF
 70
    70
  9
$TILEMODE
 70
     1
  9
$MAXACTVP
 70
    64
  9
$PINSBASE
 10
0.0
 20
0.0
 30
0.0
  9
$PLIMCHECK
 70
     0
  9
$PEXTMIN
 10
-336.0581622965808
 20
-2275.066915115365
 30
0.0
  9
$PEXTMAX
 10
2200.992315193187
 20
732.75702618344
 30
0.0
  9
$PLIMMIN
 10
0.0
 20
0.0
  9
$PLIMMAX
 10
12.0
 20
9.0
  9
$UNITMODE
 70
     0
  9
$VISRETAIN
 70
     1
  9
$PLINEGEN
 70
     0
  9
$PSLTSCALE
 70
     1
  9
$TREEDEPTH
 70
  3020
  9
$CMLSTYLE
  2
Standard
  9
$CMLJUST
 70
     0
  9
$CMLSCALE
 40
20.0
  9
$PROXYGRAPHICS
 70
     1
  9
$MEASUREMENT
 70
     1
  9
$CELWEIGHT
370
    -1
  9
$ENDCAPS
280
     0
  9
$JOINSTYLE
280
     0
  9
$LWDISPLAY
290
     0
  9
$INSUNITS
 70
     4
  9
$HYPERLINKBASE
  1

  9
$STYLESHEET
  1

  9
$XEDIT
290
     1
  9
$CEPSNTYPE
380
     0
  9
$PSTYLEMODE
290
     1
  9
$FINGERPRINTGUID
  2
{34DA633A-F003-7D45-82B3-A639432399CE}
  9
$VERSIONGUID
  2
{0409BFC4-521C-2B4F-BF64-88BEF2A51C73}
  9
$EXTNAMES
290
     1
  9
$PSVPSCALE
 40
0.0
  9
$OLESTARTUP
290
     0
  0
ENDSEC
  0
SECTION
  2
CLASSES
  0
CLASS
  1
ACDBDICTIONARYWDFLT
  2
AcDbDictionaryWithDefault
  3
ObjectDBX Classes
 90
        0
280
     0
281
     0
  0
CLASS
  1
ACDBPLACEHOLDER
  2
AcDbPlaceHolder
  3
ObjectDBX Classes
 90
        0
280
     0
281
     0
  0
CLASS
  1
LAYOUT
  2
AcDbLayout
  3
ObjectDBX Classes
 90
        0
280
     0
281
     0
  0
CLASS
  1
DICTIONARYVAR
  2
AcDbDictionaryVar
  3
ObjectDBX Classes
 90
        0
280
     0
281
     0
  0
CLASS
  1
TABLESTYLE
  2
AcDbTableStyle
  3
ObjectDBX Classes
 90
     4095
280
     0
281
     0
  0
CLASS
  1
MATERIAL
  2
AcDbMaterial
  3
ObjectDBX Classes
 90
     1153
280
     0
281
     0
  0
CLASS
  1
VISUALSTYLE
  2
AcDbVisualStyle
  3
ObjectDBX Classes
 90
     4095
280
     0
281
     0
  0
CLASS
  1
SCALE
  2
AcDbScale
  3
ObjectDBX Classes
 90
     1153
280
     0
281
     0
  0
CLASS
  1
MLEADERSTYLE
  2
AcDbMLeaderStyle
  3
ACDB_MLEADERSTYLE_CLASS
 90
    36863
280
     0
281
     0
  0
CLASS
  1
CELLSTYLEMAP
  2
AcDbCellStyleMap
  3
ObjectDBX Classes
 90
     1152
280
     0
281
     0
  0
CLASS
  1
EXACXREFPANELOBJECT
  2
ExAcXREFPanelObject
  3
EXAC_ESW
 90
    33793
280
     1
281
     0
  0
CLASS
  1
NPOCOLLECTION
  2
AcDbImpNonPersistentObjectsCollection
  3
ObjectDBX Classes
 90
    33921
280
     0
281
     0
  0
CLASS
  1
LAYER_INDEX
  2
AcDbLayerIndex
  3
ObjectDBX Classes
 90
    32768
280
     0
281
     0
  0
CLASS
  1
SPATIAL_INDEX
  2
AcDbSpatialIndex
  3
ObjectDBX Classes
 90
    32768
280
     0
281
     0
  0
CLASS
  1
IDBUFFER
  2
AcDbIdBuffer
  3
ObjectDBX Classes
 90
    32768
280
     0
281
     0
  0
CLASS
  1
ACDBSECTIONVIEWSTYLE
  2
AcDbSectionViewStyle
  3
ObjectDBX Classes
 90
     1025
280
     0
281
     0
  0
CLASS
  1
ACDBDETAILVIEWSTYLE
  2
AcDbDetailViewStyle
  3
ObjectDBX Classes
 90
     1025
280
     0
281
     0
  0
CLASS
  1
ACME_DOCUMENT
  2
AcMeDbDoc
  3
AcMeServices
 90
    33792
280
     0
281
     0
  0
CLASS
  1
AMGSETTINGSOBJ
  2
AmgSettingsObj
  3
"AcadM|Product Description: AutoCAD Mechanical|Company: Autodesk, Inc."
 90
     1024
280
     0
281
     0
  0
CLASS
  1
ACMESCOPE
  2
AcMeScope
  3
AcMeServices
 90
     1024
280
     0
281
     0
  0
CLASS
  1
ACMECOMMANDHISTORY
  2
AcMeCommandHistory
  3
AcMeServices
 90
    33792
280
     0
281
     0
  0
CLASS
  1
ACIMSYSVARMAN
  2
AcImSysVarManager
  3
AcMeServices
 90
     1024
280
     0
281
     0
  0
CLASS
  1
ACIMINTSYSVAR
  2
AcImIntSysVar
  3
AcMeServices
 90
     1024
280
     0
281
     0
  0
CLASS
  1
ACMESTATEMGR
  2
AcMeStateMgr
  3
AcMeServices
 90
     1024
280
     0
281
     0
  0
CLASS
  1
ACDBENTITYCACHE
  2
AcMeEntityCache
  3
AcMeServices
 90
    33792
280
     0
281
     0
  0
CLASS
  1
ACGREFMASTER
  2
AcGrefMaster
  3
AcAttribServices
 90
     1024
280
     0
281
     0
  0
CLASS
  1
ACME_DATABASE
  2
AcMeDbDatabase
  3
AcMeServices
 90
    33792
280
     0
281
     0
  0
CLASS
  1
ACRFINSADJUSTERMGR
  2
AcRfInsAdjusterMgr
  3
AcMeServices
 90
    33792
280
     0
281
     0
  0
CLASS
  1
ACGREFACADMASTER
  2
AcGrefacadMaster
  3
AcGrefServices
 90
    33792
280
     0
281
     0
  0
CLASS
  1
AMDTMENUSTATEMGR
  2
AmdtMenuStateMgr
  3
McadcomServices
 90
    33792
280
     0
281
     0
  0
CLASS
  1
AMDTMCOMMENUSTATE
  2
AmdtMcomMenuState
  3
McadcomServices
 90
    33792
280
     0
281
     0
  0
CLASS
  1
AMIMASTER
  2
AmiMaster
  3
AmiServices
 90
    33792
280
     0
281
     0
  0
CLASS
  1
MAPIAMMOUDLE
  2
MApiAmModule
  3
MApiAmServices
 90
    33792
280
     0
281
     0
  0
CLASS
  1
ACIMSTRSYSVAR
  2
AcImStrSysVar
  3
AcMeServices
 90
     1024
280
     0
281
     0
  0
CLASS
  1
AMDTAMMENUSTATE
  2
AmdtAmMenuState
  3
DesignerAssemblies_arx
 90
    33792
280
     0
281
     0
  0
CLASS
  1
ACAMPROJECT
  2
AcAmProject
  3
DesignerAssemblies
 90
    33792
280
     0
281
     0
  0
CLASS
  1
ACAMGRCOMPDEF
  2
AcAmGrCompDef
  3
DesignerAssemblies
 90
    33792
280
     0
281
     0
  0
CLASS
  1
ACAMCOMPDEF
  2
AcAmCompDef
  3
DesignerAssemblies
 90
    33792
280
     0
281
     0
  0
CLASS
  1
ACAMCOMPDEFMGR
  2
AcAmCompDefMgr
  3
DesignerAssemblies
 90
    33792
280
     0
281
     0
  0
CLASS
  1
AMCONTEXTMGR
  2
AcAmContextMgr
  3
DesignerAssemblies
 90
    33792
280
     0
281
     0
  0
CLASS
  1
ACAMCONTEXTMODELER
  2
AcAmContextModeler
  3
DesignerAssemblies
 90
    33792
280
     0
281
     0
  0
CLASS
  1
ACMDATADICTIONARY
  2
AcmDataDictionary
  3
"AcmSymBB|Product Description: AutoCAD Mechanical|Company: Autodesk, Inc."
 90
    33792
280
     0
281
     0
  0
CLASS
  1
ACAMGRCOMPDEFSET
  2
AcAmGrCompDefSet
  3
DesignerAssemblies
 90
    33792
280
     0
281
     0
  0
CLASS
  1
AMDTBROWSERDBTAB
  2
AmdtBrowserDbTab
  3
McadcomServices
 90
    33792
280
     0
281
     0
  0
CLASS
  1
CBROWSERAPPOBJECT
  2
CBrowserAppObject
  3
McadcomServices
 90
    33792
280
     0
281
     0
  0
CLASS
  1
DM_PLACEHOLDER
  2
AcDmSelsetPlaceholder
  3
McadcomServices
 90
    33792
280
     0
281
     0
  0
CLASS
  1
ACMSTANDARDDIN
  2
AcmStandardDIN
  3
"Amdt_StdImp|Product Description: AutoCAD Mechanical|Company: Autodesk, Inc."
 90
     1024
280
     0
281
     0
  0
CLASS
  1
AMDTEDGESTANDARDDIN13715
  2
AmdtEdgeStdDIN13715
  3
"Amdt_StdImp|Product Description: AutoCAD Mechanical|Company: Autodesk, Inc."
 90
     1024
280
     0
281
     0
  0
CLASS
  1
ACMSURFSTANDARDDIN2002
  2
AcmSurfTextStdDIN2002
  3
"Amdt_StdImp|Product Description: AutoCAD Mechanical|Company: Autodesk, Inc."
 90
     1024
280
     0
281
     0
  0
CLASS
  1
ACMFCFSTANDARDDIN2008
  2
AcmFCFStdDIN2008
  3
"Amdt_StdImp|Product Description: AutoCAD Mechanical|Company: Autodesk, Inc."
 90
     1024
280
     0
281
     0
  0
CLASS
  1
ACMWELDSTANDARDDIN
  2
AcmWeldingStdDIN
  3
"Amdt_StdImp|Product Description: AutoCAD Mechanical|Company: Autodesk, Inc."
 90
     1024
280
     0
281
     0
  0
CLASS
  1
ACMIDSTANDARDDIN2012
  2
AcmIdStdDIN2012
  3
"Amdt_StdImp|Product Description: AutoCAD Mechanical|Company: Autodesk, Inc."
 90
     1024
280
     0
281
     0
  0
CLASS
  1
ACMDATUMSTANDARDDIN2008
  2
AcmDatumStdDIN2008
  3
"Amdt_StdImp|Product Description: AutoCAD Mechanical|Company: Autodesk, Inc."
 90
     1024
280
     0
281
     0
  0
CLASS
  1
ACMBOMSTANDARDDIN
  2
AcmBOMStdDIN
  3
"Amdt_StdImp|Product Description: AutoCAD Mechanical|Company: Autodesk, Inc."
 90
     1024
280
     0
281
     0
  0
CLASS
  1
ACMDETAILSTANDARDDIN
  2
AmdtDetailSymStdDIN
  3
"Amdt_StdImp|Product Description: AutoCAD Mechanical|Company: Autodesk, Inc."
 90
     1024
280
     0
281
     0
  0
CLASS
  1
ACMSECTIONSTANDARDDIN
  2
AmdtSectionSymStdDIN
  3
"Amdt_StdImp|Product Description: AutoCAD Mechanical|Company: Autodesk, Inc."
 90
     1024
280
     0
281
     0
  0
CLASS
  1
ACMCENTERLINESTANDARDDIN
  2
AmdtCenterLineStdDIN
  3
"Amdt_StdImp|Product Description: AutoCAD Mechanical|Company: Autodesk, Inc."
 90
     1024
280
     0
281
     0
  0
CLASS
  1
ACMTHREADLINESTANDARDDIN
  2
AmdtThreadLineStdDIN
  3
"Amdt_StdImp|Product Description: AutoCAD Mechanical|Company: Autodesk, Inc."
 90
     1024
280
     0
281
     0
  0
CLASS
  1
ACMNOTESTANDARDDIN
  2
AmdtNoteStdDIN
  3
"Amdt_StdImp|Product Description: AutoCAD Mechanical|Company: Autodesk, Inc."
 90
     1024
280
     0
281
     0
  0
CLASS
  1
ACMTAPERSTANDARDDIN
  2
AcmTaperStdDIN
  3
"Amdt_StdImp|Product Description: AutoCAD Mechanical|Company: Autodesk, Inc."
 90
     1024
280
     0
281
     0
  0
CLASS
  1
ACMANOOTATIONVIEWSTANDARDDIN
  2
AmdtAnViewStdDIN
  3
"Amdt_StdImp|Product Description: AutoCAD Mechanical|Company: Autodesk, Inc."
 90
     1024
280
     0
281
     0
  0
CLASS
  1
ACAMGLAYSTD
  2
AcAmgLayStd
  3
"AmgLay|Product Description: AutoCAD Mechanical|Company: Autodesk, Inc."
 90
     1024
280
     0
281
     0
  0
CLASS
  1
ACAMGDIMSTD
  2
AcAmgDimStd
  3
"AmgDim|Product Description: AutoCAD Mechanical|Company: Autodesk, Inc."
 90
     1024
280
     0
281
     0
  0
CLASS
  1
AMGOBJPROPCFG
  2
AmgObjPropCfg
  3
"AmgLay|Product Description: AutoCAD Mechanical|Company: Autodesk, Inc."
 90
     1024
280
     0
281
     0
  0
CLASS
  1
ACAMGHOLECHARTSTDDIN
  2
AcAmgHoleChartStdDIN
  3
"AmgDim" "Product Description: AutoCAD Mechanical|Company: Autodesk, Inc."
 90
     1024
280
     0
281
     0
  0
CLASS
  1
ACAMGTITLESTD
  2
AcAmgTitleStd
  3
"AmgTitle|Product Description: AutoCAD Mechanical|Company: Autodesk, Inc."
 90
     1024
280
     0
281
     0
  0
CLASS
  1
ACMSECTIONSTANDARDCUSTOM
  2
AmdtSectionSymStdCustom
  3
"Amdt_StdImp|Product Description: AutoCAD Mechanical|Company: Autodesk, Inc."
 90
     1024
280
     0
281
     0
  0
CLASS
  1
ACMDETAILTANDARDCUSTOM
  2
AmdtDetailSymStdCustom
  3
"Amdt_StdImp|Product Description: AutoCAD Mechanical|Company: Autodesk, Inc."
 90
     1024
280
     0
281
     0
  0
CLASS
  1
FIELD
  2
AcDbField
  3
ObjectDBX Classes
 90
     1152
280
     0
281
     0
  0
CLASS
  1
FIELDLIST
  2
AcDbFieldList
  3
ObjectDBX Classes
 90
     1152
280
     0
281
     0
  0
CLASS
  1
AMDTNOTETEMPLATEDB
  2
AmdtNoteTemplateDB
  3
"AcmSymBB" "Product Description: AutoCAD Mechanical|Company: Autodesk, Inc."
 90
     1024
280
     0
281
     0
  0
CLASS
  1
CAMSSTRUCTBTNSTATE
  2
StructBtnState
  3
DesignerAssemblies_arx
 90
    33792
280
     0
281
     0
  0
CLASS
  1
RAPIDRTRENDERSETTINGS
  2
AcDbRapidRTRenderSettings
  3
ObjectDBX Classes
 90
    33792
280
     0
281
     0
  0
CLASS
  1
SORTENTSTABLE
  2
AcDbSortentsTable
  3
ObjectDBX Classes
 90
        0
280
     0
281
     0
  0
CLASS
  1
ACAMGFILTERDAT
  2
AcAmgFilterDat
  3
"AcadM|Product Description: AutoCAD Mechanical|Company: Autodesk, Inc."
 90
    33792
280
     0
281
     0
  0
CLASS
  1
ACDBASSOCNETWORK
  2
AcDbAssocNetwork
  3
ObjectDBX Classes
 90
    33793
280
     0
281
     0
  0
CLASS
  1
ACDBASSOC2DCONSTRAINTGROUP
  2
AcDbAssoc2dConstraintGroup
  3
ObjectDBX Classes
 90
    33793
280
     0
281
     0
  0
CLASS
  1
ACDBASSOCGEOMDEPENDENCY
  2
AcDbAssocGeomDependency
  3
ObjectDBX Classes
 90
    33793
280
     0
281
     0
  0
CLASS
  1
ACAD_EVALUATION_GRAPH
  2
AcDbEvalGraph
  3
ObjectDBX Classes
 90
    33921
280
     0
281
     0
  0
CLASS
  1
BLOCKBASEPOINTPARAMETER
  2
AcDbBlockBasepointParameter
  3
ObjectDBX Classes
 90
    33921
280
     0
281
     0
  0
CLASS
  1
ACDB_DYNAMICBLOCKPROXYNODE
  2
AcDbDynamicBlockProxyNode
  3
ObjectDBX Classes
 90
    33921
280
     0
281
     0
  0
CLASS
  1
BLOCKVISIBILITYPARAMETER
  2
AcDbBlockVisibilityParameter
  3
ObjectDBX Classes
 90
    33921
280
     0
281
     0
  0
CLASS
  1
BLOCKVISIBILITYGRIP
  2
AcDbBlockVisibilityGrip
  3
ObjectDBX Classes
 90
    33921
280
     0
281
     0
  0
CLASS
  1
BLOCKGRIPLOCATIONCOMPONENT
  2
AcDbBlockGripExpr
  3
ObjectDBX Classes
 90
    33921
280
     0
281
     0
  0
CLASS
  1
BLOCKPOINTPARAMETER
  2
AcDbBlockPointParameter
  3
ObjectDBX Classes
 90
    33921
280
     0
281
     0
  0
CLASS
  1
BLOCKXYGRIP
  2
AcDbBlockXYGrip
  3
ObjectDBX Classes
 90
    33921
280
     0
281
     0
  0
CLASS
  1
BLOCKMOVEACTION
  2
AcDbBlockMoveAction
  3
ObjectDBX Classes
 90
    33921
280
     0
281
     0
  0
CLASS
  1
ACDB_DYNAMICBLOCKPURGEPREVENTER_VERSION
  2
AcDbDynamicBlockPurgePreventer
  3
ObjectDBX Classes
 90
    33921
280
     0
281
     0
  0
CLASS
  1
IMAGE
  2
AcDbRasterImage
  3
ISM
 90
     2175
280
     0
281
     1
  0
CLASS
  1
IMAGEDEF_REACTOR
  2
AcDbRasterImageDefReactor
  3
ISM
 90
        1
280
     0
281
     0
  0
CLASS
  1
ACDB_BLOCKREPRESENTATION_DATA
  2
AcDbBlockRepresentationData
  3
ObjectDBX Classes
 90
    33921
280
     0
281
     0
  0
CLASS
  1
IMAGEDEF
  2
AcDbRasterImageDef
  3
ISM
 90
        0
280
     0
281
     0
  0
CLASS
  1
ACMDATAENTRYBLOCK
  2
AcmDataEntryBlock
  3
"AcmSymBB" "Product Description: AutoCAD Mechanical|Company: Autodesk, Inc."
 90
    33792
280
     0
281
     0
  0
CLASS
  1
RASTERVARIABLES
  2
AcDbRasterVariables
  3
ISM
 90
        0
280
     0
281
     0
  0
CLASS
  1
ACAECUSTOBJ
  2
AcAeEditorObj
  3
AcAeEditorObj
 90
    33792
280
     0
281
     0
  0
CLASS
  1
ACDBASSOCVARIABLE
  2
AcDbAssocVariable
  3
ObjectDBX Classes
 90
    33793
280
     0
281
     0
  0
CLASS
  1
ACDBASSOCVALUEDEPENDENCY
  2
AcDbAssocValueDependency
  3
ObjectDBX Classes
 90
    33793
280
     0
281
     0
  0
CLASS
  1
ACDBASSOCDEPENDENCY
  2
AcDbAssocDependency
  3
ObjectDBX Classes
 90
    33793
280
     0
281
     0
  0
CLASS
  1
BLOCKPARAMDEPENDENCYBODY
  2
AcDbBlockParameterDependencyBody
  3
ObjectDBX Classes
 90
    32769
280
     0
281
     0
  0
CLASS
  1
BLOCKHORIZONTALCONSTRAINTPARAMETER
  2
AcDbBlockHorizontalConstraintParameter
  3
ObjectDBX Classes
 90
    33921
280
     0
281
     0
  0
CLASS
  1
BLOCKLINEARGRIP
  2
AcDbBlockLinearGrip
  3
ObjectDBX Classes
 90
    33921
280
     0
281
     0
  0
CLASS
  1
BLOCKVERTICALCONSTRAINTPARAMETER
  2
AcDbBlockVerticalConstraintParameter
  3
ObjectDBX Classes
 90
    33921
280
     0
281
     0
  0
CLASS
  1
DIMASSOC
  2
AcDbDimAssoc
  3
"AcDbDimAssoc|Product Desc:     AcDim ARX App For Dimension|Company:          Autodesk, Inc.|WEB Address:      www.autodesk.com"
 90
    32768
280
     0
281
     0
  0
CLASS
  1
ACAD_TABLE
  2
AcDbTable
  3
ObjectDBX Classes
 90
    33793
280
     0
281
     1
  0
CLASS
  1
TABLECONTENT
  2
AcDbTableContent
  3
ObjectDBX Classes
 90
    33920
280
     0
281
     0
  0
CLASS
  1
TABLEGEOMETRY
  2
AcDbTableGeometry
  3
ObjectDBX Classes
 90
    33920
280
     0
281
     0
  0
CLASS
  1
BLOCKLINEARPARAMETER
  2
AcDbBlockLinearParameter
  3
ObjectDBX Classes
 90
    33921
280
     0
281
     0
  0
CLASS
  1
BLOCKSCALEACTION
  2
AcDbBlockScaleAction
  3
ObjectDBX Classes
 90
    33921
280
     0
281
     0
  0
CLASS
  1
POINTPARAMETERENTITY
  2
AcDbBlockPointParameterEntity
  3
ObjectDBX Classes
 90
    33793
280
     0
281
     1
  0
CLASS
  1
ACAEEEMGROBJ
  2
AcAeEEMgrObj
  3
AcAeEEMgrObj
 90
    33792
280
     0
281
     0
  0
CLASS
  1
XYGRIPENTITY
  2
AcDbBlockXYGripEntity
  3
ObjectDBX Classes
 90
    33793
280
     0
281
     1
  0
CLASS
  1
VISIBILITYPARAMETERENTITY
  2
AcDbBlockVisibilityParameterEntity
  3
ObjectDBX Classes
 90
    33793
280
     0
281
     1
  0
CLASS
  1
VISIBILITYGRIPENTITY
  2
AcDbBlockVisibilityGripEntity
  3
ObjectDBX Classes
 90
    33793
280
     0
281
     1
  0
CLASS
  1
STDPART2D
  2
AmgStdPart
  3
"AmgStdPart" "Product Description: AutoCAD Mechanical|Company: Autodesk, Inc."
 90
    33792
280
     0
281
     1
  0
CLASS
  1
ACMDATAENTRYPART
  2
AcmDataEntryPart
  3
"AcmSymBB" "Product Description: AutoCAD Mechanical|Company: Autodesk, Inc."
 90
    33792
280
     0
281
     0
  0
CLASS
  1
ACMPARTREF
  2
AcmPartRef
  3
"AcmSymBB|Product Description: AutoCAD Mechanical|Company: Autodesk, Inc."
 90
    33792
280
     0
281
     1
  0
CLASS
  1
ACDBSTDPARTRES_LINE
  2
AcDbStdPartRes_Line
  3
"AmgStdPart" "Product Description: AutoCAD Mechanical|Company: Autodesk, Inc."
 90
    33792
280
     0
281
     0
  0
CLASS
  1
AMDTINTERNALREACTOR
  2
AmdtInternalReactor
  3
AcMeServices
 90
    33792
280
     0
281
     0
  0
CLASS
  1
ACMSTANDARDANSI
  2
AcmStandardANSI
  3
"Amdt_StdImp|Product Description: AutoCAD Mechanical|Company: Autodesk, Inc."
 90
    33792
280
     0
281
     0
  0
CLASS
  1
ACMSURFSTANDARDANSI
  2
AcmSurfTextStdANSI
  3
"Amdt_StdImp|Product Description: AutoCAD Mechanical|Company: Autodesk, Inc."
 90
    33792
280
     0
281
     0
  0
CLASS
  1
ACMFCFSTANDARDANSI
  2
AcmFCFStdANSI
  3
"Amdt_StdImp|Product Description: AutoCAD Mechanical|Company: Autodesk, Inc."
 90
    33792
280
     0
281
     0
  0
CLASS
  1
ACMWELDSTANDARDANSI
  2
AcmWeldingStdANSI
  3
"Amdt_StdImp|Product Description: AutoCAD Mechanical|Company: Autodesk, Inc."
 90
    33792
280
     0
281
     0
  0
CLASS
  1
ACMIDSTANDARDANSI
  2
AcmIdStdANSI
  3
"Amdt_StdImp|Product Description: AutoCAD Mechanical|Company: Autodesk, Inc."
 90
    33792
280
     0
281
     0
  0
CLASS
  1
ACMDATUMSTANDARDANSI
  2
AcmDatumStdANSI
  3
"Amdt_StdImp|Product Description: AutoCAD Mechanical|Company: Autodesk, Inc."
 90
    33792
280
     0
281
     0
  0
CLASS
  1
ACMBOMSTANDARDANSI
  2
AcmBOMStdANSI
  3
"Amdt_StdImp|Product Description: AutoCAD Mechanical|Company: Autodesk, Inc."
 90
    33792
280
     0
281
     0
  0
CLASS
  1
ACMDETAILSTANDARDANSI
  2
AmdtDetailSymStdANSI
  3
"Amdt_StdImp|Product Description: AutoCAD Mechanical|Company: Autodesk, Inc."
 90
    33792
280
     0
281
     0
  0
CLASS
  1
ACMSECTIONSTANDARDANSI
  2
AmdtSectionSymStdANSI
  3
"Amdt_StdImp|Product Description: AutoCAD Mechanical|Company: Autodesk, Inc."
 90
    33792
280
     0
281
     0
  0
CLASS
  1
ACMCENTERLINESTANDARDANSI
  2
AmdtCenterLineStdANSI
  3
"Amdt_StdImp|Product Description: AutoCAD Mechanical|Company: Autodesk, Inc."
 90
    33792
280
     0
281
     0
  0
CLASS
  1
ACMTHREADLINESTANDARDANSI
  2
AmdtThreadLineStdANSI
  3
"Amdt_StdImp|Product Description: AutoCAD Mechanical|Company: Autodesk, Inc."
 90
    33792
280
     0
281
     0
  0
CLASS
  1
ACMNOTESTANDARDANSI
  2
AmdtNoteStdANSI
  3
"Amdt_StdImp|Product Description: AutoCAD Mechanical|Company: Autodesk, Inc."
 90
    33792
280
     0
281
     0
  0
CLASS
  1
ACMTAPERSTANDARDANSI
  2
AcmTaperStdANSI
  3
"Amdt_StdImp|Product Description: AutoCAD Mechanical|Company: Autodesk, Inc."
 90
    33792
280
     0
281
     0
  0
CLASS
  1
ACMANOOTATIONVIEWSTANDARDANSI
  2
AmdtAnViewStdANSI
  3
"Amdt_StdImp|Product Description: AutoCAD Mechanical|Company: Autodesk, Inc."
 90
    33792
280
     0
281
     0
  0
CLASS
  1
ACAMGHOLECHARTSTDANSI
  2
AcAmgHoleChartStdANSI
  3
"AmgDim" "Product Description: AutoCAD Mechanical|Company: Autodesk, Inc."
 90
    33792
280
     0
281
     0
  0
CLASS
  1
AEC_REFEDIT_STATUS_TRACKER
  2
AecDbRefEditStatusTracker
  3
AecArchBase80|Product Desc: Autodesk Architectural Desktop 2007 |Company: Autodesk,Inc. |WEB Address: www.autodesk.com
 90
    32897
280
     1
281
     0
  0
CLASS
  1
SOLID_BACKGROUND
  2
AcDbSolidBackground
  3
SCENEOE
 90
    36863
280
     0
281
     0
  0
CLASS
  1
AMDTNOTE
  2
AmdtNote
  3
"AcmSymBB|Product Description: AutoCAD Mechanical|Company: Autodesk, Inc."
 90
    33792
280
     0
281
     1
  0
CLASS
  1
AMDTSECTIONSYM
  2
AmdtSectionSym
  3
"AcmSymBB|Product Description: AutoCAD Mechanical|Company: Autodesk, Inc."
 90
    33792
280
     0
281
     1
  0
CLASS
  1
AMDTSECTIONSYMLABEL
  2
AmdtSectionSymLabel
  3
"AcmSymBB|Product Description: AutoCAD Mechanical|Company: Autodesk, Inc."
 90
    33792
280
     0
281
     1
  0
CLASS
  1
ACSH_HISTORY_CLASS
  2
AcDbShHistory
  3
ObjectDBX Classes
 90
    33921
280
     0
281
     0
  0
CLASS
  1
ACSH_EXTRUSION_CLASS
  2
AcDbShExtrusion
  3
ObjectDBX Classes
 90
    33921
280
     0
281
     0
  0
CLASS
  1
ACSH_BOOLEAN_CLASS
  2
AcDbShBoolean
  3
ObjectDBX Classes
 90
    33921
280
     0
281
     0
  0
CLASS
  1
ACDBASSOCPERSSUBENTMANAGER
  2
AcDbAssocPersSubentManager
  3
ObjectDBX Classes
 90
    33792
280
     0
281
     0
  0
CLASS
  1
ACDBPERSSUBENTMANAGER
  2
AcDbPersSubentManager
  3
AcDbPersSubentManager
 90
    33792
280
     0
281
     0
  0
CLASS
  1
SURFACE
  2
AcDbSurface
  3
ObjectDBX Classes
 90
    36863
280
     0
281
     1
  0
CLASS
  1
ACDBOPPOLYLINERES
  2
AcDbOpPolylineRes
  3
AcGrefServices
 90
    33792
280
     0
281
     0
  0
CLASS
  1
AMDTFORMULAUPDATEDISPATCHER
  2
AmdtFormulaUpdateDispatcher
  3
AcMeServices
 90
    33792
280
     0
281
     0
  0
CLASS
  1
ACARRAYJIGENTITY
  2
AcArrayJigEntity
  3
ACAD_ARRAY
 90
    32897
280
     1
281
     1
  0
CLASS
  1
ACDBASSOCACTION
  2
AcDbAssocAction
  3
ObjectDBX Classes
 90
    33793
280
     0
281
     0
  0
CLASS
  1
ACDBASSOCARRAYACTIONBODY
  2
AcDbAssocArrayActionBody
  3
ObjectDBX Classes
 90
    33793
280
     0
281
     0
  0
CLASS
  1
ACDBASSOCVERTEXACTIONPARAM
  2
AcDbAssocVertexActionParam
  3
ObjectDBX Classes
 90
    33793
280
     0
281
     0
  0
CLASS
  1
ACDBASSOCARRAYRECTANGULARPARAMETERS
  2
AcDbAssocArrayRectangularParameters
  3
ObjectDBX Classes
 90
    33793
280
     0
281
     0
  0
CLASS
  1
MENTALRAYRENDERSETTINGS
  2
AcDbMentalRayRenderSettings
  3
SCENEOE
 90
    33792
280
     0
281
     0
  0
CLASS
  1
ACDBASSOCENTITYCLONEACTIONBODY
  2
AcDbAssocEntityCloneActionBody
  3
ObjectDBX Classes
 90
    33793
280
     0
281
     0
  0
CLASS
  1
ACDB_MTEXTOBJECTCONTEXTDATA_CLASS
  2
AcDbMTextObjectContextData
  3
ObjectDBX Classes
 90
    33921
280
     0
281
     0
  0
ENDSEC
  0
SECTION
  2
TABLES
  0
TABLE
  2
VPORT
  5
2D
330
0
100
AcDbSymbolTable
 70
     1
  0
VPORT
  5
2E
330
2D
100
AcDbSymbolTableRecord
100
AcDbViewportTableRecord
  2
*Active
 70
     0
 10
0.0
 20
0.0
 11
1.0
 21
1.0
 12
1749.783753088457
 22
2347.040367953676
 13
0.0
 23
0.0
 14
10.0
 24
10.0
 15
10.0
 25
10.0
 16
0.0
 26
0.0
 36
73.92900907791593
 17
35982.36575583753
 27
5711.861408397168
 37
0.0
 40
1754.835274387354
 41
2.70281690140845
 42
50.0
 43
0.0
 44
0.0
 50
0.0
 51
0.0
 71
     0
 72
  1000
 73
     1
 74
     3
 75
     0
 76
     0
 77
     0
 78
     0
281
     0
 65
     1
110
0.0
120
0.0
130
0.0
111
1.0
121
0.0
131
0.0
112
0.0
122
1.0
132
0.0
 79
     0
146
0.0
1001
ACAD_NAV_VCDISPLAY
1070
     3
  0
ENDTAB
  0
TABLE
  2
LTYPE
  5
28
330
0
100
AcDbSymbolTable
 70
    14
  0
LTYPE
  5
29
330
28
100
AcDbSymbolTableRecord
100
AcDbLinetypeTableRecord
  2
ByBlock
 70
     0
  3

 72
    65
 73
     0
 40
0.0
  0
LTYPE
  5
2A
330
28
100
AcDbSymbolTableRecord
100
AcDbLinetypeTableRecord
  2
ByLayer
 70
     0
  3

 72
    65
 73
     0
 40
0.0
  0
LTYPE
  5
21
330
28
100
AcDbSymbolTableRecord
100
AcDbLinetypeTableRecord
  2
Continuous
 70
     0
  3
Solid line
 72
    65
 73
     0
 40
0.0
  0
LTYPE
  5
162
330
28
100
AcDbSymbolTableRecord
100
AcDbLinetypeTableRecord
  2
Amconstr
 70
     0
  3
_______________________
 72
    65
 73
     2
 40
9999.0
 49
9999.0
 74
     0
 49
0.0
 74
     0
  0
LTYPE
  5
164
330
28
100
AcDbSymbolTableRecord
100
AcDbLinetypeTableRecord
  2
Amzigzag
 70
     0
  3
/\/-/\/-/\/-/\/-/\/-/\/
 72
    65
 73
     2
 40
11.0001
 49
0.0001
 74
     4
 75
   136
340
165
 46
0.04
 50
0.0
 44
0.0
 45
0.0
 49
-11.0
 74
     0
  0
LTYPE
  5
15F
330
28
100
AcDbSymbolTableRecord
100
AcDbLinetypeTableRecord
  2
AM_DIN_F_W050
 70
     0
  3
__ __ __ __ __ __ __ __ __ __ __ __ __ __ __
 72
    65
 73
     2
 40
6.25
 49
4.75
 74
     0
 49
-1.5
 74
     0
  0
LTYPE
  5
160
330
28
100
AcDbSymbolTableRecord
100
AcDbLinetypeTableRecord
  2
AM_DIN_G_W050
 70
     0
  3
____ . ____ . ____ . ____ . ____ . ____ . ____
 72
    65
 73
     4
 40
13.75
 49
9.75
 74
     0
 49
-1.5
 74
     0
 49
1.0
 74
     0
 49
-1.5
 74
     0
  0
LTYPE
  5
161
330
28
100
AcDbSymbolTableRecord
100
AcDbLinetypeTableRecord
  2
AM_DIN_K_W050
 70
     0
  3
_____ . . _____ . . _____ . . ____ .. ____
 72
    65
 73
     6
 40
16.25
 49
9.75
 74
     0
 49
-1.5
 74
     0
 49
1.0
 74
     0
 49
-1.5
 74
     0
 49
1.0
 74
     0
 49
-1.5
 74
     0
  0
LTYPE
  5
7D
330
28
100
AcDbSymbolTableRecord
100
AcDbLinetypeTableRecord
  2
AM_DIN_G_W050x2
 70
     0
  3
__ . __ . __ . __ . __ . __
 72
    65
 73
     4
 40
6.875
 49
4.75
 74
     0
 49
-0.875
 74
     0
 49
0.375
 74
     0
 49
-0.875
 74
     0
  0
LTYPE
  5
163
330
28
100
AcDbSymbolTableRecord
100
AcDbLinetypeTableRecord
  2
AM_DIN_F_W050x2
 70
     0
  3
 _ _ _ _ _ _ _ _ _ _ _ _
 72
    65
 73
     2
 40
3.125
 49
2.25
 74
     0
 49
-0.875
 74
     0
  0
LTYPE
  5
176
330
28
100
AcDbSymbolTableRecord
100
AcDbLinetypeTableRecord
  2
ACDINWELD
 70
     0
  3
_ _ _ _ _
 72
    65
 73
     2
 40
2.0
 49
2.0
 74
     0
 49
-1.0
 74
     0
  0
LTYPE
  5
F3
330
28
100
AcDbSymbolTableRecord
100
AcDbLinetypeTableRecord
  2
ACDINTGL
 70
     0
  3
_ _ _ _ _
 72
    65
 73
     2
 40
3.0
 49
2.0
 74
     0
 49
-1.0
 74
     0
  0
LTYPE
  5
1B1
330
28
100
AcDbSymbolTableRecord
100
AcDbLinetypeTableRecord
  2
ACDINTGB
 70
     0
  3
__ . . __ . .
 72
    65
 73
     6
 40
9.0
 49
4.0
 74
     0
 49
-1.0
 74
     0
 49
1.0
 74
     0
 49
-1.0
 74
     0
 49
1.0
 74
     0
 49
-1.0
 74
     0
  0
LTYPE
  5
7C
330
28
100
AcDbSymbolTableRecord
100
AcDbLinetypeTableRecord
  2
MITTE
 70
     0
  3
____ _ ____ _ ____ _ ____ _ ____ _ ____ _ ____
 72
    65
 73
     4
 40
2.0
 49
1.25
 74
     0
 49
-0.25
 74
     0
 49
0.25
 74
     0
 49
-0.25
 74
     0
  0
LTYPE
  5
53
330
28
100
AcDbSymbolTableRecord
100
AcDbLinetypeTableRecord
  2
AUSGEZOGEN
 70
     0
  3
____________________________________________
 72
    65
 73
     2
 40
2000.1
 49
2000.0
 74
     0
 49
-0.1
 74
     0
  0
LTYPE
  5
13B
330
28
100
AcDbSymbolTableRecord
100
AcDbLinetypeTableRecord
  2
ACISOTGB
 70
     0
  3
__ . . __ . .
 72
    65
 73
     6
 40
9.0
 49
4.0
 74
     0
 49
-1.0
 74
     0
 49
1.0
 74
     0
 49
-1.0
 74
     0
 49
1.0
 74
     0
 49
-1.0
 74
     0
  0
ENDTAB
  0
TABLE
  2
LAYER
  5
13
102
{ACAD_XDICTIONARY
360
22
102
}
330
0
100
AcDbSymbolTable
 70
     6
  0
LAYER
  5
14
102
{ACAD_XDICTIONARY
360
15
102
}
330
13
100
AcDbSymbolTableRecord
100
AcDbLayerTableRecord
  2
0
 70
     0
 62
     7
  6
Continuous
370
    -3
390
16
  0
LAYER
  5
7A
102
{ACAD_XDICTIONARY
360
7B
102
}
330
13
100
AcDbSymbolTableRecord
100
AcDbLayerTableRecord
  2
-ACHSE
 70
     0
 62
     3
  6
MITTE
370
    -3
390
16
  0
LAYER
  5
51
102
{ACAD_XDICTIONARY
360
52
102
}
330
13
100
AcDbSymbolTableRecord
100
AcDbLayerTableRecord
  2
DEFPOINTS
 70
     0
 62
     5
  6
AUSGEZOGEN
290
     0
370
    -3
390
16
  0
LAYER
  5
77
330
13
100
AcDbSymbolTableRecord
100
AcDbLayerTableRecord
  2
-PROFILAUSSENKANTET
 70
     0
 62
     4
  6
Continuous
370
    -3
390
16
  0
LAYER
  5
8D
330
13
100
AcDbSymbolTableRecord
100
AcDbLayerTableRecord
  2
AM_5
 70
     0
 62
     3
  6
Continuous
370
    25
390
16
1001
AcAecLayerStandard
1000

1000

  0
LAYER
  5
73
102
{ACAD_XDICTIONARY
360
74
102
}
330
13
100
AcDbSymbolTableRecord
100
AcDbLayerTableRecord
  2
KONTUR
 70
     0
 62
     7
  6
Continuous
370
    -3
390
16
1001
AcAecLayerStandard
1000

1000
Standard für Profilkonturen
  0
ENDTAB
  0
TABLE
  2
STYLE
  5
25
330
0
100
AcDbSymbolTable
 70
     3
  0
STYLE
  5
26
330
25
100
AcDbSymbolTableRecord
100
AcDbTextStyleTableRecord
  2
Standard
 70
     0
 40
0.0
 41
1.0
 50
0.0
 71
     0
 42
2.5
  3
arial.ttf
  4

1001
ACAD
1000
Arial
1071
       34
  0
STYLE
  5
165
330
25
100
AcDbSymbolTableRecord
100
AcDbTextStyleTableRecord
  2

 70
     1
 40
0.0
 41
1.0
 50
0.0
 71
     0
 42
2.5
  3
genltshp.shx
  4

  0
STYLE
  5
174
330
25
100
AcDbSymbolTableRecord
100
AcDbTextStyleTableRecord
  2
ACDINGDT
 70
     0
 40
0.0
 41
1.0
 50
0.0
 71
     0
 42
2.5
  3
amgdt.shx
  4

  0
ENDTAB
  0
TABLE
  2
VIEW
  5
2B
330
0
100
AcDbSymbolTable
 70
     0
  0
ENDTAB
  0
TABLE
  2
UCS
  5
2C
330
0
100
AcDbSymbolTable
 70
     0
  0
ENDTAB
  0
TABLE
  2
APPID
  5
32
330
0
100
AcDbSymbolTable
 70
    20
  0
APPID
  5
20
330
32
100
AcDbSymbolTableRecord
100
AcDbRegAppTableRecord
  2
ACAD
 70
     0
  0
APPID
  5
C
330
32
100
AcDbSymbolTableRecord
100
AcDbRegAppTableRecord
  2
ACAD_PSEXT
 70
     0
  0
APPID
  5
35
330
32
100
AcDbSymbolTableRecord
100
AcDbRegAppTableRecord
  2
ACAD_DSTYLE_DIMJAG
 70
     0
  0
APPID
  5
31
330
32
100
AcDbSymbolTableRecord
100
AcDbRegAppTableRecord
  2
ACAD_NAV_VCDISPLAY
 70
     0
  0
APPID
  5
36
330
32
100
AcDbSymbolTableRecord
100
AcDbRegAppTableRecord
  2
ACAD_DSTYLE_DIMBREAK
 70
     0
  0
APPID
  5
75
330
32
100
AcDbSymbolTableRecord
100
AcDbRegAppTableRecord
  2
AcAecLayerStandard
 70
     0
  0
APPID
  5
150
330
32
100
AcDbSymbolTableRecord
100
AcDbRegAppTableRecord
  2
AcDbBlockRepETag
 70
     0
  0
APPID
  5
6B
330
32
100
AcDbSymbolTableRecord
100
AcDbRegAppTableRecord
  2
GENIUS_GENREC_14
 70
     0
  0
APPID
  5
6C
330
32
100
AcDbSymbolTableRecord
100
AcDbRegAppTableRecord
  2
GENIUS_GENODEF_13
 70
     0
  0
APPID
  5
6D
330
32
100
AcDbSymbolTableRecord
100
AcDbRegAppTableRecord
  2
GENIUS_GENOBJ-N-REC_13
 70
     0
  0
APPID
  5
9C
330
32
100
AcDbSymbolTableRecord
100
AcDbRegAppTableRecord
  2
ACAD_DSTYLE_DIMINSPECT
 70
     0
  0
APPID
  5
83
330
32
100
AcDbSymbolTableRecord
100
AcDbRegAppTableRecord
  2
GENIUS_GENOBJ-N-HTC_13
 70
     0
  0
APPID
  5
84
330
32
100
AcDbSymbolTableRecord
100
AcDbRegAppTableRecord
  2
GENIUS_GENHATCH_13
 70
     0
  0
APPID
  5
7E
330
32
100
AcDbSymbolTableRecord
100
AcDbRegAppTableRecord
  2
GENIUS_GENOBJ-N-CEN_13
 70
     0
  0
APPID
  5
7F
330
32
100
AcDbSymbolTableRecord
100
AcDbRegAppTableRecord
  2
GENIUS_GENCEN_19
 70
     0
  0
APPID
  5
1B3
330
32
100
AcDbSymbolTableRecord
100
AcDbRegAppTableRecord
  2
ACATTRIBSERVICES
 70
     0
  0
APPID
  5
1D6
330
32
100
AcDbSymbolTableRecord
100
AcDbRegAppTableRecord
  2
ACAD_DSTYLE_DIMJOGGED_JOGANGLE_SYMBOL
 70
     0
  0
APPID
  5
1D7
330
32
100
AcDbSymbolTableRecord
100
AcDbRegAppTableRecord
  2
ACAD_DSTYLE_DIM_LINETYPE
 70
     0
  0
APPID
  5
1D8
330
32
100
AcDbSymbolTableRecord
100
AcDbRegAppTableRecord
  2
ACAD_DSTYLE_DIM_EXT1_LINETYPE
 70
     0
  0
APPID
  5
1D9
330
32
100
AcDbSymbolTableRecord
100
AcDbRegAppTableRecord
  2
ACAD_DSTYLE_DIM_EXT2_LINETYPE
 70
     0
  0
ENDTAB
  0
TABLE
  2
DIMSTYLE
  5
33
330
0
100
AcDbSymbolTable
 70
     9
100
AcDbDimStyleTable
 71
     1
340
34
  0
DIMSTYLE
105
34
102
{ACAD_REACTORS
330
170
102
}
330
33
100
AcDbSymbolTableRecord
100
AcDbDimStyleTableRecord
  2
AM_DIN
 70
     0
  4
"
 41
3.5
 42
1.0
 43
10.0
 44
1.0
 47
0.1
 48
0.1
 73
     0
 74
     0
 77
     1
 78
     8
 79
     2
140
3.5
141
0.0
143
0.0393701
146
0.71
147
1.5
172
     1
176
   256
177
   256
178
     2
271
     2
272
     3
274
     4
283
     0
284
     8
340
26
371
    -1
372
    -1
1001
ACAD_DSTYLE_DIMJAG
1070
   388
1040
1.5
1001
ACAD_DSTYLE_DIMBREAK
1070
   391
1040
3.75
1001
ACAD_DSTYLE_DIMJOGGED_JOGANGLE_SYMBOL
1070
   384
1040
1.570796326794896
1001
ACAD_DSTYLE_DIM_LINETYPE
1070
   380
1005
29
1001
ACAD_DSTYLE_DIM_EXT1_LINETYPE
1070
   381
1005
29
1001
ACAD_DSTYLE_DIM_EXT2_LINETYPE
1070
   382
1005
29
  0
DIMSTYLE
105
1A3
330
33
100
AcDbSymbolTableRecord
100
AcDbDimStyleTableRecord
  2
AM_DIN$3
 70
     0
  4
"
 41
3.5
 42
1.0
 43
10.0
 44
1.0
 47
0.1
 48
0.1
 73
     0
 77
     1
 78
     8
 79
     2
140
3.5
141
0.0
143
0.0393701
146
0.71
147
1.5
176
   256
177
   256
178
     2
271
     2
272
     3
274
     4
283
     0
284
     8
288
     1
289
     0
340
26
371
    -1
372
    -1
1001
ACAD_DSTYLE_DIMBREAK
1070
   391
1040
3.75
1001
ACAD_DSTYLE_DIMJAG
1070
   388
1040
1.5
1001
ACAD_DSTYLE_DIMJOGGED_JOGANGLE_SYMBOL
1070
   384
1040
1.570796326794896
1001
ACAD_DSTYLE_DIM_LINETYPE
1070
   380
1005
29
1001
ACAD_DSTYLE_DIM_EXT1_LINETYPE
1070
   381
1005
29
1001
ACAD_DSTYLE_DIM_EXT2_LINETYPE
1070
   382
1005
29
  0
DIMSTYLE
105
1A4
330
33
100
AcDbSymbolTableRecord
100
AcDbDimStyleTableRecord
  2
AM_DIN$4
 70
     0
  4
"
 41
3.5
 42
1.0
 43
10.0
 44
1.0
 47
0.1
 48
0.1
 73
     0
 74
     0
 77
     1
 78
     8
 79
     2
140
3.5
141
0.0
143
0.0393701
146
0.71
147
1.5
172
     1
176
   256
177
   256
178
     2
271
     2
272
     3
274
     4
283
     0
284
     8
340
26
371
    -1
372
    -1
1001
ACAD_DSTYLE_DIMBREAK
1070
   391
1040
3.75
1001
ACAD_DSTYLE_DIMJAG
1070
   388
1040
1.5
1001
ACAD_DSTYLE_DIMJOGGED_JOGANGLE_SYMBOL
1070
   384
1040
1.570796326794896
1001
ACAD_DSTYLE_DIM_LINETYPE
1070
   380
1005
29
1001
ACAD_DSTYLE_DIM_EXT1_LINETYPE
1070
   381
1005
29
1001
ACAD_DSTYLE_DIM_EXT2_LINETYPE
1070
   382
1005
29
  0
DIMSTYLE
105
1A5
330
33
100
AcDbSymbolTableRecord
100
AcDbDimStyleTableRecord
  2
AM_DIN$6
 70
     0
  4
"
 41
3.5
 42
1.0
 43
10.0
 44
1.0
 47
0.1
 48
0.1
 73
     0
 74
     0
 78
     8
 79
     2
140
3.5
141
0.0
143
0.0393701
146
0.71
147
1.5
172
     1
176
   256
177
   256
178
     2
271
     2
272
     3
274
     4
283
     0
284
     8
340
26
371
    -1
372
    -1
1001
ACAD_DSTYLE_DIMBREAK
1070
   391
1040
3.75
1001
ACAD_DSTYLE_DIMJAG
1070
   388
1040
1.5
1001
ACAD_DSTYLE_DIMJOGGED_JOGANGLE_SYMBOL
1070
   384
1040
1.570796326794896
1001
ACAD_DSTYLE_DIM_LINETYPE
1070
   380
1005
29
1001
ACAD_DSTYLE_DIM_EXT1_LINETYPE
1070
   381
1005
29
1001
ACAD_DSTYLE_DIM_EXT2_LINETYPE
1070
   382
1005
29
  0
DIMSTYLE
105
1A6
330
33
100
AcDbSymbolTableRecord
100
AcDbDimStyleTableRecord
  2
AM_DIN$7
 70
     0
  4
"
 41
3.5
 42
1.0
 43
10.0
 44
1.0
 47
0.1
 48
0.1
 73
     0
 74
     0
 77
     1
 78
     8
 79
     2
140
3.5
141
0.0
143
0.0393701
146
0.71
147
1.5
172
     1
176
   256
177
   256
178
     2
271
     2
272
     3
274
     4
283
     0
284
     8
340
26
371
    -1
372
    -1
1001
ACAD_DSTYLE_DIMBREAK
1070
   391
1040
3.75
1001
ACAD_DSTYLE_DIMJAG
1070
   388
1040
1.5
1001
ACAD_DSTYLE_DIMJOGGED_JOGANGLE_SYMBOL
1070
   384
1040
1.570796326794896
1001
ACAD_DSTYLE_DIM_LINETYPE
1070
   380
1005
29
1001
ACAD_DSTYLE_DIM_EXT1_LINETYPE
1070
   381
1005
29
1001
ACAD_DSTYLE_DIM_EXT2_LINETYPE
1070
   382
1005
29
  0
DIMSTYLE
105
1A7
330
33
100
AcDbSymbolTableRecord
100
AcDbDimStyleTableRecord
  2
AM_DIN$SF
 70
     0
  4
"
 41
3.5
 42
1.0
 43
10.0
 44
1.0
 47
0.1
 48
0.1
 73
     0
 74
     0
 75
     1
 76
     1
 77
     1
 78
     8
 79
     2
140
3.5
141
0.0
143
0.0393701
146
0.71
147
1.5
172
     1
176
   256
177
   256
178
     2
271
     2
272
     3
274
     4
283
     0
284
     8
340
26
371
    -1
372
    -1
1001
ACAD_DSTYLE_DIMBREAK
1070
   391
1040
3.75
1001
ACAD_DSTYLE_DIMJAG
1070
   388
1040
1.5
1001
ACAD_DSTYLE_DIMJOGGED_JOGANGLE_SYMBOL
1070
   384
1040
1.570796326794896
1001
ACAD_DSTYLE_DIM_LINETYPE
1070
   380
1005
29
1001
ACAD_DSTYLE_DIM_EXT1_LINETYPE
1070
   381
1005
29
1001
ACAD_DSTYLE_DIM_EXT2_LINETYPE
1070
   382
1005
29
  0
DIMSTYLE
105
1A8
330
33
100
AcDbSymbolTableRecord
100
AcDbDimStyleTableRecord
  2
AM_DIN$SH
 70
     0
  4
"
 41
3.5
 42
1.0
 43
10.0
 44
1.0
 47
0.1
 48
0.1
 73
     0
 74
     0
 75
     1
 76
     1
 77
     1
 78
     8
 79
     2
140
3.5
141
0.0
143
0.0393701
144
2.0
146
0.71
147
1.5
172
     1
173
     1
176
   256
177
   256
178
     2
271
     2
272
     3
274
     4
283
     0
284
     8
340
26
343
1A9
371
    -1
372
    -1
1001
ACAD_DSTYLE_DIMBREAK
1070
   391
1040
3.75
1001
ACAD_DSTYLE_DIMJAG
1070
   388
1040
1.5
1001
ACAD_DSTYLE_DIMJOGGED_JOGANGLE_SYMBOL
1070
   384
1040
1.570796326794896
1001
ACAD_DSTYLE_DIM_LINETYPE
1070
   380
1005
29
1001
ACAD_DSTYLE_DIM_EXT1_LINETYPE
1070
   381
1005
29
1001
ACAD_DSTYLE_DIM_EXT2_LINETYPE
1070
   382
1005
29
  0
DIMSTYLE
105
9B
102
{ACAD_REACTORS
330
8C
330
9D
330
AA
330
B7
330
C4
330
D1
330
E0
330
FA
330
107
330
120
330
12D
330
13C
102
}
330
33
100
AcDbSymbolTableRecord
100
AcDbDimStyleTableRecord
  2
AM_DIN$0
 70
     0
  4
"
 41
3.5
 42
1.0
 43
10.0
 44
1.0
 47
0.1
 48
0.1
 73
     0
 74
     0
 77
     1
 78
     8
 79
     2
140
3.5
141
0.0
143
0.0393701
146
0.71
147
1.5
172
     1
176
   256
177
   256
178
     2
271
     2
272
     3
274
     4
283
     0
284
     8
340
26
371
    -1
372
    -1
1001
ACAD_DSTYLE_DIMBREAK
1070
   391
1040
3.75
1001
ACAD_DSTYLE_DIMJAG
1070
   388
1040
1.5
1001
ACAD_DSTYLE_DIMJOGGED_JOGANGLE_SYMBOL
1070
   384
1040
1.570796326794896
1001
ACAD_DSTYLE_DIM_LINETYPE
1070
   380
1005
29
1001
ACAD_DSTYLE_DIM_EXT1_LINETYPE
1070
   381
1005
29
1001
ACAD_DSTYLE_DIM_EXT2_LINETYPE
1070
   382
1005
29
  0
DIMSTYLE
105
1A2
330
33
100
AcDbSymbolTableRecord
100
AcDbDimStyleTableRecord
  2
AM_DIN$2
 70
     0
  4
"
 41
3.5
 42
1.0
 43
10.0
 44
1.0
 47
0.1
 48
0.1
 73
     0
 74
     0
 77
     1
 78
     8
 79
     2
140
3.5
141
0.0
143
0.0393701
146
0.71
147
1.5
172
     1
176
   256
177
   256
178
     2
271
     2
272
     3
274
     4
283
     0
284
     8
340
26
371
    -1
372
    -1
1001
ACAD_DSTYLE_DIMBREAK
1070
   391
1040
3.75
1001
ACAD_DSTYLE_DIMJAG
1070
   388
1040
1.5
1001
ACAD_DSTYLE_DIMJOGGED_JOGANGLE_SYMBOL
1070
   384
1040
1.570796326794896
1001
ACAD_DSTYLE_DIM_LINETYPE
1070
   380
1005
29
1001
ACAD_DSTYLE_DIM_EXT1_LINETYPE
1070
   381
1005
29
1001
ACAD_DSTYLE_DIM_EXT2_LINETYPE
1070
   382
1005
29
  0
ENDTAB
  0
TABLE
  2
BLOCK_RECORD
  5
1
330
0
100
AcDbSymbolTable
 70
    16
  0
BLOCK_RECORD
  5
2
102
{ACAD_XDICTIONARY
360
3
102
}
330
1
100
AcDbSymbolTableRecord
100
AcDbBlockTableRecord
  2
*Model_Space
340
8
  0
BLOCK_RECORD
  5
D
102
{ACAD_XDICTIONARY
360
E
102
}
330
1
100
AcDbSymbolTableRecord
100
AcDbBlockTableRecord
  2
*Paper_Space
340
12
  0
BLOCK_RECORD
  5
1A9
330
1
100
AcDbSymbolTableRecord
100
AcDbBlockTableRecord
  2
GENAXEH
340
0
  0
BLOCK_RECORD
  5
18C
330
1
100
AcDbSymbolTableRecord
100
AcDbBlockTableRecord
  2
_ACMFILLED30
340
0
  0
BLOCK_RECORD
  5
70
330
1
100
AcDbSymbolTableRecord
100
AcDbBlockTableRecord
  2
BHL-0-S1(S)
340
0
310
28000000200000002000000001002000000000000010000001000000010000000000000000000000000000FF000000FF000000FF000000FF000000FF000000FF000000FF000000FF000000FF000000FF000000FF000000FF000000FF000000FF000000FF000000FF000000FF000000FF000000FF000000FF000000FF000000
310
FF000000FF000000FF000000FF000000FF000000FF000000FF000000FF000000FF000000FF000000FF000000FF000000FF000000FF000000FF000000FF000000FF000000FF000000FFFFFF00FFFFFF00FFFFFF00FFFFFF00FFFFFF00FFFFFF00FFFFFF00FFFFFF00FFFFFF00FFFFFF00FFFFFF00FFFFFF00FFFFFF00FFFFFF
310
00FFFFFF00FFFFFF00FF000000FF000000FF000000FF000000FF000000FF000000FF000000FF000000FF000000FF000000FF000000FF000000FF000000FF000000FF000000FF000000FFFF0000FFFF0000FFFF0000FFFF0000FFFF0000FF000000FFFFFF00FF000000FFFFFF00FF000000FFFFFF00FF000000FFFFFF00FF00
310
0000FFFFFF00FFFFFF00FF000000FF000000FF000000FF000000FF000000FF000000FF000000FF000000FF000000FF000000FF000000FF000000FF000000FF000000FF000000FF000000FFFFFF00FF000000FF000000FFFFFF00FFFFFF00FF000000FFFFFF00FF000000FFFFFF00FF000000FF000000FFFFFF00FF000000FF
310
FFFF00FF000000FFFFFF00FF000000FF000000FF000000FF000000FF000000FF000000FF000000FF000000FF000000FF000000FF000000FF000000FF000000FF000000FF000000FF000000FFFFFF00FFFFFF00FF000000FF000000FFFFFF00FFFFFF00FFFFFF00FFFFFF00FFFFFF00FFFFFF00FFFFFF00FFFFFF00FFFFFF00
310
FF000000FFFFFF00FFFFFF00FF000000FF000000FF000000FF000000FF000000FF000000FF000000FF000000FF000000FF000000FF000000FF000000FF000000FF000000FF000000FF000000FFFFFF00FF000000FFFFFF00FFFFFF00FFFFFF00FF000000FF000000FF000000FF000000FF000000FF000000FFFFFF00FF0000
310
00FFFFFF00FF000000FFFFFF00FF000000FF000000FF000000FF000000FF000000FF000000FF000000FF000000FF000000FF000000FF000000FF000000FF000000FF000000FF000000FF000000FFFFFF00FFFFFF00FFFFFF00FFFFFF00FF000000FF000000FF000000FF000000FF000000FF000000FF000000FFFFFF00FF00
310
0000FF000000FFFFFF00FFFFFF00FF000000FF000000FF000000FF000000FF000000FF000000FF000000FF000000FF000000FF000000FF000000FF000000FF000000FF000000FF000000FF000000FFFFFF00FF000000FF000000FFFFFF00FF000000FF000000FF000000FF000000FF000000FF000000FF000000FFFFFF00FF
310
FFFF00FF000000FF000000FFFFFF00FF000000FF000000FF000000FF000000FF000000FF000000FF000000FF000000FF000000FF000000FF000000FF000000FF000000FF000000FF000000FF000000FFFFFF00FFFFFF00FFFFFF00FFFFFF00FF000000FF000000FF000000FF000000FF000000FF000000FF000000FF000000
310
FFFFFF00FFFFFF00FFFFFF00FFFFFF00FF000000FF000000FF000000FF000000FF000000FF000000FF000000FF000000FF000000FF000000FF000000FF000000FF000000FF000000FF000000FF000000FFFFFF00FF000000FF000000FFFFFF00FF000000FF000000FF000000FF000000FF000000FF000000FF000000FF0000
310
00FFFFFF00FFFFFF00FF000000FFFFFF00FF000000FF000000FF000000FF000000FF000000FF000000FF000000FF000000FF000000FF000000FF000000FF000000FF000000FF000000FF000000FF000000FFFFFF00FFFFFF00FFFFFF00FFFFFF00FF000000FF000000FF000000FF000000FF000000FF000000FF000000FF00
310
0000FFFFFF00FFFFFF00FFFFFF00FFFFFF00FF000000FF000000FF000000FF000000FF000000FF000000FF000000FF000000FF000000FF000000FF000000FF000000FF000000FF000000FF000000FF000000FFFFFF00FFFFFF00FFFFFF00FF000000FF000000FF000000FF000000FF000000FF000000FF000000FF000000FF
310
000000FF000000FFFFFF00FF000000FFFFFF00FF000000FF000000FF000000FF000000FF000000FF000000FF000000FF000000FF000000FF000000FF000000FF000000FF000000FF000000FF000000FF000000FFFFFF00FFFFFF00FFFFFF00FF000000FF000000FF000000FF000000FF000000FF000000FF000000FF000000
310
FF000000FF000000FFFFFF00FFFFFF00FFFFFF00FF000000FF000000FF000000FF000000FF000000FF000000FF000000FF000000FF000000FF000000FF000000FF000000FF000000FF000000FF000000FF000000FFFFFF00FF000000FFFFFF00FF000000FF000000FF000000FF000000FF000000FF000000FF000000FF0000
310
00FF000000FF000000FFFFFF00FFFFFF00FFFFFF00FF000000FF000000FF000000FF000000FF000000FF000000FF000000FF000000FF000000FF000000FF000000FF000000FF000000FF000000FF000000FF000000FFFFFF00FF000000FFFFFF00FF000000FF000000FF000000FF000000FF000000FF000000FF000000FF00
310
0000FF000000FF000000FFFFFF00FF000000FFFFFF00FF000000FF000000FF000000FF000000FF000000FF000000FF000000FF000000FF000000FF000000FF000000FF000000FF000000FF000000FF000000FF00FF00FF00FF00FF00FF00FF00FF00FF000000FF000000FF000000FF000000FF000000FF000000FF000000FF
310
000000FF000000FF00FF00FF00FF00FF00FF00FF00FF00FF00FF00FF000000FF000000FF000000FF000000FF000000FF000000FF000000FF000000FF000000FF000000FF000000FF000000FF000000FF000000FF000000FFFFFF00FFFFFF00FF000000FF000000FF000000FF000000FF000000FF000000FF000000FF000000
310
FF000000FF000000FF000000FFFFFF00FF000000FFFFFF00FF000000FF000000FF000000FF000000FF000000FF000000FF000000FF000000FF000000FF000000FF000000FF000000FF000000FF000000FF000000FF000000FFFFFF00FFFFFF00FF000000FF000000FF000000FF000000FF000000FF000000FF000000FF0000
310
00FF000000FF000000FF000000FFFFFF00FF000000FFFFFF00FF000000FF000000FF000000FF000000FF000000FF000000FF000000FF000000FF000000FF000000FF000000FF000000FF000000FF000000FF000000FF000000FFFFFF00FFFFFF00FFFFFF00FF000000FF000000FF000000FF000000FF000000FF000000FF00
310
0000FF000000FF000000FF000000FFFFFF00FFFFFF00FFFFFF00FF000000FF000000FF000000FF000000FF000000FF000000FF000000FF000000FF000000FF000000FF000000FF000000FF000000FF000000FF000000FF000000FFFFFF00FFFFFF00FFFFFF00FFFFFF00FF000000FF000000FF000000FF000000FF000000FF
310
000000FF000000FF000000FF000000FFFFFF00FF000000FFFFFF00FF000000FF000000FF000000FF000000FF000000FF000000FF000000FF000000FF000000FF000000FF000000FF000000FF000000FF000000FF000000FF000000FFFFFF00FF000000FFFFFF00FFFFFF00FF000000FF000000FF000000FF000000FF000000
310
FF000000FF000000FF000000FFFFFF00FFFFFF00FFFFFF00FFFFFF00FF000000FF000000FF000000FF000000FF000000FF000000FF000000FF000000FF000000FF000000FF000000FF000000FF000000FF000000FF000000FF000000FFFFFF00FFFFFF00FFFFFF00FFFFFF00FF000000FF000000FF000000FF000000FF0000
310
00FF000000FF000000FF000000FFFFFF00FFFFFF00FF000000FFFFFF00FF000000FF000000FF000000FF000000FF000000FF000000FF000000FF000000FF000000FF000000FF000000FF000000FF000000FF000000FF000000FF000000FFFFFF00FF000000FFFFFF00FF000000FF000000FF000000FF000000FF000000FF00
310
0000FF000000FF000000FF000000FF000000FFFFFF00FFFFFF00FFFFFF00FF000000FF000000FF000000FF000000FF000000FF000000FF000000FF000000FF000000FF000000FF000000FF000000FF000000FF000000FF000000FF000000FFFFFF00FF000000FFFFFF00FF000000FF000000FF000000FF000000FF000000FF
310
000000FF000000FF000000FF000000FF000000FFFFFF00FF000000FFFFFF00FF000000FF000000FF000000FF000000FF000000FF000000FF000000FF000000FF000000FF000000FF000000FF000000FF000000FF000000FF000000FF000000FFFFFF00FFFFFF00FFFFFF00FF000000FF000000FF000000FF000000FF000000
310
FF000000FF000000FF000000FF000000FF000000FFFFFF00FFFFFF00FFFFFF00FF000000FF000000FF000000FF000000FF000000FF000000FF000000FF000000FF000000FF000000FF000000FF000000FF000000FF000000FF000000FF000000FFFFFF00FFFFFF00FF000000FF000000FF000000FF000000FF000000FF0000
310
00FF000000FF000000FF000000FF000000FF000000FF000000FFFFFF00FFFFFF00FF000000FF000000FF000000FF000000FF000000FF000000FF000000FF000000FF000000FF000000FF000000FF000000FF000000FF000000FF000000FF000000FFFFFF00FFFFFF00FF000000FF000000FF000000FF000000FF000000FF00
310
0000FF000000FF000000FF000000FF000000FF000000FF000000FFFFFF00FFFFFF00FF000000FF000000FF000000FF000000FF000000FF000000FF000000FF000000FF000000FF000000FF000000FF000000FF000000FF000000FF000000FF000000FFFFFF00FFFFFF00FF000000FF000000FF000000FF000000FF000000FF
310
000000FF000000FF000000FF000000FF000000FF000000FF000000FFFFFF00FFFFFF00FF000000FF000000FF000000FF000000FF000000FF000000FF000000FF000000FF000000FF000000FF000000FF000000FF000000FF000000FF000000FF000000FFFFFF00FFFFFF00FF000000FF000000FF000000FF000000FF000000
310
FF000000FF000000FF000000FF000000FF000000FF000000FFFFFF00FFFFFF00FFFFFF00FF000000FF000000FF000000FF000000FF000000FF000000FF000000FF000000FF000000FF000000FF000000FF000000FF000000FF000000FF000000FF000000FFFFFF00FFFFFF00FF000000FF000000FF000000FF000000FF0000
310
00FF000000FF000000FF000000FF000000FF000000FF000000FFFFFF00FFFFFF00FFFFFF00FF000000FF000000FF000000FF000000FF000000FF000000FF000000FF000000FF000000FF000000FF000000FF000000FF000000FF000000FF000000FF000000FFFFFF00FFFFFF00FF000000FF000000FF000000FF000000FF00
310
0000FF000000FF000000FF000000FF000000FF000000FF000000FF000000FFFFFF00FFFFFF00FF000000FF000000FF000000FF000000FF000000FF000000FF000000FF000000FF000000FF000000FF000000FF000000FF000000FF000000FF000000FF000000FF000000FF000000FF000000FF000000FF000000FF000000FF
310
000000FF000000FF000000FF000000FF000000FF000000FF000000FF000000FF000000FF000000FF000000FF000000FF000000FF000000FF000000FF000000FF000000FF000000FF
102
{BLKREFS
331
6F
102
}
1001
ACAD
1000
DesignCenter Data
1002
{
1070
     1
1070
     4
1002
}
  0
BLOCK_RECORD
  5
8E
330
1
100
AcDbSymbolTableRecord
100
AcDbBlockTableRecord
  2
*D3
340
0
  0
BLOCK_RECORD
  5
9E
330
1
100
AcDbSymbolTableRecord
100
AcDbBlockTableRecord
  2
*D4
340
0
  0
BLOCK_RECORD
  5
AB
330
1
100
AcDbSymbolTableRecord
100
AcDbBlockTableRecord
  2
*D5
340
0
  0
BLOCK_RECORD
  5
B8
330
1
100
AcDbSymbolTableRecord
100
AcDbBlockTableRecord
  2
*D6
340
0
  0
BLOCK_RECORD
  5
C5
330
1
100
AcDbSymbolTableRecord
100
AcDbBlockTableRecord
  2
*D7
340
0
  0
BLOCK_RECORD
  5
D2
330
1
100
AcDbSymbolTableRecord
100
AcDbBlockTableRecord
  2
*D8
340
0
  0
BLOCK_RECORD
  5
E1
330
1
100
AcDbSymbolTableRecord
100
AcDbBlockTableRecord
  2
*D9
340
0
  0
BLOCK_RECORD
  5
FB
330
1
100
AcDbSymbolTableRecord
100
AcDbBlockTableRecord
  2
*D10
340
0
  0
BLOCK_RECORD
  5
108
330
1
100
AcDbSymbolTableRecord
100
AcDbBlockTableRecord
  2
*D11
340
0
  0
BLOCK_RECORD
  5
121
330
1
100
AcDbSymbolTableRecord
100
AcDbBlockTableRecord
  2
*D12
340
0
  0
BLOCK_RECORD
  5
12E
330
1
100
AcDbSymbolTableRecord
100
AcDbBlockTableRecord
  2
*D13
340
0
  0
BLOCK_RECORD
  5
13D
330
1
100
AcDbSymbolTableRecord
100
AcDbBlockTableRecord
  2
*D14
340
0
  0
BLOCK_RECORD
  5
14A
330
1
100
AcDbSymbolTableRecord
100
AcDbBlockTableRecord
  2
Copyright_STEMPEL
340
0
310
28000000200000002000000001002000000000000010000001000000010000000000000000000000000000FF000000FF000000FF000000FF000000FF000000FF000000FF000000FF000000FF000000FF000000FF000000FF000000FF000000FF000000FF000000FF000000FF000000FF000000FF000000FF000000FF000000
310
FF000000FF000000FF000000FF000000FF000000FF000000FF000000FF000000FF000000FF000000FF000000FF000000FF000000FF000000FF000000FF000000FF000000FF000000FF000000FF000000FF000000FF000000FF000000FF000000FF000000FF000000FF000000FF000000FF000000FF000000FF000000FF0000
310
00FF000000FF000000FF000000FF000000FF000000FF000000FF000000FF000000FF000000FF000000FF000000FF000000FF000000FF000000FF000000FF000000FF000000FF000000FF000000FF000000FF000000FF000000FF000000FF000000FF000000FF000000FF000000FF000000FF000000FF000000FF000000FF00
310
0000FF000000FF000000FF000000FF000000FF000000FF000000FF000000FF000000FF000000FF000000FF000000FF000000FF000000FF000000FF000000FF000000FF000000FF000000FF000000FF000000FF000000FF000000FF000000FF000000FF000000FF000000FF000000FF000000FF000000FF000000FF000000FF
310
000000FF000000FF000000FF000000FF000000FF000000FF000000FF000000FF000000FF000000FF000000FF000000FF000000FF000000FF000000FF000000FF000000FF000000FF000000FF000000FF000000FF000000FF000000FF000000FF000000FF000000FF000000FF000000FF000000FF000000FF000000FF000000
310
FF000000FF000000FF000000FF000000FF000000FF000000FF000000FF000000FF000000FF000000FF000000FF000000FF000000FF000000FF000000FF000000FF000000FF000000FF000000FF000000FF000000FF000000FF000000FF000000FF000000FF000000FF000000FF000000FF000000FF000000FF000000FF0000
310
00FF000000FF000000FF000000FF000000FF000000FF000000FF000000FF000000FF000000FF000000FF000000FF000000FF000000FF000000FF000000FF000000FF000000FF000000FF000000FF000000FF000000FF000000FF000000FF000000FF000000FF000000FF000000FF000000FF000000FF000000FF000000FF00
310
0000FF000000FF000000FF000000FF000000FF000000FF000000FF000000FF000000FF000000FF000000FF000000FF000000FF000000FF000000FF000000FF000000FF000000FF000000FF000000FF000000FF000000FF000000FF000000FF000000FF000000FF000000FF000000FF000000FF000000FF000000FF000000FF
310
000000FF000000FF000000FF000000FF000000FF000000FF000000FF000000FF000000FF000000FF000000FF000000FF000000FF000000FF000000FF000000FF000000FF000000FF000000FF000000FF000000FF000000FF000000FF000000FF000000FF000000FF000000FF000000FF000000FF000000FF000000FF000000
310
FF000000FF000000FF000000FF000000FF000000FF000000FF000000FF000000FF000000FF000000FF000000FF000000FF000000FF000000FF000000FF000000FF000000FF000000FF000000FF000000FF000000FF000000FF000000FF000000FF000000FF000000FF000000FF000000FF000000FF000000FF000000FF0000
310
00FF000000FF000000FF000000FF000000FF000000FF000000FF000000FF000000FF000000FF000000FF000000FF000000FF000000FF000000FF000000FF000000FF000000FF000000FF000000FF000000FF000000FF000000FF000000FF000000FF000000FF000000FF000000FF000000FF000000FF000000FF000000FF00
310
0000FF000000FF000000FF000000FF000000FF000000FF000000FF000000FF000000FF000000FF000000FF000000FF000000FF000000FF000000FF000000FF000000FF000000FF000000FF000000FF000000FF000000FF000000FF000000FF000000FF000000FF000000FF000000FF000000FF000000FF000000FF000000FF
310
000000FF000000FF000000FF000000FF000000FF000000FF000000FF000000FF000000FF000000FF000000FF000000FF000000FF000000FFFF0000FFFF0000FFFF0000FFFF0000FFFF0000FFFF0000FFFF0000FFFF0000FFFF0000FFFF0000FFFF0000FFFF0000FFFF0000FFFF0000FFFF0000FFFF0000FFFF0000FFFF0000
310
FFFF0000FFFF0000FFFF0000FFFF0000FFFF0000FFFF0000FFFF0000FFFF0000FFFF0000FFFF0000FFFF0000FFFF0000FF000000FF000000FFFF0000FFFF0000FFFF0000FFFF0000FFFF0000FFFF0000FFFF0000FFFF0000FFFF0000FFFF0000FFFF0000FF000000FF000000FFFF0000FFFF0000FFFF0000FFFF0000FFFF00
310
00FFFF0000FFFF0000FF000000FF000000FFFF0000FFFF0000FFFF0000FF000000FF000000FFFF0000FFFF0000FFFF0000FF000000FF000000FFFF0000FFFF0000FFFF0000FFFF0000FFFF0000FFFF0000FFFF0000FFFF0000FFFF0000FFFF0000FF000000FF000000FF000000FFFF0000FFFF0000FFFF0000FFFF0000FFFF
310
0000FFFF0000FFFF0000FF000000FF000000FFFF0000FFFF0000FF000000FFFF0000FF000000FF000000FFFF0000FFFF0000FF000000FF000000FFFF0000FFFF0000FFFF0000FFFF0000FFFF0000FFFF0000FFFF0000FFFF0000FFFF0000FFFF0000FFFF0000FF000000FF000000FFFF0000FFFF0000FFFF0000FFFF0000FF
310
FF0000FFFF0000FFFF0000FF000000FF000000FFFF0000FFFF0000FFFF0000FF000000FFFF0000FFFF0000FFFF0000FFFF0000FF000000FF000000FFFF0000FFFF0000FFFF0000FFFF0000FFFF0000FFFF0000FFFF0000FFFF0000FFFF0000FFFF0000FFFF0000FFFF0000FF000000FFFF0000FFFF0000FFFF0000FFFF0000
310
FFFF0000FFFF0000FFFF0000FF000000FF000000FFFF0000FF000000FF000000FF000000FFFF0000FFFF0000FFFF0000FFFF0000FF000000FF000000FFFF0000FFFF0000FFFF0000FFFF0000FFFF0000FFFF0000FFFF0000FFFF0000FFFF0000FFFF0000FFFF0000FFFF0000FF000000FFFF0000FFFF0000FFFF0000FFFF00
310
00FFFF0000FFFF0000FFFF0000FFFF0000FFFF0000FFFF0000FFFF0000FF000000FFFF0000FFFF0000FF000000FFFF0000FFFF0000FF000000FF000000FFFF0000FFFF0000FFFF0000FFFF0000FFFF0000FFFF0000FFFF0000FFFF0000FFFF0000FFFF0000FFFF0000FF000000FF000000FFFF0000FF000000FFE1E1E1FF00
310
0000FF010101FFD7B950FFFDFDFFFFD8BA4BFFFF0000FFFF0000FFFF0000FFFF0000FF000000FF000000FFFF0000FFFF0000FFFF0000FF000000FF000000FFFF0000FFFF0000FFFF0000FFFF0000FFFF0000FFFF0000FFFF0000FFFF0000FFFF0000FFFF0000FFFF0000FFFF0000FFFF0000FFFF0000FFFF0000FFFF0000FF
310
FF0000FFFF0000FFFF0000FFFF0000FFFF0000FFFF0000FFFF0000FFFF0000FFFF0000FFFF0000FFFF0000FFFF0000FFFF0000FFFF0000FF000000FF000000FF000000FF000000FF000000FF000000FF000000FF000000FF000000FF000000FF000000FF000000FF000000FF000000FF000000FF000000FF000000FF000000
310
FF000000FF000000FF000000FF000000FF000000FF000000FF000000FF000000FF000000FF000000FF000000FF000000FF000000FF000000FF000000FF000000FF000000FF000000FF000000FF000000FF000000FF000000FF000000FF000000FF000000FF000000FF000000FF000000FF000000FF000000FF000000FF0000
310
00FF000000FF000000FF000000FF000000FF000000FF000000FF000000FF000000FF000000FF000000FF000000FF000000FF000000FF000000FF000000FF000000FF000000FF000000FF000000FF000000FF000000FF000000FF000000FF000000FF000000FF000000FF000000FF000000FF000000FF000000FF000000FF00
310
0000FF000000FF000000FF000000FF000000FF000000FF000000FF000000FF000000FF000000FF000000FF000000FF000000FF000000FF000000FF000000FF000000FF000000FF000000FF000000FF000000FF000000FF000000FF000000FF000000FF000000FF000000FF000000FF000000FF000000FF000000FF000000FF
310
000000FF000000FF000000FF000000FF000000FF000000FF000000FF000000FF000000FF000000FF000000FF000000FF000000FF000000FF000000FF000000FF000000FF000000FF000000FF000000FF000000FF000000FF000000FF000000FF000000FF000000FF000000FF000000FF000000FF000000FF000000FF000000
310
FF000000FF000000FF000000FF000000FF000000FF000000FF000000FF000000FF000000FF000000FF000000FF000000FF000000FF000000FF000000FF000000FF000000FF000000FF000000FF000000FF000000FF000000FF000000FF000000FF000000FF000000FF000000FF000000FF000000FF000000FF000000FF0000
310
00FF000000FF000000FF000000FF000000FF000000FF000000FF000000FF000000FF000000FF000000FF000000FF000000FF000000FF000000FF000000FF000000FF000000FF000000FF000000FF000000FF000000FF000000FF000000FF000000FF000000FF000000FF000000FF000000FF000000FF000000FF000000FF00
310
0000FF000000FF000000FF000000FF000000FF000000FF000000FF000000FF000000FF000000FF000000FF000000FF000000FF000000FF000000FF000000FF000000FF000000FF000000FF000000FF000000FF000000FF000000FF000000FF000000FF000000FF000000FF000000FF000000FF000000FF000000FF000000FF
310
000000FF000000FF000000FF000000FF000000FF000000FF000000FF000000FF000000FF000000FF000000FF000000FF000000FF000000FF000000FF000000FF000000FF000000FF000000FF000000FF000000FF000000FF000000FF000000FF000000FF000000FF000000FF000000FF000000FF000000FF000000FF000000
310
FF000000FF000000FF000000FF000000FF000000FF000000FF000000FF000000FF000000FF000000FF000000FF000000FF000000FF000000FF000000FF000000FF000000FF000000FF000000FF000000FF000000FF000000FF000000FF000000FF000000FF000000FF000000FF000000FF000000FF000000FF000000FF0000
310
00FF000000FF000000FF000000FF000000FF000000FF000000FF000000FF000000FF000000FF000000FF000000FF000000FF000000FF000000FF000000FF000000FF000000FF000000FF000000FF000000FF000000FF000000FF000000FF000000FF000000FF000000FF000000FF000000FF000000FF000000FF000000FF00
310
0000FF000000FF000000FF000000FF000000FF000000FF000000FF000000FF000000FF000000FF000000FF000000FF000000FF000000FF000000FF000000FF000000FF000000FF000000FF000000FF000000FF000000FF000000FF000000FF000000FF000000FF000000FF000000FF000000FF000000FF000000FF000000FF
310
000000FF000000FF000000FF000000FF000000FF000000FF000000FF000000FF000000FF000000FF000000FF000000FF000000FF000000FF000000FF000000FF000000FF000000FF
102
{BLKREFS
331
149
102
}
1001
ACAD
1000
DesignCenter Data
1002
{
1070
     1
1070
     4
1002
}
  0
ENDTAB
  0
ENDSEC
  0
SECTION
  2
BLOCKS
  0
BLOCK
  5
6
330
2
100
AcDbEntity
  8
0
100
AcDbBlockBegin
  2
*Model_Space
 70
     0
 10
0.0
 20
0.0
 30
0.0
  3
*Model_Space
  1

  0
ENDBLK
  5
7
330
2
100
AcDbEntity
  8
0
100
AcDbBlockEnd
  0
BLOCK
  5
10
330
D
100
AcDbEntity
 67
     1
  8
0
100
AcDbBlockBegin
  2
*Paper_Space
 70
     0
 10
0.0
 20
0.0
 30
0.0
  3
*Paper_Space
  1

  0
ENDBLK
  5
11
330
D
100
AcDbEntity
 67
     1
  8
0
100
AcDbBlockEnd
  0
BLOCK
  5
1AA
330
1A9
100
AcDbEntity
  8
0
100
AcDbBlockBegin
  2
GENAXEH
 70
     0
 10
0.0
 20
0.0
 30
0.0
  3
GENAXEH
  1

  0
LINE
  5
1AB
330
1A9
100
AcDbEntity
  8
0
100
AcDbLine
 10
-1.0
 20
0.0
 30
0.0
 11
1.0
 21
0.0
 31
0.0
  0
ENDBLK
  5
1AC
330
1A9
100
AcDbEntity
  8
0
100
AcDbBlockEnd
  0
BLOCK
  5
18D
330
18C
100
AcDbEntity
  8
0
100
AcDbBlockBegin
  2
_ACMFILLED30
 70
     0
 10
0.0
 20
0.0
 30
0.0
  3
_ACMFILLED30
  1

  0
TRACE
  5
18E
330
18C
100
AcDbEntity
  8
0
 62
     0
100
AcDbTrace
 10
-1.0
 20
-0.26794919
 30
0.0
 11
-1.0
 21
0.26794919
 31
0.0
 12
0.0
 22
0.0
 32
0.0
 13
0.0
 23
0.0
 33
0.0
  0
ENDBLK
  5
18F
330
18C
100
AcDbEntity
  8
0
100
AcDbBlockEnd
  0
BLOCK
  5
71
330
70
100
AcDbEntity
  8
0
100
AcDbBlockBegin
  2
BHL-0-S1(S)
 70
     0
 10
0.0
 20
0.0
 30
0.0
  3
BHL-0-S1(S)
  1

  0
LWPOLYLINE
  5
72
330
70
100
AcDbEntity
  8
KONTUR
100
AcDbPolyline
 90
        2
 70
     0
 43
0.0
 10
-23.00477099669388
 20
81.30119055370574
 10
-23.01109727267885
 20
81.41327284964928
  0
LWPOLYLINE
  5
76
330
70
100
AcDbEntity
  8
-PROFILAUSSENKANTET
100
AcDbPolyline
 90
        2
 70
     0
 43
0.0
 10
19.74999969356258
 20
55.0004870106643
 42
-0.0007135247978227
 10
19.74999969356258
 20
54.99963078134283
 42
-0.0007135247978227
  0
LWPOLYLINE
  5
78
330
70
100
AcDbEntity
  8
-PROFILAUSSENKANTET
100
AcDbPolyline
 90
      315
 70
     1
 43
0.0
 10
25.74999999999409
 20
73.0001177933093
 10
25.74999999999409
 20
90.70000000000005
 42
0.4142135623730951
 10
25.44999999999391
 20
91.0
 10
22.30925622599898
 20
91.0
 42
0.3711517135479172
 10
22.11147893813768
 20
90.82973456585069
 10
21.89903547638733
 20
89.41668243321373
 42
0.4557262555316655
 10
22.09489285160044
 20
89.18695708273707
 10
23.94621555990534
 20
89.16918437440017
 42
-0.4547895061460317
 10
24.14216427016299
 20
88.94007301169086
 10
23.90701160943627
 20
87.34225675215567
 42
-0.3747693336726329
 10
23.70722307387996
 20
87.17138654561678
 10
21.73841089125608
 20
87.19028621761253
 42
0.3738843493752026
 10
21.538713922439
 20
87.02002999661045
 10
21.49871806530473
 20
86.75400048103211
 42
0.235067192237052
 10
21.77267740596244
 20
85.90612865033746
 10
22.19552107383015
 20
85.47377334659268
 42
0.2683570427283379
 10
22.38841342425212
 20
85.41993997303142
 10
23.38118017639999
 20
85.67576240063363
 42
-0.5373193024981053
 10
23.62886440230568
 20
85.4523547098247
 10
19.66277965237123
 20
59.0721880007718
 42
-1.029696124502662
 10
18.08837832585595
 20
59.35338084703062
 42
0.1743995905227459
 10
17.99435781691
 20
60.02382747720503
 10
17.33433096425097
 20
61.27734562609067
 42
0.8146628475673407
 10
16.39341472047317
 20
61.00566754705051
 10
16.58126772819651
 20
58.97761050300323
 42
0.3133335033562963
 10
18.27161101076126
 20
56.96934465964523
 42
-0.3452548895420262
 10
19.74947873772316
 20
54.99291486175479
 42
-0.2416826193632828
 10
19.61880831025974
 20
54.75206462869732
 10
18.88074857497122
 20
54.24774884002204
 42
0.5278562668974633
 10
18.88074857497122
 20
53.75235422912215
 10
19.61713557259145
 20
53.24918142112415
 42
-0.5323963212930975
 10
19.61784705051832
 20
52.75140043839314
 10
18.88074857497122
 20
52.24774147794028
 42
0.5278562668974367
 10
18.88074857497122
 20
51.75234686703993
 10
19.61713557259145
 20
51.2491740590417
 42
-0.5323963212931364
 10
19.61784705051877
 20
50.75139307631002
 10
18.88074857497122
 20
50.24773411585783
 42
0.5278562668974632
 10
18.88074857497122
 20
49.75233950495817
 10
19.61713557259145
 20
49.24916669696108
 42
-0.5323963212930948
 10
19.61784705051877
 20
48.75138571423008
 10
18.88074857497122
 20
48.24772675377653
 42
0.5278562668974632
 10
18.88074857497122
 20
47.75233214287664
 10
19.61713557259145
 20
47.24915933487795
 42
-0.5323963212930965
 10
19.61784705051877
 20
46.75137835214695
 10
18.88074857497122
 20
46.24771939169477
 42
0.527856266897409
 10
18.88074857497122
 20
45.75232478079397
 10
19.61713557259145
 20
45.2491519727971
 42
-0.532396321293135
 10
19.61784705051877
 20
44.75137099006519
 10
18.88074857497167
 20
44.24771202961301
 42
0.5278562668974624
 10
18.88074857497167
 20
43.75231741871312
 10
19.61713557259145
 20
43.24914461071512
 42
-0.5323963212930654
 10
19.61784705051877
 20
42.75136362798389
 10
18.88074857497213
 20
42.2477046675308
 42
0.5278562668974633
 10
18.88074857497167
 20
41.75231005663113
 10
19.61713557259145
 20
41.24913724863404
 42
-0.5323963212931036
 10
19.61784705051696
 20
40.75135626590167
 10
18.88074857497213
 20
40.24769730544949
 42
0.5278562668974624
 10
18.88074857497167
 20
39.7523026945496
 10
19.61713557259145
 20
39.24912988655092
 42
-0.5323963212930945
 10
19.61784705051696
 20
38.75134890381969
 10
18.88074857497213
 20
38.24768994336773
 42
0.5278562668974098
 10
18.88074857497167
 20
37.75229533246693
 10
19.61713557259145
 20
37.24912252447007
 42
-0.5323963212930961
 10
19.61784705051696
 20
36.75134154173884
 10
18.88074857497213
 20
36.2476825812862
 42
0.5278562668974633
 10
18.88074857497167
 20
35.75228797038608
 10
19.6171355725919
 20
35.24911516238831
 42
-0.5323963212931022
 10
19.61784705051696
 20
34.75133417965594
 10
18.88074857497213
 20
34.24767521920399
 42
0.5278562668974632
 10
18.88074857497167
 20
33.75228060830386
 10
19.6171355725919
 20
33.24910780030677
 42
-0.5323963212931333
 10
19.61784705051696
 20
32.75132681757509
 10
18.88074857497213
 20
32.24766785712177
 42
0.5278562668974165
 10
18.88074857497167
 20
31.75227324622256
 10
19.6171355725919
 20
31.24910043822365
 42
-0.5323963212930961
 10
19.61784705051741
 20
30.75131945549265
 10
18.88074857497213
 20
30.24766049503978
 42
0.5278562668974169
 10
18.88074857497167
 20
29.75226588414057
 10
19.6171355725919
 20
29.2490930761428
 42
-0.5323963212930961
 10
19.61784705051787
 20
28.7513120934118
 10
18.88074857497213
 20
28.24765313295848
 42
0.5278562668974632
 10
18.88074857497213
 20
27.75225852205881
 10
19.61713557259009
 20
27.24908571406127
 42
-0.2500036733232598
 10
19.74999999970441
 20
26.99994259339315
 10
19.75070756218838
 20
24.97832873485299
 42
-0.2550137364525578
 10
18.82911324389169
 20
23.29905747976159
 42
0.207503530239664
 10
17.0526355473562
 20
20.65791396902955
 10
14.29069016273479
 20
5.726749554095931
 42
-0.3604929881348012
 10
7.434736038451774
 20
0.0
 10
-7.434736038451774
 20
0.0
 42
-0.3604928781935519
 10
-14.29069016274616
 20
5.726749554095476
 10
-17.13349842717343
 20
21.09505251767609
 42
0.2071135696850103
 10
-18.91896383016365
 20
23.72349517645398
 42
-0.2417397722367823
 10
-19.84384673173326
 20
25.29926307652227
 10
-21.16280723832142
 20
48.66721638499962
 42
-0.4137865475693701
 10
-18.1671852181812
 20
51.6672167525312
 42
0.1972790162495448
 10
-15.92006210352019
 20
52.59357505745902
 42
1.0
 10
-16.76448415014511
 20
53.44618951145367
 42
-0.1218785246025275
 10
-17.58951528158604
 20
52.95387051673379
 42
-0.344202896946296
 10
-17.81926612747065
 20
53.04233620790092
 42
0.2886940531295216
 10
-18.00948656704668
 20
53.13859113726085
 42
-0.0420521433086244
 10
-18.30100668407385
 20
53.13579254251999
 42
0.2886940531274815
 10
-18.48934413999086
 20
53.03590345522571
 42
-0.3442028969439721
 10
-18.71735425631368
 20
52.94304325624262
 42
-0.2551015371608596
 10
-20.08519856331486
 20
54.28487466122124
 42
-0.3442028969508068
 10
-19.99673287213136
 20
54.51462550711403
 42
0.2886940531328656
 10
-19.9004779427687
 20
54.70484594668687
 42
-0.0420521433096625
 10
-19.90327653752638
 20
54.99636606371542
 42
0.2886940531195052
 10
-20.00316562480612
 20
55.18470351962196
 42
-0.3442028969437973
 10
-20.09602582379557
 20
55.41271363596298
 42
-0.2551015371623073
 10
-18.75419441880785
 20
56.7805579429546
 42
-0.3442028969497126
 10
-18.52444357291415
 20
56.69209225177656
 42
0.2886940531283115
 10
-18.33422313334404
 20
56.59583732241799
 42
-0.0420521433100464
 10
-18.04270301631322
 20
56.59863591717112
 42
0.2886940531289807
 10
-17.85436556039576
 20
56.69852500444995
 42
-0.3442028969461302
 10
-17.62635544406521
 20
56.79138520343212
 42
-0.121878524604825
 10
-16.79202470936843
 20
56.31499609190541
 42
0.7364909623134746
 10
-15.54060416149787
 20
57.012078871644
 10
-16.40583114824267
 20
61.15062516995294
 42
0.7032654886887208
 10
-17.33797852594989
 20
61.28002647460471
 10
-17.99581556930889
 20
60.0253577453418
 42
0.1743995905227779
 10
-18.08866524931318
 20
59.35474796541121
 42
-1.029696124503302
 10
-19.66257317698682
 20
59.07080644163852
 10
-23.62887261537071
 20
85.45235677921937
 42
-0.5373193821392193
 10
-23.38118839681738
 20
85.67576451892
 10
-22.38841342426395
 20
85.41993997303142
 42
0.2683570427294486
 10
-22.19552107384197
 20
85.47377334659268
 10
-21.77267740597427
 20
85.90612865033746
 42
0.2350671922370521
 10
-21.49871806531655
 20
86.75400048103211
 10
-21.53871392245083
 20
87.02002999661045
 42
0.3738843493752025
 10
-21.73841089126836
 20
87.19028621761209
 10
-23.70722307389178
 20
87.17138654561678
 42
-0.374769333672633
 10
-23.90701160944809
 20
87.34225675215567
 10
-24.14216427017482
 20
88.94007301169086
 42
-0.4547895061462228
 10
-23.94621555991716
 20
89.16918437440017
 10
-22.09489285161226
 20
89.18695708273753
 42
0.4557262555313239
 10
-21.89903547639915
 20
89.41668243321373
 10
-22.1114789381495
 20
90.82973456585069
 42
0.3711517135485124
 10
-22.30925622601035
 20
91.0
 10
-25.45000000000573
 20
91.0
 42
0.4142135623730951
 10
-25.75000000000591
 20
90.70000000000005
 10
-25.75000000000591
 20
-8.70000000049049
 42
0.4142135623744884
 10
-25.45000000000437
 20
-9.000000000490445
 10
14.34771075396566
 20
-9.000000000301042
 42
0.4383526747268091
 10
14.84582562112382
 20
-8.459427335997361
 10
14.76170036112853
 20
-7.432126541937577
 42
-0.6020489682157146
 10
15.50638467752651
 20
-6.956220082809068
 10
19.0014040401611
 20
-8.935098254488366
 42
0.129515806157722
 10
19.24775644868487
 20
-9.000000000278078
 10
25.53049106158778
 20
-9.000000000673026
 42
0.2678542763634369
 10
25.79024553079171
 20
-8.85009202614583
 42
-0.112322306110274
 10
25.88074857497259
 20
-8.752486746593604
 10
26.61784705051969
 20
-8.248827786141646
 42
0.5323963212930961
 10
26.61713557259191
 20
-7.751046803410645
 10
25.88074857497259
 20
-7.247873995411737
 42
-0.5278562668958157
 10
25.88074857497259
 20
-6.752479384512753
 10
26.61784705051969
 20
-6.248820424059431
 42
0.5323963212930961
 10
26.61713557259191
 20
-5.751039441328202
 10
25.88074857497259
 20
-5.247866633330886
 42
-0.5278562668974362
 10
25.88074857497213
 20
-4.752472022430538
 10
26.61784705051969
 20
-4.24881306197858
 42
0.532396321293135
 10
26.61713557259145
 20
-3.75103207924667
 10
25.88074857497213
 20
-3.247859271248671
 42
-0.5278562668974633
 10
25.88074857497168
 20
-2.752464660348778
 10
26.61784705051969
 20
-2.24880569989682
 42
0.532396321293135
 10
26.61713557259145
 20
-1.751024717164909
 10
25.88074857497168
 20
-1.247851909166683
 42
-0.5278562668974165
 10
25.88074857497168
 20
-0.7524572982679274
 10
26.61784705051969
 20
-0.2487983378150602
 42
0.5323963212930657
 10
26.61713557259145
 20
0.2489826449163957
 10
25.88074857497168
 20
0.752155452915531
 42
-0.5278562668974632
 10
25.88074857497168
 20
1.247550063815424
 10
26.61784705051969
 20
1.751209024267154
 42
0.5323963212931034
 10
26.61713557259145
 20
2.248990006999747
 10
25.88074857497168
 20
2.752162814996381
 42
-0.5278562668974632
 10
25.88074857497168
 20
3.247557425896047
 10
26.61784705051878
 20
3.751216386348232
 42
0.532396321293135
 10
26.61713557259145
 20
4.24899736908037
 10
25.88074857497168
 20
4.752170177078141
 42
-0.5278562668974632
 10
25.88074857497168
 20
5.247564787978262
 10
26.61784705051878
 20
5.751223748429993
 42
0.5323963212931343
 10
26.61713557259145
 20
6.249004731162131
 10
25.88074857497168
 20
6.752177539159902
 42
-0.5278562668974166
 10
25.88074857497168
 20
7.247572150059113
 10
26.61784705051878
 20
7.751231110511753
 42
0.5323963212930961
 10
26.61713557259145
 20
8.249012093242981
 10
25.88074857497168
 20
8.752184901242344
 42
-0.5278562668974632
 10
25.88074857497168
 20
9.247579512142465
 10
26.61784705051878
 20
9.751238472594195
 42
0.5323963212931039
 10
26.617135572591
 20
10.24901945532656
 10
25.88074857497168
 20
10.75219226332456
 42
-0.5278562668974431
 10
25.88074857497168
 20
11.24758687422331
 10
26.61784705051878
 20
11.75124583467482
 42
0.5323963212931045
 10
26.617135572591
 20
12.24902681740764
 10
25.88074857497168
 20
12.75219962540541
 42
-0.5278562668974632
 10
25.88074857497168
 20
13.2475942363053
 10
26.61784705051878
 20
13.75125319675703
 42
0.532396321293135
 10
26.617135572591
 20
14.2490341794894
 10
25.88074857497168
 20
14.75220698748717
 42
-0.5278562668974165
 10
25.88074857497168
 20
15.24760159838615
 10
26.61784705051878
 20
15.75126055883879
 42
0.5323963212931364
 10
26.617135572591
 20
16.24904154157116
 10
25.88074857497168
 20
16.75221434956938
 42
-0.5278562668974632
 10
25.88074857497122
 20
17.24760896046905
 10
26.61784705051878
 20
17.75126792092123
 42
0.5323963212930975
 10
26.617135572591
 20
18.24904890365224
 10
25.88074857497122
 20
18.75222171165114
 42
-0.5278562668974165
 10
25.88074857497122
 20
19.24761632255013
 10
26.61784705051878
 20
19.75127528300209
 42
0.5323963212931039
 10
26.617135572591
 20
20.24905626573445
 10
25.88074857497122
 20
20.75222907373336
 42
-0.5278562668974429
 10
25.88074857497122
 20
21.24762368463189
 10
26.61784705051878
 20
21.75128264508521
 42
0.5323963212930965
 10
26.617135572591
 20
22.24906362781644
 10
25.88074857497122
 20
22.75223643581421
 42
-0.5278562668974165
 10
25.88074857497122
 20
23.24763104671319
 10
26.61784705051832
 20
23.75129000716606
 42
0.532396321293135
 10
26.617135572591
 20
24.2490709898982
 10
25.88074857497122
 20
24.75224379789643
 42
-0.5278562668974632
 10
25.88074857497077
 20
25.24763840879632
 10
26.61784705051832
 20
25.75129736924805
 42
0.5323963212930965
 10
26.61713557259054
 20
26.24907835197928
 10
25.88074857497304
 20
26.75225115997842
 42
-0.5278562668974165
 10
25.88074857497259
 20
27.24764577087717
 10
26.61784705051832
 20
27.75130473132913
 42
0.5323963212931054
 10
26.61713557259054
 20
28.2490857140615
 10
25.88074857497304
 20
28.75225852205927
 42
-0.5278562668974633
 10
25.88074857497259
 20
29.24765313295916
 10
26.61784705051832
 20
29.75131209341225
 42
0.5323963212930961
 10
26.61713557259191
 20
30.24909307614348
 10
25.88074857497259
 20
30.75226588414148
 42
-0.5278562668974632
 10
25.88074857497259
 20
31.24766049504115
 10
26.61784705051832
 20
31.75131945549288
 42
0.5323963212930961
 10
26.61713557259191
 20
32.2491004382241
 10
25.88074857497259
 20
32.75227324622324
 42
-0.5278562668974624
 10
25.88074857497259
 20
33.24766785712336
 10
26.61784705051787
 20
33.75132681757509
 42
0.5323963212931364
 10
26.61713557259191
 20
34.24910780030723
 10
25.88074857497259
 20
34.752280608305
 42
-0.5278562668974169
 10
25.88074857497259
 20
35.24767521920421
 10
26.61784705051787
 20
35.75133417965708
 42
0.5323963212930961
 10
26.61713557259191
 20
36.24911516238808
 10
25.88074857497259
 20
36.75228797038608
 42
-0.5278562668974632
 10
25.88074857497259
 20
37.2476825812862
 10
26.61784705051787
 20
37.7513415417393
 42
0.5323963212930961
 10
26.61713557259191
 20
38.2491225244703
 10
25.88074857497213
 20
38.75229533246829
 42
-0.5278562668974624
 10
25.88074857497213
 20
39.24768994336842
 10
26.61784705051787
 20
39.75134890381992
 42
0.5323963212930975
 10
26.61713557259191
 20
40.24912988655137
 10
25.88074857497213
 20
40.75230269455005
 42
-0.5278562668974894
 10
25.88074857497213
 20
41.24769730544949
 10
26.61784705051787
 20
41.75135626590213
 42
0.532396321293135
 10
26.61713557259191
 20
42.2491372486345
 10
25.88074857497213
 20
42.75231005663136
 42
-0.5278562668974632
 10
25.88074857497213
 20
43.24770466753102
 10
26.61784705051741
 20
43.75136362798298
 42
0.5323963212931336
 10
26.61713557259191
 20
44.24914461071534
 10
25.88074857497213
 20
44.75231741871311
 42
-0.5278562668974834
 10
25.88074857497213
 20
45.24771202961415
 10
26.61784705051741
 20
45.75137099006633
 42
0.5323963212930961
 10
26.61713557259191
 20
46.24915197279733
 10
25.88074857497213
 20
46.75232478079488
 42
-0.5278562668974362
 10
25.88074857497213
 20
47.24771939169523
 10
26.61784705051741
 20
47.75137835214718
 42
0.5323963212930961
 10
26.61713557259191
 20
48.24915933487841
 10
25.88074857497213
 20
48.75233214287709
 42
-0.5278562668974362
 10
25.88074857497213
 20
49.24772675377744
 10
26.61784705051741
 20
49.7513857142294
 42
0.5323963212931364
 10
26.61713557259191
 20
50.24916669696153
 10
25.88074857497213
 20
50.75233950495931
 42
-0.5278562668974165
 10
25.88074857497213
 20
51.24773411585829
 10
26.61784705051741
 20
51.75139307631116
 42
0.5323963212930665
 10
26.61713557259145
 20
52.24917405904284
 10
25.88074857497213
 20
52.75234686704016
 42
-0.5278562668974624
 10
25.88074857497213
 20
53.24774147794006
 10
26.61784705051923
 20
53.75140043839315
 42
0.5323963212930965
 10
26.61713557259145
 20
54.24918142112438
 10
25.88074857497213
 20
54.7523542291226
 42
-0.5278562668974165
 10
25.88074857497213
 20
55.24774884002159
 10
26.61784705051923
 20
55.75140780047423
 42
0.5323963212931364
 10
26.61713557259145
 20
56.24918878320613
 10
25.88074857497213
 20
56.75236159120436
 42
-0.5278562668974367
 10
25.88074857497168
 20
57.24775620210448
 10
26.61784705051923
 20
57.75141516255644
 42
0.5323963212931364
 10
26.617135572591
 20
58.24919614528858
 10
25.88074857497213
 20
58.75236895328658
 42
-0.5278562668974633
 10
25.88074857497122
 20
59.24776356418624
 10
26.61784705051923
 20
59.75142252463797
 42
0.5323963212930948
 10
26.617135572591
 20
60.2492035073692
 10
25.88074857497122
 20
60.75237631536698
 42
-0.5278562668974632
 10
25.88074857497122
 20
61.24777092626709
 10
26.61784705051923
 20
61.75142988671883
 42
0.532396321293135
 10
26.617135572591
 20
62.24921086945096
 10
25.88074857497122
 20
62.75238367744873
 42
-0.5278562668974362
 10
25.88074857497122
 20
63.24777828834931
 10
26.61784705051923
 20
63.75143724880127
 42
0.532396321293135
 10
26.617135572591
 20
64.24921823153318
 10
25.88074857497122
 20
64.75239103953118
 42
-0.527856266897436
 10
25.88074857497122
 20
65.24778565043175
 10
26.61784705051832
 20
65.75144461088348
 42
0.532396321293135
 10
26.617135572591
 20
66.24922559361539
 10
25.88074857497122
 20
66.75239840161339
 42
-0.5278562668974169
 10
25.88074857497122
 20
67.2477930125126
 10
26.61784705051832
 20
67.75145197296501
 42
0.5323963212930965
 10
26.617135572591
 20
68.24923295569647
 10
25.88074857497122
 20
68.75240576369515
 42
-0.5278562668974159
 10
25.88074857497122
 20
69.24780037459413
 10
26.61784705051832
 20
69.75145933504677
 42
0.5323963212930975
 10
26.617135572591
 20
70.24924031777823
 10
25.88074857497122
 20
70.752413125776
 42
-0.5278562668974362
 10
25.88074857497122
 20
71.24780773667612
 10
26.61784705051832
 20
71.75146669712808
 42
0.532396321293135
 10
26.61713557259054
 20
72.24924767986022
 10
25.8807485749694
 20
72.75242048785935
 42
-0.2477307283066046
  0
LINE
  5
79
330
70
100
AcDbEntity
  8
-ACHSE
  6
AM_DIN_G_W050x2
100
AcDbLine
 10
15.74999999999682
 20
39.99999999960437
 30
0.0
 11
29.74999999999682
 21
39.99999999960437
 31
0.0
1001
GENIUS_GENOBJ-N-CEN_13
1002
{
1000
OWNER
1000
GEN
1002
}
1001
GENIUS_GENODEF_13
1002
{
1000
HIER
1070
     0
1002
}
1002
{
1000
MANEDIT
1070
     0
1002
}
1002
{
1000
NOSEL
1070
     0
1002
}
1002
{
1000
BEHIND
1070
     0
1002
}
1002
{
1000
OTHER
1070
     0
1002
}
1002
{
1000
REACTOR
1002
}
1001
GENIUS_GENCEN_19
1002
{
1040
3.0
1002
}
  0
LINE
  5
80
330
70
100
AcDbEntity
  8
-PROFILAUSSENKANTET
100
AcDbLine
 10
19.74999999855117
 20
30.99999999960437
 30
0.0
 11
25.75000000225555
 21
30.99999999960437
 31
0.0
1001
GENIUS_GENOBJ-N-CEN_13
1002
{
1000
OWNER
1000
GEN
1002
}
1001
GENIUS_GENODEF_13
1002
{
1000
HIER
1070
     0
1002
}
1002
{
1000
MANEDIT
1070
     0
1002
}
1002
{
1000
NOSEL
1070
     0
1002
}
1002
{
1000
BEHIND
1070
     0
1002
}
1002
{
1000
OTHER
1070
     0
1002
}
1002
{
1000
REACTOR
1002
}
1001
GENIUS_GENCEN_19
1002
{
1040
3.0
1002
}
  0
LINE
  5
81
330
70
100
AcDbEntity
  8
-PROFILAUSSENKANTET
100
AcDbLine
 10
19.74999999773854
 20
48.99999999960437
 30
0.0
 11
25.750000001442
 21
48.99999999960437
 31
0.0
1001
GENIUS_GENOBJ-N-CEN_13
1002
{
1000
OWNER
1000
GEN
1002
}
1001
GENIUS_GENODEF_13
1002
{
1000
HIER
1070
     0
1002
}
1002
{
1000
MANEDIT
1070
     0
1002
}
1002
{
1000
NOSEL
1070
     0
1002
}
1002
{
1000
BEHIND
1070
     0
1002
}
1002
{
1000
OTHER
1070
     0
1002
}
1002
{
1000
REACTOR
1002
}
1001
GENIUS_GENCEN_19
1002
{
1040
3.0
1002
}
  0
HATCH
  5
82
330
70
100
AcDbEntity
  8
-PROFILAUSSENKANTET
100
AcDbHatch
 10
0.0
 20
0.0
 30
0.0
210
0.0
220
0.0
230
1.0
  2
_U
 70
     0
 71
     0
 91
        1
 92
        1
 93
       89
 72
     1
 10
17.99435781691
 20
60.02382747720503
 11
17.33433096425097
 21
61.27734562609067
 72
     2
 10
16.89191265643012
 20
61.04439489974516
 40
0.4999999999999587
 50
27.76857813102206
 51
184.4422770034798
 73
     1
 72
     1
 10
16.39341472047317
 20
61.00566754705051
 11
16.58126772819651
 21
58.97761050300323
 72
     2
 10
18.87146402555208
 20
59.18974470482931
 40
2.300000000001214
 50
185.2920405383722
 51
254.8821275635351
 73
     1
 72
     2
 10
17.74999972098567
 20
55.03856200425139
 40
1.999999999997981
 50
285.1178716223937
 51
361.3078078655846
 73
     0
 72
     2
 10
19.4495568852335
 20
54.99976193414863
 40
0.3000000000019936
 50
1.307808060306883
 51
55.65522722426598
 73
     0
 72
     1
 10
19.61880831025974
 20
54.75206462869732
 11
18.88074857497122
 21
54.24774884002204
 72
     2
 10
19.04999999999654
 20
54.00005153457209
 40
0.3000000000004443
 50
124.3447727757376
 51
235.6552272242624
 73
     1
 72
     1
 10
18.88074857497122
 20
53.75235422912215
 11
19.61713557259145
 21
53.24918142112415
 72
     2
 10
19.44999999999663
 20
53.00005153457232
 40
0.2999999999998724
 50
303.8567613167102
 51
415.9794531788984
 73
     0
 72
     1
 10
19.61784705051832
 20
52.75140043839314
 11
18.88074857497122
 21
52.24774147794028
 72
     2
 10
19.04999999999654
 20
52.00004417249011
 40
0.300000000000632
 50
124.3447727757131
 51
235.6552272242869
 73
     1
 72
     1
 10
18.88074857497122
 20
51.75234686703993
 11
19.61713557259145
 21
51.2491740590417
 72
     2
 10
19.44999999999663
 20
51.00004417248943
 40
0.30000000000025
 50
303.8567613166618
 51
415.9794531788507
 73
     0
 72
     1
 10
19.61784705051877
 20
50.75139307631002
 11
18.88074857497122
 21
50.24773411585783
 72
     2
 10
19.04999999999609
 20
50.00003681040789
 40
0.3000000000001877
 50
124.3447727756659
 51
235.6552272243341
 73
     1
 72
     1
 10
18.88074857497122
 20
49.75233950495795
 11
19.61713557259145
 21
49.24916669696108
 72
     2
 10
19.44999999999754
 20
49.00003681040903
 40
0.2999999999995545
 50
303.8567613165418
 51
360.0070303458424
 73
     0
 72
     1
 10
19.74999999773854
 20
48.99999999960437
 11
25.750000001442
 21
48.99999999960437
 72
     2
 10
26.04999999999745
 20
49.00002944832682
 40
0.3000000000008283
 50
179.9943757082974
 51
235.6552272243359
 73
     0
 72
     1
 10
25.88074857497213
 20
49.24772675377744
 11
26.61784705051741
 21
49.7513857142294
 72
     2
 10
26.44999999999709
 20
50.00003681040971
 40
0.3000000000000694
 50
304.0205468207641
 51
416.143238683314
 73
     1
 72
     1
 10
26.61713557259191
 20
50.24916669696176
 11
25.88074857497213
 21
50.75233950495931
 72
     2
 10
26.04999999999654
 20
51.0000368104088
 40
0.2999999999995557
 50
124.3447727756431
 51
235.6552272243568
 73
     0
 72
     1
 10
25.88074857497213
 20
51.24773411585829
 11
26.61784705051741
 21
51.75139307631116
 72
     2
 10
26.44999999999709
 20
52.00004417249079
 40
0.299999999999504
 50
304.020546820837
 51
416.143238683386
 73
     1
 72
     1
 10
26.61713557259145
 20
52.24917405904284
 11
25.88074857497213
 21
52.75234686704016
 72
     2
 10
26.04999999999745
 20
53.0000441724901
 40
0.3000000000004443
 50
124.3447727757376
 51
235.6552272242624
 73
     0
 72
     1
 10
25.88074857497213
 20
53.24774147794006
 11
26.61784705051923
 21
53.75140043839315
 72
     2
 10
26.44999999999754
 20
54.00005153457209
 40
0.2999999999997019
 50
304.0205468211259
 51
416.1432386834824
 73
     1
 72
     1
 10
26.61713557259145
 20
54.24918142112438
 11
25.88074857497213
 21
54.7523542291226
 72
     2
 10
26.04999999999654
 20
55.00005153457209
 40
0.2999999999995557
 50
124.3447727756431
 51
235.6552272243568
 73
     0
 72
     1
 10
25.88074857497213
 20
55.24774884002159
 11
26.61784705051923
 21
55.75140780047423
 72
     2
 10
26.44999999999709
 20
56.00005889665339
 40
0.3000000000001449
 50
304.0205468211736
 51
416.1432386834345
 73
     1
 72
     1
 10
26.61713557259145
 20
56.24918878320591
 11
25.88074857497213
 21
56.75236159120436
 72
     2
 10
26.049999999997
 20
57.00005889665476
 40
0.3000000000005632
 50
124.3447727756169
 51
235.6552272242379
 73
     0
 72
     1
 10
25.88074857497168
 20
57.24775620210448
 11
26.61784705051923
 21
57.75141516255644
 72
     2
 10
26.44999999999754
 20
58.00006625873561
 40
0.2999999999998904
 50
304.0205468211016
 51
416.1432386836029
 73
     1
 72
     1
 10
26.617135572591
 20
58.24919614528835
 11
25.88074857497213
 21
58.75236895328658
 72
     2
 10
26.049999999997
 20
59.00006625873698
 40
0.3000000000005632
 50
124.3447727756169
 51
235.6552272240699
 73
     0
 72
     1
 10
25.88074857497077
 20
59.24776356418647
 11
26.61784705051923
 21
59.75142252463797
 72
     2
 10
26.44999999999709
 20
60.00007362081669
 40
0.299999999999768
 50
304.0205468212222
 51
416.1432386834824
 73
     1
 72
     1
 10
26.617135572591
 20
60.24920350736898
 11
25.88074857497122
 21
60.75237631536698
 72
     2
 10
26.04999999999654
 20
61.00007362081715
 40
0.300000000000632
 50
124.3447727757131
 51
235.6552272242869
 73
     0
 72
     1
 10
25.88074857497122
 20
61.24777092626732
 11
26.61784705051923
 21
61.75142988671883
 72
     2
 10
26.44999999999618
 20
62.00008098289822
 40
0.3000000000008422
 50
304.0205468212932
 51
416.1432386834107
 73
     1
 72
     1
 10
26.617135572591
 20
62.24921086945119
 11
25.88074857497122
 21
62.75238367744873
 72
     2
 10
26.049999999997
 20
63.00008098289936
 40
0.300000000001264
 50
124.3447727757358
 51
235.6552272241435
 73
     0
 72
     1
 10
25.88074857497077
 20
63.24777828834953
 11
26.61784705051923
 21
63.75143724880127
 72
     2
 10
26.44999999999754
 20
64.00008834498021
 40
0.2999999999997019
 50
304.0205468211259
 51
416.1432386835787
 73
     1
 72
     1
 10
26.617135572591
 20
64.24921823153272
 11
25.88074857497122
 21
64.75239103953118
 72
     2
 10
26.04999999999563
 20
65.00008834498135
 40
0.3000000000001189
 50
124.3447727755697
 51
235.6552272244303
 73
     0
 72
     1
 10
25.88074857497122
 20
65.24778565043153
 11
26.61784705051832
 21
65.75144461088348
 72
     2
 10
26.44999999999573
 20
66.00009570706288
 40
0.3000000000005877
 50
304.0205468212212
 51
416.1432386832902
 73
     1
 72
     1
 10
26.617135572591
 20
66.24922559361539
 11
25.88074857497122
 21
66.75239840161339
 72
     2
 10
26.04999999999563
 20
67.00009570706311
 40
0.2999999999997435
 50
124.3447727756187
 51
235.6552272243813
 73
     0
 72
     1
 10
25.88074857497122
 20
67.24779301251283
 11
26.61784705051832
 21
67.75145197296501
 72
     2
 10
26.44999999999618
 20
68.00010306914441
 40
0.3000000000003333
 50
304.0205468211493
 51
416.1432386834102
 73
     1
 72
     1
 10
26.61713557259054
 20
68.2492329556967
 11
25.88074857497122
 21
68.75240576369515
 72
     2
 10
26.04999999999563
 20
69.00010306914464
 40
0.2999999999995557
 50
124.3447727756431
 51
235.6552272243568
 73
     0
 72
     1
 10
25.88074857497122
 20
69.24780037459413
 11
26.61784705051832
 21
69.75145933504677
 72
     2
 10
26.44999999999618
 20
70.00011043122618
 40
0.3000000000003333
 50
304.0205468211493
 51
416.1432386834102
 73
     1
 72
     1
 10
26.61713557259054
 20
70.24924031777846
 11
25.88074857497122
 21
70.752413125776
 72
     2
 10
26.04999999999654
 20
71.00011043122572
 40
0.3000000000002565
 50
124.3447727757621
 51
235.6552272243831
 73
     0
 72
     1
 10
25.88074857497168
 20
71.24780773667612
 11
26.61784705051832
 21
71.75146669712808
 72
     2
 10
26.44999999999618
 20
72.00011779330748
 40
0.3000000000003333
 50
304.0205468211493
 51
416.1432386834587
 73
     1
 72
     1
 10
26.61713557259054
 20
72.24924767986022
 11
25.8807485749694
 21
72.75242048785935
 72
     2
 10
26.04999999999563
 20
73.00011779330998
 40
0.3000000000015206
 50
124.3447727758075
 51
179.9999999998697
 73
     0
 72
     1
 10
25.74999999999409
 20
73.0001177933093
 11
25.74999999999409
 21
90.70000000000005
 72
     2
 10
25.44999999999436
 20
90.69999999999982
 40
0.2999999999997271
 50
0.0000000000434252
 51
90.0000000001737
 73
     1
 72
     1
 10
25.44999999999345
 20
91.0
 11
22.30925622599898
 21
91.0
 72
     2
 10
22.30925622599853
 20
90.79999999999996
 40
0.2000000000000455
 50
89.99999999986973
 51
171.4499770931629
 73
     1
 72
     1
 10
22.11147893813723
 20
90.82973456585069
 11
21.89903547638733
 21
89.41668243321373
 72
     2
 10
22.09681276424908
 20
89.38694786736391
 40
0.2000000000005715
 50
171.4499770934399
 51
269.449977093192
 73
     1
 72
     1
 10
22.09489285160044
 20
89.18695708273707
 11
23.94621555990534
 21
89.16918437440017
 72
     2
 10
23.94429564725533
 20
88.96919358977561
 40
0.1999999999983275
 50
270.550022907205
 51
368.3721927893014
 73
     0
 72
     1
 10
24.14216427016299
 20
88.94007301169086
 11
23.90701160943627
 21
87.34225675215567
 72
     2
 10
23.70914298652952
 20
87.37137733024065
 40
0.1999999999975468
 50
8.372192789403753
 51
90.55002290707664
 73
     0
 72
     1
 10
23.70722307387996
 20
87.17138654561678
 11
21.73841089125608
 21
87.19028621761253
 72
     2
 10
21.73649121029985
 20
86.99029543076381
 40
0.1999999999983696
 50
89.45004347123054
 51
171.4499770942836
 73
     1
 72
     1
 10
21.53871392243946
 20
87.02002999661045
 11
21.49871806530473
 21
86.75400048103211
 72
     2
 10
22.48760450461305
 20
86.60532765178187
 40
1.000000000002576
 50
171.4499770933717
 51
224.3627750493515
 73
     1
 72
     1
 10
21.77267740596244
 20
85.90612865033767
 11
22.19552107383015
 21
85.47377334659268
 72
     2
 10
22.33850649356009
 20
85.61361314687998
 40
0.1999999999993407
 50
224.3627750490713
 51
284.4499770924398
 73
     1
 72
     1
 10
22.38841342425212
 20
85.41993997303121
 11
23.38118017639999
 21
85.67576240063363
 72
     2
 10
23.43108710709476
 20
85.48208922678554
 40
0.1999999999994035
 50
255.5500229067545
 51
368.550008743539
 73
     0
 72
     1
 10
23.62886440230568
 20
85.4523547098247
 11
19.66277965237077
 21
59.0721880007718
 72
     2
 10
18.87146402553117
 20
59.18974470504259
 40
0.7999999999997284
 50
8.449977093118315
 51
191.8028754730362
 73
     0
 72
     2
 10
17.1095212012633
 20
59.55792602452175
 40
1.000000000000779
 50
348.1971245266186
 51
387.7685781304966
 73
     1
 97
        0
 75
     0
 76
     0
 52
45.0
 41
5.0
 77
     0
 78
     1
 53
45.0
 43
2349.424765834079
 44
-1377.299133020489
 45
-3.535533905932737
 46
3.535533905932737
 79
     0
 98
        1
 10
2349.424765834079
 20
-1377.299133020489
1001
ACAD
1010
0.0
1020
0.0
1030
0.0
1001
GENIUS_GENOBJ-N-HTC_13
1002
{
1000
OWNER
1000
GEN
1002
}
1001
GENIUS_GENODEF_13
1002
{
1000
HIER
1070
     0
1002
}
1002
{
1000
MANEDIT
1070
     0
1002
}
1002
{
1000
NOSEL
1070
     0
1002
}
1002
{
1000
BEHIND
1070
     0
1002
}
1002
{
1000
OTHER
1070
     0
1002
}
1002
{
1000
REACTOR
1002
}
1001
GENIUS_GENHATCH_13
1002
{
1000
DATA
1040
45.0
1042
2.5
1000
_U
1070
     0
1011
22.07777206740866
1021
58.2541521659623
1031
0.0
1002
}
1002
{
1000
UCS
1010
0.0
1020
0.0
1030
0.0
1010
1.0
1020
0.0
1030
0.0
1010
0.0
1020
1.0
1030
0.0
1002
}
  0
LINE
  5
85
330
70
100
AcDbEntity
  8
-ACHSE
  6
AM_DIN_G_W050x2
100
AcDbLine
 10
-28.75000000000591
 20
39.99999999960437
 30
0.0
 11
-17.67360238740957
 21
39.99999999960437
 31
0.0
1001
GENIUS_GENOBJ-N-CEN_13
1002
{
1000
OWNER
1000
GEN
1002
}
1001
GENIUS_GENODEF_13
1002
{
1000
HIER
1070
     0
1002
}
1002
{
1000
MANEDIT
1070
     0
1002
}
1002
{
1000
NOSEL
1070
     0
1002
}
1002
{
1000
BEHIND
1070
     0
1002
}
1002
{
1000
OTHER
1070
     0
1002
}
1002
{
1000
REACTOR
1002
}
1001
GENIUS_GENCEN_19
1002
{
1040
3.0
1002
}
  0
LINE
  5
86
330
70
100
AcDbEntity
  8
-PROFILAUSSENKANTET
100
AcDbLine
 10
-25.75000000000591
 20
29.99999999960437
 30
0.0
 11
-20.10917105310455
 21
29.99999999960437
 31
0.0
1001
GENIUS_GENOBJ-N-CEN_13
1002
{
1000
OWNER
1000
GEN
1002
}
1001
GENIUS_GENODEF_13
1002
{
1000
HIER
1070
     0
1002
}
1002
{
1000
MANEDIT
1070
     0
1002
}
1002
{
1000
NOSEL
1070
     0
1002
}
1002
{
1000
BEHIND
1070
     0
1002
}
1002
{
1000
OTHER
1070
     0
1002
}
1002
{
1000
REACTOR
1002
}
1001
GENIUS_GENCEN_19
1002
{
1040
3.0
1002
}
  0
LINE
  5
87
330
70
100
AcDbEntity
  8
-PROFILAUSSENKANTET
100
AcDbLine
 10
-25.75000000000591
 20
49.99999999960436
 30
0.0
 11
-20.85050092089568
 21
49.99999999960436
 31
0.0
1001
GENIUS_GENOBJ-N-CEN_13
1002
{
1000
OWNER
1000
GEN
1002
}
1001
GENIUS_GENODEF_13
1002
{
1000
HIER
1070
     0
1002
}
1002
{
1000
MANEDIT
1070
     0
1002
}
1002
{
1000
NOSEL
1070
     0
1002
}
1002
{
1000
BEHIND
1070
     0
1002
}
1002
{
1000
OTHER
1070
     0
1002
}
1002
{
1000
REACTOR
1002
}
1001
GENIUS_GENCEN_19
1002
{
1040
3.0
1002
}
  0
HATCH
  5
88
330
70
100
AcDbEntity
  8
-PROFILAUSSENKANTET
100
AcDbHatch
 10
0.0
 20
0.0
 30
0.0
210
0.0
220
0.0
230
1.0
  2
_U
 70
     0
 71
     0
 91
        1
 92
        1
 93
       48
 72
     2
 10
-23.43109532751032
 20
85.48209134507146
 40
0.1999999999995605
 50
171.4499770927377
 51
284.4499770926921
 73
     0
 72
     1
 10
-23.38118839681738
 20
85.67576451892023
 11
-22.38841342426395
 21
85.41993997303142
 72
     2
 10
-22.33850649357146
 20
85.61361314687815
 40
0.199999999997515
 50
255.5500229072877
 51
315.6372249512568
 73
     1
 72
     1
 10
-22.19552107384197
 20
85.47377334659291
 11
-21.77267740597427
 21
85.90612865033746
 72
     2
 10
-22.48760450462487
 20
86.60532765178141
 40
1.0000000000026
 50
315.6372249506578
 51
368.5500229066541
 73
     1
 72
     1
 10
-21.49871806531655
 20
86.75400048103211
 11
-21.53871392245083
 21
87.02002999661045
 72
     2
 10
-21.73649121031122
 20
86.99029543076244
 40
0.199999999998952
 50
8.550022906102837
 51
90.54995652902812
 73
     1
 72
     1
 10
-21.73841089126836
 20
87.19028621761186
 11
-23.70722307389178
 21
87.17138654561678
 72
     2
 10
-23.70914298654134
 20
87.37137733024065
 40
0.1999999999976411
 50
89.44997709292335
 51
171.6278072105962
 73
     0
 72
     1
 10
-23.90701160944809
 20
87.34225675215567
 11
-24.14216427017482
 21
88.94007301169086
 72
     2
 10
-23.94429564726806
 20
88.9691935897763
 40
0.199999999997613
 50
171.6278072104674
 51
269.4499770930536
 73
     0
 72
     1
 10
-23.94621555991716
 20
89.16918437440017
 11
-22.09489285161226
 21
89.18695708273753
 72
     2
 10
-22.09681276426045
 20
89.38694786736414
 40
0.2000000000003564
 50
270.5500229066784
 51
368.5500229064957
 73
     1
 72
     1
 10
-21.8990354763987
 20
89.41668243321373
 11
-22.1114789381495
 21
90.82973456585069
 72
     2
 10
-22.3092562260108
 20
90.79999999999973
 40
0.2000000000002908
 50
8.55002290690148
 51
89.99999999986973
 73
     1
 72
     1
 10
-22.30925622601035
 20
91.0
 11
-25.45000000000573
 21
91.0
 72
     2
 10
-25.45000000000573
 20
90.69999999999959
 40
0.3000000000004093
 50
90.0
 51
179.9999999999131
 73
     1
 72
     1
 10
-25.75000000000591
 20
90.70000000000005
 11
-25.75000000000591
 21
49.99999999960436
 72
     1
 10
-25.75000000000591
 20
49.99999999960436
 11
-20.85050092089568
 21
49.99999999960436
 72
     2
 10
-18.1628072383246
 20
48.66721994698536
 40
2.999999999998599
 50
206.3760046184955
 51
269.9163867141302
 73
     0
 72
     2
 10
-18.17185485021764
 20
54.86721422984738
 40
3.200000884420922
 50
270.0836094464301
 51
314.723407999818
 73
     1
 72
     2
 10
-16.34227312683288
 20
53.01988228445634
 40
0.599999999996928
 50
314.7234079998237
 51
494.7234079997776
 73
     1
 72
     2
 10
-18.17185485021719
 20
54.86721422985124
 40
2.000000884429694
 50
45.27659200025881
 51
73.07200542833141
 73
     0
 72
     2
 10
-17.64774921270282
 20
53.14520480342366
 40
0.1999999999910962
 50
73.07200542588731
 51
149.0464511962164
 73
     0
 72
     2
 10
-17.99078304225304
 20
52.9394676123793
 40
0.2000000000021379
 50
30.95354880138235
 51
95.36600607395781
 73
     1
 72
     2
 10
-18.17185485010077
 20
54.86721422985056
 40
1.736231912958965
 50
84.63399392941651
 51
94.26596026087876
 73
     0
 72
     2
 10
-18.31588394013715
 20
52.93634664194565
 40
0.2000000000097128
 50
85.73403974598875
 51
150.1464970185629
 73
     1
 72
     2
 10
-18.66280433982729
 20
53.13546026850963
 40
0.1999999999963588
 50
29.85350298486174
 51
105.8279487545268
 73
     0
 72
     2
 10
-18.17185485020172
 20
54.86721422983464
 40
2.00000088442067
 50
105.8279487549016
 51
163.0720054287814
 73
     0
 72
     2
 10
-19.89386427661475
 20
54.3431085923321
 40
0.1999999999991634
 50
163.072005428361
 51
239.0464511997572
 73
     0
 72
     2
 10
-20.09960146764752
 20
54.68614242189596
 40
0.1999999999996431
 50
300.953548800064
 51
365.3660060732466
 73
     1
 72
     2
 10
-18.17185485023583
 20
54.86721422984238
 40
1.736231912911628
 50
174.6339939259085
 51
184.2659602576846
 73
     0
 72
     2
 10
-20.1027224380914
 20
55.01124331978122
 40
0.2000000000006024
 50
355.7340397450756
 51
420.1464970153828
 73
     1
 72
     2
 10
-19.90360881151355
 20
55.35816371947112
 40
0.2000000000119003
 50
119.8535029851603
 51
195.8279487548761
 73
     0
 72
     2
 10
-18.17185485021537
 20
54.86721422984487
 40
2.00000088441075
 50
195.827948755165
 51
253.0720054293244
 73
     0
 72
     2
 10
-18.69596048769244
 20
56.58922365625517
 40
0.1999999999996173
 50
253.0720054270388
 51
329.0464511981487
 73
     0
 72
     2
 10
-18.35292665813586
 20
56.79496084729362
 40
0.199999999996406
 50
210.953548800924
 51
275.3660060735913
 73
     1
 72
     2
 10
-18.171854850214
 20
54.8672142298551
 40
1.736231912939128
 50
264.6339939268379
 51
274.265960258535
 73
     0
 72
     2
 10
-18.02782576023765
 20
56.79808181773842
 40
0.2000000000035971
 50
265.7340397423309
 51
330.1464970147301
 73
     1
 72
     2
 10
-17.68090536055706
 20
56.59896819116261
 40
0.1999999999999154
 50
209.8535029853284
 51
285.8279487558533
 73
     0
 72
     2
 10
-18.17185485021764
 20
54.86721422984556
 40
2.000000884426239
 50
285.8279487560616
 51
313.6233621846663
 73
     0
 72
     2
 10
-16.27458863541597
 20
56.85791405024065
 40
0.7500000000734976
 50
226.3766378258544
 51
371.8618786239935
 73
     1
 72
     1
 10
-15.54060416149787
 20
57.012078871644
 11
-16.40583114824267
 21
61.15062516995294
 72
     2
 10
-16.89515413080926
 20
61.04784862237124
 40
0.5000000000006775
 50
11.86187862276123
 51
152.3314676830841
 73
     1
 72
     1
 10
-17.33797852595035
 20
61.28002647460494
 11
-17.99581556930889
 21
60.0253577453418
 72
     2
 10
-17.11016677902853
 20
59.56100204087579
 40
0.9999999999975942
 50
152.3314676831049
 51
191.9029212871455
 73
     1
 72
     2
 10
-18.87146402554254
 20
59.18974470504259
 40
0.7999999999990327
 50
348.0970787130922
 51
531.4499770930839
 73
     0
 72
     1
 10
-19.66257317698637
 20
59.07080644163875
 11
-23.62887261537071
 21
85.45235677921937
 97
        0
 75
     0
 76
     0
 52
45.0
 41
5.0
 77
     0
 78
     1
 53
45.0
 43
2349.424765834079
 44
-1377.299133020489
 45
-3.535533905932737
 46
3.535533905932737
 79
     0
 98
        1
 10
2349.424765834079
 20
-1377.299133020489
1001
ACAD
1010
0.0
1020
0.0
1030
0.0
1001
GENIUS_GENOBJ-N-HTC_13
1002
{
1000
OWNER
1000
GEN
1002
}
1001
GENIUS_GENODEF_13
1002
{
1000
HIER
1070
     0
1002
}
1002
{
1000
MANEDIT
1070
     0
1002
}
1002
{
1000
NOSEL
1070
     0
1002
}
1002
{
1000
BEHIND
1070
     0
1002
}
1002
{
1000
OTHER
1070
     0
1002
}
1002
{
1000
REACTOR
1002
}
1001
GENIUS_GENHATCH_13
1002
{
1000
DATA
1040
45.0
1042
2.5
1000
_U
1070
     0
1011
-22.48530103508165
1021
57.67817280901727
1031
0.0
1002
}
1002
{
1000
UCS
1010
0.0
1020
0.0
1030
0.0
1010
1.0
1020
0.0
1030
0.0
1010
0.0
1020
1.0
1030
0.0
1002
}
  0
HATCH
  5
89
330
70
100
AcDbEntity
  8
-PROFILAUSSENKANTET
100
AcDbHatch
 10
0.0
 20
0.0
 30
0.0
210
0.0
220
0.0
230
1.0
  2
_U
 70
     0
 71
     0
 91
        1
 92
        1
 93
      113
 72
     2
 10
-21.06284155633602
 20
20.34654562172113
 40
3.999999999998672
 50
10.78515036586607
 51
57.59032021675434
 73
     1
 72
     2
 10
-17.84702496707359
 20
25.41196995382188
 40
2.000000000002594
 50
122.4096797833164
 51
176.7694743945204
 73
     0
 72
     1
 10
-19.84384673173372
 20
25.29926307652227
 11
-20.10917105310455
 21
29.99999999960437
 72
     1
 10
-20.10917105310455
 20
29.99999999960437
 11
-25.75000000000591
 21
29.99999999960437
 72
     1
 10
-25.75000000000591
 20
29.99999999960437
 11
-25.75000000000591
 21
-8.70000000049049
 72
     2
 10
-25.45000000000618
 20
-8.700000000491172
 40
0.2999999999997271
 50
179.9999999998697
 51
270.0000000003474
 73
     1
 72
     1
 10
-25.45000000000437
 20
-9.000000000490445
 11
14.34771075396566
 21
-9.000000000301042
 72
     2
 10
14.34771075396293
 20
-8.500217767531921
 40
0.4997822327691211
 50
270.0000000003127
 51
364.6814830776776
 73
     1
 72
     1
 10
14.84582562112382
 20
-8.459427335997361
 11
14.76170036112853
 21
-7.432126541937577
 72
     2
 10
15.26003226900957
 20
-7.391318337021857
 40
0.500000000000799
 50
175.318516922148
 51
299.5185169222033
 73
     0
 72
     1
 10
15.50638467752651
 20
-6.956220082809295
 11
19.0014040401611
 21
-8.935098254488366
 72
     2
 10
19.24775644868305
 20
-8.500000000267391
 40
0.5000000000107026
 50
240.4814830777728
 51
270.0000000002084
 73
     1
 72
     1
 10
19.24775644868487
 20
-9.000000000278078
 11
25.53049106158778
 21
-9.000000000673026
 72
     2
 10
25.5304910623222
 20
-8.700000000672162
 40
0.300000000000864
 50
269.9999998597367
 51
329.9797034030863
 73
     1
 72
     2
 10
26.04999999837173
 20
-9.00018405315086
 40
0.2999999999972141
 50
210.0202969352141
 51
235.6552276000038
 73
     0
 72
     1
 10
25.88074857497259
 20
-8.752486746593604
 11
26.61784705051969
 21
-8.248827786141646
 72
     2
 10
26.44999999999754
 20
-8.000176689962472
 40
0.3000000000001449
 50
304.0205468211736
 51
416.143238683386
 73
     1
 72
     1
 10
26.61713557259191
 20
-7.751046803410417
 11
25.88074857497259
 21
-7.247873995411737
 72
     2
 10
26.04999999999745
 20
-7.000176689962245
 40
0.2999999999998122
 50
124.3447727757149
 51
235.6552272242851
 73
     0
 72
     1
 10
25.88074857497259
 20
-6.752479384512753
 11
26.61784705051969
 21
-6.248820424059431
 72
     2
 10
26.449999999998
 20
-6.000169327880257
 40
0.2999999999998904
 50
304.0205468211016
 51
416.1432386835065
 73
     1
 72
     1
 10
26.61713557259191
 20
-5.751039441327748
 11
25.88074857497259
 21
-5.247866633330886
 72
     2
 10
26.04999999999745
 20
-5.000169327880485
 40
0.3000000000005632
 50
124.3447727756169
 51
235.6552272242624
 73
     0
 72
     1
 10
25.88074857497213
 20
-4.752472022430538
 11
26.61784705051969
 21
-4.24881306197858
 72
     2
 10
26.449999999998
 20
-4.000161965799406
 40
0.2999999999998904
 50
304.0205468211016
 51
416.1432386836029
 73
     1
 72
     1
 10
26.61713557259145
 20
-3.75103207924667
 11
25.88074857497213
 21
-3.247859271248671
 72
     2
 10
26.04999999999745
 20
-3.000161965798497
 40
0.300000000000632
 50
124.3447727757131
 51
235.6552272241417
 73
     0
 72
     1
 10
25.88074857497168
 20
-2.752464660349005
 11
26.61784705051969
 21
-2.24880569989682
 72
     2
 10
26.449999999998
 20
-2.000154603717646
 40
0.2999999999998904
 50
304.0205468211016
 51
416.1432386836029
 73
     1
 72
     1
 10
26.61713557259145
 20
-1.751024717164909
 11
25.88074857497168
 21
-1.247851909166683
 72
     2
 10
26.04999999999654
 20
-1.000154603717192
 40
0.2999999999998122
 50
124.3447727757149
 51
235.6552272242851
 73
     0
 72
     1
 10
25.88074857497168
 20
-0.7524572982677001
 11
26.61784705051969
 21
-0.2487983378150602
 72
     2
 10
26.44999999999754
 20
-0.0001472416361139
 40
0.2999999999999564
 50
304.0205468211979
 51
416.1432386835065
 73
     1
 72
     1
 10
26.61713557259145
 20
0.2489826449163957
 11
25.88074857497168
 21
0.752155452915531
 72
     2
 10
26.04999999999654
 20
0.9998527583654777
 40
0.3000000000001877
 50
124.3447727756658
 51
235.6552272243341
 73
     0
 72
     1
 10
25.88074857497168
 20
1.247550063815424
 11
26.61784705051969
 21
1.751209024267154
 72
     2
 10
26.44999999999754
 20
1.999860120446783
 40
0.3000000000005218
 50
304.020546821125
 51
416.1432386835791
 73
     1
 72
     1
 10
26.61713557259145
 20
2.248990006999974
 11
25.88074857497168
 21
2.752162814996381
 72
     2
 10
26.04999999999609
 20
2.999860120446101
 40
0.2999999999997435
 50
124.3447727756187
 51
235.6552272243813
 73
     0
 72
     1
 10
25.88074857497168
 20
3.24755742589582
 11
26.61784705051878
 21
3.751216386348232
 72
     2
 10
26.44999999999664
 20
3.999867482527633
 40
0.3000000000003333
 50
304.0205468211493
 51
416.1432386833864
 73
     1
 72
     1
 10
26.61713557259145
 20
4.24899736908037
 11
25.88074857497168
 21
4.752170177078141
 72
     2
 10
26.04999999999654
 20
4.999867482528316
 40
0.3000000000003755
 50
124.3447727756414
 51
235.6552272243341
 73
     0
 72
     1
 10
25.88074857497168
 20
5.247564787978262
 11
26.61784705051878
 21
5.751223748429993
 72
     2
 10
26.44999999999664
 20
5.999874844609394
 40
0.3000000000003333
 50
304.0205468211493
 51
416.1432386833864
 73
     1
 72
     1
 10
26.61713557259145
 20
6.249004731162131
 11
25.88074857497168
 21
6.752177539159902
 72
     2
 10
26.04999999999563
 20
6.999874844609394
 40
0.2999999999992991
 50
124.3447727755715
 51
235.6552272245247
 73
     0
 72
     1
 10
25.88074857497213
 20
7.247572150059113
 11
26.61784705051878
 21
7.751231110511753
 72
     2
 10
26.44999999999709
 20
7.999882206690699
 40
0.2999999999997019
 50
304.0205468211259
 51
416.1432386834102
 73
     1
 72
     1
 10
26.61713557259145
 20
8.249012093242981
 11
25.88074857497168
 21
8.752184901242344
 72
     2
 10
26.04999999999654
 20
8.999882206692291
 40
0.3000000000001877
 50
124.3447727756658
 51
235.6552272243341
 73
     0
 72
     1
 10
25.88074857497168
 20
9.247579512142237
 11
26.61784705051878
 21
9.751238472594195
 72
     2
 10
26.44999999999618
 20
9.999889568773824
 40
0.3000000000007762
 50
304.0205468211969
 51
416.1432386834107
 73
     1
 72
     1
 10
26.617135572591
 20
10.24901945532679
 11
25.88074857497168
 21
10.75219226332456
 72
     2
 10
26.04999999999518
 20
10.99988956877382
 40
0.2999999999988549
 50
124.3447727755243
 51
235.6552272244757
 73
     0
 72
     1
 10
25.88074857497168
 20
11.24758687422309
 11
26.61784705051878
 21
11.75124583467482
 72
     2
 10
26.44999999999527
 20
11.99989693085467
 40
0.3000000000014735
 50
304.0205468213166
 51
416.1432386832907
 73
     1
 72
     1
 10
26.617135572591
 20
12.24902681740786
 11
25.88074857497168
 21
12.75219962540541
 72
     2
 10
26.04999999999654
 20
12.99989693085535
 40
0.3000000000001877
 50
124.3447727756658
 51
235.6552272243341
 73
     0
 72
     1
 10
25.88074857497168
 20
13.2475942363053
 11
26.61784705051878
 21
13.75125319675703
 72
     2
 10
26.44999999999618
 20
13.99990429293689
 40
0.3000000000009646
 50
304.0205468211727
 51
416.1432386833864
 73
     1
 72
     1
 10
26.617135572591
 20
14.24903417948963
 11
25.88074857497168
 21
14.75220698748717
 72
     2
 10
26.04999999999563
 20
14.99990429293666
 40
0.2999999999992991
 50
124.3447727755715
 51
235.6552272244285
 73
     0
 72
     1
 10
25.88074857497168
 20
15.24760159838615
 11
26.61784705051878
 21
15.75126055883879
 72
     2
 10
26.44999999999618
 20
15.99991165501865
 40
0.3000000000009646
 50
304.0205468211727
 51
416.1432386833864
 73
     1
 72
     1
 10
26.617135572591
 20
16.24904154157138
 11
25.88074857497168
 21
16.75221434956938
 72
     2
 10
26.04999999999563
 20
16.99991165501956
 40
0.2999999999998624
 50
124.344772775498
 51
235.6552272243096
 73
     0
 72
     1
 10
25.88074857497077
 20
17.24760896046928
 11
26.61784705051878
 21
17.75126792092123
 72
     2
 10
26.44999999999664
 20
17.99991901710041
 40
0.3000000000001449
 50
304.0205468211736
 51
416.143238683386
 73
     1
 72
     1
 10
26.617135572591
 20
18.24904890365246
 11
25.88074857497122
 21
18.75222171165114
 72
     2
 10
26.04999999999563
 20
18.99991901710064
 40
0.2999999999995557
 50
124.3447727756431
 51
235.6552272243568
 73
     0
 72
     1
 10
25.88074857497122
 20
19.24761632255013
 11
26.61784705051878
 21
19.75127528300209
 72
     2
 10
26.44999999999618
 20
19.99992637918171
 40
0.3000000000007762
 50
304.0205468211969
 51
416.1432386834107
 73
     1
 72
     1
 10
26.617135572591
 20
20.24905626573468
 11
25.88074857497122
 21
20.75222907373336
 72
     2
 10
26.04999999999609
 20
20.99992637918262
 40
0.2999999999996246
 50
124.3447727757394
 51
235.6552272242606
 73
     0
 72
     1
 10
25.88074857497122
 20
21.24762368463189
 11
26.61784705051878
 21
21.75128264508521
 72
     2
 10
26.44999999999709
 20
21.99993374126439
 40
0.2999999999998904
 50
304.0205468211016
 51
416.1432386835065
 73
     1
 72
     1
 10
26.617135572591
 20
22.24906362781689
 11
25.88074857497122
 21
22.75223643581421
 72
     2
 10
26.04999999999563
 20
22.9999337412637
 40
0.2999999999995557
 50
124.3447727756431
 51
235.6552272243568
 73
     0
 72
     1
 10
25.88074857497122
 20
23.24763104671319
 11
26.61784705051832
 21
23.75129000716606
 72
     2
 10
26.44999999999527
 20
23.99994110334592
 40
0.3000000000012191
 50
304.0205468212446
 51
416.1432386831218
 73
     1
 72
     1
 10
26.61713557259145
 20
24.2490709898982
 11
25.88074857497122
 21
24.75224379789643
 72
     2
 10
26.04999999999654
 20
24.9999411033466
 40
0.300000000000632
 50
124.3447727757131
 51
235.6552272241417
 73
     0
 72
     1
 10
25.88074857497077
 20
25.2476384087961
 11
26.61784705051832
 21
25.75129736924805
 72
     2
 10
26.44999999999664
 20
25.999948465427
 40
0.2999999999997019
 50
304.0205468211259
 51
416.1432386834824
 73
     1
 72
     1
 10
26.61713557259054
 20
26.24907835197928
 11
25.88074857497304
 21
26.75225115997842
 72
     2
 10
26.049999999997
 20
26.99994846542791
 40
0.2999999999992991
 50
124.3447727755715
 51
235.6552272243323
 73
     0
 72
     1
 10
25.88074857497259
 20
27.24764577087717
 11
26.61784705051832
 21
27.75130473132913
 72
     2
 10
26.44999999999618
 20
27.99995582750876
 40
0.3000000000005218
 50
304.020546821125
 51
416.1432386834345
 73
     1
 72
     1
 10
26.61713557259054
 20
28.24908571406126
 11
25.88074857497304
 21
28.75225852205927
 72
     2
 10
26.04999999999837
 20
28.99995582750921
 40
0.3000000000004443
 50
124.3447727757376
 51
235.6552272241662
 73
     0
 72
     1
 10
25.88074857497259
 20
29.24765313295893
 11
26.61784705051832
 21
29.75131209341225
 72
     2
 10
26.44999999999709
 20
29.99996318959188
 40
0.3000000000000129
 50
304.020546820981
 51
416.1432386832656
 73
     1
 72
     1
 10
26.61713557259191
 20
30.24909307614348
 11
25.88074857497259
 21
30.75226588414148
 72
     2
 10
26.049999999997
 20
30.99996318959143
 40
0.2999999999999312
 50
124.3447727755942
 51
180.0070301946359
 73
     0
 72
     1
 10
25.75000000225555
 20
30.99999999960437
 11
19.74999999855117
 21
30.99999999960437
 72
     2
 10
19.44999999999709
 20
30.99997055167228
 40
0.2999999999993865
 50
359.9943758592432
 51
415.979453179163
 73
     0
 72
     1
 10
19.61784705051741
 20
30.75131945549265
 11
18.88074857497213
 21
30.24766049503978
 72
     2
 10
19.049999999997
 20
29.99996318959006
 40
0.3
 50
124.3447727756904
 51
235.6552272242134
 73
     1
 72
     1
 10
18.88074857497167
 20
29.75226588414057
 11
19.6171355725919
 21
29.2490930761428
 72
     2
 10
19.44999999999663
 20
28.99996318959097
 40
0.3000000000001257
 50
303.8567613167824
 51
415.9794531789946
 73
     0
 72
     1
 10
19.61784705051787
 20
28.75131209341157
 11
18.88074857497213
 21
28.24765313295848
 72
     2
 10
19.049999999997
 20
27.99995582750853
 40
0.3000000000001877
 50
124.3447727756659
 51
235.6552272243341
 73
     1
 72
     1
 10
18.88074857497213
 20
27.75225852205859
 11
19.61713557259009
 21
27.24908571406127
 72
     2
 10
19.44999999999481
 20
26.99995582750785
 40
0.3000000000014475
 50
303.856761316613
 51
360.0025275297278
 73
     0
 72
     1
 10
19.74999999970441
 20
26.99994259339315
 11
19.75070756218838
 21
24.97832873485299
 72
     2
 10
17.75071402585263
 20
24.98341347732389
 40
1.999999999997694
 50
0.1456672986709618
 51
57.37083062772239
 73
     0
 72
     2
 10
20.98590922357153
 20
19.93034391194101
 40
3.999999999997688
 50
122.6291275933173
 51
169.5199871469429
 73
     1
 72
     1
 10
17.0526355473562
 20
20.65791396902955
 11
14.29069016273479
 21
5.726749554095931
 72
     2
 10
7.407355530567201
 20
7.000062222397673
 40
7.000115771160889
 50
10.48037918912632
 51
89.77589062891849
 73
     0
 72
     1
 10
7.434736038451774
 20
-0.0000000000002274
 11
-7.434736038451774
 21
-0.0000000000002274
 72
     2
 10
-7.407354161971397
 20
7.000063860868749
 40
7.000117414972657
 50
90.22412052046133
 51
169.51960966139
 73
     0
 72
     1
 10
-14.29069016274661
 20
5.726749554095476
 11
-17.13349842717343
 21
21.09505251767609
 97
        0
 75
     0
 76
     0
 52
45.0
 41
5.0
 77
     0
 78
     1
 53
45.0
 43
2349.424765834079
 44
-1377.299133020489
 45
-3.535533905932737
 46
3.535533905932737
 79
     0
 98
        1
 10
2349.424765834079
 20
-1377.299133020489
1001
ACAD
1010
0.0
1020
0.0
1030
0.0
1001
GENIUS_GENOBJ-N-HTC_13
1002
{
1000
OWNER
1000
GEN
1002
}
1001
GENIUS_GENODEF_13
1002
{
1000
HIER
1070
     0
1002
}
1002
{
1000
MANEDIT
1070
     0
1002
}
1002
{
1000
NOSEL
1070
     0
1002
}
1002
{
1000
BEHIND
1070
     0
1002
}
1002
{
1000
OTHER
1070
     0
1002
}
1002
{
1000
REACTOR
1002
}
1001
GENIUS_GENHATCH_13
1002
{
1000
DATA
1040
45.0
1042
2.5
1000
_U
1070
     0
1011
-17.53044855926782
1021
-1.378876660051901
1031
0.0
1002
}
1002
{
1000
UCS
1010
0.0
1020
0.0
1030
0.0
1010
1.0
1020
0.0
1030
0.0
1010
0.0
1020
1.0
1030
0.0
1002
}
  0
MTEXT
  5
8A
330
70
100
AcDbEntity
  8
DEFPOINTS
100
AcDbMText
 10
-19.42512820045522
 20
-7.142906578234033
 30
0.0
 40
1.5
 41
11.35918246370009
 71
     5
 72
     5
  1
BHL-0-S1(S)
 11
0.9999877757611519
 21
-0.0049445250797289
 31
0.0
 73
     1
 44
1.0
1001
ACAD
1000
MTEXTBEGIN
1070
    73
1070
     1
1070
    44
1040
1.0
1070
    74
1070
     0
1000
MTEXTEND
1000
ACAD_MTEXT_DEFINED_HEIGHT_BEGIN
1070
    46
1040
2.346582347408901
1000
ACAD_MTEXT_DEFINED_HEIGHT_END
  0
ENDBLK
  5
8B
330
70
100
AcDbEntity
  8
0
100
AcDbBlockEnd
  0
BLOCK
  5
8F
330
8E
100
AcDbEntity
  8
0
100
AcDbBlockBegin
  2
*D3
 70
     1
 10
0.0
 20
0.0
 30
0.0
  3
*D3
  1

  0
LINE
  5
90
330
8E
100
AcDbEntity
  8
AM_5
  6
ByBlock
100
AcDbLine
 10
37295.56652671109
 20
8025.400518927899
 30
0.0
 11
37281.56652671088
 21
8025.400518927899
 31
0.0
  0
LINE
  5
91
330
8E
100
AcDbEntity
  8
AM_5
  6
ByBlock
100
AcDbLine
 10
37299.86652671108
 20
8076.400518928293
 30
0.0
 11
37281.56652671088
 21
8076.400518928293
 31
0.0
  0
LINE
  5
92
330
8E
100
AcDbEntity
  8
AM_5
  6
ByBlock
100
AcDbLine
 10
37283.56652671088
 20
8032.400518927898
 30
0.0
 11
37283.56652671088
 21
8069.400518928295
 31
0.0
  0
SOLID
  5
93
330
8E
100
AcDbEntity
  8
AM_5
100
AcDbTrace
 10
37282.39986004422
 20
8032.400518927898
 30
0.0
 11
37284.73319337755
 21
8032.400518927898
 31
0.0
 12
37283.56652671088
 22
8025.400518927899
 32
0.0
 13
37283.56652671088
 23
8025.400518927899
 33
0.0
  0
SOLID
  5
95
330
8E
100
AcDbEntity
  8
AM_5
100
AcDbTrace
 10
37282.39986004422
 20
8069.400518928295
 30
0.0
 11
37284.73319337755
 21
8069.400518928295
 31
0.0
 12
37283.56652671088
 22
8076.400518928293
 32
0.0
 13
37283.56652671088
 23
8076.400518928293
 33
0.0
  0
MTEXT
  5
96
330
8E
100
AcDbEntity
  8
AM_5
 62
     2
100
AcDbMText
 10
37276.99251579683
 20
8050.900518928084
 30
0.0
 40
7.0
 41
0.0
 71
     5
 72
     1
  1
51
 11
0.0000000000000001
 21
1.0
 31
0.0
 73
     1
 44
1.0
1001
ACAD
1000
MTEXTBEGIN
1070
    73
1070
     1
1070
    44
1040
1.0
1070
    74
1070
     0
1000
MTEXTEND
  0
POINT
  5
97
330
8E
100
AcDbEntity
  8
DEFPOINTS
 62
     0
100
AcDbPoint
 10
37297.56652671109
 20
8025.400518927899
 30
0.0
  0
POINT
  5
98
330
8E
100
AcDbEntity
  8
DEFPOINTS
 62
     0
100
AcDbPoint
 10
37301.86652671108
 20
8076.400518928293
 30
0.0
  0
POINT
  5
99
330
8E
100
AcDbEntity
  8
DEFPOINTS
 62
     0
100
AcDbPoint
 10
37283.56652671088
 20
8076.400518928293
 30
0.0
  0
ENDBLK
  5
9A
330
8E
100
AcDbEntity
  8
0
100
AcDbBlockEnd
  0
BLOCK
  5
9F
330
9E
100
AcDbEntity
  8
0
100
AcDbBlockBegin
  2
*D4
 70
     1
 10
0.0
 20
0.0
 30
0.0
  3
*D4
  1

  0
LINE
  5
A0
330
9E
100
AcDbEntity
  8
AM_5
  6
ByBlock
100
AcDbLine
 10
37299.78603564951
 20
7976.400518927622
 30
0.0
 11
37281.56652671085
 21
7976.400518927622
 31
0.0
  0
LINE
  5
A1
330
9E
100
AcDbEntity
  8
AM_5
  6
ByBlock
100
AcDbLine
 10
37295.56652671109
 20
8025.400518927899
 30
0.0
 11
37281.56652671085
 21
8025.400518927899
 31
0.0
  0
LINE
  5
A2
330
9E
100
AcDbEntity
  8
AM_5
  6
ByBlock
100
AcDbLine
 10
37283.56652671085
 20
7983.400518927621
 30
0.0
 11
37283.56652671085
 21
8018.400518927899
 31
0.0
  0
SOLID
  5
A3
330
9E
100
AcDbEntity
  8
AM_5
100
AcDbTrace
 10
37282.39986004419
 20
7983.400518927621
 30
0.0
 11
37284.73319337751
 21
7983.400518927621
 31
0.0
 12
37283.56652671085
 22
7976.400518927622
 32
0.0
 13
37283.56652671085
 23
7976.400518927622
 33
0.0
  0
SOLID
  5
A4
330
9E
100
AcDbEntity
  8
AM_5
100
AcDbTrace
 10
37282.39986004419
 20
8018.400518927899
 30
0.0
 11
37284.73319337751
 21
8018.400518927899
 31
0.0
 12
37283.56652671085
 22
8025.400518927899
 32
0.0
 13
37283.56652671085
 23
8025.400518927899
 33
0.0
  0
MTEXT
  5
A5
330
9E
100
AcDbEntity
  8
AM_5
 62
     2
100
AcDbMText
 10
37276.99251579679
 20
8000.900518927748
 30
0.0
 40
7.0
 41
0.0
 71
     5
 72
     1
  1
49
 11
0.0000000000000001
 21
1.0
 31
0.0
 73
     1
 44
1.0
1001
ACAD
1000
MTEXTBEGIN
1070
    73
1070
     1
1070
    44
1040
1.0
1070
    74
1070
     0
1000
MTEXTEND
  0
POINT
  5
A6
330
9E
100
AcDbEntity
  8
DEFPOINTS
 62
     0
100
AcDbPoint
 10
37301.78603564951
 20
7976.400518927622
 30
0.0
  0
POINT
  5
A7
330
9E
100
AcDbEntity
  8
DEFPOINTS
 62
     0
100
AcDbPoint
 10
37297.56652671109
 20
8025.400518927899
 30
0.0
  0
POINT
  5
A8
330
9E
100
AcDbEntity
  8
DEFPOINTS
 62
     0
100
AcDbPoint
 10
37283.56652671085
 20
8025.400518927899
 30
0.0
  0
ENDBLK
  5
A9
330
9E
100
AcDbEntity
  8
0
100
AcDbBlockEnd
  0
BLOCK
  5
AC
330
AB
100
AcDbEntity
  8
0
100
AcDbBlockBegin
  2
*D5
 70
     1
 10
0.0
 20
0.0
 30
0.0
  3
*D5
  1

  0
LINE
  5
AD
330
AB
100
AcDbEntity
  8
AM_5
  6
ByBlock
100
AcDbLine
 10
37299.78603564951
 20
7976.400518927622
 30
0.0
 11
37264.56652671084
 21
7976.400518927622
 31
0.0
  0
LINE
  5
AE
330
AB
100
AcDbEntity
  8
AM_5
  6
ByBlock
100
AcDbLine
 10
37299.86652671108
 20
8076.400518928293
 30
0.0
 11
37264.56652671084
 21
8076.400518928293
 31
0.0
  0
LINE
  5
AF
330
AB
100
AcDbEntity
  8
AM_5
  6
ByBlock
100
AcDbLine
 10
37266.56652671084
 20
7983.400518927621
 30
0.0
 11
37266.56652671084
 21
8069.400518928295
 31
0.0
  0
SOLID
  5
B0
330
AB
100
AcDbEntity
  8
AM_5
100
AcDbTrace
 10
37265.39986004417
 20
7983.400518927621
 30
0.0
 11
37267.7331933775
 21
7983.400518927621
 31
0.0
 12
37266.56652671084
 22
7976.400518927622
 32
0.0
 13
37266.56652671084
 23
7976.400518927622
 33
0.0
  0
SOLID
  5
B1
330
AB
100
AcDbEntity
  8
AM_5
100
AcDbTrace
 10
37265.39986004417
 20
8069.400518928295
 30
0.0
 11
37267.7331933775
 21
8069.400518928295
 31
0.0
 12
37266.56652671084
 22
8076.400518928293
 32
0.0
 13
37266.56652671084
 23
8076.400518928293
 33
0.0
  0
MTEXT
  5
B2
330
AB
100
AcDbEntity
  8
AM_5
 62
     2
100
AcDbMText
 10
37259.99251579677
 20
8026.400518927946
 30
0.0
 40
7.0
 41
0.0
 71
     5
 72
     1
  1
100
 11
0.0000000000000001
 21
1.0
 31
0.0
 73
     1
 44
1.0
1001
ACAD
1000
MTEXTBEGIN
1070
    73
1070
     1
1070
    44
1040
1.0
1070
    74
1070
     0
1000
MTEXTEND
  0
POINT
  5
B3
330
AB
100
AcDbEntity
  8
DEFPOINTS
 62
     0
100
AcDbPoint
 10
37301.78603564951
 20
7976.400518927622
 30
0.0
  0
POINT
  5
B4
330
AB
100
AcDbEntity
  8
DEFPOINTS
 62
     0
100
AcDbPoint
 10
37301.86652671108
 20
8076.400518928293
 30
0.0
  0
POINT
  5
B5
330
AB
100
AcDbEntity
  8
DEFPOINTS
 62
     0
100
AcDbPoint
 10
37266.56652671084
 20
8076.400518928293
 30
0.0
  0
ENDBLK
  5
B6
330
AB
100
AcDbEntity
  8
0
100
AcDbBlockEnd
  0
BLOCK
  5
B9
330
B8
100
AcDbEntity
  8
0
100
AcDbBlockBegin
  2
*D6
 70
     1
 10
0.0
 20
0.0
 30
0.0
  3
*D6
  1

  0
LINE
  5
BA
330
B8
100
AcDbEntity
  8
AM_5
  6
ByBlock
100
AcDbLine
 10
37355.06652671109
 20
8015.400518927899
 30
0.0
 11
37371.68625875807
 21
8015.400518927899
 31
0.0
  0
LINE
  5
BB
330
B8
100
AcDbEntity
  8
AM_5
  6
ByBlock
100
AcDbLine
 10
37355.06652671109
 20
8035.400518927898
 30
0.0
 11
37371.68625875807
 21
8035.400518927898
 31
0.0
  0
LINE
  5
BC
330
B8
100
AcDbEntity
  8
AM_5
  6
ByBlock
100
AcDbLine
 10
37369.68625875807
 20
8022.400518927899
 30
0.0
 11
37369.68625875807
 21
8028.400518927899
 31
0.0
  0
SOLID
  5
BD
330
B8
100
AcDbEntity
  8
AM_5
100
AcDbTrace
 10
37368.51959209141
 20
8022.400518927899
 30
0.0
 11
37370.85292542473
 21
8022.400518927899
 31
0.0
 12
37369.68625875807
 22
8015.400518927899
 32
0.0
 13
37369.68625875807
 23
8015.400518927899
 33
0.0
  0
SOLID
  5
BE
330
B8
100
AcDbEntity
  8
AM_5
100
AcDbTrace
 10
37368.51959209141
 20
8028.400518927899
 30
0.0
 11
37370.85292542473
 21
8028.400518927899
 31
0.0
 12
37369.68625875807
 22
8035.400518927898
 32
0.0
 13
37369.68625875807
 23
8035.400518927898
 33
0.0
  0
MTEXT
  5
BF
330
B8
100
AcDbEntity
  8
AM_5
 62
     2
100
AcDbMText
 10
37362.9164770391
 20
8025.400518927886
 30
0.0
 40
7.0
 41
0.0
 71
     5
 72
     1
  1
%%C20
 11
0.0000000000000001
 21
1.0
 31
0.0
 73
     1
 44
1.0
1001
ACAD
1000
MTEXTBEGIN
1070
    73
1070
     1
1070
    44
1040
1.0
1070
    74
1070
     0
1000
MTEXTEND
  0
POINT
  5
C0
330
B8
100
AcDbEntity
  8
DEFPOINTS
 62
     0
100
AcDbPoint
 10
37353.06652671109
 20
8015.400518927899
 30
0.0
  0
POINT
  5
C1
330
B8
100
AcDbEntity
  8
DEFPOINTS
 62
     0
100
AcDbPoint
 10
37353.06652671109
 20
8035.400518927898
 30
0.0
  0
POINT
  5
C2
330
B8
100
AcDbEntity
  8
DEFPOINTS
 62
     0
100
AcDbPoint
 10
37369.68625875807
 20
8035.400518927898
 30
0.0
  0
ENDBLK
  5
C3
330
B8
100
AcDbEntity
  8
0
100
AcDbBlockEnd
  0
BLOCK
  5
C6
330
C5
100
AcDbEntity
  8
0
100
AcDbBlockBegin
  2
*D7
 70
     1
 10
0.0
 20
0.0
 30
0.0
  3
*D7
  1

  0
LINE
  5
C7
330
C5
100
AcDbEntity
  8
AM_5
  6
ByBlock
100
AcDbLine
 10
37300.56652671107
 20
7975.400342238327
 30
0.0
 11
37300.56652671107
 21
7957.200518927894
 31
0.0
  0
LINE
  5
C8
330
C5
100
AcDbEntity
  8
AM_5
  6
ByBlock
100
AcDbLine
 10
37353.06652671108
 20
7974.704958322998
 30
0.0
 11
37353.06652671108
 21
7957.200518927894
 31
0.0
  0
LINE
  5
C9
330
C5
100
AcDbEntity
  8
AM_5
  6
ByBlock
100
AcDbLine
 10
37307.56652671107
 20
7959.200518927895
 30
0.0
 11
37346.06652671108
 21
7959.200518927895
 31
0.0
  0
SOLID
  5
CA
330
C5
100
AcDbEntity
  8
AM_5
100
AcDbTrace
 10
37307.56652671107
 20
7960.367185594562
 30
0.0
 11
37307.56652671107
 21
7958.033852261228
 31
0.0
 12
37300.56652671107
 22
7959.200518927895
 32
0.0
 13
37300.56652671107
 23
7959.200518927895
 33
0.0
  0
SOLID
  5
CB
330
C5
100
AcDbEntity
  8
AM_5
100
AcDbTrace
 10
37346.06652671108
 20
7960.367185594562
 30
0.0
 11
37346.06652671108
 21
7958.033852261228
 31
0.0
 12
37353.06652671108
 22
7959.200518927895
 32
0.0
 13
37353.06652671108
 23
7959.200518927895
 33
0.0
  0
MTEXT
  5
CC
330
C5
100
AcDbEntity
  8
AM_5
 62
     2
100
AcDbMText
 10
37326.81652671108
 20
7965.774529841946
 30
0.0
 40
7.0
 41
0.0
 71
     5
 72
     1
  1
52.5
 73
     1
 44
1.0
1001
ACAD
1000
MTEXTBEGIN
1070
    73
1070
     1
1070
    44
1040
1.0
1070
    74
1070
     0
1000
MTEXTEND
  0
POINT
  5
CD
330
C5
100
AcDbEntity
  8
DEFPOINTS
 62
     0
100
AcDbPoint
 10
37300.56652671107
 20
7977.400342238327
 30
0.0
  0
POINT
  5
CE
330
C5
100
AcDbEntity
  8
DEFPOINTS
 62
     0
100
AcDbPoint
 10
37353.06652671108
 20
7976.704958322999
 30
0.0
  0
POINT
  5
CF
330
C5
100
AcDbEntity
  8
DEFPOINTS
 62
     0
100
AcDbPoint
 10
37353.06652671108
 20
7959.200518927895
 30
0.0
  0
ENDBLK
  5
D0
330
C5
100
AcDbEntity
  8
0
100
AcDbBlockEnd
  0
BLOCK
  5
D3
330
D2
100
AcDbEntity
  8
0
100
AcDbBlockBegin
  2
*D8
 70
     1
 10
0.0
 20
0.0
 30
0.0
  3
*D8
  1

  0
LINE
  5
D4
330
D2
100
AcDbEntity
  8
AM_5
  6
ByBlock
100
AcDbLine
 10
37309.56652671253
 20
8016.4005189279
 30
0.0
 11
37326.21085048487
 21
8016.4005189279
 31
0.0
  0
LINE
  5
D5
330
D2
100
AcDbEntity
  8
AM_5
  6
ByBlock
100
AcDbLine
 10
37309.56652671335
 20
8034.400518927899
 30
0.0
 11
37326.21085048487
 21
8034.400518927899
 31
0.0
  0
LINE
  5
D6
330
D2
100
AcDbEntity
  8
AM_5
  6
ByBlock
100
AcDbLine
 10
37324.21085048487
 20
8009.400518927899
 30
0.0
 11
37324.21085048487
 21
8002.400518927899
 31
0.0
  0
LINE
  5
D7
330
D2
100
AcDbEntity
  8
AM_5
  6
ByBlock
100
AcDbLine
 10
37324.21085048487
 20
8041.400518927899
 30
0.0
 11
37324.21085048487
 21
8048.400518927898
 31
0.0
  0
LINE
  5
D8
330
D2
100
AcDbEntity
  8
AM_5
  6
ByBlock
100
AcDbLine
 10
37324.21085048487
 20
8016.4005189279
 30
0.0
 11
37324.21085048487
 21
8034.400518927899
 31
0.0
  0
SOLID
  5
D9
330
D2
100
AcDbEntity
  8
AM_5
100
AcDbTrace
 10
37323.04418381821
 20
8009.400518927899
 30
0.0
 11
37325.37751715154
 21
8009.400518927899
 31
0.0
 12
37324.21085048487
 22
8016.4005189279
 32
0.0
 13
37324.21085048487
 23
8016.4005189279
 33
0.0
  0
SOLID
  5
DA
330
D2
100
AcDbEntity
  8
AM_5
100
AcDbTrace
 10
37323.04418381821
 20
8041.400518927899
 30
0.0
 11
37325.37751715154
 21
8041.400518927899
 31
0.0
 12
37324.21085048487
 22
8034.400518927899
 32
0.0
 13
37324.21085048487
 23
8034.400518927899
 33
0.0
  0
MTEXT
  5
DB
330
D2
100
AcDbEntity
  8
AM_5
 62
     2
100
AcDbMText
 10
37317.44106876591
 20
8025.400518927886
 30
0.0
 40
7.0
 41
0.0
 71
     5
 72
     1
  1
%%C18
 11
0.0000000000000001
 21
1.0
 31
0.0
 73
     1
 44
1.0
1001
ACAD
1000
MTEXTBEGIN
1070
    73
1070
     1
1070
    44
1040
1.0
1070
    74
1070
     0
1000
MTEXTEND
  0
POINT
  5
DC
330
D2
100
AcDbEntity
  8
DEFPOINTS
 62
     0
100
AcDbPoint
 10
37307.56652671253
 20
8016.4005189279
 30
0.0
  0
POINT
  5
DD
330
D2
100
AcDbEntity
  8
DEFPOINTS
 62
     0
100
AcDbPoint
 10
37307.56652671335
 20
8034.400518927899
 30
0.0
  0
POINT
  5
DE
330
D2
100
AcDbEntity
  8
DEFPOINTS
 62
     0
100
AcDbPoint
 10
37324.21085048487
 20
8034.400518927899
 30
0.0
  0
ENDBLK
  5
DF
330
D2
100
AcDbEntity
  8
0
100
AcDbBlockEnd
  0
BLOCK
  5
E2
330
E1
100
AcDbEntity
  8
0
100
AcDbBlockBegin
  2
*D9
 70
     1
 10
0.0
 20
0.0
 30
0.0
  3
*D9
  1

  0
LINE
  5
E3
330
E1
100
AcDbEntity
  8
AM_5
  6
ByBlock
100
AcDbLine
 10
37296.56652671108
 20
7304.962156077184
 30
0.0
 11
37268.56652671123
 21
7304.962156077184
 31
0.0
  0
LINE
  5
E4
330
E1
100
AcDbEntity
  8
AM_5
  6
ByBlock
100
AcDbLine
 10
37296.56652671108
 20
7704.962156077184
 30
0.0
 11
37268.56652671123
 21
7704.962156077184
 31
0.0
  0
LINE
  5
E5
330
E1
100
AcDbEntity
  8
AM_5
  6
ByBlock
100
AcDbLine
 10
37272.56652671123
 20
7318.962156077184
 30
0.0
 11
37272.56652671123
 21
7690.962156077183
 31
0.0
  0
SOLID
  5
E6
330
E1
100
AcDbEntity
  8
AM_5
100
AcDbTrace
 10
37270.23319337789
 20
7318.962156077184
 30
0.0
 11
37274.89986004457
 21
7318.962156077184
 31
0.0
 12
37272.56652671123
 22
7304.962156077184
 32
0.0
 13
37272.56652671123
 23
7304.962156077184
 33
0.0
  0
SOLID
  5
E7
330
E1
100
AcDbEntity
  8
AM_5
100
AcDbTrace
 10
37270.23319337789
 20
7690.962156077183
 30
0.0
 11
37274.89986004457
 21
7690.962156077183
 31
0.0
 12
37272.56652671123
 22
7704.962156077184
 32
0.0
 13
37272.56652671123
 23
7704.962156077184
 33
0.0
  0
MTEXT
  5
E8
330
E1
100
AcDbEntity
  8
AM_5
 62
     2
100
AcDbMText
 10
37259.41850488311
 20
7504.962156077171
 30
0.0
 40
14.0
 41
0.0
 71
     5
 72
     1
  1
400
 11
0.0000000000000001
 21
1.0
 31
0.0
 73
     1
 44
1.0
1001
ACAD
1000
MTEXTBEGIN
1070
    73
1070
     1
1070
    44
1040
1.0
1070
    74
1070
     0
1000
MTEXTEND
  0
POINT
  5
E9
330
E1
100
AcDbEntity
  8
DEFPOINTS
 62
     0
100
AcDbPoint
 10
37300.56652671108
 20
7304.962156077184
 30
0.0
  0
POINT
  5
EA
330
E1
100
AcDbEntity
  8
DEFPOINTS
 62
     0
100
AcDbPoint
 10
37300.56652671108
 20
7704.962156077184
 30
0.0
  0
POINT
  5
EB
330
E1
100
AcDbEntity
  8
DEFPOINTS
 62
     0
100
AcDbPoint
 10
37272.56652671123
 20
7704.962156077184
 30
0.0
  0
ENDBLK
  5
EC
330
E1
100
AcDbEntity
  8
0
100
AcDbBlockEnd
  0
BLOCK
  5
FC
330
FB
100
AcDbEntity
  8
0
100
AcDbBlockBegin
  2
*D10
 70
     1
 10
0.0
 20
0.0
 30
0.0
  3
*D10
  1

  0
LINE
  5
FD
330
FB
100
AcDbEntity
  8
AM_5
  6
ByBlock
100
AcDbLine
 10
37353.06652671107
 20
7708.962156077181
 30
0.0
 11
37353.06652671107
 21
7736.96215607718
 31
0.0
  0
LINE
  5
FE
330
FB
100
AcDbEntity
  8
AM_5
  6
ByBlock
100
AcDbLine
 10
37300.56652671107
 20
7708.962156077181
 30
0.0
 11
37300.56652671107
 21
7736.96215607718
 31
0.0
  0
LINE
  5
FF
330
FB
100
AcDbEntity
  8
AM_5
  6
ByBlock
100
AcDbLine
 10
37339.06652671107
 20
7732.96215607718
 30
0.0
 11
37314.56652671107
 21
7732.96215607718
 31
0.0
  0
SOLID
  5
100
330
FB
100
AcDbEntity
  8
AM_5
100
AcDbTrace
 10
37339.06652671107
 20
7735.295489410514
 30
0.0
 11
37339.06652671107
 21
7730.628822743847
 31
0.0
 12
37353.06652671107
 22
7732.96215607718
 32
0.0
 13
37353.06652671107
 23
7732.96215607718
 33
0.0
  0
SOLID
  5
101
330
FB
100
AcDbEntity
  8
AM_5
100
AcDbTrace
 10
37314.56652671107
 20
7735.295489410514
 30
0.0
 11
37314.56652671107
 21
7730.628822743847
 31
0.0
 12
37300.56652671107
 22
7732.96215607718
 32
0.0
 13
37300.56652671107
 23
7732.96215607718
 33
0.0
  0
MTEXT
  5
102
330
FB
100
AcDbEntity
  8
AM_5
 62
     2
100
AcDbMText
 10
37326.81652671107
 20
7746.110177905284
 30
0.0
 40
14.0
 41
0.0
 71
     5
 72
     1
  1
52.5
 73
     1
 44
1.0
1001
ACAD
1000
MTEXTBEGIN
1070
    73
1070
     1
1070
    44
1040
1.0
1070
    74
1070
     0
1000
MTEXTEND
  0
POINT
  5
103
330
FB
100
AcDbEntity
  8
DEFPOINTS
 62
     0
100
AcDbPoint
 10
37353.06652671107
 20
7704.962156077179
 30
0.0
  0
POINT
  5
104
330
FB
100
AcDbEntity
  8
DEFPOINTS
 62
     0
100
AcDbPoint
 10
37300.56652671107
 20
7704.962156077179
 30
0.0
  0
POINT
  5
105
330
FB
100
AcDbEntity
  8
DEFPOINTS
 62
     0
100
AcDbPoint
 10
37300.56652671107
 20
7732.96215607718
 30
0.0
  0
ENDBLK
  5
106
330
FB
100
AcDbEntity
  8
0
100
AcDbBlockEnd
  0
BLOCK
  5
109
330
108
100
AcDbEntity
  8
0
100
AcDbBlockBegin
  2
*D11
 70
     1
 10
0.0
 20
0.0
 30
0.0
  3
*D11
  1

  0
LINE
  5
10A
330
108
100
AcDbEntity
  8
AM_5
  6
ByBlock
100
AcDbLine
 10
37360.06652671108
 20
7614.962156077183
 30
0.0
 11
37395.06733842686
 21
7614.962156077183
 31
0.0
  0
LINE
  5
10B
330
108
100
AcDbEntity
  8
AM_5
  6
ByBlock
100
AcDbLine
 10
37357.06652671108
 20
7704.962156077184
 30
0.0
 11
37395.06733842686
 21
7704.962156077184
 31
0.0
  0
LINE
  5
10C
330
108
100
AcDbEntity
  8
AM_5
  6
ByBlock
100
AcDbLine
 10
37391.06733842686
 20
7628.962156077183
 30
0.0
 11
37391.06733842686
 21
7690.962156077183
 31
0.0
  0
SOLID
  5
10D
330
108
100
AcDbEntity
  8
AM_5
100
AcDbTrace
 10
37388.73400509353
 20
7628.962156077183
 30
0.0
 11
37393.4006717602
 21
7628.962156077183
 31
0.0
 12
37391.06733842686
 22
7614.962156077183
 32
0.0
 13
37391.06733842686
 23
7614.962156077183
 33
0.0
  0
SOLID
  5
10E
330
108
100
AcDbEntity
  8
AM_5
100
AcDbTrace
 10
37388.73400509353
 20
7690.962156077183
 30
0.0
 11
37393.4006717602
 21
7690.962156077183
 31
0.0
 12
37391.06733842686
 22
7704.962156077184
 32
0.0
 13
37391.06733842686
 23
7704.962156077184
 33
0.0
  0
MTEXT
  5
10F
330
108
100
AcDbEntity
  8
AM_5
 62
     2
100
AcDbMText
 10
37377.91931659875
 20
7659.96215607717
 30
0.0
 40
14.0
 41
0.0
 71
     5
 72
     1
  1
90
 11
0.0000000000000001
 21
1.0
 31
0.0
 73
     1
 44
1.0
1001
ACAD
1000
MTEXTBEGIN
1070
    73
1070
     1
1070
    44
1040
1.0
1070
    74
1070
     0
1000
MTEXTEND
  0
POINT
  5
110
330
108
100
AcDbEntity
  8
DEFPOINTS
 62
     0
100
AcDbPoint
 10
37356.06652671108
 20
7614.962156077183
 30
0.0
  0
POINT
  5
111
330
108
100
AcDbEntity
  8
DEFPOINTS
 62
     0
100
AcDbPoint
 10
37353.06652671108
 20
7704.962156077184
 30
0.0
  0
POINT
  5
112
330
108
100
AcDbEntity
  8
DEFPOINTS
 62
     0
100
AcDbPoint
 10
37391.06733842686
 20
7704.962156077184
 30
0.0
  0
ENDBLK
  5
113
330
108
100
AcDbEntity
  8
0
100
AcDbBlockEnd
  0
BLOCK
  5
122
330
121
100
AcDbEntity
  8
0
100
AcDbBlockBegin
  2
*D12
 70
     1
 10
0.0
 20
0.0
 30
0.0
  3
*D12
  1

  0
LINE
  5
123
330
121
100
AcDbEntity
  8
AM_5
  6
ByBlock
100
AcDbLine
 10
37704.56652671108
 20
7357.46215607721
 30
0.0
 11
37732.56652671108
 21
7357.46215607721
 31
0.0
  0
LINE
  5
124
330
121
100
AcDbEntity
  8
AM_5
  6
ByBlock
100
AcDbLine
 10
37704.56652671108
 20
7304.962156077211
 30
0.0
 11
37732.56652671108
 21
7304.962156077211
 31
0.0
  0
LINE
  5
125
330
121
100
AcDbEntity
  8
AM_5
  6
ByBlock
100
AcDbLine
 10
37728.56652671108
 20
7343.46215607721
 30
0.0
 11
37728.56652671108
 21
7318.962156077211
 31
0.0
  0
SOLID
  5
126
330
121
100
AcDbEntity
  8
AM_5
100
AcDbTrace
 10
37726.23319337775
 20
7343.46215607721
 30
0.0
 11
37730.89986004442
 21
7343.46215607721
 31
0.0
 12
37728.56652671108
 22
7357.46215607721
 32
0.0
 13
37728.56652671108
 23
7357.46215607721
 33
0.0
  0
SOLID
  5
127
330
121
100
AcDbEntity
  8
AM_5
100
AcDbTrace
 10
37726.23319337775
 20
7318.962156077211
 30
0.0
 11
37730.89986004442
 21
7318.962156077211
 31
0.0
 12
37728.56652671108
 22
7304.962156077211
 32
0.0
 13
37728.56652671108
 23
7304.962156077211
 33
0.0
  0
MTEXT
  5
128
330
121
100
AcDbEntity
  8
AM_5
 62
     2
100
AcDbMText
 10
37715.41850488297
 20
7331.212156077197
 30
0.0
 40
14.0
 41
0.0
 71
     5
 72
     1
  1
52.5
 11
0.0000000000000001
 21
1.0
 31
0.0
 73
     1
 44
1.0
1001
ACAD
1000
MTEXTBEGIN
1070
    73
1070
     1
1070
    44
1040
1.0
1070
    74
1070
     0
1000
MTEXTEND
  0
POINT
  5
129
330
121
100
AcDbEntity
  8
DEFPOINTS
 62
     0
100
AcDbPoint
 10
37700.56652671109
 20
7357.46215607721
 30
0.0
  0
POINT
  5
12A
330
121
100
AcDbEntity
  8
DEFPOINTS
 62
     0
100
AcDbPoint
 10
37700.56652671109
 20
7304.962156077211
 30
0.0
  0
POINT
  5
12B
330
121
100
AcDbEntity
  8
DEFPOINTS
 62
     0
100
AcDbPoint
 10
37728.56652671108
 20
7304.962156077211
 30
0.0
  0
ENDBLK
  5
12C
330
121
100
AcDbEntity
  8
0
100
AcDbBlockEnd
  0
BLOCK
  5
12F
330
12E
100
AcDbEntity
  8
0
100
AcDbBlockBegin
  2
*D13
 70
     1
 10
0.0
 20
0.0
 30
0.0
  3
*D13
  1

  0
LINE
  5
130
330
12E
100
AcDbEntity
  8
AM_5
  6
ByBlock
100
AcDbLine
 10
37610.56652671107
 20
7364.462156077206
 30
0.0
 11
37610.56652671107
 21
7399.462967793013
 31
0.0
  0
LINE
  5
131
330
12E
100
AcDbEntity
  8
AM_5
  6
ByBlock
100
AcDbLine
 10
37700.56652671107
 20
7361.462156077206
 30
0.0
 11
37700.56652671107
 21
7399.462967793013
 31
0.0
  0
LINE
  5
132
330
12E
100
AcDbEntity
  8
AM_5
  6
ByBlock
100
AcDbLine
 10
37624.56652671107
 20
7395.462967793013
 30
0.0
 11
37686.56652671107
 21
7395.462967793013
 31
0.0
  0
SOLID
  5
133
330
12E
100
AcDbEntity
  8
AM_5
100
AcDbTrace
 10
37624.56652671107
 20
7397.796301126347
 30
0.0
 11
37624.56652671107
 21
7393.12963445968
 31
0.0
 12
37610.56652671107
 22
7395.462967793013
 32
0.0
 13
37610.56652671107
 23
7395.462967793013
 33
0.0
  0
SOLID
  5
134
330
12E
100
AcDbEntity
  8
AM_5
100
AcDbTrace
 10
37686.56652671107
 20
7397.796301126347
 30
0.0
 11
37686.56652671107
 21
7393.12963445968
 31
0.0
 12
37700.56652671107
 22
7395.462967793013
 32
0.0
 13
37700.56652671107
 23
7395.462967793013
 33
0.0
  0
MTEXT
  5
135
330
12E
100
AcDbEntity
  8
AM_5
 62
     2
100
AcDbMText
 10
37655.56652671107
 20
7408.610989621116
 30
0.0
 40
14.0
 41
0.0
 71
     5
 72
     1
  1
90
 73
     1
 44
1.0
1001
ACAD
1000
MTEXTBEGIN
1070
    73
1070
     1
1070
    44
1040
1.0
1070
    74
1070
     0
1000
MTEXTEND
  0
POINT
  5
136
330
12E
100
AcDbEntity
  8
DEFPOINTS
 62
     0
100
AcDbPoint
 10
37610.56652671107
 20
7360.462156077208
 30
0.0
  0
POINT
  5
137
330
12E
100
AcDbEntity
  8
DEFPOINTS
 62
     0
100
AcDbPoint
 10
37700.56652671107
 20
7357.462156077207
 30
0.0
  0
POINT
  5
138
330
12E
100
AcDbEntity
  8
DEFPOINTS
 62
     0
100
AcDbPoint
 10
37700.56652671107
 20
7395.462967793013
 30
0.0
  0
ENDBLK
  5
139
330
12E
100
AcDbEntity
  8
0
100
AcDbBlockEnd
  0
BLOCK
  5
13E
330
13D
100
AcDbEntity
  8
0
100
AcDbBlockBegin
  2
*D14
 70
     1
 10
0.0
 20
0.0
 30
0.0
  3
*D14
  1

  0
LINE
  5
13F
330
13D
100
AcDbEntity
  8
AM_5
  6
ByBlock
100
AcDbLine
 10
37300.56652671107
 20
7300.962156077185
 30
0.0
 11
37300.56652671107
 21
7272.962156077338
 31
0.0
  0
LINE
  5
140
330
13D
100
AcDbEntity
  8
AM_5
  6
ByBlock
100
AcDbLine
 10
37700.56652671107
 20
7300.962156077206
 30
0.0
 11
37700.56652671107
 21
7272.962156077338
 31
0.0
  0
LINE
  5
141
330
13D
100
AcDbEntity
  8
AM_5
  6
ByBlock
100
AcDbLine
 10
37314.56652671107
 20
7276.962156077337
 30
0.0
 11
37686.56652671107
 21
7276.962156077337
 31
0.0
  0
SOLID
  5
142
330
13D
100
AcDbEntity
  8
AM_5
100
AcDbTrace
 10
37314.56652671107
 20
7279.295489410671
 30
0.0
 11
37314.56652671107
 21
7274.628822744005
 31
0.0
 12
37300.56652671107
 22
7276.962156077337
 32
0.0
 13
37300.56652671107
 23
7276.962156077337
 33
0.0
  0
SOLID
  5
143
330
13D
100
AcDbEntity
  8
AM_5
100
AcDbTrace
 10
37686.56652671107
 20
7279.295489410671
 30
0.0
 11
37686.56652671107
 21
7274.628822744005
 31
0.0
 12
37700.56652671107
 22
7276.962156077337
 32
0.0
 13
37700.56652671107
 23
7276.962156077337
 33
0.0
  0
MTEXT
  5
144
330
13D
100
AcDbEntity
  8
AM_5
 62
     2
100
AcDbMText
 10
37500.56652671107
 20
7290.110177905441
 30
0.0
 40
14.0
 41
0.0
 71
     5
 72
     1
  1
400
 73
     1
 44
1.0
1001
ACAD
1000
MTEXTBEGIN
1070
    73
1070
     1
1070
    44
1040
1.0
1070
    74
1070
     0
1000
MTEXTEND
  0
POINT
  5
145
330
13D
100
AcDbEntity
  8
DEFPOINTS
 62
     0
100
AcDbPoint
 10
37300.56652671107
 20
7304.962156077185
 30
0.0
  0
POINT
  5
146
330
13D
100
AcDbEntity
  8
DEFPOINTS
 62
     0
100
AcDbPoint
 10
37700.56652671107
 20
7304.962156077206
 30
0.0
  0
POINT
  5
147
330
13D
100
AcDbEntity
  8
DEFPOINTS
 62
     0
100
AcDbPoint
 10
37700.56652671107
 20
7276.962156077337
 30
0.0
  0
ENDBLK
  5
148
330
13D
100
AcDbEntity
  8
0
100
AcDbBlockEnd
  0
BLOCK
  5
14B
330
14A
100
AcDbEntity
  8
0
100
AcDbBlockBegin
  2
Copyright_STEMPEL
 70
     0
 10
0.0
 20
0.0
 30
0.0
  3
Copyright_STEMPEL
  1

  0
LWPOLYLINE
  5
14C
330
14A
100
AcDbEntity
  8
DEFPOINTS
 62
     5
100
AcDbPolyline
 90
        4
 70
     1
 43
0.0
 10
0.0
 20
0.0
 10
1202.677593405797
 20
0.0
 10
1202.726711620808
 20
262.8636621728074
 10
-0.0491182150117311
 20
262.8636621728074
  0
LINE
  5
14D
330
14A
100
AcDbEntity
  8
DEFPOINTS
 62
     5
100
AcDbLine
 10
526.7915803193163
 20
262.8636621728074
 30
0.0
 11
526.7915803193163
 21
0.0
 31
0.0
  0
MTEXT
  5
14E
102
{ACAD_XDICTIONARY
360
14F
102
}
330
14A
100
AcDbEntity
  8
DEFPOINTS
 62
     5
100
AcDbMText
 10
536.8054341163797
 20
178.9138493061764
 30
0.0
 40
21.02909297382428
 41
282.9929776334785
 71
     1
 72
     5
  1
{\fCentury Gothic|b0|i0|c0|p34;Industriestra\U+00DFe 7-10\P74740 Adelsheim\PTel.: 06291-6259-0\PFax: 06291-6259-11\Pwww.glassline.de}
 73
     1
 44
1.0
1001
AcDbBlockRepETag
1070
     1
1071
        4
1005
0
1001
ACAD
1000
MTEXTBEGIN
1070
    73
1070
     1
1070
    44
1040
1.0
1070
    74
1070
     0
1000
MTEXTEND
1000
ACAD_MTEXT_DEFINED_HEIGHT_BEGIN
1070
    46
1040
143.7440021806846
1000
ACAD_MTEXT_DEFINED_HEIGHT_END
  0
IMAGE
  5
151
330
14A
100
AcDbEntity
  8
DEFPOINTS
 92
      140
310
8C00000001000000840000000600000005000000F8FC0F2855768040001A6BBEAF9D67400000000000000000F8FC0F2855768040D02F6D8FD16D704000000000000000007AC75832366A8B40D02F6D8FD16D704000000000000000007AC75832366A8B40001A6BBEAF9D67400000000000000000F8FC0F2855768040001A6B
310
BEAF9D67400000000000000000
100
AcDbRasterImage
 90
        0
 10
526.7915803193163
 20
188.9277031032397
 30
0.0
 11
0.7109226833612007
 21
0.0
 31
0.0
 12
0.0
 22
0.7109226833612007
 32
0.0
 13
493.0
 23
104.0
340
152
 70
     7
280
     0
281
    50
282
    50
283
     0
360
154
 71
     1
 91
        2
 14
-0.5
 24
-0.5
 14
492.4999999999999
 24
103.5
1001
AcDbBlockRepETag
1070
     1
1071
       21
1005
0
  0
IMAGE
  5
156
330
14A
100
AcDbEntity
  8
DEFPOINTS
 62
     5
 92
      140
310
8C0000000100000084000000060000000500000038107886E75E8D400000000000000000000000000000000038107886E75E8D40C02F6D8FD16D704000000000000000000C541727E8CA9240C02F6D8FD16D704000000000000000000C541727E8CA92400000000000000000000000000000000038107886E75E8D40000000
310
00000000000000000000000000
100
AcDbRasterImage
 90
        0
 10
939.8630494480086
 20
0.0
 30
0.0
 11
0.7965565520387993
 21
0.0
 31
0.0
 12
0.0
 22
0.7965565520387993
 32
0.0
 13
330.0
 23
330.0
340
157
 70
     7
280
     0
281
    50
282
    50
283
     0
360
158
 71
     1
 91
        2
 14
-0.5
 24
-0.5
 14
329.5
 24
329.5
1001
AcDbBlockRepETag
1070
     1
1071
       64
1005
0
  0
MTEXT
  5
159
102
{ACAD_XDICTIONARY
360
15A
102
}
330
14A
100
AcDbEntity
  8
DEFPOINTS
 62
     5
100
AcDbMText
 10
10.02435788320417
 20
252.8636621728074
 30
0.0
 40
14.0
 41
751.0390347794382
 71
     1
 72
     5
  3
{\fCentury Gothic|b0|i0|c0|p34;\C256;Alle Rechte vorbehalten, einschlie\U+00DFlich\PVervielf\U+00E4ltigung, Einlesen auf elektronischen\PDatentr\U+00E4gern und die Weitergabe an dritte\PPersonen nur nach ausdr\U+00FCcklicher Genehmigung\Pder Firma GL
  1
ASSLINE GmbH.\P\PAll rights reserved, including duplication, \Pimport on electronic data carries and \Pdisclosure to third parties only with \Pthe explicit permission of GLASSLINE GmbH.}
 73
     1
 44
1.0
1001
ACAD
1000
MTEXTBEGIN
1070
    73
1070
     1
1070
    44
1040
1.0
1070
    74
1070
     0
1000
MTEXTEND
  0
ENDBLK
  5
15B
330
14A
100
AcDbEntity
  8
0
100
AcDbBlockEnd
  0
ENDSEC
  0
SECTION
  2
ENTITIES
  0
LWPOLYLINE
  5
6A
330
2
100
AcDbEntity
  8
DEFPOINTS
100
AcDbPolyline
 90
        4
 70
     1
 43
0.0
 10
37198.26678736991
 20
8269.639204691896
 10
37773.77653717165
 20
8269.639204691896
 10
37773.77653717165
 20
7143.965539815083
 10
37198.26678736991
 20
7143.965539815083
1001
GENIUS_GENREC_14
1002
{
1000
PYDIR
1011
37198.26678736991
1021
7143.965539815083
1031
0.0
1002
}
1002
{
1000
PXDIR
1011
37773.77653717165
1021
8269.639204691896
1031
0.0
1002
}
1002
{
1000
PORI
1011
37198.26678736991
1021
8269.639204691896
1031
0.0
1002
}
1002
{
1000
PINS
1011
37198.26678736991
1021
8269.639204691896
1031
0.0
1002
}
1002
{
1000
PINS2
1011
37773.77653717165
1021
7143.965539815083
1031
0.0
1002
}
1002
{
1000
C
1070
     1
1002
}
1001
GENIUS_GENODEF_13
1002
{
1000
HIER
1070
     0
1002
}
1002
{
1000
MANEDIT
1070
     0
1002
}
1002
{
1000
NOSEL
1070
     0
1002
}
1002
{
1000
BEHIND
1070
     0
1002
}
1002
{
1000
OTHER
1070
     0
1002
}
1002
{
1000
REACTOR
1002
}
1001
GENIUS_GENOBJ-N-REC_13
1002
{
1000
OWNER
1000
GEN
1002
}
  0
MTEXT
  5
6E
330
2
100
AcDbEntity
  8
DEFPOINTS
100
AcDbMText
 10
37213.23860285213
 20
8252.279884210894
 30
0.0
 40
20.0
 41
555.8235716177769
 71
     1
 72
     5
  1
BALARDO hybrid lite, Side 1\PInnenecke ({\fISOCPEUR|b0|i0|c0|p34;inner corner)}
 73
     1
 44
1.0
1001
ACAD
1000
ACAD_MTEXT_COLUMN_INFO_BEGIN
1070
    75
1070
     2
1070
    79
1070
     0
1070
    76
1070
     1
1070
    78
1070
     0
1070
    48
1040
555.8235716177769
1070
    49
1040
12.5
1070
    50
1070
     1
1040
0.0
1000
ACAD_MTEXT_COLUMN_INFO_END
1000
MTEXTBEGIN
1070
    73
1070
     1
1070
    44
1040
1.0
1070
    74
1070
     0
1000
MTEXTEND
  0
INSERT
  5
6F
330
2
100
AcDbEntity
  8
0
100
AcDbBlockReference
  2
BHL-0-S1(S)
 10
37327.31652671107
 20
7985.400518928291
 30
0.0
 41
-1.0
  0
DIMENSION
  5
8C
330
2
100
AcDbEntity
  8
AM_5
100
AcDbDimension
  2
*D3
 10
37283.56652671088
 20
8076.400518928293
 30
0.0
 11
37276.99251579683
 21
8050.900518928084
 31
0.0
  1
<>
 71
     5
 42
51.00000000039563
  3
AM_DIN$0
100
AcDbAlignedDimension
 13
37297.56652671107
 23
8025.400518927895
 33
0.0
 14
37301.86652671107
 24
8076.400518928291
 34
0.0
 50
90.0
100
AcDbRotatedDimension
1001
ACAD
1000
DSTYLE
1002
{
1070
    40
1040
2.0
1002
}
1001
ACAD_DSTYLE_DIMINSPECT
1070
   396
1000
100%
1070
   395
1000

1070
   394
1070
    33
1070
   393
1070
     0
  0
DIMENSION
  5
9D
330
2
100
AcDbEntity
  8
AM_5
100
AcDbDimension
  2
*D4
 10
37283.56652671085
 20
8025.400518927899
 30
0.0
 11
37276.99251579679
 21
8000.900518927748
 31
0.0
  1
<>
 71
     5
 42
49.00000000027739
  3
AM_DIN$0
100
AcDbAlignedDimension
 13
37301.7860356495
 23
7976.400518927618
 33
0.0
 14
37297.56652671107
 24
8025.400518927895
 34
0.0
 50
90.0
100
AcDbRotatedDimension
1001
ACAD
1000
DSTYLE
1002
{
1070
    40
1040
2.0
1002
}
1001
ACAD_DSTYLE_DIMINSPECT
1070
   396
1000
100%
1070
   395
1000

1070
   394
1070
    33
1070
   393
1070
     0
  0
DIMENSION
  5
AA
330
2
100
AcDbEntity
  8
AM_5
100
AcDbDimension
  2
*D5
 10
37266.56652671084
 20
8076.400518928293
 30
0.0
 11
37259.99251579677
 21
8026.400518927946
 31
0.0
  1
<>
 71
     5
 42
100.000000000673
  3
AM_DIN$0
100
AcDbAlignedDimension
 13
37301.7860356495
 23
7976.400518927618
 33
0.0
 14
37301.86652671107
 24
8076.400518928291
 34
0.0
 50
90.0
100
AcDbRotatedDimension
1001
ACAD
1000
DSTYLE
1002
{
1070
    40
1040
2.0
1002
}
1001
ACAD_DSTYLE_DIMINSPECT
1070
   396
1000
100%
1070
   395
1000

1070
   394
1070
    33
1070
   393
1070
     0
  0
DIMENSION
  5
B7
330
2
100
AcDbEntity
  8
AM_5
100
AcDbDimension
  2
*D6
 10
37369.68625875807
 20
8035.400518927898
 30
0.0
 11
37369.68625875806
 21
8025.400518927886
 31
0.0
 70
   128
  1
%%C<>
 71
     5
 42
20.0
  3
AM_DIN$0
100
AcDbAlignedDimension
 13
37353.06652671108
 23
8015.400518927895
 33
0.0
 14
37353.06652671108
 24
8035.400518927895
 34
0.0
 50
90.0
100
AcDbRotatedDimension
1001
ACAD_DSTYLE_DIMINSPECT
1070
   396
1000
100%
1070
   395
1000

1070
   394
1070
    33
1070
   393
1070
     0
1001
ACAD
1000
DSTYLE
1002
{
1070
    40
1040
2.0
1002
}
  0
DIMENSION
  5
C4
330
2
100
AcDbEntity
  8
AM_5
100
AcDbDimension
  2
*D7
 10
37353.06652671108
 20
7959.200518927895
 30
0.0
 11
37326.81652671108
 21
7965.774529841946
 31
0.0
 71
     5
 42
52.50000000000728
  3
AM_DIN$0
100
AcDbAlignedDimension
 13
37300.56652671107
 23
7977.400342238327
 33
0.0
 14
37353.06652671108
 24
7976.704958322999
 34
0.0
 50
0.000000000000007
100
AcDbRotatedDimension
1001
ACAD
1000
DSTYLE
1002
{
1070
    40
1040
2.0
1002
}
1001
ACAD_DSTYLE_DIMINSPECT
1070
   396
1000
100%
1070
   395
1000

1070
   394
1070
    33
1070
   393
1070
     0
  0
DIMENSION
  5
D1
330
2
100
AcDbEntity
  8
AM_5
100
AcDbDimension
  2
*D8
 10
37324.21085048487
 20
8034.400518927899
 30
0.0
 11
37324.21085048487
 21
8025.400518927886
 31
0.0
 70
   128
  1
%%C<>
 71
     5
 42
18.0
  3
AM_DIN$0
100
AcDbAlignedDimension
 13
37307.56652671252
 23
8016.400518927895
 33
0.0
 14
37307.56652671333
 24
8034.400518927894
 34
0.0
 50
90.0
100
AcDbRotatedDimension
1001
ACAD_DSTYLE_DIMINSPECT
1070
   396
1000
100%
1070
   395
1000

1070
   394
1070
    33
1070
   393
1070
     0
1001
ACAD
1000
DSTYLE
1002
{
1070
    40
1040
2.0
1002
}
  0
DIMENSION
  5
E0
330
2
100
AcDbEntity
  8
AM_5
100
AcDbDimension
  2
*D9
 10
37272.56652671123
 20
7704.962156077184
 30
0.0
 11
37259.41850488311
 21
7504.962156077171
 31
0.0
  1
<>
 71
     5
 42
400.0
  3
AM_DIN$0
100
AcDbAlignedDimension
 13
37300.56652671107
 23
7304.96215607718
 33
0.0
 14
37300.56652671107
 24
7704.962156077179
 34
0.0
 50
90.0
100
AcDbRotatedDimension
1001
ACAD_DSTYLE_DIMINSPECT
1070
   396
1000
100%
1070
   395
1000

1070
   394
1070
    33
1070
   393
1070
     0
1001
ACAD
1000
DSTYLE
1002
{
1070
    40
1040
4.0
1002
}
  0
LWPOLYLINE
  5
ED
330
2
100
AcDbEntity
  8
-PROFILAUSSENKANTET
100
AcDbPolyline
 90
        5
 70
     0
 43
0.0
 10
37353.06652671107
 20
7357.462156077184
 10
37353.06652671107
 20
7704.962156077179
 10
37300.56652671107
 20
7704.962156077179
 10
37300.56652671107
 20
7304.962156077184
 10
37353.06652671107
 20
7357.462156077184
  0
LINE
  5
EE
330
2
100
AcDbEntity
  8
-PROFILAUSSENKANTET
100
AcDbLine
 10
37348.80413121569
 20
7704.962156077179
 30
0.0
 11
37348.80413121569
 21
7353.199760581802
 31
0.0
  0
LINE
  5
EF
330
2
100
AcDbEntity
  8
-PROFILAUSSENKANTET
100
AcDbLine
 10
37301.56652671107
 20
7704.962156077179
 30
0.0
 11
37301.56652671107
 21
7305.962156077185
 31
0.0
  0
LINE
  5
F0
330
2
100
AcDbEntity
  8
-PROFILAUSSENKANTET
100
AcDbLine
 10
37342.84111534641
 20
7704.962156077179
 30
0.0
 11
37342.84111534641
 21
7347.236744712521
 31
0.0
  0
LINE
  5
F1
330
2
100
AcDbEntity
  8
-PROFILAUSSENKANTET
100
AcDbLine
 10
37305.82892220646
 20
7704.962156077179
 30
0.0
 11
37305.82892220646
 21
7310.224551572573
 31
0.0
  0
LINE
  5
F2
330
2
100
AcDbEntity
  8
-PROFILAUSSENKANTET
  6
ACDINTGL
100
AcDbLine
 10
37308.56652671107
 20
7704.962156077179
 30
0.0
 11
37308.56652671107
 21
7312.962156077183
 31
0.0
  0
LWPOLYLINE
  5
F4
330
2
100
AcDbEntity
  8
-PROFILAUSSENKANTET
  6
ACDINTGL
100
AcDbPolyline
 90
        4
 70
     1
 43
0.0
 10
37300.56652671107
 20
7623.962156077181
 10
37300.56652671107
 20
7605.96215607718
 10
37308.56652671107
 20
7605.96215607718
 10
37308.56652671107
 20
7623.962156077181
1001
GENIUS_GENREC_14
1002
{
1000
PYDIR
1011
37309.56210777746
1021
7623.962156077181
1031
0.0
1002
}
1002
{
1000
PXDIR
1011
37300.56652671107
1021
7605.96215607718
1031
0.0
1002
}
1002
{
1000
PORI
1011
37300.56652671107
1021
7623.962156077181
1031
0.0
1002
}
1002
{
1000
PINS
1011
37300.56652671107
1021
7623.962156077181
1031
0.0
1002
}
1002
{
1000
PINS2
1011
37309.56210777746
1021
7605.96215607718
1031
0.0
1002
}
1002
{
1000
C
1070
     1
1002
}
1001
GENIUS_GENOBJ-N-REC_13
1002
{
1000
OWNER
1000
GEN
1002
}
1001
GENIUS_GENODEF_13
1002
{
1000
HIER
1070
     0
1002
}
1002
{
1000
MANEDIT
1070
     0
1002
}
1002
{
1000
NOSEL
1070
     0
1002
}
1002
{
1000
BEHIND
1070
     0
1002
}
1002
{
1000
OTHER
1070
     0
1002
}
1002
{
1000
REACTOR
1002
}
  0
LWPOLYLINE
  5
F5
330
2
100
AcDbEntity
  8
-PROFILAUSSENKANTET
  6
ACDINTGL
100
AcDbPolyline
 90
        4
 70
     1
 43
0.0
 10
37347.1603734428
 20
7624.962156077183
 10
37347.1603734428
 20
7604.962156077182
 10
37353.06652671108
 20
7604.962156077182
 10
37353.06652671108
 20
7624.962156077183
1001
GENIUS_GENREC_14
1002
{
1000
PYDIR
1011
37364.57114821991
1021
7627.462156077182
1031
0.0
1002
}
1002
{
1000
PXDIR
1011
37352.13197511644
1021
7602.462156077182
1031
0.0
1002
}
1002
{
1000
PORI
1011
37352.13197511644
1021
7627.462156077182
1031
0.0
1002
}
1002
{
1000
PINS
1011
37352.13197511644
1021
7627.462156077182
1031
0.0
1002
}
1002
{
1000
PINS2
1011
37364.57114821991
1021
7602.462156077182
1031
0.0
1002
}
1002
{
1000
C
1070
     1
1002
}
1001
GENIUS_GENOBJ-N-REC_13
1002
{
1000
OWNER
1000
GEN
1002
}
1001
GENIUS_GENODEF_13
1002
{
1000
HIER
1070
     0
1002
}
1002
{
1000
MANEDIT
1070
     0
1002
}
1002
{
1000
NOSEL
1070
     0
1002
}
1002
{
1000
BEHIND
1070
     0
1002
}
1002
{
1000
OTHER
1070
     0
1002
}
1002
{
1000
REACTOR
1002
}
  0
LINE
  5
F6
330
2
100
AcDbEntity
  8
-ACHSE
  6
AM_DIN_G_W050x2
100
AcDbLine
 10
37297.56652671107
 20
7614.96215607718
 30
0.0
 11
37311.56652671107
 21
7614.96215607718
 31
0.0
1001
GENIUS_GENOBJ-N-CEN_13
1002
{
1000
OWNER
1000
GEN
1002
}
1001
GENIUS_GENODEF_13
1002
{
1000
HIER
1070
     0
1002
}
1002
{
1000
MANEDIT
1070
     0
1002
}
1002
{
1000
NOSEL
1070
     0
1002
}
1002
{
1000
BEHIND
1070
     0
1002
}
1002
{
1000
OTHER
1070
     0
1002
}
1002
{
1000
REACTOR
1002
}
1001
GENIUS_GENCEN_19
1002
{
1040
3.0
1002
}
  0
LINE
  5
F7
330
2
100
AcDbEntity
  8
-ACHSE
  6
AM_DIN_G_W050x2
100
AcDbLine
 10
37356.06652671108
 20
7614.962156077182
 30
0.0
 11
37344.1603734428
 21
7614.962156077182
 31
0.0
1001
GENIUS_GENOBJ-N-CEN_13
1002
{
1000
OWNER
1000
GEN
1002
}
1001
GENIUS_GENODEF_13
1002
{
1000
HIER
1070
     0
1002
}
1002
{
1000
MANEDIT
1070
     0
1002
}
1002
{
1000
NOSEL
1070
     0
1002
}
1002
{
1000
BEHIND
1070
     0
1002
}
1002
{
1000
OTHER
1070
     0
1002
}
1002
{
1000
REACTOR
1002
}
1001
GENIUS_GENCEN_19
1002
{
1040
3.0
1002
}
  0
LINE
  5
F8
330
2
100
AcDbEntity
  8
-PROFILAUSSENKANTET
100
AcDbLine
 10
37310.92461405463
 20
7704.962156077179
 30
0.0
 11
37310.92461405463
 21
7315.320243420749
 31
0.0
  0
LINE
  5
F9
330
2
100
AcDbEntity
  8
-PROFILAUSSENKANTET
  6
ACDINTGL
100
AcDbLine
 10
37347.1603734428
 20
7704.962156077179
 30
0.0
 11
37347.1603734428
 21
7351.556002808916
 31
0.0
  0
DIMENSION
  5
FA
330
2
100
AcDbEntity
  8
AM_5
100
AcDbDimension
  2
*D10
 10
37300.56652671107
 20
7732.96215607718
 30
0.0
 11
37326.81652671107
 21
7746.110177905284
 31
0.0
  1
<>
 71
     5
 42
52.5
  3
AM_DIN$0
100
AcDbAlignedDimension
 13
37353.06652671107
 23
7704.962156077179
 33
0.0
 14
37300.56652671107
 24
7704.962156077179
 34
0.0
 50
180.0
100
AcDbRotatedDimension
1001
ACAD_DSTYLE_DIMINSPECT
1070
   396
1000
100%
1070
   395
1000

1070
   394
1070
    33
1070
   393
1070
     0
1001
ACAD
1000
DSTYLE
1002
{
1070
    40
1040
4.0
1002
}
  0
DIMENSION
  5
107
330
2
100
AcDbEntity
  8
AM_5
100
AcDbDimension
  2
*D11
 10
37391.06733842686
 20
7704.962156077184
 30
0.0
 11
37377.91931659875
 21
7659.96215607717
 31
0.0
  1
<>
 71
     5
 42
90.0
  3
AM_DIN$0
100
AcDbAlignedDimension
 13
37356.06652671107
 23
7614.96215607718
 33
0.0
 14
37353.06652671107
 24
7704.962156077179
 34
0.0
 50
90.0
100
AcDbRotatedDimension
1001
ACAD_DSTYLE_DIMINSPECT
1070
   396
1000
100%
1070
   395
1000

1070
   394
1070
    33
1070
   393
1070
     0
1001
ACAD
1000
DSTYLE
1002
{
1070
    40
1040
4.0
1002
}
  0
LWPOLYLINE
  5
114
330
2
100
AcDbEntity
  8
-PROFILAUSSENKANTET
100
AcDbPolyline
 90
        5
 70
     0
 43
0.0
 10
37353.06652671107
 20
7357.462156077184
 10
37700.56652671107
 20
7357.462156077207
 10
37700.56652671107
 20
7304.962156077206
 10
37300.56652671108
 20
7304.962156077185
 10
37353.06652671107
 20
7357.462156077184
  0
LINE
  5
115
330
2
100
AcDbEntity
  8
-PROFILAUSSENKANTET
100
AcDbLine
 10
37700.56652671107
 20
7353.199760581825
 30
0.0
 11
37348.80413121569
 21
7353.199760581803
 31
0.0
  0
LINE
  5
116
330
2
100
AcDbEntity
  8
-PROFILAUSSENKANTET
100
AcDbLine
 10
37700.56652671107
 20
7305.962156077207
 30
0.0
 11
37301.56652671107
 21
7305.962156077185
 31
0.0
  0
LINE
  5
117
330
2
100
AcDbEntity
  8
-PROFILAUSSENKANTET
100
AcDbLine
 10
37700.56652671107
 20
7347.236744712543
 30
0.0
 11
37342.84111534641
 21
7347.236744712522
 31
0.0
  0
LINE
  5
118
330
2
100
AcDbEntity
  8
-PROFILAUSSENKANTET
100
AcDbLine
 10
37700.56652671107
 20
7310.224551572595
 30
0.0
 11
37305.82892220646
 21
7310.224551572574
 31
0.0
  0
LINE
  5
119
330
2
100
AcDbEntity
  8
-PROFILAUSSENKANTET
  6
ACDINTGL
100
AcDbLine
 10
37700.56652671107
 20
7312.962156077206
 30
0.0
 11
37308.56652671107
 21
7312.962156077185
 31
0.0
  0
LWPOLYLINE
  5
11A
330
2
100
AcDbEntity
  8
-PROFILAUSSENKANTET
  6
ACDINTGL
100
AcDbPolyline
 90
        4
 70
     1
 43
0.0
 10
37619.56652671107
 20
7304.962156077206
 10
37601.56652671107
 20
7304.962156077199
 10
37601.56652671107
 20
7312.962156077199
 10
37619.56652671107
 20
7312.962156077206
1001
GENIUS_GENREC_14
1002
{
1000
PYDIR
1011
37619.56652671107
1021
7313.957737143603
1031
0.0
1002
}
1002
{
1000
PXDIR
1011
37601.56652671107
1021
7304.962156077199
1031
0.0
1002
}
1002
{
1000
PORI
1011
37619.56652671107
1021
7304.962156077206
1031
0.0
1002
}
1002
{
1000
PINS
1011
37619.56652671107
1021
7304.962156077206
1031
0.0
1002
}
1002
{
1000
PINS2
1011
37601.56652671107
1021
7313.957737143595
1031
0.0
1002
}
1002
{
1000
C
1070
     1
1002
}
1001
GENIUS_GENOBJ-N-REC_13
1002
{
1000
OWNER
1000
GEN
1002
}
1001
GENIUS_GENODEF_13
1002
{
1000
HIER
1070
     0
1002
}
1002
{
1000
MANEDIT
1070
     0
1002
}
1002
{
1000
NOSEL
1070
     0
1002
}
1002
{
1000
BEHIND
1070
     0
1002
}
1002
{
1000
OTHER
1070
     0
1002
}
1002
{
1000
REACTOR
1002
}
  0
LWPOLYLINE
  5
11B
330
2
100
AcDbEntity
  8
-PROFILAUSSENKANTET
  6
ACDINTGL
100
AcDbPolyline
 90
        4
 70
     1
 43
0.0
 10
37620.56652671107
 20
7351.556002808938
 10
37600.56652671107
 20
7351.556002808931
 10
37600.56652671107
 20
7357.462156077207
 10
37620.56652671107
 20
7357.462156077215
1001
GENIUS_GENREC_14
1002
{
1000
PYDIR
1011
37623.06652671107
1021
7368.966777586044
1031
0.0
1002
}
1002
{
1000
PXDIR
1011
37598.06652671107
1021
7356.527604482574
1031
0.0
1002
}
1002
{
1000
PORI
1011
37623.06652671107
1021
7356.527604482581
1031
0.0
1002
}
1002
{
1000
PINS
1011
37623.06652671107
1021
7356.527604482581
1031
0.0
1002
}
1002
{
1000
PINS2
1011
37598.06652671107
1021
7368.966777586035
1031
0.0
1002
}
1002
{
1000
C
1070
     1
1002
}
1001
GENIUS_GENOBJ-N-REC_13
1002
{
1000
OWNER
1000
GEN
1002
}
1001
GENIUS_GENODEF_13
1002
{
1000
HIER
1070
     0
1002
}
1002
{
1000
MANEDIT
1070
     0
1002
}
1002
{
1000
NOSEL
1070
     0
1002
}
1002
{
1000
BEHIND
1070
     0
1002
}
1002
{
1000
OTHER
1070
     0
1002
}
1002
{
1000
REACTOR
1002
}
  0
LINE
  5
11C
330
2
100
AcDbEntity
  8
-ACHSE
  6
AM_DIN_G_W050x2
100
AcDbLine
 10
37610.56652671107
 20
7301.962156077206
 30
0.0
 11
37610.56652671107
 21
7315.962156077207
 31
0.0
1001
GENIUS_GENOBJ-N-CEN_13
1002
{
1000
OWNER
1000
GEN
1002
}
1001
GENIUS_GENODEF_13
1002
{
1000
HIER
1070
     0
1002
}
1002
{
1000
MANEDIT
1070
     0
1002
}
1002
{
1000
NOSEL
1070
     0
1002
}
1002
{
1000
BEHIND
1070
     0
1002
}
1002
{
1000
OTHER
1070
     0
1002
}
1002
{
1000
REACTOR
1002
}
1001
GENIUS_GENCEN_19
1002
{
1040
3.0
1002
}
  0
LINE
  5
11D
330
2
100
AcDbEntity
  8
-ACHSE
  6
AM_DIN_G_W050x2
100
AcDbLine
 10
37610.56652671107
 20
7360.462156077215
 30
0.0
 11
37610.56652671107
 21
7348.556002808938
 31
0.0
1001
GENIUS_GENOBJ-N-CEN_13
1002
{
1000
OWNER
1000
GEN
1002
}
1001
GENIUS_GENODEF_13
1002
{
1000
HIER
1070
     0
1002
}
1002
{
1000
MANEDIT
1070
     0
1002
}
1002
{
1000
NOSEL
1070
     0
1002
}
1002
{
1000
BEHIND
1070
     0
1002
}
1002
{
1000
OTHER
1070
     0
1002
}
1002
{
1000
REACTOR
1002
}
1001
GENIUS_GENCEN_19
1002
{
1040
3.0
1002
}
  0
LINE
  5
11E
330
2
100
AcDbEntity
  8
-PROFILAUSSENKANTET
100
AcDbLine
 10
37700.56652671107
 20
7315.320243420771
 30
0.0
 11
37310.92461405464
 21
7315.320243420749
 31
0.0
  0
LINE
  5
11F
330
2
100
AcDbEntity
  8
-PROFILAUSSENKANTET
  6
ACDINTGL
100
AcDbLine
 10
37700.56652671107
 20
7351.556002808938
 30
0.0
 11
37347.1603734428
 21
7351.556002808917
 31
0.0
  0
DIMENSION
  5
120
330
2
100
AcDbEntity
  8
AM_5
100
AcDbDimension
  2
*D12
 10
37728.56652671108
 20
7304.962156077211
 30
0.0
 11
37715.41850488297
 21
7331.212156077197
 31
0.0
  1
<>
 71
     5
 42
52.5
  3
AM_DIN$0
100
AcDbAlignedDimension
 13
37700.56652671107
 23
7357.462156077207
 33
0.0
 14
37700.56652671107
 24
7304.962156077206
 34
0.0
 50
270.0
100
AcDbRotatedDimension
1001
ACAD_DSTYLE_DIMINSPECT
1070
   396
1000
100%
1070
   395
1000

1070
   394
1070
    33
1070
   393
1070
     0
1001
ACAD
1000
DSTYLE
1002
{
1070
    40
1040
4.0
1002
}
  0
DIMENSION
  5
12D
330
2
100
AcDbEntity
  8
AM_5
100
AcDbDimension
  2
*D13
 10
37700.56652671107
 20
7395.462967793013
 30
0.0
 11
37655.56652671107
 21
7408.610989621116
 31
0.0
  1
<>
 71
     5
 42
90.0
  3
AM_DIN$0
100
AcDbAlignedDimension
 13
37610.56652671107
 23
7360.462156077208
 33
0.0
 14
37700.56652671107
 24
7357.462156077207
 34
0.0
100
AcDbRotatedDimension
1001
ACAD_DSTYLE_DIMINSPECT
1070
   396
1000
100%
1070
   395
1000

1070
   394
1070
    33
1070
   393
1070
     0
1001
ACAD
1000
DSTYLE
1002
{
1070
    40
1040
4.0
1002
}
  0
LWPOLYLINE
  5
13A
330
2
100
AcDbEntity
  8
DEFPOINTS
  6
ACISOTGB
100
AcDbPolyline
 90
        3
 70
     0
 43
0.0
 10
37327.31652671107
 20
7707.962156077179
 10
37327.31652671108
 20
7331.712156077185
 10
37703.56652671107
 20
7331.712156077206
  0
DIMENSION
  5
13C
330
2
100
AcDbEntity
  8
AM_5
100
AcDbDimension
  2
*D14
 10
37700.56652671107
 20
7276.962156077337
 30
0.0
 11
37500.56652671107
 21
7290.110177905441
 31
0.0
  1
<>
 71
     5
 42
400.0
  3
AM_DIN$0
100
AcDbAlignedDimension
 13
37300.56652671107
 23
7304.962156077185
 33
0.0
 14
37700.56652671107
 24
7304.962156077206
 34
0.0
100
AcDbRotatedDimension
1001
ACAD_DSTYLE_DIMINSPECT
1070
   396
1000
100%
1070
   395
1000

1070
   394
1070
    33
1070
   393
1070
     0
1001
ACAD
1000
DSTYLE
1002
{
1070
    40
1040
4.0
1002
}
  0
INSERT
  5
149
330
2
100
AcDbEntity
  8
DEFPOINTS
100
AcDbBlockReference
  2
Copyright_STEMPEL
 10
37590.75744958066
 20
8229.639205391498
 30
0.0
 41
0.1521701362600958
 42
0.1521701362600958
 43
0.1521701362600958
  0
ENDSEC
  0
SECTION
  2
OBJECTS
  0
DICTIONARY
  5
A
330
0
100
AcDbDictionary
281
     1
  3
ACAD_2007HEADERVARS_RT
350
1C3
  3
ACAD_COLOR
350
41
  3
ACAD_DETAILVIEWSTYLE
350
17A
  3
ACAD_FIELDLIST
350
1B2
  3
ACAD_GROUP
350
38
  3
ACAD_IMAGE_DICT
350
153
  3
ACAD_IMAGE_VARS
350
155
  3
ACAD_LAYOUT
350
9
  3
ACAD_MATERIAL
350
19
  3
ACAD_MLEADERSTYLE
350
44
  3
ACAD_MLINESTYLE
350
39
  3
ACAD_PLOTSETTINGS
350
3A
  3
ACAD_PLOTSTYLENAME
350
17
  3
ACAD_SCALELIST
350
42
  3
ACAD_SECTIONVIEWSTYLE
350
186
  3
ACAD_TABLESTYLE
350
43
  3
ACAD_VISUALSTYLE
350
30
  3
ACDB_RECOMPOSE_DATA
350
1C2
  3
AcDbVariableDictionary
350
45
  3
AcDsDecomposeData
350
1CD
  3
AcmDictionary
350
16E
  3
AcmSystemVariableManager
350
1DA
  3
AMG
350
15E
  0
DICTIONARY
  5
22
330
13
100
AcDbDictionary
280
     1
281
     1
  3
ACAD_LAYERSTATES
360
23
  3
AMLAYER_GROUPCOLORS
360
24
  0
DICTIONARY
  5
15
330
14
100
AcDbDictionary
280
     1
281
     1
  0
DICTIONARY
  5
7B
330
7A
100
AcDbDictionary
280
     1
281
     1
  0
DICTIONARY
  5
52
330
51
100
AcDbDictionary
280
     1
281
     1
  0
DICTIONARY
  5
74
330
73
100
AcDbDictionary
280
     1
281
     1
  0
DICTIONARY
  5
3
330
2
100
AcDbDictionary
280
     1
281
     1
  3
ACAD_ASSOCNETWORK
360
4
  3
ACAD_SORTENTS
360
15C
  0
DICTIONARY
  5
E
330
D
100
AcDbDictionary
280
     1
281
     1
  3
ACAD_SORTENTS
360
F
  0
DICTIONARY
  5
14F
330
14E
100
AcDbDictionary
280
     1
281
     1
  3
ACAD_MTEXT_2008_RT
360
1C1
  3
ACAD_MTEXT_RT
360
1E5
  0
IMAGEDEF_REACTOR
  5
154
330
151
100
AcDbRasterImageDefReactor
 90
        2
330
151
  0
IMAGEDEF_REACTOR
  5
158
330
156
100
AcDbRasterImageDefReactor
 90
        2
330
156
  0
DICTIONARY
  5
15A
330
159
100
AcDbDictionary
280
     1
281
     1
  3
ACAD_MTEXT_RT
360
1E6
  0
DICTIONARY
  5
1C3
102
{ACAD_REACTORS
330
A
102
}
330
A
100
AcDbDictionary
281
     1
  3
DIMJOGANG
350
1C4
  3
DIMLTEX1
350
1C6
  3
DIMLTEX2
350
1C7
  3
DIMLTYPE
350
1C5
  0
DICTIONARY
  5
41
102
{ACAD_REACTORS
330
A
102
}
330
A
100
AcDbDictionary
281
     1
  0
DICTIONARY
  5
17A
102
{ACAD_REACTORS
330
A
102
}
330
A
100
AcDbDictionary
281
     1
  3
Imperial24
350
181
  3
Metric50
350
183
  0
FIELDLIST
  5
1B2
102
{ACAD_REACTORS
330
A
102
}
330
A
100
AcDbIdSet
 90
        6
330
17D
330
17E
330
17F
330
189
330
18A
330
18B
100
AcDbFieldList
  0
DICTIONARY
  5
38
102
{ACAD_REACTORS
330
A
102
}
330
A
100
AcDbDictionary
281
     1
  0
DICTIONARY
  5
153
102
{ACAD_REACTORS
330
A
102
}
330
A
100
AcDbDictionary
281
     1
  3
Glassline_Logo_RGB_72dpi
350
152
  3
www
350
157
  0
RASTERVARIABLES
  5
155
102
{ACAD_REACTORS
330
A
102
}
330
A
100
AcDbRasterVariables
 90
        0
 70
     1
 71
     1
 72
     1
  0
DICTIONARY
  5
9
102
{ACAD_REACTORS
330
A
102
}
330
A
100
AcDbDictionary
281
     1
  3
hybrid lite
350
12
  3
Model
350
8
  0
DICTIONARY
  5
19
102
{ACAD_REACTORS
330
A
102
}
330
A
100
AcDbDictionary
281
     1
  3
ByBlock
350
3E
  3
ByLayer
350
3B
  3
Global
350
18
  0
DICTIONARY
  5
44
102
{ACAD_REACTORS
330
A
102
}
330
A
100
AcDbDictionary
281
     1
  0
DICTIONARY
  5
39
102
{ACAD_REACTORS
330
A
102
}
330
A
100
AcDbDictionary
281
     1
  3
Standard
350
54
  0
DICTIONARY
  5
3A
102
{ACAD_REACTORS
330
A
102
}
330
A
100
AcDbDictionary
281
     1
  0
ACDBDICTIONARYWDFLT
  5
17
102
{ACAD_REACTORS
330
A
102
}
330
A
100
AcDbDictionary
281
     1
  3
Normal
350
16
100
AcDbDictionaryWithDefault
340
16
  0
DICTIONARY
  5
42
102
{ACAD_REACTORS
330
A
102
}
330
A
100
AcDbDictionary
281
     1
  3
A0
350
59
  3
A1
350
5A
  3
A2
350
5B
  3
A3
350
5C
  3
A4
350
5D
  3
A5
350
5E
  3
A6
350
5F
  3
A7
350
60
  3
A8
350
61
  3
A9
350
62
  3
B0
350
63
  3
B1
350
64
  3
B2
350
65
  3
B3
350
66
  3
B4
350
67
  3
B5
350
68
  3
B6
350
69
  0
DICTIONARY
  5
186
102
{ACAD_REACTORS
330
A
102
}
330
A
100
AcDbDictionary
281
     1
  3
Imperial24
350
191
  3
Metric50
350
193
  0
DICTIONARY
  5
43
102
{ACAD_REACTORS
330
A
102
}
330
A
100
AcDbDictionary
281
     1
  3
Standard
350
55
  0
DICTIONARY
  5
30
102
{ACAD_REACTORS
330
A
102
}
330
A
100
AcDbDictionary
281
     1
  3
2dWireframe
350
2F
  3
EdgeColorOff
350
94
  3
Realistic
350
57
  3
Wireframe
350
58
  0
XRECORD
  5
1C2
102
{ACAD_REACTORS
330
A
102
}
330
A
100
AcDbXrecord
280
     1
 90
        1
330
55
330
6E
330
14E
  0
DICTIONARY
  5
45
102
{ACAD_REACTORS
330
A
102
}
330
A
100
AcDbDictionary
281
     1
  3
CANNOSCALE
350
46
  3
CMLEADERSTYLE
350
47
  3
CTABLESTYLE
350
48
  3
CVIEWDETAILSTYLE
350
49
  3
CVIEWSECTIONSTYLE
350
4A
  3
DIMASSOC
350
4B
  3
HIDETEXT
350
4C
  3
HPCOLOR
350
4D
  3
HPTRANSPARENCY
350
4E
  3
INDEXCTL
350
1BC
  3
LAYEREVAL
350
4F
  3
LAYERNOTIFY
350
50
  3
LIGHTINGUNITS
350
1BA
  3
MSLTSCALE
350
1B9
  3
PSOLHEIGHT
350
1BE
  3
PSOLWIDTH
350
1BD
  3
SORTENTS
350
1BB
  3
XCLIPFRAME
350
1BF
  0
DICTIONARY
  5
1CD
102
{ACAD_REACTORS
330
A
102
}
330
A
100
AcDbDictionary
281
     1
  3
AcDsRecords
350
1CF
  3
AcDsSchemas
350
1CE
1001
ACAD
1070
     2
  0
DICTIONARY
  5
16E
102
{ACAD_REACTORS
330
A
102
}
330
A
100
AcDbDictionary
281
     1
  3
AcmStdDictionary
350
16F
  0
DICTIONARY
  5
15E
102
{ACAD_REACTORS
330
A
102
}
330
A
100
AcDbDictionary
281
     1
  3
AcMgSettings
350
167
  0
DICTIONARY
  5
23
102
{ACAD_REACTORS
330
22
102
}
330
22
100
AcDbDictionary
281
     1
  0
DICTIONARY
  5
24
102
{ACAD_REACTORS
330
22
102
}
330
22
100
AcDbDictionary
280
     1
281
     1
  0
DICTIONARY
  5
4
102
{ACAD_REACTORS
330
3
102
}
330
3
100
AcDbDictionary
281
     1
  0
SORTENTSTABLE
  5
15C
102
{ACAD_REACTORS
330
3
102
}
330
3
100
AcDbSortentsTable
330
2
  0
SORTENTSTABLE
  5
F
102
{ACAD_REACTORS
330
E
102
}
330
E
100
AcDbSortentsTable
330
D
  0
XRECORD
  5
1C1
102
{ACAD_REACTORS
330
14F
102
}
330
14F
100
AcDbXrecord
280
     1
 40
643794.0
  1
\pxql;{\fCentury Gothic|b0|i0|c0|p34;Industriestraße 7-10\P74740 Adelsheim\PTel.: 06291-6259-0\PFax: 06291-6259-11\Pwww.glassline.de}
  0
XRECORD
  5
1E5
102
{ACAD_REACTORS
330
14F
102
}
330
14F
100
AcDbXrecord
280
     1
 40
691654.0
  1
{\fCentury Gothic|b0|i0|c0|p34;Industriestraße 7-10\P74740 Adelsheim\PTel.: 06291-6259-0\PFax: 06291-6259-11\Pwww.glassline.de}
  0
XRECORD
  5
1E6
102
{ACAD_REACTORS
330
15A
102
}
330
15A
100
AcDbXrecord
280
     1
 40
8772606.0
  1
{\fCentury Gothic|b0|i0|c0|p34;\C256;Alle Rechte vorbehalten, einschließlich\PVervielfältigung, Einlesen auf elektronischen\PDatenträgern und die Weitergabe an dritte\PPersonen nur nach ausdrücklicher Genehmigung\Pder Firma GLASSLINE GmbH.\P\PAll rig
  1
hts reserved, including duplication, \Pimport on electronic data carries and \Pdisclosure to third parties only with \Pthe explicit permission of GLASSLINE GmbH.}
  0
XRECORD
  5
1C4
102
{ACAD_REACTORS
330
1C3
102
}
330
1C3
100
AcDbXrecord
280
     1
 40
1.570796326794896
  0
XRECORD
  5
1C6
102
{ACAD_REACTORS
330
1C3
102
}
330
1C3
100
AcDbXrecord
280
     1
340
29
  0
XRECORD
  5
1C7
102
{ACAD_REACTORS
330
1C3
102
}
330
1C3
100
AcDbXrecord
280
     1
340
29
  0
XRECORD
  5
1C5
102
{ACAD_REACTORS
330
1C3
102
}
330
1C3
100
AcDbXrecord
280
     1
340
29
  0
ACDBDETAILVIEWSTYLE
  5
181
102
{ACAD_XDICTIONARY
360
1E7
102
}
102
{ACAD_REACTORS
330
17A
330
180
102
}
330
17A
100
AcDbModelDocViewStyle
 70
     0
  3
Imperial24
290
     0
100
AcDbDetailViewStyle
 70
     0
 71
     0
 90
        3
 71
     1
340
26
 40
0.24
340
0
 40
0.24
300

 40
0.36
280
     3
 71
     2
340
21
 90
       25
 71
     3
340
26
 40
0.24
 90
        1
 40
0.75
 90
        1
300
%<\AcVar ViewType \f "%tc1">% %<\AcVar ViewDetailId>%\PVARIA %<\AcVar ViewScale \f "%sn">%
 71
     4
340
21
 90
       25
340
21
 90
       25
280
     0
  0
ACDBDETAILVIEWSTYLE
  5
183
102
{ACAD_XDICTIONARY
360
1E9
102
}
102
{ACAD_REACTORS
330
17A
330
182
102
}
330
17A
100
AcDbModelDocViewStyle
 70
     0
  3
Metric50
290
     0
100
AcDbDetailViewStyle
 70
     0
 71
     0
 90
        3
 71
     1
340
26
 40
5.0
340
0
 40
5.0
300

 40
0.0
280
     1
 71
     2
340
21
 90
       25
 71
     3
340
26
 40
5.0
 90
        0
 40
15.0
 90
        1
300
%<\AcVar ViewDetailId>% (%<\AcVar ViewScale \f "%sn">%)
 71
     4
340
21
 90
       25
340
21
 90
       25
280
     0
  0
IMAGEDEF
  5
152
102
{ACAD_REACTORS
330
153
330
154
102
}
330
153
100
AcDbRasterImageDef
 90
        0
  1
T:\Marketing\Öffentlich\Logo\Glassline_Logo_RGB_72dpi.jpg
 10
493.0
 20
104.0
 11
0.3527777777777778
 21
0.3527777777777778
280
     1
281
     5
  0
IMAGEDEF
  5
157
102
{ACAD_REACTORS
330
153
330
158
102
}
330
153
100
AcDbRasterImageDef
 90
        0
  1
T:\Technik\Öffentlich\www.glassline.de-QR.jpg
 10
330.0
 20
330.0
 11
0.003030303030303
 21
0.003030303030303
280
     1
281
     0
  0
LAYOUT
  5
12
102
{ACAD_XDICTIONARY
360
1D1
102
}
102
{ACAD_REACTORS
330
9
102
}
330
9
100
AcDbPlotSettings
  1

  2
Kein
  4
ISO_A4_(210.00_x_297.00_MM)
  6

 40
7.5
 41
20.0
 42
7.5
 43
20.0
 44
210.0
 45
297.0
 46
0.0
 47
0.0
 48
0.0
 49
0.0
140
0.0
141
0.0
142
1.0
143
1.0
 70
   688
 72
     1
 73
     1
 74
     5
  7

 75
    16
147
1.0
148
0.0
149
0.0
100
AcDbLayout
  1
hybrid lite
 70
     1
 71
     7
 10
0.0
 20
0.0
 11
12.0
 21
9.0
 12
0.0
 22
0.0
 32
0.0
 14
-336.0581622965808
 24
-2275.066915115365
 34
0.0
 15
2200.992315193187
 25
732.75702618344
 35
0.0
146
0.0
 13
0.0
 23
0.0
 33
0.0
 16
1.0
 26
0.0
 36
0.0
 17
0.0
 27
1.0
 37
0.0
 76
     0
330
D
1001
ACAD_PSEXT
1000
Kein
1000
Kein
1000
Nicht anwendbar
1000
Das Layout wird erst geplottet, wenn ein neuer Plotter-Konfigurationsname ausgewählt wird.
1070
     0
  0
LAYOUT
  5
8
102
{ACAD_XDICTIONARY
360
B
102
}
102
{ACAD_REACTORS
330
9
102
}
330
9
100
AcDbPlotSettings
  1

  2
none_device
  4
ISO_A4_(210.00_x_297.00_MM)
  6

 40
7.5
 41
20.0
 42
7.5
 43
20.0
 44
210.0
 45
297.0
 46
11.54999923706054
 47
-13.65000009536743
 48
0.0
 49
0.0
140
0.0
141
0.0
142
1.0
143
8.704084754739808
 70
 11952
 72
     1
 73
     0
 74
     0
  7

 75
     0
147
0.1148885871608098
148
0.0
149
0.0
100
AcDbLayout
  1
Model
 70
     1
 71
     0
 10
0.0
 20
0.0
 11
12.0
 21
9.0
 12
0.0
 22
0.0
 32
0.0
 14
0.0
 24
0.0
 34
0.0
 15
0.0
 25
0.0
 35
0.0
146
0.0
 13
0.0
 23
0.0
 33
0.0
 16
1.0
 26
0.0
 36
0.0
 17
0.0
 27
1.0
 37
0.0
 76
     0
330
2
331
2E
1001
ACAD_PSEXT
1000
None
1000
None
1000
Not applicable
1000
The layout will not be plotted unless a new plotter configuration name is selected.
1070
     0
  0
MATERIAL
  5
3E
102
{ACAD_XDICTIONARY
360
3F
102
}
102
{ACAD_REACTORS
330
19
102
}
330
19
100
AcDbMaterial
  1
ByBlock
  0
MATERIAL
  5
3B
102
{ACAD_XDICTIONARY
360
3C
102
}
102
{ACAD_REACTORS
330
19
102
}
330
19
100
AcDbMaterial
  1
ByLayer
  0
MATERIAL
  5
18
102
{ACAD_XDICTIONARY
360
1A
102
}
102
{ACAD_REACTORS
330
19
102
}
330
19
100
AcDbMaterial
  1
Global
 43
0.0007999999797903
 43
0.0
 43
0.0
 43
0.0
 43
0.0
 43
0.0007999999797903
 43
0.0
 43
0.0
 43
0.0
 43
0.0
 43
1.0
 43
0.0
 43
0.0
 43
0.0
 43
0.0
 43
1.0
 49
0.0007999999797903
 49
0.0
 49
0.0
 49
0.0
 49
0.0
 49
0.0007999999797903
 49
0.0
 49
0.0
 49
0.0
 49
0.0
 49
1.0
 49
0.0
 49
0.0
 49
0.0
 49
0.0
 49
1.0
142
0.0007999999797903
142
0.0
142
0.0
142
0.0
142
0.0
142
0.0007999999797903
142
0.0
142
0.0
142
0.0
142
0.0
142
1.0
142
0.0
142
0.0
142
0.0
142
0.0
142
1.0
144
0.0007999999797903
144
0.0
144
0.0
144
0.0
144
0.0
144
0.0007999999797903
144
0.0
144
0.0
144
0.0
144
0.0
144
1.0
144
0.0
144
0.0
144
0.0
144
0.0
144
1.0
1001
ACAD
1070
    -1
1070
     3
1070
     0
1000

1071
        0
1070
     0
  0
MLINESTYLE
  5
54
102
{ACAD_REACTORS
330
39
102
}
330
39
100
AcDbMlineStyle
  2
STANDARD
 70
     0
  3

 62
   256
 51
90.0
 52
90.0
 71
     2
 49
0.5
 62
   256
  6
BYLAYER
 49
-0.5
 62
   256
  6
BYLAYER
  0
ACDBPLACEHOLDER
  5
16
102
{ACAD_REACTORS
330
17
102
}
330
17
  0
SCALE
  5
59
102
{ACAD_REACTORS
330
42
102
}
330
42
100
AcDbScale
 70
     0
300
1:1
140
1.0
141
1.0
290
     1
  0
SCALE
  5
5A
102
{ACAD_REACTORS
330
42
102
}
330
42
100
AcDbScale
 70
     0
300
1:2
140
1.0
141
2.0
290
     0
  0
SCALE
  5
5B
102
{ACAD_REACTORS
330
42
102
}
330
42
100
AcDbScale
 70
     0
300
1:4
140
1.0
141
4.0
290
     0
  0
SCALE
  5
5C
102
{ACAD_REACTORS
330
42
102
}
330
42
100
AcDbScale
 70
     0
300
1:5
140
1.0
141
5.0
290
     0
  0
SCALE
  5
5D
102
{ACAD_REACTORS
330
42
102
}
330
42
100
AcDbScale
 70
     0
300
1:8
140
1.0
141
8.0
290
     0
  0
SCALE
  5
5E
102
{ACAD_REACTORS
330
42
102
}
330
42
100
AcDbScale
 70
     0
300
1:10
140
1.0
141
10.0
290
     0
  0
SCALE
  5
5F
102
{ACAD_REACTORS
330
42
102
}
330
42
100
AcDbScale
 70
     0
300
1:16
140
1.0
141
16.0
290
     0
  0
SCALE
  5
60
102
{ACAD_REACTORS
330
42
102
}
330
42
100
AcDbScale
 70
     0
300
1:20
140
1.0
141
20.0
290
     0
  0
SCALE
  5
61
102
{ACAD_REACTORS
330
42
102
}
330
42
100
AcDbScale
 70
     0
300
1:30
140
1.0
141
30.0
290
     0
  0
SCALE
  5
62
102
{ACAD_REACTORS
330
42
102
}
330
42
100
AcDbScale
 70
     0
300
1:40
140
1.0
141
40.0
290
     0
  0
SCALE
  5
63
102
{ACAD_REACTORS
330
42
102
}
330
42
100
AcDbScale
 70
     0
300
1:50
140
1.0
141
50.0
290
     0
  0
SCALE
  5
64
102
{ACAD_REACTORS
330
42
102
}
330
42
100
AcDbScale
 70
     0
300
1:100
140
1.0
141
100.0
290
     0
  0
SCALE
  5
65
102
{ACAD_REACTORS
330
42
102
}
330
42
100
AcDbScale
 70
     0
300
2:1
140
2.0
141
1.0
290
     0
  0
SCALE
  5
66
102
{ACAD_REACTORS
330
42
102
}
330
42
100
AcDbScale
 70
     0
300
4:1
140
4.0
141
1.0
290
     0
  0
SCALE
  5
67
102
{ACAD_REACTORS
330
42
102
}
330
42
100
AcDbScale
 70
     0
300
8:1
140
8.0
141
1.0
290
     0
  0
SCALE
  5
68
102
{ACAD_REACTORS
330
42
102
}
330
42
100
AcDbScale
 70
     0
300
10:1
140
10.0
141
1.0
290
     0
  0
SCALE
  5
69
102
{ACAD_REACTORS
330
42
102
}
330
42
100
AcDbScale
 70
     0
300
100:1
140
100.0
141
1.0
290
     0
  0
ACDBSECTIONVIEWSTYLE
  5
191
102
{ACAD_XDICTIONARY
360
1EB
102
}
102
{ACAD_REACTORS
330
186
330
190
102
}
330
186
100
AcDbModelDocViewStyle
 70
     0
  3
Imperial24
290
     0
100
AcDbSectionViewStyle
 70
     0
 71
     0
 90
       78
 71
     1
340
26
 40
0.24
340
0
340
0
 40
0.24
300
I, O, Q, S, X, Z
 40
0.48
 90
        3
 40
0.18
 90
        1
 71
     2
340
21
 90
       25
340
21
 90
       50
 40
0.24
 40
0.0
 40
0.24
 71
     3
340
26
 40
0.24
 90
        1
 40
0.75
 90
        1
300
%<\AcVar ViewType \f "%tc1">% %<\AcVar ViewSectionStartId>%-%<\AcVar ViewSectionEndId>%\PVARIA %<\AcVar ViewScale \f "%sn">%
 71
     4
300
ANSI31
 40
1.0
 90
        0
290
     0
290
     0
 90
        6
 40
0.0
 40
1.570796326794896
 40
0.2617993877991494
 40
1.308996938995747
 40
-0.2617993877991494
 40
1.832595714594046
  0
ACDBSECTIONVIEWSTYLE
  5
193
102
{ACAD_XDICTIONARY
360
1ED
102
}
102
{ACAD_REACTORS
330
186
330
192
102
}
330
186
100
AcDbModelDocViewStyle
 70
     0
  3
Metric50
290
     0
100
AcDbSectionViewStyle
 70
     0
 71
     0
 90
      102
 71
     1
340
26
 40
5.0
340
0
340
0
 40
5.0
300
I, O, Q, S, X, Z
 40
10.0
 90
        0
 40
2.5
 90
        0
 71
     2
340
21
 90
       25
340
21
 90
       50
 40
5.0
 40
2.5
 40
5.0
 71
     3
340
26
 40
5.0
 90
        0
 40
15.0
 90
        1
300
%<\AcVar ViewSectionStartId>%-%<\AcVar ViewSectionEndId>% (%<\AcVar ViewScale \f "%sn">%)
 71
     4
300
ANSI31
 40
1.0
 90
        0
290
     0
290
     0
 90
        6
 40
0.0
 40
1.570796326794896
 40
0.2617993877991494
 40
1.308996938995747
 40
-0.2617993877991494
 40
1.832595714594046
  0
TABLESTYLE
  5
55
102
{ACAD_XDICTIONARY
360
56
102
}
102
{ACAD_REACTORS
330
43
102
}
330
43
100
AcDbTableStyle
  3
Standard
 70
     0
 71
     0
 40
1.5
 41
1.5
280
     0
281
     0
  7
Standard
140
4.5
170
     2
 62
     0
 63
     7
283
     0
274
    -2
284
     1
 64
     0
275
    -2
285
     1
 65
     0
276
    -2
286
     1
 66
     0
277
    -2
287
     1
 67
     0
278
    -2
288
     1
 68
     0
279
    -2
289
     1
 69
     0
  7
Standard
140
6.0
170
     5
 62
     0
 63
     7
283
     0
274
    -2
284
     1
 64
     0
275
    -2
285
     1
 65
     0
276
    -2
286
     1
 66
     0
277
    -2
287
     1
 67
     0
278
    -2
288
     1
 68
     0
279
    -2
289
     1
 69
     0
  7
Standard
140
4.5
170
     5
 62
     0
 63
     7
283
     0
274
    -2
284
     1
 64
     0
275
    -2
285
     1
 65
     0
276
    -2
286
     1
 66
     0
277
    -2
287
     1
 67
     0
278
    -2
288
     1
 68
     0
279
    -2
289
     1
 69
     0
  0
VISUALSTYLE
  5
2F
102
{ACAD_XDICTIONARY
360
1D4
102
}
102
{ACAD_REACTORS
330
30
102
}
330
30
100
AcDbVisualStyle
  2
2dWireframe
 70
     4
 71
     0
 72
     2
 73
     1
 90
        0
 40
-0.6
 41
-30.0
 62
     5
 63
     7
 74
     1
 91
        4
 64
     7
 65
   257
 75
     1
175
     1
 42
1.0
 92
        0
 66
   257
 43
1.0
 76
     1
 77
     6
 78
     2
 67
     7
 79
     5
170
     0
171
     0
290
     0
174
     0
 93
        1
 44
0.0
173
     0
291
     0
 45
0.0
1001
ACAD
1000
AcDbSavedByObjectVersion
1070
     0
  0
VISUALSTYLE
  5
94
102
{ACAD_XDICTIONARY
360
1E3
102
}
102
{ACAD_REACTORS
330
30
102
}
330
30
100
AcDbVisualStyle
  2
EdgeColorOff
 70
    22
 71
     2
 72
     2
 73
     0
 90
        0
 40
-0.6
 41
-30.0
 62
     5
 63
     7
 74
     1
 91
        4
 64
     7
 65
   257
 75
     1
175
     1
 42
1.0
 92
        8
 66
     7
 43
1.0
 76
     1
 77
     6
 78
     2
 67
     7
 79
     5
170
     0
171
     0
290
     0
174
     0
 93
        1
 44
0.0
173
     0
291
     1
 45
0.0
1001
ACAD
1000
AcDbSavedByObjectVersion
1070
     0
  0
VISUALSTYLE
  5
57
102
{ACAD_XDICTIONARY
360
1DF
102
}
102
{ACAD_REACTORS
330
30
102
}
330
30
100
AcDbVisualStyle
  2
Realistic
 70
     8
 71
     2
 72
     3
 73
     0
 90
        2
 40
-0.6
 41
30.0
 62
     5
 63
     7
 74
     0
 91
        0
 64
     7
 65
   257
 75
     1
175
     1
 42
1.0
 92
        8
 66
   257
 43
1.0
 76
     1
 77
     6
 78
     2
 67
     7
 79
     3
170
     0
171
     0
290
     0
174
     0
 93
       13
 44
0.0
173
     0
291
     0
 45
0.0
1001
ACAD
1000
AcDbSavedByObjectVersion
1070
     0
  0
VISUALSTYLE
  5
58
102
{ACAD_XDICTIONARY
360
1E1
102
}
102
{ACAD_REACTORS
330
30
102
}
330
30
100
AcDbVisualStyle
  2
Wireframe
 70
     5
 71
     0
 72
     2
 73
     0
 90
        0
 40
-0.6
 41
-30.0
 62
     5
 63
     7
 74
     1
 91
        4
 64
     7
 65
   257
 75
     1
175
     1
 42
1.0
 92
        0
 66
   257
 43
1.0
 76
     1
 77
     6
 78
     2
 67
     7
 79
     3
170
     0
171
     0
290
     0
174
     0
 93
        1
 44
0.0
173
     0
291
     0
 45
0.0
1001
ACAD
1000
AcDbSavedByObjectVersion
1070
     0
  0
DICTIONARYVAR
  5
46
102
{ACAD_REACTORS
330
45
102
}
330
45
100
DictionaryVariables
280
     0
  1
1:1
  0
DICTIONARYVAR
  5
47
102
{ACAD_REACTORS
330
45
102
}
330
45
100
DictionaryVariables
280
     0
  1
STANDARD
  0
DICTIONARYVAR
  5
48
102
{ACAD_REACTORS
330
45
102
}
330
45
100
DictionaryVariables
280
     0
  1
STANDARD
  0
DICTIONARYVAR
  5
49
102
{ACAD_REACTORS
330
45
102
}
330
45
100
DictionaryVariables
280
     0
  1

  0
DICTIONARYVAR
  5
4A
102
{ACAD_REACTORS
330
45
102
}
330
45
100
DictionaryVariables
280
     0
  1

  0
DICTIONARYVAR
  5
4B
102
{ACAD_REACTORS
330
45
102
}
330
45
100
DictionaryVariables
280
     0
  1
2
  0
DICTIONARYVAR
  5
4C
102
{ACAD_REACTORS
330
45
102
}
330
45
100
DictionaryVariables
280
     0
  1
1
  0
DICTIONARYVAR
  5
4D
102
{ACAD_REACTORS
330
45
102
}
330
45
100
DictionaryVariables
280
     0
  1
BYLAYER
  0
DICTIONARYVAR
  5
4E
102
{ACAD_REACTORS
330
45
102
}
330
45
100
DictionaryVariables
280
     0
  1
ByLayer
  0
DICTIONARYVAR
  5
1BC
102
{ACAD_REACTORS
330
45
102
}
330
45
100
DictionaryVariables
280
     0
  1
0
  0
DICTIONARYVAR
  5
4F
102
{ACAD_REACTORS
330
45
102
}
330
45
100
DictionaryVariables
280
     0
  1
0
  0
DICTIONARYVAR
  5
50
102
{ACAD_REACTORS
330
45
102
}
330
45
100
DictionaryVariables
280
     0
  1
0
  0
DICTIONARYVAR
  5
1BA
102
{ACAD_REACTORS
330
45
102
}
330
45
100
DictionaryVariables
280
     0
  1
2
  0
DICTIONARYVAR
  5
1B9
102
{ACAD_REACTORS
330
45
102
}
330
45
100
DictionaryVariables
280
     0
  1
1
  0
DICTIONARYVAR
  5
1BE
102
{ACAD_REACTORS
330
45
102
}
330
45
100
DictionaryVariables
280
     0
  1
80.000000
  0
DICTIONARYVAR
  5
1BD
102
{ACAD_REACTORS
330
45
102
}
330
45
100
DictionaryVariables
280
     0
  1
5.000000
  0
DICTIONARYVAR
  5
1BB
102
{ACAD_REACTORS
330
45
102
}
330
45
100
DictionaryVariables
280
     0
  1
127
  0
DICTIONARYVAR
  5
1BF
102
{ACAD_REACTORS
330
45
102
}
330
45
100
DictionaryVariables
280
     0
  1
2
  0
DICTIONARY
  5
1CF
102
{ACAD_REACTORS
330
1CD
102
}
330
1CD
100
AcDbDictionary
281
     1
  0
DICTIONARY
  5
1CE
102
{ACAD_REACTORS
330
1CD
102
}
330
1CD
100
AcDbDictionary
281
     1
  3
2002114608640
350
1C8
  3
2002114608656
350
1C9
  3
2002114608672
350
1CA
  3
2002114608688
350
1CB
  3
2002114608704
350
1CC
  0
DICTIONARY
  5
16F
102
{ACAD_REACTORS
330
16E
102
}
330
16E
100
AcDbDictionary
281
     1
  0
DICTIONARY
  5
167
102
{ACAD_REACTORS
330
15E
102
}
330
15E
100
AcDbDictionary
281
     1
  3
DWGSETTINGS
350
166
  3
Shaft
350
168
  3
TRANSSETTINGS
350
169
  0
DICTIONARY
  5
1E7
330
181
100
AcDbDictionary
280
     1
281
     1
  3
ACAD_XREC_ROUNDTRIP
360
1E8
  0
DICTIONARY
  5
1E9
330
183
100
AcDbDictionary
280
     1
281
     1
  3
ACAD_XREC_ROUNDTRIP
360
1EA
  0
DICTIONARY
  5
1D1
330
12
100
AcDbDictionary
280
     1
281
     1
  3
ACAD_XREC_ROUNDTRIP
360
1D2
  0
DICTIONARY
  5
B
330
8
100
AcDbDictionary
280
     1
281
     1
  3
ACAD_XREC_ROUNDTRIP
360
1D0
  0
DICTIONARY
  5
3F
330
3E
100
AcDbDictionary
280
     1
281
     1
  3
ACAD_XREC_ROUNDTRIP
360
1DD
  3
FBXASSET
360
40
  0
DICTIONARY
  5
3C
330
3B
100
AcDbDictionary
280
     1
281
     1
  3
ACAD_XREC_ROUNDTRIP
360
1DC
  3
FBXASSET
360
3D
  0
DICTIONARY
  5
1A
330
18
100
AcDbDictionary
280
     1
281
     1
  3
ACAD_XREC_ROUNDTRIP
360
1D3
  3
BUMPTILE
360
1B
  3
DIFFUSETILE
360
1C
  3
FBXASSET
360
1D
  3
OPACITYTILE
360
1E
  3
REFLECTIONTILE
360
1F
  0
DICTIONARY
  5
1EB
330
191
100
AcDbDictionary
280
     1
281
     1
  3
ACAD_XREC_ROUNDTRIP
360
1EC
  0
DICTIONARY
  5
1ED
330
193
100
AcDbDictionary
280
     1
281
     1
  3
ACAD_XREC_ROUNDTRIP
360
1EE
  0
DICTIONARY
  5
56
330
55
100
AcDbDictionary
280
     1
281
     1
  3
ACAD_ROUNDTRIP_2008_TABLESTYLE_CELLSTYLEMAP
360
1C0
  3
ACAD_XREC_ROUNDTRIP
360
1DE
  0
DICTIONARY
  5
1D4
330
2F
100
AcDbDictionary
280
     1
281
     1
  3
ACAD_XREC_ROUNDTRIP
360
1D5
  0
DICTIONARY
  5
1E3
330
94
100
AcDbDictionary
280
     1
281
     1
  3
ACAD_XREC_ROUNDTRIP
360
1E4
  0
DICTIONARY
  5
1DF
330
57
100
AcDbDictionary
280
     1
281
     1
  3
ACAD_XREC_ROUNDTRIP
360
1E0
  0
DICTIONARY
  5
1E1
330
58
100
AcDbDictionary
280
     1
281
     1
  3
ACAD_XREC_ROUNDTRIP
360
1E2
  0
XRECORD
  5
1C8
102
{ACAD_REACTORS
330
1CE
102
}
330
1CE
100
AcDbXrecord
280
     1
  1
AcDb_Thumbnail_Schema
102
{ATTRRECORD
341
1C9
  2
AcDbDs::TreatedAsObjectData
280
     1
291
     1
102
ATTRRECORD}
102
{ATTRRECORD
341
1CA
  2
AcDbDs::Legacy
280
     1
291
     1
102
ATTRRECORD}
  2
AcDbDs::ID
280
    10
 91
        8
102
{ATTRRECORD
341
1CB
  2
AcDs:Indexable
280
     1
291
     1
102
ATTRRECORD}
102
{ATTRRECORD
341
1CC
  2
AcDbDs::HandleAttribute
280
     7
282
     1
102
ATTRRECORD}
  2
Thumbnail_Data
280
    15
 91
        0
  0
XRECORD
  5
1C9
102
{ACAD_REACTORS
330
1CE
102
}
330
1CE
100
AcDbXrecord
280
     1
  1
AcDbDs::TreatedAsObjectDataSchema
  2
AcDbDs::TreatedAsObjectData
280
     1
 91
        0
  0
XRECORD
  5
1CA
102
{ACAD_REACTORS
330
1CE
102
}
330
1CE
100
AcDbXrecord
280
     1
  1
AcDbDs::LegacySchema
  2
AcDbDs::Legacy
280
     1
 91
        0
  0
XRECORD
  5
1CB
102
{ACAD_REACTORS
330
1CE
102
}
330
1CE
100
AcDbXrecord
280
     1
  1
AcDbDs::IndexedPropertySchema
  2
AcDs:Indexable
280
     1
 91
        0
  0
XRECORD
  5
1CC
102
{ACAD_REACTORS
330
1CE
102
}
330
1CE
100
AcDbXrecord
280
     1
  1
AcDbDs::HandleAttributeSchema
  2
AcDbDs::HandleAttribute
280
     7
 91
        1
284
     1
  0
XRECORD
  5
1E8
102
{ACAD_REACTORS
330
1E7
102
}
330
1E7
100
AcDbXrecord
280
     1
102
DISPLAYNAME
  1
Imperial24
102
FLAGS
 90
        0
  0
XRECORD
  5
1EA
102
{ACAD_REACTORS
330
1E9
102
}
330
1E9
100
AcDbXrecord
280
     1
102
DISPLAYNAME
  1
Metric50
102
FLAGS
 90
        0
  0
XRECORD
  5
1D2
102
{ACAD_REACTORS
330
1D1
102
}
330
1D1
100
AcDbXrecord
280
     1
102
SHADEPLOT
 70
     0
102
SHADEPLOTRESLEVEL
 70
     2
102
SHADEPLOTCUSTOMDPI
 70
   300
  0
XRECORD
  5
1D0
102
{ACAD_REACTORS
330
B
102
}
330
B
100
AcDbXrecord
280
     1
102
SHADEPLOT
 70
     0
102
SHADEPLOTRESLEVEL
 70
     2
102
SHADEPLOTCUSTOMDPI
 70
   300
  0
XRECORD
  5
1DD
102
{ACAD_REACTORS
330
3F
102
}
330
3F
100
AcDbXrecord
280
     1
102
MATERIAL
148
0.0
149
0.0
149
0.0
 93
        0
 94
       63
282
     0
 72
     1
 77
     1
171
     1
175
     1
179
     1
273
     0
  0
XRECORD
  5
40
102
{ACAD_REACTORS
330
3F
102
}
330
3F
100
AcDbXrecord
280
     1
 70
     1
 90
429727718
  1
D62C5603-E3A1-4AEA-B7FB-FE5D8D0755AF
310
504B03040A0000080000CC70623B3DEE336E79000000790000001B0000006175746F6465736B2D64657369676E2D7061636B6167652E786D6C3C3F786D6C2076657273696F6E3D22312E302220656E636F64696E673D227574662D3822203F3E3C666F726D6174733E3C666F726D61743E687474703A2F2F736368656D612E
310
6175746F6465736B2E636F6D2F64657369676E2D7061636B6167652F323030393C2F666F726D61743E3C2F666F726D6174733E504B0304140006080800CC70623BD486FD9CA0000000F4000000130000005B436F6E74656E745F54797065735D2E786D6C7D8EC10E82300C865F65E91D8A1E8C310C0EEA1BF002731658846E
310
D98AC1B77784ABF1D8FE5FBFBF75BBCE937A534CCEB38643598122B6FEE978D0B0485F9C41B54DDD7D022595594E1A469170414C76A4D9A4D207E29CF43ECE46F218070CC6BECC4078ACAA135ACF422C856C0E68EA1BF5669944DDD7BCDE7B1F8E415D77AECB980613C2E4AC91FC167A2B244592486606FC29C8FD7F045B9A
310
EF7053A7E60B504B0304140006080800CC70623B853B8169EB0000007C01000008000000636F72652E786D6C8D90416EC3201045AF62CDB6C206821CC7C244919D9CA01740401C94182C03558F5F9C3852BBEB6A467FFE9B197D7EFC9E1EC5975982F5AE035262288C535E5B377690E21535501C055FBC8FBF6C503839990E
310
5619041F179FE64D52DE45E362569DD7661365082642A11EB9E920A89B99642953CC8E702F67A9EE7234257977194EC9EAE275C4EABCCF5EAD5940D4AC6F0E35A568B8F43562CD7046CD199FD07E60174276A7BE677B5EADB0E0D14EEFFB6A31321A0D82627C4084204C3F096B71DD52F6819B16635EADF63F509AF53FA164
310
5DDCD1EDDD17164090FCC8732078B56691CB33A85CD7DCC40F504B0304140006080800CC70623B55019EA25F0000007C00000007000000636E782E786D6C4DCB3B0E80201045D1AD90E915ED2CF8AC45050C11660C8261F98AB1B07AC9C97D42D718D865D3E909258CFD00CCE24AC6E326A164D74DC0B4128928FF32603847
310
2BA13128B1252AC747C6BAB984FC68F0B87FE8960A5C09FE86CFB69FBA01504B0304140006080800CC70623BDBABAAF470010000D40300000C0000006662782F636F72652E786D6CC553D16E823014FD95A6AF4B694182CC941A83FA05FB810A9511A125A5257EFE2E82712ECEB8A7F100CD39F7F69E734AF9FADC366850B6
310
AF8DCE7018308C942E4C59EB2AC3DE1D498AD15A706B8CFB56869196ADCAF00863C12B6B7C374385D14E6907A836A59A41D9F7CA615434B0C8705F7CAA5606D23BA8E84F41278B93AC54100640439DE0BDB320004D43C63716C7C399D30917DCFBBA9CD9BA8469F5B156168B24CED3F7248AC8769F27244EB73B92EED8862C
310
B7F13E0C179B3C8F979C8ECD82BBBABDAA2BAC924E9558448CBD9330242CFA08E3154B5651FCC6D215639C8EE5774DBE2B5F6CF2B5768B68963BB5F5588420E442FC700B1139D4CB01F450C1E918227C2E09DF070D8140C84E1E9AAB8F1340832A9CB13130A5F1376A908D57309505ECF2A0DF179C4E9D30F5B239B87E3823
310
7A79C6F31DE1A8A5AEC08474B03C7837EAE4938639B44E5932B833D2C6B6B279CDC613877FA26EE21F4A2A4C63EC7F29A2F301D1F9F7A0E37D145F504B0304140006080800CC70623B9C113CC27E0000009D0000000B0000006662782F636E782E786D6C4DCCDF0A83201C86E15B91DFB94BFB330DD428C8FB886521330DA7
310
6397BF1A1DECE883878F57749FCDA1B7892F1BBC047A23808C7F84D9FA55424E0BE6803A256208E9EF06C84F9B91703228B1C690F78B66B34CD9A5439DF5CF0BFBF65E35BCA1B8D6A5C6F540381E886698B5741C695F9503EBA150A2F8958E3DC3EA0B504B0304140006080800CC70623B7DF2F77C2A010000120200003100
310
00006662782F41393633353835312D344632462D344230382D423046372D3739314545314133324237412F636F72652E786D6C8D51DB8EC22014FC15C2939B0D2DB4B45643319AE817EC0F6041255A68B86CFCFC856D4D76DF7CE190393373060EDB3DC707F856CE6B6B7A480A0C81328395DA5C7B18C3057510EC3873D686
310
3F34088C18550F330C39BB3A1BA7051AAC09CA84841A2BD5020AEF55806078A44B0FFD7053A328440C89E1EFC52486BBB8AA8214A99D789CF9E05200300FC927E4FB4D5B375D43103D5527440FB843077C5AA3F5861C8F645F5787F59E95B390B318B55CE45AA638FAA2957BD7248B390B7A7CC51F9C124149C82B8C378810
310
84AB2F42B7B8DD56F413775B8C5999E9FF4471926F8AA236A1AE96B8B3CC434E5839373893369E1FAF30EA395917409EB7F26AF8801C171837A4A6AC9C89E9F9C9B1A58BA30FD6A5EF5DDDCF894B9AD9B6A59C957943A9FCAE2FD5BC4DFE03504B0304140006080800CC70623BAD7543B64E01000033030000300000006662
310
782F41393633353835312D344632462D344230382D423046372D3739314545314133324237412F636E782E786D6CD593CD6EC32010845F0571AD6CE3D48AD20813A9873E410FBD12D82434182C7EAAE6EDBB2424CD25871E7B41D6EC30B3FA84F9E67BB2E40B4234DE8DB46F1925E094D7C6ED479AD3AE5951B2113C789FEE
310
6C943839C1488B4C05DF079FE72A69D8C96C13AAD6B8631503449F83828872B949AC57D26200B826A308D316B4064D6E46FCDA41C05550DC9E483A00797BFD207EFB092A45DE9514C1BBD22178396BD39D891265658C238DEA00936C654E5E433CB65A26D9F6EDB5EBC14EBF49A45CB856E66048291F6939A9A81BB5C89177
310
38143CA680F4AA299D66A042CEB3354A2684DC9D8D178FE0D9B8B41CAAD720F880EE7EF93C0C18769E099ECC04D5A102C8049A8A05632F4DDF376CF1DE0F6BB65C2F8627B65A33C6BB62177CEBBDAD973006829F89F22E814B54F4BC2BE347F8AA8F681390B50FA73F804400B5F542E796F19FF974E7F78DB802FE05E20750
310
4B0304140006080800CC70623BE75B7789680500003C100000340000006662782F41393633353835312D344632462D344230382D423046372D3739314545314133324237412F6F626A656374732E786D6CAD575B8F9B3818FD2B887D06C22499CB8AA1CA655245D5B455A356FB305264C061D8018C6C3393D95FBFC7600890
310
A4CD5EF210B0B1BFEBF98E3F7B1FF6596ABC522E1296DF9BAE3D320D9A872C4AF2F8DE2CE5CEBA358D0FBEC719939D65A691938CDE9B6ADAF4BD98B3B2D05311DD91329583D9D5FC0F438434A7A611A644887B5384CF34233629258BA878B12322891DEFF6B66BD70BFB62634E8AE781D082709A4B588AF91C528CDA28B73F
310
1C998EEF39EABBEFA97FBD6A7C7E9553F9D3D79FE442923C3C523610337627CB87ABE99D359D4CC6D6E4FACAB5E6ABF9D2726FC6A3C5F56271377BB88362213924694B38DD99FE47C48627A1E7D49F5A8BB5E1A74C0A599ED3B0F21F1E56366B89112D681E218F0915D0D6F17AD41FBA2A369DCF6335D62ABBD39779D5DDD1
310
11D4D8DE3CBB96B2E04FB8202E41051754A1AA8E8F76B4C6DFE810B580B1547F4B84911149794252234D024EF8BBE963A95AE27B3D310A9D5C215C7960FAEE415ED75694C6AFB17BCACA5D99A60A9AA65F217B0BFC53292ACB92BF283FAD0D3621576592CB5BED907C2FA8E9DF794E35E97BEA31BED21FEB401ABB94C44839
310
DCACBF0E1C5DA8DA5B2F4DFFD32AD86F543D9E565E7056502E157C00AD2671CD534549AB752FCA9CDA00677A313F04E51B22FF19E57B300579E3C97EB29F682D92935CEC18CF901B7B54FD8C51F362B56FC72FE0B3C1EAE335EDCCBF5AEC39ADB17DC238973F804BA5E6F6BFE7AF1FB32E523BE9F3BD571418E3631DCA4D48
310
5250CF639223210A9446CA30052EDF057BD35F8329C1ECD84552BF0DC8D18BE7BCE23BFE6BD960AB4A7DE79923A103BEBD80F911CBAA2C60DB19B01CF164A5583B772EE6D3FFA56666CBCDA74DC97724A48F9A58967497E489C4D979006FD7A05E227A1EBDD0F737C623387A9C844D3709995625106D157315F8B8392CD4E0
310
A0B9A720C4BE9829CEF37EA1E13111214D53925356365ADA634861B52519DD27A00AEB808EAF0628E6F435519D446F45CF2C9CF5214F0A15B2F6D06B79DA3EE3CBF7F56780D2F4E7EF73A0F5E5B02A38D07DC852C6B7C1FBB6664213E0C39E3EBA7FF4E1AD23EA2829407C85E586727488B751B2DB9502BC7B228A3FD68B6E
310
A65A22397E690AA8D158D7E404EC8CDA235CC3B7D1898680131CEC2CDF2638C65196279577750F15884AEE19F94199155B92B13297978469D4F8D358DF0AEF7631E28DC8F0D9F437D5D39A83B2231A1D52D543813A824EF8D44BCFF2FA6A31BD1E8DAD87F1CCB526B3879935BF59CDADD5C37479BB1CDD4CA7B3556B516589
310
EF352754B706114D9C885EC9131DE6EFEB43D99AFE2391C2F958179413D7CFEF6B1B6DB1E7600F00DE6E5C67454A339A4BA2E0FBA85ED26F045D454F463DBFCE484C2F90F2E5E3666003662ED8F755951A7D1BECD5B30B550B2785C8E7320B7292A4838DDA71BBC863ED7613CAF659337A3354231D4FF4A182A54904C2898C
310
98B28C4AD0CE056CCF332A80986E571EE9DBC305BB5FEB7E509220A58D25CF042D712A806AC0AD0C657FDEF80D2D9CEAA2EE4D1C76F60BFE74219A06527D6F82DF6412526107381E55E353090704D085B52408A8913C4ED159D79BDA71BB4BC506F4831350EB6F975CD22D69BF7AC49B91A2C0A9DDA3D5CA36AD20FC478E37
310
E61844E2352865EBCB61A275A65283CAAA9DD27703B4102F5AF51EF5F573B75CBB5AD38BC845F7A49F82A0966A49C2E3EA5EA0ECD326CD965F1DB402C6FA8B51A4658C5C5E2EC9E214602E55810345408596591009A82E7E7FFACA19EEA299B14A0081A705CB3296EBC14CDF658DCD336EA6D1136881AAEB87B81AB9EE53D5
310
F5EB8BC8362082DA24122F98680A4E7930C01A0079749CEA14382A0783E5EBA5A10F8C098456A03D6A4AEB6BB881E2513747552A5DB22C7EDAF83BD5528081A365F7FF06504B0304140006080000CC70623B000000000000000000000000350000006662782F41393633353835312D344632462D344230382D423046372D37
310
39314545314133324237412F76657274696365732E62696E504B0304140006080800CC70623BF270F1330600000004000000360000006662782F41393633353835312D344632462D344230382D423046372D3739314545314133324237412F747269616E676C65732E62696E636660600000504B0304140006080000CC7062
310
3B000000000000000000000000370000006662782F41393633353835312D344632462D344230382D423046372D3739314545314133324237412F617474726962757465732E62696E504B0304140006080800CC70623B08DA0BD19000000041010000360000006662782F41393633353835312D344632462D344230382D4230
310
46372D3739314545314133324237412F6469726563746F72792E786D6C858F410AC3201045AF22B36F53E9A60B35CBEEBAE80D244E44489C6234F4F835464A48035D0DF398FF9F8AF63D0E6CC63039F212F8F9020C7D47C6792B21C5FE7403D62A1188E2E60C98D7234A5830286103A55745067B9D86B8A3CF9C7F90C11DE6
310
07FB144396D7B6A82D282E9A152AD114D5EF2CB866EEE831B8EEA07A7BB5A8D7D61A2BAAEB7FD5F70921FF497D00504B0304140006080800CC70623BEDD1DC58FD000000A00100003B0000006662782F41393633353835312D344632462D344230382D423046372D3739314545314133324237412F7265736F75726365732F
310
636F72652E786D6C8D504B6E833010BD0A9A6D65B00922041947112427E8052C33A156828DFCA97AFC9A40A576D7CDCCE87D344F8F9FBFE667F689CE6B6B3A6039850C8DB2A336530731DC4903D95970676DF82583CCC8193B5861107C72362E3BA4AC096842428D1D7107A5F7182053CF7474E0D507CE32973124857FE48B
310
540F3961CEF244279DE03EB81420DB9EAC1384436FA353E879B1B182C7A8C75DA3C7F453DF353A1075D537A7BA6464B8F535A99AE14A9A2BBD90E350DD183B5CFABE3AF262350B1EF4FC9351399401471025A527C218A1E53BAB5A5AB765F5469B96525EACF23FA6B88CFF34456DC2A1DCE36E360F82A5202F42F062ED2BAD
310
579969AFDD8A6F504B010214000A0000080000CC70623B3DEE336E79000000790000001B00000000000000000000000000000000006175746F6465736B2D64657369676E2D7061636B6167652E786D6C504B01021400140006080800CC70623BD486FD9CA0000000F40000001300000000000000000000000000B20000005B
310
436F6E74656E745F54797065735D2E786D6C504B01021400140006080800CC70623B853B8169EB0000007C010000080000000000000000000000000083010000636F72652E786D6C504B01021400140006080800CC70623B55019EA25F0000007C000000070000000000000000000000000094020000636E782E786D6C504B
310
01021400140006080800CC70623BDBABAAF470010000D40300000C00000000000000000000000000180300006662782F636F72652E786D6C504B01021400140006080800CC70623B9C113CC27E0000009D0000000B00000000000000000000000000B20400006662782F636E782E786D6C504B01021400140006080800CC70
310
623B7DF2F77C2A010000120200003100000000000000000000000000590500006662782F41393633353835312D344632462D344230382D423046372D3739314545314133324237412F636F72652E786D6C504B01021400140006080800CC70623BAD7543B64E010000330300003000000000000000000000000000D2060000
310
6662782F41393633353835312D344632462D344230382D423046372D3739314545314133324237412F636E782E786D6C504B01021400140006080800CC70623BE75B7789680500003C10000034000000000000000000000000006E0800006662782F41393633353835312D344632462D344230382D423046372D3739314545
310
314133324237412F6F626A656374732E786D6C504B01021400140006080000CC70623B0000000000000000000000003500000000000000000000000000280E00006662782F41393633353835312D344632462D344230382D423046372D3739314545314133324237412F76657274696365732E62696E504B01021400140006
310
080800CC70623BF270F133060000000400000036000000000000000000000000007B0E00006662782F41393633353835312D344632462D344230382D423046372D3739314545314133324237412F747269616E676C65732E62696E504B01021400140006080000CC70623B0000000000000000000000003700000000000000
310
000000000000D50E00006662782F41393633353835312D344632462D344230382D423046372D3739314545314133324237412F617474726962757465732E62696E504B01021400140006080800CC70623B08DA0BD1900000004101000036000000000000000000000000002A0F00006662782F41393633353835312D344632
310
462D344230382D423046372D3739314545314133324237412F6469726563746F72792E786D6C504B01021400140006080800CC70623BEDD1DC58FD000000A00100003B000000000000000000000000000E1000006662782F41393633353835312D344632462D344230382D423046372D3739314545314133324237412F7265
310
736F75726365732F636F72652E786D6C504B0506000000000E000E0080040000641100000000
  0
XRECORD
  5
1DC
102
{ACAD_REACTORS
330
3C
102
}
330
3C
100
AcDbXrecord
280
     1
102
MATERIAL
148
0.0
149
0.0
149
0.0
 93
        0
 94
       63
282
     0
 72
     1
 77
     1
171
     1
175
     1
179
     1
273
     0
  0
XRECORD
  5
3D
102
{ACAD_REACTORS
330
3C
102
}
330
3C
100
AcDbXrecord
280
     1
 70
     1
 90
429727718
  1
30362254-06B7-45E0-A893-8CFA70E3D6BC
310
504B03040A0000080000CC70623B3DEE336E79000000790000001B0000006175746F6465736B2D64657369676E2D7061636B6167652E786D6C3C3F786D6C2076657273696F6E3D22312E302220656E636F64696E673D227574662D3822203F3E3C666F726D6174733E3C666F726D61743E687474703A2F2F736368656D612E
310
6175746F6465736B2E636F6D2F64657369676E2D7061636B6167652F323030393C2F666F726D61743E3C2F666F726D6174733E504B0304140006080800CC70623BD486FD9CA0000000F4000000130000005B436F6E74656E745F54797065735D2E786D6C7D8EC10E82300C865F65E91D8A1E8C310C0EEA1BF002731658846E
310
D98AC1B77784ABF1D8FE5FBFBF75BBCE937A534CCEB38643598122B6FEE978D0B0485F9C41B54DDD7D022595594E1A469170414C76A4D9A4D207E29CF43ECE46F218070CC6BECC4078ACAA135ACF422C856C0E68EA1BF5669944DDD7BCDE7B1F8E415D77AECB980613C2E4AC91FC167A2B244592486606FC29C8FD7F045B9A
310
EF7053A7E60B504B0304140006080800CC70623B1EC5D7A3EB0000007C01000008000000636F72652E786D6C8D90416EC3201045AF82665B6103C6756C6122AB4D4ED00B204C5C94182C03558F5F9C3852BBEB6A467FFE9B197D71FC9E6FE8CBACC17AD7032D0820E3B41FAD9B7A48F1820F808E52ACDEC75F36404ECDA687
310
4D0629A6D5A76597B477D1B89855E747B38B2A041301E95B6E7A08FAD3CCAA50296647B8168BD2573599823EBB0CA76447F43862C7BCCF5EAC59410E4DDD9C7973C2755553CCCFA4C603E3040F1565ED3B1FDE4E432BCA0D9622DAF9795FAF464533826484B498524CD807E51D79ED187F21878E10516EF63F505AC67F42C9
310
BA58B1FDDD071640D2FCC87D2045B96591CB3DA85CB7DCE40F504B0304140006080800CC70623B55019EA25F0000007C00000007000000636E782E786D6C4DCB3B0E80201045D1AD90E915ED2CF8AC45050C11660C8261F98AB1B07AC9C97D42D718D865D3E909258CFD00CCE24AC6E326A164D74DC0B4128928FF32603847
310
2BA13128B1252AC747C6BAB984FC68F0B87FE8960A5C09FE86CFB69FBA01504B0304140006080800CC70623B8C9102E971010000D40300000C0000006662782F636F72652E786D6CC5535B6E833010BC8AE5DF0A6C08340F1947A84D4ED00B38C6A128602363A31CBFCB234A53A551FA553EC09AD9F5CE8C31DB9E9B1AF5CA
310
7695D1198E428A91D2D214952E33ECDD315861B4E5CC1AE3BE9561A445A3323CC098B3D21ADFCE9034DA29ED00D5A6503328BA4E398C640D8B0C77F253352214DE4145770A5B214FA2546114020D759C75CE8200340D19DE981F0F6746269C33EFAB6266AB02A655C74A59CCF365BADC27CB5D902ED22848F6340DF238A141
310
BE88E2F57B92BFEDF23523433367AE6A2EEAA455C2A902F398D2751045018D3FA264435F3771F242571B4A1919CA6F9A7C5B3CD9E42BED16F12C776AEB308F40C848FC700B1139D4891EF410CEC810227CC6846F8386402064270EF5C5C709A05E49676C024C61FC95EA45ED154CA5211D1FF4FB8291A913A68E9B83EBBB33
310
E2A7673CDE118E5AE8124C0807CB8377834E366998436B950D7A7746DAD846D4CFD978E0F04FD455FC5D49D2D4C6FE9722321F10997F0F32DC47FE05504B0304140006080800CC70623BFFEA85907E0000009D0000000B0000006662782F636E782E786D6C4DCCD10A83201886E15B91FFDC95D95A811AB6F23E625948A6C3
310
E9D8E5AF46073BFAE0E1E365ED67B3E8ADC3CB78C7815C7240DA3DFC64DCC221C519D7805AC182F7F1EF06C88D9BE6703008B6049F9E274D7A1E938DBB5AE3D6131B2589BA0D3D965551E0B2EA732C9B9A624AAEB41E3A557677029960D9AFB4EF11165F504B0304140006080800CC70623B4FEEA4082C0100001202000031
310
0000006662782F39464131463745442D413632322D343644302D413938332D3331353338454246344243312F636F72652E786D6C8D515B6EC32010BC0AE2AB55850DD871ED0813254D72825EC00192A2C460F1A872FC42ED48ED5F7E00CDCECCCEB26C731F6FE05B39AFADE921293004CA082BB5B9F43086336A21D870E6AC
310
0D7F68109861543DCC30E4ECE26C9C164858139409093556AA051CBC570102714B8F1E7AF1A5C6A11862480C7F2DA6415C878B2A4891CA89C7990F2E050073937C42DE1DB7E4F87ED8A36D4329AA9B3D46DBAEAD504556557BD81DEBDD0761E52CE42C462D17B996298E3E6BE59E35C962CE821E1FF18553435012728A7187
310
0841987E927A8D9B35ADDF70BBC6989599FE4F1427F9A4286A132ABAC49D651EF234CD5CE04CDA78BA3DC2A8FB645D00B9DF8B57E215725C60BCA2A463E54C4CE327C7A65E1C7DB02E7DEFCBF594B864C5CA6CDBD49C957943E9FA5D5FBAF336F90F504B0304140006080800CC70623BAD7543B64E01000033030000300000
310
006662782F39464131463745442D413632322D343644302D413938332D3331353338454246344243312F636E782E786D6CD593CD6EC32010845F0571AD6CE3D48AD20813A9873E410FBD12D82434182C7EAAE6EDBB2424CD25871E7B41D6EC30B3FA84F9E67BB2E40B4234DE8DB46F1925E094D7C6ED479AD3AE5951B2113C
310
789FEE6C943839C1488B4C05DF079FE72A69D8C96C13AAD6B8631503449F83828872B949AC57D26200B826A308D316B4064D6E46FCDA41C05550DC9E483A00797BFD207EFB092A45DE9514C1BBD22178396BD39D891265658C238DEA00936C654E5E433CB65A26D9F6EDB5EBC14EBF49A45CB856E66048291F6939A9A81BB5
310
C8917738143CA680F4AA299D66A042CEB3354A2684DC9D8D178FE0D9B8B41CAAD720F880EE7EF93C0C18769E099ECC04D5A102C8049A8A05632F4DDF376CF1DE0F6BB65C2F8627B65A33C6BB62177CEBBDAD973006829F89F22E814B54F4BC2BE347F8AA8F681390B50FA73F804400B5F542E796F19FF974E7F78DB802FE05
310
E207504B0304140006080800CC70623B16AB87BA640500003C100000340000006662782F39464131463745442D413632322D343644302D413938332D3331353338454246344243312F6F626A656374732E786D6CAD575B6FA33818FD2B887DE6924B3BED8A326A92B68A663B534DD4D13E548A0C38942D60649B369D5FBFC7
310
600890A493BDE42160637FD7F31D7FF63E6FB3D478A55C242CBF3247B66B1A340F5994E4F19559CA8D75611A9F7D8F33263BCB4C232719BD32D5B4E97B316765A1A722BA21652A07B3B7B33F0D11D29C9A46981221AE4C113ED38CD8A4942CA2E2C58E882476BCD9DA23BB5ED8171B73523C0F841684D35CC252CCE79062D4
310
468DFA43D7747CCF51DF7D4FFDEB5593E3AB9CCA9FBEFE241792E4E19EB28198C968BAB8199F5D5A67D3E9C49A9E8F47D6EC76B6B0469F26EEFC7C3EBFBCBEB98462213924694B38DD98FE1D62C393D073EA4FADC5DAF04326852CCF6958F90F0F2B9BB5C48816348F90C7840A68EB78EDF68723159BCEE7891A6B95DDE9D3
310
BCEAEEE8086A6C6F9E5D4B59F0175C10A7A0820BAA5055C7473B5AE3CFDD452D602CD5DF12616444529E90D448938013FE6EFA58AA96F85E4F8C42275708571E98FE6827AF6B2B4AE3D7D83D64E5A64C53054DD3AF90BD06FEA9149565C94FCA0F6B834DC85599E4F2423B24DF0B6AFA979E534DFA9E7A4CC6FA631D486393
310
921829879BF5D781A373557BCB85E97FB90DB62B558F8795179C15944B051F40AB495CF35451D26A4727654E6D8033BD98EF82F21D91FF8AF2DD9982BCF1643BDD4EB516C9492E368C67C88DED563FC36D5EACF66DFF057C3658BDBFA69DF9578B3DA735B64F18C7F20770A9D45CFCF7FCF563D6456A277DBEF78A02637CA2
310
43B90A490AEAB94F72244481D24819A6C0E59B606BFA4B3025981DBB48EAB701D97BF19C577CC77F2D1B6C55A9EF3C732474C0B727303F625995056C3B02963D9EAC146BE78EC5FCEC7FA999EBC5EACBAAE41B12D27B4D2C0BBA49F244E2ECDC81B76B502F113D8F5EE8FB1BE3111CDD4FC2AA9B844CAB1288B68AB90A7CDC
310
1C166AB0D3DC5310625FCC14E779BFD0709F8890A629C9292B1B2DED31A4B0DA928CEE135085754027E3018A397D4D5427D15BD1330B677DC8934285AC3DF45A9EB68FF8F2B8FC0A509AFEECFD0FF2DE25CC6047F7214B195F07EFEB9A094D800F7BFAE8FED187B78EA8A3A400F115961BCAD1215E47C966530AF0EE8128FE
310
58CEBB996A8964FFA529A046635D9353B0336A8F700DDF46271A024E70B0B37C9DE01847591E54DED53D54202AB947E4076556AC49C6CA5C9E1226B7F1A7B1BE15DEED62C41B91E1B3E9AFAAA735036547343A925075041DF0A9979E893B391F8FCFA6967B3EFB644DCF6E5CEBFAE272625DCC6FAF3FB93793C5F90CE1EF57
310
407342756B10D1C489E8953CD1617E5CEECAD6F4EF8914CE5D5D504E5C3F1F9736DA62CFC11E00BCDDB8CC8A9466349744C1F75EBDA4DF09BA8A9E8C7A7E9991989E20E5DBDD6A6003664ED8F7A04A8DBE0DF6EAD9B9AA858342E47399053949D2C146EDB85DE4B176BB0965FBAC19BD19AA918E27FA50C1D22402E144464C
310
59462568E704B6E71915404CB72B8FF4EDE184DDAF753F284990D2C6926782963815403548A70C657FDEF80D2D9CEAA2AE4C1C76F60BFE74219A06527D6582DF6412526107381E55E353090704D085B52408D0933C4ED159D79BDA71BB4BC506F4831350EB6F979CD22D69BF7AC49B91A2C0A9DDA3D5CA36AD20FC478E37E6
310
1844E2352865EBCB6EA275A652E3836BE04EFB400BF1A2556F515F1FBB35B2AB35BD889C744FFA1004B5544B121E57F70215746DD2F5E2C1412B602CBF19455AC6C8E5E9922C4E01E65215385004546899059180EAFCF7A707CE7017CD8CDB0410789AB32C63B91E5CEBBBACB17AC6CD347A022D5075FD106377347AAABA7E
310
7D11590744509B44E205134DC1290F06580320F78E537D3D73540E06CB970B431F185308AD40BBD794D6D77003C5A36E8EAA54BA64597CD8F83BD552A080A365F7FF06504B0304140006080000CC70623B000000000000000000000000350000006662782F39464131463745442D413632322D343644302D413938332D3331
310
353338454246344243312F76657274696365732E62696E504B0304140006080800CC70623BF270F1330600000004000000360000006662782F39464131463745442D413632322D343644302D413938332D3331353338454246344243312F747269616E676C65732E62696E636660600000504B0304140006080000CC70623B
310
000000000000000000000000370000006662782F39464131463745442D413632322D343644302D413938332D3331353338454246344243312F617474726962757465732E62696E504B0304140006080800CC70623B08DA0BD19000000041010000360000006662782F39464131463745442D413632322D343644302D413938
310
332D3331353338454246344243312F6469726563746F72792E786D6C858F410AC3201045AF22B36F53E9A60B35CBEEBAE80D244E44489C6234F4F835464A48035D0DF398FF9F8AF63D0E6CC63039F212F8F9020C7D47C6792B21C5FE7403D62A1188E2E60C98D7234A5830286103A55745067B9D86B8A3CF9C7F90C11DE607
310
FB144396D7B6A82D282E9A152AD114D5EF2CB866EEE831B8EEA07A7BB5A8D7D61A2BAAEB7FD5F70921FF497D00504B0304140006080800CC70623B0D6EF93BFE000000A00100003B0000006662782F39464131463745442D413632322D343644302D413938332D3331353338454246344243312F7265736F75726365732F63
310
6F72652E786D6C8D50596E833010BD0A9ADFCA60B334011947A8694ED00B586642AC041B79A97AFC9A40A5F6AF3F33A3B7689E1E3F7DCD8FEC139DD7D6F4C0720A191A65476DA61E62B892236427C19DB5E1970C322367EC618541F0C9D9B8EC90B226A009093576C41D94DE63804C3DD2D18357379C652E63480A7FCF17A9
310
EE72C29CE5894E3AC17D702940B63D59270887DE46A7D0F36263058F518FBB468FE9A7BE6A7420864373B8D4873369AA8691FA421B3294352543C5CAF65C0F6FEF43CB8BD52C78D0F34F46E550061C419494B6843142CB0F5677F4B52BEB177AEC28E5C52AFF638ACBF84F53D42654E51E77B379102C05791282176B5F693D
310
CB4C7BED567C03504B010214000A0000080000CC70623B3DEE336E79000000790000001B00000000000000000000000000000000006175746F6465736B2D64657369676E2D7061636B6167652E786D6C504B01021400140006080800CC70623BD486FD9CA0000000F40000001300000000000000000000000000B20000005B
310
436F6E74656E745F54797065735D2E786D6C504B01021400140006080800CC70623B1EC5D7A3EB0000007C010000080000000000000000000000000083010000636F72652E786D6C504B01021400140006080800CC70623B55019EA25F0000007C000000070000000000000000000000000094020000636E782E786D6C504B
310
01021400140006080800CC70623B8C9102E971010000D40300000C00000000000000000000000000180300006662782F636F72652E786D6C504B01021400140006080800CC70623BFFEA85907E0000009D0000000B00000000000000000000000000B30400006662782F636E782E786D6C504B01021400140006080800CC70
310
623B4FEEA4082C0100001202000031000000000000000000000000005A0500006662782F39464131463745442D413632322D343644302D413938332D3331353338454246344243312F636F72652E786D6C504B01021400140006080800CC70623BAD7543B64E010000330300003000000000000000000000000000D5060000
310
6662782F39464131463745442D413632322D343644302D413938332D3331353338454246344243312F636E782E786D6C504B01021400140006080800CC70623B16AB87BA640500003C1000003400000000000000000000000000710800006662782F39464131463745442D413632322D343644302D413938332D3331353338
310
454246344243312F6F626A656374732E786D6C504B01021400140006080000CC70623B0000000000000000000000003500000000000000000000000000270E00006662782F39464131463745442D413632322D343644302D413938332D3331353338454246344243312F76657274696365732E62696E504B01021400140006
310
080800CC70623BF270F133060000000400000036000000000000000000000000007A0E00006662782F39464131463745442D413632322D343644302D413938332D3331353338454246344243312F747269616E676C65732E62696E504B01021400140006080000CC70623B0000000000000000000000003700000000000000
310
000000000000D40E00006662782F39464131463745442D413632322D343644302D413938332D3331353338454246344243312F617474726962757465732E62696E504B01021400140006080800CC70623B08DA0BD190000000410100003600000000000000000000000000290F00006662782F39464131463745442D413632
310
322D343644302D413938332D3331353338454246344243312F6469726563746F72792E786D6C504B01021400140006080800CC70623B0D6EF93BFE000000A00100003B000000000000000000000000000D1000006662782F39464131463745442D413632322D343644302D413938332D3331353338454246344243312F7265
310
736F75726365732F636F72652E786D6C504B0506000000000E000E0080040000641100000000
  0
XRECORD
  5
1D3
102
{ACAD_REACTORS
330
1A
102
}
330
1A
100
AcDbXrecord
280
     1
102
MATERIAL
148
0.0
149
0.0
149
0.0
 93
        0
 94
       63
282
     0
 72
     1
 77
     1
171
     1
175
     1
179
     1
273
     0
  0
XRECORD
  5
1B
102
{ACAD_REACTORS
330
1A
102
}
330
1A
100
AcDbXrecord
280
     1
270
     1
271
     1
  0
XRECORD
  5
1C
102
{ACAD_REACTORS
330
1A
102
}
330
1A
100
AcDbXrecord
280
     1
270
     1
271
     1
  0
XRECORD
  5
1D
102
{ACAD_REACTORS
330
1A
102
}
330
1A
100
AcDbXrecord
280
     1
 70
     0
 90
1673772943
  1
ECE7A1D2-D628-4531-984C-D00F80459256
310
504B03040A0000080000CC70623B3DEE336E79000000790000001B0000006175746F6465736B2D64657369676E2D7061636B6167652E786D6C3C3F786D6C2076657273696F6E3D22312E302220656E636F64696E673D227574662D3822203F3E3C666F726D6174733E3C666F726D61743E687474703A2F2F736368656D612E
310
6175746F6465736B2E636F6D2F64657369676E2D7061636B6167652F323030393C2F666F726D61743E3C2F666F726D6174733E504B0304140006080800CC70623BD486FD9CA0000000F4000000130000005B436F6E74656E745F54797065735D2E786D6C7D8EC10E82300C865F65E91D8A1E8C310C0EEA1BF002731658846E
310
D98AC1B77784ABF1D8FE5FBFBF75BBCE937A534CCEB38643598122B6FEE978D0B0485F9C41B54DDD7D022595594E1A469170414C76A4D9A4D207E29CF43ECE46F218070CC6BECC4078ACAA135ACF422C856C0E68EA1BF5669944DDD7BCDE7B1F8E415D77AECB980613C2E4AC91FC167A2B244592486606FC29C8FD7F045B9A
310
EF7053A7E60B504B0304140006080800CC70623BD9DDAED0EC0000007C01000008000000636F72652E786D6C8D90416EC3201045AF82665B61836D9CD8C2444DD39CA01740405C94182C03558F5F9C3852BBEB6A467FFE9B197D7EF89E6EE8CB2CC17A37002D0820E394D7D68D03A478C17B4007C117EFE32F1B20272733C0
310
2A83E0E3E2D3BC49CABB685CCCAAF3DA6CA20CC14440EA969B0182FA34932C648AD911AEC52CD5558EA6A0CF2EC329598D1E47ACCEFBECC59A050463A7EA5833865FEBDD0E37353BE3EE8DBDE3F6786A48D375FBF6CC78B9C282473B3DEFABC5C86834888A900E538A49F5419B9EB47DD5BC907D4F082F57FB1F28CDFA9F50
310
B22ED6D5F6EE030B20687EE43E10BC5CB3C8E51E54AE6B6EE207504B0304140006080800CC70623B55019EA25F0000007C00000007000000636E782E786D6C4DCB3B0E80201045D1AD90E915ED2CF8AC45050C11660C8261F98AB1B07AC9C97D42D718D865D3E909258CFD00CCE24AC6E326A164D74DC0B4128928FF326038
310
472BA13128B1252AC747C6BAB984FC68F0B87FE8960A5C09FE86CFB69FBA01504B0304140006080800CC70623BA24EB22D72010000D40300000C0000006662782F636F72652E786D6CC5535B6E833010BC8AE5DF0A6C5E49888CA3A6694ED00B38E05014B091B1518EDFE511A5A9D228FD2A1F60CDEC7A67C6986DCE4D8D7A
310
69BA4AAB0C073EC548AA5C17952A33ECECD15B61B4E1CC686DBF9561A44423333CC098B3D268D7CE50AE9595CA02AA74216750749DB418E5352C32DCE59FB211BE70162ABA93DF8AFC244AE9073ED050C759670D0840D390E18DF9F1706664C23973AE2A66B62A605A75ACA4C13C4976E1364A12EF355A2EBD384AF65EFA96
310
BC7B8BED2EA6719AAE16FB8491A199335B351775B991C2CA02F390D2D40B028F861F41BCA68B7518BFD0D59A524686F29B26D7164F36B94AD9289CE54E6D1DE6010819891F6E21228B3AD1831EC219194284CF98F06DD01008846CC5A1BEF83801D4CBDC6A1303536877A57A513B0953A94FC707FDBE6064EA84A9E3E6E0FA
310
EE8CF0E9198F7784A316AA0413C2C2F2E0ECA0934D1AE6D05A69BCDE9E91D2A611F573361E38FC1375157F5752AE6B6DFE4B11990F88CCBF0719EE23FF02504B0304140006080800CC70623B408A7D3B7C0000009D0000000B0000006662782F636E782E786D6C4DCCD10A83201886E15B91FFDC552A92A0064DBC8F581632
310
D3703A76F9ABD1C18E3E78F878E5F0D9027ABBFCF2292AE86E2D20171F69F6715550CB827B40839639A5F2770314A7CD293819B45C73AAFB45B35BA61ACAA1C1C7E7855C58C15BC331339661262CC762340413D68D77DA5B42298546CBE6573AF60CEB2F504B0304140006080800CC70623B449FB9BD290100001202000031
310
0000006662782F36394639363044362D344446342D343946362D394244322D3234314243333846323333332F636F72652E786D6C8D515B6EC32010BC0AE22B55850D98B871848994463E412FE002495162B07854397EA176A4F62F3F2C9A9D991D587EB84F37F0AD7D30CEF6905418026DA553C65E7A98E219ED203808EE9D
310
8B7F6810D871D23D2C3014FCE25D9A57483A1BB58D19B54EE9151C43D0110279CB971E06F9A5A7B11A53CC8C70ADE6515EC78BAE4895DB992778883E0700CB907242D17643D7E2538BD869608875438BBAE38922CAC8F1BDD90DB4691A5E2F42C153326A951B95E398B3D1FE599322163C9AE9115F7A3D46ADA0A018778810
310
84E907617BDCEE297BC5BB3DC6BC2EF47FA234AB2745C9D8D8D035EE220B50105E2F0DC1954B9FB747187D9F9D8FA0CCDB042D5FA0C015C65B42DF78BD10F3F3B363CB56C7109DCFDFBBB97E662ED92EB62D13BC2E1BCAE5777DB9966D8A1F504B0304140006080800CC70623BAD7543B64E01000033030000300000006662
310
782F36394639363044362D344446342D343946362D394244322D3234314243333846323333332F636E782E786D6CD593CD6EC32010845F0571AD6CE3D48AD20813A9873E410FBD12D82434182C7EAAE6EDBB2424CD25871E7B41D6EC30B3FA84F9E67BB2E40B4234DE8DB46F1925E094D7C6ED479AD3AE5951B2113C789FEE
310
6C943839C1488B4C05DF079FE72A69D8C96C13AAD6B8631503449F83828872B949AC57D26200B826A308D316B4064D6E46FCDA41C05550DC9E483A00797BFD207EFB092A45DE9514C1BBD22178396BD39D891265658C238DEA00936C654E5E433CB65A26D9F6EDB5EBC14EBF49A45CB856E66048291F6939A9A81BB5C89177
310
38143CA680F4AA299D66A042CEB3354A2684DC9D8D178FE0D9B8B41CAAD720F880EE7EF93C0C18769E099ECC04D5A102C8049A8A05632F4DDF376CF1DE0F6BB65C2F8627B65A33C6BB62177CEBBDAD973006829F89F22E814B54F4BC2BE347F8AA8F681390B50FA73F804400B5F542E796F19FF974E7F78DB802FE05E20750
310
4B0304140006080800CC70623B8D05915C650500003B100000340000006662782F36394639363044362D344446342D343946362D394244322D3234314243333846323333332F6F626A656374732E786D6CAD575B6FA33814FE2B887D06429276DA1565D4266D158D3A339A6846FB502932E050B66023DB74D2FDF5FB190C01
310
9276B2973C046C8ECFF53B17071F77456EBD502133CEAE6CDF9DD81665314F32965ED995DA3A17B6F5310C04E7AA47665B8C14F4CAD6DB7618A48257A5D94AE89654B91AEDDEDDFC61C998326A5B714EA4BCB265FC440BE2924AF184CA6737218AB8E976E7FA6E4338649B0A523E8D98964450A6A029F619B8588D52FE7039
310
B1BD30F0F4F730D0FF866AF6369557DB33949F31A9088B0F848DD8CCFCF9F2767A76E99CCDE733677E3EF59D9BBB9BA5E37F984D16E78BC5E5F5ED25044B25C0C96822E8D60EEFE11B91C581D77CEA34368A1F5329E68CD1B8B61F16D63A1B8E092D294B10C78C4A48EB593D192E7DED9BDEE7995E1B91FDEDD3ACEA9FE831
310
6A756F9F7D4D79F4274C90A7A04248AA51D5F8C718DAE06FB2F75AC4796EBE65D22A88A22223B995679120E2D50E41AA49C260C046A35368846B0BECD0DFF3EBEB8AD4F835768F69B9ADF25C43D30E6B646F807FAA64AD59F61715C7A54127C4AACA98BA3006A9D792DAE165E0D59B61A01FB3A9F9D838D2DAE62445C86166
310
F37564E842E7DE6A69879FEEA2DD5AE7E371E1A5E025154AC307D06A03D73EB5978C58FFA4C8E9033066E0F3BD53BEC1F39F91BE7B55103791EDE6BBB991A2046172CB4581D8B893FA674DDA17A77B3B7C413D1B511FD2743BFF8A38F03A658705E3ADF8015C3A3417FF3D7E439FF591DA0B5F18BC20C1B8981957AE6392A3
310
F43C640C01D1A0B4728E2DD4F26DB4B3C3152A252A3B4E913CEC1C72F012782FF88EFF8637AA552DBEF76408E8A8DE9E50F9E1CB3A2DA0DB1B6039A893B56063DC5B3E3FFB5F72E67AB9FEB4AEC496C4F4C1149625DD662C53E89D7BF0F6151A046260D1337DFDC94502430F83B0EE07A130A224BCAD7DAE1D9FB6CD422FF6
310
920702629C4BB9AE79C12F243C6432A6794E18E5552BA56B431AAB5D91317302B2B071E86C3A42B1A02F999E24061403B5D0EB639195DA655DD3EBEAB4FB862DDF579F014AD0E73C22F99E28DA57FB98E75C6CA2D74D53086D600F4786E0FE3144B771A8A7B900F03594DB8A633CBC49B2EDB69228BB479CF863B5E807AAAB
310
23872F6DFEB4129B949CA33823F58830E86D65621E10047D9DB34D862E8EAC3C2ABC2F7B2C40D67CDFE01F5545B92105AF983AC54D93D69E56FB8E797F88913F898A9FEC705D3F9D1B54EC8426FB500D40A03BD0119B06E1B95DDC7EB8F6975367793EBD70E66733DFB9BC982F9CE564727731999F5D4ECFCE3B8D6A4DC2A0
310
6D50FD148437D110834A64C6CDDF57FBACB5C307A2A477DFE4939736CFEF2B175371E0E10CF0DD1D5C15654E0BCA14D1E87DD02FF93782A162C0A3D95F1524A52770F972BF1EE9809D13CE7DD599467F8ECE9ADD85CE85A34CD45355448C64F9E8A031DC2D596ACC6E5DD93D9B82DE2EF5CAF81363A8E47996A0DE24564A79
310
4115AACE09C55E14540231FDA13C319787134EBF34E3A022514E5B4D9E0826E25C02D5805B15ABE1BEF51B26383D445DD9E875EE33FE4C22DA16427D65A3BCA92CA6D28DD01DF5DC53330704308475351050232CCD31583787BA75774AFB06E5070DD0C8EF484E19968C5D83BA5B90B244D31E54D55A372320FE4786B7EA58
310
44E135AA5467CB7EA333A61683CC6A8C3257034C10CF46F40EF9F5BE59BE5BD30C3C72D235E95D10345C1D45445A5F0BB47E46A5EBE5570F9380B5FA629579952296A773720405982B9DE04011506178964401AA8BDF1FBF0A8EAB6861DD6580C0E38217056766716DAEB2D6FA0917D3E4116581EADB879C4E7CFFB11EFACD
310
3D641311495D92C8676CB409A72D18610D803CE8A626049E8EC1887CB5B44CC39883690DDA8399B4B9855B481E7D71D4A9D22F96E5BB73BF5793020C02137BF837504B0304140006080000CC70623B000000000000000000000000350000006662782F36394639363044362D344446342D343946362D394244322D32343142
310
43333846323333332F76657274696365732E62696E504B0304140006080800CC70623BF270F1330600000004000000360000006662782F36394639363044362D344446342D343946362D394244322D3234314243333846323333332F747269616E676C65732E62696E636660600000504B0304140006080000CC70623B0000
310
00000000000000000000370000006662782F36394639363044362D344446342D343946362D394244322D3234314243333846323333332F617474726962757465732E62696E504B0304140006080800CC70623B08DA0BD19000000041010000360000006662782F36394639363044362D344446342D343946362D394244322D
310
3234314243333846323333332F6469726563746F72792E786D6C858F410AC3201045AF22B36F53E9A60B35CBEEBAE80D244E44489C6234F4F835464A48035D0DF398FF9F8AF63D0E6CC63039F212F8F9020C7D47C6792B21C5FE7403D62A1188E2E60C98D7234A5830286103A55745067B9D86B8A3CF9C7F90C11DE607FB14
310
4396D7B6A82D282E9A152AD114D5EF2CB866EEE831B8EEA07A7BB5A8D7D61A2BAAEB7FD5F70921FF497D00504B0304140006080800CC70623BCA768048FE000000A00100003B0000006662782F36394639363044362D344446342D343946362D394244322D3234314243333846323333332F7265736F75726365732F636F72
310
652E786D6C8D50596E833010BD0A9ADFCA60D600328E9AA639412F609909B1126CE4A5EAF16B0295DABFFECC8CDEA2797AECF8353F924FB44E193D409E5248504B332A3D0D10FC95B4901C39B3C6F85F3248B49871801506CE266BC2B243D2688FDA47549B11775038871E12F988C7004EDE7016A9083E2ADC3D5D84BC8B09
310
D33C8D74D471E6BC8D0192EDC93A815B742658898E651BCB59086ADC356A8C3FD555A1055ED7E7E254D615792D0F075295F585746FF53B694EE78A565DD736979A65AB9933AFE69F8CD2A2F038022F28ED489E135A7CE4554F9BBEA85E68DB53CAB255FEC71496F19FA6A0B42F8B3DEE6673C0F318E4497096AD7DC5F52C33
310
EEB55BFE0D504B010214000A0000080000CC70623B3DEE336E79000000790000001B00000000000000000000000000000000006175746F6465736B2D64657369676E2D7061636B6167652E786D6C504B01021400140006080800CC70623BD486FD9CA0000000F40000001300000000000000000000000000B20000005B436F
310
6E74656E745F54797065735D2E786D6C504B01021400140006080800CC70623BD9DDAED0EC0000007C010000080000000000000000000000000083010000636F72652E786D6C504B01021400140006080800CC70623B55019EA25F0000007C000000070000000000000000000000000095020000636E782E786D6C504B0102
310
1400140006080800CC70623BA24EB22D72010000D40300000C00000000000000000000000000190300006662782F636F72652E786D6C504B01021400140006080800CC70623B408A7D3B7C0000009D0000000B00000000000000000000000000B50400006662782F636E782E786D6C504B01021400140006080800CC70623B
310
449FB9BD290100001202000031000000000000000000000000005A0500006662782F36394639363044362D344446342D343946362D394244322D3234314243333846323333332F636F72652E786D6C504B01021400140006080800CC70623BAD7543B64E010000330300003000000000000000000000000000D20600006662
310
782F36394639363044362D344446342D343946362D394244322D3234314243333846323333332F636E782E786D6C504B01021400140006080800CC70623B8D05915C650500003B10000034000000000000000000000000006E0800006662782F36394639363044362D344446342D343946362D394244322D32343142433338
310
46323333332F6F626A656374732E786D6C504B01021400140006080000CC70623B0000000000000000000000003500000000000000000000000000250E00006662782F36394639363044362D344446342D343946362D394244322D3234314243333846323333332F76657274696365732E62696E504B010214001400060808
310
00CC70623BF270F13306000000040000003600000000000000000000000000780E00006662782F36394639363044362D344446342D343946362D394244322D3234314243333846323333332F747269616E676C65732E62696E504B01021400140006080000CC70623B00000000000000000000000037000000000000000000
310
00000000D20E00006662782F36394639363044362D344446342D343946362D394244322D3234314243333846323333332F617474726962757465732E62696E504B01021400140006080800CC70623B08DA0BD190000000410100003600000000000000000000000000270F00006662782F36394639363044362D344446342D
310
343946362D394244322D3234314243333846323333332F6469726563746F72792E786D6C504B01021400140006080800CC70623BCA768048FE000000A00100003B000000000000000000000000000B1000006662782F36394639363044362D344446342D343946362D394244322D3234314243333846323333332F7265736F
310
75726365732F636F72652E786D6C504B0506000000000E000E0080040000621100000000
  0
XRECORD
  5
1E
102
{ACAD_REACTORS
330
1A
102
}
330
1A
100
AcDbXrecord
280
     1
270
     1
271
     1
  0
XRECORD
  5
1F
102
{ACAD_REACTORS
330
1A
102
}
330
1A
100
AcDbXrecord
280
     1
270
     1
271
     1
  0
XRECORD
  5
1EC
102
{ACAD_REACTORS
330
1EB
102
}
330
1EB
100
AcDbXrecord
280
     1
102
DISPLAYNAME
  1
Imperial24
102
FLAGS
 90
        0
  0
XRECORD
  5
1EE
102
{ACAD_REACTORS
330
1ED
102
}
330
1ED
100
AcDbXrecord
280
     1
102
DISPLAYNAME
  1
Metric50
102
FLAGS
 90
        0
  0
CELLSTYLEMAP
  5
1C0
102
{ACAD_REACTORS
330
56
102
}
330
56
100
AcDbCellStyleMap
 90
        3
300
CELLSTYLE
  1
TABLEFORMAT_BEGIN
 90
        5
170
     1
 91
        0
 92
    32768
 62
   257
 93
        1
300
CONTENTFORMAT
  1
CONTENTFORMAT_BEGIN
 90
        0
 91
        0
 92
      512
 93
        0
300

 40
0.0
140
1.0
 94
        5
 62
     0
340
26
144
6.0
309
CONTENTFORMAT_END
171
     1
301
MARGIN
  1
CELLMARGIN_BEGIN
 40
1.5
 40
1.5
 40
1.5
 40
1.5
 40
4.5
 40
4.5
309
CELLMARGIN_END
 94
        6
 95
        1
302
GRIDFORMAT
  1
GRIDFORMAT_BEGIN
 90
        0
 91
        1
 62
     0
 92
       -2
340
29
 93
        0
 40
1.125
309
GRIDFORMAT_END
 95
        2
302
GRIDFORMAT
  1
GRIDFORMAT_BEGIN
 90
        0
 91
        1
 62
     0
 92
       -2
340
29
 93
        0
 40
1.125
309
GRIDFORMAT_END
 95
        4
302
GRIDFORMAT
  1
GRIDFORMAT_BEGIN
 90
        0
 91
        1
 62
     0
 92
       -2
340
29
 93
        0
 40
1.125
309
GRIDFORMAT_END
 95
        8
302
GRIDFORMAT
  1
GRIDFORMAT_BEGIN
 90
        0
 91
        1
 62
     0
 92
       -2
340
29
 93
        0
 40
1.125
309
GRIDFORMAT_END
 95
       16
302
GRIDFORMAT
  1
GRIDFORMAT_BEGIN
 90
        0
 91
        1
 62
     0
 92
       -2
340
29
 93
        0
 40
1.125
309
GRIDFORMAT_END
 95
       32
302
GRIDFORMAT
  1
GRIDFORMAT_BEGIN
 90
        0
 91
        1
 62
     0
 92
       -2
340
29
 93
        0
 40
1.125
309
GRIDFORMAT_END
309
TABLEFORMAT_END
  1
CELLSTYLE_BEGIN
 90
        1
 91
        1
300
_TITLE
309
CELLSTYLE_END
300
CELLSTYLE
  1
TABLEFORMAT_BEGIN
 90
        5
170
     1
 91
        0
 92
        0
 62
   257
 93
        1
300
CONTENTFORMAT
  1
CONTENTFORMAT_BEGIN
 90
        0
 91
        0
 92
      512
 93
        0
300

 40
0.0
140
1.0
 94
        5
 62
     0
340
26
144
4.5
309
CONTENTFORMAT_END
171
     1
301
MARGIN
  1
CELLMARGIN_BEGIN
 40
1.5
 40
1.5
 40
1.5
 40
1.5
 40
4.5
 40
4.5
309
CELLMARGIN_END
 94
        6
 95
        1
302
GRIDFORMAT
  1
GRIDFORMAT_BEGIN
 90
        0
 91
        1
 62
     0
 92
       -2
340
29
 93
        0
 40
1.125
309
GRIDFORMAT_END
 95
        2
302
GRIDFORMAT
  1
GRIDFORMAT_BEGIN
 90
        0
 91
        1
 62
     0
 92
       -2
340
29
 93
        0
 40
1.125
309
GRIDFORMAT_END
 95
        4
302
GRIDFORMAT
  1
GRIDFORMAT_BEGIN
 90
        0
 91
        1
 62
     0
 92
       -2
340
29
 93
        0
 40
1.125
309
GRIDFORMAT_END
 95
        8
302
GRIDFORMAT
  1
GRIDFORMAT_BEGIN
 90
        0
 91
        1
 62
     0
 92
       -2
340
29
 93
        0
 40
1.125
309
GRIDFORMAT_END
 95
       16
302
GRIDFORMAT
  1
GRIDFORMAT_BEGIN
 90
        0
 91
        1
 62
     0
 92
       -2
340
29
 93
        0
 40
1.125
309
GRIDFORMAT_END
 95
       32
302
GRIDFORMAT
  1
GRIDFORMAT_BEGIN
 90
        0
 91
        1
 62
     0
 92
       -2
340
29
 93
        0
 40
1.125
309
GRIDFORMAT_END
309
TABLEFORMAT_END
  1
CELLSTYLE_BEGIN
 90
        2
 91
        1
300
_HEADER
309
CELLSTYLE_END
300
CELLSTYLE
  1
TABLEFORMAT_BEGIN
 90
        5
170
     1
 91
        0
 92
        0
 62
   257
 93
        1
300
CONTENTFORMAT
  1
CONTENTFORMAT_BEGIN
 90
        0
 91
        0
 92
      512
 93
        0
300

 40
0.0
140
1.0
 94
        2
 62
     0
340
26
144
4.5
309
CONTENTFORMAT_END
171
     1
301
MARGIN
  1
CELLMARGIN_BEGIN
 40
1.5
 40
1.5
 40
1.5
 40
1.5
 40
4.5
 40
4.5
309
CELLMARGIN_END
 94
        6
 95
        1
302
GRIDFORMAT
  1
GRIDFORMAT_BEGIN
 90
        0
 91
        1
 62
     0
 92
       -2
340
29
 93
        0
 40
1.125
309
GRIDFORMAT_END
 95
        2
302
GRIDFORMAT
  1
GRIDFORMAT_BEGIN
 90
        0
 91
        1
 62
     0
 92
       -2
340
29
 93
        0
 40
1.125
309
GRIDFORMAT_END
 95
        4
302
GRIDFORMAT
  1
GRIDFORMAT_BEGIN
 90
        0
 91
        1
 62
     0
 92
       -2
340
29
 93
        0
 40
1.125
309
GRIDFORMAT_END
 95
        8
302
GRIDFORMAT
  1
GRIDFORMAT_BEGIN
 90
        0
 91
        1
 62
     0
 92
       -2
340
29
 93
        0
 40
1.125
309
GRIDFORMAT_END
 95
       16
302
GRIDFORMAT
  1
GRIDFORMAT_BEGIN
 90
        0
 91
        1
 62
     0
 92
       -2
340
29
 93
        0
 40
1.125
309
GRIDFORMAT_END
 95
       32
302
GRIDFORMAT
  1
GRIDFORMAT_BEGIN
 90
        0
 91
        1
 62
     0
 92
       -2
340
29
 93
        0
 40
1.125
309
GRIDFORMAT_END
309
TABLEFORMAT_END
  1
CELLSTYLE_BEGIN
 90
        3
 91
        2
300
_DATA
309
CELLSTYLE_END
  0
XRECORD
  5
1DE
102
{ACAD_REACTORS
330
56
102
}
330
56
100
AcDbXrecord
280
     1
102
ACAD_ROUNDTRIP_PRE2007_TABLESTYLE
 90
      512
 91
        0
  1

 92
      512
 93
        0
  2

 94
      512
 95
        0
  3

  0
XRECORD
  5
1D5
102
{ACAD_REACTORS
330
1D4
102
}
330
1D4
100
AcDbXrecord
280
     1
102
RTVSPost2010Prop28
280
     1
102
RTVSPost2010PropOp28
 70
     1
102
RTVSPost2010Prop29
280
     1
102
RTVSPost2010PropOp29
 70
     1
102
RTVSPost2010Prop30
280
     0
102
RTVSPost2010PropOp30
 70
     1
102
RTVSPost2010Prop31
280
     0
102
RTVSPost2010PropOp31
 70
     1
102
RTVSPost2010Prop32
280
     0
102
RTVSPost2010PropOp32
 70
     1
102
RTVSPost2010Prop33
280
     0
102
RTVSPost2010PropOp33
 70
     1
102
RTVSPost2010Prop34
280
     0
102
RTVSPost2010PropOp34
 70
     1
102
RTVSPost2010Prop35
280
     0
102
RTVSPost2010PropOp35
 70
     1
102
RTVSPost2010Prop36
280
     0
102
RTVSPost2010PropOp36
 70
     1
102
RTVSPost2010Prop37
 90
       50
102
RTVSPost2010PropOp37
 70
     1
102
RTVSPost2010Prop38
140
0.0
102
RTVSPost2010PropOp38
 70
     1
102
RTVSPost2010Prop39
140
1.0
102
RTVSPost2010PropOp39
 70
     1
102
RTVSPost2010Prop40
 90
        0
102
RTVSPost2010PropOp40
 70
     1
102
RTVSPost2010Prop41ColorIndex
 90
       18
102
RTVSPost2010Prop41ColorRGB
 90
        0
102
RTVSPost2010PropOp41
 70
     1
102
RTVSPost2010Prop42
 90
       50
102
RTVSPost2010PropOp42
 70
     1
102
RTVSPost2010Prop43
 90
        3
102
RTVSPost2010PropOp43
 70
     1
102
RTVSPost2010Prop44ColorIndex
 90
        5
102
RTVSPost2010Prop44ColorRGB
 90
      255
102
RTVSPost2010PropOp44
 70
     1
102
RTVSPost2010Prop45
280
     0
102
RTVSPost2010PropOp45
 70
     1
102
RTVSPost2010Prop46
 90
       50
102
RTVSPost2010PropOp46
 70
     1
102
RTVSPost2010Prop47
 90
       50
102
RTVSPost2010PropOp47
 70
     1
102
RTVSPost2010Prop48
 90
       50
102
RTVSPost2010PropOp48
 70
     1
102
RTVSPost2010Prop49
280
     0
102
RTVSPost2010PropOp49
 70
     1
102
RTVSPost2010Prop50
 90
       50
102
RTVSPost2010PropOp50
 70
     1
102
RTVSPost2010Prop51ColorIndex
 90
      256
102
RTVSPost2010Prop51ColorRGB
 90
-16777216
102
RTVSPost2010PropOp51
 70
     0
102
RTVSPost2010Prop52
140
1.0
102
RTVSPost2010PropOp52
 70
     0
102
RTVSPost2010Prop53
 90
        2
102
RTVSPost2010PropOp53
 70
     1
102
RTVSPost2010Prop54
  1
strokes_ogs.tif
102
RTVSPost2010PropOp54
 70
     1
102
RTVSPost2010Prop55
280
     0
102
RTVSPost2010PropOp55
 70
     1
102
RTVSPost2010Prop56
140
1.0
102
RTVSPost2010PropOp56
 70
     1
102
RTVSPost2010Prop57
140
1.0
102
RTVSPost2010PropOp57
 70
     1
102
RTVSPropertyOp0
 70
     1
102
RTVSPropertyOp1
 70
     1
102
RTVSPropertyOp2
 70
     1
102
RTVSPropertyOp3
 70
     1
102
RTVSPropertyOp4
 70
     1
102
RTVSPropertyOp5
 70
     1
102
RTVSPropertyOp6
 70
     1
102
RTVSPropertyOp7
 70
     1
102
RTVSPropertyOp8
 70
     1
102
RTVSPropertyOp9
 70
     1
102
RTVSPropertyOp10
 70
     1
102
RTVSPropertyOp11
 70
     1
102
RTVSPropertyOp12
 70
     1
102
RTVSPropertyOp13
 70
     1
102
RTVSPropertyOp14
 70
     1
102
RTVSPropertyOp15
 70
     1
102
RTVSPropertyOp16
 70
     1
102
RTVSPropertyOp17
 70
     1
102
RTVSPropertyOp18
 70
     1
102
RTVSPropertyOp19
 70
     1
102
RTVSPropertyOp20
 70
     1
102
RTVSPropertyOp21
 70
     1
102
RTVSPropertyOp22
 70
     1
102
RTVSPropertyOp23
 70
     1
102
RTVSPropertyOp24
 70
     1
102
RTVSPropertyOp25
 70
     1
102
RTVSPropertyOp26
 70
     1
102
RTVSPropertyOp27
 70
     1
102
RTVSPropertyOp28
 70
     1
102
RTVSPropertyOp29
 70
     1
102
RTVSPropertyOp30
 70
     1
102
RTVSPropertyOp31
 70
     1
102
RTVSPropertyOp32
 70
     1
102
RTVSPropertyOp33
 70
     1
102
RTVSPropertyOp34
 70
     1
102
RTVSPropertyOp35
 70
     1
102
RTVSPropertyOp36
 70
     1
102
RTVSPropertyOp37
 70
     1
102
RTVSPropertyOp38
 70
     1
102
RTVSPropertyOp39
 70
     1
102
RTVSPropertyOp40
 70
     1
102
RTVSPropertyOp41
 70
     1
102
RTVSPropertyOp42
 70
     1
102
RTVSPropertyOp43
 70
     1
102
RTVSPropertyOp44
 70
     1
102
RTVSPropertyOp45
 70
     1
102
RTVSPropertyOp46
 70
     1
102
RTVSPropertyOp47
 70
     1
102
RTVSPropertyOp48
 70
     1
102
RTVSPropertyOp49
 70
     1
102
RTVSPropertyOp50
 70
     1
102
RTVSPropertyOp51
 70
     0
102
RTVSPropertyOp52
 70
     0
102
RTVSPropertyOp53
 70
     1
102
RTVSPropertyOp54
 70
     1
102
RTVSPropertyOp55
 70
     1
102
RTVSPropertyOp56
 70
     1
102
RTVSPropertyOp57
 70
     1
102
RTVSPropertyOp58
 70
     1
102
RTVSPropertyOp59
 70
     1
102
RTVSPropertyOp60
 70
     1
102
RTVSPropertyOp61
 70
     1
102
RTVSPropertyOp62
 70
     1
  0
XRECORD
  5
1E4
102
{ACAD_REACTORS
330
1E3
102
}
330
1E3
100
AcDbXrecord
280
     1
102
RTVSPost2010Prop28
280
     0
102
RTVSPost2010PropOp28
 70
     1
102
RTVSPost2010Prop29
280
     1
102
RTVSPost2010PropOp29
 70
     1
102
RTVSPost2010Prop30
280
     1
102
RTVSPost2010PropOp30
 70
     1
102
RTVSPost2010Prop31
280
     0
102
RTVSPost2010PropOp31
 70
     1
102
RTVSPost2010Prop32
280
     0
102
RTVSPost2010PropOp32
 70
     1
102
RTVSPost2010Prop33
280
     0
102
RTVSPost2010PropOp33
 70
     1
102
RTVSPost2010Prop34
280
     0
102
RTVSPost2010PropOp34
 70
     1
102
RTVSPost2010Prop35
280
     0
102
RTVSPost2010PropOp35
 70
     1
102
RTVSPost2010Prop36
280
     0
102
RTVSPost2010PropOp36
 70
     1
102
RTVSPost2010Prop37
 90
       50
102
RTVSPost2010PropOp37
 70
     1
102
RTVSPost2010Prop38
140
0.0
102
RTVSPost2010PropOp38
 70
     1
102
RTVSPost2010Prop39
140
1.0
102
RTVSPost2010PropOp39
 70
     1
102
RTVSPost2010Prop40
 90
        0
102
RTVSPost2010PropOp40
 70
     1
102
RTVSPost2010Prop41ColorIndex
 90
       18
102
RTVSPost2010Prop41ColorRGB
 90
        0
102
RTVSPost2010PropOp41
 70
     1
102
RTVSPost2010Prop42
 90
       50
102
RTVSPost2010PropOp42
 70
     1
102
RTVSPost2010Prop43
 90
        3
102
RTVSPost2010PropOp43
 70
     1
102
RTVSPost2010Prop44ColorIndex
 90
        5
102
RTVSPost2010Prop44ColorRGB
 90
      255
102
RTVSPost2010PropOp44
 70
     1
102
RTVSPost2010Prop45
280
     0
102
RTVSPost2010PropOp45
 70
     1
102
RTVSPost2010Prop46
 90
       50
102
RTVSPost2010PropOp46
 70
     1
102
RTVSPost2010Prop47
 90
       50
102
RTVSPost2010PropOp47
 70
     1
102
RTVSPost2010Prop48
 90
       50
102
RTVSPost2010PropOp48
 70
     1
102
RTVSPost2010Prop49
280
     0
102
RTVSPost2010PropOp49
 70
     1
102
RTVSPost2010Prop50
 90
       50
102
RTVSPost2010PropOp50
 70
     1
102
RTVSPost2010Prop51ColorIndex
 90
      256
102
RTVSPost2010Prop51ColorRGB
 90
-16777216
102
RTVSPost2010PropOp51
 70
     0
102
RTVSPost2010Prop52
140
1.0
102
RTVSPost2010PropOp52
 70
     0
102
RTVSPost2010Prop53
 90
        2
102
RTVSPost2010PropOp53
 70
     1
102
RTVSPost2010Prop54
  1
strokes_ogs.tif
102
RTVSPost2010PropOp54
 70
     1
102
RTVSPost2010Prop55
280
     0
102
RTVSPost2010PropOp55
 70
     1
102
RTVSPost2010Prop56
140
1.0
102
RTVSPost2010PropOp56
 70
     1
102
RTVSPost2010Prop57
140
1.0
102
RTVSPost2010PropOp57
 70
     1
102
RTVSPropertyOp0
 70
     0
102
RTVSPropertyOp1
 70
     0
102
RTVSPropertyOp2
 70
     0
102
RTVSPropertyOp3
 70
     0
102
RTVSPropertyOp4
 70
     0
102
RTVSPropertyOp5
 70
     0
102
RTVSPropertyOp6
 70
     0
102
RTVSPropertyOp7
 70
     0
102
RTVSPropertyOp8
 70
     0
102
RTVSPropertyOp9
 70
     0
102
RTVSPropertyOp10
 70
     0
102
RTVSPropertyOp11
 70
     0
102
RTVSPropertyOp12
 70
     0
102
RTVSPropertyOp13
 70
     0
102
RTVSPropertyOp14
 70
     2
102
RTVSPropertyOp15
 70
     0
102
RTVSPropertyOp16
 70
     0
102
RTVSPropertyOp17
 70
     0
102
RTVSPropertyOp18
 70
     0
102
RTVSPropertyOp19
 70
     0
102
RTVSPropertyOp20
 70
     0
102
RTVSPropertyOp21
 70
     0
102
RTVSPropertyOp22
 70
     0
102
RTVSPropertyOp23
 70
     0
102
RTVSPropertyOp24
 70
     0
102
RTVSPropertyOp25
 70
     0
102
RTVSPropertyOp26
 70
     0
102
RTVSPropertyOp27
 70
     0
102
RTVSPropertyOp28
 70
     1
102
RTVSPropertyOp29
 70
     1
102
RTVSPropertyOp30
 70
     1
102
RTVSPropertyOp31
 70
     1
102
RTVSPropertyOp32
 70
     1
102
RTVSPropertyOp33
 70
     1
102
RTVSPropertyOp34
 70
     1
102
RTVSPropertyOp35
 70
     1
102
RTVSPropertyOp36
 70
     1
102
RTVSPropertyOp37
 70
     1
102
RTVSPropertyOp38
 70
     1
102
RTVSPropertyOp39
 70
     1
102
RTVSPropertyOp40
 70
     1
102
RTVSPropertyOp41
 70
     1
102
RTVSPropertyOp42
 70
     1
102
RTVSPropertyOp43
 70
     1
102
RTVSPropertyOp44
 70
     1
102
RTVSPropertyOp45
 70
     1
102
RTVSPropertyOp46
 70
     1
102
RTVSPropertyOp47
 70
     1
102
RTVSPropertyOp48
 70
     1
102
RTVSPropertyOp49
 70
     1
102
RTVSPropertyOp50
 70
     1
102
RTVSPropertyOp51
 70
     0
102
RTVSPropertyOp52
 70
     0
102
RTVSPropertyOp53
 70
     1
102
RTVSPropertyOp54
 70
     1
102
RTVSPropertyOp55
 70
     1
102
RTVSPropertyOp56
 70
     1
102
RTVSPropertyOp57
 70
     1
102
RTVSPropertyOp58
 70
     1
102
RTVSPropertyOp59
 70
     1
102
RTVSPropertyOp60
 70
     1
102
RTVSPropertyOp61
 70
     1
102
RTVSPropertyOp62
 70
     1
  0
XRECORD
  5
1E0
102
{ACAD_REACTORS
330
1DF
102
}
330
1DF
100
AcDbXrecord
280
     1
102
RTVSPost2010Prop28
280
     0
102
RTVSPost2010PropOp28
 70
     1
102
RTVSPost2010Prop29
280
     1
102
RTVSPost2010PropOp29
 70
     1
102
RTVSPost2010Prop30
280
     1
102
RTVSPost2010PropOp30
 70
     1
102
RTVSPost2010Prop31
280
     0
102
RTVSPost2010PropOp31
 70
     1
102
RTVSPost2010Prop32
280
     0
102
RTVSPost2010PropOp32
 70
     1
102
RTVSPost2010Prop33
280
     0
102
RTVSPost2010PropOp33
 70
     1
102
RTVSPost2010Prop34
280
     0
102
RTVSPost2010PropOp34
 70
     1
102
RTVSPost2010Prop35
280
     0
102
RTVSPost2010PropOp35
 70
     1
102
RTVSPost2010Prop36
280
     0
102
RTVSPost2010PropOp36
 70
     1
102
RTVSPost2010Prop37
 90
       50
102
RTVSPost2010PropOp37
 70
     1
102
RTVSPost2010Prop38
140
0.0
102
RTVSPost2010PropOp38
 70
     1
102
RTVSPost2010Prop39
140
1.0
102
RTVSPost2010PropOp39
 70
     1
102
RTVSPost2010Prop40
 90
        0
102
RTVSPost2010PropOp40
 70
     1
102
RTVSPost2010Prop41ColorIndex
 90
       18
102
RTVSPost2010Prop41ColorRGB
 90
        0
102
RTVSPost2010PropOp41
 70
     1
102
RTVSPost2010Prop42
 90
       50
102
RTVSPost2010PropOp42
 70
     1
102
RTVSPost2010Prop43
 90
        3
102
RTVSPost2010PropOp43
 70
     1
102
RTVSPost2010Prop44ColorIndex
 90
        5
102
RTVSPost2010Prop44ColorRGB
 90
      255
102
RTVSPost2010PropOp44
 70
     1
102
RTVSPost2010Prop45
280
     0
102
RTVSPost2010PropOp45
 70
     1
102
RTVSPost2010Prop46
 90
       50
102
RTVSPost2010PropOp46
 70
     1
102
RTVSPost2010Prop47
 90
       50
102
RTVSPost2010PropOp47
 70
     1
102
RTVSPost2010Prop48
 90
       50
102
RTVSPost2010PropOp48
 70
     1
102
RTVSPost2010Prop49
280
     0
102
RTVSPost2010PropOp49
 70
     1
102
RTVSPost2010Prop50
 90
       50
102
RTVSPost2010PropOp50
 70
     1
102
RTVSPost2010Prop51ColorIndex
 90
      256
102
RTVSPost2010Prop51ColorRGB
 90
-16777216
102
RTVSPost2010PropOp51
 70
     0
102
RTVSPost2010Prop52
140
1.0
102
RTVSPost2010PropOp52
 70
     0
102
RTVSPost2010Prop53
 90
        2
102
RTVSPost2010PropOp53
 70
     1
102
RTVSPost2010Prop54
  1
strokes_ogs.tif
102
RTVSPost2010PropOp54
 70
     1
102
RTVSPost2010Prop55
280
     0
102
RTVSPost2010PropOp55
 70
     1
102
RTVSPost2010Prop56
140
1.0
102
RTVSPost2010PropOp56
 70
     1
102
RTVSPost2010Prop57
140
1.0
102
RTVSPost2010PropOp57
 70
     1
102
RTVSPropertyOp0
 70
     1
102
RTVSPropertyOp1
 70
     1
102
RTVSPropertyOp2
 70
     1
102
RTVSPropertyOp3
 70
     1
102
RTVSPropertyOp4
 70
     1
102
RTVSPropertyOp5
 70
     1
102
RTVSPropertyOp6
 70
     1
102
RTVSPropertyOp7
 70
     1
102
RTVSPropertyOp8
 70
     1
102
RTVSPropertyOp9
 70
     1
102
RTVSPropertyOp10
 70
     1
102
RTVSPropertyOp11
 70
     1
102
RTVSPropertyOp12
 70
     1
102
RTVSPropertyOp13
 70
     1
102
RTVSPropertyOp14
 70
     1
102
RTVSPropertyOp15
 70
     1
102
RTVSPropertyOp16
 70
     1
102
RTVSPropertyOp17
 70
     1
102
RTVSPropertyOp18
 70
     1
102
RTVSPropertyOp19
 70
     1
102
RTVSPropertyOp20
 70
     1
102
RTVSPropertyOp21
 70
     1
102
RTVSPropertyOp22
 70
     1
102
RTVSPropertyOp23
 70
     1
102
RTVSPropertyOp24
 70
     1
102
RTVSPropertyOp25
 70
     1
102
RTVSPropertyOp26
 70
     1
102
RTVSPropertyOp27
 70
     1
102
RTVSPropertyOp28
 70
     1
102
RTVSPropertyOp29
 70
     1
102
RTVSPropertyOp30
 70
     1
102
RTVSPropertyOp31
 70
     1
102
RTVSPropertyOp32
 70
     1
102
RTVSPropertyOp33
 70
     1
102
RTVSPropertyOp34
 70
     1
102
RTVSPropertyOp35
 70
     1
102
RTVSPropertyOp36
 70
     1
102
RTVSPropertyOp37
 70
     1
102
RTVSPropertyOp38
 70
     1
102
RTVSPropertyOp39
 70
     1
102
RTVSPropertyOp40
 70
     1
102
RTVSPropertyOp41
 70
     1
102
RTVSPropertyOp42
 70
     1
102
RTVSPropertyOp43
 70
     1
102
RTVSPropertyOp44
 70
     1
102
RTVSPropertyOp45
 70
     1
102
RTVSPropertyOp46
 70
     1
102
RTVSPropertyOp47
 70
     1
102
RTVSPropertyOp48
 70
     1
102
RTVSPropertyOp49
 70
     1
102
RTVSPropertyOp50
 70
     1
102
RTVSPropertyOp51
 70
     0
102
RTVSPropertyOp52
 70
     0
102
RTVSPropertyOp53
 70
     1
102
RTVSPropertyOp54
 70
     1
102
RTVSPropertyOp55
 70
     1
102
RTVSPropertyOp56
 70
     1
102
RTVSPropertyOp57
 70
     1
102
RTVSPropertyOp58
 70
     1
102
RTVSPropertyOp59
 70
     1
102
RTVSPropertyOp60
 70
     1
102
RTVSPropertyOp61
 70
     1
102
RTVSPropertyOp62
 70
     1
  0
XRECORD
  5
1E2
102
{ACAD_REACTORS
330
1E1
102
}
330
1E1
100
AcDbXrecord
280
     1
102
RTVSPost2010Prop28
280
     0
102
RTVSPost2010PropOp28
 70
     1
102
RTVSPost2010Prop29
280
     1
102
RTVSPost2010PropOp29
 70
     1
102
RTVSPost2010Prop30
280
     1
102
RTVSPost2010PropOp30
 70
     1
102
RTVSPost2010Prop31
280
     0
102
RTVSPost2010PropOp31
 70
     1
102
RTVSPost2010Prop32
280
     0
102
RTVSPost2010PropOp32
 70
     1
102
RTVSPost2010Prop33
280
     0
102
RTVSPost2010PropOp33
 70
     1
102
RTVSPost2010Prop34
280
     0
102
RTVSPost2010PropOp34
 70
     1
102
RTVSPost2010Prop35
280
     0
102
RTVSPost2010PropOp35
 70
     1
102
RTVSPost2010Prop36
280
     0
102
RTVSPost2010PropOp36
 70
     1
102
RTVSPost2010Prop37
 90
       50
102
RTVSPost2010PropOp37
 70
     1
102
RTVSPost2010Prop38
140
0.0
102
RTVSPost2010PropOp38
 70
     1
102
RTVSPost2010Prop39
140
1.0
102
RTVSPost2010PropOp39
 70
     1
102
RTVSPost2010Prop40
 90
        0
102
RTVSPost2010PropOp40
 70
     1
102
RTVSPost2010Prop41ColorIndex
 90
       18
102
RTVSPost2010Prop41ColorRGB
 90
        0
102
RTVSPost2010PropOp41
 70
     1
102
RTVSPost2010Prop42
 90
       50
102
RTVSPost2010PropOp42
 70
     1
102
RTVSPost2010Prop43
 90
        3
102
RTVSPost2010PropOp43
 70
     1
102
RTVSPost2010Prop44ColorIndex
 90
        5
102
RTVSPost2010Prop44ColorRGB
 90
      255
102
RTVSPost2010PropOp44
 70
     1
102
RTVSPost2010Prop45
280
     0
102
RTVSPost2010PropOp45
 70
     1
102
RTVSPost2010Prop46
 90
       50
102
RTVSPost2010PropOp46
 70
     1
102
RTVSPost2010Prop47
 90
       50
102
RTVSPost2010PropOp47
 70
     1
102
RTVSPost2010Prop48
 90
       50
102
RTVSPost2010PropOp48
 70
     1
102
RTVSPost2010Prop49
280
     0
102
RTVSPost2010PropOp49
 70
     1
102
RTVSPost2010Prop50
 90
       50
102
RTVSPost2010PropOp50
 70
     1
102
RTVSPost2010Prop51ColorIndex
 90
      256
102
RTVSPost2010Prop51ColorRGB
 90
-16777216
102
RTVSPost2010PropOp51
 70
     0
102
RTVSPost2010Prop52
140
1.0
102
RTVSPost2010PropOp52
 70
     0
102
RTVSPost2010Prop53
 90
        2
102
RTVSPost2010PropOp53
 70
     1
102
RTVSPost2010Prop54
  1
strokes_ogs.tif
102
RTVSPost2010PropOp54
 70
     1
102
RTVSPost2010Prop55
280
     0
102
RTVSPost2010PropOp55
 70
     1
102
RTVSPost2010Prop56
140
1.0
102
RTVSPost2010PropOp56
 70
     1
102
RTVSPost2010Prop57
140
1.0
102
RTVSPost2010PropOp57
 70
     1
102
RTVSPropertyOp0
 70
     1
102
RTVSPropertyOp1
 70
     1
102
RTVSPropertyOp2
 70
     1
102
RTVSPropertyOp3
 70
     1
102
RTVSPropertyOp4
 70
     1
102
RTVSPropertyOp5
 70
     1
102
RTVSPropertyOp6
 70
     1
102
RTVSPropertyOp7
 70
     1
102
RTVSPropertyOp8
 70
     1
102
RTVSPropertyOp9
 70
     1
102
RTVSPropertyOp10
 70
     1
102
RTVSPropertyOp11
 70
     1
102
RTVSPropertyOp12
 70
     1
102
RTVSPropertyOp13
 70
     1
102
RTVSPropertyOp14
 70
     1
102
RTVSPropertyOp15
 70
     1
102
RTVSPropertyOp16
 70
     1
102
RTVSPropertyOp17
 70
     1
102
RTVSPropertyOp18
 70
     1
102
RTVSPropertyOp19
 70
     1
102
RTVSPropertyOp20
 70
     1
102
RTVSPropertyOp21
 70
     1
102
RTVSPropertyOp22
 70
     1
102
RTVSPropertyOp23
 70
     1
102
RTVSPropertyOp24
 70
     1
102
RTVSPropertyOp25
 70
     1
102
RTVSPropertyOp26
 70
     1
102
RTVSPropertyOp27
 70
     1
102
RTVSPropertyOp28
 70
     1
102
RTVSPropertyOp29
 70
     1
102
RTVSPropertyOp30
 70
     1
102
RTVSPropertyOp31
 70
     1
102
RTVSPropertyOp32
 70
     1
102
RTVSPropertyOp33
 70
     1
102
RTVSPropertyOp34
 70
     1
102
RTVSPropertyOp35
 70
     1
102
RTVSPropertyOp36
 70
     1
102
RTVSPropertyOp37
 70
     1
102
RTVSPropertyOp38
 70
     1
102
RTVSPropertyOp39
 70
     1
102
RTVSPropertyOp40
 70
     1
102
RTVSPropertyOp41
 70
     1
102
RTVSPropertyOp42
 70
     1
102
RTVSPropertyOp43
 70
     1
102
RTVSPropertyOp44
 70
     1
102
RTVSPropertyOp45
 70
     1
102
RTVSPropertyOp46
 70
     1
102
RTVSPropertyOp47
 70
     1
102
RTVSPropertyOp48
 70
     1
102
RTVSPropertyOp49
 70
     1
102
RTVSPropertyOp50
 70
     1
102
RTVSPropertyOp51
 70
     0
102
RTVSPropertyOp52
 70
     0
102
RTVSPropertyOp53
 70
     1
102
RTVSPropertyOp54
 70
     1
102
RTVSPropertyOp55
 70
     1
102
RTVSPropertyOp56
 70
     1
102
RTVSPropertyOp57
 70
     1
102
RTVSPropertyOp58
 70
     1
102
RTVSPropertyOp59
 70
     1
102
RTVSPropertyOp60
 70
     1
102
RTVSPropertyOp61
 70
     1
102
RTVSPropertyOp62
 70
     1
  0
ENDSEC
  0
EOF
